  0
SECTION
  2
HEADER
  9
$ACADVER
  1
AC1015
  9
$ACADMAINTVER
 70
     6
  9
$DWGCODEPAGE
  3
ANSI_932
  9
$INSBASE
 10
0.0
 20
0.0
 30
0.0
  9
$EXTMIN
 10
-663.5652295960735
 20
91.95877673716902
 30
0.0
  9
$EXTMAX
 10
-217.0904011789971
 20
395.0943033528826
 30
0.0
  9
$LIMMIN
 10
0.0
 20
0.0
  9
$LIMMAX
 10
420.0
 20
297.0
  9
$ORTHOMODE
 70
     1
  9
$REGENMODE
 70
     1
  9
$FILLMODE
 70
     1
  9
$QTEXTMODE
 70
     0
  9
$MIRRTEXT
 70
     1
  9
$LTSCALE
 40
0.2
  9
$ATTMODE
 70
     1
  9
$TEXTSIZE
 40
2.5
  9
$TRACEWID
 40
1.0
  9
$TEXTSTYLE
  7
STYLE1
  9
$CLAYER
  8
画層1
  9
$CELTYPE
  6
BYLAYER
  9
$CECOLOR
 62
     1
  9
$CELTSCALE
 40
1.0
  9
$DISPSILH
 70
     0
  9
$DIMSCALE
 40
1.0
  9
$DIMASZ
 40
1.5
  9
$DIMEXO
 40
0.63
  9
$DIMDLI
 40
3.75
  9
$DIMRND
 40
0.0
  9
$DIMDLE
 40
0.0
  9
$DIMEXE
 40
1.25
  9
$DIMTP
 40
0.6
  9
$DIMTM
 40
0.0
  9
$DIMTXT
 40
50.0
  9
$DIMCEN
 40
2.5
  9
$DIMTSZ
 40
0.0
  9
$DIMTOL
 70
     0
  9
$DIMLIM
 70
     0
  9
$DIMTIH
 70
     0
  9
$DIMTOH
 70
     0
  9
$DIMSE1
 70
     0
  9
$DIMSE2
 70
     0
  9
$DIMTAD
 70
     1
  9
$DIMZIN
 70
     8
  9
$DIMBLK
  1
OPEN30
  9
$DIMASO
 70
     1
  9
$DIMSHO
 70
     1
  9
$DIMPOST
  1

  9
$DIMAPOST
  1

  9
$DIMALT
 70
     0
  9
$DIMALTD
 70
     4
  9
$DIMALTF
 40
0.04
  9
$DIMLFAC
 40
1.0
  9
$DIMTOFL
 70
     1
  9
$DIMTVP
 40
0.0
  9
$DIMTIX
 70
     0
  9
$DIMSOXD
 70
     0
  9
$DIMSAH
 70
     0
  9
$DIMBLK1
  1

  9
$DIMBLK2
  1

  9
$DIMSTYLE
  2
STANDARD_WS
  9
$DIMCLRD
 70
     0
  9
$DIMCLRE
 70
     0
  9
$DIMCLRT
 70
     0
  9
$DIMTFAC
 40
0.5
  9
$DIMGAP
 40
1.0
  9
$DIMJUST
 70
     0
  9
$DIMSD1
 70
     0
  9
$DIMSD2
 70
     0
  9
$DIMTOLJ
 70
     1
  9
$DIMTZIN
 70
     8
  9
$DIMALTZ
 70
     0
  9
$DIMALTTZ
 70
     0
  9
$DIMUPT
 70
     0
  9
$DIMDEC
 70
     0
  9
$DIMTDEC
 70
     0
  9
$DIMALTU
 70
     8
  9
$DIMALTTD
 70
     4
  9
$DIMTXSTY
  7
STANDARD
  9
$DIMAUNIT
 70
     0
  9
$DIMADEC
 70
     0
  9
$DIMALTRND
 40
0.0
  9
$DIMAZIN
 70
     0
  9
$DIMDSEP
 70
    46
  9
$DIMATFIT
 70
     3
  9
$DIMFRAC
 70
     0
  9
$DIMLDRBLK
  1
OPEN30
  9
$DIMLUNIT
 70
     2
  9
$DIMLWD
 70
    -2
  9
$DIMLWE
 70
    -2
  9
$DIMTMOVE
 70
     0
  9
$LUNITS
 70
     2
  9
$LUPREC
 70
     4
  9
$SKETCHINC
 40
1.0
  9
$FILLETRAD
 40
2.0
  9
$AUNITS
 70
     0
  9
$AUPREC
 70
     0
  9
$MENU
  1
acad
  9
$ELEVATION
 40
0.0
  9
$PELEVATION
 40
0.0
  9
$THICKNESS
 40
0.0
  9
$LIMCHECK
 70
     0
  9
$CHAMFERA
 40
10.0
  9
$CHAMFERB
 40
10.0
  9
$CHAMFERC
 40
20.0
  9
$CHAMFERD
 40
0.0
  9
$SKPOLY
 70
     0
  9
$TDCREATE
 40
2450995.462150231
  9
$TDUCREATE
 40
2450995.087150231
  9
$TDUPDATE
 40
2454216.660196759
  9
$TDUUPDATE
 40
2454216.285196759
  9
$TDINDWG
 40
4.9625187616
  9
$TDUSRTIMER
 40
4.9625149421
  9
$USRTIMER
 70
     1
  9
$ANGBASE
 50
0.0
  9
$ANGDIR
 70
     0
  9
$PDMODE
 70
     0
  9
$PDSIZE
 40
0.0
  9
$PLINEWID
 40
10.0
  9
$SPLFRAME
 70
     0
  9
$SPLINETYPE
 70
     6
  9
$SPLINESEGS
 70
     8
  9
$HANDSEED
  5
17CC
  9
$SURFTAB1
 70
     6
  9
$SURFTAB2
 70
     6
  9
$SURFTYPE
 70
     6
  9
$SURFU
 70
     6
  9
$SURFV
 70
     6
  9
$UCSBASE
  2

  9
$UCSNAME
  2

  9
$UCSORG
 10
0.0
 20
0.0
 30
0.0
  9
$UCSXDIR
 10
1.0
 20
0.0
 30
0.0
  9
$UCSYDIR
 10
0.0
 20
1.0
 30
0.0
  9
$UCSORTHOREF
  2

  9
$UCSORTHOVIEW
 70
     0
  9
$UCSORGTOP
 10
0.0
 20
0.0
 30
0.0
  9
$UCSORGBOTTOM
 10
0.0
 20
0.0
 30
0.0
  9
$UCSORGLEFT
 10
0.0
 20
0.0
 30
0.0
  9
$UCSORGRIGHT
 10
0.0
 20
0.0
 30
0.0
  9
$UCSORGFRONT
 10
0.0
 20
0.0
 30
0.0
  9
$UCSORGBACK
 10
0.0
 20
0.0
 30
0.0
  9
$PUCSBASE
  2

  9
$PUCSNAME
  2

  9
$PUCSORG
 10
0.0
 20
0.0
 30
0.0
  9
$PUCSXDIR
 10
1.0
 20
0.0
 30
0.0
  9
$PUCSYDIR
 10
0.0
 20
1.0
 30
0.0
  9
$PUCSORTHOREF
  2

  9
$PUCSORTHOVIEW
 70
     0
  9
$PUCSORGTOP
 10
0.0
 20
0.0
 30
0.0
  9
$PUCSORGBOTTOM
 10
0.0
 20
0.0
 30
0.0
  9
$PUCSORGLEFT
 10
0.0
 20
0.0
 30
0.0
  9
$PUCSORGRIGHT
 10
0.0
 20
0.0
 30
0.0
  9
$PUCSORGFRONT
 10
0.0
 20
0.0
 30
0.0
  9
$PUCSORGBACK
 10
0.0
 20
0.0
 30
0.0
  9
$USERI1
 70
     0
  9
$USERI2
 70
     0
  9
$USERI3
 70
     0
  9
$USERI4
 70
     0
  9
$USERI5
 70
     0
  9
$USERR1
 40
0.0
  9
$USERR2
 40
0.0
  9
$USERR3
 40
0.0
  9
$USERR4
 40
0.0
  9
$USERR5
 40
0.0
  9
$WORLDVIEW
 70
     1
  9
$SHADEDGE
 70
     3
  9
$SHADEDIF
 70
    70
  9
$TILEMODE
 70
     1
  9
$MAXACTVP
 70
    48
  9
$PINSBASE
 10
0.0
 20
0.0
 30
0.0
  9
$PLIMCHECK
 70
     0
  9
$PEXTMIN
 10
1.000000000000000E+20
 20
1.000000000000000E+20
 30
1.000000000000000E+20
  9
$PEXTMAX
 10
-1.000000000000000E+20
 20
-1.000000000000000E+20
 30
-1.000000000000000E+20
  9
$PLIMMIN
 10
0.0
 20
0.0
  9
$PLIMMAX
 10
420.0
 20
297.0
  9
$UNITMODE
 70
     0
  9
$VISRETAIN
 70
     1
  9
$PLINEGEN
 70
     0
  9
$PSLTSCALE
 70
     1
  9
$TREEDEPTH
 70
  3020
  9
$CMLSTYLE
  2
STANDARD
  9
$CMLJUST
 70
     0
  9
$CMLSCALE
 40
20.0
  9
$PROXYGRAPHICS
 70
     1
  9
$MEASUREMENT
 70
     1
  9
$CELWEIGHT
370
    20
  9
$ENDCAPS
280
     0
  9
$JOINSTYLE
280
     0
  9
$LWDISPLAY
290
     0
  9
$INSUNITS
 70
     0
  9
$HYPERLINKBASE
  1

  9
$STYLESHEET
  1

  9
$XEDIT
290
     1
  9
$CEPSNTYPE
380
     0
  9
$PSTYLEMODE
290
     1
  9
$FINGERPRINTGUID
  2
{12426522-B208-11D3-A790-004026173390}
  9
$VERSIONGUID
  2
{EB89E1CE-C50D-4549-8EB2-BE11AF50548D}
  9
$EXTNAMES
290
     1
  9
$PSVPSCALE
 40
0.0
  9
$OLESTARTUP
290
     0
  0
ENDSEC
  0
SECTION
  2
CLASSES
  0
CLASS
  1
DICTIONARYVAR
  2
AcDbDictionaryVar
  3
AutoCAD 2000
 90
        0
280
     0
281
     0
  0
CLASS
  1
LWPOLYLINE
  2
AcDbPolyline
  3
AutoCAD 2000
 90
    32768
280
     0
281
     1
  0
CLASS
  1
OLE2FRAME
  2
AcDbOle2Frame
  3
AutoCAD 2000
 90
    32768
280
     0
281
     1
  0
CLASS
  1
HATCH
  2
AcDbHatch
  3
AutoCAD 2000
 90
    32768
280
     0
281
     1
  0
CLASS
  1
ACDBDICTIONARYWDFLT
  2
AcDbDictionaryWithDefault
  3
AutoCAD 2000
 90
        0
280
     0
281
     0
  0
CLASS
  1
ACDBPLACEHOLDER
  2
AcDbPlaceHolder
  3
AutoCAD 2000
 90
        0
280
     0
281
     0
  0
CLASS
  1
LAYOUT
  2
AcDbLayout
  3
AutoCAD 2000
 90
        0
280
     0
281
     0
  0
CLASS
  1
LONG_TRANSACTION
  2
AcDbLongTransaction
  3
AutoCAD 2000
 90
    32768
280
     0
281
     0
  0
CLASS
  1
LWPOLYLINE
  2
AcDbPolyline
  3
AutoCAD 2000
 90
    32768
280
     0
281
     1
  0
CLASS
  1
HATCH
  2
AcDbHatch
  3
AutoCAD 2000
 90
    32768
280
     0
281
     1
  0
CLASS
  1
XRECORD
  2
AcDbXrecord
  3
AutoCAD 2000
 90
    32768
280
     0
281
     0
  0
CLASS
  1
LONG_TRANSACTION
  2
AcDbLongTransaction
  3
AutoCAD 2000
 90
    32768
280
     0
281
     0
  0
CLASS
  1
LWPOLYLINE
  2
AcDbPolyline
  3
AutoCAD 2000
 90
    32768
280
     0
281
     1
  0
CLASS
  1
HATCH
  2
AcDbHatch
  3
AutoCAD 2000
 90
    32768
280
     0
281
     1
  0
CLASS
  1
XRECORD
  2
AcDbXrecord
  3
AutoCAD 2000
 90
    32768
280
     0
281
     0
  0
CLASS
  1
LONG_TRANSACTION
  2
AcDbLongTransaction
  3
AutoCAD 2000
 90
    32768
280
     0
281
     0
  0
CLASS
  1
LWPOLYLINE
  2
AcDbPolyline
  3
AutoCAD 2000
 90
    32768
280
     0
281
     1
  0
CLASS
  1
HATCH
  2
AcDbHatch
  3
AutoCAD 2000
 90
    32768
280
     0
281
     1
  0
CLASS
  1
XRECORD
  2
AcDbXrecord
  3
AutoCAD 2000
 90
    32768
280
     0
281
     0
  0
CLASS
  1
LONG_TRANSACTION
  2
AcDbLongTransaction
  3
AutoCAD 2000
 90
    32768
280
     0
281
     0
  0
CLASS
  1
LWPOLYLINE
  2
AcDbPolyline
  3
AutoCAD 2000
 90
    32768
280
     0
281
     1
  0
CLASS
  1
HATCH
  2
AcDbHatch
  3
AutoCAD 2000
 90
    32768
280
     0
281
     1
  0
CLASS
  1
XRECORD
  2
AcDbXrecord
  3
AutoCAD 2000
 90
    32768
280
     0
281
     0
  0
CLASS
  1
LONG_TRANSACTION
  2
AcDbLongTransaction
  3
AutoCAD 2000
 90
    32768
280
     0
281
     0
  0
CLASS
  1
LWPOLYLINE
  2
AcDbPolyline
  3
AutoCAD 2000
 90
    32768
280
     0
281
     1
  0
CLASS
  1
HATCH
  2
AcDbHatch
  3
AutoCAD 2000
 90
    32768
280
     0
281
     1
  0
CLASS
  1
XRECORD
  2
AcDbXrecord
  3
AutoCAD 2000
 90
    32768
280
     0
281
     0
  0
CLASS
  1
LONG_TRANSACTION
  2
AcDbLongTransaction
  3
AutoCAD 2000
 90
    32768
280
     0
281
     0
  0
CLASS
  1
LWPOLYLINE
  2
AcDbPolyline
  3
AutoCAD 2000
 90
    32768
280
     0
281
     1
  0
CLASS
  1
HATCH
  2
AcDbHatch
  3
AutoCAD 2000
 90
    32768
280
     0
281
     1
  0
CLASS
  1
XRECORD
  2
AcDbXrecord
  3
AutoCAD 2000
 90
    32768
280
     0
281
     0
  0
CLASS
  1
LONG_TRANSACTION
  2
AcDbLongTransaction
  3
AutoCAD 2000
 90
    32768
280
     0
281
     0
  0
CLASS
  1
LWPOLYLINE
  2
AcDbPolyline
  3
AutoCAD 2000
 90
    32768
280
     0
281
     1
  0
CLASS
  1
HATCH
  2
AcDbHatch
  3
AutoCAD 2000
 90
    32768
280
     0
281
     1
  0
CLASS
  1
XRECORD
  2
AcDbXrecord
  3
AutoCAD 2000
 90
    32768
280
     0
281
     0
  0
CLASS
  1
LONG_TRANSACTION
  2
AcDbLongTransaction
  3
AutoCAD 2000
 90
    32768
280
     0
281
     0
  0
CLASS
  1
LWPOLYLINE
  2
AcDbPolyline
  3
AutoCAD 2000
 90
    32768
280
     0
281
     1
  0
CLASS
  1
HATCH
  2
AcDbHatch
  3
AutoCAD 2000
 90
    32768
280
     0
281
     1
  0
CLASS
  1
XRECORD
  2
AcDbXrecord
  3
AutoCAD 2000
 90
    32768
280
     0
281
     0
  0
CLASS
  1
LONG_TRANSACTION
  2
AcDbLongTransaction
  3
AutoCAD 2000
 90
    32768
280
     0
281
     0
  0
CLASS
  1
LWPOLYLINE
  2
AcDbPolyline
  3
AutoCAD 2000
 90
    32768
280
     0
281
     1
  0
CLASS
  1
HATCH
  2
AcDbHatch
  3
AutoCAD 2000
 90
    32768
280
     0
281
     1
  0
CLASS
  1
XRECORD
  2
AcDbXrecord
  3
AutoCAD 2000
 90
    32768
280
     0
281
     0
  0
CLASS
  1
LONG_TRANSACTION
  2
AcDbLongTransaction
  3
AutoCAD 2000
 90
    32768
280
     0
281
     0
  0
CLASS
  1
LWPOLYLINE
  2
AcDbPolyline
  3
AutoCAD 2000
 90
    32768
280
     0
281
     1
  0
CLASS
  1
HATCH
  2
AcDbHatch
  3
AutoCAD 2000
 90
    32768
280
     0
281
     1
  0
CLASS
  1
XRECORD
  2
AcDbXrecord
  3
AutoCAD 2000
 90
    32768
280
     0
281
     0
  0
ENDSEC
  0
SECTION
  2
TABLES
  0
TABLE
  2
VPORT
  5
1E
330
0
100
AcDbSymbolTable
 70
     3
  0
VPORT
  5
17CB
330
1E
100
AcDbSymbolTableRecord
100
AcDbViewportTableRecord
  2
*Active
 70
     0
 10
0.0
 20
0.0
 11
1.0
 21
1.0
 12
-406.6228557024741
 22
242.5479639420899
 13
0.0
 23
0.0
 14
1.0
 24
1.0
 15
2.0
 25
2.0
 16
0.0
 26
0.0
 36
1.0
 17
0.0
 27
0.0
 37
0.0
 40
382.4980190419574
 41
1.750922509225092
 42
50.0
 43
0.0
 44
0.0
 50
0.0
 51
0.0
 71
     0
 72
   100
 73
     1
 74
     1
 75
     0
 76
     0
 77
     0
 78
     0
281
     0
 65
     1
110
0.0
120
0.0
130
0.0
111
1.0
121
0.0
131
0.0
112
0.0
122
1.0
132
0.0
 79
     0
146
0.0
  0
ENDTAB
  0
TABLE
  2
LTYPE
  5
19
330
0
100
AcDbSymbolTable
 70
     3
  0
LTYPE
  5
1A
330
19
100
AcDbSymbolTableRecord
100
AcDbLinetypeTableRecord
  2
BYBLOCK
 70
     0
  3

 72
    65
 73
     0
 40
0.0
  0
LTYPE
  5
1B
330
19
100
AcDbSymbolTableRecord
100
AcDbLinetypeTableRecord
  2
BYLAYER
 70
     0
  3

 72
    65
 73
     0
 40
0.0
  0
LTYPE
  5
A
330
19
100
AcDbSymbolTableRecord
100
AcDbLinetypeTableRecord
  2
CONTINUOUS
 70
     0
  3
Solid line
 72
    65
 73
     0
 40
0.0
  0
LTYPE
  5
68
330
19
100
AcDbSymbolTableRecord
100
AcDbLinetypeTableRecord
  2
DASHED2
 70
     0
  3
Dashed (.5x) _ _ _ _ _ _ _ _ _ _ _ _ _ _ _ _ _
 72
    65
 73
     2
 40
9.529999999999999
 49
6.349999999999998
 74
     0
 49
-3.18
 74
     0
  0
LTYPE
  5
76
330
19
100
AcDbSymbolTableRecord
100
AcDbLinetypeTableRecord
  2
CENTER
 70
     0
  3
Center ____ _ ____ _ ____ _ ____ _ ____ _ ____
 72
    65
 73
     4
 40
50.8
 49
31.75
 74
     0
 49
-6.349999999999998
 74
     0
 49
6.349999999999998
 74
     0
 49
-6.349999999999998
 74
     0
  0
ENDTAB
  0
TABLE
  2
LAYER
  5
14
330
0
100
AcDbSymbolTable
 70
     3
  0
LAYER
  5
6
330
14
100
AcDbSymbolTableRecord
100
AcDbLayerTableRecord
  2
0
 70
     0
 62
     7
  6
CONTINUOUS
370
    -3
390
7
  0
LAYER
  5
3F
330
14
100
AcDbSymbolTableRecord
100
AcDbLayerTableRecord
  2
DEFPOINTS
 70
     0
 62
     7
  6
CONTINUOUS
290
     0
370
    -3
390
7
  0
LAYER
  5
26
330
14
100
AcDbSymbolTableRecord
100
AcDbLayerTableRecord
  2
画層1
 70
     0
 62
     7
  6
CONTINUOUS
370
    -3
390
7
  0
ENDTAB
  0
TABLE
  2
STYLE
  5
15
330
0
100
AcDbSymbolTable
 70
     2
  0
STYLE
  5
16
330
15
100
AcDbSymbolTableRecord
100
AcDbTextStyleTableRecord
  2
STANDARD
 70
     0
 40
2.5
 41
1.0
 50
0.0
 71
     0
 42
1.5
  3
MS PMincho.ttf
  4

1001
ACAD
1000
MS PMincho
1071
    32786
  0
STYLE
  5
27
330
15
100
AcDbSymbolTableRecord
100
AcDbTextStyleTableRecord
  2
STYLE1
 70
     0
 40
2.5
 41
1.0
 50
0.0
 71
     0
 42
2.5
  3
MS Gothic.ttf
  4

1001
ACAD
1000
MS Gothic
1071
    32817
  0
ENDTAB
  0
TABLE
  2
VIEW
  5
1C
330
0
100
AcDbSymbolTable
 70
     0
  0
ENDTAB
  0
TABLE
  2
UCS
  5
1D
330
0
100
AcDbSymbolTable
 70
     0
  0
ENDTAB
  0
TABLE
  2
APPID
  5
20
330
0
100
AcDbSymbolTable
 70
     1
  0
APPID
  5
17
330
20
100
AcDbSymbolTableRecord
100
AcDbRegAppTableRecord
  2
ACAD
 70
     0
  0
ENDTAB
  0
TABLE
  2
DIMSTYLE
  5
21
330
0
100
AcDbSymbolTable
 70
     1
100
AcDbDimStyleTable
 71
     1
340
35
  0
DIMSTYLE
105
35
102
{ACAD_REACTORS
330
168E
330
16A4
330
16BA
330
16C8
330
16D7
330
16E5
330
16F5
330
1702
330
171E
330
172B
330
1738
330
1711
102
}
330
21
100
AcDbSymbolTableRecord
100
AcDbDimStyleTableRecord
  2
STANDARD_WS
 70
     0
 41
1.5
 42
0.63
 43
3.75
 44
1.25
 73
     0
 74
     0
 77
     1
 78
     8
140
2.5
141
2.5
143
0.04
147
0.63
171
     4
172
     1
173
     1
273
     8
274
     4
340
16
341
2E
343
2E
344
2E
  0
ENDTAB
  0
TABLE
  2
BLOCK_RECORD
  5
1
330
0
100
AcDbSymbolTable
 70
    15
  0
BLOCK_RECORD
  5
2
102
{ACAD_XDICTIONARY
360
3
102
}
330
1
100
AcDbSymbolTableRecord
100
AcDbBlockTableRecord
  2
*MODEL_SPACE
340
560
  0
BLOCK_RECORD
  5
E
102
{ACAD_XDICTIONARY
360
F
102
}
330
1
100
AcDbSymbolTableRecord
100
AcDbBlockTableRecord
  2
*PAPER_SPACE
340
561
  0
BLOCK_RECORD
  5
2E
330
1
100
AcDbSymbolTableRecord
100
AcDbBlockTableRecord
  2
_OPEN
340
0
  0
BLOCK_RECORD
  5
28
330
1
100
AcDbSymbolTableRecord
100
AcDbBlockTableRecord
  2
_OPEN30
340
0
102
{BLKREFS
331
1693
331
1694
331
169E
331
169F
331
16A9
331
16AA
331
16B4
331
16B5
331
16BF
331
16C0
331
16CD
331
16CE
331
16DC
331
16DD
331
16EA
331
16EB
331
16FA
331
16FB
331
1707
331
1708
331
1716
331
1717
331
1723
331
1724
331
1730
331
1731
331
173D
331
173E
331
1748
331
1749
331
1752
331
1753
102
}
  0
BLOCK_RECORD
  5
121
330
1
100
AcDbSymbolTableRecord
100
AcDbBlockTableRecord
  2
_DOTSMALL
340
0
  0
BLOCK_RECORD
  5
168F
330
1
100
AcDbSymbolTableRecord
100
AcDbBlockTableRecord
  2
*D3
340
0
  0
BLOCK_RECORD
  5
16A5
330
1
100
AcDbSymbolTableRecord
100
AcDbBlockTableRecord
  2
*D4
340
0
  0
BLOCK_RECORD
  5
16BB
330
1
100
AcDbSymbolTableRecord
100
AcDbBlockTableRecord
  2
*D5
340
0
  0
BLOCK_RECORD
  5
16C9
330
1
100
AcDbSymbolTableRecord
100
AcDbBlockTableRecord
  2
*D6
340
0
  0
BLOCK_RECORD
  5
16D8
330
1
100
AcDbSymbolTableRecord
100
AcDbBlockTableRecord
  2
*D7
340
0
  0
BLOCK_RECORD
  5
16E6
330
1
100
AcDbSymbolTableRecord
100
AcDbBlockTableRecord
  2
*D8
340
0
  0
BLOCK_RECORD
  5
16F6
330
1
100
AcDbSymbolTableRecord
100
AcDbBlockTableRecord
  2
*D9
340
0
  0
BLOCK_RECORD
  5
1703
330
1
100
AcDbSymbolTableRecord
100
AcDbBlockTableRecord
  2
*D10
340
0
  0
BLOCK_RECORD
  5
1712
330
1
100
AcDbSymbolTableRecord
100
AcDbBlockTableRecord
  2
*D11
340
0
  0
BLOCK_RECORD
  5
171F
330
1
100
AcDbSymbolTableRecord
100
AcDbBlockTableRecord
  2
*D12
340
0
  0
BLOCK_RECORD
  5
172C
330
1
100
AcDbSymbolTableRecord
100
AcDbBlockTableRecord
  2
*D13
340
0
  0
BLOCK_RECORD
  5
1739
330
1
100
AcDbSymbolTableRecord
100
AcDbBlockTableRecord
  2
*D14
340
0
  0
ENDTAB
  0
ENDSEC
  0
SECTION
  2
BLOCKS
  0
BLOCK
  5
5
330
2
100
AcDbEntity
  8
0
100
AcDbBlockBegin
  2
*MODEL_SPACE
 70
     0
 10
0.0
 20
0.0
 30
0.0
  3
*MODEL_SPACE
  1

  0
ENDBLK
  5
B
330
2
100
AcDbEntity
  8
0
100
AcDbBlockEnd
  0
BLOCK
  5
11
330
E
100
AcDbEntity
 67
     1
  8
0
100
AcDbBlockBegin
  2
*PAPER_SPACE
 70
     0
 10
0.0
 20
0.0
 30
0.0
  3
*PAPER_SPACE
  1

  0
ENDBLK
  5
12
330
E
100
AcDbEntity
 67
     1
  8
0
100
AcDbBlockEnd
  0
BLOCK
  5
32
330
2E
100
AcDbEntity
  8
0
100
AcDbBlockBegin
  2
_OPEN
 70
     0
 10
0.0
 20
0.0
 30
0.0
  3
_OPEN
  1

  0
LINE
  5
2F
330
2E
100
AcDbEntity
  8
0
  6
ByBlock
 62
     0
100
AcDbLine
 10
-1.0
 20
0.17
 30
0.0
 11
0.0
 21
0.0
 31
0.0
  0
LINE
  5
30
330
2E
100
AcDbEntity
  8
0
  6
ByBlock
 62
     0
100
AcDbLine
 10
0.0
 20
0.0
 30
0.0
 11
-1.0
 21
-0.17
 31
0.0
  0
LINE
  5
31
330
2E
100
AcDbEntity
  8
0
  6
ByBlock
 62
     0
100
AcDbLine
 10
0.0
 20
0.0
 30
0.0
 11
-1.0
 21
0.0
 31
0.0
  0
ENDBLK
  5
33
330
2E
100
AcDbEntity
  8
0
100
AcDbBlockEnd
  0
BLOCK
  5
2C
330
28
100
AcDbEntity
  8
0
100
AcDbBlockBegin
  2
_OPEN30
 70
     0
 10
0.0
 20
0.0
 30
0.0
  3
_OPEN30
  1

  0
LINE
  5
29
330
28
100
AcDbEntity
  8
0
  6
ByBlock
 62
     0
100
AcDbLine
 10
-1.0
 20
0.27
 30
0.0
 11
0.0
 21
0.0
 31
0.0
  0
LINE
  5
2A
330
28
100
AcDbEntity
  8
0
  6
ByBlock
 62
     0
100
AcDbLine
 10
0.0
 20
0.0
 30
0.0
 11
-1.0
 21
-0.27
 31
0.0
  0
LINE
  5
2B
330
28
100
AcDbEntity
  8
0
  6
ByBlock
 62
     0
100
AcDbLine
 10
0.0
 20
0.0
 30
0.0
 11
-1.0
 21
0.0
 31
0.0
  0
ENDBLK
  5
2D
330
28
100
AcDbEntity
  8
0
100
AcDbBlockEnd
  0
BLOCK
  5
123
330
121
100
AcDbEntity
  8
0
 62
     1
100
AcDbBlockBegin
  2
_DOTSMALL
 70
     0
 10
0.0
 20
0.0
 30
0.0
  3
_DOTSMALL
  1

  0
LWPOLYLINE
  5
122
330
121
100
AcDbEntity
  8
画層1
 62
     0
100
AcDbPolyline
 90
        2
 70
     1
 43
0.5
 10
-0.06
 20
0.0
 42
1.0
 10
0.06
 20
0.0
 42
1.0
  0
ENDBLK
  5
124
330
121
100
AcDbEntity
  8
0
 62
     1
100
AcDbBlockEnd
  0
BLOCK
  5
1699
330
168F
100
AcDbEntity
  8
0
 62
     1
370
    20
100
AcDbBlockBegin
  2
*D3
 70
     1
 10
0.0
 20
0.0
 30
0.0
  3
*D3
  1

  0
LINE
  5
169B
330
168F
100
AcDbEntity
  8
画層1
 62
     0
370
    -2
100
AcDbLine
 10
-635.5652295960734
 20
317.0887767371689
 30
0.0
 11
-635.5652295960734
 21
379.0304188438675
 31
0.0
  0
LINE
  5
169C
330
168F
100
AcDbEntity
  8
画層1
 62
     0
370
    -2
100
AcDbLine
 10
-513.5652295960737
 20
317.0887767371689
 30
0.0
 11
-513.5652295960737
 21
379.0304188438675
 31
0.0
  0
LINE
  5
169D
330
168F
100
AcDbEntity
  8
画層1
 62
     0
370
    -2
100
AcDbLine
 10
-634.0652295960734
 20
377.7804188438675
 30
0.0
 11
-515.0652295960736
 21
377.7804188438675
 31
0.0
  0
INSERT
  5
169E
330
168F
100
AcDbEntity
  8
画層1
 62
     0
370
    -2
100
AcDbBlockReference
  2
_OPEN30
 10
-635.5652295960734
 20
377.7804188438675
 30
0.0
 41
1.5
 42
1.5
 43
1.5
 50
180.0
  0
INSERT
  5
169F
330
168F
100
AcDbEntity
  8
画層1
 62
     0
370
    -2
100
AcDbBlockReference
  2
_OPEN30
 10
-513.5652295960737
 20
377.7804188438675
 30
0.0
 41
1.5
 42
1.5
 43
1.5
  0
MTEXT
  5
16A0
330
168F
100
AcDbEntity
  8
画層1
 62
     0
370
    20
100
AcDbMText
 10
-574.5652295960735
 20
380.0304188438675
 30
0.0
 40
2.5
 41
0.0
 71
     5
 72
     1
  1
\A1;122
 73
     1
 44
1.0
  0
POINT
  5
16A1
330
168F
100
AcDbEntity
  8
DEFPOINTS
 62
     0
370
    20
100
AcDbPoint
 10
-635.5652295960734
 20
316.4587767371689
 30
0.0
  0
POINT
  5
16A2
330
168F
100
AcDbEntity
  8
DEFPOINTS
 62
     0
370
    20
100
AcDbPoint
 10
-513.5652295960737
 20
316.4587767371689
 30
0.0
  0
POINT
  5
16A3
330
168F
100
AcDbEntity
  8
DEFPOINTS
 62
     0
370
    20
100
AcDbPoint
 10
-513.5652295960737
 20
377.7804188438675
 30
0.0
  0
ENDBLK
  5
169A
330
168F
100
AcDbEntity
  8
0
 62
     1
370
    20
100
AcDbBlockEnd
  0
BLOCK
  5
16AF
330
16A5
100
AcDbEntity
  8
0
 62
     1
370
    20
100
AcDbBlockBegin
  2
*D4
 70
     1
 10
0.0
 20
0.0
 30
0.0
  3
*D4
  1

  0
LINE
  5
16B1
330
16A5
100
AcDbEntity
  8
画層1
 62
     0
370
    -2
100
AcDbLine
 10
-514.5652295960736
 20
317.0887767371689
 30
0.0
 11
-514.5652295960736
 21
365.3622390117778
 31
0.0
  0
LINE
  5
16B2
330
16A5
100
AcDbEntity
  8
画層1
 62
     0
370
    -2
100
AcDbLine
 10
-637.5652295960734
 20
317.0887767371689
 30
0.0
 11
-637.5652295960734
 21
365.3622390117778
 31
0.0
  0
LINE
  5
16B3
330
16A5
100
AcDbEntity
  8
画層1
 62
     0
370
    -2
100
AcDbLine
 10
-516.0652295960736
 20
364.1122390117777
 30
0.0
 11
-636.0652295960734
 21
364.1122390117777
 31
0.0
  0
INSERT
  5
16B4
330
16A5
100
AcDbEntity
  8
画層1
 62
     0
370
    -2
100
AcDbBlockReference
  2
_OPEN30
 10
-514.5652295960736
 20
364.1122390117777
 30
0.0
 41
1.5
 42
1.5
 43
1.5
  0
INSERT
  5
16B5
330
16A5
100
AcDbEntity
  8
画層1
 62
     0
370
    -2
100
AcDbBlockReference
  2
_OPEN30
 10
-637.5652295960734
 20
364.1122390117777
 30
0.0
 41
1.5
 42
1.5
 43
1.5
 50
180.0
  0
MTEXT
  5
16B6
330
16A5
100
AcDbEntity
  8
画層1
 62
     0
370
    20
100
AcDbMText
 10
-576.0652295960735
 20
366.3622390117777
 30
0.0
 40
2.5
 41
0.0
 71
     5
 72
     1
  1
\A1;123
 73
     1
 44
1.0
  0
POINT
  5
16B7
330
16A5
100
AcDbEntity
  8
DEFPOINTS
 62
     0
370
    20
100
AcDbPoint
 10
-514.5652295960736
 20
316.4587767371689
 30
0.0
  0
POINT
  5
16B8
330
16A5
100
AcDbEntity
  8
DEFPOINTS
 62
     0
370
    20
100
AcDbPoint
 10
-637.5652295960734
 20
316.4587767371689
 30
0.0
  0
POINT
  5
16B9
330
16A5
100
AcDbEntity
  8
DEFPOINTS
 62
     0
370
    20
100
AcDbPoint
 10
-637.5652295960734
 20
364.1122390117777
 30
0.0
  0
ENDBLK
  5
16B0
330
16A5
100
AcDbEntity
  8
0
 62
     1
370
    20
100
AcDbBlockEnd
  0
BLOCK
  5
16C5
330
16BB
100
AcDbEntity
  8
0
 62
     1
370
    20
100
AcDbBlockBegin
  2
*D5
 70
     1
 10
0.0
 20
0.0
 30
0.0
  3
*D5
  1

  0
LINE
  5
16BC
330
16BB
100
AcDbEntity
  8
画層1
 62
     0
370
    -2
100
AcDbLine
 10
-513.5652295960737
 20
317.0887767371689
 30
0.0
 11
-513.5652295960737
 21
391.3130246504964
 31
0.0
  0
LINE
  5
16BD
330
16BB
100
AcDbEntity
  8
画層1
 62
     0
370
    -2
100
AcDbLine
 10
-637.5652295960734
 20
317.0887767371689
 30
0.0
 11
-637.5652295960734
 21
391.3130246504964
 31
0.0
  0
LINE
  5
16BE
330
16BB
100
AcDbEntity
  8
画層1
 62
     0
370
    -2
100
AcDbLine
 10
-515.0652295960736
 20
390.0630246504964
 30
0.0
 11
-636.0652295960734
 21
390.0630246504964
 31
0.0
  0
INSERT
  5
16BF
330
16BB
100
AcDbEntity
  8
画層1
 62
     0
370
    -2
100
AcDbBlockReference
  2
_OPEN30
 10
-513.5652295960737
 20
390.0630246504964
 30
0.0
 41
1.5
 42
1.5
 43
1.5
  0
INSERT
  5
16C0
330
16BB
100
AcDbEntity
  8
画層1
 62
     0
370
    -2
100
AcDbBlockReference
  2
_OPEN30
 10
-637.5652295960734
 20
390.0630246504964
 30
0.0
 41
1.5
 42
1.5
 43
1.5
 50
180.0
  0
MTEXT
  5
16C1
330
16BB
100
AcDbEntity
  8
画層1
 62
     0
370
    20
100
AcDbMText
 10
-575.5652295960735
 20
392.3130246504964
 30
0.0
 40
2.5
 41
0.0
 71
     5
 72
     1
  1
\A1;124
 73
     1
 44
1.0
  0
POINT
  5
16C2
330
16BB
100
AcDbEntity
  8
DEFPOINTS
 62
     0
370
    20
100
AcDbPoint
 10
-513.5652295960737
 20
316.4587767371689
 30
0.0
  0
POINT
  5
16C3
330
16BB
100
AcDbEntity
  8
DEFPOINTS
 62
     0
370
    20
100
AcDbPoint
 10
-637.5652295960734
 20
316.4587767371689
 30
0.0
  0
POINT
  5
16C4
330
16BB
100
AcDbEntity
  8
DEFPOINTS
 62
     0
370
    20
100
AcDbPoint
 10
-637.5652295960734
 20
390.0630246504964
 30
0.0
  0
ENDBLK
  5
16C6
330
16BB
100
AcDbEntity
  8
0
 62
     1
370
    20
100
AcDbBlockEnd
  0
BLOCK
  5
16D3
330
16C9
100
AcDbEntity
  8
0
 62
     1
370
    20
100
AcDbBlockBegin
  2
*D6
 70
     1
 10
0.0
 20
0.0
 30
0.0
  3
*D6
  1

  0
LINE
  5
16CA
330
16C9
100
AcDbEntity
  8
画層1
 62
     0
370
    -2
100
AcDbLine
 10
-610.5652295960735
 20
354.5887767371689
 30
0.0
 11
-610.5652295960735
 21
379.9063483735307
 31
0.0
  0
LINE
  5
16CB
330
16C9
100
AcDbEntity
  8
画層1
 62
     0
370
    -2
100
AcDbLine
 10
-540.5652295960735
 20
354.5887767371689
 30
0.0
 11
-540.5652295960735
 21
379.9063483735307
 31
0.0
  0
LINE
  5
16CC
330
16C9
100
AcDbEntity
  8
画層1
 62
     0
370
    -2
100
AcDbLine
 10
-609.0652295960735
 20
378.6563483735307
 30
0.0
 11
-542.0652295960735
 21
378.6563483735307
 31
0.0
  0
INSERT
  5
16CD
330
16C9
100
AcDbEntity
  8
画層1
 62
     0
370
    -2
100
AcDbBlockReference
  2
_OPEN30
 10
-610.5652295960735
 20
378.6563483735307
 30
0.0
 41
1.5
 42
1.5
 43
1.5
 50
180.0
  0
INSERT
  5
16CE
330
16C9
100
AcDbEntity
  8
画層1
 62
     0
370
    -2
100
AcDbBlockReference
  2
_OPEN30
 10
-540.5652295960735
 20
378.6563483735307
 30
0.0
 41
1.5
 42
1.5
 43
1.5
  0
MTEXT
  5
16CF
330
16C9
100
AcDbEntity
  8
画層1
 62
     0
370
    20
100
AcDbMText
 10
-575.5652295960735
 20
380.9063483735307
 30
0.0
 40
2.5
 41
0.0
 71
     5
 72
     1
  1
\A1;70
 73
     1
 44
1.0
  0
POINT
  5
16D0
330
16C9
100
AcDbEntity
  8
DEFPOINTS
 62
     0
370
    20
100
AcDbPoint
 10
-610.5652295960735
 20
353.9587767371689
 30
0.0
  0
POINT
  5
16D1
330
16C9
100
AcDbEntity
  8
DEFPOINTS
 62
     0
370
    20
100
AcDbPoint
 10
-540.5652295960735
 20
353.9587767371689
 30
0.0
  0
POINT
  5
16D2
330
16C9
100
AcDbEntity
  8
DEFPOINTS
 62
     0
370
    20
100
AcDbPoint
 10
-540.5652295960735
 20
378.6563483735307
 30
0.0
  0
ENDBLK
  5
16D4
330
16C9
100
AcDbEntity
  8
0
 62
     1
370
    20
100
AcDbBlockEnd
  0
BLOCK
  5
16E2
330
16D8
100
AcDbEntity
  8
0
 62
     1
370
    20
100
AcDbBlockBegin
  2
*D7
 70
     1
 10
0.0
 20
0.0
 30
0.0
  3
*D7
  1

  0
LINE
  5
16D9
330
16D8
100
AcDbEntity
  8
画層1
 62
     0
370
    -2
100
AcDbLine
 10
-539.9352295960735
 20
353.9587767371689
 30
0.0
 11
-493.8932791934546
 21
353.9587767371689
 31
0.0
  0
LINE
  5
16DA
330
16D8
100
AcDbEntity
  8
画層1
 62
     0
370
    -2
100
AcDbLine
 10
-516.9352295960735
 20
133.9587767371689
 30
0.0
 11
-493.8932791934546
 21
133.9587767371689
 31
0.0
  0
LINE
  5
16DB
330
16D8
100
AcDbEntity
  8
画層1
 62
     0
370
    -2
100
AcDbLine
 10
-495.1432791934546
 20
352.458776737169
 30
0.0
 11
-495.1432791934546
 21
135.4587767371689
 31
0.0
  0
INSERT
  5
16DC
330
16D8
100
AcDbEntity
  8
画層1
 62
     0
370
    -2
100
AcDbBlockReference
  2
_OPEN30
 10
-495.1432791934546
 20
353.9587767371689
 30
0.0
 41
1.5
 42
1.5
 43
1.5
 50
90.0
  0
INSERT
  5
16DD
330
16D8
100
AcDbEntity
  8
画層1
 62
     0
370
    -2
100
AcDbBlockReference
  2
_OPEN30
 10
-495.1432791934546
 20
133.9587767371689
 30
0.0
 41
1.5
 42
1.5
 43
1.5
 50
270.0
  0
MTEXT
  5
16DE
330
16D8
100
AcDbEntity
  8
画層1
 62
     0
370
    20
100
AcDbMText
 10
-497.3932791934546
 20
243.9587767371689
 30
0.0
 40
2.5
 41
0.0
 71
     5
 72
     1
  1
\A1;220
 11
0.0000000000000001
 21
1.0
 31
0.0
 73
     1
 44
1.0
  0
POINT
  5
16DF
330
16D8
100
AcDbEntity
  8
DEFPOINTS
 62
     0
370
    20
100
AcDbPoint
 10
-540.5652295960735
 20
353.9587767371689
 30
0.0
  0
POINT
  5
16E0
330
16D8
100
AcDbEntity
  8
DEFPOINTS
 62
     0
370
    20
100
AcDbPoint
 10
-517.5652295960735
 20
133.9587767371689
 30
0.0
  0
POINT
  5
16E1
330
16D8
100
AcDbEntity
  8
DEFPOINTS
 62
     0
370
    20
100
AcDbPoint
 10
-495.1432791934546
 20
133.9587767371689
 30
0.0
  0
ENDBLK
  5
16E3
330
16D8
100
AcDbEntity
  8
0
 62
     1
370
    20
100
AcDbBlockEnd
  0
BLOCK
  5
16F0
330
16E6
100
AcDbEntity
  8
0
 62
     1
370
    20
100
AcDbBlockBegin
  2
*D8
 70
     1
 10
0.0
 20
0.0
 30
0.0
  3
*D8
  1

  0
LINE
  5
16E7
330
16E6
100
AcDbEntity
  8
画層1
 62
     0
370
    -2
100
AcDbLine
 10
-518.3352295960735
 20
126.9587767371689
 30
0.0
 11
-486.0255003317529
 21
126.9587767371689
 31
0.0
  0
LINE
  5
16E8
330
16E6
100
AcDbEntity
  8
画層1
 62
     0
370
    -2
100
AcDbLine
 10
-518.3352295960735
 20
360.958776737169
 30
0.0
 11
-486.0255003317529
 21
360.958776737169
 31
0.0
  0
LINE
  5
16E9
330
16E6
100
AcDbEntity
  8
画層1
 62
     0
370
    -2
100
AcDbLine
 10
-487.2755003317529
 20
128.4587767371689
 30
0.0
 11
-487.2755003317529
 21
359.4587767371689
 31
0.0
  0
INSERT
  5
16EA
330
16E6
100
AcDbEntity
  8
画層1
 62
     0
370
    -2
100
AcDbBlockReference
  2
_OPEN30
 10
-487.2755003317529
 20
126.9587767371689
 30
0.0
 41
1.5
 42
1.5
 43
1.5
 50
270.0
  0
INSERT
  5
16EB
330
16E6
100
AcDbEntity
  8
画層1
 62
     0
370
    -2
100
AcDbBlockReference
  2
_OPEN30
 10
-487.2755003317529
 20
360.958776737169
 30
0.0
 41
1.5
 42
1.5
 43
1.5
 50
90.0
  0
MTEXT
  5
16EC
330
16E6
100
AcDbEntity
  8
画層1
 62
     0
370
    20
100
AcDbMText
 10
-489.5255003317529
 20
243.9587767371689
 30
0.0
 40
2.5
 41
0.0
 71
     5
 72
     1
  1
\A1;234
 11
0.0000000000000001
 21
1.0
 31
0.0
 73
     1
 44
1.0
  0
POINT
  5
16ED
330
16E6
100
AcDbEntity
  8
DEFPOINTS
 62
     0
370
    20
100
AcDbPoint
 10
-518.9652295960735
 20
126.9587767371689
 30
0.0
  0
POINT
  5
16EE
330
16E6
100
AcDbEntity
  8
DEFPOINTS
 62
     0
370
    20
100
AcDbPoint
 10
-518.9652295960735
 20
360.958776737169
 30
0.0
  0
POINT
  5
16EF
330
16E6
100
AcDbEntity
  8
DEFPOINTS
 62
     0
370
    20
100
AcDbPoint
 10
-487.2755003317529
 20
360.958776737169
 30
0.0
  0
ENDBLK
  5
16F1
330
16E6
100
AcDbEntity
  8
0
 62
     1
370
    20
100
AcDbBlockEnd
  0
BLOCK
  5
1700
330
16F6
100
AcDbEntity
  8
0
 62
     1
370
    20
100
AcDbBlockBegin
  2
*D9
 70
     1
 10
0.0
 20
0.0
 30
0.0
  3
*D9
  1

  0
LINE
  5
16F7
330
16F6
100
AcDbEntity
  8
画層1
 62
     0
370
    -2
100
AcDbLine
 10
-388.3904011789971
 20
284.588776737169
 30
0.0
 11
-388.3904011789971
 21
371.838625062915
 31
0.0
  0
LINE
  5
16F8
330
16F6
100
AcDbEntity
  8
画層1
 62
     0
370
    -2
100
AcDbLine
 10
-247.0904011789971
 20
361.588776737169
 30
0.0
 11
-247.0904011789971
 21
371.838625062915
 31
0.0
  0
LINE
  5
16F9
330
16F6
100
AcDbEntity
  8
画層1
 62
     0
370
    -2
100
AcDbLine
 10
-386.890401178997
 20
370.588625062915
 30
0.0
 11
-248.5904011789971
 21
370.588625062915
 31
0.0
  0
INSERT
  5
16FA
330
16F6
100
AcDbEntity
  8
画層1
 62
     0
370
    -2
100
AcDbBlockReference
  2
_OPEN30
 10
-388.3904011789971
 20
370.588625062915
 30
0.0
 41
1.5
 42
1.5
 43
1.5
 50
180.0
  0
INSERT
  5
16FB
330
16F6
100
AcDbEntity
  8
画層1
 62
     0
370
    -2
100
AcDbBlockReference
  2
_OPEN30
 10
-247.0904011789971
 20
370.588625062915
 30
0.0
 41
1.5
 42
1.5
 43
1.5
  0
MTEXT
  5
16FC
330
16F6
100
AcDbEntity
  8
画層1
 62
     0
370
    20
100
AcDbMText
 10
-317.740401178997
 20
372.838625062915
 30
0.0
 40
2.5
 41
0.0
 71
     5
 72
     1
  1
\A1;141
 73
     1
 44
1.0
  0
POINT
  5
16FD
330
16F6
100
AcDbEntity
  8
DEFPOINTS
 62
     0
370
    20
100
AcDbPoint
 10
-388.3904011789971
 20
283.9587767371689
 30
0.0
  0
POINT
  5
16FE
330
16F6
100
AcDbEntity
  8
DEFPOINTS
 62
     0
370
    20
100
AcDbPoint
 10
-247.0904011789971
 20
360.958776737169
 30
0.0
  0
POINT
  5
16FF
330
16F6
100
AcDbEntity
  8
DEFPOINTS
 62
     0
370
    20
100
AcDbPoint
 10
-247.0904011789971
 20
370.588625062915
 30
0.0
  0
ENDBLK
  5
1701
330
16F6
100
AcDbEntity
  8
0
 62
     1
370
    20
100
AcDbBlockEnd
  0
BLOCK
  5
170D
330
1703
100
AcDbEntity
  8
0
 62
     1
370
    20
100
AcDbBlockBegin
  2
*D10
 70
     1
 10
0.0
 20
0.0
 30
0.0
  3
*D10
  1

  0
LINE
  5
1704
330
1703
100
AcDbEntity
  8
画層1
 62
     0
370
    -2
100
AcDbLine
 10
-247.0904011789971
 20
372.468625062915
 30
0.0
 11
-247.0904011789971
 21
378.1753816130043
 31
0.0
  0
LINE
  5
1705
330
1703
100
AcDbEntity
  8
画層1
 62
     0
370
    -2
100
AcDbLine
 10
-411.290401178997
 20
341.179685828078
 30
0.0
 11
-411.290401178997
 21
378.1753816130043
 31
0.0
  0
LINE
  5
1706
330
1703
100
AcDbEntity
  8
画層1
 62
     0
370
    -2
100
AcDbLine
 10
-248.5904011789971
 20
376.9253816130043
 30
0.0
 11
-409.790401178997
 21
376.9253816130043
 31
0.0
  0
INSERT
  5
1707
330
1703
100
AcDbEntity
  8
画層1
 62
     0
370
    -2
100
AcDbBlockReference
  2
_OPEN30
 10
-247.0904011789971
 20
376.9253816130043
 30
0.0
 41
1.5
 42
1.5
 43
1.5
  0
INSERT
  5
1708
330
1703
100
AcDbEntity
  8
画層1
 62
     0
370
    -2
100
AcDbBlockReference
  2
_OPEN30
 10
-411.290401178997
 20
376.9253816130043
 30
0.0
 41
1.5
 42
1.5
 43
1.5
 50
180.0
  0
MTEXT
  5
1709
330
1703
100
AcDbEntity
  8
画層1
 62
     0
370
    20
100
AcDbMText
 10
-329.190401178997
 20
379.1753816130043
 30
0.0
 40
2.5
 41
0.0
 71
     5
 72
     1
  1
\A1;164
 73
     1
 44
1.0
  0
POINT
  5
170A
330
1703
100
AcDbEntity
  8
DEFPOINTS
 62
     0
370
    20
100
AcDbPoint
 10
-247.0904011789971
 20
371.838625062915
 30
0.0
  0
POINT
  5
170B
330
1703
100
AcDbEntity
  8
DEFPOINTS
 62
     0
370
    20
100
AcDbPoint
 10
-411.290401178997
 20
340.549685828078
 30
0.0
  0
POINT
  5
170C
330
1703
100
AcDbEntity
  8
DEFPOINTS
 62
     0
370
    20
100
AcDbPoint
 10
-411.290401178997
 20
376.9253816130043
 30
0.0
  0
ENDBLK
  5
170E
330
1703
100
AcDbEntity
  8
0
 62
     1
370
    20
100
AcDbBlockEnd
  0
BLOCK
  5
171C
330
1712
100
AcDbEntity
  8
0
 62
     1
370
    20
100
AcDbBlockBegin
  2
*D11
 70
     1
 10
0.0
 20
0.0
 30
0.0
  3
*D11
  1

  0
LINE
  5
1713
330
1712
100
AcDbEntity
  8
画層1
 62
     0
370
    -2
100
AcDbLine
 10
-363.0904011789971
 20
350.5887767371689
 30
0.0
 11
-363.0904011789971
 21
365.0972139620829
 31
0.0
  0
LINE
  5
1714
330
1712
100
AcDbEntity
  8
画層1
 62
     0
370
    -2
100
AcDbLine
 10
-247.0904011789971
 20
361.588776737169
 30
0.0
 11
-247.0904011789971
 21
365.0972139620829
 31
0.0
  0
LINE
  5
1715
330
1712
100
AcDbEntity
  8
画層1
 62
     0
370
    -2
100
AcDbLine
 10
-361.5904011789971
 20
363.8472139620829
 30
0.0
 11
-248.5904011789971
 21
363.8472139620829
 31
0.0
  0
INSERT
  5
1716
330
1712
100
AcDbEntity
  8
画層1
 62
     0
370
    -2
100
AcDbBlockReference
  2
_OPEN30
 10
-363.0904011789971
 20
363.8472139620829
 30
0.0
 41
1.5
 42
1.5
 43
1.5
 50
180.0
  0
INSERT
  5
1717
330
1712
100
AcDbEntity
  8
画層1
 62
     0
370
    -2
100
AcDbBlockReference
  2
_OPEN30
 10
-247.0904011789971
 20
363.8472139620829
 30
0.0
 41
1.5
 42
1.5
 43
1.5
  0
MTEXT
  5
1718
330
1712
100
AcDbEntity
  8
画層1
 62
     0
370
    20
100
AcDbMText
 10
-305.0904011789971
 20
366.0972139620829
 30
0.0
 40
2.5
 41
0.0
 71
     5
 72
     1
  1
\A1;116
 73
     1
 44
1.0
  0
POINT
  5
1719
330
1712
100
AcDbEntity
  8
DEFPOINTS
 62
     0
370
    20
100
AcDbPoint
 10
-363.0904011789971
 20
349.9587767371689
 30
0.0
  0
POINT
  5
171A
330
1712
100
AcDbEntity
  8
DEFPOINTS
 62
     0
370
    20
100
AcDbPoint
 10
-247.0904011789971
 20
360.958776737169
 30
0.0
  0
POINT
  5
171B
330
1712
100
AcDbEntity
  8
DEFPOINTS
 62
     0
370
    20
100
AcDbPoint
 10
-247.0904011789971
 20
363.8472139620829
 30
0.0
  0
ENDBLK
  5
171D
330
1712
100
AcDbEntity
  8
0
 62
     1
370
    20
100
AcDbBlockEnd
  0
BLOCK
  5
1729
330
171F
100
AcDbEntity
  8
0
 62
     1
370
    20
100
AcDbBlockBegin
  2
*D12
 70
     1
 10
0.0
 20
0.0
 30
0.0
  3
*D12
  1

  0
LINE
  5
1720
330
171F
100
AcDbEntity
  8
画層1
 62
     0
370
    -2
100
AcDbLine
 10
-389.1904011789971
 20
284.588776737169
 30
0.0
 11
-389.1904011789971
 21
380.1853616321956
 31
0.0
  0
LINE
  5
1721
330
171F
100
AcDbEntity
  8
画層1
 62
     0
370
    -2
100
AcDbLine
 10
-247.0904011789971
 20
365.7272139620829
 30
0.0
 11
-247.0904011789971
 21
380.1853616321956
 31
0.0
  0
LINE
  5
1722
330
171F
100
AcDbEntity
  8
画層1
 62
     0
370
    -2
100
AcDbLine
 10
-387.690401178997
 20
378.9353616321956
 30
0.0
 11
-248.5904011789971
 21
378.9353616321956
 31
0.0
  0
INSERT
  5
1723
330
171F
100
AcDbEntity
  8
画層1
 62
     0
370
    -2
100
AcDbBlockReference
  2
_OPEN30
 10
-389.1904011789971
 20
378.9353616321956
 30
0.0
 41
1.5
 42
1.5
 43
1.5
 50
180.0
  0
INSERT
  5
1724
330
171F
100
AcDbEntity
  8
画層1
 62
     0
370
    -2
100
AcDbBlockReference
  2
_OPEN30
 10
-247.0904011789971
 20
378.9353616321956
 30
0.0
 41
1.5
 42
1.5
 43
1.5
  0
MTEXT
  5
1725
330
171F
100
AcDbEntity
  8
画層1
 62
     0
370
    20
100
AcDbMText
 10
-318.140401178997
 20
381.1853616321956
 30
0.0
 40
2.5
 41
0.0
 71
     5
 72
     1
  1
\A1;142
 73
     1
 44
1.0
  0
POINT
  5
1726
330
171F
100
AcDbEntity
  8
DEFPOINTS
 62
     0
370
    20
100
AcDbPoint
 10
-389.1904011789971
 20
283.9587767371689
 30
0.0
  0
POINT
  5
1727
330
171F
100
AcDbEntity
  8
DEFPOINTS
 62
     0
370
    20
100
AcDbPoint
 10
-247.0904011789971
 20
365.0972139620829
 30
0.0
  0
POINT
  5
1728
330
171F
100
AcDbEntity
  8
DEFPOINTS
 62
     0
370
    20
100
AcDbPoint
 10
-247.0904011789971
 20
378.9353616321956
 30
0.0
  0
ENDBLK
  5
172A
330
171F
100
AcDbEntity
  8
0
 62
     1
370
    20
100
AcDbBlockEnd
  0
BLOCK
  5
1736
330
172C
100
AcDbEntity
  8
0
 62
     1
370
    20
100
AcDbBlockBegin
  2
*D13
 70
     1
 10
0.0
 20
0.0
 30
0.0
  3
*D13
  1

  0
LINE
  5
172D
330
172C
100
AcDbEntity
  8
画層1
 62
     0
370
    -2
100
AcDbLine
 10
-412.0904011789971
 20
341.179685828078
 30
0.0
 11
-412.0904011789971
 21
392.2544157124332
 31
0.0
  0
LINE
  5
172E
330
172C
100
AcDbEntity
  8
画層1
 62
     0
370
    -2
100
AcDbLine
 10
-247.0904011789971
 20
380.8153616321956
 30
0.0
 11
-247.0904011789971
 21
392.2544157124332
 31
0.0
  0
LINE
  5
172F
330
172C
100
AcDbEntity
  8
画層1
 62
     0
370
    -2
100
AcDbLine
 10
-410.590401178997
 20
391.0044157124332
 30
0.0
 11
-248.5904011789971
 21
391.0044157124332
 31
0.0
  0
INSERT
  5
1730
330
172C
100
AcDbEntity
  8
画層1
 62
     0
370
    -2
100
AcDbBlockReference
  2
_OPEN30
 10
-412.0904011789971
 20
391.0044157124332
 30
0.0
 41
1.5
 42
1.5
 43
1.5
 50
180.0
  0
INSERT
  5
1731
330
172C
100
AcDbEntity
  8
画層1
 62
     0
370
    -2
100
AcDbBlockReference
  2
_OPEN30
 10
-247.0904011789971
 20
391.0044157124332
 30
0.0
 41
1.5
 42
1.5
 43
1.5
  0
MTEXT
  5
1732
330
172C
100
AcDbEntity
  8
画層1
 62
     0
370
    20
100
AcDbMText
 10
-329.5904011789971
 20
393.2544157124332
 30
0.0
 40
2.5
 41
0.0
 71
     5
 72
     1
  1
\A1;165
 73
     1
 44
1.0
  0
POINT
  5
1733
330
172C
100
AcDbEntity
  8
DEFPOINTS
 62
     0
370
    20
100
AcDbPoint
 10
-412.0904011789971
 20
340.549685828078
 30
0.0
  0
POINT
  5
1734
330
172C
100
AcDbEntity
  8
DEFPOINTS
 62
     0
370
    20
100
AcDbPoint
 10
-247.0904011789971
 20
380.1853616321956
 30
0.0
  0
POINT
  5
1735
330
172C
100
AcDbEntity
  8
DEFPOINTS
 62
     0
370
    20
100
AcDbPoint
 10
-247.0904011789971
 20
391.0044157124332
 30
0.0
  0
ENDBLK
  5
1737
330
172C
100
AcDbEntity
  8
0
 62
     1
370
    20
100
AcDbBlockEnd
  0
BLOCK
  5
1743
330
1739
100
AcDbEntity
  8
0
 62
     1
370
    20
100
AcDbBlockBegin
  2
*D14
 70
     1
 10
0.0
 20
0.0
 30
0.0
  3
*D14
  1

  0
LINE
  5
174F
330
1739
100
AcDbEntity
  8
画層1
 62
     0
370
    -2
100
AcDbLine
 10
-247.0904011789971
 20
126.328776737169
 30
0.0
 11
-247.0904011789971
 21
108.5516487880791
 31
0.0
  0
LINE
  5
1750
330
1739
100
AcDbEntity
  8
画層1
 62
     0
370
    -2
100
AcDbLine
 10
-386.090401178997
 20
130.2399326958549
 30
0.0
 11
-386.090401178997
 21
108.5516487880791
 31
0.0
  0
LINE
  5
1751
330
1739
100
AcDbEntity
  8
画層1
 62
     0
370
    -2
100
AcDbLine
 10
-248.5904011789971
 20
109.801648788079
 30
0.0
 11
-384.590401178997
 21
109.801648788079
 31
0.0
  0
INSERT
  5
1752
330
1739
100
AcDbEntity
  8
画層1
 62
     0
370
    -2
100
AcDbBlockReference
  2
_OPEN30
 10
-247.0904011789971
 20
109.801648788079
 30
0.0
 41
1.5
 42
1.5
 43
1.5
  0
INSERT
  5
1753
330
1739
100
AcDbEntity
  8
画層1
 62
     0
370
    -2
100
AcDbBlockReference
  2
_OPEN30
 10
-386.090401178997
 20
109.801648788079
 30
0.0
 41
1.5
 42
1.5
 43
1.5
 50
180.0
  0
MTEXT
  5
1754
330
1739
100
AcDbEntity
  8
画層1
 62
     0
370
    20
100
AcDbMText
 10
-316.5904011789971
 20
112.051648788079
 30
0.0
 40
2.5
 41
0.0
 71
     5
 72
     1
  1
\A1;139
 73
     1
 44
1.0
  0
POINT
  5
1755
330
1739
100
AcDbEntity
  8
DEFPOINTS
 62
     0
370
    20
100
AcDbPoint
 10
-247.0904011789971
 20
126.9587767371689
 30
0.0
  0
POINT
  5
1756
330
1739
100
AcDbEntity
  8
DEFPOINTS
 62
     0
370
    20
100
AcDbPoint
 10
-386.090401178997
 20
130.8699326958549
 30
0.0
  0
POINT
  5
1757
330
1739
100
AcDbEntity
  8
DEFPOINTS
 62
     0
370
    20
100
AcDbPoint
 10
-386.090401178997
 20
109.801648788079
 30
0.0
  0
ENDBLK
  5
1744
330
1739
100
AcDbEntity
  8
0
 62
     1
370
    20
100
AcDbBlockEnd
  0
ENDSEC
  0
SECTION
  2
ENTITIES
  0
LINE
  5
9E2
330
2
100
AcDbEntity
  8
画層1
 62
     0
370
    20
100
AcDbLine
 10
-545.1966295234706
 20
126.9587767371689
 30
0.0
 11
-545.1966295234706
 21
127.9674472969322
 31
0.0
  0
LINE
  5
9E5
330
2
100
AcDbEntity
  8
画層1
 62
     0
370
    20
100
AcDbLine
 10
-536.1966295234706
 20
126.9587767371689
 30
0.0
 11
-536.1966295234706
 21
127.9587767371689
 31
0.0
  0
LINE
  5
B81
330
2
100
AcDbEntity
  8
画層1
  6
CENTER
 62
     0
370
    20
100
AcDbLine
 10
-643.5652295960736
 20
243.958776737169
 30
0.0
 11
-507.5652295960735
 21
243.958776737169
 31
0.0
  0
LINE
  5
B84
330
2
100
AcDbEntity
  8
画層1
  6
CENTER
 62
     0
370
    20
100
AcDbLine
 10
-575.5652295960735
 20
370.958776737169
 30
0.0
 11
-575.5652295960735
 21
116.9587767371689
 31
0.0
  0
LINE
  5
BB4
330
2
100
AcDbEntity
  8
画層1
  6
CENTER
 62
     0
370
    20
100
AcDbLine
 10
-421.0721983038131
 20
243.958776737169
 30
0.0
 11
-217.0904011789971
 21
243.958776737169
 31
0.0
  0
CIRCLE
  5
FC9
330
2
100
AcDbEntity
  8
画層1
370
    20
100
AcDbCircle
 10
-540.5652295960735
 20
353.9587767371689
 30
0.0
 40
3.5
  0
CIRCLE
  5
FCA
330
2
100
AcDbEntity
  8
画層1
370
    20
100
AcDbCircle
 10
-610.5652295960735
 20
353.9587767371689
 30
0.0
 40
3.5
  0
LINE
  5
FCC
330
2
100
AcDbEntity
  8
画層1
 62
     0
370
    20
100
AcDbLine
 10
-606.1966295234705
 20
126.9587767371689
 30
0.0
 11
-606.1966295234705
 21
127.9587767371689
 31
0.0
  0
LINE
  5
FCD
330
2
100
AcDbEntity
  8
画層1
 62
     0
370
    20
100
AcDbLine
 10
-615.1966295234706
 20
126.9587767371689
 30
0.0
 11
-615.1966295234706
 21
127.9587767371689
 31
0.0
  0
LWPOLYLINE
  5
FD3
330
2
100
AcDbEntity
  8
画層1
370
    20
100
AcDbPolyline
 90
        4
 70
     0
 43
0.0
 10
-518.9652295960735
 20
349.9587767371689
 10
-518.9652295960735
 20
360.958776737169
 10
-632.1652295960736
 20
360.958776737169
 10
-632.1652295960736
 20
349.9587767371689
  0
LINE
  5
FD4
330
2
100
AcDbEntity
  8
画層1
370
    20
100
AcDbLine
 10
-536.1966295234706
 20
126.9587767371689
 30
0.0
 11
-518.9652295960735
 21
126.9587767371689
 31
0.0
  0
LWPOLYLINE
  5
FD5
330
2
100
AcDbEntity
  8
画層1
370
    20
100
AcDbPolyline
 90
        2
 70
     0
 43
0.0
 10
-606.1966295234705
 20
126.9587767371689
 10
-545.1966295234706
 20
126.9587767371689
  0
LINE
  5
FD6
330
2
100
AcDbEntity
  8
画層1
370
    20
100
AcDbLine
 10
-632.1652295960736
 20
126.9587767371689
 30
0.0
 11
-615.1966295234706
 21
126.9587767371689
 31
0.0
  0
LWPOLYLINE
  5
FDB
330
2
100
AcDbEntity
  8
画層1
370
    20
100
AcDbPolyline
 90
        6
 70
     0
 43
0.0
 10
-543.0652295960735
 20
349.9587767371689
 10
-517.5652295960735
 20
349.9587767371689
 10
-517.5652295960735
 20
127.9587767371689
 10
-633.5652295960735
 20
127.9587767371689
 10
-633.5652295960735
 20
349.9587767371689
 10
-593.0652295960735
 20
349.9587767371689
  0
LWPOLYLINE
  5
FDC
330
2
100
AcDbEntity
  8
画層1
370
    20
100
AcDbPolyline
 90
        2
 70
     0
 43
0.0
 10
-632.1652295960736
 20
127.9587767371689
 10
-632.1652295960736
 20
126.9587767371689
  0
LWPOLYLINE
  5
FDF
330
2
100
AcDbEntity
  8
画層1
370
    20
100
AcDbPolyline
 90
        2
 70
     0
 43
0.0
 10
-518.9652295960735
 20
127.9587767371689
 10
-518.9652295960735
 20
126.9587767371689
  0
LWPOLYLINE
  5
FE4
330
2
100
AcDbEntity
  8
画層1
370
    20
100
AcDbPolyline
 90
        6
 70
     1
 43
0.0
 10
-603.5652295960735
 20
168.9587767371689
 10
-524.5652295960735
 20
168.958776737169
 42
0.4142135623730951
 10
-522.5652295960735
 20
170.958776737169
 10
-522.5652295960735
 20
177.4587767371689
 10
-605.5652295960735
 20
177.4587767371689
 10
-605.5652295960735
 20
170.9587767371689
 42
0.4142135623730951
  0
LWPOLYLINE
  5
FEF
330
2
100
AcDbEntity
  8
画層1
370
    20
100
AcDbPolyline
 90
        6
 70
     1
 43
0.0
 10
-605.5652295960735
 20
340.4587767371689
 10
-522.5652295960735
 20
340.4587767371689
 10
-522.5652295960735
 20
346.9587767371689
 42
0.4142135623730948
 10
-524.5652295960735
 20
348.9587767371689
 10
-603.5652295960735
 20
348.958776737169
 42
0.4142135623730951
 10
-605.5652295960735
 20
346.958776737169
  0
LINE
  5
FF5
330
2
100
AcDbEntity
  8
画層1
370
    20
100
AcDbLine
 10
-605.5652295960735
 20
177.4587767371689
 30
0.0
 11
-605.5652295960735
 21
178.9587767371689
 31
0.0
  0
LINE
  5
FF6
330
2
100
AcDbEntity
  8
画層1
370
    20
100
AcDbLine
 10
-522.5652295960735
 20
177.4587767371689
 30
0.0
 11
-522.5652295960735
 21
178.9587767371689
 31
0.0
  0
LINE
  5
FF7
330
2
100
AcDbEntity
  8
画層1
370
    20
100
AcDbLine
 10
-522.5652295960735
 20
338.9587767371689
 30
0.0
 11
-522.5652295960735
 21
340.4587767371689
 31
0.0
  0
LINE
  5
FF8
330
2
100
AcDbEntity
  8
画層1
370
    20
100
AcDbLine
 10
-605.5652295960735
 20
338.9587767371689
 30
0.0
 11
-605.5652295960735
 21
340.4587767371689
 31
0.0
  0
LINE
  5
FF9
330
2
100
AcDbEntity
  8
画層1
370
    20
100
AcDbLine
 10
-605.5652295960735
 20
338.9587767371689
 30
0.0
 11
-606.5652295960735
 21
338.9587767371689
 31
0.0
  0
LINE
  5
FFA
330
2
100
AcDbEntity
  8
画層1
370
    20
100
AcDbLine
 10
-606.5652295960735
 20
338.9587767371689
 30
0.0
 11
-606.5652295960735
 21
178.9587767371689
 31
0.0
  0
LINE
  5
FFB
330
2
100
AcDbEntity
  8
画層1
370
    20
100
AcDbLine
 10
-606.5652295960735
 20
178.9587767371689
 30
0.0
 11
-605.5652295960735
 21
178.9587767371689
 31
0.0
  0
LINE
  5
FFC
330
2
100
AcDbEntity
  8
画層1
370
    20
100
AcDbLine
 10
-522.5652295960735
 20
178.9587767371689
 30
0.0
 11
-521.5652295960735
 21
178.9587767371689
 31
0.0
  0
LINE
  5
FFD
330
2
100
AcDbEntity
  8
画層1
370
    20
100
AcDbLine
 10
-521.5652295960735
 20
178.9587767371689
 30
0.0
 11
-521.5652295960735
 21
338.9587767371689
 31
0.0
  0
LINE
  5
FFE
330
2
100
AcDbEntity
  8
画層1
370
    20
100
AcDbLine
 10
-521.5652295960735
 20
338.9587767371689
 30
0.0
 11
-522.5652295960735
 21
338.9587767371689
 31
0.0
  0
LINE
  5
1003
330
2
100
AcDbEntity
  8
画層1
370
    20
100
AcDbLine
 10
-593.0652295960735
 20
348.958776737169
 30
0.0
 11
-593.0652295960735
 21
349.9587767371689
 31
0.0
  0
LINE
  5
1004
330
2
100
AcDbEntity
  8
画層1
370
    20
100
AcDbLine
 10
-543.0652295960735
 20
348.9587767371689
 30
0.0
 11
-543.0652295960735
 21
349.9587767371689
 31
0.0
  0
LINE
  5
100C
330
2
100
AcDbEntity
  8
画層1
370
    20
100
AcDbLine
 10
-621.5652295960735
 20
127.9587767371689
 30
0.0
 11
-621.5652295960735
 21
157.9587767371689
 31
0.0
  0
LINE
  5
100D
330
2
100
AcDbEntity
  8
画層1
370
    20
100
AcDbLine
 10
-621.5652295960735
 20
157.9587767371689
 30
0.0
 11
-528.5652295960735
 21
157.9587767371689
 31
0.0
  0
LINE
  5
100E
330
2
100
AcDbEntity
  8
画層1
370
    20
100
AcDbLine
 10
-528.5652295960735
 20
157.9587767371689
 30
0.0
 11
-528.5652295960735
 21
127.9587767371689
 31
0.0
  0
LWPOLYLINE
  5
1012
330
2
100
AcDbEntity
  8
画層1
370
    20
100
AcDbPolyline
 90
        4
 70
     1
 43
0.0
 10
-541.0652295960735
 20
134.9587767371689
 10
-529.0652295960735
 20
134.9587767371689
 10
-529.0652295960735
 20
150.9587767371689
 10
-541.0652295960735
 20
150.9587767371689
  0
LWPOLYLINE
  5
1014
330
2
100
AcDbEntity
  8
画層1
370
    20
100
AcDbPolyline
 90
        4
 70
     1
 43
0.0
 10
-557.0652295960735
 20
134.9587767371689
 10
-545.0652295960735
 20
134.9587767371689
 10
-545.0652295960735
 20
150.9587767371689
 10
-557.0652295960735
 20
150.9587767371689
  0
LWPOLYLINE
  5
1017
330
2
100
AcDbEntity
  8
画層1
370
    20
100
AcDbPolyline
 90
        4
 70
     1
 43
0.0
 10
-573.0652295960735
 20
134.9587767371689
 10
-561.0652295960735
 20
134.9587767371689
 10
-561.0652295960735
 20
150.9587767371689
 10
-573.0652295960735
 20
150.9587767371689
  0
LWPOLYLINE
  5
1018
330
2
100
AcDbEntity
  8
画層1
370
    20
100
AcDbPolyline
 90
        4
 70
     1
 43
0.0
 10
-589.0652295960735
 20
134.9587767371689
 10
-577.0652295960736
 20
134.9587767371689
 10
-577.0652295960736
 20
150.9587767371689
 10
-589.0652295960735
 20
150.9587767371689
  0
LWPOLYLINE
  5
1019
330
2
100
AcDbEntity
  8
画層1
370
    20
100
AcDbPolyline
 90
        4
 70
     1
 43
0.0
 10
-605.0652295960735
 20
134.9587767371689
 10
-593.0652295960735
 20
134.9587767371689
 10
-593.0652295960735
 20
150.9587767371689
 10
-605.0652295960735
 20
150.9587767371689
  0
LWPOLYLINE
  5
101A
330
2
100
AcDbEntity
  8
画層1
370
    20
100
AcDbPolyline
 90
        4
 70
     1
 43
0.0
 10
-621.0652295960735
 20
134.9587767371689
 10
-609.0652295960735
 20
134.9587767371689
 10
-609.0652295960735
 20
150.9587767371689
 10
-621.0652295960735
 20
150.9587767371689
  0
ARC
  5
1055
330
2
100
AcDbEntity
  8
画層1
370
    20
100
AcDbCircle
 10
-610.0652295960735
 20
150.9587767371689
 30
0.0
 40
1.0
100
AcDbArc
 50
0.0
 51
90.0
  0
ARC
  5
105B
330
2
100
AcDbEntity
  8
画層1
370
    20
100
AcDbCircle
 10
-609.0652295960735
 20
156.958776737169
 30
0.0
 40
1.0
100
AcDbArc
 50
90.0
 51
180.0
  0
LINE
  5
105D
330
2
100
AcDbEntity
  8
画層1
370
    20
100
AcDbLine
 10
-610.0652295960735
 20
156.958776737169
 30
0.0
 11
-610.0652295960735
 21
151.958776737169
 31
0.0
  0
ARC
  5
1062
330
2
100
AcDbEntity
  8
画層1
370
    20
100
AcDbCircle
 10
-605.0652295960735
 20
156.958776737169
 30
0.0
 40
1.0
100
AcDbArc
 50
0.000000000000007
 51
90.0
  0
LINE
  5
1063
330
2
100
AcDbEntity
  8
画層1
370
    20
100
AcDbLine
 10
-604.0652295960735
 20
156.958776737169
 30
0.0
 11
-604.0652295960735
 21
151.958776737169
 31
0.0
  0
ARC
  5
1064
330
2
100
AcDbEntity
  8
画層1
370
    20
100
AcDbCircle
 10
-604.0652295960735
 20
150.9587767371689
 30
0.0
 40
1.0
100
AcDbArc
 50
90.0
 51
180.0
  0
ARC
  5
1065
330
2
100
AcDbEntity
  8
画層1
370
    20
100
AcDbCircle
 10
-605.0652295960735
 20
128.9587767371689
 30
0.0
 40
1.0
100
AcDbArc
 50
270.0
 51
0.0
  0
LINE
  5
1066
330
2
100
AcDbEntity
  8
画層1
370
    20
100
AcDbLine
 10
-604.0652295960735
 20
128.9587767371689
 30
0.0
 11
-604.0652295960735
 21
133.9587767371689
 31
0.0
  0
ARC
  5
1067
330
2
100
AcDbEntity
  8
画層1
370
    20
100
AcDbCircle
 10
-604.0652295960735
 20
134.9587767371689
 30
0.0
 40
1.0
100
AcDbArc
 50
180.0
 51
270.0
  0
ARC
  5
1068
330
2
100
AcDbEntity
  8
画層1
370
    20
100
AcDbCircle
 10
-609.0652295960735
 20
128.9587767371689
 30
0.0
 40
1.0
100
AcDbArc
 50
180.0
 51
270.0
  0
LINE
  5
1069
330
2
100
AcDbEntity
  8
画層1
370
    20
100
AcDbLine
 10
-610.0652295960735
 20
128.9587767371689
 30
0.0
 11
-610.0652295960735
 21
133.9587767371689
 31
0.0
  0
ARC
  5
106A
330
2
100
AcDbEntity
  8
画層1
370
    20
100
AcDbCircle
 10
-610.0652295960735
 20
134.9587767371689
 30
0.0
 40
1.0
100
AcDbArc
 50
270.0
 51
0.0
  0
ARC
  5
106B
330
2
100
AcDbEntity
  8
画層1
370
    20
100
AcDbCircle
 10
-589.0652295960735
 20
156.958776737169
 30
0.0
 40
1.0
100
AcDbArc
 50
0.000000000000007
 51
90.0
  0
ARC
  5
106C
330
2
100
AcDbEntity
  8
画層1
370
    20
100
AcDbCircle
 10
-593.0652295960735
 20
156.958776737169
 30
0.0
 40
1.0
100
AcDbArc
 50
90.0
 51
180.0
  0
LINE
  5
106D
330
2
100
AcDbEntity
  8
画層1
370
    20
100
AcDbLine
 10
-588.0652295960735
 20
156.958776737169
 30
0.0
 11
-588.0652295960735
 21
151.958776737169
 31
0.0
  0
ARC
  5
106E
330
2
100
AcDbEntity
  8
画層1
370
    20
100
AcDbCircle
 10
-588.0652295960735
 20
150.9587767371689
 30
0.0
 40
1.0
100
AcDbArc
 50
90.0
 51
180.0
  0
LINE
  5
106F
330
2
100
AcDbEntity
  8
画層1
370
    20
100
AcDbLine
 10
-594.0652295960735
 20
156.958776737169
 30
0.0
 11
-594.0652295960735
 21
151.958776737169
 31
0.0
  0
ARC
  5
1070
330
2
100
AcDbEntity
  8
画層1
370
    20
100
AcDbCircle
 10
-594.0652295960735
 20
150.9587767371689
 30
0.0
 40
1.0
100
AcDbArc
 50
0.0
 51
90.0
  0
LINE
  5
1071
330
2
100
AcDbEntity
  8
画層1
370
    20
100
AcDbLine
 10
-594.0652295960735
 20
128.9587767371689
 30
0.0
 11
-594.0652295960735
 21
133.9587767371689
 31
0.0
  0
LINE
  5
1072
330
2
100
AcDbEntity
  8
画層1
370
    20
100
AcDbLine
 10
-588.0652295960735
 20
128.9587767371689
 30
0.0
 11
-588.0652295960735
 21
133.9587767371689
 31
0.0
  0
ARC
  5
1073
330
2
100
AcDbEntity
  8
画層1
370
    20
100
AcDbCircle
 10
-593.0652295960735
 20
128.9587767371689
 30
0.0
 40
1.0
100
AcDbArc
 50
180.0
 51
270.0
  0
ARC
  5
1074
330
2
100
AcDbEntity
  8
画層1
370
    20
100
AcDbCircle
 10
-589.0652295960735
 20
128.9587767371689
 30
0.0
 40
1.0
100
AcDbArc
 50
270.0
 51
0.0
  0
ARC
  5
1075
330
2
100
AcDbEntity
  8
画層1
370
    20
100
AcDbCircle
 10
-594.0652295960735
 20
134.9587767371689
 30
0.0
 40
1.0
100
AcDbArc
 50
270.0
 51
0.0
  0
ARC
  5
1076
330
2
100
AcDbEntity
  8
画層1
370
    20
100
AcDbCircle
 10
-588.0652295960735
 20
134.9587767371689
 30
0.0
 40
1.0
100
AcDbArc
 50
180.0
 51
270.0
  0
ARC
  5
1077
330
2
100
AcDbEntity
  8
画層1
370
    20
100
AcDbCircle
 10
-577.0652295960736
 20
156.958776737169
 30
0.0
 40
1.0
100
AcDbArc
 50
90.0
 51
180.0
  0
ARC
  5
1078
330
2
100
AcDbEntity
  8
画層1
370
    20
100
AcDbCircle
 10
-578.0652295960735
 20
150.9587767371689
 30
0.0
 40
1.0
100
AcDbArc
 50
0.0
 51
90.0
  0
LINE
  5
1079
330
2
100
AcDbEntity
  8
画層1
370
    20
100
AcDbLine
 10
-578.0652295960735
 20
156.958776737169
 30
0.0
 11
-578.0652295960735
 21
151.958776737169
 31
0.0
  0
ARC
  5
107A
330
2
100
AcDbEntity
  8
画層1
370
    20
100
AcDbCircle
 10
-573.0652295960735
 20
156.958776737169
 30
0.0
 40
1.0
100
AcDbArc
 50
0.000000000000007
 51
90.0
  0
ARC
  5
107B
330
2
100
AcDbEntity
  8
画層1
370
    20
100
AcDbCircle
 10
-572.0652295960735
 20
150.9587767371689
 30
0.0
 40
1.0
100
AcDbArc
 50
90.0
 51
180.0
  0
LINE
  5
107C
330
2
100
AcDbEntity
  8
画層1
370
    20
100
AcDbLine
 10
-572.0652295960735
 20
156.958776737169
 30
0.0
 11
-572.0652295960735
 21
151.958776737169
 31
0.0
  0
LINE
  5
107D
330
2
100
AcDbEntity
  8
画層1
370
    20
100
AcDbLine
 10
-578.0652295960735
 20
128.9587767371689
 30
0.0
 11
-578.0652295960735
 21
133.9587767371689
 31
0.0
  0
ARC
  5
107E
330
2
100
AcDbEntity
  8
画層1
370
    20
100
AcDbCircle
 10
-577.0652295960736
 20
128.9587767371689
 30
0.0
 40
1.0
100
AcDbArc
 50
180.0
 51
270.0
  0
ARC
  5
107F
330
2
100
AcDbEntity
  8
画層1
370
    20
100
AcDbCircle
 10
-578.0652295960735
 20
134.9587767371689
 30
0.0
 40
1.0
100
AcDbArc
 50
270.0
 51
0.0
  0
LINE
  5
1080
330
2
100
AcDbEntity
  8
画層1
370
    20
100
AcDbLine
 10
-572.0652295960735
 20
128.9587767371689
 30
0.0
 11
-572.0652295960735
 21
133.9587767371689
 31
0.0
  0
ARC
  5
1081
330
2
100
AcDbEntity
  8
画層1
370
    20
100
AcDbCircle
 10
-573.0652295960735
 20
128.9587767371689
 30
0.0
 40
1.0
100
AcDbArc
 50
270.0
 51
0.0
  0
ARC
  5
1082
330
2
100
AcDbEntity
  8
画層1
370
    20
100
AcDbCircle
 10
-572.0652295960735
 20
134.9587767371689
 30
0.0
 40
1.0
100
AcDbArc
 50
180.0
 51
270.0
  0
ARC
  5
1083
330
2
100
AcDbEntity
  8
画層1
370
    20
100
AcDbCircle
 10
-557.0652295960735
 20
156.958776737169
 30
0.0
 40
1.0
100
AcDbArc
 50
0.000000000000007
 51
90.0
  0
ARC
  5
1084
330
2
100
AcDbEntity
  8
画層1
370
    20
100
AcDbCircle
 10
-561.0652295960735
 20
156.958776737169
 30
0.0
 40
1.0
100
AcDbArc
 50
90.0
 51
180.0
  0
LINE
  5
1085
330
2
100
AcDbEntity
  8
画層1
370
    20
100
AcDbLine
 10
-556.0652295960735
 20
156.958776737169
 30
0.0
 11
-556.0652295960735
 21
151.958776737169
 31
0.0
  0
ARC
  5
1086
330
2
100
AcDbEntity
  8
画層1
370
    20
100
AcDbCircle
 10
-556.0652295960735
 20
150.9587767371689
 30
0.0
 40
1.0
100
AcDbArc
 50
90.0
 51
180.0
  0
LINE
  5
1087
330
2
100
AcDbEntity
  8
画層1
370
    20
100
AcDbLine
 10
-562.0652295960735
 20
156.958776737169
 30
0.0
 11
-562.0652295960735
 21
151.958776737169
 31
0.0
  0
ARC
  5
1088
330
2
100
AcDbEntity
  8
画層1
370
    20
100
AcDbCircle
 10
-562.0652295960735
 20
150.9587767371689
 30
0.0
 40
1.0
100
AcDbArc
 50
0.0
 51
90.0
  0
LINE
  5
1089
330
2
100
AcDbEntity
  8
画層1
370
    20
100
AcDbLine
 10
-556.0652295960735
 20
128.9587767371689
 30
0.0
 11
-556.0652295960735
 21
133.9587767371689
 31
0.0
  0
LINE
  5
108A
330
2
100
AcDbEntity
  8
画層1
370
    20
100
AcDbLine
 10
-562.0652295960735
 20
128.9587767371689
 30
0.0
 11
-562.0652295960735
 21
133.9587767371689
 31
0.0
  0
ARC
  5
108B
330
2
100
AcDbEntity
  8
画層1
370
    20
100
AcDbCircle
 10
-557.0652295960735
 20
128.9587767371689
 30
0.0
 40
1.0
100
AcDbArc
 50
270.0
 51
0.0
  0
ARC
  5
108C
330
2
100
AcDbEntity
  8
画層1
370
    20
100
AcDbCircle
 10
-561.0652295960735
 20
128.9587767371689
 30
0.0
 40
1.0
100
AcDbArc
 50
180.0
 51
270.0
  0
ARC
  5
108D
330
2
100
AcDbEntity
  8
画層1
370
    20
100
AcDbCircle
 10
-556.0652295960735
 20
134.9587767371689
 30
0.0
 40
1.0
100
AcDbArc
 50
180.0
 51
270.0
  0
ARC
  5
108E
330
2
100
AcDbEntity
  8
画層1
370
    20
100
AcDbCircle
 10
-562.0652295960735
 20
134.9587767371689
 30
0.0
 40
1.0
100
AcDbArc
 50
270.0
 51
0.0
  0
ARC
  5
108F
330
2
100
AcDbEntity
  8
画層1
370
    20
100
AcDbCircle
 10
-545.0652295960735
 20
156.958776737169
 30
0.0
 40
1.0
100
AcDbArc
 50
90.0
 51
180.0
  0
ARC
  5
1090
330
2
100
AcDbEntity
  8
画層1
370
    20
100
AcDbCircle
 10
-541.0652295960735
 20
156.958776737169
 30
0.0
 40
1.0
100
AcDbArc
 50
0.000000000000007
 51
90.0
  0
ARC
  5
1091
330
2
100
AcDbEntity
  8
画層1
370
    20
100
AcDbCircle
 10
-540.0652295960735
 20
150.9587767371689
 30
0.0
 40
1.0
100
AcDbArc
 50
90.0
 51
180.0
  0
ARC
  5
1092
330
2
100
AcDbEntity
  8
画層1
370
    20
100
AcDbCircle
 10
-546.0652295960735
 20
150.9587767371689
 30
0.0
 40
1.0
100
AcDbArc
 50
0.0
 51
90.0
  0
LINE
  5
1093
330
2
100
AcDbEntity
  8
画層1
370
    20
100
AcDbLine
 10
-546.0652295960735
 20
156.958776737169
 30
0.0
 11
-546.0652295960735
 21
151.958776737169
 31
0.0
  0
LINE
  5
1094
330
2
100
AcDbEntity
  8
画層1
370
    20
100
AcDbLine
 10
-540.0652295960735
 20
156.958776737169
 30
0.0
 11
-540.0652295960735
 21
151.958776737169
 31
0.0
  0
LINE
  5
1095
330
2
100
AcDbEntity
  8
画層1
370
    20
100
AcDbLine
 10
-546.0652295960735
 20
128.9587767371689
 30
0.0
 11
-546.0652295960735
 21
133.9587767371689
 31
0.0
  0
LINE
  5
1096
330
2
100
AcDbEntity
  8
画層1
370
    20
100
AcDbLine
 10
-540.0652295960735
 20
128.9587767371689
 30
0.0
 11
-540.0652295960735
 21
133.9587767371689
 31
0.0
  0
ARC
  5
1097
330
2
100
AcDbEntity
  8
画層1
370
    20
100
AcDbCircle
 10
-541.0652295960735
 20
128.9587767371689
 30
0.0
 40
1.0
100
AcDbArc
 50
270.0
 51
0.0
  0
ARC
  5
1098
330
2
100
AcDbEntity
  8
画層1
370
    20
100
AcDbCircle
 10
-545.0652295960735
 20
128.9587767371689
 30
0.0
 40
1.0
100
AcDbArc
 50
180.0
 51
270.0
  0
ARC
  5
1099
330
2
100
AcDbEntity
  8
画層1
370
    20
100
AcDbCircle
 10
-540.0652295960735
 20
134.9587767371689
 30
0.0
 40
1.0
100
AcDbArc
 50
180.0
 51
270.0
  0
ARC
  5
109A
330
2
100
AcDbEntity
  8
画層1
370
    20
100
AcDbCircle
 10
-546.0652295960735
 20
134.9587767371689
 30
0.0
 40
1.0
100
AcDbArc
 50
270.0
 51
0.0
  0
CIRCLE
  5
109D
330
2
100
AcDbEntity
  8
画層1
370
    20
100
AcDbCircle
 10
-615.0652295960735
 20
142.9587767371689
 30
0.0
 40
5.0
  0
CIRCLE
  5
109E
330
2
100
AcDbEntity
  8
画層1
370
    20
100
AcDbCircle
 10
-615.0652295960735
 20
142.9587767371689
 30
0.0
 40
4.0
  0
CIRCLE
  5
109F
330
2
100
AcDbEntity
  8
画層1
370
    20
100
AcDbCircle
 10
-615.0652295960735
 20
142.9587767371689
 30
0.0
 40
2.5
  0
LINE
  5
10A8
330
2
100
AcDbEntity
  8
画層1
370
    20
100
AcDbLine
 10
-616.5652295960735
 20
142.458776737169
 30
0.0
 11
-616.5652295960735
 21
143.458776737169
 31
0.0
  0
LINE
  5
10A9
330
2
100
AcDbEntity
  8
画層1
370
    20
100
AcDbLine
 10
-616.5652295960735
 20
143.458776737169
 30
0.0
 11
-615.5652295960735
 21
143.458776737169
 31
0.0
  0
LINE
  5
10AA
330
2
100
AcDbEntity
  8
画層1
370
    20
100
AcDbLine
 10
-615.5652295960735
 20
143.458776737169
 30
0.0
 11
-615.5652295960735
 21
144.4587767371689
 31
0.0
  0
LINE
  5
10AB
330
2
100
AcDbEntity
  8
画層1
370
    20
100
AcDbLine
 10
-615.5652295960735
 20
144.4587767371689
 30
0.0
 11
-614.5652295960736
 21
144.4587767371689
 31
0.0
  0
LINE
  5
10AC
330
2
100
AcDbEntity
  8
画層1
370
    20
100
AcDbLine
 10
-614.5652295960736
 20
144.4587767371689
 30
0.0
 11
-614.5652295960736
 21
143.458776737169
 31
0.0
  0
LINE
  5
10AD
330
2
100
AcDbEntity
  8
画層1
370
    20
100
AcDbLine
 10
-614.5652295960736
 20
143.458776737169
 30
0.0
 11
-613.5652295960735
 21
143.458776737169
 31
0.0
  0
LINE
  5
10AE
330
2
100
AcDbEntity
  8
画層1
370
    20
100
AcDbLine
 10
-613.5652295960735
 20
143.458776737169
 30
0.0
 11
-613.5652295960735
 21
142.458776737169
 31
0.0
  0
LINE
  5
10AF
330
2
100
AcDbEntity
  8
画層1
370
    20
100
AcDbLine
 10
-613.5652295960735
 20
142.458776737169
 30
0.0
 11
-614.5652295960736
 21
142.458776737169
 31
0.0
  0
LINE
  5
10B0
330
2
100
AcDbEntity
  8
画層1
370
    20
100
AcDbLine
 10
-614.5652295960736
 20
142.458776737169
 30
0.0
 11
-614.5652295960736
 21
141.4587767371689
 31
0.0
  0
LINE
  5
10B1
330
2
100
AcDbEntity
  8
画層1
370
    20
100
AcDbLine
 10
-614.5652295960736
 20
141.4587767371689
 30
0.0
 11
-615.5652295960735
 21
141.4587767371689
 31
0.0
  0
LINE
  5
10B2
330
2
100
AcDbEntity
  8
画層1
370
    20
100
AcDbLine
 10
-615.5652295960735
 20
141.4587767371689
 30
0.0
 11
-615.5652295960735
 21
142.458776737169
 31
0.0
  0
LINE
  5
10B3
330
2
100
AcDbEntity
  8
画層1
370
    20
100
AcDbLine
 10
-616.5652295960735
 20
142.458776737169
 30
0.0
 11
-615.5652295960735
 21
142.458776737169
 31
0.0
  0
CIRCLE
  5
10B4
330
2
100
AcDbEntity
  8
画層1
370
    20
100
AcDbCircle
 10
-535.0652295960735
 20
142.9587767371689
 30
0.0
 40
4.0
  0
CIRCLE
  5
10B5
330
2
100
AcDbEntity
  8
画層1
370
    20
100
AcDbCircle
 10
-535.0652295960735
 20
142.9587767371689
 30
0.0
 40
5.0
  0
LINE
  5
10B6
330
2
100
AcDbEntity
  8
画層1
370
    20
100
AcDbLine
 10
-536.5652295960735
 20
142.458776737169
 30
0.0
 11
-535.5652295960735
 21
142.458776737169
 31
0.0
  0
LINE
  5
10B7
330
2
100
AcDbEntity
  8
画層1
370
    20
100
AcDbLine
 10
-535.5652295960735
 20
141.4587767371689
 30
0.0
 11
-535.5652295960735
 21
142.458776737169
 31
0.0
  0
LINE
  5
10B8
330
2
100
AcDbEntity
  8
画層1
370
    20
100
AcDbLine
 10
-534.5652295960735
 20
141.4587767371689
 30
0.0
 11
-535.5652295960735
 21
141.4587767371689
 31
0.0
  0
LINE
  5
10B9
330
2
100
AcDbEntity
  8
画層1
370
    20
100
AcDbLine
 10
-534.5652295960735
 20
142.458776737169
 30
0.0
 11
-534.5652295960735
 21
141.4587767371689
 31
0.0
  0
LINE
  5
10BA
330
2
100
AcDbEntity
  8
画層1
370
    20
100
AcDbLine
 10
-533.5652295960735
 20
142.458776737169
 30
0.0
 11
-534.5652295960735
 21
142.458776737169
 31
0.0
  0
LINE
  5
10BB
330
2
100
AcDbEntity
  8
画層1
370
    20
100
AcDbLine
 10
-533.5652295960735
 20
143.458776737169
 30
0.0
 11
-533.5652295960735
 21
142.458776737169
 31
0.0
  0
LINE
  5
10BC
330
2
100
AcDbEntity
  8
画層1
370
    20
100
AcDbLine
 10
-534.5652295960735
 20
143.458776737169
 30
0.0
 11
-533.5652295960735
 21
143.458776737169
 31
0.0
  0
LINE
  5
10BD
330
2
100
AcDbEntity
  8
画層1
370
    20
100
AcDbLine
 10
-534.5652295960735
 20
144.4587767371689
 30
0.0
 11
-534.5652295960735
 21
143.458776737169
 31
0.0
  0
LINE
  5
10BE
330
2
100
AcDbEntity
  8
画層1
370
    20
100
AcDbLine
 10
-535.5652295960735
 20
144.4587767371689
 30
0.0
 11
-534.5652295960735
 21
144.4587767371689
 31
0.0
  0
LINE
  5
10BF
330
2
100
AcDbEntity
  8
画層1
370
    20
100
AcDbLine
 10
-535.5652295960735
 20
143.458776737169
 30
0.0
 11
-535.5652295960735
 21
144.4587767371689
 31
0.0
  0
LINE
  5
10C0
330
2
100
AcDbEntity
  8
画層1
370
    20
100
AcDbLine
 10
-536.5652295960735
 20
143.458776737169
 30
0.0
 11
-535.5652295960735
 21
143.458776737169
 31
0.0
  0
LINE
  5
10C1
330
2
100
AcDbEntity
  8
画層1
370
    20
100
AcDbLine
 10
-536.5652295960735
 20
142.458776737169
 30
0.0
 11
-536.5652295960735
 21
143.458776737169
 31
0.0
  0
CIRCLE
  5
10C2
330
2
100
AcDbEntity
  8
画層1
370
    20
100
AcDbCircle
 10
-535.0652295960735
 20
142.9587767371689
 30
0.0
 40
2.5
  0
CIRCLE
  5
10C4
330
2
100
AcDbEntity
  8
画層1
370
    20
100
AcDbCircle
 10
-599.0652295960735
 20
142.9587767371689
 30
0.0
 40
5.0
  0
LINE
  5
10CE
330
2
100
AcDbEntity
  8
画層1
370
    20
100
AcDbLine
 10
-600.0652295960735
 20
145.4587767371689
 30
0.0
 11
-600.0652295960735
 21
143.9587767371689
 31
0.0
  0
LINE
  5
10CF
330
2
100
AcDbEntity
  8
画層1
370
    20
100
AcDbLine
 10
-600.0652295960735
 20
143.9587767371689
 30
0.0
 11
-601.5652295960735
 21
143.9587767371689
 31
0.0
  0
LINE
  5
10D0
330
2
100
AcDbEntity
  8
画層1
370
    20
100
AcDbLine
 10
-601.5652295960735
 20
143.9587767371689
 30
0.0
 11
-601.5652295960735
 21
141.9587767371689
 31
0.0
  0
LINE
  5
10D1
330
2
100
AcDbEntity
  8
画層1
370
    20
100
AcDbLine
 10
-601.5652295960735
 20
141.9587767371689
 30
0.0
 11
-600.0652295960735
 21
141.9587767371689
 31
0.0
  0
LINE
  5
10D2
330
2
100
AcDbEntity
  8
画層1
370
    20
100
AcDbLine
 10
-600.0652295960735
 20
141.9587767371689
 30
0.0
 11
-600.0652295960735
 21
140.4587767371689
 31
0.0
  0
LINE
  5
10D3
330
2
100
AcDbEntity
  8
画層1
370
    20
100
AcDbLine
 10
-600.0652295960735
 20
140.4587767371689
 30
0.0
 11
-598.0652295960735
 21
140.4587767371689
 31
0.0
  0
LINE
  5
10D4
330
2
100
AcDbEntity
  8
画層1
370
    20
100
AcDbLine
 10
-598.0652295960735
 20
140.4587767371689
 30
0.0
 11
-598.0652295960735
 21
141.9587767371689
 31
0.0
  0
LINE
  5
10D5
330
2
100
AcDbEntity
  8
画層1
370
    20
100
AcDbLine
 10
-598.0652295960735
 20
141.9587767371689
 30
0.0
 11
-596.5652295960735
 21
141.9587767371689
 31
0.0
  0
LINE
  5
10D6
330
2
100
AcDbEntity
  8
画層1
370
    20
100
AcDbLine
 10
-596.5652295960735
 20
141.9587767371689
 30
0.0
 11
-596.5652295960735
 21
143.9587767371689
 31
0.0
  0
LINE
  5
10D7
330
2
100
AcDbEntity
  8
画層1
370
    20
100
AcDbLine
 10
-596.5652295960735
 20
143.9587767371689
 30
0.0
 11
-598.0652295960735
 21
143.9587767371689
 31
0.0
  0
LINE
  5
10D8
330
2
100
AcDbEntity
  8
画層1
370
    20
100
AcDbLine
 10
-598.0652295960735
 20
143.9587767371689
 30
0.0
 11
-598.0652295960735
 21
145.4587767371689
 31
0.0
  0
LINE
  5
10D9
330
2
100
AcDbEntity
  8
画層1
370
    20
100
AcDbLine
 10
-598.0652295960735
 20
145.4587767371689
 30
0.0
 11
-600.0652295960735
 21
145.4587767371689
 31
0.0
  0
CIRCLE
  5
10DA
330
2
100
AcDbEntity
  8
画層1
370
    20
100
AcDbCircle
 10
-583.0652295960735
 20
142.9587767371689
 30
0.0
 40
5.0
  0
LINE
  5
10DB
330
2
100
AcDbEntity
  8
画層1
370
    20
100
AcDbLine
 10
-585.5652295960735
 20
141.9587767371689
 30
0.0
 11
-584.0652295960735
 21
141.9587767371689
 31
0.0
  0
LINE
  5
10DC
330
2
100
AcDbEntity
  8
画層1
370
    20
100
AcDbLine
 10
-584.0652295960735
 20
143.9587767371689
 30
0.0
 11
-585.5652295960735
 21
143.9587767371689
 31
0.0
  0
LINE
  5
10DD
330
2
100
AcDbEntity
  8
画層1
370
    20
100
AcDbLine
 10
-585.5652295960735
 20
143.9587767371689
 30
0.0
 11
-585.5652295960735
 21
141.9587767371689
 31
0.0
  0
LINE
  5
10DE
330
2
100
AcDbEntity
  8
画層1
370
    20
100
AcDbLine
 10
-582.0652295960735
 20
145.4587767371689
 30
0.0
 11
-584.0652295960735
 21
145.4587767371689
 31
0.0
  0
LINE
  5
10DF
330
2
100
AcDbEntity
  8
画層1
370
    20
100
AcDbLine
 10
-582.0652295960735
 20
143.9587767371689
 30
0.0
 11
-582.0652295960735
 21
145.4587767371689
 31
0.0
  0
LINE
  5
10E0
330
2
100
AcDbEntity
  8
画層1
370
    20
100
AcDbLine
 10
-580.5652295960735
 20
143.9587767371689
 30
0.0
 11
-582.0652295960735
 21
143.9587767371689
 31
0.0
  0
LINE
  5
10E1
330
2
100
AcDbEntity
  8
画層1
370
    20
100
AcDbLine
 10
-580.5652295960735
 20
141.9587767371689
 30
0.0
 11
-580.5652295960735
 21
143.9587767371689
 31
0.0
  0
LINE
  5
10E2
330
2
100
AcDbEntity
  8
画層1
370
    20
100
AcDbLine
 10
-582.0652295960735
 20
141.9587767371689
 30
0.0
 11
-580.5652295960735
 21
141.9587767371689
 31
0.0
  0
LINE
  5
10E3
330
2
100
AcDbEntity
  8
画層1
370
    20
100
AcDbLine
 10
-582.0652295960735
 20
140.4587767371689
 30
0.0
 11
-582.0652295960735
 21
141.9587767371689
 31
0.0
  0
LINE
  5
10E4
330
2
100
AcDbEntity
  8
画層1
370
    20
100
AcDbLine
 10
-584.0652295960735
 20
140.4587767371689
 30
0.0
 11
-582.0652295960735
 21
140.4587767371689
 31
0.0
  0
LINE
  5
10E5
330
2
100
AcDbEntity
  8
画層1
370
    20
100
AcDbLine
 10
-584.0652295960735
 20
141.9587767371689
 30
0.0
 11
-584.0652295960735
 21
140.4587767371689
 31
0.0
  0
LINE
  5
10E6
330
2
100
AcDbEntity
  8
画層1
370
    20
100
AcDbLine
 10
-584.0652295960735
 20
145.4587767371689
 30
0.0
 11
-584.0652295960735
 21
143.9587767371689
 31
0.0
  0
CIRCLE
  5
10E7
330
2
100
AcDbEntity
  8
画層1
370
    20
100
AcDbCircle
 10
-567.0652295960735
 20
142.9587767371689
 30
0.0
 40
5.0
  0
LINE
  5
10E8
330
2
100
AcDbEntity
  8
画層1
370
    20
100
AcDbLine
 10
-568.0652295960735
 20
145.4587767371689
 30
0.0
 11
-568.0652295960735
 21
143.9587767371689
 31
0.0
  0
LINE
  5
10E9
330
2
100
AcDbEntity
  8
画層1
370
    20
100
AcDbLine
 10
-568.0652295960735
 20
141.9587767371689
 30
0.0
 11
-568.0652295960735
 21
140.4587767371689
 31
0.0
  0
LINE
  5
10EA
330
2
100
AcDbEntity
  8
画層1
370
    20
100
AcDbLine
 10
-568.0652295960735
 20
140.4587767371689
 30
0.0
 11
-566.0652295960735
 21
140.4587767371689
 31
0.0
  0
LINE
  5
10EB
330
2
100
AcDbEntity
  8
画層1
370
    20
100
AcDbLine
 10
-566.0652295960735
 20
140.4587767371689
 30
0.0
 11
-566.0652295960735
 21
141.9587767371689
 31
0.0
  0
LINE
  5
10EC
330
2
100
AcDbEntity
  8
画層1
370
    20
100
AcDbLine
 10
-566.0652295960735
 20
141.9587767371689
 30
0.0
 11
-564.5652295960736
 21
141.9587767371689
 31
0.0
  0
LINE
  5
10ED
330
2
100
AcDbEntity
  8
画層1
370
    20
100
AcDbLine
 10
-564.5652295960736
 20
141.9587767371689
 30
0.0
 11
-564.5652295960736
 21
143.9587767371689
 31
0.0
  0
LINE
  5
10EE
330
2
100
AcDbEntity
  8
画層1
370
    20
100
AcDbLine
 10
-564.5652295960736
 20
143.9587767371689
 30
0.0
 11
-566.0652295960735
 21
143.9587767371689
 31
0.0
  0
LINE
  5
10EF
330
2
100
AcDbEntity
  8
画層1
370
    20
100
AcDbLine
 10
-566.0652295960735
 20
143.9587767371689
 30
0.0
 11
-566.0652295960735
 21
145.4587767371689
 31
0.0
  0
LINE
  5
10F0
330
2
100
AcDbEntity
  8
画層1
370
    20
100
AcDbLine
 10
-566.0652295960735
 20
145.4587767371689
 30
0.0
 11
-568.0652295960735
 21
145.4587767371689
 31
0.0
  0
LINE
  5
10F1
330
2
100
AcDbEntity
  8
画層1
370
    20
100
AcDbLine
 10
-569.5652295960735
 20
143.9587767371689
 30
0.0
 11
-569.5652295960735
 21
141.9587767371689
 31
0.0
  0
LINE
  5
10F2
330
2
100
AcDbEntity
  8
画層1
370
    20
100
AcDbLine
 10
-568.0652295960735
 20
143.9587767371689
 30
0.0
 11
-569.5652295960735
 21
143.9587767371689
 31
0.0
  0
LINE
  5
10F3
330
2
100
AcDbEntity
  8
画層1
370
    20
100
AcDbLine
 10
-569.5652295960735
 20
141.9587767371689
 30
0.0
 11
-568.0652295960735
 21
141.9587767371689
 31
0.0
  0
LINE
  5
10F4
330
2
100
AcDbEntity
  8
画層1
370
    20
100
AcDbLine
 10
-550.0652295960735
 20
145.4587767371689
 30
0.0
 11
-552.0652295960736
 21
145.4587767371689
 31
0.0
  0
LINE
  5
10F5
330
2
100
AcDbEntity
  8
画層1
370
    20
100
AcDbLine
 10
-552.0652295960736
 20
140.4587767371689
 30
0.0
 11
-550.0652295960735
 21
140.4587767371689
 31
0.0
  0
CIRCLE
  5
10F6
330
2
100
AcDbEntity
  8
画層1
370
    20
100
AcDbCircle
 10
-551.0652295960735
 20
142.9587767371689
 30
0.0
 40
5.0
  0
LINE
  5
10F7
330
2
100
AcDbEntity
  8
画層1
370
    20
100
AcDbLine
 10
-553.5652295960735
 20
141.9587767371689
 30
0.0
 11
-552.0652295960736
 21
141.9587767371689
 31
0.0
  0
LINE
  5
10F8
330
2
100
AcDbEntity
  8
画層1
370
    20
100
AcDbLine
 10
-552.0652295960736
 20
143.9587767371689
 30
0.0
 11
-553.5652295960735
 21
143.9587767371689
 31
0.0
  0
LINE
  5
10F9
330
2
100
AcDbEntity
  8
画層1
370
    20
100
AcDbLine
 10
-553.5652295960735
 20
143.9587767371689
 30
0.0
 11
-553.5652295960735
 21
141.9587767371689
 31
0.0
  0
LINE
  5
10FA
330
2
100
AcDbEntity
  8
画層1
370
    20
100
AcDbLine
 10
-552.0652295960736
 20
141.9587767371689
 30
0.0
 11
-552.0652295960736
 21
140.4587767371689
 31
0.0
  0
LINE
  5
10FB
330
2
100
AcDbEntity
  8
画層1
370
    20
100
AcDbLine
 10
-552.0652295960736
 20
145.4587767371689
 30
0.0
 11
-552.0652295960736
 21
143.9587767371689
 31
0.0
  0
LINE
  5
10FC
330
2
100
AcDbEntity
  8
画層1
370
    20
100
AcDbLine
 10
-550.0652295960735
 20
143.9587767371689
 30
0.0
 11
-550.0652295960735
 21
145.4587767371689
 31
0.0
  0
LINE
  5
10FD
330
2
100
AcDbEntity
  8
画層1
370
    20
100
AcDbLine
 10
-548.5652295960735
 20
143.9587767371689
 30
0.0
 11
-550.0652295960735
 21
143.9587767371689
 31
0.0
  0
LINE
  5
10FE
330
2
100
AcDbEntity
  8
画層1
370
    20
100
AcDbLine
 10
-548.5652295960735
 20
141.9587767371689
 30
0.0
 11
-548.5652295960735
 21
143.9587767371689
 31
0.0
  0
LINE
  5
10FF
330
2
100
AcDbEntity
  8
画層1
370
    20
100
AcDbLine
 10
-550.0652295960735
 20
141.9587767371689
 30
0.0
 11
-548.5652295960735
 21
141.9587767371689
 31
0.0
  0
LINE
  5
1100
330
2
100
AcDbEntity
  8
画層1
370
    20
100
AcDbLine
 10
-550.0652295960735
 20
140.4587767371689
 30
0.0
 11
-550.0652295960735
 21
141.9587767371689
 31
0.0
  0
CIRCLE
  5
1117
330
2
100
AcDbEntity
  8
画層1
370
    20
100
AcDbCircle
 10
-600.5652295960735
 20
172.9587767371689
 30
0.0
 40
4.0
  0
CIRCLE
  5
1118
330
2
100
AcDbEntity
  8
画層1
370
    20
100
AcDbCircle
 10
-600.5652295960735
 20
172.9587767371689
 30
0.0
 40
2.5
  0
LINE
  5
1119
330
2
100
AcDbEntity
  8
画層1
370
    20
100
AcDbLine
 10
-600.0652295960735
 20
172.4587767371689
 30
0.0
 11
-600.0652295960735
 21
171.4587767371689
 31
0.0
  0
LINE
  5
111A
330
2
100
AcDbEntity
  8
画層1
370
    20
100
AcDbLine
 10
-602.0652295960736
 20
172.4587767371689
 30
0.0
 11
-601.0652295960735
 21
172.4587767371689
 31
0.0
  0
LINE
  5
111B
330
2
100
AcDbEntity
  8
画層1
370
    20
100
AcDbLine
 10
-601.0652295960735
 20
171.4587767371689
 30
0.0
 11
-601.0652295960735
 21
172.4587767371689
 31
0.0
  0
LINE
  5
111C
330
2
100
AcDbEntity
  8
画層1
370
    20
100
AcDbLine
 10
-600.0652295960735
 20
171.4587767371689
 30
0.0
 11
-601.0652295960735
 21
171.4587767371689
 31
0.0
  0
LINE
  5
111D
330
2
100
AcDbEntity
  8
画層1
370
    20
100
AcDbLine
 10
-599.0652295960735
 20
172.4587767371689
 30
0.0
 11
-600.0652295960735
 21
172.4587767371689
 31
0.0
  0
LINE
  5
111E
330
2
100
AcDbEntity
  8
画層1
370
    20
100
AcDbLine
 10
-599.0652295960735
 20
173.4587767371689
 30
0.0
 11
-599.0652295960735
 21
172.4587767371689
 31
0.0
  0
LINE
  5
111F
330
2
100
AcDbEntity
  8
画層1
370
    20
100
AcDbLine
 10
-600.0652295960735
 20
173.4587767371689
 30
0.0
 11
-599.0652295960735
 21
173.4587767371689
 31
0.0
  0
LINE
  5
1120
330
2
100
AcDbEntity
  8
画層1
370
    20
100
AcDbLine
 10
-600.0652295960735
 20
174.4587767371689
 30
0.0
 11
-600.0652295960735
 21
173.4587767371689
 31
0.0
  0
LINE
  5
1121
330
2
100
AcDbEntity
  8
画層1
370
    20
100
AcDbLine
 10
-601.0652295960735
 20
174.4587767371689
 30
0.0
 11
-600.0652295960735
 21
174.4587767371689
 31
0.0
  0
LINE
  5
1122
330
2
100
AcDbEntity
  8
画層1
370
    20
100
AcDbLine
 10
-601.0652295960735
 20
173.4587767371689
 30
0.0
 11
-601.0652295960735
 21
174.4587767371689
 31
0.0
  0
LINE
  5
1123
330
2
100
AcDbEntity
  8
画層1
370
    20
100
AcDbLine
 10
-602.0652295960736
 20
173.4587767371689
 30
0.0
 11
-601.0652295960735
 21
173.4587767371689
 31
0.0
  0
LINE
  5
1124
330
2
100
AcDbEntity
  8
画層1
370
    20
100
AcDbLine
 10
-602.0652295960736
 20
172.4587767371689
 30
0.0
 11
-602.0652295960736
 21
173.4587767371689
 31
0.0
  0
LINE
  5
1127
330
2
100
AcDbEntity
  8
画層1
370
    20
100
AcDbLine
 10
-529.0652295960735
 20
173.4587767371689
 30
0.0
 11
-528.0652295960735
 21
173.4587767371689
 31
0.0
  0
LINE
  5
1128
330
2
100
AcDbEntity
  8
画層1
370
    20
100
AcDbLine
 10
-529.0652295960735
 20
172.4587767371689
 30
0.0
 11
-528.0652295960735
 21
172.4587767371689
 31
0.0
  0
CIRCLE
  5
1129
330
2
100
AcDbEntity
  8
画層1
370
    20
100
AcDbCircle
 10
-527.5652295960735
 20
172.9587767371689
 30
0.0
 40
2.5
  0
LINE
  5
112A
330
2
100
AcDbEntity
  8
画層1
370
    20
100
AcDbLine
 10
-529.0652295960735
 20
172.4587767371689
 30
0.0
 11
-529.0652295960735
 21
173.4587767371689
 31
0.0
  0
LINE
  5
112B
330
2
100
AcDbEntity
  8
画層1
370
    20
100
AcDbLine
 10
-528.0652295960735
 20
173.4587767371689
 30
0.0
 11
-528.0652295960735
 21
174.4587767371689
 31
0.0
  0
LINE
  5
112C
330
2
100
AcDbEntity
  8
画層1
370
    20
100
AcDbLine
 10
-528.0652295960735
 20
174.4587767371689
 30
0.0
 11
-527.0652295960736
 21
174.4587767371689
 31
0.0
  0
LINE
  5
112D
330
2
100
AcDbEntity
  8
画層1
370
    20
100
AcDbLine
 10
-527.0652295960736
 20
174.4587767371689
 30
0.0
 11
-527.0652295960736
 21
173.4587767371689
 31
0.0
  0
LINE
  5
112E
330
2
100
AcDbEntity
  8
画層1
370
    20
100
AcDbLine
 10
-527.0652295960736
 20
173.4587767371689
 30
0.0
 11
-526.0652295960735
 21
173.4587767371689
 31
0.0
  0
LINE
  5
112F
330
2
100
AcDbEntity
  8
画層1
370
    20
100
AcDbLine
 10
-526.0652295960735
 20
173.4587767371689
 30
0.0
 11
-526.0652295960735
 21
172.4587767371689
 31
0.0
  0
LINE
  5
1130
330
2
100
AcDbEntity
  8
画層1
370
    20
100
AcDbLine
 10
-526.0652295960735
 20
172.4587767371689
 30
0.0
 11
-527.0652295960736
 21
172.4587767371689
 31
0.0
  0
LINE
  5
1131
330
2
100
AcDbEntity
  8
画層1
370
    20
100
AcDbLine
 10
-527.0652295960736
 20
171.4587767371689
 30
0.0
 11
-528.0652295960735
 21
171.4587767371689
 31
0.0
  0
LINE
  5
1132
330
2
100
AcDbEntity
  8
画層1
370
    20
100
AcDbLine
 10
-528.0652295960735
 20
171.4587767371689
 30
0.0
 11
-528.0652295960735
 21
172.4587767371689
 31
0.0
  0
LINE
  5
1133
330
2
100
AcDbEntity
  8
画層1
370
    20
100
AcDbLine
 10
-527.0652295960736
 20
172.4587767371689
 30
0.0
 11
-527.0652295960736
 21
171.4587767371689
 31
0.0
  0
CIRCLE
  5
1134
330
2
100
AcDbEntity
  8
画層1
370
    20
100
AcDbCircle
 10
-527.5652295960735
 20
172.9587767371689
 30
0.0
 40
4.0
  0
CIRCLE
  5
1137
330
2
100
AcDbEntity
  8
画層1
370
    20
100
AcDbCircle
 10
-600.5652295960735
 20
344.9587767371689
 30
0.0
 40
4.0
  0
LINE
  5
1138
330
2
100
AcDbEntity
  8
画層1
370
    20
100
AcDbLine
 10
-602.0652295960736
 20
345.4587767371689
 30
0.0
 11
-601.0652295960735
 21
345.4587767371689
 31
0.0
  0
LINE
  5
1139
330
2
100
AcDbEntity
  8
画層1
370
    20
100
AcDbLine
 10
-602.0652295960736
 20
344.458776737169
 30
0.0
 11
-601.0652295960735
 21
344.458776737169
 31
0.0
  0
CIRCLE
  5
113A
330
2
100
AcDbEntity
  8
画層1
370
    20
100
AcDbCircle
 10
-600.5652295960735
 20
344.9587767371689
 30
0.0
 40
2.5
  0
LINE
  5
113B
330
2
100
AcDbEntity
  8
画層1
370
    20
100
AcDbLine
 10
-602.0652295960736
 20
344.458776737169
 30
0.0
 11
-602.0652295960736
 21
345.4587767371689
 31
0.0
  0
LINE
  5
113C
330
2
100
AcDbEntity
  8
画層1
370
    20
100
AcDbLine
 10
-601.0652295960735
 20
345.4587767371689
 30
0.0
 11
-601.0652295960735
 21
346.458776737169
 31
0.0
  0
LINE
  5
113D
330
2
100
AcDbEntity
  8
画層1
370
    20
100
AcDbLine
 10
-601.0652295960735
 20
346.458776737169
 30
0.0
 11
-600.0652295960735
 21
346.458776737169
 31
0.0
  0
LINE
  5
113E
330
2
100
AcDbEntity
  8
画層1
370
    20
100
AcDbLine
 10
-600.0652295960735
 20
346.458776737169
 30
0.0
 11
-600.0652295960735
 21
345.4587767371689
 31
0.0
  0
LINE
  5
113F
330
2
100
AcDbEntity
  8
画層1
370
    20
100
AcDbLine
 10
-600.0652295960735
 20
345.4587767371689
 30
0.0
 11
-599.0652295960735
 21
345.4587767371689
 31
0.0
  0
LINE
  5
1140
330
2
100
AcDbEntity
  8
画層1
370
    20
100
AcDbLine
 10
-599.0652295960735
 20
345.4587767371689
 30
0.0
 11
-599.0652295960735
 21
344.458776737169
 31
0.0
  0
LINE
  5
1141
330
2
100
AcDbEntity
  8
画層1
370
    20
100
AcDbLine
 10
-599.0652295960735
 20
344.458776737169
 30
0.0
 11
-600.0652295960735
 21
344.458776737169
 31
0.0
  0
LINE
  5
1142
330
2
100
AcDbEntity
  8
画層1
370
    20
100
AcDbLine
 10
-600.0652295960735
 20
343.4587767371689
 30
0.0
 11
-601.0652295960735
 21
343.4587767371689
 31
0.0
  0
LINE
  5
1143
330
2
100
AcDbEntity
  8
画層1
370
    20
100
AcDbLine
 10
-601.0652295960735
 20
343.4587767371689
 30
0.0
 11
-601.0652295960735
 21
344.458776737169
 31
0.0
  0
LINE
  5
1144
330
2
100
AcDbEntity
  8
画層1
370
    20
100
AcDbLine
 10
-600.0652295960735
 20
344.458776737169
 30
0.0
 11
-600.0652295960735
 21
343.4587767371689
 31
0.0
  0
CIRCLE
  5
1145
330
2
100
AcDbEntity
  8
画層1
370
    20
100
AcDbCircle
 10
-527.5652295960735
 20
344.9587767371689
 30
0.0
 40
4.0
  0
LINE
  5
1146
330
2
100
AcDbEntity
  8
画層1
370
    20
100
AcDbLine
 10
-527.0652295960736
 20
344.458776737169
 30
0.0
 11
-527.0652295960736
 21
343.4587767371689
 31
0.0
  0
LINE
  5
1147
330
2
100
AcDbEntity
  8
画層1
370
    20
100
AcDbLine
 10
-528.0652295960735
 20
343.4587767371689
 30
0.0
 11
-528.0652295960735
 21
344.458776737169
 31
0.0
  0
LINE
  5
1148
330
2
100
AcDbEntity
  8
画層1
370
    20
100
AcDbLine
 10
-527.0652295960736
 20
343.4587767371689
 30
0.0
 11
-528.0652295960735
 21
343.4587767371689
 31
0.0
  0
LINE
  5
1149
330
2
100
AcDbEntity
  8
画層1
370
    20
100
AcDbLine
 10
-526.0652295960735
 20
344.458776737169
 30
0.0
 11
-527.0652295960736
 21
344.458776737169
 31
0.0
  0
LINE
  5
114A
330
2
100
AcDbEntity
  8
画層1
370
    20
100
AcDbLine
 10
-526.0652295960735
 20
345.4587767371689
 30
0.0
 11
-526.0652295960735
 21
344.458776737169
 31
0.0
  0
LINE
  5
114B
330
2
100
AcDbEntity
  8
画層1
370
    20
100
AcDbLine
 10
-527.0652295960736
 20
345.4587767371689
 30
0.0
 11
-526.0652295960735
 21
345.4587767371689
 31
0.0
  0
LINE
  5
114C
330
2
100
AcDbEntity
  8
画層1
370
    20
100
AcDbLine
 10
-527.0652295960736
 20
346.458776737169
 30
0.0
 11
-527.0652295960736
 21
345.4587767371689
 31
0.0
  0
LINE
  5
114D
330
2
100
AcDbEntity
  8
画層1
370
    20
100
AcDbLine
 10
-528.0652295960735
 20
346.458776737169
 30
0.0
 11
-527.0652295960736
 21
346.458776737169
 31
0.0
  0
LINE
  5
114E
330
2
100
AcDbEntity
  8
画層1
370
    20
100
AcDbLine
 10
-528.0652295960735
 20
345.4587767371689
 30
0.0
 11
-528.0652295960735
 21
346.458776737169
 31
0.0
  0
LINE
  5
114F
330
2
100
AcDbEntity
  8
画層1
370
    20
100
AcDbLine
 10
-529.0652295960735
 20
344.458776737169
 30
0.0
 11
-529.0652295960735
 21
345.4587767371689
 31
0.0
  0
CIRCLE
  5
1150
330
2
100
AcDbEntity
  8
画層1
370
    20
100
AcDbCircle
 10
-527.5652295960735
 20
344.9587767371689
 30
0.0
 40
2.5
  0
LINE
  5
1151
330
2
100
AcDbEntity
  8
画層1
370
    20
100
AcDbLine
 10
-529.0652295960735
 20
344.458776737169
 30
0.0
 11
-528.0652295960735
 21
344.458776737169
 31
0.0
  0
LINE
  5
1152
330
2
100
AcDbEntity
  8
画層1
370
    20
100
AcDbLine
 10
-529.0652295960735
 20
345.4587767371689
 30
0.0
 11
-528.0652295960735
 21
345.4587767371689
 31
0.0
  0
CIRCLE
  5
115D
330
2
100
AcDbEntity
  8
画層1
370
    20
100
AcDbCircle
 10
-623.5652295960735
 20
322.958776737169
 30
0.0
 40
5.0
  0
CIRCLE
  5
115E
330
2
100
AcDbEntity
  8
画層1
370
    20
100
AcDbCircle
 10
-623.5652295960735
 20
322.958776737169
 30
0.0
 40
3.5
  0
CIRCLE
  5
115F
330
2
100
AcDbEntity
  8
画層1
370
    20
100
AcDbCircle
 10
-623.5652295960735
 20
322.958776737169
 30
0.0
 40
3.0
  0
LINE
  5
1161
330
2
100
AcDbEntity
  8
画層1
370
    20
100
AcDbLine
 10
-625.0652295960735
 20
322.4587767371689
 30
0.0
 11
-624.0652295960735
 21
322.4587767371689
 31
0.0
  0
LINE
  5
1162
330
2
100
AcDbEntity
  8
画層1
370
    20
100
AcDbLine
 10
-625.0652295960735
 20
323.458776737169
 30
0.0
 11
-624.0652295960735
 21
323.458776737169
 31
0.0
  0
LINE
  5
1163
330
2
100
AcDbEntity
  8
画層1
370
    20
100
AcDbLine
 10
-625.0652295960735
 20
322.4587767371689
 30
0.0
 11
-625.0652295960735
 21
323.458776737169
 31
0.0
  0
LINE
  5
1164
330
2
100
AcDbEntity
  8
画層1
370
    20
100
AcDbLine
 10
-623.0652295960735
 20
322.4587767371689
 30
0.0
 11
-623.0652295960735
 21
321.458776737169
 31
0.0
  0
LINE
  5
1165
330
2
100
AcDbEntity
  8
画層1
370
    20
100
AcDbLine
 10
-624.0652295960735
 20
321.458776737169
 30
0.0
 11
-624.0652295960735
 21
322.4587767371689
 31
0.0
  0
LINE
  5
1166
330
2
100
AcDbEntity
  8
画層1
370
    20
100
AcDbLine
 10
-623.0652295960735
 20
321.458776737169
 30
0.0
 11
-624.0652295960735
 21
321.458776737169
 31
0.0
  0
LINE
  5
1167
330
2
100
AcDbEntity
  8
画層1
370
    20
100
AcDbLine
 10
-622.0652295960735
 20
322.4587767371689
 30
0.0
 11
-623.0652295960735
 21
322.4587767371689
 31
0.0
  0
LINE
  5
1168
330
2
100
AcDbEntity
  8
画層1
370
    20
100
AcDbLine
 10
-622.0652295960735
 20
323.458776737169
 30
0.0
 11
-622.0652295960735
 21
322.4587767371689
 31
0.0
  0
LINE
  5
1169
330
2
100
AcDbEntity
  8
画層1
370
    20
100
AcDbLine
 10
-623.0652295960735
 20
323.458776737169
 30
0.0
 11
-622.0652295960735
 21
323.458776737169
 31
0.0
  0
LINE
  5
116A
330
2
100
AcDbEntity
  8
画層1
370
    20
100
AcDbLine
 10
-623.0652295960735
 20
324.4587767371689
 30
0.0
 11
-623.0652295960735
 21
323.458776737169
 31
0.0
  0
LINE
  5
116B
330
2
100
AcDbEntity
  8
画層1
370
    20
100
AcDbLine
 10
-624.0652295960735
 20
324.4587767371689
 30
0.0
 11
-623.0652295960735
 21
324.4587767371689
 31
0.0
  0
LINE
  5
116C
330
2
100
AcDbEntity
  8
画層1
370
    20
100
AcDbLine
 10
-624.0652295960735
 20
323.458776737169
 30
0.0
 11
-624.0652295960735
 21
324.4587767371689
 31
0.0
  0
LINE
  5
1171
330
2
100
AcDbEntity
  8
画層1
370
    20
100
AcDbLine
 10
-624.0652295960735
 20
183.4587767371689
 30
0.0
 11
-624.0652295960735
 21
184.458776737169
 31
0.0
  0
LINE
  5
1172
330
2
100
AcDbEntity
  8
画層1
370
    20
100
AcDbLine
 10
-623.0652295960735
 20
184.458776737169
 30
0.0
 11
-623.0652295960735
 21
183.4587767371689
 31
0.0
  0
LINE
  5
1173
330
2
100
AcDbEntity
  8
画層1
370
    20
100
AcDbLine
 10
-623.0652295960735
 20
183.4587767371689
 30
0.0
 11
-624.0652295960735
 21
183.4587767371689
 31
0.0
  0
LINE
  5
1174
330
2
100
AcDbEntity
  8
画層1
370
    20
100
AcDbLine
 10
-624.0652295960735
 20
186.4587767371689
 30
0.0
 11
-623.0652295960735
 21
186.4587767371689
 31
0.0
  0
LINE
  5
1175
330
2
100
AcDbEntity
  8
画層1
370
    20
100
AcDbLine
 10
-624.0652295960735
 20
185.4587767371689
 30
0.0
 11
-624.0652295960735
 21
186.4587767371689
 31
0.0
  0
LINE
  5
1176
330
2
100
AcDbEntity
  8
画層1
370
    20
100
AcDbLine
 10
-625.0652295960735
 20
184.458776737169
 30
0.0
 11
-625.0652295960735
 21
185.4587767371689
 31
0.0
  0
LINE
  5
1177
330
2
100
AcDbEntity
  8
画層1
370
    20
100
AcDbLine
 10
-625.0652295960735
 20
185.4587767371689
 30
0.0
 11
-624.0652295960735
 21
185.4587767371689
 31
0.0
  0
LINE
  5
1178
330
2
100
AcDbEntity
  8
画層1
370
    20
100
AcDbLine
 10
-625.0652295960735
 20
184.458776737169
 30
0.0
 11
-624.0652295960735
 21
184.458776737169
 31
0.0
  0
LINE
  5
1179
330
2
100
AcDbEntity
  8
画層1
370
    20
100
AcDbLine
 10
-623.0652295960735
 20
186.4587767371689
 30
0.0
 11
-623.0652295960735
 21
185.4587767371689
 31
0.0
  0
LINE
  5
117A
330
2
100
AcDbEntity
  8
画層1
370
    20
100
AcDbLine
 10
-623.0652295960735
 20
185.4587767371689
 30
0.0
 11
-622.0652295960735
 21
185.4587767371689
 31
0.0
  0
LINE
  5
117B
330
2
100
AcDbEntity
  8
画層1
370
    20
100
AcDbLine
 10
-622.0652295960735
 20
185.4587767371689
 30
0.0
 11
-622.0652295960735
 21
184.458776737169
 31
0.0
  0
LINE
  5
117C
330
2
100
AcDbEntity
  8
画層1
370
    20
100
AcDbLine
 10
-622.0652295960735
 20
184.458776737169
 30
0.0
 11
-623.0652295960735
 21
184.458776737169
 31
0.0
  0
CIRCLE
  5
117F
330
2
100
AcDbEntity
  8
画層1
370
    20
100
AcDbCircle
 10
-623.5652295960735
 20
184.9587767371689
 30
0.0
 40
4.0
  0
CIRCLE
  5
1180
330
2
100
AcDbEntity
  8
画層1
370
    20
100
AcDbCircle
 10
-623.5652295960735
 20
184.9587767371689
 30
0.0
 40
3.0
  0
LINE
  5
1184
330
2
100
AcDbEntity
  8
画層1
370
    20
100
AcDbLine
 10
-606.5652295960735
 20
178.9587767371689
 30
0.0
 11
-629.5652295960735
 21
178.9587767371689
 31
0.0
  0
LINE
  5
1185
330
2
100
AcDbEntity
  8
画層1
370
    20
100
AcDbLine
 10
-629.5652295960735
 20
178.9587767371689
 30
0.0
 11
-629.5652295960735
 21
328.9587767371689
 31
0.0
  0
LINE
  5
1186
330
2
100
AcDbEntity
  8
画層1
370
    20
100
AcDbLine
 10
-629.5652295960735
 20
328.9587767371689
 30
0.0
 11
-606.5652295960735
 21
328.9587767371689
 31
0.0
  0
LWPOLYLINE
  5
118D
330
2
100
AcDbEntity
  8
画層1
370
    20
100
AcDbPolyline
 90
        4
 70
     1
 43
0.0
 10
-628.5652295960735
 20
193.9587767371689
 10
-615.5652295960735
 20
193.9587767371689
 10
-615.5652295960735
 20
191.9587767371689
 10
-628.5652295960735
 20
191.9587767371689
  0
LWPOLYLINE
  5
118E
330
2
100
AcDbEntity
  8
画層1
370
    20
100
AcDbPolyline
 90
        4
 70
     1
 43
0.0
 10
-628.5652295960735
 20
203.9587767371689
 10
-615.5652295960735
 20
203.9587767371689
 10
-615.5652295960735
 20
201.9587767371689
 10
-628.5652295960735
 20
201.9587767371689
  0
LWPOLYLINE
  5
118F
330
2
100
AcDbEntity
  8
画層1
370
    20
100
AcDbPolyline
 90
        4
 70
     1
 43
0.0
 10
-628.5652295960735
 20
213.9587767371689
 10
-615.5652295960735
 20
213.9587767371689
 10
-615.5652295960735
 20
211.9587767371689
 10
-628.5652295960735
 20
211.9587767371689
  0
LWPOLYLINE
  5
1190
330
2
100
AcDbEntity
  8
画層1
370
    20
100
AcDbPolyline
 90
        4
 70
     1
 43
0.0
 10
-628.5652295960735
 20
223.9587767371689
 10
-615.5652295960735
 20
223.9587767371689
 10
-615.5652295960735
 20
221.9587767371689
 10
-628.5652295960735
 20
221.9587767371689
  0
LWPOLYLINE
  5
1191
330
2
100
AcDbEntity
  8
画層1
370
    20
100
AcDbPolyline
 90
        4
 70
     1
 43
0.0
 10
-628.5652295960735
 20
233.958776737169
 10
-615.5652295960735
 20
233.958776737169
 10
-615.5652295960735
 20
231.958776737169
 10
-628.5652295960735
 20
231.958776737169
  0
LWPOLYLINE
  5
1192
330
2
100
AcDbEntity
  8
画層1
370
    20
100
AcDbPolyline
 90
        4
 70
     1
 43
0.0
 10
-628.5652295960735
 20
243.958776737169
 10
-615.5652295960735
 20
243.958776737169
 10
-615.5652295960735
 20
241.958776737169
 10
-628.5652295960735
 20
241.958776737169
  0
LWPOLYLINE
  5
1193
330
2
100
AcDbEntity
  8
画層1
370
    20
100
AcDbPolyline
 90
        4
 70
     1
 43
0.0
 10
-628.5652295960735
 20
253.9587767371689
 10
-615.5652295960735
 20
253.9587767371689
 10
-615.5652295960735
 20
251.9587767371689
 10
-628.5652295960735
 20
251.9587767371689
  0
LWPOLYLINE
  5
1194
330
2
100
AcDbEntity
  8
画層1
370
    20
100
AcDbPolyline
 90
        4
 70
     1
 43
0.0
 10
-628.5652295960735
 20
263.9587767371689
 10
-615.5652295960735
 20
263.9587767371689
 10
-615.5652295960735
 20
261.9587767371689
 10
-628.5652295960735
 20
261.9587767371689
  0
LWPOLYLINE
  5
1195
330
2
100
AcDbEntity
  8
画層1
370
    20
100
AcDbPolyline
 90
        4
 70
     1
 43
0.0
 10
-628.5652295960735
 20
273.9587767371689
 10
-615.5652295960735
 20
273.9587767371689
 10
-615.5652295960735
 20
271.9587767371689
 10
-628.5652295960735
 20
271.9587767371689
  0
LWPOLYLINE
  5
1196
330
2
100
AcDbEntity
  8
画層1
370
    20
100
AcDbPolyline
 90
        4
 70
     1
 43
0.0
 10
-628.5652295960735
 20
283.9587767371689
 10
-615.5652295960735
 20
283.9587767371689
 10
-615.5652295960735
 20
281.958776737169
 10
-628.5652295960735
 20
281.958776737169
  0
LINE
  5
1197
330
2
100
AcDbEntity
  8
画層1
370
    20
100
AcDbLine
 10
-615.5652295960735
 20
281.958776737169
 30
0.0
 11
-615.5652295960735
 21
193.9587767371689
 31
0.0
  0
LINE
  5
1198
330
2
100
AcDbEntity
  8
画層1
370
    20
100
AcDbLine
 10
-628.5652295960735
 20
281.958776737169
 30
0.0
 11
-628.5652295960735
 21
193.9587767371689
 31
0.0
  0
CIRCLE
  5
119A
330
2
100
AcDbEntity
  8
画層1
370
    20
100
AcDbCircle
 10
-622.0652295960735
 20
277.9587767371689
 30
0.0
 40
3.0
  0
LINE
  5
11A3
330
2
100
AcDbEntity
  8
画層1
370
    20
100
AcDbLine
 10
-622.5652295960735
 20
279.958776737169
 30
0.0
 11
-622.5652295960735
 21
278.4587767371689
 31
0.0
  0
LINE
  5
11A4
330
2
100
AcDbEntity
  8
画層1
370
    20
100
AcDbLine
 10
-622.5652295960735
 20
278.4587767371689
 30
0.0
 11
-625.0232694876233
 21
278.4587767371689
 31
0.0
  0
LINE
  5
11A5
330
2
100
AcDbEntity
  8
画層1
370
    20
100
AcDbLine
 10
-625.0232694876233
 20
277.458776737169
 30
0.0
 11
-622.5652295960735
 21
277.458776737169
 31
0.0
  0
LINE
  5
11A6
330
2
100
AcDbEntity
  8
画層1
370
    20
100
AcDbLine
 10
-622.5652295960735
 20
277.458776737169
 30
0.0
 11
-622.5652295960735
 21
275.9587767371689
 31
0.0
  0
LINE
  5
11A7
330
2
100
AcDbEntity
  8
画層1
370
    20
100
AcDbLine
 10
-622.5652295960735
 20
275.9587767371689
 30
0.0
 11
-621.5652295960735
 21
275.9587767371689
 31
0.0
  0
LINE
  5
11A8
330
2
100
AcDbEntity
  8
画層1
370
    20
100
AcDbLine
 10
-621.5652295960735
 20
275.9587767371689
 30
0.0
 11
-621.5652295960735
 21
277.458776737169
 31
0.0
  0
LINE
  5
11A9
330
2
100
AcDbEntity
  8
画層1
370
    20
100
AcDbLine
 10
-621.5652295960735
 20
277.458776737169
 30
0.0
 11
-619.1071897045238
 21
277.458776737169
 31
0.0
  0
LINE
  5
11AA
330
2
100
AcDbEntity
  8
画層1
370
    20
100
AcDbLine
 10
-619.1071897045238
 20
278.4587767371689
 30
0.0
 11
-621.5652295960735
 21
278.4587767371689
 31
0.0
  0
LINE
  5
11AB
330
2
100
AcDbEntity
  8
画層1
370
    20
100
AcDbLine
 10
-621.5652295960735
 20
278.4587767371689
 30
0.0
 11
-621.5652295960735
 21
279.958776737169
 31
0.0
  0
LINE
  5
11AC
330
2
100
AcDbEntity
  8
画層1
370
    20
100
AcDbLine
 10
-621.5652295960735
 20
279.958776737169
 30
0.0
 11
-622.5652295960735
 21
279.958776737169
 31
0.0
  0
LINE
  5
11AE
330
2
100
AcDbEntity
  8
画層1
370
    20
100
AcDbLine
 10
-626.0652295960735
 20
275.9587767371689
 30
0.0
 11
-626.0652295960735
 21
279.958776737169
 31
0.0
  0
LINE
  5
11AF
330
2
100
AcDbEntity
  8
画層1
370
    20
100
AcDbLine
 10
-618.0652295960735
 20
275.9587767371689
 30
0.0
 11
-618.0652295960735
 21
279.958776737169
 31
0.0
  0
LINE
  5
11B1
330
2
100
AcDbEntity
  8
画層1
370
    20
100
AcDbLine
 10
-624.0652295960735
 20
273.9587767371689
 30
0.0
 11
-620.0652295960735
 21
273.9587767371689
 31
0.0
  0
ARC
  5
11B2
330
2
100
AcDbEntity
  8
画層1
370
    20
100
AcDbCircle
 10
-624.0652295960734
 20
275.9587767371688
 30
0.0
 40
2.0
100
AcDbArc
 50
179.9999999999951
 51
269.9999999999967
  0
LINE
  5
11B3
330
2
100
AcDbEntity
  8
画層1
370
    20
100
AcDbLine
 10
-624.0652295960735
 20
281.958776737169
 30
0.0
 11
-620.0652295960735
 21
281.958776737169
 31
0.0
  0
ARC
  5
11B5
330
2
100
AcDbEntity
  8
画層1
370
    20
100
AcDbCircle
 10
-620.0652295960736
 20
275.9587767371689
 30
0.0
 40
2.0
100
AcDbArc
 50
270.0000000000032
 51
0.0000000000016284
  0
ARC
  5
11B6
330
2
100
AcDbEntity
  8
画層1
370
    20
100
AcDbCircle
 10
-624.0652295960736
 20
279.958776737169
 30
0.0
 40
2.0
100
AcDbArc
 50
89.99999999999674
 51
180.0000000000016
  0
ARC
  5
11B8
330
2
100
AcDbEntity
  8
画層1
370
    20
100
AcDbCircle
 10
-620.0652295960734
 20
279.958776737169
 30
0.0
 40
2.0
100
AcDbArc
 50
359.9999999999967
 51
90.00000000000325
  0
LINE
  5
11B9
330
2
100
AcDbEntity
  8
画層1
370
    20
100
AcDbLine
 10
-618.0652295960735
 20
269.9587767371691
 30
0.0
 11
-618.0652295960737
 21
265.9587766371689
 31
0.0
  0
LINE
  5
11BB
330
2
100
AcDbEntity
  8
画層1
370
    20
100
AcDbLine
 10
-626.0652295960735
 20
269.958776737169
 30
0.0
 11
-626.0652295960734
 21
265.9587766371689
 31
0.0
  0
LINE
  5
11BD
330
2
100
AcDbEntity
  8
画層1
370
    20
100
AcDbLine
 10
-621.5652295960735
 20
265.9587767371689
 30
0.0
 11
-621.5652295960735
 21
267.458776737169
 31
0.0
  0
LINE
  5
11BE
330
2
100
AcDbEntity
  8
画層1
370
    20
100
AcDbLine
 10
-622.5652295960735
 20
267.458776737169
 30
0.0
 11
-622.5652295960735
 21
265.9587767371689
 31
0.0
  0
CIRCLE
  5
11BF
330
2
100
AcDbEntity
  8
画層1
370
    20
100
AcDbCircle
 10
-622.0652295960735
 20
267.9587767371689
 30
0.0
 40
3.0
  0
LINE
  5
11C0
330
2
100
AcDbEntity
  8
画層1
370
    20
100
AcDbLine
 10
-624.0652295960735
 20
263.9587767371689
 30
0.0
 11
-620.0652295960735
 21
263.9587767371689
 31
0.0
  0
ARC
  5
11C1
330
2
100
AcDbEntity
  8
画層1
370
    20
100
AcDbCircle
 10
-624.0652295960734
 20
265.9587767371688
 30
0.0
 40
2.0
100
AcDbArc
 50
179.9999999999951
 51
269.9999999999967
  0
ARC
  5
11C2
330
2
100
AcDbEntity
  8
画層1
370
    20
100
AcDbCircle
 10
-620.0652295960736
 20
265.9587767371689
 30
0.0
 40
2.0
100
AcDbArc
 50
270.0000000000032
 51
0.0000000000016284
  0
LINE
  5
11C3
330
2
100
AcDbEntity
  8
画層1
370
    20
100
AcDbLine
 10
-622.5652295960735
 20
265.9587767371689
 30
0.0
 11
-621.5652295960735
 21
265.9587767371689
 31
0.0
  0
LINE
  5
11C4
330
2
100
AcDbEntity
  8
画層1
370
    20
100
AcDbLine
 10
-624.0652295960735
 20
271.9587767371689
 30
0.0
 11
-620.0652295960735
 21
271.9587767371689
 31
0.0
  0
LINE
  5
11C5
330
2
100
AcDbEntity
  8
画層1
370
    20
100
AcDbLine
 10
-625.0232694876233
 20
267.458776737169
 30
0.0
 11
-622.5652295960735
 21
267.458776737169
 31
0.0
  0
LINE
  5
11C6
330
2
100
AcDbEntity
  8
画層1
370
    20
100
AcDbLine
 10
-622.5652295960735
 20
268.4587767371689
 30
0.0
 11
-625.0232694876233
 21
268.4587767371689
 31
0.0
  0
ARC
  5
11C7
330
2
100
AcDbEntity
  8
画層1
370
    20
100
AcDbCircle
 10
-624.0652295960736
 20
269.958776737169
 30
0.0
 40
2.0
100
AcDbArc
 50
89.99999999999674
 51
180.0000000000016
  0
ARC
  5
11C8
330
2
100
AcDbEntity
  8
画層1
370
    20
100
AcDbCircle
 10
-620.0652295960734
 20
269.9587767371691
 30
0.0
 40
2.0
100
AcDbArc
 50
359.9999999999967
 51
90.00000000000325
  0
LINE
  5
11C9
330
2
100
AcDbEntity
  8
画層1
370
    20
100
AcDbLine
 10
-621.5652295960735
 20
269.9587767371689
 30
0.0
 11
-622.5652295960735
 21
269.9587767371689
 31
0.0
  0
LINE
  5
11CA
330
2
100
AcDbEntity
  8
画層1
370
    20
100
AcDbLine
 10
-621.5652295960735
 20
268.4587767371689
 30
0.0
 11
-621.5652295960735
 21
269.9587767371689
 31
0.0
  0
LINE
  5
11CB
330
2
100
AcDbEntity
  8
画層1
370
    20
100
AcDbLine
 10
-619.1071897045238
 20
268.4587767371689
 30
0.0
 11
-621.5652295960735
 21
268.4587767371689
 31
0.0
  0
LINE
  5
11CC
330
2
100
AcDbEntity
  8
画層1
370
    20
100
AcDbLine
 10
-621.5652295960735
 20
267.458776737169
 30
0.0
 11
-619.1071897045238
 21
267.458776737169
 31
0.0
  0
LINE
  5
11CD
330
2
100
AcDbEntity
  8
画層1
370
    20
100
AcDbLine
 10
-622.5652295960735
 20
269.9587767371689
 30
0.0
 11
-622.5652295960735
 21
268.4587767371689
 31
0.0
  0
CIRCLE
  5
11CF
330
2
100
AcDbEntity
  8
画層1
370
    20
100
AcDbCircle
 10
-622.0652295960735
 20
257.9587767371689
 30
0.0
 40
3.0
  0
LINE
  5
11D0
330
2
100
AcDbEntity
  8
画層1
370
    20
100
AcDbLine
 10
-622.5652295960735
 20
257.4587767371689
 30
0.0
 11
-622.5652295960735
 21
255.9587767371689
 31
0.0
  0
LINE
  5
11D1
330
2
100
AcDbEntity
  8
画層1
370
    20
100
AcDbLine
 10
-621.5652295960735
 20
255.9587767371689
 30
0.0
 11
-621.5652295960735
 21
257.4587767371689
 31
0.0
  0
LINE
  5
11D2
330
2
100
AcDbEntity
  8
画層1
370
    20
100
AcDbLine
 10
-626.0652295960735
 20
259.958776737169
 30
0.0
 11
-626.0652295960734
 21
255.9587766371689
 31
0.0
  0
LINE
  5
11D3
330
2
100
AcDbEntity
  8
画層1
370
    20
100
AcDbLine
 10
-618.0652295960735
 20
259.9587767371691
 30
0.0
 11
-618.0652295960737
 21
255.9587766371689
 31
0.0
  0
LINE
  5
11D4
330
2
100
AcDbEntity
  8
画層1
370
    20
100
AcDbLine
 10
-624.0652295960735
 20
253.9587767371689
 30
0.0
 11
-620.0652295960735
 21
253.9587767371689
 31
0.0
  0
ARC
  5
11D5
330
2
100
AcDbEntity
  8
画層1
370
    20
100
AcDbCircle
 10
-624.0652295960734
 20
255.9587767371688
 30
0.0
 40
2.0
100
AcDbArc
 50
179.9999999999951
 51
269.9999999999967
  0
LINE
  5
11D6
330
2
100
AcDbEntity
  8
画層1
370
    20
100
AcDbLine
 10
-622.5652295960735
 20
255.9587767371689
 30
0.0
 11
-621.5652295960735
 21
255.9587767371689
 31
0.0
  0
ARC
  5
11D7
330
2
100
AcDbEntity
  8
画層1
370
    20
100
AcDbCircle
 10
-620.0652295960736
 20
255.9587767371689
 30
0.0
 40
2.0
100
AcDbArc
 50
270.0000000000032
 51
0.0000000000016284
  0
LINE
  5
11D8
330
2
100
AcDbEntity
  8
画層1
370
    20
100
AcDbLine
 10
-622.5652295960735
 20
258.458776737169
 30
0.0
 11
-625.0232694876233
 21
258.458776737169
 31
0.0
  0
LINE
  5
11D9
330
2
100
AcDbEntity
  8
画層1
370
    20
100
AcDbLine
 10
-625.0232694876233
 20
257.4587767371689
 30
0.0
 11
-622.5652295960735
 21
257.4587767371689
 31
0.0
  0
LINE
  5
11DA
330
2
100
AcDbEntity
  8
画層1
370
    20
100
AcDbLine
 10
-624.0652295960735
 20
261.9587767371689
 30
0.0
 11
-620.0652295960735
 21
261.9587767371689
 31
0.0
  0
ARC
  5
11DB
330
2
100
AcDbEntity
  8
画層1
370
    20
100
AcDbCircle
 10
-624.0652295960736
 20
259.958776737169
 30
0.0
 40
2.0
100
AcDbArc
 50
89.99999999999674
 51
180.0000000000016
  0
LINE
  5
11DC
330
2
100
AcDbEntity
  8
画層1
370
    20
100
AcDbLine
 10
-622.5652295960735
 20
259.9587767371689
 30
0.0
 11
-622.5652295960735
 21
258.458776737169
 31
0.0
  0
LINE
  5
11DD
330
2
100
AcDbEntity
  8
画層1
370
    20
100
AcDbLine
 10
-621.5652295960735
 20
257.4587767371689
 30
0.0
 11
-619.1071897045238
 21
257.4587767371689
 31
0.0
  0
LINE
  5
11DE
330
2
100
AcDbEntity
  8
画層1
370
    20
100
AcDbLine
 10
-619.1071897045238
 20
258.458776737169
 30
0.0
 11
-621.5652295960735
 21
258.458776737169
 31
0.0
  0
LINE
  5
11DF
330
2
100
AcDbEntity
  8
画層1
370
    20
100
AcDbLine
 10
-621.5652295960735
 20
258.458776737169
 30
0.0
 11
-621.5652295960735
 21
259.9587767371689
 31
0.0
  0
LINE
  5
11E0
330
2
100
AcDbEntity
  8
画層1
370
    20
100
AcDbLine
 10
-621.5652295960735
 20
259.9587767371689
 30
0.0
 11
-622.5652295960735
 21
259.9587767371689
 31
0.0
  0
ARC
  5
11E1
330
2
100
AcDbEntity
  8
画層1
370
    20
100
AcDbCircle
 10
-620.0652295960734
 20
259.9587767371691
 30
0.0
 40
2.0
100
AcDbArc
 50
359.9999999999967
 51
90.00000000000325
  0
LINE
  5
11E2
330
2
100
AcDbEntity
  8
画層1
370
    20
100
AcDbLine
 10
-618.0652295960735
 20
249.9587767371691
 30
0.0
 11
-618.0652295960737
 21
245.9587766371689
 31
0.0
  0
LINE
  5
11E3
330
2
100
AcDbEntity
  8
画層1
370
    20
100
AcDbLine
 10
-626.0652295960735
 20
249.958776737169
 30
0.0
 11
-626.0652295960734
 21
245.9587766371689
 31
0.0
  0
CIRCLE
  5
11E4
330
2
100
AcDbEntity
  8
画層1
370
    20
100
AcDbCircle
 10
-622.0652295960735
 20
247.9587767371689
 30
0.0
 40
3.0
  0
LINE
  5
11E5
330
2
100
AcDbEntity
  8
画層1
370
    20
100
AcDbLine
 10
-625.0232694876233
 20
247.4587767371689
 30
0.0
 11
-622.5652295960735
 21
247.4587767371689
 31
0.0
  0
LINE
  5
11E6
330
2
100
AcDbEntity
  8
画層1
370
    20
100
AcDbLine
 10
-624.0652295960735
 20
243.958776737169
 30
0.0
 11
-620.0652295960735
 21
243.958776737169
 31
0.0
  0
ARC
  5
11E7
330
2
100
AcDbEntity
  8
画層1
370
    20
100
AcDbCircle
 10
-624.0652295960734
 20
245.9587767371688
 30
0.0
 40
2.0
100
AcDbArc
 50
179.9999999999951
 51
269.9999999999967
  0
LINE
  5
11E8
330
2
100
AcDbEntity
  8
画層1
370
    20
100
AcDbLine
 10
-621.5652295960735
 20
247.4587767371689
 30
0.0
 11
-619.1071897045238
 21
247.4587767371689
 31
0.0
  0
ARC
  5
11E9
330
2
100
AcDbEntity
  8
画層1
370
    20
100
AcDbCircle
 10
-620.0652295960736
 20
245.9587767371689
 30
0.0
 40
2.0
100
AcDbArc
 50
270.0000000000032
 51
0.0000000000016284
  0
LINE
  5
11EA
330
2
100
AcDbEntity
  8
画層1
370
    20
100
AcDbLine
 10
-622.5652295960735
 20
245.958776737169
 30
0.0
 11
-621.5652295960735
 21
245.958776737169
 31
0.0
  0
LINE
  5
11EB
330
2
100
AcDbEntity
  8
画層1
370
    20
100
AcDbLine
 10
-621.5652295960735
 20
245.958776737169
 30
0.0
 11
-621.5652295960735
 21
247.4587767371689
 31
0.0
  0
LINE
  5
11EC
330
2
100
AcDbEntity
  8
画層1
370
    20
100
AcDbLine
 10
-622.5652295960735
 20
247.4587767371689
 30
0.0
 11
-622.5652295960735
 21
245.958776737169
 31
0.0
  0
LINE
  5
11ED
330
2
100
AcDbEntity
  8
画層1
370
    20
100
AcDbLine
 10
-624.0652295960735
 20
251.9587767371689
 30
0.0
 11
-620.0652295960735
 21
251.9587767371689
 31
0.0
  0
LINE
  5
11EE
330
2
100
AcDbEntity
  8
画層1
370
    20
100
AcDbLine
 10
-622.5652295960735
 20
248.458776737169
 30
0.0
 11
-625.0232694876233
 21
248.458776737169
 31
0.0
  0
ARC
  5
11EF
330
2
100
AcDbEntity
  8
画層1
370
    20
100
AcDbCircle
 10
-624.0652295960736
 20
249.958776737169
 30
0.0
 40
2.0
100
AcDbArc
 50
89.99999999999674
 51
180.0000000000016
  0
ARC
  5
11F0
330
2
100
AcDbEntity
  8
画層1
370
    20
100
AcDbCircle
 10
-620.0652295960734
 20
249.9587767371691
 30
0.0
 40
2.0
100
AcDbArc
 50
359.9999999999967
 51
90.00000000000325
  0
LINE
  5
11F1
330
2
100
AcDbEntity
  8
画層1
370
    20
100
AcDbLine
 10
-621.5652295960735
 20
249.9587767371689
 30
0.0
 11
-622.5652295960735
 21
249.9587767371689
 31
0.0
  0
LINE
  5
11F2
330
2
100
AcDbEntity
  8
画層1
370
    20
100
AcDbLine
 10
-621.5652295960735
 20
248.458776737169
 30
0.0
 11
-621.5652295960735
 21
249.9587767371689
 31
0.0
  0
LINE
  5
11F3
330
2
100
AcDbEntity
  8
画層1
370
    20
100
AcDbLine
 10
-619.1071897045238
 20
248.458776737169
 30
0.0
 11
-621.5652295960735
 21
248.458776737169
 31
0.0
  0
LINE
  5
11F4
330
2
100
AcDbEntity
  8
画層1
370
    20
100
AcDbLine
 10
-622.5652295960735
 20
249.9587767371689
 30
0.0
 11
-622.5652295960735
 21
248.458776737169
 31
0.0
  0
LINE
  5
11F5
330
2
100
AcDbEntity
  8
画層1
370
    20
100
AcDbLine
 10
-622.5652295960735
 20
239.958776737169
 30
0.0
 11
-622.5652295960735
 21
238.4587767371689
 31
0.0
  0
LINE
  5
11F6
330
2
100
AcDbEntity
  8
画層1
370
    20
100
AcDbLine
 10
-621.5652295960735
 20
238.4587767371689
 30
0.0
 11
-621.5652295960735
 21
239.958776737169
 31
0.0
  0
CIRCLE
  5
11F7
330
2
100
AcDbEntity
  8
画層1
370
    20
100
AcDbCircle
 10
-622.0652295960735
 20
237.958776737169
 30
0.0
 40
3.0
  0
LINE
  5
11F8
330
2
100
AcDbEntity
  8
画層1
370
    20
100
AcDbLine
 10
-626.0652295960735
 20
239.958776737169
 30
0.0
 11
-626.0652295960734
 21
235.9587766371689
 31
0.0
  0
LINE
  5
11F9
330
2
100
AcDbEntity
  8
画層1
370
    20
100
AcDbLine
 10
-618.0652295960735
 20
239.958776737169
 30
0.0
 11
-618.0652295960737
 21
235.9587766371689
 31
0.0
  0
LINE
  5
11FA
330
2
100
AcDbEntity
  8
画層1
370
    20
100
AcDbLine
 10
-622.5652295960735
 20
238.4587767371689
 30
0.0
 11
-625.0232694876233
 21
238.4587767371689
 31
0.0
  0
LINE
  5
11FB
330
2
100
AcDbEntity
  8
画層1
370
    20
100
AcDbLine
 10
-624.0652295960735
 20
233.958776737169
 30
0.0
 11
-620.0652295960735
 21
233.958776737169
 31
0.0
  0
LINE
  5
11FC
330
2
100
AcDbEntity
  8
画層1
370
    20
100
AcDbLine
 10
-625.0232694876233
 20
237.4587767371689
 30
0.0
 11
-622.5652295960735
 21
237.4587767371689
 31
0.0
  0
ARC
  5
11FD
330
2
100
AcDbEntity
  8
画層1
370
    20
100
AcDbCircle
 10
-624.0652295960734
 20
235.9587767371688
 30
0.0
 40
2.0
100
AcDbArc
 50
179.9999999999951
 51
269.9999999999967
  0
LINE
  5
11FE
330
2
100
AcDbEntity
  8
画層1
370
    20
100
AcDbLine
 10
-619.1071897045238
 20
238.4587767371689
 30
0.0
 11
-621.5652295960735
 21
238.4587767371689
 31
0.0
  0
LINE
  5
11FF
330
2
100
AcDbEntity
  8
画層1
370
    20
100
AcDbLine
 10
-622.5652295960735
 20
237.4587767371689
 30
0.0
 11
-622.5652295960735
 21
235.958776737169
 31
0.0
  0
LINE
  5
1200
330
2
100
AcDbEntity
  8
画層1
370
    20
100
AcDbLine
 10
-621.5652295960735
 20
235.958776737169
 30
0.0
 11
-621.5652295960735
 21
237.4587767371689
 31
0.0
  0
LINE
  5
1201
330
2
100
AcDbEntity
  8
画層1
370
    20
100
AcDbLine
 10
-622.5652295960735
 20
235.958776737169
 30
0.0
 11
-621.5652295960735
 21
235.958776737169
 31
0.0
  0
ARC
  5
1202
330
2
100
AcDbEntity
  8
画層1
370
    20
100
AcDbCircle
 10
-620.0652295960736
 20
235.9587767371689
 30
0.0
 40
2.0
100
AcDbArc
 50
270.0000000000032
 51
0.0000000000016284
  0
LINE
  5
1203
330
2
100
AcDbEntity
  8
画層1
370
    20
100
AcDbLine
 10
-621.5652295960735
 20
237.4587767371689
 30
0.0
 11
-619.1071897045238
 21
237.4587767371689
 31
0.0
  0
LINE
  5
1204
330
2
100
AcDbEntity
  8
画層1
370
    20
100
AcDbLine
 10
-624.0652295960735
 20
241.958776737169
 30
0.0
 11
-620.0652295960735
 21
241.958776737169
 31
0.0
  0
ARC
  5
1205
330
2
100
AcDbEntity
  8
画層1
370
    20
100
AcDbCircle
 10
-624.0652295960736
 20
239.958776737169
 30
0.0
 40
2.0
100
AcDbArc
 50
89.99999999999674
 51
180.0000000000016
  0
LINE
  5
1206
330
2
100
AcDbEntity
  8
画層1
370
    20
100
AcDbLine
 10
-621.5652295960735
 20
239.958776737169
 30
0.0
 11
-622.5652295960735
 21
239.958776737169
 31
0.0
  0
ARC
  5
1207
330
2
100
AcDbEntity
  8
画層1
370
    20
100
AcDbCircle
 10
-620.0652295960734
 20
239.958776737169
 30
0.0
 40
2.0
100
AcDbArc
 50
359.9999999999967
 51
90.00000000000325
  0
LINE
  5
1208
330
2
100
AcDbEntity
  8
画層1
370
    20
100
AcDbLine
 10
-618.0652295960735
 20
229.958776737169
 30
0.0
 11
-618.0652295960737
 21
225.9587766371689
 31
0.0
  0
LINE
  5
1209
330
2
100
AcDbEntity
  8
画層1
370
    20
100
AcDbLine
 10
-626.0652295960735
 20
229.958776737169
 30
0.0
 11
-626.0652295960734
 21
225.9587766371689
 31
0.0
  0
CIRCLE
  5
120A
330
2
100
AcDbEntity
  8
画層1
370
    20
100
AcDbCircle
 10
-622.0652295960735
 20
227.9587767371689
 30
0.0
 40
3.0
  0
LINE
  5
120B
330
2
100
AcDbEntity
  8
画層1
370
    20
100
AcDbLine
 10
-621.5652295960735
 20
228.4587767371689
 30
0.0
 11
-621.5652295960735
 21
229.958776737169
 31
0.0
  0
LINE
  5
120C
330
2
100
AcDbEntity
  8
画層1
370
    20
100
AcDbLine
 10
-622.5652295960735
 20
229.958776737169
 30
0.0
 11
-622.5652295960735
 21
228.4587767371689
 31
0.0
  0
LINE
  5
120D
330
2
100
AcDbEntity
  8
画層1
370
    20
100
AcDbLine
 10
-625.0232694876233
 20
227.458776737169
 30
0.0
 11
-622.5652295960735
 21
227.458776737169
 31
0.0
  0
LINE
  5
120E
330
2
100
AcDbEntity
  8
画層1
370
    20
100
AcDbLine
 10
-624.0652295960735
 20
223.9587767371689
 30
0.0
 11
-620.0652295960735
 21
223.9587767371689
 31
0.0
  0
LINE
  5
120F
330
2
100
AcDbEntity
  8
画層1
370
    20
100
AcDbLine
 10
-622.5652295960735
 20
228.4587767371689
 30
0.0
 11
-625.0232694876233
 21
228.4587767371689
 31
0.0
  0
ARC
  5
1210
330
2
100
AcDbEntity
  8
画層1
370
    20
100
AcDbCircle
 10
-624.0652295960734
 20
225.9587767371688
 30
0.0
 40
2.0
100
AcDbArc
 50
179.9999999999951
 51
269.9999999999967
  0
LINE
  5
1211
330
2
100
AcDbEntity
  8
画層1
370
    20
100
AcDbLine
 10
-621.5652295960735
 20
227.458776737169
 30
0.0
 11
-619.1071897045238
 21
227.458776737169
 31
0.0
  0
ARC
  5
1212
330
2
100
AcDbEntity
  8
画層1
370
    20
100
AcDbCircle
 10
-620.0652295960736
 20
225.9587767371689
 30
0.0
 40
2.0
100
AcDbArc
 50
270.0000000000032
 51
0.0000000000016284
  0
LINE
  5
1213
330
2
100
AcDbEntity
  8
画層1
370
    20
100
AcDbLine
 10
-622.5652295960735
 20
225.9587767371689
 30
0.0
 11
-621.5652295960735
 21
225.9587767371689
 31
0.0
  0
LINE
  5
1214
330
2
100
AcDbEntity
  8
画層1
370
    20
100
AcDbLine
 10
-621.5652295960735
 20
225.9587767371689
 30
0.0
 11
-621.5652295960735
 21
227.458776737169
 31
0.0
  0
LINE
  5
1215
330
2
100
AcDbEntity
  8
画層1
370
    20
100
AcDbLine
 10
-622.5652295960735
 20
227.458776737169
 30
0.0
 11
-622.5652295960735
 21
225.9587767371689
 31
0.0
  0
LINE
  5
1216
330
2
100
AcDbEntity
  8
画層1
370
    20
100
AcDbLine
 10
-619.1071897045238
 20
228.4587767371689
 30
0.0
 11
-621.5652295960735
 21
228.4587767371689
 31
0.0
  0
LINE
  5
1217
330
2
100
AcDbEntity
  8
画層1
370
    20
100
AcDbLine
 10
-624.0652295960735
 20
231.958776737169
 30
0.0
 11
-620.0652295960735
 21
231.958776737169
 31
0.0
  0
ARC
  5
1218
330
2
100
AcDbEntity
  8
画層1
370
    20
100
AcDbCircle
 10
-624.0652295960736
 20
229.958776737169
 30
0.0
 40
2.0
100
AcDbArc
 50
89.99999999999674
 51
180.0000000000016
  0
ARC
  5
1219
330
2
100
AcDbEntity
  8
画層1
370
    20
100
AcDbCircle
 10
-620.0652295960734
 20
229.958776737169
 30
0.0
 40
2.0
100
AcDbArc
 50
359.9999999999967
 51
90.00000000000325
  0
LINE
  5
121A
330
2
100
AcDbEntity
  8
画層1
370
    20
100
AcDbLine
 10
-621.5652295960735
 20
229.958776737169
 30
0.0
 11
-622.5652295960735
 21
229.958776737169
 31
0.0
  0
ARC
  5
121B
330
2
100
AcDbEntity
  8
画層1
370
    20
100
AcDbCircle
 10
-620.0652295960734
 20
219.9587767371691
 30
0.0
 40
2.0
100
AcDbArc
 50
359.9999999999967
 51
90.00000000000325
  0
ARC
  5
121C
330
2
100
AcDbEntity
  8
画層1
370
    20
100
AcDbCircle
 10
-624.0652295960736
 20
219.958776737169
 30
0.0
 40
2.0
100
AcDbArc
 50
89.99999999999674
 51
180.0000000000016
  0
CIRCLE
  5
121D
330
2
100
AcDbEntity
  8
画層1
370
    20
100
AcDbCircle
 10
-622.0652295960735
 20
217.9587767371689
 30
0.0
 40
3.0
  0
LINE
  5
121E
330
2
100
AcDbEntity
  8
画層1
370
    20
100
AcDbLine
 10
-622.5652295960735
 20
218.4587767371689
 30
0.0
 11
-625.0232694876233
 21
218.4587767371689
 31
0.0
  0
LINE
  5
121F
330
2
100
AcDbEntity
  8
画層1
370
    20
100
AcDbLine
 10
-624.0652295960735
 20
213.9587767371689
 30
0.0
 11
-620.0652295960735
 21
213.9587767371689
 31
0.0
  0
LINE
  5
1220
330
2
100
AcDbEntity
  8
画層1
370
    20
100
AcDbLine
 10
-625.0232694876233
 20
217.458776737169
 30
0.0
 11
-622.5652295960735
 21
217.458776737169
 31
0.0
  0
ARC
  5
1221
330
2
100
AcDbEntity
  8
画層1
370
    20
100
AcDbCircle
 10
-624.0652295960734
 20
215.9587767371688
 30
0.0
 40
2.0
100
AcDbArc
 50
179.9999999999951
 51
269.9999999999967
  0
LINE
  5
1222
330
2
100
AcDbEntity
  8
画層1
370
    20
100
AcDbLine
 10
-626.0652295960735
 20
219.958776737169
 30
0.0
 11
-626.0652295960734
 21
215.9587766371689
 31
0.0
  0
LINE
  5
1223
330
2
100
AcDbEntity
  8
画層1
370
    20
100
AcDbLine
 10
-621.5652295960735
 20
219.9587767371689
 30
0.0
 11
-622.5652295960735
 21
219.9587767371689
 31
0.0
  0
LINE
  5
1224
330
2
100
AcDbEntity
  8
画層1
370
    20
100
AcDbLine
 10
-619.1071897045238
 20
218.4587767371689
 30
0.0
 11
-621.5652295960735
 21
218.4587767371689
 31
0.0
  0
LINE
  5
1225
330
2
100
AcDbEntity
  8
画層1
370
    20
100
AcDbLine
 10
-622.5652295960735
 20
217.458776737169
 30
0.0
 11
-622.5652295960735
 21
215.9587767371689
 31
0.0
  0
LINE
  5
1226
330
2
100
AcDbEntity
  8
画層1
370
    20
100
AcDbLine
 10
-621.5652295960735
 20
215.9587767371689
 30
0.0
 11
-621.5652295960735
 21
217.458776737169
 31
0.0
  0
LINE
  5
1227
330
2
100
AcDbEntity
  8
画層1
370
    20
100
AcDbLine
 10
-622.5652295960735
 20
215.9587767371689
 30
0.0
 11
-621.5652295960735
 21
215.9587767371689
 31
0.0
  0
ARC
  5
1228
330
2
100
AcDbEntity
  8
画層1
370
    20
100
AcDbCircle
 10
-620.0652295960736
 20
215.9587767371689
 30
0.0
 40
2.0
100
AcDbArc
 50
270.0000000000032
 51
0.0000000000016284
  0
LINE
  5
1229
330
2
100
AcDbEntity
  8
画層1
370
    20
100
AcDbLine
 10
-621.5652295960735
 20
217.458776737169
 30
0.0
 11
-619.1071897045238
 21
217.458776737169
 31
0.0
  0
LINE
  5
122A
330
2
100
AcDbEntity
  8
画層1
370
    20
100
AcDbLine
 10
-622.5652295960735
 20
219.9587767371689
 30
0.0
 11
-622.5652295960735
 21
218.4587767371689
 31
0.0
  0
LINE
  5
122B
330
2
100
AcDbEntity
  8
画層1
370
    20
100
AcDbLine
 10
-621.5652295960735
 20
218.4587767371689
 30
0.0
 11
-621.5652295960735
 21
219.9587767371689
 31
0.0
  0
LINE
  5
122C
330
2
100
AcDbEntity
  8
画層1
370
    20
100
AcDbLine
 10
-618.0652295960735
 20
219.9587767371691
 30
0.0
 11
-618.0652295960737
 21
215.9587766371689
 31
0.0
  0
LINE
  5
122D
330
2
100
AcDbEntity
  8
画層1
370
    20
100
AcDbLine
 10
-624.0652295960735
 20
221.9587767371689
 30
0.0
 11
-620.0652295960735
 21
221.9587767371689
 31
0.0
  0
ARC
  5
122E
330
2
100
AcDbEntity
  8
画層1
370
    20
100
AcDbCircle
 10
-624.0652295960736
 20
209.958776737169
 30
0.0
 40
2.0
100
AcDbArc
 50
89.99999999999674
 51
180.0000000000016
  0
ARC
  5
122F
330
2
100
AcDbEntity
  8
画層1
370
    20
100
AcDbCircle
 10
-620.0652295960734
 20
209.9587767371691
 30
0.0
 40
2.0
100
AcDbArc
 50
359.9999999999967
 51
90.00000000000325
  0
LINE
  5
1230
330
2
100
AcDbEntity
  8
画層1
370
    20
100
AcDbLine
 10
-625.0232694876233
 20
207.4587767371689
 30
0.0
 11
-622.5652295960735
 21
207.4587767371689
 31
0.0
  0
LINE
  5
1231
330
2
100
AcDbEntity
  8
画層1
370
    20
100
AcDbLine
 10
-624.0652295960735
 20
203.9587767371689
 30
0.0
 11
-620.0652295960735
 21
203.9587767371689
 31
0.0
  0
LINE
  5
1232
330
2
100
AcDbEntity
  8
画層1
370
    20
100
AcDbLine
 10
-622.5652295960735
 20
208.4587767371689
 30
0.0
 11
-625.0232694876233
 21
208.4587767371689
 31
0.0
  0
CIRCLE
  5
1233
330
2
100
AcDbEntity
  8
画層1
370
    20
100
AcDbCircle
 10
-622.0652295960735
 20
207.9587767371689
 30
0.0
 40
3.0
  0
LINE
  5
1234
330
2
100
AcDbEntity
  8
画層1
370
    20
100
AcDbLine
 10
-626.0652295960735
 20
209.958776737169
 30
0.0
 11
-626.0652295960734
 21
205.9587766371689
 31
0.0
  0
ARC
  5
1235
330
2
100
AcDbEntity
  8
画層1
370
    20
100
AcDbCircle
 10
-624.0652295960734
 20
205.9587767371688
 30
0.0
 40
2.0
100
AcDbArc
 50
179.9999999999951
 51
269.9999999999967
  0
LINE
  5
1236
330
2
100
AcDbEntity
  8
画層1
370
    20
100
AcDbLine
 10
-618.0652295960735
 20
209.9587767371691
 30
0.0
 11
-618.0652295960737
 21
205.9587766371689
 31
0.0
  0
LINE
  5
1237
330
2
100
AcDbEntity
  8
画層1
370
    20
100
AcDbLine
 10
-621.5652295960735
 20
208.4587767371689
 30
0.0
 11
-621.5652295960735
 21
209.9587767371689
 31
0.0
  0
LINE
  5
1238
330
2
100
AcDbEntity
  8
画層1
370
    20
100
AcDbLine
 10
-622.5652295960735
 20
209.9587767371689
 30
0.0
 11
-622.5652295960735
 21
208.4587767371689
 31
0.0
  0
LINE
  5
1239
330
2
100
AcDbEntity
  8
画層1
370
    20
100
AcDbLine
 10
-621.5652295960735
 20
207.4587767371689
 30
0.0
 11
-619.1071897045238
 21
207.4587767371689
 31
0.0
  0
ARC
  5
123A
330
2
100
AcDbEntity
  8
画層1
370
    20
100
AcDbCircle
 10
-620.0652295960736
 20
205.9587767371689
 30
0.0
 40
2.0
100
AcDbArc
 50
270.0000000000032
 51
0.0000000000016284
  0
LINE
  5
123B
330
2
100
AcDbEntity
  8
画層1
370
    20
100
AcDbLine
 10
-622.5652295960735
 20
205.9587767371689
 30
0.0
 11
-621.5652295960735
 21
205.9587767371689
 31
0.0
  0
LINE
  5
123C
330
2
100
AcDbEntity
  8
画層1
370
    20
100
AcDbLine
 10
-621.5652295960735
 20
205.9587767371689
 30
0.0
 11
-621.5652295960735
 21
207.4587767371689
 31
0.0
  0
LINE
  5
123D
330
2
100
AcDbEntity
  8
画層1
370
    20
100
AcDbLine
 10
-622.5652295960735
 20
207.4587767371689
 30
0.0
 11
-622.5652295960735
 21
205.9587767371689
 31
0.0
  0
LINE
  5
123E
330
2
100
AcDbEntity
  8
画層1
370
    20
100
AcDbLine
 10
-619.1071897045238
 20
208.4587767371689
 30
0.0
 11
-621.5652295960735
 21
208.4587767371689
 31
0.0
  0
LINE
  5
123F
330
2
100
AcDbEntity
  8
画層1
370
    20
100
AcDbLine
 10
-621.5652295960735
 20
209.9587767371689
 30
0.0
 11
-622.5652295960735
 21
209.9587767371689
 31
0.0
  0
LINE
  5
1240
330
2
100
AcDbEntity
  8
画層1
370
    20
100
AcDbLine
 10
-624.0652295960735
 20
211.9587767371689
 30
0.0
 11
-620.0652295960735
 21
211.9587767371689
 31
0.0
  0
ARC
  5
1241
330
2
100
AcDbEntity
  8
画層1
370
    20
100
AcDbCircle
 10
-620.0652295960734
 20
199.9587767371691
 30
0.0
 40
2.0
100
AcDbArc
 50
359.9999999999967
 51
90.00000000000325
  0
ARC
  5
1242
330
2
100
AcDbEntity
  8
画層1
370
    20
100
AcDbCircle
 10
-624.0652295960736
 20
199.958776737169
 30
0.0
 40
2.0
100
AcDbArc
 50
89.99999999999674
 51
180.0000000000016
  0
LINE
  5
1243
330
2
100
AcDbEntity
  8
画層1
370
    20
100
AcDbLine
 10
-624.0652295960735
 20
201.9587767371689
 30
0.0
 11
-620.0652295960735
 21
201.9587767371689
 31
0.0
  0
CIRCLE
  5
1244
330
2
100
AcDbEntity
  8
画層1
370
    20
100
AcDbCircle
 10
-622.0652295960735
 20
197.9587767371689
 30
0.0
 40
3.0
  0
LINE
  5
1245
330
2
100
AcDbEntity
  8
画層1
370
    20
100
AcDbLine
 10
-622.5652295960735
 20
198.4587767371689
 30
0.0
 11
-625.0232694876233
 21
198.4587767371689
 31
0.0
  0
LINE
  5
1246
330
2
100
AcDbEntity
  8
画層1
370
    20
100
AcDbLine
 10
-624.0652295960735
 20
193.9587767371689
 30
0.0
 11
-620.0652295960735
 21
193.9587767371689
 31
0.0
  0
LINE
  5
1247
330
2
100
AcDbEntity
  8
画層1
370
    20
100
AcDbLine
 10
-625.0232694876233
 20
197.4587767371689
 30
0.0
 11
-622.5652295960735
 21
197.4587767371689
 31
0.0
  0
ARC
  5
1248
330
2
100
AcDbEntity
  8
画層1
370
    20
100
AcDbCircle
 10
-624.0652295960734
 20
195.9587767371688
 30
0.0
 40
2.0
100
AcDbArc
 50
179.9999999999951
 51
269.9999999999967
  0
LINE
  5
1249
330
2
100
AcDbEntity
  8
画層1
370
    20
100
AcDbLine
 10
-626.0652295960735
 20
199.958776737169
 30
0.0
 11
-626.0652295960734
 21
195.9587766371689
 31
0.0
  0
LINE
  5
124A
330
2
100
AcDbEntity
  8
画層1
370
    20
100
AcDbLine
 10
-621.5652295960735
 20
199.9587767371689
 30
0.0
 11
-622.5652295960735
 21
199.9587767371689
 31
0.0
  0
LINE
  5
124B
330
2
100
AcDbEntity
  8
画層1
370
    20
100
AcDbLine
 10
-619.1071897045238
 20
198.4587767371689
 30
0.0
 11
-621.5652295960735
 21
198.4587767371689
 31
0.0
  0
LINE
  5
124C
330
2
100
AcDbEntity
  8
画層1
370
    20
100
AcDbLine
 10
-622.5652295960735
 20
197.4587767371689
 30
0.0
 11
-622.5652295960735
 21
195.9587767371689
 31
0.0
  0
LINE
  5
124D
330
2
100
AcDbEntity
  8
画層1
370
    20
100
AcDbLine
 10
-621.5652295960735
 20
195.9587767371689
 30
0.0
 11
-621.5652295960735
 21
197.4587767371689
 31
0.0
  0
LINE
  5
124E
330
2
100
AcDbEntity
  8
画層1
370
    20
100
AcDbLine
 10
-622.5652295960735
 20
195.9587767371689
 30
0.0
 11
-621.5652295960735
 21
195.9587767371689
 31
0.0
  0
ARC
  5
124F
330
2
100
AcDbEntity
  8
画層1
370
    20
100
AcDbCircle
 10
-620.0652295960736
 20
195.9587767371689
 30
0.0
 40
2.0
100
AcDbArc
 50
270.0000000000032
 51
0.0000000000016284
  0
LINE
  5
1250
330
2
100
AcDbEntity
  8
画層1
370
    20
100
AcDbLine
 10
-621.5652295960735
 20
197.4587767371689
 30
0.0
 11
-619.1071897045238
 21
197.4587767371689
 31
0.0
  0
LINE
  5
1251
330
2
100
AcDbEntity
  8
画層1
370
    20
100
AcDbLine
 10
-622.5652295960735
 20
199.9587767371689
 30
0.0
 11
-622.5652295960735
 21
198.4587767371689
 31
0.0
  0
LINE
  5
1252
330
2
100
AcDbEntity
  8
画層1
370
    20
100
AcDbLine
 10
-621.5652295960735
 20
198.4587767371689
 30
0.0
 11
-621.5652295960735
 21
199.9587767371689
 31
0.0
  0
LINE
  5
1253
330
2
100
AcDbEntity
  8
画層1
370
    20
100
AcDbLine
 10
-618.0652295960735
 20
199.9587767371691
 30
0.0
 11
-618.0652295960737
 21
195.9587766371689
 31
0.0
  0
CIRCLE
  5
1256
330
2
100
AcDbEntity
  8
画層1
370
    20
100
AcDbCircle
 10
-619.0652295960735
 20
290.708776737169
 30
0.0
 40
2.75
  0
CIRCLE
  5
1258
330
2
100
AcDbEntity
  8
画層1
370
    20
100
AcDbCircle
 10
-619.0652295960735
 20
290.708776737169
 30
0.0
 40
1.0
  0
LINE
  5
1259
330
2
100
AcDbEntity
  8
画層1
370
    20
100
AcDbLine
 10
-619.6401891706496
 20
289.8905949189871
 30
0.0
 11
-619.6401891706496
 21
289.8905949189871
 31
0.0
  0
LINE
  5
125A
330
2
100
AcDbEntity
  8
画層1
370
    20
100
AcDbLine
 10
-619.6401891706496
 20
289.8905949189871
 30
0.0
 11
-619.6401891706496
 21
289.8905949189871
 31
0.0
  0
LINE
  5
125B
330
2
100
AcDbEntity
  8
画層1
370
    20
100
AcDbLine
 10
-619.6401891706496
 20
289.8905949189871
 30
0.0
 11
-619.6401891706496
 21
289.8905949189871
 31
0.0
  0
LINE
  5
125D
330
2
100
AcDbEntity
  8
画層1
370
    20
100
AcDbLine
 10
-619.6401891706496
 20
289.8905949189871
 30
0.0
 11
-620.3588886388697
 21
288.8678676462599
 31
0.0
  0
LINE
  5
125E
330
2
100
AcDbEntity
  8
画層1
370
    20
100
AcDbLine
 10
-618.4902700214975
 20
289.8905949189871
 30
0.0
 11
-617.7715705532773
 21
288.8678676462599
 31
0.0
  0
ARC
  5
125F
330
2
100
AcDbEntity
  8
画層1
370
    20
100
AcDbCircle
 10
-619.0652295960735
 20
290.708776737169
 30
0.0
 40
2.250000000000008
100
AcDbArc
 50
305.096801227586
 51
234.9031987724139
  0
LINE
  5
1262
330
2
100
AcDbEntity
  8
画層1
370
    20
100
AcDbLine
 10
-618.4902700214975
 20
302.8905949189871
 30
0.0
 11
-617.7715705532773
 21
301.8678676462599
 31
0.0
  0
LINE
  5
1263
330
2
100
AcDbEntity
  8
画層1
370
    20
100
AcDbLine
 10
-619.6401891706496
 20
302.8905949189871
 30
0.0
 11
-620.3588886388697
 21
301.8678676462599
 31
0.0
  0
ARC
  5
1264
330
2
100
AcDbEntity
  8
画層1
370
    20
100
AcDbCircle
 10
-619.0652295960735
 20
303.7087767371689
 30
0.0
 40
2.250000000000008
100
AcDbArc
 50
305.096801227586
 51
234.9031987724139
  0
CIRCLE
  5
1265
330
2
100
AcDbEntity
  8
画層1
370
    20
100
AcDbCircle
 10
-619.0652295960735
 20
303.7087767371689
 30
0.0
 40
2.75
  0
LINE
  5
1266
330
2
100
AcDbEntity
  8
画層1
370
    20
100
AcDbLine
 10
-619.6401891706496
 20
302.8905949189871
 30
0.0
 11
-619.6401891706496
 21
302.8905949189871
 31
0.0
  0
LINE
  5
1267
330
2
100
AcDbEntity
  8
画層1
370
    20
100
AcDbLine
 10
-619.6401891706496
 20
302.8905949189871
 30
0.0
 11
-619.6401891706496
 21
302.8905949189871
 31
0.0
  0
LINE
  5
1268
330
2
100
AcDbEntity
  8
画層1
370
    20
100
AcDbLine
 10
-619.6401891706496
 20
302.8905949189871
 30
0.0
 11
-619.6401891706496
 21
302.8905949189871
 31
0.0
  0
CIRCLE
  5
1269
330
2
100
AcDbEntity
  8
画層1
370
    20
100
AcDbCircle
 10
-619.0652295960735
 20
303.7087767371689
 30
0.0
 40
1.0
  0
LINE
  5
126B
330
2
100
AcDbEntity
  8
画層1
370
    20
100
AcDbLine
 10
-618.1013565359296
 20
290.4424147204908
 30
0.0
 11
-616.8965152107498
 21
290.109462199643
 31
0.0
  0
LINE
  5
126C
330
2
100
AcDbEntity
  8
画層1
370
    20
100
AcDbLine
 10
-618.1013565359296
 20
303.4424147204907
 30
0.0
 11
-616.8965152107498
 21
303.109462199643
 31
0.0
  0
CIRCLE
  5
1272
330
2
100
AcDbEntity
  8
画層1
370
    20
100
AcDbCircle
 10
-619.0652295960735
 20
313.9587767371689
 30
0.0
 40
1.5
  0
LINE
  5
1274
330
2
100
AcDbEntity
  8
画層1
370
    20
100
AcDbLine
 10
-627.5652295960735
 20
281.958776737169
 30
0.0
 11
-627.5652295960735
 21
273.9587767371689
 31
0.0
  0
LINE
  5
1275
330
2
100
AcDbEntity
  8
画層1
370
    20
100
AcDbLine
 10
-628.5652295960735
 20
271.9587767371689
 30
0.0
 11
-628.5652295960735
 21
263.9587767371689
 31
0.0
  0
LINE
  5
1277
330
2
100
AcDbEntity
  8
画層1
370
    20
100
AcDbLine
 10
-616.5652295960735
 20
281.958776737169
 30
0.0
 11
-616.5652295960735
 21
273.9587767371689
 31
0.0
  0
LINE
  5
1278
330
2
100
AcDbEntity
  8
画層1
370
    20
100
AcDbLine
 10
-616.5652295960735
 20
271.9587767371689
 30
0.0
 11
-616.5652295960735
 21
263.9587767371689
 31
0.0
  0
LINE
  5
1279
330
2
100
AcDbEntity
  8
画層1
370
    20
100
AcDbLine
 10
-627.5652295960735
 20
271.9587767371689
 30
0.0
 11
-627.5652295960735
 21
263.9587767371689
 31
0.0
  0
LINE
  5
127A
330
2
100
AcDbEntity
  8
画層1
370
    20
100
AcDbLine
 10
-627.5652295960735
 20
261.9587767371689
 30
0.0
 11
-627.5652295960735
 21
253.9587767371689
 31
0.0
  0
LINE
  5
127B
330
2
100
AcDbEntity
  8
画層1
370
    20
100
AcDbLine
 10
-616.5652295960735
 20
261.9587767371689
 30
0.0
 11
-616.5652295960735
 21
253.9587767371689
 31
0.0
  0
LINE
  5
127C
330
2
100
AcDbEntity
  8
画層1
370
    20
100
AcDbLine
 10
-616.5652295960735
 20
251.9587767371689
 30
0.0
 11
-616.5652295960735
 21
243.958776737169
 31
0.0
  0
LINE
  5
127D
330
2
100
AcDbEntity
  8
画層1
370
    20
100
AcDbLine
 10
-627.5652295960735
 20
251.9587767371689
 30
0.0
 11
-627.5652295960735
 21
243.958776737169
 31
0.0
  0
LINE
  5
127E
330
2
100
AcDbEntity
  8
画層1
370
    20
100
AcDbLine
 10
-616.5652295960735
 20
241.958776737169
 30
0.0
 11
-616.5652295960735
 21
233.958776737169
 31
0.0
  0
LINE
  5
127F
330
2
100
AcDbEntity
  8
画層1
370
    20
100
AcDbLine
 10
-627.5652295960735
 20
241.958776737169
 30
0.0
 11
-627.5652295960735
 21
233.958776737169
 31
0.0
  0
LINE
  5
1280
330
2
100
AcDbEntity
  8
画層1
370
    20
100
AcDbLine
 10
-616.5652295960735
 20
231.958776737169
 30
0.0
 11
-616.5652295960735
 21
223.9587767371689
 31
0.0
  0
LINE
  5
1281
330
2
100
AcDbEntity
  8
画層1
370
    20
100
AcDbLine
 10
-627.5652295960735
 20
231.958776737169
 30
0.0
 11
-627.5652295960735
 21
223.9587767371689
 31
0.0
  0
LINE
  5
1282
330
2
100
AcDbEntity
  8
画層1
370
    20
100
AcDbLine
 10
-616.5652295960735
 20
221.9587767371689
 30
0.0
 11
-616.5652295960735
 21
213.9587767371689
 31
0.0
  0
LINE
  5
1283
330
2
100
AcDbEntity
  8
画層1
370
    20
100
AcDbLine
 10
-627.5652295960735
 20
221.9587767371689
 30
0.0
 11
-627.5652295960735
 21
213.9587767371689
 31
0.0
  0
LINE
  5
1284
330
2
100
AcDbEntity
  8
画層1
370
    20
100
AcDbLine
 10
-616.5652295960735
 20
211.9587767371689
 30
0.0
 11
-616.5652295960735
 21
203.9587767371689
 31
0.0
  0
LINE
  5
1285
330
2
100
AcDbEntity
  8
画層1
370
    20
100
AcDbLine
 10
-627.5652295960735
 20
211.9587767371689
 30
0.0
 11
-627.5652295960735
 21
203.9587767371689
 31
0.0
  0
LINE
  5
1286
330
2
100
AcDbEntity
  8
画層1
370
    20
100
AcDbLine
 10
-616.5652295960735
 20
201.9587767371689
 30
0.0
 11
-616.5652295960735
 21
193.9587767371689
 31
0.0
  0
LINE
  5
1287
330
2
100
AcDbEntity
  8
画層1
370
    20
100
AcDbLine
 10
-627.5652295960735
 20
201.9587767371689
 30
0.0
 11
-627.5652295960735
 21
193.9587767371689
 31
0.0
  0
LINE
  5
1290
330
2
100
AcDbEntity
  8
画層1
370
    20
100
AcDbLine
 10
-634.5652295960735
 20
151.4587767371689
 30
0.0
 11
-634.5652295960735
 21
151.4587767371689
 31
0.0
  0
LINE
  5
1291
330
2
100
AcDbEntity
  8
画層1
370
    20
100
AcDbLine
 10
-636.5652295960735
 20
153.4587767371689
 30
0.0
 11
-636.5652295960735
 21
154.4587767371689
 31
0.0
  0
LINE
  5
1292
330
2
100
AcDbEntity
  8
画層1
370
    20
100
AcDbLine
 10
-634.5652295960735
 20
156.4587767371689
 30
0.0
 11
-634.5652295960735
 21
156.4587767371689
 31
0.0
  0
ARC
  5
1293
330
2
100
AcDbEntity
  8
画層1
370
    20
100
AcDbCircle
 10
-634.5652295960735
 20
154.4587767371689
 30
0.0
 40
2.0
100
AcDbArc
 50
90.0
 51
180.0
  0
ARC
  5
1294
330
2
100
AcDbEntity
  8
画層1
370
    20
100
AcDbCircle
 10
-634.5652295960735
 20
153.4587767371689
 30
0.0
 40
2.0
100
AcDbArc
 50
180.0
 51
270.0
  0
LINE
  5
1298
330
2
100
AcDbEntity
  8
画層1
370
    20
100
AcDbLine
 10
-636.5652295960735
 20
154.4587767371689
 30
0.0
 11
-635.5652295960735
 21
154.4587767371689
 31
0.0
  0
LINE
  5
1299
330
2
100
AcDbEntity
  8
画層1
370
    20
100
AcDbLine
 10
-635.5652295960735
 20
154.4587767371689
 30
0.0
 11
-635.5652295960735
 21
153.4587767371689
 31
0.0
  0
LINE
  5
129A
330
2
100
AcDbEntity
  8
画層1
370
    20
100
AcDbLine
 10
-635.5652295960735
 20
153.4587767371689
 30
0.0
 11
-636.5652295960735
 21
153.4587767371689
 31
0.0
  0
LINE
  5
129E
330
2
100
AcDbEntity
  8
画層1
370
    20
100
AcDbLine
 10
-633.5652295960735
 20
168.458776737169
 30
0.0
 11
-634.5652295960734
 21
168.458776737169
 31
0.0
  0
LINE
  5
129F
330
2
100
AcDbEntity
  8
画層1
370
    20
100
AcDbLine
 10
-636.5652295960734
 20
170.4587767371689
 30
0.0
 11
-636.5652295960734
 21
175.4587767371689
 31
0.0
  0
LINE
  5
12A0
330
2
100
AcDbEntity
  8
画層1
370
    20
100
AcDbLine
 10
-634.5652295960734
 20
177.4587767371689
 30
0.0
 11
-633.5652295960735
 21
177.4587767371689
 31
0.0
  0
ARC
  5
12A1
330
2
100
AcDbEntity
  8
画層1
370
    20
100
AcDbCircle
 10
-634.5652295960734
 20
170.4587767371689
 30
0.0
 40
2.0
100
AcDbArc
 50
180.0
 51
270.0
  0
ARC
  5
12A2
330
2
100
AcDbEntity
  8
画層1
370
    20
100
AcDbCircle
 10
-634.5652295960734
 20
175.4587767371689
 30
0.0
 40
2.0
100
AcDbArc
 50
90.0
 51
180.0000000000009
  0
LINE
  5
12A3
330
2
100
AcDbEntity
  8
画層1
370
    20
100
AcDbLine
 10
-635.5652295960734
 20
173.2087767371689
 30
0.0
 11
-635.5652295960734
 21
172.7087767371689
 31
0.0
  0
ARC
  5
12A8
330
2
100
AcDbEntity
  8
画層1
370
    20
100
AcDbCircle
 10
-635.5652295960734
 20
171.7087767371689
 30
0.0
 40
1.0
100
AcDbArc
 50
90.0
 51
180.0
  0
ARC
  5
12A9
330
2
100
AcDbEntity
  8
画層1
370
    20
100
AcDbCircle
 10
-635.5652295960734
 20
174.2087767371689
 30
0.0
 40
1.0
100
AcDbArc
 50
180.0
 51
270.0
  0
LINE
  5
12AA
330
2
100
AcDbEntity
  8
画層1
370
    20
100
AcDbLine
 10
-516.5652295960736
 20
177.4587767371689
 30
0.0
 11
-517.5652295960735
 21
177.4587767371689
 31
0.0
  0
LINE
  5
12AB
330
2
100
AcDbEntity
  8
画層1
370
    20
100
AcDbLine
 10
-517.5652295960735
 20
168.458776737169
 30
0.0
 11
-516.5652295960736
 21
168.458776737169
 31
0.0
  0
ARC
  5
12AC
330
2
100
AcDbEntity
  8
画層1
370
    20
100
AcDbCircle
 10
-516.5652295960736
 20
175.4587767371689
 30
0.0
 40
2.0
100
AcDbArc
 50
359.999999999999
 51
90.0
  0
LINE
  5
12AD
330
2
100
AcDbEntity
  8
画層1
370
    20
100
AcDbLine
 10
-515.5652295960736
 20
173.2087767371689
 30
0.0
 11
-515.5652295960736
 21
172.7087767371689
 31
0.0
  0
ARC
  5
12AE
330
2
100
AcDbEntity
  8
画層1
370
    20
100
AcDbCircle
 10
-515.5652295960736
 20
174.2087767371689
 30
0.0
 40
1.0
100
AcDbArc
 50
270.0
 51
0.000000000000007
  0
ARC
  5
12AF
330
2
100
AcDbEntity
  8
画層1
370
    20
100
AcDbCircle
 10
-515.5652295960736
 20
171.7087767371689
 30
0.0
 40
1.0
100
AcDbArc
 50
0.000000000000007
 51
90.0
  0
LINE
  5
12B0
330
2
100
AcDbEntity
  8
画層1
370
    20
100
AcDbLine
 10
-514.5652295960736
 20
170.4587767371689
 30
0.0
 11
-514.5652295960736
 21
175.4587767371689
 31
0.0
  0
ARC
  5
12B1
330
2
100
AcDbEntity
  8
画層1
370
    20
100
AcDbCircle
 10
-516.5652295960736
 20
170.4587767371689
 30
0.0
 40
2.0
100
AcDbArc
 50
270.0
 51
0.000000000000007
  0
LINE
  5
12B3
330
2
100
AcDbEntity
  8
画層1
370
    20
100
AcDbLine
 10
-515.5652295960735
 20
153.4587767371689
 30
0.0
 11
-514.5652295960736
 21
153.4587767371689
 31
0.0
  0
LINE
  5
12B4
330
2
100
AcDbEntity
  8
画層1
370
    20
100
AcDbLine
 10
-515.5652295960735
 20
154.4587767371689
 30
0.0
 11
-515.5652295960735
 21
153.4587767371689
 31
0.0
  0
LINE
  5
12B5
330
2
100
AcDbEntity
  8
画層1
370
    20
100
AcDbLine
 10
-514.5652295960736
 20
154.4587767371689
 30
0.0
 11
-515.5652295960735
 21
154.4587767371689
 31
0.0
  0
LINE
  5
12B6
330
2
100
AcDbEntity
  8
画層1
370
    20
100
AcDbLine
 10
-514.5652295960736
 20
153.4587767371689
 30
0.0
 11
-514.5652295960736
 21
154.4587767371689
 31
0.0
  0
LINE
  5
12B7
330
2
100
AcDbEntity
  8
画層1
370
    20
100
AcDbLine
 10
-516.5652295960735
 20
151.4587767371689
 30
0.0
 11
-516.5652295960735
 21
151.4587767371689
 31
0.0
  0
ARC
  5
12B8
330
2
100
AcDbEntity
  8
画層1
370
    20
100
AcDbCircle
 10
-516.5652295960735
 20
153.4587767371689
 30
0.0
 40
2.0
100
AcDbArc
 50
270.0
 51
0.000000000000007
  0
LINE
  5
12B9
330
2
100
AcDbEntity
  8
画層1
370
    20
100
AcDbLine
 10
-516.5652295960735
 20
156.4587767371689
 30
0.0
 11
-516.5652295960735
 21
156.4587767371689
 31
0.0
  0
ARC
  5
12BA
330
2
100
AcDbEntity
  8
画層1
370
    20
100
AcDbCircle
 10
-516.5652295960735
 20
154.4587767371689
 30
0.0
 40
2.0
100
AcDbArc
 50
0.000000000000007
 51
90.0
  0
LWPOLYLINE
  5
12BD
330
2
100
AcDbEntity
  8
画層1
370
    20
100
AcDbPolyline
 90
        2
 70
     0
 43
0.0
 10
-634.5652295960735
 20
326.9587767371689
 10
-634.5652295960735
 20
320.958776737169
  0
LINE
  5
12BE
330
2
100
AcDbEntity
  8
画層1
370
    20
100
AcDbLine
 10
-635.5652295960735
 20
323.458776737169
 30
0.0
 11
-636.5652295960735
 21
323.458776737169
 31
0.0
  0
LINE
  5
12BF
330
2
100
AcDbEntity
  8
画層1
370
    20
100
AcDbLine
 10
-635.5652295960735
 20
324.4587767371689
 30
0.0
 11
-635.5652295960735
 21
323.458776737169
 31
0.0
  0
LINE
  5
12C0
330
2
100
AcDbEntity
  8
画層1
370
    20
100
AcDbLine
 10
-636.5652295960735
 20
324.4587767371689
 30
0.0
 11
-635.5652295960735
 21
324.4587767371689
 31
0.0
  0
LINE
  5
12C1
330
2
100
AcDbEntity
  8
画層1
370
    20
100
AcDbLine
 10
-636.5652295960735
 20
323.458776737169
 30
0.0
 11
-636.5652295960735
 21
324.4587767371689
 31
0.0
  0
LINE
  5
12C2
330
2
100
AcDbEntity
  8
画層1
370
    20
100
AcDbLine
 10
-634.5652295960735
 20
321.458776737169
 30
0.0
 11
-634.5652295960735
 21
321.458776737169
 31
0.0
  0
ARC
  5
12C3
330
2
100
AcDbEntity
  8
画層1
370
    20
100
AcDbCircle
 10
-634.5652295960735
 20
323.458776737169
 30
0.0
 40
2.0
100
AcDbArc
 50
180.0
 51
270.0
  0
LINE
  5
12C4
330
2
100
AcDbEntity
  8
画層1
370
    20
100
AcDbLine
 10
-634.5652295960735
 20
326.4587767371689
 30
0.0
 11
-634.5652295960735
 21
326.4587767371689
 31
0.0
  0
ARC
  5
12C5
330
2
100
AcDbEntity
  8
画層1
370
    20
100
AcDbCircle
 10
-634.5652295960735
 20
324.4587767371689
 30
0.0
 40
2.0
100
AcDbArc
 50
90.0
 51
180.0
  0
LINE
  5
12C8
330
2
100
AcDbEntity
  8
画層1
370
    20
100
AcDbLine
 10
-635.5652295960734
 20
318.4587767371689
 30
0.0
 11
-633.5652295960735
 21
318.4587767371689
 31
0.0
  0
LINE
  5
12C9
330
2
100
AcDbEntity
  8
画層1
370
    20
100
AcDbLine
 10
-633.5652295960735
 20
309.4587767371689
 30
0.0
 11
-635.5652295960734
 21
309.4587767371689
 31
0.0
  0
ARC
  5
12CA
330
2
100
AcDbEntity
  8
画層1
370
    20
100
AcDbCircle
 10
-635.5652295960734
 20
316.4587767371689
 30
0.0
 40
2.0
100
AcDbArc
 50
90.0
 51
180.0000000000009
  0
LINE
  5
12CB
330
2
100
AcDbEntity
  8
画層1
370
    20
100
AcDbLine
 10
-636.5652295960734
 20
314.2087767371689
 30
0.0
 11
-636.5652295960734
 21
313.7087767371689
 31
0.0
  0
ARC
  5
12CC
330
2
100
AcDbEntity
  8
画層1
370
    20
100
AcDbCircle
 10
-636.5652295960734
 20
315.208776737169
 30
0.0
 40
1.0
100
AcDbArc
 50
180.0
 51
270.0
  0
ARC
  5
12CD
330
2
100
AcDbEntity
  8
画層1
370
    20
100
AcDbCircle
 10
-636.5652295960734
 20
312.708776737169
 30
0.0
 40
1.0
100
AcDbArc
 50
90.0
 51
180.0
  0
LINE
  5
12CE
330
2
100
AcDbEntity
  8
画層1
370
    20
100
AcDbLine
 10
-637.5652295960734
 20
311.4587767371689
 30
0.0
 11
-637.5652295960734
 21
316.4587767371689
 31
0.0
  0
ARC
  5
12CF
330
2
100
AcDbEntity
  8
画層1
370
    20
100
AcDbCircle
 10
-635.5652295960734
 20
311.4587767371689
 30
0.0
 40
2.0
100
AcDbArc
 50
180.0
 51
270.0
  0
ARC
  5
12D1
330
2
100
AcDbEntity
  8
画層1
370
    20
100
AcDbCircle
 10
-633.5652295960735
 20
326.9587767371689
 30
0.0
 40
1.0
100
AcDbArc
 50
90.0
 51
180.0
  0
ARC
  5
12D4
330
2
100
AcDbEntity
  8
画層1
370
    20
100
AcDbCircle
 10
-633.5652295960735
 20
320.958776737169
 30
0.0
 40
1.0
100
AcDbArc
 50
180.0
 51
270.0
  0
LINE
  5
12D7
330
2
100
AcDbEntity
  8
画層1
370
    20
100
AcDbLine
 10
-513.5652295960737
 20
311.4587767371689
 30
0.0
 11
-513.5652295960737
 21
316.4587767371689
 31
0.0
  0
ARC
  5
12D8
330
2
100
AcDbEntity
  8
画層1
370
    20
100
AcDbCircle
 10
-514.5652295960736
 20
312.708776737169
 30
0.0
 40
1.0
100
AcDbArc
 50
0.000000000000007
 51
90.0
  0
LINE
  5
12D9
330
2
100
AcDbEntity
  8
画層1
370
    20
100
AcDbLine
 10
-517.5652295960735
 20
309.4587767371689
 30
0.0
 11
-515.5652295960736
 21
309.4587767371689
 31
0.0
  0
ARC
  5
12DA
330
2
100
AcDbEntity
  8
画層1
370
    20
100
AcDbCircle
 10
-515.5652295960736
 20
311.4587767371689
 30
0.0
 40
2.0
100
AcDbArc
 50
270.0
 51
0.000000000000007
  0
ARC
  5
12DB
330
2
100
AcDbEntity
  8
画層1
370
    20
100
AcDbCircle
 10
-517.5652295960735
 20
320.958776737169
 30
0.0
 40
1.0
100
AcDbArc
 50
270.0
 51
0.000000000000007
  0
ARC
  5
12DC
330
2
100
AcDbEntity
  8
画層1
370
    20
100
AcDbCircle
 10
-517.5652295960735
 20
326.9587767371689
 30
0.0
 40
1.0
100
AcDbArc
 50
0.000000000000007
 51
90.0
  0
LINE
  5
12DD
330
2
100
AcDbEntity
  8
画層1
370
    20
100
AcDbLine
 10
-515.5652295960736
 20
318.4587767371689
 30
0.0
 11
-517.5652295960735
 21
318.4587767371689
 31
0.0
  0
LWPOLYLINE
  5
12DE
330
2
100
AcDbEntity
  8
画層1
370
    20
100
AcDbPolyline
 90
        2
 70
     0
 43
0.0
 10
-516.5652295960735
 20
326.9587767371689
 10
-516.5652295960735
 20
320.958776737169
  0
ARC
  5
12DF
330
2
100
AcDbEntity
  8
画層1
370
    20
100
AcDbCircle
 10
-516.5652295960735
 20
323.458776737169
 30
0.0
 40
2.0
100
AcDbArc
 50
270.0
 51
0.000000000000007
  0
ARC
  5
12E0
330
2
100
AcDbEntity
  8
画層1
370
    20
100
AcDbCircle
 10
-514.5652295960736
 20
315.208776737169
 30
0.0
 40
1.0
100
AcDbArc
 50
270.0
 51
0.000000000000007
  0
LINE
  5
12E1
330
2
100
AcDbEntity
  8
画層1
370
    20
100
AcDbLine
 10
-514.5652295960736
 20
314.2087767371689
 30
0.0
 11
-514.5652295960736
 21
313.7087767371689
 31
0.0
  0
ARC
  5
12E2
330
2
100
AcDbEntity
  8
画層1
370
    20
100
AcDbCircle
 10
-515.5652295960736
 20
316.4587767371689
 30
0.0
 40
2.0
100
AcDbArc
 50
359.999999999999
 51
90.0
  0
LINE
  5
12E3
330
2
100
AcDbEntity
  8
画層1
370
    20
100
AcDbLine
 10
-516.5652295960735
 20
321.458776737169
 30
0.0
 11
-516.5652295960735
 21
321.458776737169
 31
0.0
  0
ARC
  5
12E4
330
2
100
AcDbEntity
  8
画層1
370
    20
100
AcDbCircle
 10
-516.5652295960735
 20
324.4587767371689
 30
0.0
 40
2.0
100
AcDbArc
 50
0.000000000000007
 51
90.0
  0
LINE
  5
12E5
330
2
100
AcDbEntity
  8
画層1
370
    20
100
AcDbLine
 10
-516.5652295960735
 20
326.4587767371689
 30
0.0
 11
-516.5652295960735
 21
326.4587767371689
 31
0.0
  0
LINE
  5
12E6
330
2
100
AcDbEntity
  8
画層1
370
    20
100
AcDbLine
 10
-514.5652295960736
 20
323.458776737169
 30
0.0
 11
-514.5652295960736
 21
324.4587767371689
 31
0.0
  0
LINE
  5
12E7
330
2
100
AcDbEntity
  8
画層1
370
    20
100
AcDbLine
 10
-514.5652295960736
 20
324.4587767371689
 30
0.0
 11
-515.5652295960735
 21
324.4587767371689
 31
0.0
  0
LINE
  5
12E8
330
2
100
AcDbEntity
  8
画層1
370
    20
100
AcDbLine
 10
-515.5652295960735
 20
324.4587767371689
 30
0.0
 11
-515.5652295960735
 21
323.458776737169
 31
0.0
  0
LINE
  5
12E9
330
2
100
AcDbEntity
  8
画層1
370
    20
100
AcDbLine
 10
-515.5652295960735
 20
323.458776737169
 30
0.0
 11
-514.5652295960736
 21
323.458776737169
 31
0.0
  0
ARC
  5
12EA
330
2
100
AcDbEntity
  8
画層1
370
    20
100
AcDbCircle
 10
-633.5652295960735
 20
150.9587767371689
 30
0.0
 40
1.0
100
AcDbArc
 50
180.0
 51
270.0
  0
ARC
  5
12EB
330
2
100
AcDbEntity
  8
画層1
370
    20
100
AcDbCircle
 10
-633.5652295960735
 20
156.958776737169
 30
0.0
 40
1.0
100
AcDbArc
 50
90.0
 51
180.0
  0
LWPOLYLINE
  5
12EC
330
2
100
AcDbEntity
  8
画層1
370
    20
100
AcDbPolyline
 90
        2
 70
     0
 43
0.0
 10
-634.5652295960735
 20
156.958776737169
 10
-634.5652295960735
 20
150.9587767371689
  0
LINE
  5
12ED
330
2
100
AcDbEntity
  8
画層1
370
    20
100
AcDbLine
 10
-634.5652295960735
 20
151.4587767371689
 30
0.0
 11
-634.5652295960735
 21
151.4587767371689
 31
0.0
  0
LINE
  5
12EE
330
2
100
AcDbEntity
  8
画層1
370
    20
100
AcDbLine
 10
-634.5652295960735
 20
156.4587767371689
 30
0.0
 11
-634.5652295960735
 21
156.4587767371689
 31
0.0
  0
ARC
  5
12EF
330
2
100
AcDbEntity
  8
画層1
370
    20
100
AcDbCircle
 10
-517.5652295960735
 20
156.958776737169
 30
0.0
 40
1.0
100
AcDbArc
 50
0.000000000000007
 51
90.0
  0
ARC
  5
12F0
330
2
100
AcDbEntity
  8
画層1
370
    20
100
AcDbCircle
 10
-517.5652295960735
 20
150.9587767371689
 30
0.0
 40
1.0
100
AcDbArc
 50
270.0
 51
0.000000000000007
  0
LINE
  5
12F1
330
2
100
AcDbEntity
  8
画層1
370
    20
100
AcDbLine
 10
-516.5652295960735
 20
156.4587767371689
 30
0.0
 11
-516.5652295960735
 21
156.4587767371689
 31
0.0
  0
LINE
  5
12F2
330
2
100
AcDbEntity
  8
画層1
370
    20
100
AcDbLine
 10
-516.5652295960735
 20
151.4587767371689
 30
0.0
 11
-516.5652295960735
 21
151.4587767371689
 31
0.0
  0
LWPOLYLINE
  5
12F3
330
2
100
AcDbEntity
  8
画層1
370
    20
100
AcDbPolyline
 90
        2
 70
     0
 43
0.0
 10
-516.5652295960735
 20
156.958776737169
 10
-516.5652295960735
 20
150.9587767371689
  0
LINE
  5
12F4
330
2
100
AcDbEntity
  8
画層1
370
    20
100
AcDbLine
 10
-516.5652295960735
 20
151.4587767371689
 30
0.0
 11
-516.5652295960735
 21
151.4587767371689
 31
0.0
  0
LINE
  5
12F5
330
2
100
AcDbEntity
  8
画層1
370
    20
100
AcDbLine
 10
-516.5652295960735
 20
156.4587767371689
 30
0.0
 11
-516.5652295960735
 21
156.4587767371689
 31
0.0
  0
LINE
  5
12F6
330
2
100
AcDbEntity
  8
画層1
370
    20
100
AcDbLine
 10
-601.5652295960735
 20
336.4587767371689
 30
0.0
 11
-527.5652295960735
 21
336.4587767371689
 31
0.0
  0
LINE
  5
12F9
330
2
100
AcDbEntity
  8
画層1
370
    20
100
AcDbLine
 10
-525.5652295960735
 20
334.4587767371689
 30
0.0
 11
-525.5652295960735
 21
219.458776737169
 31
0.0
  0
LINE
  5
12FA
330
2
100
AcDbEntity
  8
画層1
370
    20
100
AcDbLine
 10
-603.5652295960735
 20
334.4587767371689
 30
0.0
 11
-603.5652295960735
 21
219.458776737169
 31
0.0
  0
LINE
  5
12FB
330
2
100
AcDbEntity
  8
画層1
370
    20
100
AcDbLine
 10
-601.5652295960735
 20
217.458776737169
 30
0.0
 11
-527.5652295960735
 21
217.458776737169
 31
0.0
  0
ARC
  5
12FD
330
2
100
AcDbEntity
  8
画層1
370
    20
100
AcDbCircle
 10
-601.5652295960737
 20
334.458776737169
 30
0.0
 40
2.0
100
AcDbArc
 50
89.99999999999674
 51
180.0000000000016
  0
ARC
  5
12FE
330
2
100
AcDbEntity
  8
画層1
370
    20
100
AcDbCircle
 10
-527.5652295960734
 20
334.4587767371691
 30
0.0
 40
2.0
100
AcDbArc
 50
359.9999999999967
 51
90.00000000000325
  0
ARC
  5
12FF
330
2
100
AcDbEntity
  8
画層1
370
    20
100
AcDbCircle
 10
-601.5652295960735
 20
219.4587767371689
 30
0.0
 40
2.0
100
AcDbArc
 50
179.9999999999975
 51
270.0
  0
ARC
  5
1300
330
2
100
AcDbEntity
  8
画層1
370
    20
100
AcDbCircle
 10
-527.5652295960735
 20
219.4587767371689
 30
0.0
 40
2.0
100
AcDbArc
 50
270.0
 51
0.0000000000008142
  0
LINE
  5
1365
330
2
100
AcDbEntity
  8
画層1
370
    20
100
AcDbLine
 10
-358.0904011789971
 20
360.958776737169
 30
0.0
 11
-247.0904011789971
 21
360.958776737169
 31
0.0
  0
LINE
  5
1366
330
2
100
AcDbEntity
  8
画層1
370
    20
100
AcDbLine
 10
-247.0904011789971
 20
360.958776737169
 30
0.0
 11
-247.0904011789971
 21
126.9587767371689
 31
0.0
  0
LINE
  5
1367
330
2
100
AcDbEntity
  8
画層1
370
    20
100
AcDbLine
 10
-247.0904011789971
 20
126.9587767371689
 30
0.0
 11
-358.0904011789971
 21
126.9587767371689
 31
0.0
  0
ARC
  5
136F
330
2
100
AcDbEntity
  8
画層1
370
    20
100
AcDbCircle
 10
-358.0904011789971
 20
355.9587767371689
 30
0.0
 40
5.0
100
AcDbArc
 50
90.0
 51
180.0
  0
LINE
  5
138D
330
2
100
AcDbEntity
  8
画層1
370
    20
100
AcDbLine
 10
-630.5652295960735
 20
360.958776737169
 30
0.0
 11
-630.5652295960735
 21
349.9587767371689
 31
0.0
  0
LINE
  5
138E
330
2
100
AcDbEntity
  8
画層1
370
    20
100
AcDbLine
 10
-520.5652295960735
 20
360.958776737169
 30
0.0
 11
-520.5652295960735
 21
349.9587767371689
 31
0.0
  0
LINE
  5
1390
330
2
100
AcDbEntity
  8
画層1
370
    20
100
AcDbLine
 10
-630.5652295960735
 20
126.9587767371689
 30
0.0
 11
-630.5652295960735
 21
127.9587767371689
 31
0.0
  0
LINE
  5
1391
330
2
100
AcDbEntity
  8
画層1
370
    20
100
AcDbLine
 10
-520.5652295960735
 20
126.9587767371689
 30
0.0
 11
-520.5652295960735
 21
127.9587767371689
 31
0.0
  0
LINE
  5
13A7
330
2
100
AcDbEntity
  8
画層1
 62
     0
370
    20
100
AcDbLine
 10
-365.090401178997
 20
349.9587767371689
 30
0.0
 11
-356.0904011789971
 21
349.9587767371689
 31
0.0
  0
LINE
  5
13A8
330
2
100
AcDbEntity
  8
画層1
 62
     0
370
    20
100
AcDbLine
 10
-354.0904011789971
 20
347.958776737169
 30
0.0
 11
-354.0904011789971
 21
129.958776737169
 31
0.0
  0
LINE
  5
13A9
330
2
100
AcDbEntity
  8
画層1
 62
     0
370
    20
100
AcDbLine
 10
-356.0904011789971
 20
127.9587767371689
 30
0.0
 11
-365.090401178997
 21
127.9587767371689
 31
0.0
  0
LINE
  5
13AA
330
2
100
AcDbEntity
  8
画層1
 62
     0
370
    20
100
AcDbLine
 10
-365.090401178997
 20
127.9587767371689
 30
0.0
 11
-365.090401178997
 21
349.9587767371689
 31
0.0
  0
ARC
  5
13B3
330
2
100
AcDbEntity
  8
画層1
370
    20
100
AcDbCircle
 10
-358.0904011789971
 20
131.9587767371689
 30
0.0
 40
5.0
100
AcDbArc
 50
233.1301023541559
 51
270.0
  0
LINE
  5
13B4
330
2
100
AcDbEntity
  8
画層1
370
    20
100
AcDbLine
 10
-363.0904011789971
 20
355.9587767371689
 30
0.0
 11
-363.0904011789971
 21
349.9587767371689
 31
0.0
  0
ARC
  5
13B5
330
2
100
AcDbEntity
  8
画層1
 62
     0
370
    20
100
AcDbCircle
 10
-356.0904011789971
 20
347.958776737169
 30
0.0
 40
2.0
100
AcDbArc
 50
0.000000000000007
 51
90.0
  0
ARC
  5
13B8
330
2
100
AcDbEntity
  8
画層1
 62
     0
370
    20
100
AcDbCircle
 10
-356.0904011789971
 20
129.958776737169
 30
0.0
 40
2.0
100
AcDbArc
 50
270.0
 51
0.000000000000007
  0
CIRCLE
  5
13BE
330
2
100
AcDbEntity
  8
画層1
370
    20
100
AcDbCircle
 10
-299.0904011789971
 20
313.9587767371689
 30
0.0
 40
4.5
  0
LINE
  5
13C7
330
2
100
AcDbEntity
  8
画層1
370
    20
100
AcDbLine
 10
-300.0904011789971
 20
316.958776737169
 30
0.0
 11
-300.0904011789971
 21
315.9587767371689
 31
0.0
  0
LINE
  5
13C8
330
2
100
AcDbEntity
  8
画層1
370
    20
100
AcDbLine
 10
-301.0904011789971
 20
314.958776737169
 30
0.0
 11
-302.0904011789971
 21
314.958776737169
 31
0.0
  0
LINE
  5
13C9
330
2
100
AcDbEntity
  8
画層1
370
    20
100
AcDbLine
 10
-302.0904011789971
 20
314.958776737169
 30
0.0
 11
-302.0904011789971
 21
312.958776737169
 31
0.0
  0
LINE
  5
13CA
330
2
100
AcDbEntity
  8
画層1
370
    20
100
AcDbLine
 10
-302.0904011789971
 20
312.958776737169
 30
0.0
 11
-301.0904011789971
 21
312.958776737169
 31
0.0
  0
LINE
  5
13CB
330
2
100
AcDbEntity
  8
画層1
370
    20
100
AcDbLine
 10
-300.0904011789971
 20
311.9587767371689
 30
0.0
 11
-300.0904011789971
 21
310.958776737169
 31
0.0
  0
LINE
  5
13CC
330
2
100
AcDbEntity
  8
画層1
370
    20
100
AcDbLine
 10
-300.0904011789971
 20
310.958776737169
 30
0.0
 11
-298.0904011789971
 21
310.958776737169
 31
0.0
  0
LINE
  5
13CD
330
2
100
AcDbEntity
  8
画層1
370
    20
100
AcDbLine
 10
-298.0904011789971
 20
310.958776737169
 30
0.0
 11
-298.0904011789971
 21
311.9587767371689
 31
0.0
  0
LINE
  5
13CE
330
2
100
AcDbEntity
  8
画層1
370
    20
100
AcDbLine
 10
-297.0904011789971
 20
312.958776737169
 30
0.0
 11
-296.0904011789971
 21
312.958776737169
 31
0.0
  0
LINE
  5
13CF
330
2
100
AcDbEntity
  8
画層1
370
    20
100
AcDbLine
 10
-296.0904011789971
 20
312.958776737169
 30
0.0
 11
-296.0904011789971
 21
314.958776737169
 31
0.0
  0
LINE
  5
13D0
330
2
100
AcDbEntity
  8
画層1
370
    20
100
AcDbLine
 10
-296.0904011789971
 20
314.958776737169
 30
0.0
 11
-297.0904011789971
 21
314.958776737169
 31
0.0
  0
LINE
  5
13D1
330
2
100
AcDbEntity
  8
画層1
370
    20
100
AcDbLine
 10
-298.0904011789971
 20
315.9587767371689
 30
0.0
 11
-298.0904011789971
 21
316.958776737169
 31
0.0
  0
LINE
  5
13D2
330
2
100
AcDbEntity
  8
画層1
370
    20
100
AcDbLine
 10
-298.0904011789971
 20
316.958776737169
 30
0.0
 11
-300.0904011789971
 21
316.958776737169
 31
0.0
  0
ARC
  5
13D4
330
2
100
AcDbEntity
  8
画層1
370
    20
100
AcDbCircle
 10
-301.0904011789971
 20
315.9587767371689
 30
0.0
 40
1.0
100
AcDbArc
 50
270.0
 51
0.0
  0
ARC
  5
13D5
330
2
100
AcDbEntity
  8
画層1
370
    20
100
AcDbCircle
 10
-301.0904011789971
 20
311.9587767371689
 30
0.0
 40
1.0
100
AcDbArc
 50
0.0
 51
90.0
  0
ARC
  5
13D6
330
2
100
AcDbEntity
  8
画層1
370
    20
100
AcDbCircle
 10
-297.0904011789971
 20
311.9587767371689
 30
0.0
 40
1.0
100
AcDbArc
 50
90.0
 51
180.0
  0
ARC
  5
13D7
330
2
100
AcDbEntity
  8
画層1
370
    20
100
AcDbCircle
 10
-297.0904011789971
 20
315.9587767371689
 30
0.0
 40
1.0
100
AcDbArc
 50
180.0
 51
270.0
  0
CIRCLE
  5
13D8
330
2
100
AcDbEntity
  8
画層1
370
    20
100
AcDbCircle
 10
-299.0904011789971
 20
173.9587767371689
 30
0.0
 40
4.5
  0
LINE
  5
13D9
330
2
100
AcDbEntity
  8
画層1
370
    20
100
AcDbLine
 10
-302.0904011789971
 20
172.9587767371689
 30
0.0
 11
-301.0904011789971
 21
172.9587767371689
 31
0.0
  0
LINE
  5
13DA
330
2
100
AcDbEntity
  8
画層1
370
    20
100
AcDbLine
 10
-301.0904011789971
 20
174.9587767371689
 30
0.0
 11
-302.0904011789971
 21
174.9587767371689
 31
0.0
  0
LINE
  5
13DB
330
2
100
AcDbEntity
  8
画層1
370
    20
100
AcDbLine
 10
-302.0904011789971
 20
174.9587767371689
 30
0.0
 11
-302.0904011789971
 21
172.9587767371689
 31
0.0
  0
LINE
  5
13DC
330
2
100
AcDbEntity
  8
画層1
370
    20
100
AcDbLine
 10
-298.0904011789971
 20
175.9587767371689
 30
0.0
 11
-298.0904011789971
 21
176.958776737169
 31
0.0
  0
LINE
  5
13DD
330
2
100
AcDbEntity
  8
画層1
370
    20
100
AcDbLine
 10
-296.0904011789971
 20
174.9587767371689
 30
0.0
 11
-297.0904011789971
 21
174.9587767371689
 31
0.0
  0
ARC
  5
13DE
330
2
100
AcDbEntity
  8
画層1
370
    20
100
AcDbCircle
 10
-297.0904011789971
 20
175.9587767371689
 30
0.0
 40
1.0
100
AcDbArc
 50
180.0
 51
270.0
  0
LINE
  5
13DF
330
2
100
AcDbEntity
  8
画層1
370
    20
100
AcDbLine
 10
-297.0904011789971
 20
172.9587767371689
 30
0.0
 11
-296.0904011789971
 21
172.9587767371689
 31
0.0
  0
LINE
  5
13E0
330
2
100
AcDbEntity
  8
画層1
370
    20
100
AcDbLine
 10
-298.0904011789971
 20
170.9587767371689
 30
0.0
 11
-298.0904011789971
 21
171.9587767371689
 31
0.0
  0
ARC
  5
13E1
330
2
100
AcDbEntity
  8
画層1
370
    20
100
AcDbCircle
 10
-297.0904011789971
 20
171.9587767371689
 30
0.0
 40
1.0
100
AcDbArc
 50
90.0
 51
180.0
  0
LINE
  5
13E2
330
2
100
AcDbEntity
  8
画層1
370
    20
100
AcDbLine
 10
-300.0904011789971
 20
171.9587767371689
 30
0.0
 11
-300.0904011789971
 21
170.9587767371689
 31
0.0
  0
ARC
  5
13E3
330
2
100
AcDbEntity
  8
画層1
370
    20
100
AcDbCircle
 10
-301.0904011789971
 20
171.9587767371689
 30
0.0
 40
1.0
100
AcDbArc
 50
0.0
 51
90.0
  0
LINE
  5
13E4
330
2
100
AcDbEntity
  8
画層1
370
    20
100
AcDbLine
 10
-300.0904011789971
 20
176.958776737169
 30
0.0
 11
-300.0904011789971
 21
175.9587767371689
 31
0.0
  0
ARC
  5
13E5
330
2
100
AcDbEntity
  8
画層1
370
    20
100
AcDbCircle
 10
-301.0904011789971
 20
175.9587767371689
 30
0.0
 40
1.0
100
AcDbArc
 50
270.0
 51
0.0
  0
LINE
  5
13E6
330
2
100
AcDbEntity
  8
画層1
370
    20
100
AcDbLine
 10
-298.0904011789971
 20
176.958776737169
 30
0.0
 11
-300.0904011789971
 21
176.958776737169
 31
0.0
  0
LINE
  5
13E7
330
2
100
AcDbEntity
  8
画層1
370
    20
100
AcDbLine
 10
-296.0904011789971
 20
172.9587767371689
 30
0.0
 11
-296.0904011789971
 21
174.9587767371689
 31
0.0
  0
LINE
  5
13E8
330
2
100
AcDbEntity
  8
画層1
370
    20
100
AcDbLine
 10
-300.0904011789971
 20
170.9587767371689
 30
0.0
 11
-298.0904011789971
 21
170.9587767371689
 31
0.0
  0
CIRCLE
  5
13EC
330
2
100
AcDbEntity
  8
画層1
370
    20
100
AcDbCircle
 10
-358.5904011789971
 20
323.7918070151512
 30
0.0
 40
4.0
  0
CIRCLE
  5
13ED
330
2
100
AcDbEntity
  8
画層1
370
    20
100
AcDbCircle
 10
-358.5904011789971
 20
323.7918070151512
 30
0.0
 40
3.0
  0
LINE
  5
13F6
330
2
100
AcDbEntity
  8
画層1
370
    20
100
AcDbLine
 10
-360.5904011789971
 20
323.2918070151512
 30
0.0
 11
-360.0904011789971
 21
323.2918070151512
 31
0.0
  0
LINE
  5
13F7
330
2
100
AcDbEntity
  8
画層1
370
    20
100
AcDbLine
 10
-359.0904011789971
 20
322.2918070151512
 30
0.0
 11
-359.0904011789971
 21
321.7918070151512
 31
0.0
  0
LINE
  5
13F8
330
2
100
AcDbEntity
  8
画層1
370
    20
100
AcDbLine
 10
-359.0904011789971
 20
321.7918070151512
 30
0.0
 11
-358.0904011789971
 21
321.7918070151512
 31
0.0
  0
LINE
  5
13F9
330
2
100
AcDbEntity
  8
画層1
370
    20
100
AcDbLine
 10
-358.0904011789971
 20
321.7918070151512
 30
0.0
 11
-358.0904011789971
 21
322.2918070151512
 31
0.0
  0
LINE
  5
13FA
330
2
100
AcDbEntity
  8
画層1
370
    20
100
AcDbLine
 10
-357.0904011789971
 20
323.2918070151512
 30
0.0
 11
-356.5904011789971
 21
323.2918070151512
 31
0.0
  0
LINE
  5
13FB
330
2
100
AcDbEntity
  8
画層1
370
    20
100
AcDbLine
 10
-356.5904011789971
 20
323.2918070151512
 30
0.0
 11
-356.5904011789971
 21
324.2918070151513
 31
0.0
  0
LINE
  5
13FC
330
2
100
AcDbEntity
  8
画層1
370
    20
100
AcDbLine
 10
-356.5904011789971
 20
324.2918070151513
 30
0.0
 11
-357.0904011789971
 21
324.2918070151513
 31
0.0
  0
LINE
  5
13FD
330
2
100
AcDbEntity
  8
画層1
370
    20
100
AcDbLine
 10
-358.0904011789971
 20
325.2918070151512
 30
0.0
 11
-358.0904011789971
 21
325.7918070151512
 31
0.0
  0
LINE
  5
13FE
330
2
100
AcDbEntity
  8
画層1
370
    20
100
AcDbLine
 10
-358.0904011789971
 20
325.7918070151512
 30
0.0
 11
-359.0904011789971
 21
325.7918070151512
 31
0.0
  0
LINE
  5
13FF
330
2
100
AcDbEntity
  8
画層1
370
    20
100
AcDbLine
 10
-359.0904011789971
 20
325.7918070151512
 30
0.0
 11
-359.0904011789971
 21
325.2918070151512
 31
0.0
  0
LINE
  5
1400
330
2
100
AcDbEntity
  8
画層1
370
    20
100
AcDbLine
 10
-360.0904011789971
 20
324.2918070151513
 30
0.0
 11
-360.5904011789971
 21
324.2918070151513
 31
0.0
  0
LINE
  5
1401
330
2
100
AcDbEntity
  8
画層1
370
    20
100
AcDbLine
 10
-360.5904011789971
 20
324.2918070151513
 30
0.0
 11
-360.5904011789971
 21
323.2918070151512
 31
0.0
  0
ARC
  5
1407
330
2
100
AcDbEntity
  8
画層1
370
    20
100
AcDbCircle
 10
-360.0904011789971
 20
322.2918070151512
 30
0.0
 40
1.0
100
AcDbArc
 50
0.0
 51
90.0
  0
ARC
  5
1408
330
2
100
AcDbEntity
  8
画層1
370
    20
100
AcDbCircle
 10
-357.0904011789971
 20
322.2918070151512
 30
0.0
 40
1.0
100
AcDbArc
 50
90.0
 51
180.0
  0
ARC
  5
1409
330
2
100
AcDbEntity
  8
画層1
370
    20
100
AcDbCircle
 10
-357.0904011789971
 20
325.2918070151512
 30
0.0
 40
1.0
100
AcDbArc
 50
180.0
 51
270.0
  0
ARC
  5
140A
330
2
100
AcDbEntity
  8
画層1
370
    20
100
AcDbCircle
 10
-360.0904011789971
 20
325.2918070151512
 30
0.0
 40
1.0
100
AcDbArc
 50
270.0
 51
0.0
  0
CIRCLE
  5
140B
330
2
100
AcDbEntity
  8
画層1
370
    20
100
AcDbCircle
 10
-358.5904011789971
 20
153.7918070151512
 30
0.0
 40
3.0
  0
CIRCLE
  5
140C
330
2
100
AcDbEntity
  8
画層1
370
    20
100
AcDbCircle
 10
-358.5904011789971
 20
153.7918070151512
 30
0.0
 40
4.0
  0
ARC
  5
140D
330
2
100
AcDbEntity
  8
画層1
370
    20
100
AcDbCircle
 10
-357.0904011789971
 20
155.2918070151512
 30
0.0
 40
1.0
100
AcDbArc
 50
180.0
 51
270.0
  0
ARC
  5
140E
330
2
100
AcDbEntity
  8
画層1
370
    20
100
AcDbCircle
 10
-357.0904011789971
 20
152.2918070151512
 30
0.0
 40
1.0
100
AcDbArc
 50
90.0
 51
180.0
  0
LINE
  5
140F
330
2
100
AcDbEntity
  8
画層1
370
    20
100
AcDbLine
 10
-359.0904011789971
 20
151.7918070151512
 30
0.0
 11
-358.0904011789971
 21
151.7918070151512
 31
0.0
  0
LINE
  5
1410
330
2
100
AcDbEntity
  8
画層1
370
    20
100
AcDbLine
 10
-358.0904011789971
 20
155.7918070151512
 30
0.0
 11
-359.0904011789971
 21
155.7918070151512
 31
0.0
  0
LINE
  5
1411
330
2
100
AcDbEntity
  8
画層1
370
    20
100
AcDbLine
 10
-360.0904011789971
 20
154.2918070151512
 30
0.0
 11
-360.5904011789971
 21
154.2918070151512
 31
0.0
  0
LINE
  5
1412
330
2
100
AcDbEntity
  8
画層1
370
    20
100
AcDbLine
 10
-359.0904011789971
 20
155.7918070151512
 30
0.0
 11
-359.0904011789971
 21
155.2918070151512
 31
0.0
  0
ARC
  5
1413
330
2
100
AcDbEntity
  8
画層1
370
    20
100
AcDbCircle
 10
-360.0904011789971
 20
155.2918070151512
 30
0.0
 40
1.0
100
AcDbArc
 50
270.0
 51
0.0
  0
LINE
  5
1414
330
2
100
AcDbEntity
  8
画層1
370
    20
100
AcDbLine
 10
-359.0904011789971
 20
152.2918070151512
 30
0.0
 11
-359.0904011789971
 21
151.7918070151512
 31
0.0
  0
LINE
  5
1415
330
2
100
AcDbEntity
  8
画層1
370
    20
100
AcDbLine
 10
-360.5904011789971
 20
153.2918070151512
 30
0.0
 11
-360.0904011789971
 21
153.2918070151512
 31
0.0
  0
ARC
  5
1416
330
2
100
AcDbEntity
  8
画層1
370
    20
100
AcDbCircle
 10
-360.0904011789971
 20
152.2918070151512
 30
0.0
 40
1.0
100
AcDbArc
 50
0.0
 51
90.0
  0
LINE
  5
1417
330
2
100
AcDbEntity
  8
画層1
370
    20
100
AcDbLine
 10
-360.5904011789971
 20
154.2918070151512
 30
0.0
 11
-360.5904011789971
 21
153.2918070151512
 31
0.0
  0
LINE
  5
1418
330
2
100
AcDbEntity
  8
画層1
370
    20
100
AcDbLine
 10
-358.0904011789971
 20
155.2918070151512
 30
0.0
 11
-358.0904011789971
 21
155.7918070151512
 31
0.0
  0
LINE
  5
1419
330
2
100
AcDbEntity
  8
画層1
370
    20
100
AcDbLine
 10
-356.5904011789971
 20
154.2918070151512
 30
0.0
 11
-357.0904011789971
 21
154.2918070151512
 31
0.0
  0
LINE
  5
141A
330
2
100
AcDbEntity
  8
画層1
370
    20
100
AcDbLine
 10
-357.0904011789971
 20
153.2918070151512
 30
0.0
 11
-356.5904011789971
 21
153.2918070151512
 31
0.0
  0
LINE
  5
141B
330
2
100
AcDbEntity
  8
画層1
370
    20
100
AcDbLine
 10
-358.0904011789971
 20
151.7918070151512
 30
0.0
 11
-358.0904011789971
 21
152.2918070151512
 31
0.0
  0
LINE
  5
141C
330
2
100
AcDbEntity
  8
画層1
370
    20
100
AcDbLine
 10
-356.5904011789971
 20
153.2918070151512
 30
0.0
 11
-356.5904011789971
 21
154.2918070151512
 31
0.0
  0
LINE
  5
1423
330
2
100
AcDbEntity
  8
画層1
370
    20
100
AcDbLine
 10
-384.1812165008343
 20
157.0455578589036
 30
0.0
 11
-365.090401178997
 21
157.9133221917144
 31
0.0
  0
LINE
  5
1424
330
2
100
AcDbEntity
  8
画層1
370
    20
100
AcDbLine
 10
-384.1812165008343
 20
128.8719956154343
 30
0.0
 11
-365.090401178997
 21
127.9587767371689
 31
0.0
  0
LINE
  5
1425
330
2
100
AcDbEntity
  8
画層1
370
    20
100
AcDbLine
 10
-386.090401178997
 20
138.9587767371689
 30
0.0
 11
-386.090401178997
 21
130.8699326958549
 31
0.0
  0
ARC
  5
1428
330
2
100
AcDbEntity
  8
画層1
370
    20
100
AcDbCircle
 10
-384.090401178997
 20
155.047620778483
 30
0.0
 40
2.0
100
AcDbArc
 50
92.60256220249981
 51
180.0
  0
ARC
  5
1429
330
2
100
AcDbEntity
  8
画層1
370
    20
100
AcDbCircle
 10
-384.090401178997
 20
130.8699326958549
 30
0.0
 40
2.0
100
AcDbArc
 50
180.0
 51
267.3974377975001
  0
LWPOLYLINE
  5
142F
330
2
100
AcDbEntity
  8
画層1
370
    20
100
AcDbPolyline
 90
        4
 70
     1
 43
0.0
 10
-388.590401178997
 20
157.9587767371689
 10
-387.090401178997
 20
157.9587767371689
 10
-387.090401178997
 20
157.9587767371689
 10
-388.590401178997
 20
157.9587767371689
  0
LWPOLYLINE
  5
1430
330
2
100
AcDbEntity
  8
画層1
370
    20
100
AcDbPolyline
 90
        4
 70
     1
 43
0.0
 10
-388.590401178997
 20
127.9587767371689
 10
-387.090401178997
 20
127.9587767371689
 10
-387.090401178997
 20
157.9587767371689
 10
-388.590401178997
 20
157.9587767371689
  0
LINE
  5
1435
330
2
100
AcDbEntity
  8
画層1
370
    20
100
AcDbLine
 10
-366.090401178997
 20
157.8678676462599
 30
0.0
 11
-376.090401178997
 21
150.9587767371689
 31
0.0
  0
LINE
  5
1436
330
2
100
AcDbEntity
  8
画層1
370
    20
100
AcDbLine
 10
-376.090401178997
 20
150.9587767371689
 30
0.0
 11
-376.090401178997
 21
134.9587767371689
 31
0.0
  0
LINE
  5
1437
330
2
100
AcDbEntity
  8
画層1
370
    20
100
AcDbLine
 10
-376.090401178997
 20
134.9587767371689
 30
0.0
 11
-366.090401178997
 21
128.049685828078
 31
0.0
  0
LWPOLYLINE
  5
149F
330
2
100
AcDbEntity
  8
画層1
370
    20
100
AcDbPolyline
 90
        4
 70
     1
 43
0.0
 10
-377.090401178997
 20
137.9587767371689
 10
-376.090401178997
 20
137.9587767371689
 10
-376.090401178997
 20
147.9587767371689
 10
-377.090401178997
 20
147.9587767371689
  0
LINE
  5
14A3
330
2
100
AcDbEntity
  8
画層1
370
    20
100
AcDbLine
 10
-377.090401178997
 20
138.9587767371689
 30
0.0
 11
-387.090401178997
 21
138.9587767371689
 31
0.0
  0
LINE
  5
14A4
330
2
100
AcDbEntity
  8
画層1
370
    20
100
AcDbLine
 10
-377.090401178997
 20
146.9587767371689
 30
0.0
 11
-387.090401178997
 21
146.9587767371689
 31
0.0
  0
LINE
  5
14A6
330
2
100
AcDbEntity
  8
画層1
370
    20
100
AcDbLine
 10
-386.090401178997
 20
146.9587767371689
 30
0.0
 11
-386.090401178997
 21
155.047620778483
 31
0.0
  0
LWPOLYLINE
  5
14AB
330
2
100
AcDbEntity
  8
画層1
370
    20
100
AcDbPolyline
 90
        4
 70
     1
 43
0.0
 10
-389.590401178997
 20
140.258776737169
 10
-388.590401178997
 20
140.258776737169
 10
-388.590401178997
 20
145.6587767371689
 10
-389.590401178997
 20
145.6587767371689
  0
LINE
  5
14B0
330
2
100
AcDbEntity
  8
画層1
370
    20
100
AcDbLine
 10
-389.590401178997
 20
145.4587767371689
 30
0.0
 11
-389.5904011789971
 21
145.4587767371689
 31
0.0
  0
LINE
  5
14B2
330
2
100
AcDbEntity
  8
画層1
370
    20
100
AcDbLine
 10
-389.590401178997
 20
140.4587767371689
 30
0.0
 11
-389.590401178997
 21
140.4587767371689
 31
0.0
  0
LINE
  5
14BB
330
2
100
AcDbEntity
  8
画層1
370
    20
100
AcDbLine
 10
-389.590401178997
 20
145.4587767371689
 30
0.0
 11
-390.5916386388566
 21
145.4575377450538
 31
0.0
  0
LINE
  5
14BC
330
2
100
AcDbEntity
  8
画層1
370
    20
100
AcDbLine
 10
-391.590401178997
 20
144.4575385107075
 30
0.0
 11
-391.590401178997
 21
141.4587767371689
 31
0.0
  0
LINE
  5
14BD
330
2
100
AcDbEntity
  8
画層1
370
    20
100
AcDbLine
 10
-390.590401178997
 20
140.4587767371689
 30
0.0
 11
-389.590401178997
 21
140.4587767371689
 31
0.0
  0
ARC
  5
14BF
330
2
100
AcDbEntity
  8
画層1
370
    20
100
AcDbCircle
 10
-390.590401178997
 20
141.4587767371689
 30
0.0
 40
1.0
100
AcDbArc
 50
180.0
 51
270.0
  0
ARC
  5
14C0
330
2
100
AcDbEntity
  8
画層1
370
    20
100
AcDbCircle
 10
-390.590401178997
 20
144.4575385107075
 30
0.0
 40
1.0
100
AcDbArc
 50
90.07090124537016
 51
180.0
  0
ARC
  5
14C6
330
2
100
AcDbEntity
  8
画層1
370
    20
100
AcDbCircle
 10
-391.290401178997
 20
142.458776737169
 30
0.0
 40
0.3000000000000114
100
AcDbArc
 50
90.0
 51
180.0
  0
ARC
  5
14C7
330
2
100
AcDbEntity
  8
画層1
370
    20
100
AcDbCircle
 10
-391.290401178997
 20
143.458776737169
 30
0.0
 40
0.3000000000000114
100
AcDbArc
 50
180.0
 51
270.0
  0
LINE
  5
14C9
330
2
100
AcDbEntity
  8
画層1
370
    20
100
AcDbLine
 10
-391.290401178997
 20
143.1587767371689
 30
0.0
 11
-391.290401178997
 21
142.758776737169
 31
0.0
  0
LINE
  5
14FE
330
2
100
AcDbEntity
  8
画層1
370
    20
100
AcDbLine
 10
-365.090401178997
 20
169.049685828078
 30
0.0
 11
-366.090401178997
 21
169.049685828078
 31
0.0
  0
LINE
  5
14FF
330
2
100
AcDbEntity
  8
画層1
370
    20
100
AcDbLine
 10
-366.090401178997
 20
169.049685828078
 30
0.0
 11
-366.090401178997
 21
177.549685828078
 31
0.0
  0
LINE
  5
152F
330
2
100
AcDbEntity
  8
画層1
370
    20
100
AcDbLine
 10
-412.0904011789971
 20
177.549685828078
 30
0.0
 11
-366.090401178997
 21
177.549685828078
 31
0.0
  0
LINE
  5
1531
330
2
100
AcDbEntity
  8
画層1
370
    20
100
AcDbLine
 10
-412.0904011789971
 20
177.549685828078
 30
0.0
 11
-412.0904011789971
 21
340.549685828078
 31
0.0
  0
LINE
  5
1534
330
2
100
AcDbEntity
  8
画層1
370
    20
100
AcDbLine
 10
-412.0904011789971
 20
340.549685828078
 30
0.0
 11
-366.090401178997
 21
340.549685828078
 31
0.0
  0
LINE
  5
1536
330
2
100
AcDbEntity
  8
画層1
370
    20
100
AcDbLine
 10
-366.090401178997
 20
340.549685828078
 30
0.0
 11
-366.090401178997
 21
349.049685828078
 31
0.0
  0
LINE
  5
1539
330
2
100
AcDbEntity
  8
画層1
370
    20
100
AcDbLine
 10
-366.090401178997
 20
349.049685828078
 30
0.0
 11
-365.090401178997
 21
349.049685828078
 31
0.0
  0
LINE
  5
153B
330
2
100
AcDbEntity
  8
画層1
370
    20
100
AcDbLine
 10
-365.090401178997
 20
178.549685828078
 30
0.0
 11
-411.090401178997
 21
178.549685828078
 31
0.0
  0
LINE
  5
153C
330
2
100
AcDbEntity
  8
画層1
370
    20
100
AcDbLine
 10
-411.090401178997
 20
339.049685828078
 30
0.0
 11
-411.090401178997
 21
339.549685828078
 31
0.0
  0
LINE
  5
153D
330
2
100
AcDbEntity
  8
画層1
370
    20
100
AcDbLine
 10
-411.090401178997
 20
339.549685828078
 30
0.0
 11
-365.090401178997
 21
339.549685828078
 31
0.0
  0
LINE
  5
1545
330
2
100
AcDbEntity
  8
画層1
370
    20
100
AcDbLine
 10
-411.090401178997
 20
339.049685828078
 30
0.0
 11
-392.090401178997
 21
339.049685828078
 31
0.0
  0
LINE
  5
1546
330
2
100
AcDbEntity
  8
画層1
370
    20
100
AcDbLine
 10
-392.090401178997
 20
339.049685828078
 30
0.0
 11
-392.090401178997
 21
179.049685828078
 31
0.0
  0
LINE
  5
1547
330
2
100
AcDbEntity
  8
画層1
370
    20
100
AcDbLine
 10
-392.090401178997
 20
179.049685828078
 30
0.0
 11
-411.090401178997
 21
179.049685828078
 31
0.0
  0
LINE
  5
1548
330
2
100
AcDbEntity
  8
画層1
370
    20
100
AcDbLine
 10
-411.090401178997
 20
179.049685828078
 30
0.0
 11
-411.090401178997
 21
178.549685828078
 31
0.0
  0
LINE
  5
155A
330
2
100
AcDbEntity
  8
画層1
370
    20
100
AcDbLine
 10
-367.090401178997
 20
170.549685828078
 30
0.0
 11
-368.090401178997
 21
170.549685828078
 31
0.0
  0
LINE
  5
155B
330
2
100
AcDbEntity
  8
画層1
370
    20
100
AcDbLine
 10
-369.090401178997
 20
171.549685828078
 30
0.0
 11
-369.090401178997
 21
174.549685828078
 31
0.0
  0
LINE
  5
155C
330
2
100
AcDbEntity
  8
画層1
370
    20
100
AcDbLine
 10
-368.090401178997
 20
175.549685828078
 30
0.0
 11
-367.090401178997
 21
175.549685828078
 31
0.0
  0
ARC
  5
155D
330
2
100
AcDbEntity
  8
画層1
370
    20
100
AcDbCircle
 10
-368.090401178997
 20
171.549685828078
 30
0.0
 40
1.0
100
AcDbArc
 50
180.0
 51
270.0
  0
ARC
  5
155E
330
2
100
AcDbEntity
  8
画層1
370
    20
100
AcDbCircle
 10
-368.090401178997
 20
174.549685828078
 30
0.0
 40
1.0
100
AcDbArc
 50
90.0
 51
180.0
  0
LINE
  5
155F
330
2
100
AcDbEntity
  8
画層1
370
    20
100
AcDbLine
 10
-366.090401178997
 20
169.049685828078
 30
0.0
 11
-366.090401178997
 21
169.049685828078
 31
0.0
  0
LINE
  5
1560
330
2
100
AcDbEntity
  8
画層1
370
    20
100
AcDbLine
 10
-366.090401178997
 20
169.049685828078
 30
0.0
 11
-366.090401178997
 21
177.0496858280781
 31
0.0
  0
LINE
  5
1561
330
2
100
AcDbEntity
  8
画層1
370
    20
100
AcDbLine
 10
-366.090401178997
 20
177.0496858280781
 30
0.0
 11
-366.090401178997
 21
177.0496858280781
 31
0.0
  0
ARC
  5
1562
330
2
100
AcDbEntity
  8
画層1
370
    20
100
AcDbCircle
 10
-366.090401178997
 20
175.849685828078
 30
0.0
 40
1.0
100
AcDbArc
 50
90.0
 51
180.0
  0
LINE
  5
1563
330
2
100
AcDbEntity
  8
画層1
370
    20
100
AcDbLine
 10
-367.090401178997
 20
175.849685828078
 30
0.0
 11
-367.090401178997
 21
170.249685828078
 31
0.0
  0
ARC
  5
1564
330
2
100
AcDbEntity
  8
画層1
370
    20
100
AcDbCircle
 10
-366.090401178997
 20
170.249685828078
 30
0.0
 40
1.0
100
AcDbArc
 50
180.0
 51
270.0
  0
ARC
  5
156F
330
2
100
AcDbEntity
  8
画層1
370
    20
100
AcDbCircle
 10
-368.590401178997
 20
172.349685828078
 30
0.0
 40
0.5
100
AcDbArc
 50
90.0
 51
180.0
  0
ARC
  5
1570
330
2
100
AcDbEntity
  8
画層1
370
    20
100
AcDbCircle
 10
-368.590401178997
 20
173.749685828078
 30
0.0
 40
0.5
100
AcDbArc
 50
180.0
 51
270.0
  0
LINE
  5
1571
330
2
100
AcDbEntity
  8
画層1
370
    20
100
AcDbLine
 10
-368.590401178997
 20
173.249685828078
 30
0.0
 11
-368.590401178997
 21
172.849685828078
 31
0.0
  0
LINE
  5
1573
330
2
100
AcDbEntity
  8
画層1
370
    20
100
AcDbLine
 10
-368.590401178997
 20
345.2496858280781
 30
0.0
 11
-368.590401178997
 21
344.849685828078
 31
0.0
  0
ARC
  5
1574
330
2
100
AcDbEntity
  8
画層1
370
    20
100
AcDbCircle
 10
-368.590401178997
 20
345.7496858280781
 30
0.0
 40
0.5
100
AcDbArc
 50
180.0
 51
270.0
  0
ARC
  5
1575
330
2
100
AcDbEntity
  8
画層1
370
    20
100
AcDbCircle
 10
-368.590401178997
 20
344.349685828078
 30
0.0
 40
0.5
100
AcDbArc
 50
90.0
 51
180.0
  0
LINE
  5
1576
330
2
100
AcDbEntity
  8
画層1
370
    20
100
AcDbLine
 10
-367.090401178997
 20
342.549685828078
 30
0.0
 11
-368.090401178997
 21
342.549685828078
 31
0.0
  0
LINE
  5
1577
330
2
100
AcDbEntity
  8
画層1
370
    20
100
AcDbLine
 10
-369.090401178997
 20
343.549685828078
 30
0.0
 11
-369.090401178997
 21
346.549685828078
 31
0.0
  0
LINE
  5
1578
330
2
100
AcDbEntity
  8
画層1
370
    20
100
AcDbLine
 10
-368.090401178997
 20
347.549685828078
 30
0.0
 11
-367.090401178997
 21
347.549685828078
 31
0.0
  0
ARC
  5
1579
330
2
100
AcDbEntity
  8
画層1
370
    20
100
AcDbCircle
 10
-368.090401178997
 20
346.549685828078
 30
0.0
 40
1.0
100
AcDbArc
 50
90.0
 51
180.0
  0
ARC
  5
157A
330
2
100
AcDbEntity
  8
画層1
370
    20
100
AcDbCircle
 10
-368.090401178997
 20
343.549685828078
 30
0.0
 40
1.0
100
AcDbArc
 50
180.0
 51
270.0
  0
LINE
  5
157B
330
2
100
AcDbEntity
  8
画層1
370
    20
100
AcDbLine
 10
-367.090401178997
 20
347.849685828078
 30
0.0
 11
-367.090401178997
 21
342.249685828078
 31
0.0
  0
ARC
  5
157C
330
2
100
AcDbEntity
  8
画層1
370
    20
100
AcDbCircle
 10
-366.090401178997
 20
342.249685828078
 30
0.0
 40
1.0
100
AcDbArc
 50
180.0
 51
270.0
  0
LINE
  5
157D
330
2
100
AcDbEntity
  8
画層1
370
    20
100
AcDbLine
 10
-366.090401178997
 20
341.049685828078
 30
0.0
 11
-366.090401178997
 21
341.049685828078
 31
0.0
  0
ARC
  5
157E
330
2
100
AcDbEntity
  8
画層1
370
    20
100
AcDbCircle
 10
-366.090401178997
 20
347.849685828078
 30
0.0
 40
1.0
100
AcDbArc
 50
90.0
 51
180.0
  0
LWPOLYLINE
  5
158B
330
2
100
AcDbEntity
  8
画層1
370
    20
100
AcDbPolyline
 90
        4
 70
     1
 43
0.0
 10
-374.1904011789971
 20
328.9587767371689
 10
-372.590401178997
 20
328.9587767371689
 10
-372.590401178997
 20
178.9587767371689
 10
-374.1904011789971
 20
178.9587767371689
  0
LINE
  5
1592
330
2
100
AcDbEntity
  8
画層1
370
    20
100
AcDbLine
 10
-365.090401178997
 20
327.9587767371689
 30
0.0
 11
-372.590401178997
 21
327.9587767371689
 31
0.0
  0
LINE
  5
1593
330
2
100
AcDbEntity
  8
画層1
370
    20
100
AcDbLine
 10
-365.090401178997
 20
317.9587767371689
 30
0.0
 11
-372.590401178997
 21
317.9587767371689
 31
0.0
  0
LINE
  5
1594
330
2
100
AcDbEntity
  8
画層1
370
    20
100
AcDbLine
 10
-374.1904011789971
 20
317.9587767371689
 30
0.0
 11
-379.190401178997
 21
317.9587767371689
 31
0.0
  0
LINE
  5
1595
330
2
100
AcDbEntity
  8
画層1
370
    20
100
AcDbLine
 10
-379.190401178997
 20
317.9587767371689
 30
0.0
 11
-379.190401178997
 21
327.9587767371689
 31
0.0
  0
LINE
  5
1596
330
2
100
AcDbEntity
  8
画層1
370
    20
100
AcDbLine
 10
-379.190401178997
 20
327.9587767371689
 30
0.0
 11
-374.1904011789971
 21
327.9587767371689
 31
0.0
  0
LINE
  5
1597
330
2
100
AcDbEntity
  8
画層1
370
    20
100
AcDbLine
 10
-379.190401178997
 20
189.9587767371689
 30
0.0
 11
-374.1904011789971
 21
189.9587767371689
 31
0.0
  0
LINE
  5
1598
330
2
100
AcDbEntity
  8
画層1
370
    20
100
AcDbLine
 10
-379.190401178997
 20
179.958776737169
 30
0.0
 11
-379.190401178997
 21
189.9587767371689
 31
0.0
  0
LINE
  5
1599
330
2
100
AcDbEntity
  8
画層1
370
    20
100
AcDbLine
 10
-365.090401178997
 20
179.958776737169
 30
0.0
 11
-372.590401178997
 21
179.958776737169
 31
0.0
  0
LINE
  5
159A
330
2
100
AcDbEntity
  8
画層1
370
    20
100
AcDbLine
 10
-365.090401178997
 20
189.9587767371689
 30
0.0
 11
-372.590401178997
 21
189.9587767371689
 31
0.0
  0
LINE
  5
159B
330
2
100
AcDbEntity
  8
画層1
370
    20
100
AcDbLine
 10
-374.1904011789971
 20
179.958776737169
 30
0.0
 11
-379.190401178997
 21
179.958776737169
 31
0.0
  0
LINE
  5
15A7
330
2
100
AcDbEntity
  8
画層1
370
    20
100
AcDbLine
 10
-374.1904011789971
 20
191.9587767371689
 30
0.0
 11
-389.1904011789971
 21
191.9587767371689
 31
0.0
  0
LINE
  5
15A8
330
2
100
AcDbEntity
  8
画層1
370
    20
100
AcDbLine
 10
-389.1904011789971
 20
191.9587767371689
 30
0.0
 11
-389.1904011789971
 21
193.9587767371689
 31
0.0
  0
LINE
  5
15A9
330
2
100
AcDbEntity
  8
画層1
370
    20
100
AcDbLine
 10
-389.1904011789971
 20
193.9587767371689
 30
0.0
 11
-378.1904011789971
 21
193.9587767371689
 31
0.0
  0
LINE
  5
15AA
330
2
100
AcDbEntity
  8
画層1
370
    20
100
AcDbLine
 10
-378.1904011789971
 20
193.9587767371689
 30
0.0
 11
-378.1904011789971
 21
201.9587767371689
 31
0.0
  0
LINE
  5
15AB
330
2
100
AcDbEntity
  8
画層1
370
    20
100
AcDbLine
 10
-378.1904011789971
 20
201.9587767371689
 30
0.0
 11
-389.1904011789971
 21
201.9587767371689
 31
0.0
  0
LINE
  5
15AC
330
2
100
AcDbEntity
  8
画層1
370
    20
100
AcDbLine
 10
-389.1904011789971
 20
201.9587767371689
 30
0.0
 11
-389.1904011789971
 21
203.9587767371689
 31
0.0
  0
LINE
  5
15AD
330
2
100
AcDbEntity
  8
画層1
370
    20
100
AcDbLine
 10
-389.1904011789971
 20
203.9587767371689
 30
0.0
 11
-378.1904011789971
 21
203.9587767371689
 31
0.0
  0
LINE
  5
15B0
330
2
100
AcDbEntity
  8
画層1
370
    20
100
AcDbLine
 10
-381.190401178997
 20
201.9587767371689
 30
0.0
 11
-381.190401178997
 21
193.9587767371689
 31
0.0
  0
LINE
  5
15B1
330
2
100
AcDbEntity
  8
画層1
370
    20
100
AcDbLine
 10
-382.690401178997
 20
201.9587767371689
 30
0.0
 11
-382.690401178997
 21
193.9587767371689
 31
0.0
  0
LINE
  5
15B2
330
2
100
AcDbEntity
  8
画層1
370
    20
100
AcDbLine
 10
-384.1904011789971
 20
201.9587767371689
 30
0.0
 11
-384.1904011789971
 21
193.9587767371689
 31
0.0
  0
LINE
  5
15B6
330
2
100
AcDbEntity
  8
画層1
370
    20
100
AcDbLine
 10
-384.1904011789971
 20
200.9587767371689
 30
0.0
 11
-385.190401178997
 21
200.9587767371689
 31
0.0
  0
LINE
  5
15B7
330
2
100
AcDbEntity
  8
画層1
370
    20
100
AcDbLine
 10
-385.190401178997
 20
200.9587767371689
 30
0.0
 11
-385.190401178997
 21
194.9587767371689
 31
0.0
  0
LINE
  5
15B8
330
2
100
AcDbEntity
  8
画層1
370
    20
100
AcDbLine
 10
-385.190401178997
 20
194.9587767371689
 30
0.0
 11
-384.1904011789971
 21
194.9587767371689
 31
0.0
  0
LINE
  5
15B9
330
2
100
AcDbEntity
  8
画層1
370
    20
100
AcDbLine
 10
-385.190401178997
 20
194.9587767371689
 30
0.0
 11
-386.1904011789971
 21
194.9587767371689
 31
0.0
  0
LINE
  5
15BA
330
2
100
AcDbEntity
  8
画層1
370
    20
100
AcDbLine
 10
-388.190401178997
 20
196.9587767371689
 30
0.0
 11
-388.190401178997
 21
198.9587767371689
 31
0.0
  0
LINE
  5
15BB
330
2
100
AcDbEntity
  8
画層1
370
    20
100
AcDbLine
 10
-386.1904011789971
 20
200.9587767371689
 30
0.0
 11
-385.190401178997
 21
200.9587767371689
 31
0.0
  0
ARC
  5
15BC
330
2
100
AcDbEntity
  8
画層1
370
    20
100
AcDbCircle
 10
-386.1904011789971
 20
196.9587767371689
 30
0.0
 40
2.0
100
AcDbArc
 50
180.0
 51
270.0
  0
ARC
  5
15BD
330
2
100
AcDbEntity
  8
画層1
370
    20
100
AcDbCircle
 10
-386.1904011789971
 20
198.9587767371689
 30
0.0
 40
2.0
100
AcDbArc
 50
90.0
 51
180.0
  0
ARC
  5
15C6
330
2
100
AcDbEntity
  8
画層1
370
    20
100
AcDbCircle
 10
-387.690401178997
 20
196.958776737169
 30
0.0
 40
0.5
100
AcDbArc
 50
90.0
 51
180.0
  0
ARC
  5
15C7
330
2
100
AcDbEntity
  8
画層1
370
    20
100
AcDbCircle
 10
-387.690401178997
 20
198.9587767371689
 30
0.0
 40
0.5
100
AcDbArc
 50
180.0
 51
270.0
  0
LINE
  5
15C8
330
2
100
AcDbEntity
  8
画層1
370
    20
100
AcDbLine
 10
-387.690401178997
 20
198.4587767371689
 30
0.0
 11
-387.690401178997
 21
197.4587767371689
 31
0.0
  0
ARC
  5
15FC
330
2
100
AcDbEntity
  8
画層1
370
    20
100
AcDbCircle
 10
-386.1904011789971
 20
208.958776737169
 30
0.0
 40
2.0
100
AcDbArc
 50
90.0
 51
180.0
  0
LINE
  5
15FD
330
2
100
AcDbEntity
  8
画層1
370
    20
100
AcDbLine
 10
-385.190401178997
 20
210.958776737169
 30
0.0
 11
-385.190401178997
 21
204.958776737169
 31
0.0
  0
ARC
  5
15FE
330
2
100
AcDbEntity
  8
画層1
370
    20
100
AcDbCircle
 10
-386.1904011789971
 20
206.9587767371689
 30
0.0
 40
2.0
100
AcDbArc
 50
180.0
 51
270.0
  0
LINE
  5
15FF
330
2
100
AcDbEntity
  8
画層1
370
    20
100
AcDbLine
 10
-387.690401178997
 20
208.4587767371689
 30
0.0
 11
-387.690401178997
 21
207.4587767371689
 31
0.0
  0
ARC
  5
1600
330
2
100
AcDbEntity
  8
画層1
370
    20
100
AcDbCircle
 10
-387.690401178997
 20
208.958776737169
 30
0.0
 40
0.5
100
AcDbArc
 50
180.0
 51
270.0
  0
ARC
  5
1601
330
2
100
AcDbEntity
  8
画層1
370
    20
100
AcDbCircle
 10
-387.690401178997
 20
206.958776737169
 30
0.0
 40
0.5
100
AcDbArc
 50
90.0
 51
180.0
  0
LINE
  5
1602
330
2
100
AcDbEntity
  8
画層1
370
    20
100
AcDbLine
 10
-388.190401178997
 20
206.9587767371689
 30
0.0
 11
-388.190401178997
 21
208.958776737169
 31
0.0
  0
LINE
  5
1603
330
2
100
AcDbEntity
  8
画層1
370
    20
100
AcDbLine
 10
-385.190401178997
 20
204.958776737169
 30
0.0
 11
-386.1904011789971
 21
204.9587767371689
 31
0.0
  0
LINE
  5
1604
330
2
100
AcDbEntity
  8
画層1
370
    20
100
AcDbLine
 10
-385.190401178997
 20
204.958776737169
 30
0.0
 11
-384.1904011789971
 21
204.958776737169
 31
0.0
  0
LINE
  5
1605
330
2
100
AcDbEntity
  8
画層1
370
    20
100
AcDbLine
 10
-389.1904011789971
 20
213.9587767371689
 30
0.0
 11
-378.1904011789971
 21
213.9587767371689
 31
0.0
  0
LINE
  5
1606
330
2
100
AcDbEntity
  8
画層1
370
    20
100
AcDbLine
 10
-378.1904011789971
 20
211.9587767371689
 30
0.0
 11
-389.1904011789971
 21
211.9587767371689
 31
0.0
  0
LINE
  5
1607
330
2
100
AcDbEntity
  8
画層1
370
    20
100
AcDbLine
 10
-389.1904011789971
 20
211.9587767371689
 30
0.0
 11
-389.1904011789971
 21
213.9587767371689
 31
0.0
  0
LINE
  5
1608
330
2
100
AcDbEntity
  8
画層1
370
    20
100
AcDbLine
 10
-386.1904011789971
 20
210.958776737169
 30
0.0
 11
-385.190401178997
 21
210.958776737169
 31
0.0
  0
LINE
  5
1609
330
2
100
AcDbEntity
  8
画層1
370
    20
100
AcDbLine
 10
-384.1904011789971
 20
210.958776737169
 30
0.0
 11
-385.190401178997
 21
210.958776737169
 31
0.0
  0
LINE
  5
160A
330
2
100
AcDbEntity
  8
画層1
370
    20
100
AcDbLine
 10
-384.1904011789971
 20
211.9587767371689
 30
0.0
 11
-384.1904011789971
 21
203.9587767371689
 31
0.0
  0
LINE
  5
160B
330
2
100
AcDbEntity
  8
画層1
370
    20
100
AcDbLine
 10
-382.690401178997
 20
211.9587767371689
 30
0.0
 11
-382.690401178997
 21
203.9587767371689
 31
0.0
  0
LINE
  5
160C
330
2
100
AcDbEntity
  8
画層1
370
    20
100
AcDbLine
 10
-381.190401178997
 20
211.9587767371689
 30
0.0
 11
-381.190401178997
 21
203.9587767371689
 31
0.0
  0
LINE
  5
160D
330
2
100
AcDbEntity
  8
画層1
370
    20
100
AcDbLine
 10
-378.1904011789971
 20
203.9587767371689
 30
0.0
 11
-378.1904011789971
 21
211.9587767371689
 31
0.0
  0
LINE
  5
160E
330
2
100
AcDbEntity
  8
画層1
370
    20
100
AcDbLine
 10
-388.190401178997
 20
216.9587767371689
 30
0.0
 11
-388.190401178997
 21
218.958776737169
 31
0.0
  0
LINE
  5
160F
330
2
100
AcDbEntity
  8
画層1
370
    20
100
AcDbLine
 10
-387.690401178997
 20
218.4587767371689
 30
0.0
 11
-387.690401178997
 21
217.458776737169
 31
0.0
  0
LINE
  5
1610
330
2
100
AcDbEntity
  8
画層1
370
    20
100
AcDbLine
 10
-385.190401178997
 20
220.958776737169
 30
0.0
 11
-385.190401178997
 21
214.958776737169
 31
0.0
  0
ARC
  5
1611
330
2
100
AcDbEntity
  8
画層1
370
    20
100
AcDbCircle
 10
-386.1904011789971
 20
216.9587767371689
 30
0.0
 40
2.0
100
AcDbArc
 50
180.0
 51
270.0
  0
ARC
  5
1612
330
2
100
AcDbEntity
  8
画層1
370
    20
100
AcDbCircle
 10
-387.690401178997
 20
216.958776737169
 30
0.0
 40
0.5
100
AcDbArc
 50
90.0
 51
180.0
  0
LINE
  5
1613
330
2
100
AcDbEntity
  8
画層1
370
    20
100
AcDbLine
 10
-385.190401178997
 20
214.958776737169
 30
0.0
 11
-384.1904011789971
 21
214.958776737169
 31
0.0
  0
LINE
  5
1614
330
2
100
AcDbEntity
  8
画層1
370
    20
100
AcDbLine
 10
-385.190401178997
 20
214.958776737169
 30
0.0
 11
-386.1904011789971
 21
214.9587767371689
 31
0.0
  0
LINE
  5
1615
330
2
100
AcDbEntity
  8
画層1
370
    20
100
AcDbLine
 10
-378.1904011789971
 20
221.9587767371689
 30
0.0
 11
-389.1904011789971
 21
221.9587767371689
 31
0.0
  0
LINE
  5
1616
330
2
100
AcDbEntity
  8
画層1
370
    20
100
AcDbLine
 10
-389.1904011789971
 20
223.9587767371689
 30
0.0
 11
-378.1904011789971
 21
223.9587767371689
 31
0.0
  0
ARC
  5
1617
330
2
100
AcDbEntity
  8
画層1
370
    20
100
AcDbCircle
 10
-386.1904011789971
 20
218.958776737169
 30
0.0
 40
2.0
100
AcDbArc
 50
90.0
 51
180.0
  0
LINE
  5
1618
330
2
100
AcDbEntity
  8
画層1
370
    20
100
AcDbLine
 10
-389.1904011789971
 20
221.9587767371689
 30
0.0
 11
-389.1904011789971
 21
223.9587767371689
 31
0.0
  0
ARC
  5
1619
330
2
100
AcDbEntity
  8
画層1
370
    20
100
AcDbCircle
 10
-387.690401178997
 20
218.958776737169
 30
0.0
 40
0.5
100
AcDbArc
 50
180.0
 51
270.0
  0
LINE
  5
161A
330
2
100
AcDbEntity
  8
画層1
370
    20
100
AcDbLine
 10
-384.1904011789971
 20
220.958776737169
 30
0.0
 11
-385.190401178997
 21
220.958776737169
 31
0.0
  0
LINE
  5
161B
330
2
100
AcDbEntity
  8
画層1
370
    20
100
AcDbLine
 10
-386.1904011789971
 20
220.958776737169
 30
0.0
 11
-385.190401178997
 21
220.958776737169
 31
0.0
  0
LINE
  5
161C
330
2
100
AcDbEntity
  8
画層1
370
    20
100
AcDbLine
 10
-378.1904011789971
 20
213.9587767371689
 30
0.0
 11
-378.1904011789971
 21
221.9587767371689
 31
0.0
  0
LINE
  5
161D
330
2
100
AcDbEntity
  8
画層1
370
    20
100
AcDbLine
 10
-381.190401178997
 20
221.9587767371689
 30
0.0
 11
-381.190401178997
 21
213.9587767371689
 31
0.0
  0
LINE
  5
161E
330
2
100
AcDbEntity
  8
画層1
370
    20
100
AcDbLine
 10
-382.690401178997
 20
221.9587767371689
 30
0.0
 11
-382.690401178997
 21
213.9587767371689
 31
0.0
  0
LINE
  5
161F
330
2
100
AcDbEntity
  8
画層1
370
    20
100
AcDbLine
 10
-384.1904011789971
 20
221.9587767371689
 30
0.0
 11
-384.1904011789971
 21
213.9587767371689
 31
0.0
  0
LINE
  5
1620
330
2
100
AcDbEntity
  8
画層1
370
    20
100
AcDbLine
 10
-384.1904011789971
 20
231.958776737169
 30
0.0
 11
-384.1904011789971
 21
223.9587767371689
 31
0.0
  0
LINE
  5
1621
330
2
100
AcDbEntity
  8
画層1
370
    20
100
AcDbLine
 10
-382.690401178997
 20
231.958776737169
 30
0.0
 11
-382.690401178997
 21
223.9587767371689
 31
0.0
  0
LINE
  5
1622
330
2
100
AcDbEntity
  8
画層1
370
    20
100
AcDbLine
 10
-381.190401178997
 20
231.958776737169
 30
0.0
 11
-381.190401178997
 21
223.9587767371689
 31
0.0
  0
LINE
  5
1623
330
2
100
AcDbEntity
  8
画層1
370
    20
100
AcDbLine
 10
-378.1904011789971
 20
223.9587767371689
 30
0.0
 11
-378.1904011789971
 21
231.958776737169
 31
0.0
  0
LINE
  5
1624
330
2
100
AcDbEntity
  8
画層1
370
    20
100
AcDbLine
 10
-389.1904011789971
 20
231.958776737169
 30
0.0
 11
-389.1904011789971
 21
233.958776737169
 31
0.0
  0
ARC
  5
1625
330
2
100
AcDbEntity
  8
画層1
370
    20
100
AcDbCircle
 10
-386.1904011789971
 20
226.9587767371689
 30
0.0
 40
2.0
100
AcDbArc
 50
180.0
 51
270.0
  0
LINE
  5
1626
330
2
100
AcDbEntity
  8
画層1
370
    20
100
AcDbLine
 10
-385.190401178997
 20
230.9587767371689
 30
0.0
 11
-385.190401178997
 21
224.9587767371689
 31
0.0
  0
LINE
  5
1627
330
2
100
AcDbEntity
  8
画層1
370
    20
100
AcDbLine
 10
-385.190401178997
 20
224.9587767371689
 30
0.0
 11
-386.1904011789971
 21
224.9587767371689
 31
0.0
  0
LINE
  5
1628
330
2
100
AcDbEntity
  8
画層1
370
    20
100
AcDbLine
 10
-385.190401178997
 20
224.9587767371689
 30
0.0
 11
-384.1904011789971
 21
224.9587767371689
 31
0.0
  0
ARC
  5
1629
330
2
100
AcDbEntity
  8
画層1
370
    20
100
AcDbCircle
 10
-386.1904011789971
 20
228.9587767371689
 30
0.0
 40
2.0
100
AcDbArc
 50
90.0
 51
180.0
  0
LINE
  5
162A
330
2
100
AcDbEntity
  8
画層1
370
    20
100
AcDbLine
 10
-378.1904011789971
 20
231.958776737169
 30
0.0
 11
-389.1904011789971
 21
231.958776737169
 31
0.0
  0
ARC
  5
162B
330
2
100
AcDbEntity
  8
画層1
370
    20
100
AcDbCircle
 10
-387.690401178997
 20
228.9587767371689
 30
0.0
 40
0.5
100
AcDbArc
 50
180.0
 51
270.0
  0
ARC
  5
162C
330
2
100
AcDbEntity
  8
画層1
370
    20
100
AcDbCircle
 10
-387.690401178997
 20
226.9587767371689
 30
0.0
 40
0.5
100
AcDbArc
 50
90.0
 51
180.0
  0
LINE
  5
162D
330
2
100
AcDbEntity
  8
画層1
370
    20
100
AcDbLine
 10
-387.690401178997
 20
228.4587767371689
 30
0.0
 11
-387.690401178997
 21
227.458776737169
 31
0.0
  0
LINE
  5
162E
330
2
100
AcDbEntity
  8
画層1
370
    20
100
AcDbLine
 10
-388.190401178997
 20
226.9587767371689
 30
0.0
 11
-388.190401178997
 21
228.9587767371689
 31
0.0
  0
LINE
  5
162F
330
2
100
AcDbEntity
  8
画層1
370
    20
100
AcDbLine
 10
-386.1904011789971
 20
230.9587767371689
 30
0.0
 11
-385.190401178997
 21
230.9587767371689
 31
0.0
  0
LINE
  5
1630
330
2
100
AcDbEntity
  8
画層1
370
    20
100
AcDbLine
 10
-384.1904011789971
 20
230.9587767371689
 30
0.0
 11
-385.190401178997
 21
230.9587767371689
 31
0.0
  0
LINE
  5
1631
330
2
100
AcDbEntity
  8
画層1
370
    20
100
AcDbLine
 10
-389.1904011789971
 20
233.958776737169
 30
0.0
 11
-378.1904011789971
 21
233.958776737169
 31
0.0
  0
ARC
  5
1632
330
2
100
AcDbEntity
  8
画層1
370
    20
100
AcDbCircle
 10
-386.1904011789971
 20
238.9587767371689
 30
0.0
 40
2.0
100
AcDbArc
 50
90.0
 51
180.0
  0
LINE
  5
1633
330
2
100
AcDbEntity
  8
画層1
370
    20
100
AcDbLine
 10
-385.190401178997
 20
240.9587767371689
 30
0.0
 11
-385.190401178997
 21
234.9587767371689
 31
0.0
  0
ARC
  5
1634
330
2
100
AcDbEntity
  8
画層1
370
    20
100
AcDbCircle
 10
-386.1904011789971
 20
236.9587767371689
 30
0.0
 40
2.0
100
AcDbArc
 50
180.0
 51
270.0
  0
LINE
  5
1635
330
2
100
AcDbEntity
  8
画層1
370
    20
100
AcDbLine
 10
-388.190401178997
 20
236.9587767371689
 30
0.0
 11
-388.190401178997
 21
238.9587767371689
 31
0.0
  0
LINE
  5
1636
330
2
100
AcDbEntity
  8
画層1
370
    20
100
AcDbLine
 10
-387.690401178997
 20
238.4587767371689
 30
0.0
 11
-387.690401178997
 21
237.4587767371689
 31
0.0
  0
ARC
  5
1637
330
2
100
AcDbEntity
  8
画層1
370
    20
100
AcDbCircle
 10
-387.690401178997
 20
236.9587767371689
 30
0.0
 40
0.5
100
AcDbArc
 50
90.0
 51
180.0
  0
ARC
  5
1638
330
2
100
AcDbEntity
  8
画層1
370
    20
100
AcDbCircle
 10
-387.690401178997
 20
238.9587767371689
 30
0.0
 40
0.5
100
AcDbArc
 50
180.0
 51
270.0
  0
LINE
  5
1639
330
2
100
AcDbEntity
  8
画層1
370
    20
100
AcDbLine
 10
-385.190401178997
 20
234.9587767371689
 30
0.0
 11
-384.1904011789971
 21
234.9587767371689
 31
0.0
  0
LINE
  5
163A
330
2
100
AcDbEntity
  8
画層1
370
    20
100
AcDbLine
 10
-385.190401178997
 20
234.9587767371689
 30
0.0
 11
-386.1904011789971
 21
234.9587767371689
 31
0.0
  0
LINE
  5
163B
330
2
100
AcDbEntity
  8
画層1
370
    20
100
AcDbLine
 10
-389.1904011789971
 20
243.958776737169
 30
0.0
 11
-378.1904011789971
 21
243.958776737169
 31
0.0
  0
LINE
  5
163C
330
2
100
AcDbEntity
  8
画層1
370
    20
100
AcDbLine
 10
-378.1904011789971
 20
241.958776737169
 30
0.0
 11
-389.1904011789971
 21
241.958776737169
 31
0.0
  0
LINE
  5
163D
330
2
100
AcDbEntity
  8
画層1
370
    20
100
AcDbLine
 10
-389.1904011789971
 20
241.958776737169
 30
0.0
 11
-389.1904011789971
 21
243.958776737169
 31
0.0
  0
LINE
  5
163E
330
2
100
AcDbEntity
  8
画層1
370
    20
100
AcDbLine
 10
-384.1904011789971
 20
240.9587767371689
 30
0.0
 11
-385.190401178997
 21
240.9587767371689
 31
0.0
  0
LINE
  5
163F
330
2
100
AcDbEntity
  8
画層1
370
    20
100
AcDbLine
 10
-386.1904011789971
 20
240.9587767371689
 30
0.0
 11
-385.190401178997
 21
240.9587767371689
 31
0.0
  0
LINE
  5
1640
330
2
100
AcDbEntity
  8
画層1
370
    20
100
AcDbLine
 10
-378.1904011789971
 20
233.958776737169
 30
0.0
 11
-378.1904011789971
 21
241.958776737169
 31
0.0
  0
LINE
  5
1641
330
2
100
AcDbEntity
  8
画層1
370
    20
100
AcDbLine
 10
-381.190401178997
 20
241.958776737169
 30
0.0
 11
-381.190401178997
 21
233.958776737169
 31
0.0
  0
LINE
  5
1642
330
2
100
AcDbEntity
  8
画層1
370
    20
100
AcDbLine
 10
-382.690401178997
 20
241.958776737169
 30
0.0
 11
-382.690401178997
 21
233.958776737169
 31
0.0
  0
LINE
  5
1643
330
2
100
AcDbEntity
  8
画層1
370
    20
100
AcDbLine
 10
-384.1904011789971
 20
241.958776737169
 30
0.0
 11
-384.1904011789971
 21
233.958776737169
 31
0.0
  0
LINE
  5
1644
330
2
100
AcDbEntity
  8
画層1
370
    20
100
AcDbLine
 10
-387.690401178997
 20
248.458776737169
 30
0.0
 11
-387.690401178997
 21
247.4587767371689
 31
0.0
  0
LINE
  5
1645
330
2
100
AcDbEntity
  8
画層1
370
    20
100
AcDbLine
 10
-388.190401178997
 20
246.9587767371689
 30
0.0
 11
-388.190401178997
 21
248.9587767371689
 31
0.0
  0
LINE
  5
1646
330
2
100
AcDbEntity
  8
画層1
370
    20
100
AcDbLine
 10
-385.190401178997
 20
250.9587767371689
 30
0.0
 11
-385.190401178997
 21
244.9587767371689
 31
0.0
  0
ARC
  5
1647
330
2
100
AcDbEntity
  8
画層1
370
    20
100
AcDbCircle
 10
-386.1904011789971
 20
246.9587767371689
 30
0.0
 40
2.0
100
AcDbArc
 50
180.0
 51
270.0
  0
ARC
  5
1648
330
2
100
AcDbEntity
  8
画層1
370
    20
100
AcDbCircle
 10
-387.690401178997
 20
246.9587767371689
 30
0.0
 40
0.5
100
AcDbArc
 50
90.0
 51
180.0
  0
LINE
  5
1649
330
2
100
AcDbEntity
  8
画層1
370
    20
100
AcDbLine
 10
-385.190401178997
 20
244.9587767371689
 30
0.0
 11
-386.1904011789971
 21
244.9587767371689
 31
0.0
  0
LINE
  5
164A
330
2
100
AcDbEntity
  8
画層1
370
    20
100
AcDbLine
 10
-385.190401178997
 20
244.9587767371689
 30
0.0
 11
-384.1904011789971
 21
244.9587767371689
 31
0.0
  0
LINE
  5
164B
330
2
100
AcDbEntity
  8
画層1
370
    20
100
AcDbLine
 10
-378.1904011789971
 20
251.9587767371689
 30
0.0
 11
-389.1904011789971
 21
251.9587767371689
 31
0.0
  0
LINE
  5
164C
330
2
100
AcDbEntity
  8
画層1
370
    20
100
AcDbLine
 10
-389.1904011789971
 20
253.9587767371689
 30
0.0
 11
-378.1904011789971
 21
253.9587767371689
 31
0.0
  0
ARC
  5
164D
330
2
100
AcDbEntity
  8
画層1
370
    20
100
AcDbCircle
 10
-386.1904011789971
 20
248.9587767371689
 30
0.0
 40
2.0
100
AcDbArc
 50
90.0
 51
180.0
  0
LINE
  5
164E
330
2
100
AcDbEntity
  8
画層1
370
    20
100
AcDbLine
 10
-389.1904011789971
 20
251.9587767371689
 30
0.0
 11
-389.1904011789971
 21
253.9587767371689
 31
0.0
  0
ARC
  5
164F
330
2
100
AcDbEntity
  8
画層1
370
    20
100
AcDbCircle
 10
-387.690401178997
 20
248.9587767371689
 30
0.0
 40
0.5
100
AcDbArc
 50
180.0
 51
270.0
  0
LINE
  5
1650
330
2
100
AcDbEntity
  8
画層1
370
    20
100
AcDbLine
 10
-386.1904011789971
 20
250.9587767371689
 30
0.0
 11
-385.190401178997
 21
250.9587767371689
 31
0.0
  0
LINE
  5
1651
330
2
100
AcDbEntity
  8
画層1
370
    20
100
AcDbLine
 10
-384.1904011789971
 20
250.9587767371689
 30
0.0
 11
-385.190401178997
 21
250.9587767371689
 31
0.0
  0
LINE
  5
1652
330
2
100
AcDbEntity
  8
画層1
370
    20
100
AcDbLine
 10
-384.1904011789971
 20
251.9587767371689
 30
0.0
 11
-384.1904011789971
 21
243.958776737169
 31
0.0
  0
LINE
  5
1653
330
2
100
AcDbEntity
  8
画層1
370
    20
100
AcDbLine
 10
-382.690401178997
 20
251.9587767371689
 30
0.0
 11
-382.690401178997
 21
243.958776737169
 31
0.0
  0
LINE
  5
1654
330
2
100
AcDbEntity
  8
画層1
370
    20
100
AcDbLine
 10
-381.190401178997
 20
251.9587767371689
 30
0.0
 11
-381.190401178997
 21
243.958776737169
 31
0.0
  0
LINE
  5
1655
330
2
100
AcDbEntity
  8
画層1
370
    20
100
AcDbLine
 10
-378.1904011789971
 20
243.958776737169
 30
0.0
 11
-378.1904011789971
 21
251.9587767371689
 31
0.0
  0
LINE
  5
1656
330
2
100
AcDbEntity
  8
画層1
370
    20
100
AcDbLine
 10
-389.1904011789971
 20
261.9587767371689
 30
0.0
 11
-389.1904011789971
 21
263.9587767371689
 31
0.0
  0
ARC
  5
1657
330
2
100
AcDbEntity
  8
画層1
370
    20
100
AcDbCircle
 10
-386.1904011789971
 20
256.9587767371689
 30
0.0
 40
2.0
100
AcDbArc
 50
180.0
 51
270.0
  0
LINE
  5
1658
330
2
100
AcDbEntity
  8
画層1
370
    20
100
AcDbLine
 10
-385.190401178997
 20
260.958776737169
 30
0.0
 11
-385.190401178997
 21
254.958776737169
 31
0.0
  0
LINE
  5
1659
330
2
100
AcDbEntity
  8
画層1
370
    20
100
AcDbLine
 10
-385.190401178997
 20
254.958776737169
 30
0.0
 11
-384.1904011789971
 21
254.958776737169
 31
0.0
  0
LINE
  5
165A
330
2
100
AcDbEntity
  8
画層1
370
    20
100
AcDbLine
 10
-385.190401178997
 20
254.958776737169
 30
0.0
 11
-386.1904011789971
 21
254.9587767371689
 31
0.0
  0
ARC
  5
165B
330
2
100
AcDbEntity
  8
画層1
370
    20
100
AcDbCircle
 10
-386.1904011789971
 20
258.958776737169
 30
0.0
 40
2.0
100
AcDbArc
 50
90.0
 51
180.0
  0
LINE
  5
165C
330
2
100
AcDbEntity
  8
画層1
370
    20
100
AcDbLine
 10
-378.1904011789971
 20
261.9587767371689
 30
0.0
 11
-389.1904011789971
 21
261.9587767371689
 31
0.0
  0
ARC
  5
165D
330
2
100
AcDbEntity
  8
画層1
370
    20
100
AcDbCircle
 10
-387.690401178997
 20
258.958776737169
 30
0.0
 40
0.5
100
AcDbArc
 50
180.0
 51
270.0
  0
ARC
  5
165E
330
2
100
AcDbEntity
  8
画層1
370
    20
100
AcDbCircle
 10
-387.690401178997
 20
256.958776737169
 30
0.0
 40
0.5
100
AcDbArc
 50
90.0
 51
180.0
  0
LINE
  5
165F
330
2
100
AcDbEntity
  8
画層1
370
    20
100
AcDbLine
 10
-388.190401178997
 20
256.9587767371689
 30
0.0
 11
-388.190401178997
 21
258.958776737169
 31
0.0
  0
LINE
  5
1660
330
2
100
AcDbEntity
  8
画層1
370
    20
100
AcDbLine
 10
-387.690401178997
 20
258.458776737169
 30
0.0
 11
-387.690401178997
 21
257.4587767371689
 31
0.0
  0
LINE
  5
1661
330
2
100
AcDbEntity
  8
画層1
370
    20
100
AcDbLine
 10
-384.1904011789971
 20
260.958776737169
 30
0.0
 11
-385.190401178997
 21
260.958776737169
 31
0.0
  0
LINE
  5
1662
330
2
100
AcDbEntity
  8
画層1
370
    20
100
AcDbLine
 10
-386.1904011789971
 20
260.958776737169
 30
0.0
 11
-385.190401178997
 21
260.958776737169
 31
0.0
  0
LINE
  5
1663
330
2
100
AcDbEntity
  8
画層1
370
    20
100
AcDbLine
 10
-389.1904011789971
 20
263.9587767371689
 30
0.0
 11
-378.1904011789971
 21
263.9587767371689
 31
0.0
  0
LINE
  5
1664
330
2
100
AcDbEntity
  8
画層1
370
    20
100
AcDbLine
 10
-378.1904011789971
 20
253.9587767371689
 30
0.0
 11
-378.1904011789971
 21
261.9587767371689
 31
0.0
  0
LINE
  5
1665
330
2
100
AcDbEntity
  8
画層1
370
    20
100
AcDbLine
 10
-381.190401178997
 20
261.9587767371689
 30
0.0
 11
-381.190401178997
 21
253.9587767371689
 31
0.0
  0
LINE
  5
1666
330
2
100
AcDbEntity
  8
画層1
370
    20
100
AcDbLine
 10
-382.690401178997
 20
261.9587767371689
 30
0.0
 11
-382.690401178997
 21
253.9587767371689
 31
0.0
  0
LINE
  5
1667
330
2
100
AcDbEntity
  8
画層1
370
    20
100
AcDbLine
 10
-384.1904011789971
 20
261.9587767371689
 30
0.0
 11
-384.1904011789971
 21
253.9587767371689
 31
0.0
  0
ARC
  5
1668
330
2
100
AcDbEntity
  8
画層1
370
    20
100
AcDbCircle
 10
-386.1904011789971
 20
268.958776737169
 30
0.0
 40
2.0
100
AcDbArc
 50
90.0
 51
180.0
  0
LINE
  5
1669
330
2
100
AcDbEntity
  8
画層1
370
    20
100
AcDbLine
 10
-385.190401178997
 20
270.958776737169
 30
0.0
 11
-385.190401178997
 21
264.958776737169
 31
0.0
  0
ARC
  5
166A
330
2
100
AcDbEntity
  8
画層1
370
    20
100
AcDbCircle
 10
-386.1904011789971
 20
266.9587767371689
 30
0.0
 40
2.0
100
AcDbArc
 50
180.0
 51
270.0
  0
LINE
  5
166B
330
2
100
AcDbEntity
  8
画層1
370
    20
100
AcDbLine
 10
-387.690401178997
 20
268.4587767371689
 30
0.0
 11
-387.690401178997
 21
267.458776737169
 31
0.0
  0
LINE
  5
166C
330
2
100
AcDbEntity
  8
画層1
370
    20
100
AcDbLine
 10
-388.190401178997
 20
266.9587767371689
 30
0.0
 11
-388.190401178997
 21
268.958776737169
 31
0.0
  0
ARC
  5
166D
330
2
100
AcDbEntity
  8
画層1
370
    20
100
AcDbCircle
 10
-387.690401178997
 20
266.958776737169
 30
0.0
 40
0.5
100
AcDbArc
 50
90.0
 51
180.0
  0
ARC
  5
166E
330
2
100
AcDbEntity
  8
画層1
370
    20
100
AcDbCircle
 10
-387.690401178997
 20
268.958776737169
 30
0.0
 40
0.5
100
AcDbArc
 50
180.0
 51
270.0
  0
LINE
  5
166F
330
2
100
AcDbEntity
  8
画層1
370
    20
100
AcDbLine
 10
-385.190401178997
 20
264.958776737169
 30
0.0
 11
-386.1904011789971
 21
264.9587767371689
 31
0.0
  0
LINE
  5
1670
330
2
100
AcDbEntity
  8
画層1
370
    20
100
AcDbLine
 10
-385.190401178997
 20
264.958776737169
 30
0.0
 11
-384.1904011789971
 21
264.958776737169
 31
0.0
  0
LINE
  5
1671
330
2
100
AcDbEntity
  8
画層1
370
    20
100
AcDbLine
 10
-389.1904011789971
 20
273.9587767371689
 30
0.0
 11
-378.1904011789971
 21
273.9587767371689
 31
0.0
  0
LINE
  5
1672
330
2
100
AcDbEntity
  8
画層1
370
    20
100
AcDbLine
 10
-378.1904011789971
 20
271.9587767371689
 30
0.0
 11
-389.1904011789971
 21
271.9587767371689
 31
0.0
  0
LINE
  5
1673
330
2
100
AcDbEntity
  8
画層1
370
    20
100
AcDbLine
 10
-389.1904011789971
 20
271.9587767371689
 30
0.0
 11
-389.1904011789971
 21
273.9587767371689
 31
0.0
  0
LINE
  5
1674
330
2
100
AcDbEntity
  8
画層1
370
    20
100
AcDbLine
 10
-386.1904011789971
 20
270.958776737169
 30
0.0
 11
-385.190401178997
 21
270.958776737169
 31
0.0
  0
LINE
  5
1675
330
2
100
AcDbEntity
  8
画層1
370
    20
100
AcDbLine
 10
-384.1904011789971
 20
270.958776737169
 30
0.0
 11
-385.190401178997
 21
270.958776737169
 31
0.0
  0
LINE
  5
1676
330
2
100
AcDbEntity
  8
画層1
370
    20
100
AcDbLine
 10
-384.1904011789971
 20
271.9587767371689
 30
0.0
 11
-384.1904011789971
 21
263.9587767371689
 31
0.0
  0
LINE
  5
1677
330
2
100
AcDbEntity
  8
画層1
370
    20
100
AcDbLine
 10
-382.690401178997
 20
271.9587767371689
 30
0.0
 11
-382.690401178997
 21
263.9587767371689
 31
0.0
  0
LINE
  5
1678
330
2
100
AcDbEntity
  8
画層1
370
    20
100
AcDbLine
 10
-381.190401178997
 20
271.9587767371689
 30
0.0
 11
-381.190401178997
 21
263.9587767371689
 31
0.0
  0
LINE
  5
1679
330
2
100
AcDbEntity
  8
画層1
370
    20
100
AcDbLine
 10
-378.1904011789971
 20
263.9587767371689
 30
0.0
 11
-378.1904011789971
 21
271.9587767371689
 31
0.0
  0
ARC
  5
167A
330
2
100
AcDbEntity
  8
画層1
370
    20
100
AcDbCircle
 10
-387.690401178997
 20
278.9587767371689
 30
0.0
 40
0.5
100
AcDbArc
 50
180.0
 51
270.0
  0
LINE
  5
167B
330
2
100
AcDbEntity
  8
画層1
370
    20
100
AcDbLine
 10
-388.190401178997
 20
276.9587767371689
 30
0.0
 11
-388.190401178997
 21
278.9587767371689
 31
0.0
  0
LINE
  5
167C
330
2
100
AcDbEntity
  8
画層1
370
    20
100
AcDbLine
 10
-387.690401178997
 20
278.4587767371689
 30
0.0
 11
-387.690401178997
 21
277.458776737169
 31
0.0
  0
LINE
  5
167D
330
2
100
AcDbEntity
  8
画層1
370
    20
100
AcDbLine
 10
-385.190401178997
 20
280.9587767371689
 30
0.0
 11
-385.190401178997
 21
274.9587767371689
 31
0.0
  0
ARC
  5
167E
330
2
100
AcDbEntity
  8
画層1
370
    20
100
AcDbCircle
 10
-386.1904011789971
 20
276.9587767371689
 30
0.0
 40
2.0
100
AcDbArc
 50
180.0
 51
270.0
  0
ARC
  5
167F
330
2
100
AcDbEntity
  8
画層1
370
    20
100
AcDbCircle
 10
-387.690401178997
 20
276.9587767371689
 30
0.0
 40
0.5
100
AcDbArc
 50
90.0
 51
180.0
  0
LINE
  5
1680
330
2
100
AcDbEntity
  8
画層1
370
    20
100
AcDbLine
 10
-385.190401178997
 20
274.9587767371689
 30
0.0
 11
-384.1904011789971
 21
274.9587767371689
 31
0.0
  0
LINE
  5
1681
330
2
100
AcDbEntity
  8
画層1
370
    20
100
AcDbLine
 10
-385.190401178997
 20
274.9587767371689
 30
0.0
 11
-386.1904011789971
 21
274.9587767371689
 31
0.0
  0
LINE
  5
1682
330
2
100
AcDbEntity
  8
画層1
370
    20
100
AcDbLine
 10
-378.1904011789971
 20
281.958776737169
 30
0.0
 11
-389.1904011789971
 21
281.958776737169
 31
0.0
  0
LINE
  5
1683
330
2
100
AcDbEntity
  8
画層1
370
    20
100
AcDbLine
 10
-389.1904011789971
 20
283.9587767371689
 30
0.0
 11
-374.1904011789971
 21
283.9587767371689
 31
0.0
  0
ARC
  5
1684
330
2
100
AcDbEntity
  8
画層1
370
    20
100
AcDbCircle
 10
-386.1904011789971
 20
278.9587767371689
 30
0.0
 40
2.0
100
AcDbArc
 50
90.0
 51
180.0
  0
LINE
  5
1685
330
2
100
AcDbEntity
  8
画層1
370
    20
100
AcDbLine
 10
-389.1904011789971
 20
281.958776737169
 30
0.0
 11
-389.1904011789971
 21
283.9587767371689
 31
0.0
  0
LINE
  5
1686
330
2
100
AcDbEntity
  8
画層1
370
    20
100
AcDbLine
 10
-384.1904011789971
 20
280.9587767371689
 30
0.0
 11
-385.190401178997
 21
280.9587767371689
 31
0.0
  0
LINE
  5
1687
330
2
100
AcDbEntity
  8
画層1
370
    20
100
AcDbLine
 10
-386.1904011789971
 20
280.9587767371689
 30
0.0
 11
-385.190401178997
 21
280.9587767371689
 31
0.0
  0
LINE
  5
1688
330
2
100
AcDbEntity
  8
画層1
370
    20
100
AcDbLine
 10
-378.1904011789971
 20
273.9587767371689
 30
0.0
 11
-378.1904011789971
 21
281.958776737169
 31
0.0
  0
LINE
  5
1689
330
2
100
AcDbEntity
  8
画層1
370
    20
100
AcDbLine
 10
-381.190401178997
 20
281.958776737169
 30
0.0
 11
-381.190401178997
 21
273.9587767371689
 31
0.0
  0
LINE
  5
168A
330
2
100
AcDbEntity
  8
画層1
370
    20
100
AcDbLine
 10
-382.690401178997
 20
281.958776737169
 30
0.0
 11
-382.690401178997
 21
273.9587767371689
 31
0.0
  0
LINE
  5
168B
330
2
100
AcDbEntity
  8
画層1
370
    20
100
AcDbLine
 10
-384.1904011789971
 20
281.958776737169
 30
0.0
 11
-384.1904011789971
 21
273.9587767371689
 31
0.0
  0
DIMENSION
  5
16BA
330
2
100
AcDbEntity
  8
画層1
 62
     1
370
    20
100
AcDbDimension
  2
*D5
 10
-637.5652295960734
 20
390.0630246504964
 30
0.0
 11
-575.5652295960735
 21
392.3130246504964
 31
0.0
 70
    32
 71
     5
 42
123.9999999999997
  3
STANDARD_WS
100
AcDbAlignedDimension
 13
-513.5652295960737
 23
316.4587767371689
 33
0.0
 14
-637.5652295960734
 24
316.4587767371689
 34
0.0
100
AcDbRotatedDimension
1001
ACAD
1000
DSTYLE
1002
{
1070
    47
1040
0.6
1070
   140
1040
50.0
1070
   146
1040
0.5
1070
   147
1040
1.0
1070
   173
1070
     0
1070
   271
1070
     0
1070
   272
1070
     0
1070
   284
1070
     8
1070
   341
1005
28
1070
   342
1005
28
1070
   343
1005
0
1070
   344
1005
0
1002
}
  0
DIMENSION
  5
16C8
330
2
100
AcDbEntity
  8
画層1
 62
     1
370
    20
100
AcDbDimension
  2
*D6
 10
-540.5652295960735
 20
378.6563483735307
 30
0.0
 11
-575.5652295960735
 21
380.9063483735307
 31
0.0
 70
    32
 71
     5
 42
70.0
  3
STANDARD_WS
100
AcDbAlignedDimension
 13
-610.5652295960735
 23
353.9587767371689
 33
0.0
 14
-540.5652295960735
 24
353.9587767371689
 34
0.0
100
AcDbRotatedDimension
1001
ACAD
1000
DSTYLE
1002
{
1070
    47
1040
0.6
1070
   140
1040
50.0
1070
   146
1040
0.5
1070
   147
1040
1.0
1070
   173
1070
     0
1070
   271
1070
     0
1070
   272
1070
     0
1070
   284
1070
     8
1070
   341
1005
28
1070
   342
1005
28
1070
   343
1005
0
1070
   344
1005
0
1002
}
  0
DIMENSION
  5
16D7
330
2
100
AcDbEntity
  8
画層1
 62
     1
370
    20
100
AcDbDimension
  2
*D7
 10
-495.1432791934546
 20
133.9587767371689
 30
0.0
 11
-497.3932791934546
 21
243.9587767371689
 31
0.0
 70
    32
 71
     5
 42
220.0
  3
STANDARD_WS
100
AcDbAlignedDimension
 13
-540.5652295960735
 23
353.9587767371689
 33
0.0
 14
-517.5652295960735
 24
133.9587767371689
 34
0.0
 50
90.0
100
AcDbRotatedDimension
1001
ACAD
1000
DSTYLE
1002
{
1070
    47
1040
0.6
1070
   140
1040
50.0
1070
   146
1040
0.5
1070
   147
1040
1.0
1070
   173
1070
     0
1070
   271
1070
     0
1070
   272
1070
     0
1070
   284
1070
     8
1070
   341
1005
28
1070
   342
1005
28
1070
   343
1005
0
1070
   344
1005
0
1002
}
  0
DIMENSION
  5
16E5
330
2
100
AcDbEntity
  8
画層1
 62
     1
370
    20
100
AcDbDimension
  2
*D8
 10
-487.2755003317529
 20
360.958776737169
 30
0.0
 11
-489.5255003317529
 21
243.9587767371689
 31
0.0
 70
    32
 71
     5
 42
234.0
  3
STANDARD_WS
100
AcDbAlignedDimension
 13
-518.9652295960735
 23
126.9587767371689
 33
0.0
 14
-518.9652295960735
 24
360.958776737169
 34
0.0
 50
90.0
100
AcDbRotatedDimension
1001
ACAD
1000
DSTYLE
1002
{
1070
    47
1040
0.6
1070
   140
1040
50.0
1070
   146
1040
0.5
1070
   147
1040
1.0
1070
   173
1070
     0
1070
   271
1070
     0
1070
   272
1070
     0
1070
   284
1070
     8
1070
   341
1005
28
1070
   342
1005
28
1070
   343
1005
0
1070
   344
1005
0
1002
}
  0
DIMENSION
  5
171E
330
2
100
AcDbEntity
  8
画層1
 62
     1
370
    20
100
AcDbDimension
  2
*D12
 10
-247.0904011789971
 20
378.9353616321956
 30
0.0
 11
-318.140401178997
 21
381.1853616321956
 31
0.0
 70
    32
 71
     5
 42
142.0999999999999
  3
STANDARD_WS
100
AcDbAlignedDimension
 13
-389.1904011789971
 23
283.9587767371689
 33
0.0
 14
-247.0904011789971
 24
365.0972139620829
 34
0.0
100
AcDbRotatedDimension
1001
ACAD
1000
DSTYLE
1002
{
1070
    47
1040
0.6
1070
   140
1040
50.0
1070
   146
1040
0.5
1070
   147
1040
1.0
1070
   173
1070
     0
1070
   271
1070
     0
1070
   272
1070
     0
1070
   284
1070
     8
1070
   341
1005
28
1070
   342
1005
28
1070
   343
1005
0
1070
   344
1005
0
1002
}
  0
DIMENSION
  5
172B
330
2
100
AcDbEntity
  8
画層1
 62
     1
370
    20
100
AcDbDimension
  2
*D13
 10
-247.0904011789971
 20
391.0044157124332
 30
0.0
 11
-329.5904011789971
 21
393.2544157124332
 31
0.0
 70
    32
 71
     5
 42
164.9999999999999
  3
STANDARD_WS
100
AcDbAlignedDimension
 13
-412.0904011789971
 23
340.549685828078
 33
0.0
 14
-247.0904011789971
 24
380.1853616321956
 34
0.0
100
AcDbRotatedDimension
1001
ACAD
1000
DSTYLE
1002
{
1070
    47
1040
0.6
1070
   140
1040
50.0
1070
   146
1040
0.5
1070
   147
1040
1.0
1070
   173
1070
     0
1070
   271
1070
     0
1070
   272
1070
     0
1070
   284
1070
     8
1070
   341
1005
28
1070
   342
1005
28
1070
   343
1005
0
1070
   344
1005
0
1002
}
  0
DIMENSION
  5
1738
330
2
100
AcDbEntity
  8
画層1
 62
     1
370
    20
100
AcDbDimension
  2
*D14
 10
-386.090401178997
 20
109.801648788079
 30
0.0
 11
-316.5904011789971
 21
112.051648788079
 31
0.0
 70
    32
 71
     5
 42
138.9999999999999
  3
STANDARD_WS
100
AcDbAlignedDimension
 13
-247.0904011789971
 23
126.9587767371689
 33
0.0
 14
-386.090401178997
 24
130.8699326958549
 34
0.0
100
AcDbRotatedDimension
1001
ACAD
1000
DSTYLE
1002
{
1070
    47
1040
0.6
1070
   140
1040
50.0
1070
   146
1040
0.5
1070
   147
1040
1.0
1070
   173
1070
     0
1070
   271
1070
     0
1070
   272
1070
     0
1070
   284
1070
     8
1070
   341
1005
28
1070
   342
1005
28
1070
   343
1005
0
1070
   344
1005
0
1002
}
  0
MTEXT
  5
1758
330
2
100
AcDbEntity
  8
画層1
 62
     1
370
    20
100
AcDbMText
 10
-329.4704626772472
 20
122.6809436043712
 30
0.0
 40
2.5
 41
33.4051
 71
     1
 72
     5
  1
20A,30A:136\P    45A:139
  7
STYLE1
 73
     1
 44
1.0
  0
LWPOLYLINE
  5
175D
330
2
100
AcDbEntity
  8
画層1
370
    20
100
AcDbPolyline
 90
        8
 70
     1
 43
0.0
 10
-593.5652295960735
 20
181.458776737169
 10
-534.5652295960735
 20
181.4587767371689
 42
0.4142135623730951
 10
-532.5652295960735
 20
183.4587767371689
 10
-532.5652295960735
 20
214.4587767371689
 42
0.414213562373095
 10
-534.5652295960735
 20
216.4587767371689
 10
-593.5652295960735
 20
216.458776737169
 42
0.4142135623730951
 10
-595.5652295960735
 20
214.458776737169
 10
-595.5652295960735
 20
183.458776737169
 42
0.4142135623730951
  0
ENDSEC
  0
SECTION
  2
OBJECTS
  0
DICTIONARY
  5
9
330
0
100
AcDbDictionary
281
     1
  3
ACAD_GROUP
350
23
  3
ACAD_LAYOUT
350
D
  3
ACAD_MLINESTYLE
350
24
  3
ACAD_PLOTSETTINGS
350
25
  3
ACAD_PLOTSTYLENAME
350
8
  3
AcDbVariableDictionary
350
115B
  3
DWGPROPS
350
B1B
  0
DICTIONARY
  5
3
330
2
100
AcDbDictionary
280
     1
281
     1
  0
DICTIONARY
  5
F
330
E
100
AcDbDictionary
280
     1
281
     1
  0
DICTIONARY
  5
23
102
{ACAD_REACTORS
330
9
102
}
330
9
100
AcDbDictionary
281
     1
  0
DICTIONARY
  5
D
102
{ACAD_REACTORS
330
9
102
}
330
9
100
AcDbDictionary
281
     1
  3
Model
350
560
  3
ﾚｲｱｳﾄ1
350
561
  0
DICTIONARY
  5
24
102
{ACAD_REACTORS
330
9
102
}
330
9
100
AcDbDictionary
281
     1
  3
STANDARD
350
34
  0
DICTIONARY
  5
25
102
{ACAD_REACTORS
330
9
102
}
330
9
100
AcDbDictionary
281
     1
  0
ACDBDICTIONARYWDFLT
  5
8
102
{ACAD_REACTORS
330
9
102
}
330
9
100
AcDbDictionary
281
     1
  3
Normal
350
7
100
AcDbDictionaryWithDefault
340
7
  0
DICTIONARY
  5
115B
102
{ACAD_REACTORS
330
9
102
}
330
9
100
AcDbDictionary
281
     1
  3
SORTENTS
350
115C
  0
XRECORD
  5
B1B
102
{ACAD_REACTORS
330
9
102
}
330
9
100
AcDbXrecord
280
     1
  1
DWGPROPS COOKIE
  2

  3

  4

  6

  7

  8

  9

300
=
301
=
302
=
303
=
304
=
305
=
306
=
307
=
308
=
309
=
 40
3.889878958333333
 41
2450995.462150231
 42
2454049.770371816
  1

 90
        0
  0
LAYOUT
  5
560
102
{ACAD_REACTORS
330
D
102
}
330
D
100
AcDbPlotSettings
  1

  2
FX DocuPrint 360 PS H3
  4
A3
  6

 40
5.027083396911621
 41
5.027072429656982
 42
5.027099609375
 43
5.365753173828125
 44
297.0530090332031
 45
420.1583251953125
 46
30.0
 47
50.0
 48
0.0
 49
0.0
140
0.0
141
0.0
142
1.0
143
2.0
 70
 11952
 72
     1
 73
     1
 74
     1
  7

 75
    17
147
0.5
148
714.0686908733705
149
-31.95304918634622
100
AcDbLayout
  1
Model
 70
     1
 71
     0
 10
0.0
 20
0.0
 11
12.0
 21
9.0
 12
0.0
 22
0.0
 32
0.0
 14
0.0
 24
0.0
 34
0.0
 15
0.0
 25
0.0
 35
0.0
146
0.0
 13
0.0
 23
0.0
 33
0.0
 16
1.0
 26
0.0
 36
0.0
 17
0.0
 27
1.0
 37
0.0
 76
     0
330
2
  0
LAYOUT
  5
561
102
{ACAD_REACTORS
330
D
102
}
330
D
100
AcDbPlotSettings
  1

  2
EPSON MJ-6000C
  4

  6

 40
0.0
 41
0.0
 42
0.0
 43
0.0
 44
0.0
 45
0.0
 46
0.0
 47
0.0
 48
0.0
 49
0.0
140
0.0
141
0.0
142
1.0
143
1.0
 70
   688
 72
     0
 73
     0
 74
     5
  7

 75
    16
147
1.0
148
0.0
149
0.0
100
AcDbLayout
  1
ﾚｲｱｳﾄ1
 70
     1
 71
     1
 10
0.0
 20
0.0
 11
420.0
 21
297.0
 12
0.0
 22
0.0
 32
0.0
 14
1.000000000000000E+20
 24
1.000000000000000E+20
 34
1.000000000000000E+20
 15
-1.000000000000000E+20
 25
-1.000000000000000E+20
 35
-1.000000000000000E+20
146
0.0
 13
0.0
 23
0.0
 33
0.0
 16
1.0
 26
0.0
 36
0.0
 17
0.0
 27
1.0
 37
0.0
 76
     0
330
E
  0
MLINESTYLE
  5
34
102
{ACAD_REACTORS
330
24
102
}
330
24
100
AcDbMlineStyle
  2
STANDARD
 70
     0
  3

 62
   256
 51
90.0
 52
90.0
 71
     2
 49
0.5
 62
   256
  6
BYLAYER
 49
-0.5
 62
   256
  6
BYLAYER
  0
ACDBPLACEHOLDER
  5
7
102
{ACAD_REACTORS
330
8
102
}
330
8
  0
DICTIONARYVAR
  5
115C
102
{ACAD_REACTORS
330
115B
102
}
330
115B
100
DictionaryVariables
280
     0
  1
96
  0
ENDSEC
  0
EOF
