  0
SECTION
  2
HEADER
  9
$ACADVER
  1
AC1015
  9
$ACADMAINTVER
 70
     6
  9
$DWGCODEPAGE
  3
ANSI_932
  9
$INSBASE
 10
0.0
 20
0.0
 30
0.0
  9
$EXTMIN
 10
-683.6652295960735
 20
105.9664517653895
 30
0.0
  9
$EXTMAX
 10
-204.745236816434
 20
386.4384297620154
 30
0.0
  9
$LIMMIN
 10
0.0
 20
0.0
  9
$LIMMAX
 10
420.0
 20
297.0
  9
$ORTHOMODE
 70
     1
  9
$REGENMODE
 70
     1
  9
$FILLMODE
 70
     1
  9
$QTEXTMODE
 70
     0
  9
$MIRRTEXT
 70
     1
  9
$LTSCALE
 40
0.2
  9
$ATTMODE
 70
     1
  9
$TEXTSIZE
 40
2.5
  9
$TRACEWID
 40
1.0
  9
$TEXTSTYLE
  7
STYLE1
  9
$CLAYER
  8
画層1
  9
$CELTYPE
  6
BYLAYER
  9
$CECOLOR
 62
     1
  9
$CELTSCALE
 40
1.0
  9
$DISPSILH
 70
     0
  9
$DIMSCALE
 40
1.0
  9
$DIMASZ
 40
1.5
  9
$DIMEXO
 40
0.63
  9
$DIMDLI
 40
3.75
  9
$DIMRND
 40
0.0
  9
$DIMDLE
 40
0.0
  9
$DIMEXE
 40
1.25
  9
$DIMTP
 40
0.6
  9
$DIMTM
 40
0.0
  9
$DIMTXT
 40
50.0
  9
$DIMCEN
 40
2.5
  9
$DIMTSZ
 40
0.0
  9
$DIMTOL
 70
     0
  9
$DIMLIM
 70
     0
  9
$DIMTIH
 70
     0
  9
$DIMTOH
 70
     0
  9
$DIMSE1
 70
     0
  9
$DIMSE2
 70
     0
  9
$DIMTAD
 70
     1
  9
$DIMZIN
 70
     8
  9
$DIMBLK
  1
OPEN30
  9
$DIMASO
 70
     1
  9
$DIMSHO
 70
     1
  9
$DIMPOST
  1

  9
$DIMAPOST
  1

  9
$DIMALT
 70
     0
  9
$DIMALTD
 70
     4
  9
$DIMALTF
 40
0.04
  9
$DIMLFAC
 40
1.0
  9
$DIMTOFL
 70
     1
  9
$DIMTVP
 40
0.0
  9
$DIMTIX
 70
     0
  9
$DIMSOXD
 70
     0
  9
$DIMSAH
 70
     0
  9
$DIMBLK1
  1

  9
$DIMBLK2
  1

  9
$DIMSTYLE
  2
STANDARD_WS
  9
$DIMCLRD
 70
     0
  9
$DIMCLRE
 70
     0
  9
$DIMCLRT
 70
     0
  9
$DIMTFAC
 40
0.5
  9
$DIMGAP
 40
1.0
  9
$DIMJUST
 70
     0
  9
$DIMSD1
 70
     0
  9
$DIMSD2
 70
     0
  9
$DIMTOLJ
 70
     1
  9
$DIMTZIN
 70
     8
  9
$DIMALTZ
 70
     0
  9
$DIMALTTZ
 70
     0
  9
$DIMUPT
 70
     0
  9
$DIMDEC
 70
     0
  9
$DIMTDEC
 70
     0
  9
$DIMALTU
 70
     8
  9
$DIMALTTD
 70
     4
  9
$DIMTXSTY
  7
STANDARD
  9
$DIMAUNIT
 70
     0
  9
$DIMADEC
 70
     0
  9
$DIMALTRND
 40
0.0
  9
$DIMAZIN
 70
     0
  9
$DIMDSEP
 70
    46
  9
$DIMATFIT
 70
     3
  9
$DIMFRAC
 70
     0
  9
$DIMLDRBLK
  1
OPEN30
  9
$DIMLUNIT
 70
     2
  9
$DIMLWD
 70
    -2
  9
$DIMLWE
 70
    -2
  9
$DIMTMOVE
 70
     0
  9
$LUNITS
 70
     2
  9
$LUPREC
 70
     4
  9
$SKETCHINC
 40
1.0
  9
$FILLETRAD
 40
1.0
  9
$AUNITS
 70
     0
  9
$AUPREC
 70
     0
  9
$MENU
  1
acad
  9
$ELEVATION
 40
0.0
  9
$PELEVATION
 40
0.0
  9
$THICKNESS
 40
0.0
  9
$LIMCHECK
 70
     0
  9
$CHAMFERA
 40
10.0
  9
$CHAMFERB
 40
10.0
  9
$CHAMFERC
 40
20.0
  9
$CHAMFERD
 40
0.0
  9
$SKPOLY
 70
     0
  9
$TDCREATE
 40
2450995.462150231
  9
$TDUCREATE
 40
2450995.087150231
  9
$TDUPDATE
 40
2454231.394690393
  9
$TDUUPDATE
 40
2454231.019690393
  9
$TDINDWG
 40
4.9696011574
  9
$TDUSRTIMER
 40
4.9695973380
  9
$USRTIMER
 70
     1
  9
$ANGBASE
 50
0.0
  9
$ANGDIR
 70
     0
  9
$PDMODE
 70
     0
  9
$PDSIZE
 40
0.0
  9
$PLINEWID
 40
10.0
  9
$SPLFRAME
 70
     0
  9
$SPLINETYPE
 70
     6
  9
$SPLINESEGS
 70
     8
  9
$HANDSEED
  5
282B
  9
$SURFTAB1
 70
     6
  9
$SURFTAB2
 70
     6
  9
$SURFTYPE
 70
     6
  9
$SURFU
 70
     6
  9
$SURFV
 70
     6
  9
$UCSBASE
  2

  9
$UCSNAME
  2

  9
$UCSORG
 10
0.0
 20
0.0
 30
0.0
  9
$UCSXDIR
 10
1.0
 20
0.0
 30
0.0
  9
$UCSYDIR
 10
0.0
 20
1.0
 30
0.0
  9
$UCSORTHOREF
  2

  9
$UCSORTHOVIEW
 70
     0
  9
$UCSORGTOP
 10
0.0
 20
0.0
 30
0.0
  9
$UCSORGBOTTOM
 10
0.0
 20
0.0
 30
0.0
  9
$UCSORGLEFT
 10
0.0
 20
0.0
 30
0.0
  9
$UCSORGRIGHT
 10
0.0
 20
0.0
 30
0.0
  9
$UCSORGFRONT
 10
0.0
 20
0.0
 30
0.0
  9
$UCSORGBACK
 10
0.0
 20
0.0
 30
0.0
  9
$PUCSBASE
  2

  9
$PUCSNAME
  2

  9
$PUCSORG
 10
0.0
 20
0.0
 30
0.0
  9
$PUCSXDIR
 10
1.0
 20
0.0
 30
0.0
  9
$PUCSYDIR
 10
0.0
 20
1.0
 30
0.0
  9
$PUCSORTHOREF
  2

  9
$PUCSORTHOVIEW
 70
     0
  9
$PUCSORGTOP
 10
0.0
 20
0.0
 30
0.0
  9
$PUCSORGBOTTOM
 10
0.0
 20
0.0
 30
0.0
  9
$PUCSORGLEFT
 10
0.0
 20
0.0
 30
0.0
  9
$PUCSORGRIGHT
 10
0.0
 20
0.0
 30
0.0
  9
$PUCSORGFRONT
 10
0.0
 20
0.0
 30
0.0
  9
$PUCSORGBACK
 10
0.0
 20
0.0
 30
0.0
  9
$USERI1
 70
     0
  9
$USERI2
 70
     0
  9
$USERI3
 70
     0
  9
$USERI4
 70
     0
  9
$USERI5
 70
     0
  9
$USERR1
 40
0.0
  9
$USERR2
 40
0.0
  9
$USERR3
 40
0.0
  9
$USERR4
 40
0.0
  9
$USERR5
 40
0.0
  9
$WORLDVIEW
 70
     1
  9
$SHADEDGE
 70
     3
  9
$SHADEDIF
 70
    70
  9
$TILEMODE
 70
     1
  9
$MAXACTVP
 70
    48
  9
$PINSBASE
 10
0.0
 20
0.0
 30
0.0
  9
$PLIMCHECK
 70
     0
  9
$PEXTMIN
 10
1.000000000000000E+20
 20
1.000000000000000E+20
 30
1.000000000000000E+20
  9
$PEXTMAX
 10
-1.000000000000000E+20
 20
-1.000000000000000E+20
 30
-1.000000000000000E+20
  9
$PLIMMIN
 10
0.0
 20
0.0
  9
$PLIMMAX
 10
420.0
 20
297.0
  9
$UNITMODE
 70
     0
  9
$VISRETAIN
 70
     1
  9
$PLINEGEN
 70
     0
  9
$PSLTSCALE
 70
     1
  9
$TREEDEPTH
 70
  3020
  9
$CMLSTYLE
  2
STANDARD
  9
$CMLJUST
 70
     0
  9
$CMLSCALE
 40
20.0
  9
$PROXYGRAPHICS
 70
     1
  9
$MEASUREMENT
 70
     0
  9
$CELWEIGHT
370
    20
  9
$ENDCAPS
280
     0
  9
$JOINSTYLE
280
     0
  9
$LWDISPLAY
290
     0
  9
$INSUNITS
 70
     0
  9
$HYPERLINKBASE
  1

  9
$STYLESHEET
  1

  9
$XEDIT
290
     1
  9
$CEPSNTYPE
380
     0
  9
$PSTYLEMODE
290
     1
  9
$FINGERPRINTGUID
  2
{12426522-B208-11D3-A790-004026173390}
  9
$VERSIONGUID
  2
{1E68FD08-B5B2-4869-8CFC-D1A22317B8F8}
  9
$EXTNAMES
290
     1
  9
$PSVPSCALE
 40
0.0
  9
$OLESTARTUP
290
     0
  0
ENDSEC
  0
SECTION
  2
CLASSES
  0
CLASS
  1
DICTIONARYVAR
  2
AcDbDictionaryVar
  3
AutoCAD 2000
 90
        0
280
     0
281
     0
  0
CLASS
  1
LWPOLYLINE
  2
AcDbPolyline
  3
AutoCAD 2000
 90
    32768
280
     0
281
     1
  0
CLASS
  1
OLE2FRAME
  2
AcDbOle2Frame
  3
AutoCAD 2000
 90
    32768
280
     0
281
     1
  0
CLASS
  1
HATCH
  2
AcDbHatch
  3
AutoCAD 2000
 90
    32768
280
     0
281
     1
  0
CLASS
  1
ACDBDICTIONARYWDFLT
  2
AcDbDictionaryWithDefault
  3
AutoCAD 2000
 90
        0
280
     0
281
     0
  0
CLASS
  1
ACDBPLACEHOLDER
  2
AcDbPlaceHolder
  3
AutoCAD 2000
 90
        0
280
     0
281
     0
  0
CLASS
  1
LAYOUT
  2
AcDbLayout
  3
AutoCAD 2000
 90
        0
280
     0
281
     0
  0
CLASS
  1
LONG_TRANSACTION
  2
AcDbLongTransaction
  3
AutoCAD 2000
 90
    32768
280
     0
281
     0
  0
CLASS
  1
LWPOLYLINE
  2
AcDbPolyline
  3
AutoCAD 2000
 90
    32768
280
     0
281
     1
  0
CLASS
  1
HATCH
  2
AcDbHatch
  3
AutoCAD 2000
 90
    32768
280
     0
281
     1
  0
CLASS
  1
XRECORD
  2
AcDbXrecord
  3
AutoCAD 2000
 90
    32768
280
     0
281
     0
  0
CLASS
  1
LONG_TRANSACTION
  2
AcDbLongTransaction
  3
AutoCAD 2000
 90
    32768
280
     0
281
     0
  0
CLASS
  1
LWPOLYLINE
  2
AcDbPolyline
  3
AutoCAD 2000
 90
    32768
280
     0
281
     1
  0
CLASS
  1
HATCH
  2
AcDbHatch
  3
AutoCAD 2000
 90
    32768
280
     0
281
     1
  0
CLASS
  1
XRECORD
  2
AcDbXrecord
  3
AutoCAD 2000
 90
    32768
280
     0
281
     0
  0
CLASS
  1
LONG_TRANSACTION
  2
AcDbLongTransaction
  3
AutoCAD 2000
 90
    32768
280
     0
281
     0
  0
CLASS
  1
LWPOLYLINE
  2
AcDbPolyline
  3
AutoCAD 2000
 90
    32768
280
     0
281
     1
  0
CLASS
  1
HATCH
  2
AcDbHatch
  3
AutoCAD 2000
 90
    32768
280
     0
281
     1
  0
CLASS
  1
XRECORD
  2
AcDbXrecord
  3
AutoCAD 2000
 90
    32768
280
     0
281
     0
  0
CLASS
  1
LONG_TRANSACTION
  2
AcDbLongTransaction
  3
AutoCAD 2000
 90
    32768
280
     0
281
     0
  0
CLASS
  1
LWPOLYLINE
  2
AcDbPolyline
  3
AutoCAD 2000
 90
    32768
280
     0
281
     1
  0
CLASS
  1
HATCH
  2
AcDbHatch
  3
AutoCAD 2000
 90
    32768
280
     0
281
     1
  0
CLASS
  1
XRECORD
  2
AcDbXrecord
  3
AutoCAD 2000
 90
    32768
280
     0
281
     0
  0
CLASS
  1
LONG_TRANSACTION
  2
AcDbLongTransaction
  3
AutoCAD 2000
 90
    32768
280
     0
281
     0
  0
CLASS
  1
LWPOLYLINE
  2
AcDbPolyline
  3
AutoCAD 2000
 90
    32768
280
     0
281
     1
  0
CLASS
  1
HATCH
  2
AcDbHatch
  3
AutoCAD 2000
 90
    32768
280
     0
281
     1
  0
CLASS
  1
XRECORD
  2
AcDbXrecord
  3
AutoCAD 2000
 90
    32768
280
     0
281
     0
  0
CLASS
  1
LONG_TRANSACTION
  2
AcDbLongTransaction
  3
AutoCAD 2000
 90
    32768
280
     0
281
     0
  0
CLASS
  1
LWPOLYLINE
  2
AcDbPolyline
  3
AutoCAD 2000
 90
    32768
280
     0
281
     1
  0
CLASS
  1
HATCH
  2
AcDbHatch
  3
AutoCAD 2000
 90
    32768
280
     0
281
     1
  0
CLASS
  1
XRECORD
  2
AcDbXrecord
  3
AutoCAD 2000
 90
    32768
280
     0
281
     0
  0
CLASS
  1
LONG_TRANSACTION
  2
AcDbLongTransaction
  3
AutoCAD 2000
 90
    32768
280
     0
281
     0
  0
CLASS
  1
LWPOLYLINE
  2
AcDbPolyline
  3
AutoCAD 2000
 90
    32768
280
     0
281
     1
  0
CLASS
  1
HATCH
  2
AcDbHatch
  3
AutoCAD 2000
 90
    32768
280
     0
281
     1
  0
CLASS
  1
XRECORD
  2
AcDbXrecord
  3
AutoCAD 2000
 90
    32768
280
     0
281
     0
  0
CLASS
  1
LONG_TRANSACTION
  2
AcDbLongTransaction
  3
AutoCAD 2000
 90
    32768
280
     0
281
     0
  0
CLASS
  1
LWPOLYLINE
  2
AcDbPolyline
  3
AutoCAD 2000
 90
    32768
280
     0
281
     1
  0
CLASS
  1
HATCH
  2
AcDbHatch
  3
AutoCAD 2000
 90
    32768
280
     0
281
     1
  0
CLASS
  1
XRECORD
  2
AcDbXrecord
  3
AutoCAD 2000
 90
    32768
280
     0
281
     0
  0
CLASS
  1
LONG_TRANSACTION
  2
AcDbLongTransaction
  3
AutoCAD 2000
 90
    32768
280
     0
281
     0
  0
CLASS
  1
LWPOLYLINE
  2
AcDbPolyline
  3
AutoCAD 2000
 90
    32768
280
     0
281
     1
  0
CLASS
  1
HATCH
  2
AcDbHatch
  3
AutoCAD 2000
 90
    32768
280
     0
281
     1
  0
CLASS
  1
XRECORD
  2
AcDbXrecord
  3
AutoCAD 2000
 90
    32768
280
     0
281
     0
  0
CLASS
  1
LONG_TRANSACTION
  2
AcDbLongTransaction
  3
AutoCAD 2000
 90
    32768
280
     0
281
     0
  0
CLASS
  1
LWPOLYLINE
  2
AcDbPolyline
  3
AutoCAD 2000
 90
    32768
280
     0
281
     1
  0
CLASS
  1
HATCH
  2
AcDbHatch
  3
AutoCAD 2000
 90
    32768
280
     0
281
     1
  0
CLASS
  1
XRECORD
  2
AcDbXrecord
  3
AutoCAD 2000
 90
    32768
280
     0
281
     0
  0
CLASS
  1
LONG_TRANSACTION
  2
AcDbLongTransaction
  3
AutoCAD 2000
 90
    32768
280
     0
281
     0
  0
CLASS
  1
LWPOLYLINE
  2
AcDbPolyline
  3
AutoCAD 2000
 90
    32768
280
     0
281
     1
  0
CLASS
  1
HATCH
  2
AcDbHatch
  3
AutoCAD 2000
 90
    32768
280
     0
281
     1
  0
CLASS
  1
XRECORD
  2
AcDbXrecord
  3
AutoCAD 2000
 90
    32768
280
     0
281
     0
  0
CLASS
  1
LONG_TRANSACTION
  2
AcDbLongTransaction
  3
AutoCAD 2000
 90
    32768
280
     0
281
     0
  0
CLASS
  1
LWPOLYLINE
  2
AcDbPolyline
  3
AutoCAD 2000
 90
    32768
280
     0
281
     1
  0
CLASS
  1
HATCH
  2
AcDbHatch
  3
AutoCAD 2000
 90
    32768
280
     0
281
     1
  0
CLASS
  1
XRECORD
  2
AcDbXrecord
  3
AutoCAD 2000
 90
    32768
280
     0
281
     0
  0
ENDSEC
  0
SECTION
  2
TABLES
  0
TABLE
  2
VPORT
  5
1E
330
0
100
AcDbSymbolTable
 70
     2
  0
VPORT
  5
282A
330
1E
100
AcDbSymbolTableRecord
100
AcDbViewportTableRecord
  2
*Active
 70
     0
 10
0.0
 20
0.0
 11
1.0
 21
1.0
 12
-371.6377129667459
 22
206.1602593702358
 13
0.0
 23
0.0
 14
1.0
 24
1.0
 15
2.0
 25
2.0
 16
0.0
 26
0.0
 36
1.0
 17
0.0
 27
0.0
 37
0.0
 40
581.8304251395753
 41
1.750922509225092
 42
50.0
 43
0.0
 44
0.0
 50
0.0
 51
0.0
 71
     0
 72
   100
 73
     1
 74
     1
 75
     0
 76
     0
 77
     0
 78
     0
281
     0
 65
     1
110
0.0
120
0.0
130
0.0
111
1.0
121
0.0
131
0.0
112
0.0
122
1.0
132
0.0
 79
     0
146
0.0
  0
ENDTAB
  0
TABLE
  2
LTYPE
  5
19
330
0
100
AcDbSymbolTable
 70
     3
  0
LTYPE
  5
1A
330
19
100
AcDbSymbolTableRecord
100
AcDbLinetypeTableRecord
  2
BYBLOCK
 70
     0
  3

 72
    65
 73
     0
 40
0.0
  0
LTYPE
  5
1B
330
19
100
AcDbSymbolTableRecord
100
AcDbLinetypeTableRecord
  2
BYLAYER
 70
     0
  3

 72
    65
 73
     0
 40
0.0
  0
LTYPE
  5
A
330
19
100
AcDbSymbolTableRecord
100
AcDbLinetypeTableRecord
  2
CONTINUOUS
 70
     0
  3
Solid line
 72
    65
 73
     0
 40
0.0
  0
LTYPE
  5
68
330
19
100
AcDbSymbolTableRecord
100
AcDbLinetypeTableRecord
  2
DASHED2
 70
     0
  3
Dashed (.5x) _ _ _ _ _ _ _ _ _ _ _ _ _ _ _ _ _
 72
    65
 73
     2
 40
9.529999999999999
 49
6.349999999999998
 74
     0
 49
-3.18
 74
     0
  0
LTYPE
  5
76
330
19
100
AcDbSymbolTableRecord
100
AcDbLinetypeTableRecord
  2
CENTER
 70
     0
  3
Center ____ _ ____ _ ____ _ ____ _ ____ _ ____
 72
    65
 73
     4
 40
50.8
 49
31.75
 74
     0
 49
-6.349999999999998
 74
     0
 49
6.349999999999998
 74
     0
 49
-6.349999999999998
 74
     0
  0
ENDTAB
  0
TABLE
  2
LAYER
  5
14
330
0
100
AcDbSymbolTable
 70
     3
  0
LAYER
  5
6
330
14
100
AcDbSymbolTableRecord
100
AcDbLayerTableRecord
  2
0
 70
     0
 62
     7
  6
CONTINUOUS
370
    -3
390
7
  0
LAYER
  5
3F
330
14
100
AcDbSymbolTableRecord
100
AcDbLayerTableRecord
  2
DEFPOINTS
 70
     0
 62
     7
  6
CONTINUOUS
290
     0
370
    -3
390
7
  0
LAYER
  5
26
330
14
100
AcDbSymbolTableRecord
100
AcDbLayerTableRecord
  2
画層1
 70
     0
 62
     7
  6
CONTINUOUS
370
    -3
390
7
  0
ENDTAB
  0
TABLE
  2
STYLE
  5
15
330
0
100
AcDbSymbolTable
 70
     2
  0
STYLE
  5
16
330
15
100
AcDbSymbolTableRecord
100
AcDbTextStyleTableRecord
  2
STANDARD
 70
     0
 40
2.5
 41
1.0
 50
0.0
 71
     0
 42
1.5
  3
MS PMincho.ttf
  4

1001
ACAD
1000
MS PMincho
1071
    32786
  0
STYLE
  5
27
330
15
100
AcDbSymbolTableRecord
100
AcDbTextStyleTableRecord
  2
STYLE1
 70
     0
 40
2.5
 41
1.0
 50
0.0
 71
     0
 42
2.5
  3
MS Gothic.ttf
  4

1001
ACAD
1000
MS Gothic
1071
    32817
  0
ENDTAB
  0
TABLE
  2
VIEW
  5
1C
330
0
100
AcDbSymbolTable
 70
     0
  0
ENDTAB
  0
TABLE
  2
UCS
  5
1D
330
0
100
AcDbSymbolTable
 70
     0
  0
ENDTAB
  0
TABLE
  2
APPID
  5
20
330
0
100
AcDbSymbolTable
 70
     1
  0
APPID
  5
17
330
20
100
AcDbSymbolTableRecord
100
AcDbRegAppTableRecord
  2
ACAD
 70
     0
  0
ENDTAB
  0
TABLE
  2
DIMSTYLE
  5
21
330
0
100
AcDbSymbolTable
 70
     1
100
AcDbDimStyleTable
 71
     0
  0
DIMSTYLE
105
35
102
{ACAD_REACTORS
330
26E7
330
26F4
330
2702
330
270F
330
271C
330
2729
330
2736
102
}
330
21
100
AcDbSymbolTableRecord
100
AcDbDimStyleTableRecord
  2
STANDARD_WS
 70
     0
 41
1.5
 42
0.63
 43
3.75
 44
1.25
 73
     0
 74
     0
 77
     1
 78
     8
140
2.5
141
2.5
143
0.04
147
0.63
171
     4
172
     1
173
     1
273
     8
274
     4
340
16
341
2E
343
2E
344
2E
  0
ENDTAB
  0
TABLE
  2
BLOCK_RECORD
  5
1
330
0
100
AcDbSymbolTable
 70
    11
  0
BLOCK_RECORD
  5
2
102
{ACAD_XDICTIONARY
360
3
102
}
330
1
100
AcDbSymbolTableRecord
100
AcDbBlockTableRecord
  2
*MODEL_SPACE
340
560
  0
BLOCK_RECORD
  5
E
102
{ACAD_XDICTIONARY
360
F
102
}
330
1
100
AcDbSymbolTableRecord
100
AcDbBlockTableRecord
  2
*PAPER_SPACE
340
561
  0
BLOCK_RECORD
  5
2E
330
1
100
AcDbSymbolTableRecord
100
AcDbBlockTableRecord
  2
_OPEN
340
0
  0
BLOCK_RECORD
  5
28
330
1
100
AcDbSymbolTableRecord
100
AcDbBlockTableRecord
  2
_OPEN30
340
0
102
{BLKREFS
331
27EA
331
27EB
331
27F3
331
27F4
331
27FC
331
27FD
331
2805
331
2806
331
280E
331
280F
331
2817
331
2818
331
2820
331
2821
102
}
  0
BLOCK_RECORD
  5
121
330
1
100
AcDbSymbolTableRecord
100
AcDbBlockTableRecord
  2
_DOTSMALL
340
0
  0
BLOCK_RECORD
  5
1247
330
1
100
AcDbSymbolTableRecord
100
AcDbBlockTableRecord
  2
A$C19994083
340
0
  0
BLOCK_RECORD
  5
26E8
330
1
100
AcDbSymbolTableRecord
100
AcDbBlockTableRecord
  2
*D4
340
0
  0
BLOCK_RECORD
  5
26F5
330
1
100
AcDbSymbolTableRecord
100
AcDbBlockTableRecord
  2
*D5
340
0
  0
BLOCK_RECORD
  5
2703
330
1
100
AcDbSymbolTableRecord
100
AcDbBlockTableRecord
  2
*D6
340
0
  0
BLOCK_RECORD
  5
2710
330
1
100
AcDbSymbolTableRecord
100
AcDbBlockTableRecord
  2
*D7
340
0
  0
BLOCK_RECORD
  5
271D
330
1
100
AcDbSymbolTableRecord
100
AcDbBlockTableRecord
  2
*D8
340
0
  0
BLOCK_RECORD
  5
272A
330
1
100
AcDbSymbolTableRecord
100
AcDbBlockTableRecord
  2
*D9
340
0
  0
BLOCK_RECORD
  5
2737
330
1
100
AcDbSymbolTableRecord
100
AcDbBlockTableRecord
  2
*D10
340
0
  0
ENDTAB
  0
ENDSEC
  0
SECTION
  2
BLOCKS
  0
BLOCK
  5
5
330
2
100
AcDbEntity
  8
0
100
AcDbBlockBegin
  2
*MODEL_SPACE
 70
     0
 10
0.0
 20
0.0
 30
0.0
  3
*MODEL_SPACE
  1

  0
ENDBLK
  5
B
330
2
100
AcDbEntity
  8
0
100
AcDbBlockEnd
  0
BLOCK
  5
11
330
E
100
AcDbEntity
 67
     1
  8
0
100
AcDbBlockBegin
  2
*PAPER_SPACE
 70
     0
 10
0.0
 20
0.0
 30
0.0
  3
*PAPER_SPACE
  1

  0
ENDBLK
  5
12
330
E
100
AcDbEntity
 67
     1
  8
0
100
AcDbBlockEnd
  0
BLOCK
  5
32
330
2E
100
AcDbEntity
  8
0
100
AcDbBlockBegin
  2
_OPEN
 70
     0
 10
0.0
 20
0.0
 30
0.0
  3
_OPEN
  1

  0
LINE
  5
2F
330
2E
100
AcDbEntity
  8
0
  6
ByBlock
 62
     0
100
AcDbLine
 10
-1.0
 20
0.17
 30
0.0
 11
0.0
 21
0.0
 31
0.0
  0
LINE
  5
30
330
2E
100
AcDbEntity
  8
0
  6
ByBlock
 62
     0
100
AcDbLine
 10
0.0
 20
0.0
 30
0.0
 11
-1.0
 21
-0.17
 31
0.0
  0
LINE
  5
31
330
2E
100
AcDbEntity
  8
0
  6
ByBlock
 62
     0
100
AcDbLine
 10
0.0
 20
0.0
 30
0.0
 11
-1.0
 21
0.0
 31
0.0
  0
ENDBLK
  5
33
330
2E
100
AcDbEntity
  8
0
100
AcDbBlockEnd
  0
BLOCK
  5
2C
330
28
100
AcDbEntity
  8
0
100
AcDbBlockBegin
  2
_OPEN30
 70
     0
 10
0.0
 20
0.0
 30
0.0
  3
_OPEN30
  1

  0
LINE
  5
29
330
28
100
AcDbEntity
  8
0
  6
ByBlock
 62
     0
100
AcDbLine
 10
-1.0
 20
0.27
 30
0.0
 11
0.0
 21
0.0
 31
0.0
  0
LINE
  5
2A
330
28
100
AcDbEntity
  8
0
  6
ByBlock
 62
     0
100
AcDbLine
 10
0.0
 20
0.0
 30
0.0
 11
-1.0
 21
-0.27
 31
0.0
  0
LINE
  5
2B
330
28
100
AcDbEntity
  8
0
  6
ByBlock
 62
     0
100
AcDbLine
 10
0.0
 20
0.0
 30
0.0
 11
-1.0
 21
0.0
 31
0.0
  0
ENDBLK
  5
2D
330
28
100
AcDbEntity
  8
0
100
AcDbBlockEnd
  0
BLOCK
  5
123
330
121
100
AcDbEntity
  8
0
 62
     1
100
AcDbBlockBegin
  2
_DOTSMALL
 70
     0
 10
0.0
 20
0.0
 30
0.0
  3
_DOTSMALL
  1

  0
LWPOLYLINE
  5
122
330
121
100
AcDbEntity
  8
画層1
 62
     0
100
AcDbPolyline
 90
        2
 70
     1
 43
0.5
 10
-0.06
 20
0.0
 42
1.0
 10
0.06
 20
0.0
 42
1.0
  0
ENDBLK
  5
124
330
121
100
AcDbEntity
  8
0
 62
     1
100
AcDbBlockEnd
  0
BLOCK
  5
1312
330
1247
100
AcDbEntity
  8
0
 62
     1
370
    20
100
AcDbBlockBegin
  2
A$C19994083
 70
     0
 10
0.0
 20
0.0
 30
0.0
  3
A$C19994083
  1

  0
LINE
  5
1248
330
1247
100
AcDbEntity
  8
画層1
370
    20
100
AcDbLine
 10
1.000000366504309
 20
9.999999988498132
 30
0.0
 11
1.000000366504309
 21
1.999999988498132
 31
0.0
  0
LINE
  5
1249
330
1247
100
AcDbEntity
  8
画層1
370
    20
100
AcDbLine
 10
12.00000036650431
 20
9.999999988498132
 30
0.0
 11
12.00000036650431
 21
1.999999988498132
 31
0.0
  0
LINE
  5
124A
330
1247
100
AcDbEntity
  8
画層1
370
    20
100
AcDbLine
 10
10.5000003665043
 20
7.999999988498245
 30
0.0
 11
10.50000036650419
 21
3.999999888498109
 31
0.0
  0
LINE
  5
124B
330
1247
100
AcDbEntity
  8
画層1
370
    20
100
AcDbLine
 10
2.500000366504309
 20
7.999999988498188
 30
0.0
 11
2.500000366504423
 21
3.999999888498109
 31
0.0
  0
CIRCLE
  5
124C
330
1247
100
AcDbEntity
  8
画層1
370
    20
100
AcDbCircle
 10
6.500000366504309
 20
5.999999988498132
 30
0.0
 40
3.0
  0
LINE
  5
124D
330
1247
100
AcDbEntity
  8
画層1
370
    20
100
AcDbLine
 10
0.0000003665043096
 20
89.99999998849814
 30
0.0
 11
0.0000003665043096
 21
1.999999988498132
 31
0.0
  0
LINE
  5
124E
330
1247
100
AcDbEntity
  8
画層1
370
    20
100
AcDbLine
 10
13.0000003665043
 20
89.99999998849814
 30
0.0
 11
13.0000003665043
 21
1.999999988498132
 31
0.0
  0
LINE
  5
124F
330
1247
100
AcDbEntity
  8
画層1
370
    20
100
AcDbLine
 10
7.000000366504309
 20
5.499999988498132
 30
0.0
 11
9.458040258054097
 21
5.499999988498132
 31
0.0
  0
ARC
  5
1250
330
1247
100
AcDbEntity
  8
画層1
370
    20
100
AcDbCircle
 10
8.500000366504195
 20
3.999999988498075
 30
0.0
 40
2.0
100
AcDbArc
 50
270.0
 51
0.0000000000016284
  0
LWPOLYLINE
  5
1251
330
1247
100
AcDbEntity
  8
画層1
370
    20
100
AcDbPolyline
 90
        4
 70
     1
 43
0.0
 10
0.0000003665043096
 20
1.999999988498132
 10
13.0000003665043
 20
1.999999988498132
 10
13.0000003665043
 20
-0.0000000115018679
 10
0.0000003665043096
 20
-0.0000000115018679
  0
LINE
  5
1252
330
1247
100
AcDbEntity
  8
画層1
370
    20
100
AcDbLine
 10
6.000000366504309
 20
3.999999988498132
 30
0.0
 11
7.000000366504309
 21
3.999999988498132
 31
0.0
  0
LINE
  5
1253
330
1247
100
AcDbEntity
  8
画層1
370
    20
100
AcDbLine
 10
7.000000366504309
 20
3.999999988498132
 30
0.0
 11
7.000000366504309
 21
5.499999988498132
 31
0.0
  0
LINE
  5
1254
330
1247
100
AcDbEntity
  8
画層1
370
    20
100
AcDbLine
 10
6.000000366504309
 20
5.499999988498132
 30
0.0
 11
6.000000366504309
 21
3.999999988498132
 31
0.0
  0
ARC
  5
1255
330
1247
100
AcDbEntity
  8
画層1
370
    20
100
AcDbCircle
 10
4.500000366504423
 20
3.999999988497961
 30
0.0
 40
2.0
100
AcDbArc
 50
179.9999999999951
 51
269.9999999999934
  0
LINE
  5
1256
330
1247
100
AcDbEntity
  8
画層1
370
    20
100
AcDbLine
 10
3.541960474954521
 20
5.499999988498132
 30
0.0
 11
6.000000366504309
 21
5.499999988498132
 31
0.0
  0
LINE
  5
1257
330
1247
100
AcDbEntity
  8
画層1
370
    20
100
AcDbLine
 10
4.500000366504309
 20
1.999999988498132
 30
0.0
 11
8.500000366504309
 21
1.999999988498132
 31
0.0
  0
LINE
  5
1258
330
1247
100
AcDbEntity
  8
画層1
370
    20
100
AcDbLine
 10
12.00000036650431
 20
69.99999998849813
 30
0.0
 11
12.00000036650431
 21
61.99999998849813
 31
0.0
  0
LINE
  5
1259
330
1247
100
AcDbEntity
  8
画層1
370
    20
100
AcDbLine
 10
1.000000366504309
 20
69.99999998849813
 30
0.0
 11
1.000000366504309
 21
61.99999998849813
 31
0.0
  0
LINE
  5
125A
330
1247
100
AcDbEntity
  8
画層1
370
    20
100
AcDbLine
 10
7.000000366504309
 20
66.49999998849813
 30
0.0
 11
7.000000366504309
 21
67.99999998849813
 31
0.0
  0
LINE
  5
125B
330
1247
100
AcDbEntity
  8
画層1
370
    20
100
AcDbLine
 10
6.000000366504309
 20
67.99999998849813
 30
0.0
 11
6.000000366504309
 21
66.49999998849813
 31
0.0
  0
LINE
  5
125C
330
1247
100
AcDbEntity
  8
画層1
370
    20
100
AcDbLine
 10
10.5000003665043
 20
67.99999998849824
 30
0.0
 11
10.50000036650419
 21
63.99999988849811
 31
0.0
  0
LINE
  5
125D
330
1247
100
AcDbEntity
  8
画層1
370
    20
100
AcDbLine
 10
2.500000366504309
 20
67.99999998849819
 30
0.0
 11
2.500000366504423
 21
63.99999988849811
 31
0.0
  0
CIRCLE
  5
125E
330
1247
100
AcDbEntity
  8
画層1
370
    20
100
AcDbCircle
 10
6.500000366504309
 20
65.99999998849813
 30
0.0
 40
3.0
  0
LINE
  5
125F
330
1247
100
AcDbEntity
  8
画層1
370
    20
100
AcDbLine
 10
1.000000366504309
 20
39.99999998849813
 30
0.0
 11
1.000000366504309
 21
31.99999998849813
 31
0.0
  0
LINE
  5
1260
330
1247
100
AcDbEntity
  8
画層1
370
    20
100
AcDbLine
 10
12.00000036650431
 20
39.99999998849813
 30
0.0
 11
12.00000036650431
 21
31.99999998849813
 31
0.0
  0
CIRCLE
  5
1261
330
1247
100
AcDbEntity
  8
画層1
370
    20
100
AcDbCircle
 10
6.500000366504309
 20
35.99999998849813
 30
0.0
 40
3.0
  0
LINE
  5
1262
330
1247
100
AcDbEntity
  8
画層1
370
    20
100
AcDbLine
 10
2.500000366504309
 20
37.99999998849818
 30
0.0
 11
2.500000366504423
 21
33.99999988849811
 31
0.0
  0
LINE
  5
1263
330
1247
100
AcDbEntity
  8
画層1
370
    20
100
AcDbLine
 10
10.5000003665043
 20
37.99999998849824
 30
0.0
 11
10.50000036650419
 21
33.99999988849811
 31
0.0
  0
LWPOLYLINE
  5
1264
330
1247
100
AcDbEntity
  8
画層1
370
    20
100
AcDbPolyline
 90
        4
 70
     1
 43
0.0
 10
0.0000003665043096
 20
21.99999998849813
 10
13.0000003665043
 20
21.99999998849813
 10
13.0000003665043
 20
19.99999998849813
 10
0.0000003665043096
 20
19.99999998849813
  0
LINE
  5
1265
330
1247
100
AcDbEntity
  8
画層1
370
    20
100
AcDbLine
 10
1.000000366504309
 20
19.99999998849813
 30
0.0
 11
1.000000366504309
 21
11.99999998849813
 31
0.0
  0
LINE
  5
1266
330
1247
100
AcDbEntity
  8
画層1
370
    20
100
AcDbLine
 10
12.00000036650431
 20
19.99999998849813
 30
0.0
 11
12.00000036650431
 21
11.99999998849813
 31
0.0
  0
ARC
  5
1267
330
1247
100
AcDbEntity
  8
画層1
370
    20
100
AcDbCircle
 10
8.500000366504195
 20
13.99999998849807
 30
0.0
 40
2.0
100
AcDbArc
 50
270.0
 51
0.0000000000016284
  0
ARC
  5
1268
330
1247
100
AcDbEntity
  8
画層1
370
    20
100
AcDbCircle
 10
4.500000366504423
 20
13.99999998849796
 30
0.0
 40
2.0
100
AcDbArc
 50
179.9999999999951
 51
269.9999999999934
  0
CIRCLE
  5
1269
330
1247
100
AcDbEntity
  8
画層1
370
    20
100
AcDbCircle
 10
6.500000366504309
 20
15.99999998849813
 30
0.0
 40
3.0
  0
LINE
  5
126A
330
1247
100
AcDbEntity
  8
画層1
370
    20
100
AcDbLine
 10
9.458040258054097
 20
6.499999988498132
 30
0.0
 11
7.000000366504309
 21
6.499999988498132
 31
0.0
  0
ARC
  5
126B
330
1247
100
AcDbEntity
  8
画層1
370
    20
100
AcDbCircle
 10
8.500000366504423
 20
7.999999988498245
 30
0.0
 40
2.0
100
AcDbArc
 50
359.9999999999967
 51
90.0
  0
LWPOLYLINE
  5
126C
330
1247
100
AcDbEntity
  8
画層1
370
    20
100
AcDbPolyline
 90
        4
 70
     1
 43
0.0
 10
0.0000003665043096
 20
11.99999998849813
 10
13.0000003665043
 20
11.99999998849813
 10
13.0000003665043
 20
9.999999988498132
 10
0.0000003665043096
 20
9.999999988498132
  0
LINE
  5
126D
330
1247
100
AcDbEntity
  8
画層1
370
    20
100
AcDbLine
 10
7.000000366504309
 20
6.499999988498132
 30
0.0
 11
7.000000366504309
 21
7.999999988498132
 31
0.0
  0
LINE
  5
126E
330
1247
100
AcDbEntity
  8
画層1
370
    20
100
AcDbLine
 10
6.000000366504309
 20
7.999999988498132
 30
0.0
 11
6.000000366504309
 21
6.499999988498132
 31
0.0
  0
LINE
  5
126F
330
1247
100
AcDbEntity
  8
画層1
370
    20
100
AcDbLine
 10
7.000000366504309
 20
7.999999988498132
 30
0.0
 11
6.000000366504309
 21
7.999999988498132
 31
0.0
  0
LINE
  5
1270
330
1247
100
AcDbEntity
  8
画層1
370
    20
100
AcDbLine
 10
6.000000366504309
 20
6.499999988498132
 30
0.0
 11
3.541960474954521
 21
6.499999988498132
 31
0.0
  0
LINE
  5
1271
330
1247
100
AcDbEntity
  8
画層1
370
    20
100
AcDbLine
 10
4.500000366504309
 20
9.999999988498132
 30
0.0
 11
8.500000366504309
 21
9.999999988498132
 31
0.0
  0
ARC
  5
1272
330
1247
100
AcDbEntity
  8
画層1
370
    20
100
AcDbCircle
 10
4.500000366504195
 20
7.999999988498188
 30
0.0
 40
2.0
100
AcDbArc
 50
89.99999999999349
 51
180.0000000000016
  0
LINE
  5
1273
330
1247
100
AcDbEntity
  8
画層1
370
    20
100
AcDbLine
 10
4.500000366504309
 20
11.99999998849813
 30
0.0
 11
8.500000366504309
 21
11.99999998849813
 31
0.0
  0
LINE
  5
1274
330
1247
100
AcDbEntity
  8
画層1
370
    20
100
AcDbLine
 10
9.458040258054097
 20
16.49999998849813
 30
0.0
 11
7.000000366504309
 21
16.49999998849813
 31
0.0
  0
LINE
  5
1275
330
1247
100
AcDbEntity
  8
画層1
370
    20
100
AcDbLine
 10
7.000000366504309
 20
15.49999998849813
 30
0.0
 11
9.458040258054097
 21
15.49999998849813
 31
0.0
  0
ARC
  5
1276
330
1247
100
AcDbEntity
  8
画層1
370
    20
100
AcDbCircle
 10
8.500000366504423
 20
17.99999998849824
 30
0.0
 40
2.0
100
AcDbArc
 50
359.9999999999967
 51
90.0
  0
LINE
  5
1277
330
1247
100
AcDbEntity
  8
画層1
370
    20
100
AcDbLine
 10
4.500000366504309
 20
19.99999998849813
 30
0.0
 11
8.500000366504309
 21
19.99999998849813
 31
0.0
  0
LINE
  5
1278
330
1247
100
AcDbEntity
  8
画層1
370
    20
100
AcDbLine
 10
7.000000366504309
 20
17.99999998849813
 30
0.0
 11
6.000000366504309
 21
17.99999998849813
 31
0.0
  0
LINE
  5
1279
330
1247
100
AcDbEntity
  8
画層1
370
    20
100
AcDbLine
 10
6.000000366504309
 20
15.49999998849813
 30
0.0
 11
6.000000366504309
 21
13.99999998849813
 31
0.0
  0
LINE
  5
127A
330
1247
100
AcDbEntity
  8
画層1
370
    20
100
AcDbLine
 10
7.000000366504309
 20
13.99999998849813
 30
0.0
 11
7.000000366504309
 21
15.49999998849813
 31
0.0
  0
LINE
  5
127B
330
1247
100
AcDbEntity
  8
画層1
370
    20
100
AcDbLine
 10
6.000000366504309
 20
13.99999998849813
 30
0.0
 11
7.000000366504309
 21
13.99999998849813
 31
0.0
  0
LINE
  5
127C
330
1247
100
AcDbEntity
  8
画層1
370
    20
100
AcDbLine
 10
6.000000366504309
 20
17.99999998849813
 30
0.0
 11
6.000000366504309
 21
16.49999998849813
 31
0.0
  0
LINE
  5
127D
330
1247
100
AcDbEntity
  8
画層1
370
    20
100
AcDbLine
 10
7.000000366504309
 20
16.49999998849813
 30
0.0
 11
7.000000366504309
 21
17.99999998849813
 31
0.0
  0
LINE
  5
127E
330
1247
100
AcDbEntity
  8
画層1
370
    20
100
AcDbLine
 10
2.500000366504309
 20
17.99999998849818
 30
0.0
 11
2.500000366504423
 21
13.99999988849811
 31
0.0
  0
LINE
  5
127F
330
1247
100
AcDbEntity
  8
画層1
370
    20
100
AcDbLine
 10
6.000000366504309
 20
16.49999998849813
 30
0.0
 11
3.541960474954521
 21
16.49999998849813
 31
0.0
  0
LINE
  5
1280
330
1247
100
AcDbEntity
  8
画層1
370
    20
100
AcDbLine
 10
3.541960474954521
 20
15.49999998849813
 30
0.0
 11
6.000000366504309
 21
15.49999998849813
 31
0.0
  0
ARC
  5
1281
330
1247
100
AcDbEntity
  8
画層1
370
    20
100
AcDbCircle
 10
4.500000366504195
 20
17.99999998849818
 30
0.0
 40
2.0
100
AcDbArc
 50
89.99999999999349
 51
180.0000000000016
  0
LINE
  5
1282
330
1247
100
AcDbEntity
  8
画層1
370
    20
100
AcDbLine
 10
10.5000003665043
 20
17.99999998849824
 30
0.0
 11
10.50000036650419
 21
13.99999988849811
 31
0.0
  0
LINE
  5
1283
330
1247
100
AcDbEntity
  8
画層1
370
    20
100
AcDbLine
 10
1.000000366504309
 20
29.99999998849813
 30
0.0
 11
1.000000366504309
 21
21.99999998849813
 31
0.0
  0
LINE
  5
1284
330
1247
100
AcDbEntity
  8
画層1
370
    20
100
AcDbLine
 10
12.00000036650431
 20
29.99999998849813
 30
0.0
 11
12.00000036650431
 21
21.99999998849813
 31
0.0
  0
CIRCLE
  5
1285
330
1247
100
AcDbEntity
  8
画層1
370
    20
100
AcDbCircle
 10
6.500000366504309
 20
25.99999998849813
 30
0.0
 40
3.0
  0
ARC
  5
1286
330
1247
100
AcDbEntity
  8
画層1
370
    20
100
AcDbCircle
 10
4.500000366504195
 20
27.99999998849818
 30
0.0
 40
2.0
100
AcDbArc
 50
89.99999999999349
 51
180.0000000000016
  0
ARC
  5
1287
330
1247
100
AcDbEntity
  8
画層1
370
    20
100
AcDbCircle
 10
8.500000366504423
 20
27.99999998849824
 30
0.0
 40
2.0
100
AcDbArc
 50
359.9999999999967
 51
90.0
  0
LINE
  5
1288
330
1247
100
AcDbEntity
  8
画層1
370
    20
100
AcDbLine
 10
7.000000366504309
 20
25.49999998849813
 30
0.0
 11
9.458040258054097
 21
25.49999998849813
 31
0.0
  0
ARC
  5
1289
330
1247
100
AcDbEntity
  8
画層1
370
    20
100
AcDbCircle
 10
8.500000366504195
 20
23.99999998849807
 30
0.0
 40
2.0
100
AcDbArc
 50
270.0
 51
0.0000000000016284
  0
LINE
  5
128A
330
1247
100
AcDbEntity
  8
画層1
370
    20
100
AcDbLine
 10
9.458040258054097
 20
26.49999998849813
 30
0.0
 11
7.000000366504309
 21
26.49999998849813
 31
0.0
  0
LINE
  5
128B
330
1247
100
AcDbEntity
  8
画層1
370
    20
100
AcDbLine
 10
7.000000366504309
 20
26.49999998849813
 30
0.0
 11
7.000000366504309
 21
27.99999998849813
 31
0.0
  0
LINE
  5
128C
330
1247
100
AcDbEntity
  8
画層1
370
    20
100
AcDbLine
 10
6.000000366504309
 20
27.99999998849813
 30
0.0
 11
6.000000366504309
 21
26.49999998849813
 31
0.0
  0
LINE
  5
128D
330
1247
100
AcDbEntity
  8
画層1
370
    20
100
AcDbLine
 10
6.000000366504309
 20
23.99999998849813
 30
0.0
 11
7.000000366504309
 21
23.99999998849813
 31
0.0
  0
LINE
  5
128E
330
1247
100
AcDbEntity
  8
画層1
370
    20
100
AcDbLine
 10
7.000000366504309
 20
23.99999998849813
 30
0.0
 11
7.000000366504309
 21
25.49999998849813
 31
0.0
  0
LINE
  5
128F
330
1247
100
AcDbEntity
  8
画層1
370
    20
100
AcDbLine
 10
6.000000366504309
 20
25.49999998849813
 30
0.0
 11
6.000000366504309
 21
23.99999998849813
 31
0.0
  0
LINE
  5
1290
330
1247
100
AcDbEntity
  8
画層1
370
    20
100
AcDbLine
 10
7.000000366504309
 20
27.99999998849813
 30
0.0
 11
6.000000366504309
 21
27.99999998849813
 31
0.0
  0
LINE
  5
1291
330
1247
100
AcDbEntity
  8
画層1
370
    20
100
AcDbLine
 10
2.500000366504309
 20
27.99999998849818
 30
0.0
 11
2.500000366504423
 21
23.99999988849811
 31
0.0
  0
ARC
  5
1292
330
1247
100
AcDbEntity
  8
画層1
370
    20
100
AcDbCircle
 10
4.500000366504423
 20
23.99999998849796
 30
0.0
 40
2.0
100
AcDbArc
 50
179.9999999999951
 51
269.9999999999934
  0
LINE
  5
1293
330
1247
100
AcDbEntity
  8
画層1
370
    20
100
AcDbLine
 10
3.541960474954521
 20
25.49999998849813
 30
0.0
 11
6.000000366504309
 21
25.49999998849813
 31
0.0
  0
LINE
  5
1294
330
1247
100
AcDbEntity
  8
画層1
370
    20
100
AcDbLine
 10
4.500000366504309
 20
21.99999998849813
 30
0.0
 11
8.500000366504309
 21
21.99999998849813
 31
0.0
  0
LINE
  5
1295
330
1247
100
AcDbEntity
  8
画層1
370
    20
100
AcDbLine
 10
6.000000366504309
 20
26.49999998849813
 30
0.0
 11
3.541960474954521
 21
26.49999998849813
 31
0.0
  0
LINE
  5
1296
330
1247
100
AcDbEntity
  8
画層1
370
    20
100
AcDbLine
 10
10.5000003665043
 20
27.99999998849824
 30
0.0
 11
10.50000036650419
 21
23.99999988849811
 31
0.0
  0
ARC
  5
1297
330
1247
100
AcDbEntity
  8
画層1
370
    20
100
AcDbCircle
 10
8.500000366504195
 20
33.99999998849807
 30
0.0
 40
2.0
100
AcDbArc
 50
270.0
 51
0.0000000000016284
  0
LINE
  5
1298
330
1247
100
AcDbEntity
  8
画層1
370
    20
100
AcDbLine
 10
7.000000366504309
 20
35.49999998849813
 30
0.0
 11
9.458040258054097
 21
35.49999998849813
 31
0.0
  0
LWPOLYLINE
  5
1299
330
1247
100
AcDbEntity
  8
画層1
370
    20
100
AcDbPolyline
 90
        4
 70
     1
 43
0.0
 10
0.0000003665043096
 20
31.99999998849813
 10
13.0000003665043
 20
31.99999998849813
 10
13.0000003665043
 20
29.99999998849813
 10
0.0000003665043096
 20
29.99999998849813
  0
LINE
  5
129A
330
1247
100
AcDbEntity
  8
画層1
370
    20
100
AcDbLine
 10
4.500000366504309
 20
29.99999998849813
 30
0.0
 11
8.500000366504309
 21
29.99999998849813
 31
0.0
  0
LINE
  5
129B
330
1247
100
AcDbEntity
  8
画層1
370
    20
100
AcDbLine
 10
6.000000366504309
 20
35.49999998849813
 30
0.0
 11
6.000000366504309
 21
33.99999998849813
 31
0.0
  0
LINE
  5
129C
330
1247
100
AcDbEntity
  8
画層1
370
    20
100
AcDbLine
 10
7.000000366504309
 20
33.99999998849813
 30
0.0
 11
7.000000366504309
 21
35.49999998849813
 31
0.0
  0
LINE
  5
129D
330
1247
100
AcDbEntity
  8
画層1
370
    20
100
AcDbLine
 10
6.000000366504309
 20
33.99999998849813
 30
0.0
 11
7.000000366504309
 21
33.99999998849813
 31
0.0
  0
ARC
  5
129E
330
1247
100
AcDbEntity
  8
画層1
370
    20
100
AcDbCircle
 10
4.500000366504423
 20
33.99999998849796
 30
0.0
 40
2.0
100
AcDbArc
 50
179.9999999999951
 51
269.9999999999934
  0
LINE
  5
129F
330
1247
100
AcDbEntity
  8
画層1
370
    20
100
AcDbLine
 10
4.500000366504309
 20
31.99999998849813
 30
0.0
 11
8.500000366504309
 21
31.99999998849813
 31
0.0
  0
LINE
  5
12A0
330
1247
100
AcDbEntity
  8
画層1
370
    20
100
AcDbLine
 10
3.541960474954521
 20
35.49999998849813
 30
0.0
 11
6.000000366504309
 21
35.49999998849813
 31
0.0
  0
ARC
  5
12A1
330
1247
100
AcDbEntity
  8
画層1
370
    20
100
AcDbCircle
 10
8.500000366504195
 20
53.99999998849807
 30
0.0
 40
2.0
100
AcDbArc
 50
270.0
 51
0.0000000000016284
  0
ARC
  5
12A2
330
1247
100
AcDbEntity
  8
画層1
370
    20
100
AcDbCircle
 10
4.500000366504423
 20
53.99999998849796
 30
0.0
 40
2.0
100
AcDbArc
 50
179.9999999999951
 51
269.9999999999934
  0
LWPOLYLINE
  5
12A3
330
1247
100
AcDbEntity
  8
画層1
370
    20
100
AcDbPolyline
 90
        4
 70
     1
 43
0.0
 10
0.0000003665043096
 20
51.99999998849813
 10
13.0000003665043
 20
51.99999998849813
 10
13.0000003665043
 20
49.99999998849813
 10
0.0000003665043096
 20
49.99999998849813
  0
LINE
  5
12A4
330
1247
100
AcDbEntity
  8
画層1
370
    20
100
AcDbLine
 10
1.000000366504309
 20
49.99999998849813
 30
0.0
 11
1.000000366504309
 21
41.99999998849813
 31
0.0
  0
LINE
  5
12A5
330
1247
100
AcDbEntity
  8
画層1
370
    20
100
AcDbLine
 10
12.00000036650431
 20
49.99999998849813
 30
0.0
 11
12.00000036650431
 21
41.99999998849813
 31
0.0
  0
LINE
  5
12A6
330
1247
100
AcDbEntity
  8
画層1
370
    20
100
AcDbLine
 10
7.000000366504309
 20
43.99999998849813
 30
0.0
 11
7.000000366504309
 21
45.49999998849813
 31
0.0
  0
LINE
  5
12A7
330
1247
100
AcDbEntity
  8
画層1
370
    20
100
AcDbLine
 10
6.000000366504309
 20
45.49999998849813
 30
0.0
 11
6.000000366504309
 21
43.99999998849813
 31
0.0
  0
LINE
  5
12A8
330
1247
100
AcDbEntity
  8
画層1
370
    20
100
AcDbLine
 10
10.5000003665043
 20
47.99999998849824
 30
0.0
 11
10.50000036650419
 21
43.99999988849811
 31
0.0
  0
LINE
  5
12A9
330
1247
100
AcDbEntity
  8
画層1
370
    20
100
AcDbLine
 10
2.500000366504309
 20
47.99999998849819
 30
0.0
 11
2.500000366504423
 21
43.99999988849811
 31
0.0
  0
CIRCLE
  5
12AA
330
1247
100
AcDbEntity
  8
画層1
370
    20
100
AcDbCircle
 10
6.500000366504309
 20
45.99999998849813
 30
0.0
 40
3.0
  0
ARC
  5
12AB
330
1247
100
AcDbEntity
  8
画層1
370
    20
100
AcDbCircle
 10
8.500000366504423
 20
37.99999998849824
 30
0.0
 40
2.0
100
AcDbArc
 50
359.9999999999967
 51
90.0
  0
LINE
  5
12AC
330
1247
100
AcDbEntity
  8
画層1
370
    20
100
AcDbLine
 10
9.458040258054097
 20
36.49999998849813
 30
0.0
 11
7.000000366504309
 21
36.49999998849813
 31
0.0
  0
ARC
  5
12AD
330
1247
100
AcDbEntity
  8
画層1
370
    20
100
AcDbCircle
 10
8.500000366504195
 20
43.99999998849807
 30
0.0
 40
2.0
100
AcDbArc
 50
270.0
 51
0.0000000000016284
  0
LWPOLYLINE
  5
12AE
330
1247
100
AcDbEntity
  8
画層1
370
    20
100
AcDbPolyline
 90
        4
 70
     1
 43
0.0
 10
0.0000003665043096
 20
41.99999998849813
 10
13.0000003665043
 20
41.99999998849813
 10
13.0000003665043
 20
39.99999998849813
 10
0.0000003665043096
 20
39.99999998849813
  0
LINE
  5
12AF
330
1247
100
AcDbEntity
  8
画層1
370
    20
100
AcDbLine
 10
7.000000366504309
 20
37.99999998849813
 30
0.0
 11
6.000000366504309
 21
37.99999998849813
 31
0.0
  0
ARC
  5
12B0
330
1247
100
AcDbEntity
  8
画層1
370
    20
100
AcDbCircle
 10
4.500000366504195
 20
37.99999998849818
 30
0.0
 40
2.0
100
AcDbArc
 50
89.99999999999349
 51
180.0000000000016
  0
LINE
  5
12B1
330
1247
100
AcDbEntity
  8
画層1
370
    20
100
AcDbLine
 10
4.500000366504309
 20
39.99999998849813
 30
0.0
 11
8.500000366504309
 21
39.99999998849813
 31
0.0
  0
LINE
  5
12B2
330
1247
100
AcDbEntity
  8
画層1
370
    20
100
AcDbLine
 10
6.000000366504309
 20
36.49999998849813
 30
0.0
 11
3.541960474954521
 21
36.49999998849813
 31
0.0
  0
LINE
  5
12B3
330
1247
100
AcDbEntity
  8
画層1
370
    20
100
AcDbLine
 10
6.000000366504309
 20
37.99999998849813
 30
0.0
 11
6.000000366504309
 21
36.49999998849813
 31
0.0
  0
LINE
  5
12B4
330
1247
100
AcDbEntity
  8
画層1
370
    20
100
AcDbLine
 10
7.000000366504309
 20
36.49999998849813
 30
0.0
 11
7.000000366504309
 21
37.99999998849813
 31
0.0
  0
LINE
  5
12B5
330
1247
100
AcDbEntity
  8
画層1
370
    20
100
AcDbLine
 10
6.000000366504309
 20
43.99999998849813
 30
0.0
 11
7.000000366504309
 21
43.99999998849813
 31
0.0
  0
ARC
  5
12B6
330
1247
100
AcDbEntity
  8
画層1
370
    20
100
AcDbCircle
 10
4.500000366504423
 20
43.99999998849795
 30
0.0
 40
2.0
100
AcDbArc
 50
179.9999999999951
 51
269.9999999999934
  0
LINE
  5
12B7
330
1247
100
AcDbEntity
  8
画層1
370
    20
100
AcDbLine
 10
4.500000366504309
 20
41.99999998849813
 30
0.0
 11
8.500000366504309
 21
41.99999998849813
 31
0.0
  0
ARC
  5
12B8
330
1247
100
AcDbEntity
  8
画層1
370
    20
100
AcDbCircle
 10
8.500000366504423
 20
47.99999998849824
 30
0.0
 40
2.0
100
AcDbArc
 50
359.9999999999967
 51
90.0
  0
LINE
  5
12B9
330
1247
100
AcDbEntity
  8
画層1
370
    20
100
AcDbLine
 10
7.000000366504309
 20
45.49999998849813
 30
0.0
 11
9.458040258054097
 21
45.49999998849813
 31
0.0
  0
LINE
  5
12BA
330
1247
100
AcDbEntity
  8
画層1
370
    20
100
AcDbLine
 10
9.458040258054097
 20
46.49999998849813
 30
0.0
 11
7.000000366504309
 21
46.49999998849813
 31
0.0
  0
LINE
  5
12BB
330
1247
100
AcDbEntity
  8
画層1
370
    20
100
AcDbLine
 10
7.000000366504309
 20
47.99999998849813
 30
0.0
 11
6.000000366504309
 21
47.99999998849813
 31
0.0
  0
ARC
  5
12BC
330
1247
100
AcDbEntity
  8
画層1
370
    20
100
AcDbCircle
 10
4.500000366504195
 20
47.99999998849819
 30
0.0
 40
2.0
100
AcDbArc
 50
89.99999999999349
 51
180.0000000000016
  0
LINE
  5
12BD
330
1247
100
AcDbEntity
  8
画層1
370
    20
100
AcDbLine
 10
4.500000366504309
 20
49.99999998849813
 30
0.0
 11
8.500000366504309
 21
49.99999998849813
 31
0.0
  0
LINE
  5
12BE
330
1247
100
AcDbEntity
  8
画層1
370
    20
100
AcDbLine
 10
3.541960474954521
 20
45.49999998849813
 30
0.0
 11
6.000000366504309
 21
45.49999998849813
 31
0.0
  0
LINE
  5
12BF
330
1247
100
AcDbEntity
  8
画層1
370
    20
100
AcDbLine
 10
6.000000366504309
 20
46.49999998849813
 30
0.0
 11
3.541960474954521
 21
46.49999998849813
 31
0.0
  0
LINE
  5
12C0
330
1247
100
AcDbEntity
  8
画層1
370
    20
100
AcDbLine
 10
7.000000366504309
 20
46.49999998849813
 30
0.0
 11
7.000000366504309
 21
47.99999998849813
 31
0.0
  0
LINE
  5
12C1
330
1247
100
AcDbEntity
  8
画層1
370
    20
100
AcDbLine
 10
6.000000366504309
 20
47.99999998849813
 30
0.0
 11
6.000000366504309
 21
46.49999998849813
 31
0.0
  0
LINE
  5
12C2
330
1247
100
AcDbEntity
  8
画層1
370
    20
100
AcDbLine
 10
1.000000366504309
 20
59.99999998849813
 30
0.0
 11
1.000000366504309
 21
51.99999998849813
 31
0.0
  0
LINE
  5
12C3
330
1247
100
AcDbEntity
  8
画層1
370
    20
100
AcDbLine
 10
12.00000036650431
 20
59.99999998849813
 30
0.0
 11
12.00000036650431
 21
51.99999998849813
 31
0.0
  0
ARC
  5
12C4
330
1247
100
AcDbEntity
  8
画層1
370
    20
100
AcDbCircle
 10
8.500000366504423
 20
57.99999998849824
 30
0.0
 40
2.0
100
AcDbArc
 50
359.9999999999967
 51
90.0
  0
ARC
  5
12C5
330
1247
100
AcDbEntity
  8
画層1
370
    20
100
AcDbCircle
 10
4.500000366504195
 20
57.99999998849819
 30
0.0
 40
2.0
100
AcDbArc
 50
89.99999999999349
 51
180.0000000000016
  0
LINE
  5
12C6
330
1247
100
AcDbEntity
  8
画層1
370
    20
100
AcDbLine
 10
9.458040258054097
 20
56.49999998849813
 30
0.0
 11
7.000000366504309
 21
56.49999998849813
 31
0.0
  0
LINE
  5
12C7
330
1247
100
AcDbEntity
  8
画層1
370
    20
100
AcDbLine
 10
7.000000366504309
 20
55.49999998849813
 30
0.0
 11
9.458040258054097
 21
55.49999998849813
 31
0.0
  0
CIRCLE
  5
12C8
330
1247
100
AcDbEntity
  8
画層1
370
    20
100
AcDbCircle
 10
6.500000366504309
 20
55.99999998849813
 30
0.0
 40
3.0
  0
LINE
  5
12C9
330
1247
100
AcDbEntity
  8
画層1
370
    20
100
AcDbLine
 10
6.000000366504309
 20
57.99999998849813
 30
0.0
 11
6.000000366504309
 21
56.49999998849813
 31
0.0
  0
LINE
  5
12CA
330
1247
100
AcDbEntity
  8
画層1
370
    20
100
AcDbLine
 10
7.000000366504309
 20
56.49999998849813
 30
0.0
 11
7.000000366504309
 21
57.99999998849813
 31
0.0
  0
LINE
  5
12CB
330
1247
100
AcDbEntity
  8
画層1
370
    20
100
AcDbLine
 10
7.000000366504309
 20
57.99999998849813
 30
0.0
 11
6.000000366504309
 21
57.99999998849813
 31
0.0
  0
LINE
  5
12CC
330
1247
100
AcDbEntity
  8
画層1
370
    20
100
AcDbLine
 10
6.000000366504309
 20
56.49999998849813
 30
0.0
 11
3.541960474954521
 21
56.49999998849813
 31
0.0
  0
LINE
  5
12CD
330
1247
100
AcDbEntity
  8
画層1
370
    20
100
AcDbLine
 10
6.000000366504309
 20
55.49999998849813
 30
0.0
 11
6.000000366504309
 21
53.99999998849813
 31
0.0
  0
LINE
  5
12CE
330
1247
100
AcDbEntity
  8
画層1
370
    20
100
AcDbLine
 10
7.000000366504309
 20
53.99999998849813
 30
0.0
 11
7.000000366504309
 21
55.49999998849813
 31
0.0
  0
LINE
  5
12CF
330
1247
100
AcDbEntity
  8
画層1
370
    20
100
AcDbLine
 10
6.000000366504309
 20
53.99999998849813
 30
0.0
 11
7.000000366504309
 21
53.99999998849813
 31
0.0
  0
LINE
  5
12D0
330
1247
100
AcDbEntity
  8
画層1
370
    20
100
AcDbLine
 10
4.500000366504309
 20
51.99999998849813
 30
0.0
 11
8.500000366504309
 21
51.99999998849813
 31
0.0
  0
LINE
  5
12D1
330
1247
100
AcDbEntity
  8
画層1
370
    20
100
AcDbLine
 10
3.541960474954521
 20
55.49999998849813
 30
0.0
 11
6.000000366504309
 21
55.49999998849813
 31
0.0
  0
LINE
  5
12D2
330
1247
100
AcDbEntity
  8
画層1
370
    20
100
AcDbLine
 10
2.500000366504309
 20
57.99999998849819
 30
0.0
 11
2.500000366504423
 21
53.99999988849811
 31
0.0
  0
LINE
  5
12D3
330
1247
100
AcDbEntity
  8
画層1
370
    20
100
AcDbLine
 10
10.5000003665043
 20
57.99999998849824
 30
0.0
 11
10.50000036650419
 21
53.99999988849811
 31
0.0
  0
LINE
  5
12D4
330
1247
100
AcDbEntity
  8
画層1
370
    20
100
AcDbLine
 10
9.458040258054097
 20
66.49999998849813
 30
0.0
 11
7.000000366504309
 21
66.49999998849813
 31
0.0
  0
LINE
  5
12D5
330
1247
100
AcDbEntity
  8
画層1
370
    20
100
AcDbLine
 10
7.000000366504309
 20
65.49999998849813
 30
0.0
 11
9.458040258054097
 21
65.49999998849813
 31
0.0
  0
ARC
  5
12D6
330
1247
100
AcDbEntity
  8
画層1
370
    20
100
AcDbCircle
 10
8.500000366504195
 20
63.99999998849807
 30
0.0
 40
2.0
100
AcDbArc
 50
270.0
 51
0.0000000000016284
  0
LWPOLYLINE
  5
12D7
330
1247
100
AcDbEntity
  8
画層1
370
    20
100
AcDbPolyline
 90
        4
 70
     1
 43
0.0
 10
0.0000003665043096
 20
61.99999998849813
 10
13.0000003665043
 20
61.99999998849813
 10
13.0000003665043
 20
59.99999998849813
 10
0.0000003665043096
 20
59.99999998849813
  0
LINE
  5
12D8
330
1247
100
AcDbEntity
  8
画層1
370
    20
100
AcDbLine
 10
4.500000366504309
 20
59.99999998849813
 30
0.0
 11
8.500000366504309
 21
59.99999998849813
 31
0.0
  0
LINE
  5
12D9
330
1247
100
AcDbEntity
  8
画層1
370
    20
100
AcDbLine
 10
3.541960474954521
 20
65.49999998849813
 30
0.0
 11
6.000000366504309
 21
65.49999998849813
 31
0.0
  0
LINE
  5
12DA
330
1247
100
AcDbEntity
  8
画層1
370
    20
100
AcDbLine
 10
6.000000366504309
 20
66.49999998849813
 30
0.0
 11
3.541960474954521
 21
66.49999998849813
 31
0.0
  0
LINE
  5
12DB
330
1247
100
AcDbEntity
  8
画層1
370
    20
100
AcDbLine
 10
6.000000366504309
 20
63.99999998849813
 30
0.0
 11
7.000000366504309
 21
63.99999998849813
 31
0.0
  0
ARC
  5
12DC
330
1247
100
AcDbEntity
  8
画層1
370
    20
100
AcDbCircle
 10
4.500000366504423
 20
63.99999998849796
 30
0.0
 40
2.0
100
AcDbArc
 50
179.9999999999951
 51
269.9999999999934
  0
LINE
  5
12DD
330
1247
100
AcDbEntity
  8
画層1
370
    20
100
AcDbLine
 10
4.500000366504309
 20
61.99999998849813
 30
0.0
 11
8.500000366504309
 21
61.99999998849813
 31
0.0
  0
LINE
  5
12DE
330
1247
100
AcDbEntity
  8
画層1
370
    20
100
AcDbLine
 10
7.000000366504309
 20
63.99999998849813
 30
0.0
 11
7.000000366504309
 21
65.49999998849813
 31
0.0
  0
LINE
  5
12DF
330
1247
100
AcDbEntity
  8
画層1
370
    20
100
AcDbLine
 10
6.000000366504309
 20
65.49999998849813
 30
0.0
 11
6.000000366504309
 21
63.99999998849813
 31
0.0
  0
LINE
  5
12E0
330
1247
100
AcDbEntity
  8
画層1
370
    20
100
AcDbLine
 10
12.00000036650431
 20
89.99999998849814
 30
0.0
 11
12.00000036650431
 21
81.99999998849813
 31
0.0
  0
LINE
  5
12E1
330
1247
100
AcDbEntity
  8
画層1
370
    20
100
AcDbLine
 10
1.000000366504309
 20
89.99999998849814
 30
0.0
 11
1.000000366504309
 21
81.99999998849813
 31
0.0
  0
ARC
  5
12E2
330
1247
100
AcDbEntity
  8
画層1
370
    20
100
AcDbCircle
 10
8.500000366504195
 20
83.99999998849807
 30
0.0
 40
2.0
100
AcDbArc
 50
270.0
 51
0.0000000000016284
  0
ARC
  5
12E3
330
1247
100
AcDbEntity
  8
画層1
370
    20
100
AcDbCircle
 10
4.500000366504423
 20
83.99999998849796
 30
0.0
 40
2.0
100
AcDbArc
 50
179.9999999999951
 51
269.9999999999934
  0
LINE
  5
12E4
330
1247
100
AcDbEntity
  8
画層1
370
    20
100
AcDbLine
 10
1.000000366504309
 20
79.99999998849813
 30
0.0
 11
1.000000366504309
 21
71.99999998849813
 31
0.0
  0
LINE
  5
12E5
330
1247
100
AcDbEntity
  8
画層1
370
    20
100
AcDbLine
 10
12.00000036650431
 20
79.99999998849813
 30
0.0
 11
12.00000036650431
 21
71.99999998849813
 31
0.0
  0
LINE
  5
12E6
330
1247
100
AcDbEntity
  8
画層1
370
    20
100
AcDbLine
 10
0.0000003665043096
 20
79.99999998849813
 30
0.0
 11
0.0000003665043096
 21
71.99999998849813
 31
0.0
  0
CIRCLE
  5
12E7
330
1247
100
AcDbEntity
  8
画層1
370
    20
100
AcDbCircle
 10
6.500000366504309
 20
75.99999998849813
 30
0.0
 40
3.0
  0
LINE
  5
12E8
330
1247
100
AcDbEntity
  8
画層1
370
    20
100
AcDbLine
 10
6.000000366504309
 20
75.49999998849813
 30
0.0
 11
6.000000366504309
 21
73.99999998849813
 31
0.0
  0
LINE
  5
12E9
330
1247
100
AcDbEntity
  8
画層1
370
    20
100
AcDbLine
 10
7.000000366504309
 20
73.99999998849813
 30
0.0
 11
7.000000366504309
 21
75.49999998849813
 31
0.0
  0
LINE
  5
12EA
330
1247
100
AcDbEntity
  8
画層1
370
    20
100
AcDbLine
 10
2.500000366504309
 20
77.99999998849819
 30
0.0
 11
2.500000366504423
 21
73.99999988849811
 31
0.0
  0
LINE
  5
12EB
330
1247
100
AcDbEntity
  8
画層1
370
    20
100
AcDbLine
 10
10.5000003665043
 20
77.99999998849824
 30
0.0
 11
10.50000036650419
 21
73.99999988849811
 31
0.0
  0
ARC
  5
12EC
330
1247
100
AcDbEntity
  8
画層1
370
    20
100
AcDbCircle
 10
8.500000366504423
 20
67.99999998849824
 30
0.0
 40
2.0
100
AcDbArc
 50
359.9999999999967
 51
90.0
  0
ARC
  5
12ED
330
1247
100
AcDbEntity
  8
画層1
370
    20
100
AcDbCircle
 10
8.500000366504195
 20
73.99999998849807
 30
0.0
 40
2.0
100
AcDbArc
 50
270.0
 51
0.0000000000016284
  0
LWPOLYLINE
  5
12EE
330
1247
100
AcDbEntity
  8
画層1
370
    20
100
AcDbPolyline
 90
        4
 70
     1
 43
0.0
 10
0.0000003665043096
 20
71.99999998849813
 10
13.0000003665043
 20
71.99999998849813
 10
13.0000003665043
 20
69.99999998849813
 10
0.0000003665043096
 20
69.99999998849813
  0
LINE
  5
12EF
330
1247
100
AcDbEntity
  8
画層1
370
    20
100
AcDbLine
 10
7.000000366504309
 20
67.99999998849813
 30
0.0
 11
6.000000366504309
 21
67.99999998849813
 31
0.0
  0
ARC
  5
12F0
330
1247
100
AcDbEntity
  8
画層1
370
    20
100
AcDbCircle
 10
4.500000366504195
 20
67.99999998849819
 30
0.0
 40
2.0
100
AcDbArc
 50
89.99999999999349
 51
180.0000000000016
  0
LINE
  5
12F1
330
1247
100
AcDbEntity
  8
画層1
370
    20
100
AcDbLine
 10
4.500000366504309
 20
69.99999998849813
 30
0.0
 11
8.500000366504309
 21
69.99999998849813
 31
0.0
  0
LINE
  5
12F2
330
1247
100
AcDbEntity
  8
画層1
370
    20
100
AcDbLine
 10
6.000000366504309
 20
73.99999998849813
 30
0.0
 11
7.000000366504309
 21
73.99999998849813
 31
0.0
  0
ARC
  5
12F3
330
1247
100
AcDbEntity
  8
画層1
370
    20
100
AcDbCircle
 10
4.500000366504423
 20
73.99999998849796
 30
0.0
 40
2.0
100
AcDbArc
 50
179.9999999999951
 51
269.9999999999934
  0
LINE
  5
12F4
330
1247
100
AcDbEntity
  8
画層1
370
    20
100
AcDbLine
 10
4.500000366504309
 20
71.99999998849813
 30
0.0
 11
8.500000366504309
 21
71.99999998849813
 31
0.0
  0
LINE
  5
12F5
330
1247
100
AcDbEntity
  8
画層1
370
    20
100
AcDbLine
 10
7.000000366504309
 20
75.49999998849813
 30
0.0
 11
9.458040258054097
 21
75.49999998849813
 31
0.0
  0
LINE
  5
12F6
330
1247
100
AcDbEntity
  8
画層1
370
    20
100
AcDbLine
 10
9.458040258054097
 20
76.49999998849813
 30
0.0
 11
7.000000366504309
 21
76.49999998849813
 31
0.0
  0
ARC
  5
12F7
330
1247
100
AcDbEntity
  8
画層1
370
    20
100
AcDbCircle
 10
8.500000366504423
 20
77.99999998849824
 30
0.0
 40
2.0
100
AcDbArc
 50
359.9999999999967
 51
90.0
  0
LWPOLYLINE
  5
12F8
330
1247
100
AcDbEntity
  8
画層1
370
    20
100
AcDbPolyline
 90
        4
 70
     1
 43
0.0
 10
0.0000003665043096
 20
81.99999998849813
 10
13.0000003665043
 20
81.99999998849813
 10
13.0000003665043
 20
79.99999998849813
 10
0.0000003665043096
 20
79.99999998849813
  0
LINE
  5
12F9
330
1247
100
AcDbEntity
  8
画層1
370
    20
100
AcDbLine
 10
6.000000366504309
 20
77.99999998849813
 30
0.0
 11
6.000000366504309
 21
76.49999998849813
 31
0.0
  0
LINE
  5
12FA
330
1247
100
AcDbEntity
  8
画層1
370
    20
100
AcDbLine
 10
7.000000366504309
 20
76.49999998849813
 30
0.0
 11
7.000000366504309
 21
77.99999998849813
 31
0.0
  0
LINE
  5
12FB
330
1247
100
AcDbEntity
  8
画層1
370
    20
100
AcDbLine
 10
7.000000366504309
 20
77.99999998849813
 30
0.0
 11
6.000000366504309
 21
77.99999998849813
 31
0.0
  0
ARC
  5
12FC
330
1247
100
AcDbEntity
  8
画層1
370
    20
100
AcDbCircle
 10
4.500000366504195
 20
77.99999998849819
 30
0.0
 40
2.0
100
AcDbArc
 50
89.99999999999349
 51
180.0000000000016
  0
LINE
  5
12FD
330
1247
100
AcDbEntity
  8
画層1
370
    20
100
AcDbLine
 10
6.000000366504309
 20
76.49999998849813
 30
0.0
 11
3.541960474954521
 21
76.49999998849813
 31
0.0
  0
LINE
  5
12FE
330
1247
100
AcDbEntity
  8
画層1
370
    20
100
AcDbLine
 10
3.541960474954521
 20
75.49999998849813
 30
0.0
 11
6.000000366504309
 21
75.49999998849813
 31
0.0
  0
LINE
  5
12FF
330
1247
100
AcDbEntity
  8
画層1
370
    20
100
AcDbLine
 10
4.500000366504309
 20
79.99999998849813
 30
0.0
 11
8.500000366504309
 21
79.99999998849813
 31
0.0
  0
LINE
  5
1300
330
1247
100
AcDbEntity
  8
画層1
370
    20
100
AcDbLine
 10
4.500000366504309
 20
81.99999998849813
 30
0.0
 11
8.500000366504309
 21
81.99999998849813
 31
0.0
  0
LWPOLYLINE
  5
1301
330
1247
100
AcDbEntity
  8
画層1
370
    20
100
AcDbPolyline
 90
        4
 70
     1
 43
0.0
 10
0.0000003665043096
 20
91.99999998849813
 10
13.0000003665043
 20
91.99999998849813
 10
13.0000003665043
 20
89.99999998849814
 10
0.0000003665043096
 20
89.99999998849814
  0
ARC
  5
1302
330
1247
100
AcDbEntity
  8
画層1
370
    20
100
AcDbCircle
 10
8.500000366504423
 20
87.99999998849825
 30
0.0
 40
2.0
100
AcDbArc
 50
359.9999999999967
 51
90.0
  0
LINE
  5
1303
330
1247
100
AcDbEntity
  8
画層1
370
    20
100
AcDbLine
 10
9.458040258054097
 20
86.49999998849812
 30
0.0
 11
7.000000366504309
 21
86.49999998849812
 31
0.0
  0
LINE
  5
1304
330
1247
100
AcDbEntity
  8
画層1
370
    20
100
AcDbLine
 10
7.000000366504309
 20
85.49999998849813
 30
0.0
 11
9.458040258054097
 21
85.49999998849813
 31
0.0
  0
CIRCLE
  5
1305
330
1247
100
AcDbEntity
  8
画層1
370
    20
100
AcDbCircle
 10
6.500000366504309
 20
85.99999998849813
 30
0.0
 40
3.0
  0
ARC
  5
1306
330
1247
100
AcDbEntity
  8
画層1
370
    20
100
AcDbCircle
 10
4.500000366504195
 20
87.99999998849818
 30
0.0
 40
2.0
100
AcDbArc
 50
89.99999999999349
 51
180.0000000000016
  0
LINE
  5
1307
330
1247
100
AcDbEntity
  8
画層1
370
    20
100
AcDbLine
 10
4.500000366504309
 20
89.99999998849814
 30
0.0
 11
8.500000366504309
 21
89.99999998849814
 31
0.0
  0
LINE
  5
1308
330
1247
100
AcDbEntity
  8
画層1
370
    20
100
AcDbLine
 10
2.500000366504309
 20
83.99999998849812
 30
0.0
 11
2.500000366504309
 21
87.99999998849813
 31
0.0
  0
LINE
  5
1309
330
1247
100
AcDbEntity
  8
画層1
370
    20
100
AcDbLine
 10
7.000000366504309
 20
87.99999998849813
 30
0.0
 11
6.000000366504309
 21
87.99999998849813
 31
0.0
  0
LINE
  5
130A
330
1247
100
AcDbEntity
  8
画層1
370
    20
100
AcDbLine
 10
7.000000366504309
 20
86.49999998849812
 30
0.0
 11
7.000000366504309
 21
87.99999998849813
 31
0.0
  0
LINE
  5
130B
330
1247
100
AcDbEntity
  8
画層1
370
    20
100
AcDbLine
 10
7.000000366504309
 20
83.99999998849812
 30
0.0
 11
7.000000366504309
 21
85.49999998849813
 31
0.0
  0
LINE
  5
130C
330
1247
100
AcDbEntity
  8
画層1
370
    20
100
AcDbLine
 10
6.000000366504309
 20
83.99999998849812
 30
0.0
 11
7.000000366504309
 21
83.99999998849812
 31
0.0
  0
LINE
  5
130D
330
1247
100
AcDbEntity
  8
画層1
370
    20
100
AcDbLine
 10
6.000000366504309
 20
85.49999998849813
 30
0.0
 11
6.000000366504309
 21
83.99999998849812
 31
0.0
  0
LINE
  5
130E
330
1247
100
AcDbEntity
  8
画層1
370
    20
100
AcDbLine
 10
3.541960474954521
 20
85.49999998849813
 30
0.0
 11
6.000000366504309
 21
85.49999998849813
 31
0.0
  0
LINE
  5
130F
330
1247
100
AcDbEntity
  8
画層1
370
    20
100
AcDbLine
 10
6.000000366504309
 20
86.49999998849812
 30
0.0
 11
3.541960474954521
 21
86.49999998849812
 31
0.0
  0
LINE
  5
1310
330
1247
100
AcDbEntity
  8
画層1
370
    20
100
AcDbLine
 10
6.000000366504309
 20
87.99999998849813
 30
0.0
 11
6.000000366504309
 21
86.49999998849812
 31
0.0
  0
LINE
  5
1311
330
1247
100
AcDbEntity
  8
画層1
370
    20
100
AcDbLine
 10
10.5000003665043
 20
83.99999998849812
 30
0.0
 11
10.5000003665043
 21
87.99999998849813
 31
0.0
  0
ENDBLK
  5
1313
330
1247
100
AcDbEntity
  8
0
 62
     1
370
    20
100
AcDbBlockEnd
  0
BLOCK
  5
26F2
330
26E8
100
AcDbEntity
  8
0
 62
     1
370
    20
100
AcDbBlockBegin
  2
*D4
 70
     1
 10
0.0
 20
0.0
 30
0.0
  3
*D4
  1

  0
LINE
  5
27E7
330
26E8
100
AcDbEntity
  8
画層1
 62
     0
100
AcDbLine
 10
-505.5652295960735
 20
351.5887767371689
 30
0.0
 11
-505.5652295960735
 21
376.4738099646804
 31
0.0
  0
LINE
  5
27E8
330
26E8
100
AcDbEntity
  8
画層1
 62
     0
100
AcDbLine
 10
-645.5652295960735
 20
351.5887767371689
 30
0.0
 11
-645.5652295960735
 21
376.4738099646804
 31
0.0
  0
LINE
  5
27E9
330
26E8
100
AcDbEntity
  8
画層1
 62
     0
100
AcDbLine
 10
-507.0652295960735
 20
375.2238099646804
 30
0.0
 11
-644.0652295960735
 21
375.2238099646804
 31
0.0
  0
INSERT
  5
27EA
330
26E8
100
AcDbEntity
  8
画層1
 62
     0
100
AcDbBlockReference
  2
_OPEN30
 10
-505.5652295960735
 20
375.2238099646804
 30
0.0
 41
1.5
 42
1.5
 43
1.5
  0
INSERT
  5
27EB
330
26E8
100
AcDbEntity
  8
画層1
 62
     0
100
AcDbBlockReference
  2
_OPEN30
 10
-645.5652295960735
 20
375.2238099646804
 30
0.0
 41
1.5
 42
1.5
 43
1.5
 50
180.0
  0
MTEXT
  5
27EC
330
26E8
100
AcDbEntity
  8
画層1
 62
     0
100
AcDbMText
 10
-575.5652295960735
 20
377.4738099646804
 30
0.0
 40
2.5
 41
0.0
 71
     5
 72
     1
  1
\A1;140
 73
     1
 44
1.0
  0
POINT
  5
27ED
330
26E8
100
AcDbEntity
  8
DEFPOINTS
 62
     0
100
AcDbPoint
 10
-505.5652295960735
 20
350.9587767371689
 30
0.0
  0
POINT
  5
27EE
330
26E8
100
AcDbEntity
  8
DEFPOINTS
 62
     0
100
AcDbPoint
 10
-645.5652295960735
 20
350.9587767371689
 30
0.0
  0
POINT
  5
27EF
330
26E8
100
AcDbEntity
  8
DEFPOINTS
 62
     0
100
AcDbPoint
 10
-645.5652295960735
 20
375.2238099646804
 30
0.0
  0
ENDBLK
  5
26F3
330
26E8
100
AcDbEntity
  8
0
 62
     1
370
    20
100
AcDbBlockEnd
  0
BLOCK
  5
26FF
330
26F5
100
AcDbEntity
  8
0
 62
     1
370
    20
100
AcDbBlockBegin
  2
*D5
 70
     1
 10
0.0
 20
0.0
 30
0.0
  3
*D5
  1

  0
LINE
  5
27F0
330
26F5
100
AcDbEntity
  8
画層1
 62
     0
100
AcDbLine
 10
-471.0652295960735
 20
314.5887767371689
 30
0.0
 11
-471.0652295960735
 21
383.5985421215659
 31
0.0
  0
LINE
  5
27F1
330
26F5
100
AcDbEntity
  8
画層1
 62
     0
100
AcDbLine
 10
-680.0652295960735
 20
314.5887767371689
 30
0.0
 11
-680.0652295960735
 21
383.5985421215659
 31
0.0
  0
LINE
  5
27F2
330
26F5
100
AcDbEntity
  8
画層1
 62
     0
100
AcDbLine
 10
-472.5652295960735
 20
382.3485421215659
 30
0.0
 11
-678.5652295960735
 21
382.3485421215659
 31
0.0
  0
INSERT
  5
27F3
330
26F5
100
AcDbEntity
  8
画層1
 62
     0
100
AcDbBlockReference
  2
_OPEN30
 10
-471.0652295960735
 20
382.3485421215659
 30
0.0
 41
1.5
 42
1.5
 43
1.5
  0
INSERT
  5
27F4
330
26F5
100
AcDbEntity
  8
画層1
 62
     0
100
AcDbBlockReference
  2
_OPEN30
 10
-680.0652295960735
 20
382.3485421215659
 30
0.0
 41
1.5
 42
1.5
 43
1.5
 50
180.0
  0
MTEXT
  5
27F5
330
26F5
100
AcDbEntity
  8
画層1
 62
     0
100
AcDbMText
 10
-575.5652295960735
 20
384.5985421215659
 30
0.0
 40
2.5
 41
0.0
 71
     5
 72
     1
  1
\A1;209
 73
     1
 44
1.0
  0
POINT
  5
27F6
330
26F5
100
AcDbEntity
  8
DEFPOINTS
 62
     0
100
AcDbPoint
 10
-471.0652295960735
 20
313.9587767371689
 30
0.0
  0
POINT
  5
27F7
330
26F5
100
AcDbEntity
  8
DEFPOINTS
 62
     0
100
AcDbPoint
 10
-680.0652295960735
 20
313.9587767371689
 30
0.0
  0
POINT
  5
27F8
330
26F5
100
AcDbEntity
  8
DEFPOINTS
 62
     0
100
AcDbPoint
 10
-680.0652295960735
 20
382.3485421215659
 30
0.0
  0
ENDBLK
  5
2700
330
26F5
100
AcDbEntity
  8
0
 62
     1
370
    20
100
AcDbBlockEnd
  0
BLOCK
  5
270D
330
2703
100
AcDbEntity
  8
0
 62
     1
370
    20
100
AcDbBlockBegin
  2
*D6
 70
     1
 10
0.0
 20
0.0
 30
0.0
  3
*D6
  1

  0
LINE
  5
27F9
330
2703
100
AcDbEntity
  8
画層1
 62
     0
100
AcDbLine
 10
-475.4352295960735
 20
126.958776737169
 30
0.0
 11
-455.5432266585013
 21
126.958776737169
 31
0.0
  0
LINE
  5
27FA
330
2703
100
AcDbEntity
  8
画層1
 62
     0
100
AcDbLine
 10
-504.9352295960735
 20
350.9587767371689
 30
0.0
 11
-455.5432266585012
 21
350.9587767371689
 31
0.0
  0
LINE
  5
27FB
330
2703
100
AcDbEntity
  8
画層1
 62
     0
100
AcDbLine
 10
-456.7932266585012
 20
128.458776737169
 30
0.0
 11
-456.7932266585012
 21
349.4587767371689
 31
0.0
  0
INSERT
  5
27FC
330
2703
100
AcDbEntity
  8
画層1
 62
     0
100
AcDbBlockReference
  2
_OPEN30
 10
-456.7932266585012
 20
126.958776737169
 30
0.0
 41
1.5
 42
1.5
 43
1.5
 50
270.0
  0
INSERT
  5
27FD
330
2703
100
AcDbEntity
  8
画層1
 62
     0
100
AcDbBlockReference
  2
_OPEN30
 10
-456.7932266585012
 20
350.9587767371689
 30
0.0
 41
1.5
 42
1.5
 43
1.5
 50
90.0
  0
MTEXT
  5
27FE
330
2703
100
AcDbEntity
  8
画層1
 62
     0
100
AcDbMText
 10
-459.0432266585012
 20
238.9587767371689
 30
0.0
 40
2.5
 41
0.0
 71
     5
 72
     1
  1
\A1;224
 11
0.0000000000000001
 21
1.0
 31
0.0
 73
     1
 44
1.0
  0
POINT
  5
27FF
330
2703
100
AcDbEntity
  8
DEFPOINTS
 62
     0
100
AcDbPoint
 10
-476.0652295960735
 20
126.958776737169
 30
0.0
  0
POINT
  5
2800
330
2703
100
AcDbEntity
  8
DEFPOINTS
 62
     0
100
AcDbPoint
 10
-505.5652295960735
 20
350.9587767371689
 30
0.0
  0
POINT
  5
2801
330
2703
100
AcDbEntity
  8
DEFPOINTS
 62
     0
100
AcDbPoint
 10
-456.7932266585012
 20
350.9587767371689
 30
0.0
  0
ENDBLK
  5
270E
330
2703
100
AcDbEntity
  8
0
 62
     1
370
    20
100
AcDbBlockEnd
  0
BLOCK
  5
271A
330
2710
100
AcDbEntity
  8
0
 62
     1
370
    20
100
AcDbBlockBegin
  2
*D7
 70
     1
 10
0.0
 20
0.0
 30
0.0
  3
*D7
  1

  0
LINE
  5
2802
330
2710
100
AcDbEntity
  8
画層1
 62
     0
100
AcDbLine
 10
-476.8352295960735
 20
360.958776737169
 30
0.0
 11
-445.8573210725598
 21
360.958776737169
 31
0.0
  0
LINE
  5
2803
330
2710
100
AcDbEntity
  8
画層1
 62
     0
100
AcDbLine
 10
-476.8352295960735
 20
116.958776737169
 30
0.0
 11
-445.8573210725599
 21
116.958776737169
 31
0.0
  0
LINE
  5
2804
330
2710
100
AcDbEntity
  8
画層1
 62
     0
100
AcDbLine
 10
-447.1073210725598
 20
359.4587767371689
 30
0.0
 11
-447.1073210725599
 21
118.458776737169
 31
0.0
  0
INSERT
  5
2805
330
2710
100
AcDbEntity
  8
画層1
 62
     0
100
AcDbBlockReference
  2
_OPEN30
 10
-447.1073210725598
 20
360.958776737169
 30
0.0
 41
1.5
 42
1.5
 43
1.5
 50
90.0
  0
INSERT
  5
2806
330
2710
100
AcDbEntity
  8
画層1
 62
     0
100
AcDbBlockReference
  2
_OPEN30
 10
-447.1073210725599
 20
116.958776737169
 30
0.0
 41
1.5
 42
1.5
 43
1.5
 50
270.0
  0
MTEXT
  5
2807
330
2710
100
AcDbEntity
  8
画層1
 62
     0
100
AcDbMText
 10
-449.3573210725599
 20
238.9587767371689
 30
0.0
 40
2.5
 41
0.0
 71
     5
 72
     1
  1
\A1;244
 11
0.0000000000000001
 21
1.0
 31
0.0
 73
     1
 44
1.0
  0
POINT
  5
2808
330
2710
100
AcDbEntity
  8
DEFPOINTS
 62
     0
100
AcDbPoint
 10
-477.4652295960735
 20
360.958776737169
 30
0.0
  0
POINT
  5
2809
330
2710
100
AcDbEntity
  8
DEFPOINTS
 62
     0
100
AcDbPoint
 10
-477.4652295960735
 20
116.958776737169
 30
0.0
  0
POINT
  5
280A
330
2710
100
AcDbEntity
  8
DEFPOINTS
 62
     0
100
AcDbPoint
 10
-447.1073210725599
 20
116.958776737169
 30
0.0
  0
ENDBLK
  5
271B
330
2710
100
AcDbEntity
  8
0
 62
     1
370
    20
100
AcDbBlockEnd
  0
BLOCK
  5
2727
330
271D
100
AcDbEntity
  8
0
 62
     1
370
    20
100
AcDbBlockBegin
  2
*D8
 70
     1
 10
0.0
 20
0.0
 30
0.0
  3
*D8
  1

  0
LINE
  5
280B
330
271D
100
AcDbEntity
  8
画層1
 62
     0
100
AcDbLine
 10
-214.745236816434
 20
116.3287767371689
 30
0.0
 11
-214.745236816434
 21
105.9664517653895
 31
0.0
  0
LINE
  5
280C
330
271D
100
AcDbEntity
  8
画層1
 62
     0
100
AcDbLine
 10
-385.2452368164339
 20
117.328776737169
 30
0.0
 11
-385.2452368164339
 21
105.9664517653895
 31
0.0
  0
LINE
  5
280D
330
271D
100
AcDbEntity
  8
画層1
 62
     0
100
AcDbLine
 10
-216.245236816434
 20
107.2164517653895
 30
0.0
 11
-383.7452368164339
 21
107.2164517653895
 31
0.0
  0
INSERT
  5
280E
330
271D
100
AcDbEntity
  8
画層1
 62
     0
100
AcDbBlockReference
  2
_OPEN30
 10
-214.745236816434
 20
107.2164517653895
 30
0.0
 41
1.5
 42
1.5
 43
1.5
  0
INSERT
  5
280F
330
271D
100
AcDbEntity
  8
画層1
 62
     0
100
AcDbBlockReference
  2
_OPEN30
 10
-385.2452368164339
 20
107.2164517653895
 30
0.0
 41
1.5
 42
1.5
 43
1.5
 50
180.0
  0
MTEXT
  5
2810
330
271D
100
AcDbEntity
  8
画層1
 62
     0
100
AcDbMText
 10
-299.995236816434
 20
109.4664517653896
 30
0.0
 40
2.5
 41
0.0
 71
     5
 72
     1
  1
\A1;171
 73
     1
 44
1.0
  0
POINT
  5
2811
330
271D
100
AcDbEntity
  8
DEFPOINTS
 62
     0
100
AcDbPoint
 10
-214.745236816434
 20
116.9587767371689
 30
0.0
  0
POINT
  5
2812
330
271D
100
AcDbEntity
  8
DEFPOINTS
 62
     0
100
AcDbPoint
 10
-385.2452368164339
 20
117.958776737169
 30
0.0
  0
POINT
  5
2813
330
271D
100
AcDbEntity
  8
DEFPOINTS
 62
     0
100
AcDbPoint
 10
-385.2452368164339
 20
107.2164517653895
 30
0.0
  0
ENDBLK
  5
2728
330
271D
100
AcDbEntity
  8
0
 62
     1
370
    20
100
AcDbBlockEnd
  0
BLOCK
  5
2734
330
272A
100
AcDbEntity
  8
0
 62
     1
370
    20
100
AcDbBlockBegin
  2
*D9
 70
     1
 10
0.0
 20
0.0
 30
0.0
  3
*D9
  1

  0
LINE
  5
2814
330
272A
100
AcDbEntity
  8
画層1
 62
     0
100
AcDbLine
 10
-214.745236816434
 20
361.588776737169
 30
0.0
 11
-214.745236816434
 21
368.0464574901541
 31
0.0
  0
LINE
  5
2815
330
272A
100
AcDbEntity
  8
画層1
 62
     0
100
AcDbLine
 10
-386.745236816434
 20
288.5887768061802
 30
0.0
 11
-386.745236816434
 21
368.0464574901541
 31
0.0
  0
LINE
  5
2816
330
272A
100
AcDbEntity
  8
画層1
 62
     0
100
AcDbLine
 10
-216.245236816434
 20
366.7964574901541
 30
0.0
 11
-385.245236816434
 21
366.7964574901541
 31
0.0
  0
INSERT
  5
2817
330
272A
100
AcDbEntity
  8
画層1
 62
     0
100
AcDbBlockReference
  2
_OPEN30
 10
-214.745236816434
 20
366.7964574901541
 30
0.0
 41
1.5
 42
1.5
 43
1.5
  0
INSERT
  5
2818
330
272A
100
AcDbEntity
  8
画層1
 62
     0
100
AcDbBlockReference
  2
_OPEN30
 10
-386.745236816434
 20
366.7964574901541
 30
0.0
 41
1.5
 42
1.5
 43
1.5
 50
180.0
  0
MTEXT
  5
2819
330
272A
100
AcDbEntity
  8
画層1
 62
     0
100
AcDbMText
 10
-300.745236816434
 20
369.0464574901541
 30
0.0
 40
2.5
 41
0.0
 71
     5
 72
     1
  1
\A1;172
 73
     1
 44
1.0
  0
POINT
  5
281A
330
272A
100
AcDbEntity
  8
DEFPOINTS
 62
     0
100
AcDbPoint
 10
-214.745236816434
 20
360.958776737169
 30
0.0
  0
POINT
  5
281B
330
272A
100
AcDbEntity
  8
DEFPOINTS
 62
     0
100
AcDbPoint
 10
-386.745236816434
 20
287.9587768061802
 30
0.0
  0
POINT
  5
281C
330
272A
100
AcDbEntity
  8
DEFPOINTS
 62
     0
100
AcDbPoint
 10
-386.745236816434
 20
366.7964574901541
 30
0.0
  0
ENDBLK
  5
2735
330
272A
100
AcDbEntity
  8
0
 62
     1
370
    20
100
AcDbBlockEnd
  0
BLOCK
  5
2741
330
2737
100
AcDbEntity
  8
0
 62
     1
370
    20
100
AcDbBlockBegin
  2
*D10
 70
     1
 10
0.0
 20
0.0
 30
0.0
  3
*D10
  1

  0
LINE
  5
281D
330
2737
100
AcDbEntity
  8
画層1
 62
     0
100
AcDbLine
 10
-214.745236816434
 20
368.6764574901541
 30
0.0
 11
-214.745236816434
 21
378.2210344325758
 31
0.0
  0
LINE
  5
281E
330
2737
100
AcDbEntity
  8
画層1
 62
     0
100
AcDbLine
 10
-409.745236816434
 20
336.088776737169
 30
0.0
 11
-409.745236816434
 21
378.2210344325758
 31
0.0
  0
LINE
  5
281F
330
2737
100
AcDbEntity
  8
画層1
 62
     0
100
AcDbLine
 10
-216.245236816434
 20
376.9710344325758
 30
0.0
 11
-408.245236816434
 21
376.9710344325758
 31
0.0
  0
INSERT
  5
2820
330
2737
100
AcDbEntity
  8
画層1
 62
     0
100
AcDbBlockReference
  2
_OPEN30
 10
-214.745236816434
 20
376.9710344325758
 30
0.0
 41
1.5
 42
1.5
 43
1.5
  0
INSERT
  5
2821
330
2737
100
AcDbEntity
  8
画層1
 62
     0
100
AcDbBlockReference
  2
_OPEN30
 10
-409.745236816434
 20
376.9710344325758
 30
0.0
 41
1.5
 42
1.5
 43
1.5
 50
180.0
  0
MTEXT
  5
2822
330
2737
100
AcDbEntity
  8
画層1
 62
     0
100
AcDbMText
 10
-312.245236816434
 20
379.2210344325758
 30
0.0
 40
2.5
 41
0.0
 71
     5
 72
     1
  1
\A1;195
 73
     1
 44
1.0
  0
POINT
  5
2823
330
2737
100
AcDbEntity
  8
DEFPOINTS
 62
     0
100
AcDbPoint
 10
-214.745236816434
 20
368.0464574901541
 30
0.0
  0
POINT
  5
2824
330
2737
100
AcDbEntity
  8
DEFPOINTS
 62
     0
100
AcDbPoint
 10
-409.745236816434
 20
335.458776737169
 30
0.0
  0
POINT
  5
2825
330
2737
100
AcDbEntity
  8
DEFPOINTS
 62
     0
100
AcDbPoint
 10
-409.745236816434
 20
376.9710344325758
 30
0.0
  0
ENDBLK
  5
2742
330
2737
100
AcDbEntity
  8
0
 62
     1
370
    20
100
AcDbBlockEnd
  0
ENDSEC
  0
SECTION
  2
ENTITIES
  0
LINE
  5
B81
330
2
100
AcDbEntity
  8
画層1
  6
CENTER
 62
     0
370
    20
100
AcDbLine
 10
-683.6652295960735
 20
238.9587767371689
 30
0.0
 11
-467.4652295960735
 21
238.9587767371689
 31
0.0
  0
LINE
  5
B84
330
2
100
AcDbEntity
  8
画層1
  6
CENTER
 62
     0
370
    20
100
AcDbLine
 10
-575.5652295960735
 20
365.9587767371689
 30
0.0
 11
-575.5652295960735
 21
111.9587767371689
 31
0.0
  0
LINE
  5
1FC3
330
2
100
AcDbEntity
  8
画層1
  6
CENTER
 62
     0
370
    20
100
AcDbLine
 10
-420.945236816434
 20
238.9587767371689
 30
0.0
 11
-204.745236816434
 21
238.9587767371689
 31
0.0
  0
LINE
  5
1FC5
330
2
100
AcDbEntity
  8
画層1
370
    20
100
AcDbLine
 10
-673.6652295960736
 20
117.958776737169
 30
0.0
 11
-673.6652295960736
 21
116.958776737169
 31
0.0
  0
LINE
  5
1FC6
330
2
100
AcDbEntity
  8
画層1
370
    20
100
AcDbLine
 10
-477.4652295960735
 20
117.958776737169
 30
0.0
 11
-477.4652295960735
 21
116.958776737169
 31
0.0
  0
LINE
  5
1FC7
330
2
100
AcDbEntity
  8
画層1
370
    20
100
AcDbLine
 10
-672.0652295960735
 20
117.958776737169
 30
0.0
 11
-672.0652295960735
 21
116.958776737169
 31
0.0
  0
LINE
  5
1FC9
330
2
100
AcDbEntity
  8
画層1
370
    20
100
AcDbLine
 10
-479.0652295960735
 20
117.958776737169
 30
0.0
 11
-479.0652295960735
 21
116.958776737169
 31
0.0
  0
LINE
  5
1FCA
330
2
100
AcDbEntity
  8
画層1
370
    20
100
AcDbLine
 10
-673.6652295960736
 20
360.958776737169
 30
0.0
 11
-477.4652295960735
 21
360.958776737169
 31
0.0
  0
LINE
  5
1FD1
330
2
100
AcDbEntity
  8
画層1
370
    20
100
AcDbLine
 10
-650.0652295960735
 20
117.958776737169
 30
0.0
 11
-650.0652295960735
 21
116.958776737169
 31
0.0
  0
LINE
  5
1FD2
330
2
100
AcDbEntity
  8
画層1
370
    20
100
AcDbLine
 10
-641.0652295960735
 20
117.958776737169
 30
0.0
 11
-641.0652295960735
 21
116.958776737169
 31
0.0
  0
LINE
  5
1FD4
330
2
100
AcDbEntity
  8
画層1
370
    20
100
AcDbLine
 10
-501.0652295960735
 20
117.958776737169
 30
0.0
 11
-501.0652295960735
 21
116.958776737169
 31
0.0
  0
LINE
  5
1FD5
330
2
100
AcDbEntity
  8
画層1
370
    20
100
AcDbLine
 10
-510.0652295960735
 20
117.958776737169
 30
0.0
 11
-510.0652295960735
 21
116.958776737169
 31
0.0
  0
LINE
  5
1FD6
330
2
100
AcDbEntity
  8
画層1
370
    20
100
AcDbLine
 10
-650.0652295960735
 20
116.958776737169
 30
0.0
 11
-673.6652295960736
 21
116.958776737169
 31
0.0
  0
LINE
  5
1FD7
330
2
100
AcDbEntity
  8
画層1
370
    20
100
AcDbLine
 10
-641.0652295960735
 20
116.958776737169
 30
0.0
 11
-510.0652295960735
 21
116.958776737169
 31
0.0
  0
LINE
  5
1FD8
330
2
100
AcDbEntity
  8
画層1
370
    20
100
AcDbLine
 10
-501.0652295960735
 20
116.958776737169
 30
0.0
 11
-477.4652295960735
 21
116.958776737169
 31
0.0
  0
CIRCLE
  5
1FDB
330
2
100
AcDbEntity
  8
画層1
370
    20
100
AcDbCircle
 10
-645.5652295960735
 20
350.9587767371689
 30
0.0
 40
4.5
  0
CIRCLE
  5
1FDC
330
2
100
AcDbEntity
  8
画層1
370
    20
100
AcDbCircle
 10
-505.5652295960735
 20
350.9587767371689
 30
0.0
 40
4.5
  0
LINE
  5
1FE2
330
2
100
AcDbEntity
  8
画層1
370
    20
100
AcDbLine
 10
-675.0652295960735
 20
344.958776737169
 30
0.0
 11
-476.0652295960735
 21
344.958776737169
 31
0.0
  0
LINE
  5
1FE3
330
2
100
AcDbEntity
  8
画層1
370
    20
100
AcDbLine
 10
-675.0652295960735
 20
344.958776737169
 30
0.0
 11
-675.0652295960735
 21
117.958776737169
 31
0.0
  0
LINE
  5
1FE4
330
2
100
AcDbEntity
  8
画層1
370
    20
100
AcDbLine
 10
-476.0652295960735
 20
117.958776737169
 30
0.0
 11
-476.0652295960735
 21
344.958776737169
 31
0.0
  0
LINE
  5
2017
330
2
100
AcDbEntity
  8
画層1
370
    20
100
AcDbLine
 10
-673.6652295960736
 20
360.958776737169
 30
0.0
 11
-673.6652295960736
 21
344.958776737169
 31
0.0
  0
LINE
  5
2018
330
2
100
AcDbEntity
  8
画層1
370
    20
100
AcDbLine
 10
-672.0652295960735
 20
360.958776737169
 30
0.0
 11
-672.0652295960735
 21
344.958776737169
 31
0.0
  0
LINE
  5
201B
330
2
100
AcDbEntity
  8
画層1
370
    20
100
AcDbLine
 10
-477.4652295960735
 20
360.958776737169
 30
0.0
 11
-477.4652295960735
 21
344.958776737169
 31
0.0
  0
LINE
  5
201C
330
2
100
AcDbEntity
  8
画層1
370
    20
100
AcDbLine
 10
-479.0652295960735
 20
360.958776737169
 30
0.0
 11
-479.0652295960735
 21
344.958776737169
 31
0.0
  0
CIRCLE
  5
2057
330
2
100
AcDbEntity
  8
画層1
370
    20
100
AcDbCircle
 10
-506.5652295960735
 20
339.958776737169
 30
0.0
 40
3.0
  0
LINE
  5
2058
330
2
100
AcDbEntity
  8
画層1
370
    20
100
AcDbLine
 10
-506.0670997102824
 20
338.3854908631551
 30
0.0
 11
-506.0670997102824
 21
338.8854908631551
 31
0.0
  0
LINE
  5
2059
330
2
100
AcDbEntity
  8
画層1
370
    20
100
AcDbLine
 10
-507.0670997102824
 20
338.8854908631551
 30
0.0
 11
-507.0670997102824
 21
338.3854908631551
 31
0.0
  0
LINE
  5
205A
330
2
100
AcDbEntity
  8
画層1
370
    20
100
AcDbLine
 10
-507.0670997102824
 20
338.3854908631551
 30
0.0
 11
-506.0670997102824
 21
338.3854908631551
 31
0.0
  0
LINE
  5
205B
330
2
100
AcDbEntity
  8
画層1
370
    20
100
AcDbLine
 10
-508.0670997102823
 20
339.3854908631551
 30
0.0
 11
-507.5670997102823
 21
339.3854908631551
 31
0.0
  0
LINE
  5
205C
330
2
100
AcDbEntity
  8
画層1
370
    20
100
AcDbLine
 10
-508.0670997102823
 20
340.3854908631551
 30
0.0
 11
-508.0670997102823
 21
339.3854908631551
 31
0.0
  0
LINE
  5
205D
330
2
100
AcDbEntity
  8
画層1
370
    20
100
AcDbLine
 10
-507.5670997102823
 20
340.3854908631551
 30
0.0
 11
-508.0670997102823
 21
340.3854908631551
 31
0.0
  0
LINE
  5
205E
330
2
100
AcDbEntity
  8
画層1
370
    20
100
AcDbLine
 10
-505.0670997102823
 20
340.3854908631551
 30
0.0
 11
-505.5670997102823
 21
340.3854908631551
 31
0.0
  0
LINE
  5
205F
330
2
100
AcDbEntity
  8
画層1
370
    20
100
AcDbLine
 10
-505.5670997102823
 20
339.3854908631551
 30
0.0
 11
-505.0670997102823
 21
339.3854908631551
 31
0.0
  0
LINE
  5
2060
330
2
100
AcDbEntity
  8
画層1
370
    20
100
AcDbLine
 10
-506.0670997102824
 20
341.3854908631551
 30
0.0
 11
-507.0670997102824
 21
341.3854908631551
 31
0.0
  0
LINE
  5
2061
330
2
100
AcDbEntity
  8
画層1
370
    20
100
AcDbLine
 10
-506.0670997102824
 20
340.8854908631551
 30
0.0
 11
-506.0670997102824
 21
341.3854908631551
 31
0.0
  0
LINE
  5
2062
330
2
100
AcDbEntity
  8
画層1
370
    20
100
AcDbLine
 10
-507.0670997102824
 20
341.3854908631551
 30
0.0
 11
-507.0670997102824
 21
340.8854908631551
 31
0.0
  0
LINE
  5
2063
330
2
100
AcDbEntity
  8
画層1
370
    20
100
AcDbLine
 10
-505.0670997102823
 20
339.3854908631551
 30
0.0
 11
-505.0670997102823
 21
340.3854908631551
 31
0.0
  0
CIRCLE
  5
2064
330
2
100
AcDbEntity
  8
画層1
370
    20
100
AcDbCircle
 10
-506.5652295960735
 20
339.958776737169
 30
0.0
 40
4.0
  0
LINE
  5
2065
330
2
100
AcDbEntity
  8
画層1
370
    20
100
AcDbLine
 10
-620.0670997102823
 20
339.3854908631551
 30
0.0
 11
-620.0670997102823
 21
340.3854908631551
 31
0.0
  0
LINE
  5
2066
330
2
100
AcDbEntity
  8
画層1
370
    20
100
AcDbLine
 10
-622.0670997102823
 20
341.3854908631551
 30
0.0
 11
-622.0670997102823
 21
340.8854908631551
 31
0.0
  0
LINE
  5
2067
330
2
100
AcDbEntity
  8
画層1
370
    20
100
AcDbLine
 10
-621.0670997102823
 20
340.8854908631551
 30
0.0
 11
-621.0670997102823
 21
341.3854908631551
 31
0.0
  0
LINE
  5
2068
330
2
100
AcDbEntity
  8
画層1
370
    20
100
AcDbLine
 10
-621.0670997102823
 20
341.3854908631551
 30
0.0
 11
-622.0670997102823
 21
341.3854908631551
 31
0.0
  0
LINE
  5
2069
330
2
100
AcDbEntity
  8
画層1
370
    20
100
AcDbLine
 10
-620.5670997102823
 20
339.3854908631551
 30
0.0
 11
-620.0670997102823
 21
339.3854908631551
 31
0.0
  0
LINE
  5
206A
330
2
100
AcDbEntity
  8
画層1
370
    20
100
AcDbLine
 10
-620.0670997102823
 20
340.3854908631551
 30
0.0
 11
-620.5670997102823
 21
340.3854908631551
 31
0.0
  0
LINE
  5
206B
330
2
100
AcDbEntity
  8
画層1
370
    20
100
AcDbLine
 10
-622.5670997102824
 20
340.3854908631551
 30
0.0
 11
-623.0670997102824
 21
340.3854908631551
 31
0.0
  0
LINE
  5
206C
330
2
100
AcDbEntity
  8
画層1
370
    20
100
AcDbLine
 10
-623.0670997102824
 20
340.3854908631551
 30
0.0
 11
-623.0670997102824
 21
339.3854908631551
 31
0.0
  0
LINE
  5
206D
330
2
100
AcDbEntity
  8
画層1
370
    20
100
AcDbLine
 10
-623.0670997102824
 20
339.3854908631551
 30
0.0
 11
-622.5670997102824
 21
339.3854908631551
 31
0.0
  0
LINE
  5
206E
330
2
100
AcDbEntity
  8
画層1
370
    20
100
AcDbLine
 10
-622.0670997102823
 20
338.3854908631551
 30
0.0
 11
-621.0670997102823
 21
338.3854908631551
 31
0.0
  0
LINE
  5
206F
330
2
100
AcDbEntity
  8
画層1
370
    20
100
AcDbLine
 10
-622.0670997102823
 20
338.8854908631551
 30
0.0
 11
-622.0670997102823
 21
338.3854908631551
 31
0.0
  0
LINE
  5
2070
330
2
100
AcDbEntity
  8
画層1
370
    20
100
AcDbLine
 10
-621.0670997102823
 20
338.3854908631551
 30
0.0
 11
-621.0670997102823
 21
338.8854908631551
 31
0.0
  0
CIRCLE
  5
2071
330
2
100
AcDbEntity
  8
画層1
370
    20
100
AcDbCircle
 10
-621.5652295960735
 20
339.958776737169
 30
0.0
 40
4.0
  0
CIRCLE
  5
2072
330
2
100
AcDbEntity
  8
画層1
370
    20
100
AcDbCircle
 10
-621.5652295960735
 20
339.958776737169
 30
0.0
 40
3.0
  0
CIRCLE
  5
2073
330
2
100
AcDbEntity
  8
画層1
370
    20
100
AcDbCircle
 10
-621.5652295960735
 20
167.958776737169
 30
0.0
 40
3.0
  0
CIRCLE
  5
2074
330
2
100
AcDbEntity
  8
画層1
370
    20
100
AcDbCircle
 10
-621.5652295960735
 20
167.958776737169
 30
0.0
 40
4.0
  0
LINE
  5
2075
330
2
100
AcDbEntity
  8
画層1
370
    20
100
AcDbLine
 10
-621.0670997102823
 20
166.3854908631551
 30
0.0
 11
-621.0670997102823
 21
166.8854908631551
 31
0.0
  0
LINE
  5
2076
330
2
100
AcDbEntity
  8
画層1
370
    20
100
AcDbLine
 10
-622.0670997102823
 20
166.8854908631551
 30
0.0
 11
-622.0670997102823
 21
166.3854908631551
 31
0.0
  0
LINE
  5
2077
330
2
100
AcDbEntity
  8
画層1
370
    20
100
AcDbLine
 10
-622.0670997102823
 20
166.3854908631551
 30
0.0
 11
-621.0670997102823
 21
166.3854908631551
 31
0.0
  0
LINE
  5
2078
330
2
100
AcDbEntity
  8
画層1
370
    20
100
AcDbLine
 10
-623.0670997102824
 20
167.3854908631551
 30
0.0
 11
-622.5670997102824
 21
167.3854908631551
 31
0.0
  0
LINE
  5
2079
330
2
100
AcDbEntity
  8
画層1
370
    20
100
AcDbLine
 10
-623.0670997102824
 20
168.3854908631551
 30
0.0
 11
-623.0670997102824
 21
167.3854908631551
 31
0.0
  0
LINE
  5
207A
330
2
100
AcDbEntity
  8
画層1
370
    20
100
AcDbLine
 10
-622.5670997102824
 20
168.3854908631551
 30
0.0
 11
-623.0670997102824
 21
168.3854908631551
 31
0.0
  0
LINE
  5
207B
330
2
100
AcDbEntity
  8
画層1
370
    20
100
AcDbLine
 10
-620.0670997102823
 20
168.3854908631551
 30
0.0
 11
-620.5670997102823
 21
168.3854908631551
 31
0.0
  0
LINE
  5
207C
330
2
100
AcDbEntity
  8
画層1
370
    20
100
AcDbLine
 10
-620.5670997102823
 20
167.3854908631551
 30
0.0
 11
-620.0670997102823
 21
167.3854908631551
 31
0.0
  0
LINE
  5
207D
330
2
100
AcDbEntity
  8
画層1
370
    20
100
AcDbLine
 10
-621.0670997102823
 20
169.3854908631551
 30
0.0
 11
-622.0670997102823
 21
169.3854908631551
 31
0.0
  0
LINE
  5
207E
330
2
100
AcDbEntity
  8
画層1
370
    20
100
AcDbLine
 10
-621.0670997102823
 20
168.8854908631551
 30
0.0
 11
-621.0670997102823
 21
169.3854908631551
 31
0.0
  0
LINE
  5
207F
330
2
100
AcDbEntity
  8
画層1
370
    20
100
AcDbLine
 10
-622.0670997102823
 20
169.3854908631551
 30
0.0
 11
-622.0670997102823
 21
168.8854908631551
 31
0.0
  0
LINE
  5
2080
330
2
100
AcDbEntity
  8
画層1
370
    20
100
AcDbLine
 10
-620.0670997102823
 20
167.3854908631551
 30
0.0
 11
-620.0670997102823
 21
168.3854908631551
 31
0.0
  0
CIRCLE
  5
2081
330
2
100
AcDbEntity
  8
画層1
370
    20
100
AcDbCircle
 10
-506.5652295960735
 20
167.958776737169
 30
0.0
 40
4.0
  0
CIRCLE
  5
2082
330
2
100
AcDbEntity
  8
画層1
370
    20
100
AcDbCircle
 10
-506.5652295960735
 20
167.958776737169
 30
0.0
 40
3.0
  0
LINE
  5
2083
330
2
100
AcDbEntity
  8
画層1
370
    20
100
AcDbLine
 10
-505.0670997102823
 20
167.3854908631551
 30
0.0
 11
-505.0670997102823
 21
168.3854908631551
 31
0.0
  0
LINE
  5
2084
330
2
100
AcDbEntity
  8
画層1
370
    20
100
AcDbLine
 10
-507.0670997102824
 20
169.3854908631551
 30
0.0
 11
-507.0670997102824
 21
168.8854908631551
 31
0.0
  0
LINE
  5
2085
330
2
100
AcDbEntity
  8
画層1
370
    20
100
AcDbLine
 10
-506.0670997102824
 20
168.8854908631551
 30
0.0
 11
-506.0670997102824
 21
169.3854908631551
 31
0.0
  0
LINE
  5
2086
330
2
100
AcDbEntity
  8
画層1
370
    20
100
AcDbLine
 10
-506.0670997102824
 20
169.3854908631551
 30
0.0
 11
-507.0670997102824
 21
169.3854908631551
 31
0.0
  0
LINE
  5
2087
330
2
100
AcDbEntity
  8
画層1
370
    20
100
AcDbLine
 10
-505.5670997102823
 20
167.3854908631551
 30
0.0
 11
-505.0670997102823
 21
167.3854908631551
 31
0.0
  0
LINE
  5
2088
330
2
100
AcDbEntity
  8
画層1
370
    20
100
AcDbLine
 10
-505.0670997102823
 20
168.3854908631551
 30
0.0
 11
-505.5670997102823
 21
168.3854908631551
 31
0.0
  0
LINE
  5
2089
330
2
100
AcDbEntity
  8
画層1
370
    20
100
AcDbLine
 10
-507.5670997102823
 20
168.3854908631551
 30
0.0
 11
-508.0670997102823
 21
168.3854908631551
 31
0.0
  0
LINE
  5
208A
330
2
100
AcDbEntity
  8
画層1
370
    20
100
AcDbLine
 10
-508.0670997102823
 20
168.3854908631551
 30
0.0
 11
-508.0670997102823
 21
167.3854908631551
 31
0.0
  0
LINE
  5
208B
330
2
100
AcDbEntity
  8
画層1
370
    20
100
AcDbLine
 10
-508.0670997102823
 20
167.3854908631551
 30
0.0
 11
-507.5670997102823
 21
167.3854908631551
 31
0.0
  0
LINE
  5
208C
330
2
100
AcDbEntity
  8
画層1
370
    20
100
AcDbLine
 10
-507.0670997102824
 20
166.3854908631551
 30
0.0
 11
-506.0670997102824
 21
166.3854908631551
 31
0.0
  0
LINE
  5
208D
330
2
100
AcDbEntity
  8
画層1
370
    20
100
AcDbLine
 10
-507.0670997102824
 20
166.8854908631551
 30
0.0
 11
-507.0670997102824
 21
166.3854908631551
 31
0.0
  0
LINE
  5
208E
330
2
100
AcDbEntity
  8
画層1
370
    20
100
AcDbLine
 10
-506.0670997102824
 20
166.3854908631551
 30
0.0
 11
-506.0670997102824
 21
166.8854908631551
 31
0.0
  0
LINE
  5
208F
330
2
100
AcDbEntity
  8
画層1
370
    20
100
AcDbLine
 10
-503.5652295960735
 20
163.958776737169
 30
0.0
 11
-624.5652295960735
 21
163.958776737169
 31
0.0
  0
LINE
  5
2090
330
2
100
AcDbEntity
  8
画層1
370
    20
100
AcDbLine
 10
-626.5652295960735
 20
172.458776737169
 30
0.0
 11
-501.5652295960735
 21
172.458776737169
 31
0.0
  0
LINE
  5
2091
330
2
100
AcDbEntity
  8
画層1
370
    20
100
AcDbLine
 10
-626.5652295960735
 20
165.958776737169
 30
0.0
 11
-626.5652295960735
 21
172.458776737169
 31
0.0
  0
LINE
  5
2092
330
2
100
AcDbEntity
  8
画層1
370
    20
100
AcDbLine
 10
-627.5652295960735
 20
333.958776737169
 30
0.0
 11
-627.5652295960735
 21
173.958776737169
 31
0.0
  0
LINE
  5
2093
330
2
100
AcDbEntity
  8
画層1
370
    20
100
AcDbLine
 10
-500.5652295960735
 20
173.958776737169
 30
0.0
 11
-500.5652295960735
 21
333.958776737169
 31
0.0
  0
LINE
  5
2094
330
2
100
AcDbEntity
  8
画層1
370
    20
100
AcDbLine
 10
-501.5652295960735
 20
172.458776737169
 30
0.0
 11
-501.5652295960735
 21
165.958776737169
 31
0.0
  0
LINE
  5
2095
330
2
100
AcDbEntity
  8
画層1
370
    20
100
AcDbLine
 10
-500.5652295960735
 20
173.958776737169
 30
0.0
 11
-501.5652295960735
 21
173.958776737169
 31
0.0
  0
LINE
  5
2096
330
2
100
AcDbEntity
  8
画層1
370
    20
100
AcDbLine
 10
-501.5652295960735
 20
173.958776737169
 30
0.0
 11
-501.5652295960735
 21
172.458776737169
 31
0.0
  0
LINE
  5
2097
330
2
100
AcDbEntity
  8
画層1
370
    20
100
AcDbLine
 10
-501.5652295960735
 20
335.458776737169
 30
0.0
 11
-501.5652295960735
 21
341.958776737169
 31
0.0
  0
LINE
  5
2098
330
2
100
AcDbEntity
  8
画層1
370
    20
100
AcDbLine
 10
-626.5652295960735
 20
335.458776737169
 30
0.0
 11
-501.5652295960735
 21
335.458776737169
 31
0.0
  0
LINE
  5
2099
330
2
100
AcDbEntity
  8
画層1
370
    20
100
AcDbLine
 10
-626.5652295960735
 20
335.458776737169
 30
0.0
 11
-501.5652295960735
 21
335.458776737169
 31
0.0
  0
LINE
  5
209A
330
2
100
AcDbEntity
  8
画層1
370
    20
100
AcDbLine
 10
-501.5652295960735
 20
335.458776737169
 30
0.0
 11
-501.5652295960735
 21
333.958776737169
 31
0.0
  0
LINE
  5
209B
330
2
100
AcDbEntity
  8
画層1
370
    20
100
AcDbLine
 10
-501.5652295960735
 20
333.958776737169
 30
0.0
 11
-500.5652295960735
 21
333.958776737169
 31
0.0
  0
ARC
  5
209C
330
2
100
AcDbEntity
  8
画層1
370
    20
100
AcDbCircle
 10
-503.5652295960735
 20
341.958776737169
 30
0.0
 40
2.0
100
AcDbArc
 50
0.0
 51
90.0
  0
LINE
  5
209D
330
2
100
AcDbEntity
  8
画層1
370
    20
100
AcDbLine
 10
-503.5652295960735
 20
343.958776737169
 30
0.0
 11
-624.5652295960735
 21
343.958776737169
 31
0.0
  0
LINE
  5
209E
330
2
100
AcDbEntity
  8
画層1
370
    20
100
AcDbLine
 10
-626.5652295960735
 20
335.458776737169
 30
0.0
 11
-626.5652295960735
 21
341.958776737169
 31
0.0
  0
ARC
  5
209F
330
2
100
AcDbEntity
  8
画層1
370
    20
100
AcDbCircle
 10
-624.5652295960735
 20
341.958776737169
 30
0.0
 40
2.0
100
AcDbArc
 50
90.00000000000003
 51
180.0
  0
LWPOLYLINE
  5
20A0
330
2
100
AcDbEntity
  8
画層1
370
    20
100
AcDbPolyline
 90
        8
 70
     1
 43
0.0
 10
-601.5652295960735
 20
212.458776737169
 10
-527.5652295960735
 20
212.458776737169
 42
0.4142135623730951
 10
-525.5652295960735
 20
214.458776737169
 10
-525.5652295960735
 20
329.458776737169
 42
0.4142135623730951
 10
-527.5652295960735
 20
331.458776737169
 10
-601.5652295960735
 20
331.458776737169
 42
0.4142135623730951
 10
-603.5652295960735
 20
329.458776737169
 10
-603.5652295960735
 20
214.458776737169
 42
0.4142135623730951
  0
LWPOLYLINE
  5
20A1
330
2
100
AcDbEntity
  8
画層1
370
    20
100
AcDbPolyline
 90
        4
 70
     1
 43
0.0
 10
-595.5652295960735
 20
176.458776737169
 10
-532.5652295960735
 20
176.458776737169
 10
-532.5652295960735
 20
211.458776737169
 10
-595.5652295960735
 20
211.458776737169
  0
ARC
  5
20A2
330
2
100
AcDbEntity
  8
画層1
370
    20
100
AcDbCircle
 10
-624.5652295960735
 20
165.958776737169
 30
0.0
 40
2.0
100
AcDbArc
 50
180.0
 51
270.0
  0
LINE
  5
20A3
330
2
100
AcDbEntity
  8
画層1
370
    20
100
AcDbLine
 10
-627.5652295960735
 20
173.958776737169
 30
0.0
 11
-626.5652295960735
 21
173.958776737169
 31
0.0
  0
LINE
  5
20A4
330
2
100
AcDbEntity
  8
画層1
370
    20
100
AcDbLine
 10
-626.5652295960735
 20
173.958776737169
 30
0.0
 11
-626.5652295960735
 21
172.458776737169
 31
0.0
  0
ARC
  5
20A5
330
2
100
AcDbEntity
  8
画層1
370
    20
100
AcDbCircle
 10
-503.5652295960735
 20
165.958776737169
 30
0.0
 40
2.0
100
AcDbArc
 50
270.0
 51
0.0
  0
LINE
  5
20A6
330
2
100
AcDbEntity
  8
画層1
370
    20
100
AcDbLine
 10
-626.5652295960735
 20
333.958776737169
 30
0.0
 11
-626.5652295960735
 21
335.458776737169
 31
0.0
  0
LINE
  5
20A7
330
2
100
AcDbEntity
  8
画層1
370
    20
100
AcDbLine
 10
-627.5652295960735
 20
333.958776737169
 30
0.0
 11
-626.5652295960735
 21
333.958776737169
 31
0.0
  0
ARC
  5
20A8
330
2
100
AcDbEntity
  8
画層1
370
    20
100
AcDbCircle
 10
-641.0652292295691
 20
233.9587767256673
 30
0.0
 40
2.0
100
AcDbArc
 50
359.9999999999967
 51
90.0
  0
ARC
  5
20A9
330
2
100
AcDbEntity
  8
画層1
370
    20
100
AcDbCircle
 10
-645.0652292295693
 20
233.9587767256672
 30
0.0
 40
2.0
100
AcDbArc
 50
89.99999999999349
 51
180.0000000000016
  0
LINE
  5
20AA
330
2
100
AcDbEntity
  8
画層1
370
    20
100
AcDbLine
 10
-648.5652292295692
 20
235.9587767256671
 30
0.0
 11
-648.5652292295692
 21
227.9587767256671
 31
0.0
  0
LINE
  5
20AB
330
2
100
AcDbEntity
  8
画層1
370
    20
100
AcDbLine
 10
-637.5652292295692
 20
235.9587767256671
 30
0.0
 11
-637.5652292295692
 21
227.9587767256671
 31
0.0
  0
LINE
  5
20AC
330
2
100
AcDbEntity
  8
画層1
370
    20
100
AcDbLine
 10
-650.5652295960735
 20
323.958776737169
 30
0.0
 11
-650.5652295960735
 21
173.958776737169
 31
0.0
  0
LINE
  5
20AD
330
2
100
AcDbEntity
  8
画層1
370
    20
100
AcDbLine
 10
-649.5652292295692
 20
285.9587767256671
 30
0.0
 11
-649.5652292295692
 21
187.9587767256671
 31
0.0
  0
LINE
  5
20AE
330
2
100
AcDbEntity
  8
画層1
370
    20
100
AcDbLine
 10
-636.5652292295692
 20
285.9587767256671
 30
0.0
 11
-636.5652292295692
 21
187.9587767256671
 31
0.0
  0
LWPOLYLINE
  5
20AF
330
2
100
AcDbEntity
  8
画層1
370
    20
100
AcDbPolyline
 90
        4
 70
     1
 43
0.0
 10
-649.5652292295692
 20
227.9587767256671
 10
-636.5652292295692
 20
227.9587767256671
 10
-636.5652292295692
 20
225.9587767256671
 10
-649.5652292295692
 20
225.9587767256671
  0
LWPOLYLINE
  5
20B0
330
2
100
AcDbEntity
  8
画層1
370
    20
100
AcDbPolyline
 90
        4
 70
     1
 43
0.0
 10
-649.5652292295692
 20
217.9587767256671
 10
-636.5652292295692
 20
217.9587767256671
 10
-636.5652292295692
 20
215.9587767256671
 10
-649.5652292295692
 20
215.9587767256671
  0
LWPOLYLINE
  5
20B1
330
2
100
AcDbEntity
  8
画層1
370
    20
100
AcDbPolyline
 90
        4
 70
     1
 43
0.0
 10
-649.5652292295692
 20
207.9587767256671
 10
-636.5652292295692
 20
207.9587767256671
 10
-636.5652292295692
 20
205.9587767256672
 10
-649.5652292295692
 20
205.9587767256672
  0
LWPOLYLINE
  5
20B2
330
2
100
AcDbEntity
  8
画層1
370
    20
100
AcDbPolyline
 90
        4
 70
     1
 43
0.0
 10
-649.5652292295692
 20
197.9587767256671
 10
-636.5652292295692
 20
197.9587767256671
 10
-636.5652292295692
 20
195.9587767256671
 10
-649.5652292295692
 20
195.9587767256671
  0
LWPOLYLINE
  5
20B3
330
2
100
AcDbEntity
  8
画層1
 62
     1
370
    20
100
AcDbPolyline
 90
        4
 70
     1
 43
0.0
 10
-649.5652295960735
 20
185.958776737169
 10
-636.5652295960735
 20
185.958776737169
 10
-636.5652295960735
 20
187.958776737169
 10
-649.5652295960735
 20
187.958776737169
  0
LWPOLYLINE
  5
20B4
330
2
100
AcDbEntity
  8
画層1
370
    20
100
AcDbPolyline
 90
        4
 70
     1
 43
0.0
 10
-649.5652292295692
 20
187.9587767256671
 10
-636.5652292295692
 20
187.9587767256671
 10
-636.5652292295692
 20
185.9587767256671
 10
-649.5652292295692
 20
185.9587767256671
  0
CIRCLE
  5
20B5
330
2
100
AcDbEntity
  8
画層1
370
    20
100
AcDbCircle
 10
-644.5652295960735
 20
179.958776737169
 30
0.0
 40
5.0
  0
LINE
  5
20B6
330
2
100
AcDbEntity
  8
画層1
370
    20
100
AcDbLine
 10
-646.0670997102823
 20
179.3854908631551
 30
0.0
 11
-645.0670997102823
 21
179.3854908631551
 31
0.0
  0
LINE
  5
20B7
330
2
100
AcDbEntity
  8
画層1
370
    20
100
AcDbLine
 10
-645.0670997102823
 20
180.3854908631551
 30
0.0
 11
-646.0670997102823
 21
180.3854908631551
 31
0.0
  0
LINE
  5
20B8
330
2
100
AcDbEntity
  8
画層1
370
    20
100
AcDbLine
 10
-646.0670997102823
 20
180.3854908631551
 30
0.0
 11
-646.0670997102823
 21
179.3854908631551
 31
0.0
  0
LINE
  5
20B9
330
2
100
AcDbEntity
  8
画層1
370
    20
100
AcDbLine
 10
-643.0670997102823
 20
180.3854908631551
 30
0.0
 11
-644.0670997102824
 21
180.3854908631551
 31
0.0
  0
LINE
  5
20BA
330
2
100
AcDbEntity
  8
画層1
370
    20
100
AcDbLine
 10
-644.0670997102824
 20
179.3854908631551
 30
0.0
 11
-643.0670997102823
 21
179.3854908631551
 31
0.0
  0
LINE
  5
20BB
330
2
100
AcDbEntity
  8
画層1
370
    20
100
AcDbLine
 10
-644.0670997102824
 20
181.3854908631551
 30
0.0
 11
-645.0670997102823
 21
181.3854908631551
 31
0.0
  0
LINE
  5
20BC
330
2
100
AcDbEntity
  8
画層1
370
    20
100
AcDbLine
 10
-644.0670997102824
 20
180.3854908631551
 30
0.0
 11
-644.0670997102824
 21
181.3854908631551
 31
0.0
  0
LINE
  5
20BD
330
2
100
AcDbEntity
  8
画層1
370
    20
100
AcDbLine
 10
-645.0670997102823
 20
181.3854908631551
 30
0.0
 11
-645.0670997102823
 21
180.3854908631551
 31
0.0
  0
LINE
  5
20BE
330
2
100
AcDbEntity
  8
画層1
370
    20
100
AcDbLine
 10
-643.0670997102823
 20
179.3854908631551
 30
0.0
 11
-643.0670997102823
 21
180.3854908631551
 31
0.0
  0
LINE
  5
20BF
330
2
100
AcDbEntity
  8
画層1
370
    20
100
AcDbLine
 10
-645.0670997102823
 20
178.3854908631551
 30
0.0
 11
-644.0670997102824
 21
178.3854908631551
 31
0.0
  0
CIRCLE
  5
20C0
330
2
100
AcDbEntity
  8
画層1
370
    20
100
AcDbCircle
 10
-644.5652295960735
 20
179.958776737169
 30
0.0
 40
3.0
  0
LINE
  5
20C1
330
2
100
AcDbEntity
  8
画層1
370
    20
100
AcDbLine
 10
-644.0670997102824
 20
178.3854908631551
 30
0.0
 11
-644.0670997102824
 21
179.3854908631551
 31
0.0
  0
LINE
  5
20C2
330
2
100
AcDbEntity
  8
画層1
370
    20
100
AcDbLine
 10
-645.0670997102823
 20
179.3854908631551
 30
0.0
 11
-645.0670997102823
 21
178.3854908631551
 31
0.0
  0
CIRCLE
  5
20C3
330
2
100
AcDbEntity
  8
画層1
370
    20
100
AcDbCircle
 10
-643.0652292295692
 20
211.9587767256671
 30
0.0
 40
3.0
  0
LINE
  5
20C4
330
2
100
AcDbEntity
  8
画層1
370
    20
100
AcDbLine
 10
-648.5652292295692
 20
215.9587767256671
 30
0.0
 11
-648.5652292295692
 21
207.9587767256671
 31
0.0
  0
LINE
  5
20C5
330
2
100
AcDbEntity
  8
画層1
370
    20
100
AcDbLine
 10
-637.5652292295692
 20
215.9587767256671
 30
0.0
 11
-637.5652292295692
 21
207.9587767256671
 31
0.0
  0
ARC
  5
20C6
330
2
100
AcDbEntity
  8
画層1
370
    20
100
AcDbCircle
 10
-641.0652292295694
 20
209.9587767256671
 30
0.0
 40
2.0
100
AcDbArc
 50
270.0
 51
0.0000000000016284
  0
ARC
  5
20C7
330
2
100
AcDbEntity
  8
画層1
370
    20
100
AcDbCircle
 10
-645.0652292295691
 20
209.958776725667
 30
0.0
 40
2.0
100
AcDbArc
 50
179.9999999999951
 51
269.9999999999934
  0
ARC
  5
20C8
330
2
100
AcDbEntity
  8
画層1
370
    20
100
AcDbCircle
 10
-641.0652292295691
 20
193.9587767256672
 30
0.0
 40
2.0
100
AcDbArc
 50
359.9999999999967
 51
90.0
  0
ARC
  5
20C9
330
2
100
AcDbEntity
  8
画層1
370
    20
100
AcDbCircle
 10
-645.0652292295693
 20
193.9587767256672
 30
0.0
 40
2.0
100
AcDbArc
 50
89.99999999999349
 51
180.0000000000016
  0
LINE
  5
20CA
330
2
100
AcDbEntity
  8
画層1
370
    20
100
AcDbLine
 10
-642.5652292295692
 20
193.9587767256671
 30
0.0
 11
-643.5652292295692
 21
193.9587767256671
 31
0.0
  0
LINE
  5
20CB
330
2
100
AcDbEntity
  8
画層1
370
    20
100
AcDbLine
 10
-645.0652292295692
 20
195.9587767256671
 30
0.0
 11
-641.0652292295692
 21
195.9587767256671
 31
0.0
  0
LINE
  5
20CC
330
2
100
AcDbEntity
  8
画層1
370
    20
100
AcDbLine
 10
-642.5652292295692
 20
191.4587767256671
 30
0.0
 11
-640.1071893380194
 21
191.4587767256671
 31
0.0
  0
ARC
  5
20CD
330
2
100
AcDbEntity
  8
画層1
370
    20
100
AcDbCircle
 10
-641.0652292295694
 20
189.9587767256671
 30
0.0
 40
2.0
100
AcDbArc
 50
270.0
 51
0.0000000000016284
  0
LINE
  5
20CE
330
2
100
AcDbEntity
  8
画層1
370
    20
100
AcDbLine
 10
-642.5652292295692
 20
189.9587767256671
 30
0.0
 11
-642.5652292295692
 21
191.4587767256671
 31
0.0
  0
LINE
  5
20CF
330
2
100
AcDbEntity
  8
画層1
370
    20
100
AcDbLine
 10
-640.1071893380194
 20
192.4587767256671
 30
0.0
 11
-642.5652292295692
 21
192.4587767256671
 31
0.0
  0
LINE
  5
20D0
330
2
100
AcDbEntity
  8
画層1
370
    20
100
AcDbLine
 10
-643.5652292295692
 20
191.4587767256671
 30
0.0
 11
-643.5652292295692
 21
189.9587767256671
 31
0.0
  0
ARC
  5
20D1
330
2
100
AcDbEntity
  8
画層1
370
    20
100
AcDbCircle
 10
-645.0652292295691
 20
189.958776725667
 30
0.0
 40
2.0
100
AcDbArc
 50
179.9999999999951
 51
269.9999999999934
  0
LINE
  5
20D2
330
2
100
AcDbEntity
  8
画層1
370
    20
100
AcDbLine
 10
-646.023269121119
 20
191.4587767256671
 30
0.0
 11
-643.5652292295692
 21
191.4587767256671
 31
0.0
  0
LINE
  5
20D3
330
2
100
AcDbEntity
  8
画層1
370
    20
100
AcDbLine
 10
-643.5652292295692
 20
192.4587767256671
 30
0.0
 11
-646.023269121119
 21
192.4587767256671
 31
0.0
  0
LINE
  5
20D4
330
2
100
AcDbEntity
  8
画層1
370
    20
100
AcDbLine
 10
-643.5652292295692
 20
189.9587767256671
 30
0.0
 11
-642.5652292295692
 21
189.9587767256671
 31
0.0
  0
LINE
  5
20D5
330
2
100
AcDbEntity
  8
画層1
370
    20
100
AcDbLine
 10
-645.0652292295692
 20
187.9587767256671
 30
0.0
 11
-641.0652292295692
 21
187.9587767256671
 31
0.0
  0
LINE
  5
20D6
330
2
100
AcDbEntity
  8
画層1
370
    20
100
AcDbLine
 10
-648.5652292295692
 20
195.9587767256671
 30
0.0
 11
-648.5652292295692
 21
187.9587767256671
 31
0.0
  0
LINE
  5
20D7
330
2
100
AcDbEntity
  8
画層1
370
    20
100
AcDbLine
 10
-639.0652292295692
 20
193.9587767256672
 30
0.0
 11
-639.0652292295693
 21
189.9587766256671
 31
0.0
  0
LINE
  5
20D8
330
2
100
AcDbEntity
  8
画層1
370
    20
100
AcDbLine
 10
-647.0652292295692
 20
193.9587767256672
 30
0.0
 11
-647.0652292295691
 21
189.9587766256671
 31
0.0
  0
CIRCLE
  5
20D9
330
2
100
AcDbEntity
  8
画層1
370
    20
100
AcDbCircle
 10
-643.0652292295692
 20
191.9587767256671
 30
0.0
 40
3.0
  0
LINE
  5
20DA
330
2
100
AcDbEntity
  8
画層1
370
    20
100
AcDbLine
 10
-642.5652292295692
 20
192.4587767256671
 30
0.0
 11
-642.5652292295692
 21
193.9587767256671
 31
0.0
  0
LINE
  5
20DB
330
2
100
AcDbEntity
  8
画層1
370
    20
100
AcDbLine
 10
-643.5652292295692
 20
193.9587767256671
 30
0.0
 11
-643.5652292295692
 21
192.4587767256671
 31
0.0
  0
LINE
  5
20DC
330
2
100
AcDbEntity
  8
画層1
370
    20
100
AcDbLine
 10
-637.5652292295692
 20
195.9587767256671
 30
0.0
 11
-637.5652292295692
 21
187.9587767256671
 31
0.0
  0
LINE
  5
20DD
330
2
100
AcDbEntity
  8
画層1
370
    20
100
AcDbLine
 10
-640.1071893380194
 20
202.4587767256671
 30
0.0
 11
-642.5652292295692
 21
202.4587767256671
 31
0.0
  0
LINE
  5
20DE
330
2
100
AcDbEntity
  8
画層1
370
    20
100
AcDbLine
 10
-642.5652292295692
 20
201.4587767256671
 30
0.0
 11
-640.1071893380194
 21
201.4587767256671
 31
0.0
  0
ARC
  5
20DF
330
2
100
AcDbEntity
  8
画層1
370
    20
100
AcDbCircle
 10
-641.0652292295691
 20
203.9587767256672
 30
0.0
 40
2.0
100
AcDbArc
 50
359.9999999999967
 51
90.0
  0
LINE
  5
20E0
330
2
100
AcDbEntity
  8
画層1
370
    20
100
AcDbLine
 10
-642.5652292295692
 20
202.4587767256671
 30
0.0
 11
-642.5652292295692
 21
203.9587767256672
 31
0.0
  0
LINE
  5
20E1
330
2
100
AcDbEntity
  8
画層1
370
    20
100
AcDbLine
 10
-643.5652292295692
 20
203.9587767256672
 30
0.0
 11
-643.5652292295692
 21
202.4587767256671
 31
0.0
  0
LINE
  5
20E2
330
2
100
AcDbEntity
  8
画層1
370
    20
100
AcDbLine
 10
-643.5652292295692
 20
202.4587767256671
 30
0.0
 11
-646.023269121119
 21
202.4587767256671
 31
0.0
  0
LINE
  5
20E3
330
2
100
AcDbEntity
  8
画層1
370
    20
100
AcDbLine
 10
-646.023269121119
 20
201.4587767256671
 30
0.0
 11
-643.5652292295692
 21
201.4587767256671
 31
0.0
  0
ARC
  5
20E4
330
2
100
AcDbEntity
  8
画層1
370
    20
100
AcDbCircle
 10
-645.0652292295693
 20
203.9587767256672
 30
0.0
 40
2.0
100
AcDbArc
 50
89.99999999999349
 51
180.0000000000016
  0
LINE
  5
20E5
330
2
100
AcDbEntity
  8
画層1
370
    20
100
AcDbLine
 10
-645.0652292295692
 20
205.9587767256672
 30
0.0
 11
-641.0652292295692
 21
205.9587767256672
 31
0.0
  0
LINE
  5
20E6
330
2
100
AcDbEntity
  8
画層1
370
    20
100
AcDbLine
 10
-642.5652292295692
 20
203.9587767256672
 30
0.0
 11
-643.5652292295692
 21
203.9587767256672
 31
0.0
  0
LINE
  5
20E7
330
2
100
AcDbEntity
  8
画層1
370
    20
100
AcDbLine
 10
-645.0652292295692
 20
207.9587767256671
 30
0.0
 11
-641.0652292295692
 21
207.9587767256671
 31
0.0
  0
ARC
  5
20E8
330
2
100
AcDbEntity
  8
画層1
370
    20
100
AcDbCircle
 10
-641.0652292295694
 20
199.9587767256671
 30
0.0
 40
2.0
100
AcDbArc
 50
270.0
 51
0.0000000000016284
  0
ARC
  5
20E9
330
2
100
AcDbEntity
  8
画層1
370
    20
100
AcDbCircle
 10
-645.0652292295691
 20
199.958776725667
 30
0.0
 40
2.0
100
AcDbArc
 50
179.9999999999951
 51
269.9999999999934
  0
LINE
  5
20EA
330
2
100
AcDbEntity
  8
画層1
370
    20
100
AcDbLine
 10
-645.0652292295692
 20
197.9587767256671
 30
0.0
 11
-641.0652292295692
 21
197.9587767256671
 31
0.0
  0
LINE
  5
20EB
330
2
100
AcDbEntity
  8
画層1
370
    20
100
AcDbLine
 10
-643.5652292295692
 20
199.9587767256671
 30
0.0
 11
-642.5652292295692
 21
199.9587767256671
 31
0.0
  0
LINE
  5
20EC
330
2
100
AcDbEntity
  8
画層1
370
    20
100
AcDbLine
 10
-648.5652292295692
 20
205.9587767256672
 30
0.0
 11
-648.5652292295692
 21
197.9587767256671
 31
0.0
  0
CIRCLE
  5
20ED
330
2
100
AcDbEntity
  8
画層1
370
    20
100
AcDbCircle
 10
-643.0652292295692
 20
201.9587767256671
 30
0.0
 40
3.0
  0
LINE
  5
20EE
330
2
100
AcDbEntity
  8
画層1
370
    20
100
AcDbLine
 10
-643.5652292295692
 20
201.4587767256671
 30
0.0
 11
-643.5652292295692
 21
199.9587767256671
 31
0.0
  0
LINE
  5
20EF
330
2
100
AcDbEntity
  8
画層1
370
    20
100
AcDbLine
 10
-642.5652292295692
 20
199.9587767256671
 30
0.0
 11
-642.5652292295692
 21
201.4587767256671
 31
0.0
  0
LINE
  5
20F0
330
2
100
AcDbEntity
  8
画層1
370
    20
100
AcDbLine
 10
-647.0652292295692
 20
203.9587767256672
 30
0.0
 11
-647.0652292295691
 21
199.9587766256671
 31
0.0
  0
LINE
  5
20F1
330
2
100
AcDbEntity
  8
画層1
370
    20
100
AcDbLine
 10
-639.0652292295692
 20
203.9587767256672
 30
0.0
 11
-639.0652292295693
 21
199.9587766256671
 31
0.0
  0
LINE
  5
20F2
330
2
100
AcDbEntity
  8
画層1
370
    20
100
AcDbLine
 10
-637.5652292295692
 20
205.9587767256672
 30
0.0
 11
-637.5652292295692
 21
197.9587767256671
 31
0.0
  0
LINE
  5
20F3
330
2
100
AcDbEntity
  8
画層1
370
    20
100
AcDbLine
 10
-648.5652292295692
 20
225.9587767256671
 30
0.0
 11
-648.5652292295692
 21
217.9587767256671
 31
0.0
  0
LINE
  5
20F4
330
2
100
AcDbEntity
  8
画層1
370
    20
100
AcDbLine
 10
-637.5652292295692
 20
225.9587767256671
 30
0.0
 11
-637.5652292295692
 21
217.9587767256671
 31
0.0
  0
CIRCLE
  5
20F5
330
2
100
AcDbEntity
  8
画層1
370
    20
100
AcDbCircle
 10
-643.0652292295692
 20
221.9587767256671
 30
0.0
 40
3.0
  0
LINE
  5
20F6
330
2
100
AcDbEntity
  8
画層1
370
    20
100
AcDbLine
 10
-647.0652292295692
 20
223.9587767256672
 30
0.0
 11
-647.0652292295691
 21
219.9587766256671
 31
0.0
  0
LINE
  5
20F7
330
2
100
AcDbEntity
  8
画層1
370
    20
100
AcDbLine
 10
-639.0652292295692
 20
223.9587767256673
 30
0.0
 11
-639.0652292295693
 21
219.9587766256671
 31
0.0
  0
LINE
  5
20F8
330
2
100
AcDbEntity
  8
画層1
370
    20
100
AcDbLine
 10
-643.5652292295692
 20
223.9587767256671
 30
0.0
 11
-643.5652292295692
 21
222.4587767256671
 31
0.0
  0
LINE
  5
20F9
330
2
100
AcDbEntity
  8
画層1
370
    20
100
AcDbLine
 10
-642.5652292295692
 20
222.4587767256671
 30
0.0
 11
-642.5652292295692
 21
223.9587767256671
 31
0.0
  0
ARC
  5
20FA
330
2
100
AcDbEntity
  8
画層1
370
    20
100
AcDbCircle
 10
-641.0652292295694
 20
219.9587767256671
 30
0.0
 40
2.0
100
AcDbArc
 50
270.0
 51
0.0000000000016284
  0
LINE
  5
20FB
330
2
100
AcDbEntity
  8
画層1
370
    20
100
AcDbLine
 10
-642.5652292295692
 20
221.4587767256671
 30
0.0
 11
-640.1071893380194
 21
221.4587767256671
 31
0.0
  0
LINE
  5
20FC
330
2
100
AcDbEntity
  8
画層1
370
    20
100
AcDbLine
 10
-642.5652292295692
 20
219.9587767256671
 30
0.0
 11
-642.5652292295692
 21
221.4587767256671
 31
0.0
  0
LINE
  5
20FD
330
2
100
AcDbEntity
  8
画層1
370
    20
100
AcDbLine
 10
-640.1071893380194
 20
222.4587767256671
 30
0.0
 11
-642.5652292295692
 21
222.4587767256671
 31
0.0
  0
LINE
  5
20FE
330
2
100
AcDbEntity
  8
画層1
370
    20
100
AcDbLine
 10
-643.5652292295692
 20
221.4587767256671
 30
0.0
 11
-643.5652292295692
 21
219.9587767256671
 31
0.0
  0
ARC
  5
20FF
330
2
100
AcDbEntity
  8
画層1
370
    20
100
AcDbCircle
 10
-645.0652292295691
 20
219.9587767256669
 30
0.0
 40
2.0
100
AcDbArc
 50
179.9999999999951
 51
269.9999999999934
  0
LINE
  5
2100
330
2
100
AcDbEntity
  8
画層1
370
    20
100
AcDbLine
 10
-646.023269121119
 20
221.4587767256671
 30
0.0
 11
-643.5652292295692
 21
221.4587767256671
 31
0.0
  0
LINE
  5
2101
330
2
100
AcDbEntity
  8
画層1
370
    20
100
AcDbLine
 10
-643.5652292295692
 20
222.4587767256671
 30
0.0
 11
-646.023269121119
 21
222.4587767256671
 31
0.0
  0
LINE
  5
2102
330
2
100
AcDbEntity
  8
画層1
370
    20
100
AcDbLine
 10
-643.5652292295692
 20
219.9587767256671
 30
0.0
 11
-642.5652292295692
 21
219.9587767256671
 31
0.0
  0
LINE
  5
2103
330
2
100
AcDbEntity
  8
画層1
370
    20
100
AcDbLine
 10
-645.0652292295692
 20
217.9587767256671
 30
0.0
 11
-641.0652292295692
 21
217.9587767256671
 31
0.0
  0
LINE
  5
2104
330
2
100
AcDbEntity
  8
画層1
370
    20
100
AcDbLine
 10
-642.5652292295692
 20
211.4587767256671
 30
0.0
 11
-640.1071893380194
 21
211.4587767256671
 31
0.0
  0
LINE
  5
2105
330
2
100
AcDbEntity
  8
画層1
370
    20
100
AcDbLine
 10
-640.1071893380194
 20
212.4587767256671
 30
0.0
 11
-642.5652292295692
 21
212.4587767256671
 31
0.0
  0
LINE
  5
2106
330
2
100
AcDbEntity
  8
画層1
370
    20
100
AcDbLine
 10
-642.5652292295692
 20
212.4587767256671
 30
0.0
 11
-642.5652292295692
 21
213.9587767256671
 31
0.0
  0
LINE
  5
2107
330
2
100
AcDbEntity
  8
画層1
370
    20
100
AcDbLine
 10
-642.5652292295692
 20
209.9587767256671
 30
0.0
 11
-642.5652292295692
 21
211.4587767256671
 31
0.0
  0
LINE
  5
2108
330
2
100
AcDbEntity
  8
画層1
370
    20
100
AcDbLine
 10
-639.0652292295692
 20
213.9587767256673
 30
0.0
 11
-639.0652292295693
 21
209.9587766256671
 31
0.0
  0
LINE
  5
2109
330
2
100
AcDbEntity
  8
画層1
370
    20
100
AcDbLine
 10
-643.5652292295692
 20
213.9587767256671
 30
0.0
 11
-643.5652292295692
 21
212.4587767256671
 31
0.0
  0
LINE
  5
210A
330
2
100
AcDbEntity
  8
画層1
370
    20
100
AcDbLine
 10
-643.5652292295692
 20
211.4587767256671
 30
0.0
 11
-643.5652292295692
 21
209.9587767256671
 31
0.0
  0
LINE
  5
210B
330
2
100
AcDbEntity
  8
画層1
370
    20
100
AcDbLine
 10
-647.0652292295692
 20
213.9587767256672
 30
0.0
 11
-647.0652292295691
 21
209.9587766256671
 31
0.0
  0
LINE
  5
210C
330
2
100
AcDbEntity
  8
画層1
370
    20
100
AcDbLine
 10
-646.023269121119
 20
211.4587767256671
 30
0.0
 11
-643.5652292295692
 21
211.4587767256671
 31
0.0
  0
LINE
  5
210D
330
2
100
AcDbEntity
  8
画層1
370
    20
100
AcDbLine
 10
-643.5652292295692
 20
212.4587767256671
 30
0.0
 11
-646.023269121119
 21
212.4587767256671
 31
0.0
  0
LINE
  5
210E
330
2
100
AcDbEntity
  8
画層1
370
    20
100
AcDbLine
 10
-643.5652292295692
 20
209.9587767256671
 30
0.0
 11
-642.5652292295692
 21
209.9587767256671
 31
0.0
  0
LINE
  5
210F
330
2
100
AcDbEntity
  8
画層1
370
    20
100
AcDbLine
 10
-642.5652292295692
 20
213.9587767256671
 30
0.0
 11
-643.5652292295692
 21
213.9587767256671
 31
0.0
  0
LINE
  5
2110
330
2
100
AcDbEntity
  8
画層1
370
    20
100
AcDbLine
 10
-645.0652292295692
 20
215.9587767256671
 30
0.0
 11
-641.0652292295692
 21
215.9587767256671
 31
0.0
  0
ARC
  5
2111
330
2
100
AcDbEntity
  8
画層1
370
    20
100
AcDbCircle
 10
-645.0652292295693
 20
213.9587767256672
 30
0.0
 40
2.0
100
AcDbArc
 50
89.99999999999349
 51
180.0000000000016
  0
ARC
  5
2112
330
2
100
AcDbEntity
  8
画層1
370
    20
100
AcDbCircle
 10
-641.0652292295691
 20
213.9587767256673
 30
0.0
 40
2.0
100
AcDbArc
 50
359.9999999999967
 51
90.0
  0
LINE
  5
2113
330
2
100
AcDbEntity
  8
画層1
370
    20
100
AcDbLine
 10
-642.5652292295692
 20
231.4587767256671
 30
0.0
 11
-640.1071893380194
 21
231.4587767256671
 31
0.0
  0
LINE
  5
2114
330
2
100
AcDbEntity
  8
画層1
370
    20
100
AcDbLine
 10
-640.1071893380194
 20
232.4587767256671
 30
0.0
 11
-642.5652292295692
 21
232.4587767256671
 31
0.0
  0
LINE
  5
2115
330
2
100
AcDbEntity
  8
画層1
370
    20
100
AcDbLine
 10
-642.5652292295692
 20
232.4587767256671
 30
0.0
 11
-642.5652292295692
 21
233.9587767256671
 31
0.0
  0
LINE
  5
2116
330
2
100
AcDbEntity
  8
画層1
370
    20
100
AcDbLine
 10
-646.023269121119
 20
231.4587767256671
 30
0.0
 11
-643.5652292295692
 21
231.4587767256671
 31
0.0
  0
LINE
  5
2117
330
2
100
AcDbEntity
  8
画層1
370
    20
100
AcDbLine
 10
-643.5652292295692
 20
232.4587767256671
 30
0.0
 11
-646.023269121119
 21
232.4587767256671
 31
0.0
  0
LINE
  5
2118
330
2
100
AcDbEntity
  8
画層1
370
    20
100
AcDbLine
 10
-643.5652292295692
 20
233.9587767256671
 30
0.0
 11
-643.5652292295692
 21
232.4587767256671
 31
0.0
  0
LINE
  5
2119
330
2
100
AcDbEntity
  8
画層1
370
    20
100
AcDbLine
 10
-642.5652292295692
 20
233.9587767256671
 30
0.0
 11
-643.5652292295692
 21
233.9587767256671
 31
0.0
  0
ARC
  5
211A
330
2
100
AcDbEntity
  8
画層1
370
    20
100
AcDbCircle
 10
-641.0652292295691
 20
223.9587767256673
 30
0.0
 40
2.0
100
AcDbArc
 50
359.9999999999967
 51
90.0
  0
ARC
  5
211B
330
2
100
AcDbEntity
  8
画層1
370
    20
100
AcDbCircle
 10
-641.0652292295694
 20
229.9587767256671
 30
0.0
 40
2.0
100
AcDbArc
 50
270.0
 51
0.0000000000016284
  0
ARC
  5
211C
330
2
100
AcDbEntity
  8
画層1
370
    20
100
AcDbCircle
 10
-645.0652292295693
 20
223.9587767256672
 30
0.0
 40
2.0
100
AcDbArc
 50
89.99999999999349
 51
180.0000000000016
  0
ARC
  5
211D
330
2
100
AcDbEntity
  8
画層1
370
    20
100
AcDbCircle
 10
-645.0652292295691
 20
229.958776725667
 30
0.0
 40
2.0
100
AcDbArc
 50
179.9999999999951
 51
269.9999999999934
  0
LINE
  5
211E
330
2
100
AcDbEntity
  8
画層1
370
    20
100
AcDbLine
 10
-642.5652292295692
 20
223.9587767256671
 30
0.0
 11
-643.5652292295692
 21
223.9587767256671
 31
0.0
  0
LINE
  5
211F
330
2
100
AcDbEntity
  8
画層1
370
    20
100
AcDbLine
 10
-645.0652292295692
 20
225.9587767256671
 30
0.0
 11
-641.0652292295692
 21
225.9587767256671
 31
0.0
  0
LINE
  5
2120
330
2
100
AcDbEntity
  8
画層1
370
    20
100
AcDbLine
 10
-643.5652292295692
 20
229.9587767256671
 30
0.0
 11
-642.5652292295692
 21
229.9587767256671
 31
0.0
  0
LINE
  5
2121
330
2
100
AcDbEntity
  8
画層1
370
    20
100
AcDbLine
 10
-645.0652292295692
 20
227.9587767256671
 30
0.0
 11
-641.0652292295692
 21
227.9587767256671
 31
0.0
  0
LINE
  5
2122
330
2
100
AcDbEntity
  8
画層1
370
    20
100
AcDbLine
 10
-642.5652292295692
 20
229.9587767256671
 30
0.0
 11
-642.5652292295692
 21
231.4587767256671
 31
0.0
  0
LINE
  5
2123
330
2
100
AcDbEntity
  8
画層1
370
    20
100
AcDbLine
 10
-643.5652292295692
 20
231.4587767256671
 30
0.0
 11
-643.5652292295692
 21
229.9587767256671
 31
0.0
  0
LINE
  5
2124
330
2
100
AcDbEntity
  8
画層1
370
    20
100
AcDbLine
 10
-639.0652292295692
 20
233.9587767256673
 30
0.0
 11
-639.0652292295693
 21
229.9587766256671
 31
0.0
  0
LINE
  5
2125
330
2
100
AcDbEntity
  8
画層1
370
    20
100
AcDbLine
 10
-647.0652292295692
 20
233.9587767256672
 30
0.0
 11
-647.0652292295691
 21
229.9587766256671
 31
0.0
  0
CIRCLE
  5
2126
330
2
100
AcDbEntity
  8
画層1
370
    20
100
AcDbCircle
 10
-643.0652292295692
 20
231.9587767256671
 30
0.0
 40
3.0
  0
LWPOLYLINE
  5
2127
330
2
100
AcDbEntity
  8
画層1
370
    20
100
AcDbPolyline
 90
        4
 70
     1
 43
0.0
 10
-649.5652292295692
 20
287.9587767256671
 10
-636.5652292295692
 20
287.9587767256671
 10
-636.5652292295692
 20
285.9587767256671
 10
-649.5652292295692
 20
285.9587767256671
  0
LWPOLYLINE
  5
2128
330
2
100
AcDbEntity
  8
画層1
370
    20
100
AcDbPolyline
 90
        4
 70
     1
 43
0.0
 10
-649.5652292295692
 20
277.9587767256671
 10
-636.5652292295692
 20
277.9587767256671
 10
-636.5652292295692
 20
275.9587767256671
 10
-649.5652292295692
 20
275.9587767256671
  0
LWPOLYLINE
  5
2129
330
2
100
AcDbEntity
  8
画層1
370
    20
100
AcDbPolyline
 90
        4
 70
     1
 43
0.0
 10
-649.5652292295692
 20
267.9587767256671
 10
-636.5652292295692
 20
267.9587767256671
 10
-636.5652292295692
 20
265.9587767256671
 10
-649.5652292295692
 20
265.9587767256671
  0
LWPOLYLINE
  5
212A
330
2
100
AcDbEntity
  8
画層1
370
    20
100
AcDbPolyline
 90
        4
 70
     1
 43
0.0
 10
-649.5652292295692
 20
257.9587767256671
 10
-636.5652292295692
 20
257.9587767256671
 10
-636.5652292295692
 20
255.9587767256671
 10
-649.5652292295692
 20
255.9587767256671
  0
LWPOLYLINE
  5
212B
330
2
100
AcDbEntity
  8
画層1
370
    20
100
AcDbPolyline
 90
        4
 70
     1
 43
0.0
 10
-649.5652292295692
 20
247.9587767256671
 10
-636.5652292295692
 20
247.9587767256671
 10
-636.5652292295692
 20
245.9587767256671
 10
-649.5652292295692
 20
245.9587767256671
  0
LWPOLYLINE
  5
212C
330
2
100
AcDbEntity
  8
画層1
370
    20
100
AcDbPolyline
 90
        4
 70
     1
 43
0.0
 10
-649.5652292295692
 20
237.9587767256671
 10
-636.5652292295692
 20
237.9587767256671
 10
-636.5652292295692
 20
235.9587767256671
 10
-649.5652292295692
 20
235.9587767256671
  0
CIRCLE
  5
212D
330
2
100
AcDbEntity
  8
画層1
370
    20
100
AcDbCircle
 10
-644.5652295960735
 20
317.958776737169
 30
0.0
 40
5.0
  0
LINE
  5
212E
330
2
100
AcDbEntity
  8
画層1
370
    20
100
AcDbLine
 10
-649.5652292295692
 20
265.9587767256671
 30
0.0
 11
-649.5652292295692
 21
257.9587767256671
 31
0.0
  0
LINE
  5
212F
330
2
100
AcDbEntity
  8
画層1
370
    20
100
AcDbLine
 10
-648.5652292295692
 20
265.9587767256671
 30
0.0
 11
-648.5652292295692
 21
257.9587767256671
 31
0.0
  0
LINE
  5
2130
330
2
100
AcDbEntity
  8
画層1
370
    20
100
AcDbLine
 10
-637.5652292295692
 20
265.9587767256671
 30
0.0
 11
-637.5652292295692
 21
257.9587767256671
 31
0.0
  0
CIRCLE
  5
2131
330
2
100
AcDbEntity
  8
画層1
370
    20
100
AcDbCircle
 10
-643.0652292295692
 20
261.9587767256671
 30
0.0
 40
3.0
  0
LINE
  5
2132
330
2
100
AcDbEntity
  8
画層1
370
    20
100
AcDbLine
 10
-643.5652292295692
 20
261.4587767256671
 30
0.0
 11
-643.5652292295692
 21
259.9587767256671
 31
0.0
  0
LINE
  5
2133
330
2
100
AcDbEntity
  8
画層1
370
    20
100
AcDbLine
 10
-642.5652292295692
 20
259.9587767256671
 30
0.0
 11
-642.5652292295692
 21
261.4587767256671
 31
0.0
  0
LINE
  5
2134
330
2
100
AcDbEntity
  8
画層1
370
    20
100
AcDbLine
 10
-647.0652292295692
 20
263.9587767256672
 30
0.0
 11
-647.0652292295691
 21
259.9587766256671
 31
0.0
  0
LINE
  5
2135
330
2
100
AcDbEntity
  8
画層1
370
    20
100
AcDbLine
 10
-639.0652292295692
 20
263.9587767256673
 30
0.0
 11
-639.0652292295693
 21
259.9587766256671
 31
0.0
  0
ARC
  5
2136
330
2
100
AcDbEntity
  8
画層1
370
    20
100
AcDbCircle
 10
-641.0652292295694
 20
249.9587767256671
 30
0.0
 40
2.0
100
AcDbArc
 50
270.0
 51
0.0000000000016284
  0
ARC
  5
2137
330
2
100
AcDbEntity
  8
画層1
370
    20
100
AcDbCircle
 10
-645.0652292295691
 20
249.958776725667
 30
0.0
 40
2.0
100
AcDbArc
 50
179.9999999999951
 51
269.9999999999934
  0
LINE
  5
2138
330
2
100
AcDbEntity
  8
画層1
370
    20
100
AcDbLine
 10
-637.5652292295692
 20
255.9587767256671
 30
0.0
 11
-637.5652292295692
 21
247.9587767256671
 31
0.0
  0
LINE
  5
2139
330
2
100
AcDbEntity
  8
画層1
370
    20
100
AcDbLine
 10
-648.5652292295692
 20
255.9587767256671
 30
0.0
 11
-648.5652292295692
 21
247.9587767256671
 31
0.0
  0
LINE
  5
213A
330
2
100
AcDbEntity
  8
画層1
370
    20
100
AcDbLine
 10
-645.0652292295692
 20
247.9587767256671
 30
0.0
 11
-641.0652292295692
 21
247.9587767256671
 31
0.0
  0
LINE
  5
213B
330
2
100
AcDbEntity
  8
画層1
370
    20
100
AcDbLine
 10
-640.1071893380194
 20
242.4587767256671
 30
0.0
 11
-642.5652292295692
 21
242.4587767256671
 31
0.0
  0
LINE
  5
213C
330
2
100
AcDbEntity
  8
画層1
370
    20
100
AcDbLine
 10
-642.5652292295692
 20
241.4587767256671
 30
0.0
 11
-640.1071893380194
 21
241.4587767256671
 31
0.0
  0
LINE
  5
213D
330
2
100
AcDbEntity
  8
画層1
370
    20
100
AcDbLine
 10
-642.5652292295692
 20
242.4587767256671
 30
0.0
 11
-642.5652292295692
 21
243.9587767256671
 31
0.0
  0
LINE
  5
213E
330
2
100
AcDbEntity
  8
画層1
370
    20
100
AcDbLine
 10
-642.5652292295692
 20
239.9587767256671
 30
0.0
 11
-642.5652292295692
 21
241.4587767256671
 31
0.0
  0
LINE
  5
213F
330
2
100
AcDbEntity
  8
画層1
370
    20
100
AcDbLine
 10
-639.0652292295692
 20
243.9587767256673
 30
0.0
 11
-639.0652292295693
 21
239.9587766256671
 31
0.0
  0
LINE
  5
2140
330
2
100
AcDbEntity
  8
画層1
370
    20
100
AcDbLine
 10
-643.5652292295692
 20
243.9587767256671
 30
0.0
 11
-643.5652292295692
 21
242.4587767256671
 31
0.0
  0
LINE
  5
2141
330
2
100
AcDbEntity
  8
画層1
370
    20
100
AcDbLine
 10
-643.5652292295692
 20
242.4587767256671
 30
0.0
 11
-646.023269121119
 21
242.4587767256671
 31
0.0
  0
LINE
  5
2142
330
2
100
AcDbEntity
  8
画層1
370
    20
100
AcDbLine
 10
-643.5652292295692
 20
241.4587767256671
 30
0.0
 11
-643.5652292295692
 21
239.9587767256671
 31
0.0
  0
LINE
  5
2143
330
2
100
AcDbEntity
  8
画層1
370
    20
100
AcDbLine
 10
-646.023269121119
 20
241.4587767256671
 30
0.0
 11
-643.5652292295692
 21
241.4587767256671
 31
0.0
  0
LINE
  5
2144
330
2
100
AcDbEntity
  8
画層1
370
    20
100
AcDbLine
 10
-647.0652292295692
 20
243.9587767256672
 30
0.0
 11
-647.0652292295691
 21
239.9587766256671
 31
0.0
  0
CIRCLE
  5
2145
330
2
100
AcDbEntity
  8
画層1
370
    20
100
AcDbCircle
 10
-643.0652292295692
 20
241.9587767256671
 30
0.0
 40
3.0
  0
LINE
  5
2146
330
2
100
AcDbEntity
  8
画層1
370
    20
100
AcDbLine
 10
-642.5652292295692
 20
243.9587767256671
 30
0.0
 11
-643.5652292295692
 21
243.9587767256671
 31
0.0
  0
LINE
  5
2147
330
2
100
AcDbEntity
  8
画層1
370
    20
100
AcDbLine
 10
-643.5652292295692
 20
239.9587767256671
 30
0.0
 11
-642.5652292295692
 21
239.9587767256671
 31
0.0
  0
LINE
  5
2148
330
2
100
AcDbEntity
  8
画層1
370
    20
100
AcDbLine
 10
-645.0652292295692
 20
245.9587767256671
 30
0.0
 11
-641.0652292295692
 21
245.9587767256671
 31
0.0
  0
ARC
  5
2149
330
2
100
AcDbEntity
  8
画層1
370
    20
100
AcDbCircle
 10
-641.0652292295691
 20
243.9587767256673
 30
0.0
 40
2.0
100
AcDbArc
 50
359.9999999999967
 51
90.0
  0
ARC
  5
214A
330
2
100
AcDbEntity
  8
画層1
370
    20
100
AcDbCircle
 10
-645.0652292295693
 20
243.9587767256672
 30
0.0
 40
2.0
100
AcDbArc
 50
89.99999999999349
 51
180.0000000000016
  0
LINE
  5
214B
330
2
100
AcDbEntity
  8
画層1
370
    20
100
AcDbLine
 10
-645.0652292295692
 20
235.9587767256671
 30
0.0
 11
-641.0652292295692
 21
235.9587767256671
 31
0.0
  0
LINE
  5
214C
330
2
100
AcDbEntity
  8
画層1
370
    20
100
AcDbLine
 10
-645.0652292295692
 20
237.9587767256671
 30
0.0
 11
-641.0652292295692
 21
237.9587767256671
 31
0.0
  0
ARC
  5
214D
330
2
100
AcDbEntity
  8
画層1
370
    20
100
AcDbCircle
 10
-641.0652292295694
 20
239.9587767256671
 30
0.0
 40
2.0
100
AcDbArc
 50
270.0
 51
0.0000000000016284
  0
ARC
  5
214E
330
2
100
AcDbEntity
  8
画層1
370
    20
100
AcDbCircle
 10
-645.0652292295691
 20
239.958776725667
 30
0.0
 40
2.0
100
AcDbArc
 50
179.9999999999951
 51
269.9999999999934
  0
LINE
  5
214F
330
2
100
AcDbEntity
  8
画層1
370
    20
100
AcDbLine
 10
-648.5652292295692
 20
245.9587767256671
 30
0.0
 11
-648.5652292295692
 21
237.9587767256671
 31
0.0
  0
LINE
  5
2150
330
2
100
AcDbEntity
  8
画層1
370
    20
100
AcDbLine
 10
-637.5652292295692
 20
245.9587767256671
 30
0.0
 11
-637.5652292295692
 21
237.9587767256671
 31
0.0
  0
ARC
  5
2151
330
2
100
AcDbEntity
  8
画層1
370
    20
100
AcDbCircle
 10
-641.0652292295691
 20
253.9587767256673
 30
0.0
 40
2.0
100
AcDbArc
 50
359.9999999999967
 51
90.0
  0
ARC
  5
2152
330
2
100
AcDbEntity
  8
画層1
370
    20
100
AcDbCircle
 10
-641.0652292295694
 20
259.9587767256671
 30
0.0
 40
2.0
100
AcDbArc
 50
270.0
 51
0.0000000000016284
  0
ARC
  5
2153
330
2
100
AcDbEntity
  8
画層1
370
    20
100
AcDbCircle
 10
-645.0652292295693
 20
253.9587767256672
 30
0.0
 40
2.0
100
AcDbArc
 50
89.99999999999349
 51
180.0000000000016
  0
ARC
  5
2154
330
2
100
AcDbEntity
  8
画層1
370
    20
100
AcDbCircle
 10
-645.0652292295691
 20
259.958776725667
 30
0.0
 40
2.0
100
AcDbArc
 50
179.9999999999951
 51
269.9999999999934
  0
LINE
  5
2155
330
2
100
AcDbEntity
  8
画層1
370
    20
100
AcDbLine
 10
-642.5652292295692
 20
253.9587767256671
 30
0.0
 11
-643.5652292295692
 21
253.9587767256671
 31
0.0
  0
LINE
  5
2156
330
2
100
AcDbEntity
  8
画層1
370
    20
100
AcDbLine
 10
-645.0652292295692
 20
255.9587767256671
 30
0.0
 11
-641.0652292295692
 21
255.9587767256671
 31
0.0
  0
LINE
  5
2157
330
2
100
AcDbEntity
  8
画層1
370
    20
100
AcDbLine
 10
-643.5652292295692
 20
259.9587767256671
 30
0.0
 11
-642.5652292295692
 21
259.9587767256671
 31
0.0
  0
LINE
  5
2158
330
2
100
AcDbEntity
  8
画層1
370
    20
100
AcDbLine
 10
-645.0652292295692
 20
257.9587767256671
 30
0.0
 11
-641.0652292295692
 21
257.9587767256671
 31
0.0
  0
LINE
  5
2159
330
2
100
AcDbEntity
  8
画層1
370
    20
100
AcDbLine
 10
-640.1071893380194
 20
252.4587767256671
 30
0.0
 11
-642.5652292295692
 21
252.4587767256671
 31
0.0
  0
LINE
  5
215A
330
2
100
AcDbEntity
  8
画層1
370
    20
100
AcDbLine
 10
-642.5652292295692
 20
251.4587767256671
 30
0.0
 11
-640.1071893380194
 21
251.4587767256671
 31
0.0
  0
LINE
  5
215B
330
2
100
AcDbEntity
  8
画層1
370
    20
100
AcDbLine
 10
-642.5652292295692
 20
249.9587767256671
 30
0.0
 11
-642.5652292295692
 21
251.4587767256671
 31
0.0
  0
LINE
  5
215C
330
2
100
AcDbEntity
  8
画層1
370
    20
100
AcDbLine
 10
-646.023269121119
 20
251.4587767256671
 30
0.0
 11
-643.5652292295692
 21
251.4587767256671
 31
0.0
  0
LINE
  5
215D
330
2
100
AcDbEntity
  8
画層1
370
    20
100
AcDbLine
 10
-643.5652292295692
 20
252.4587767256671
 30
0.0
 11
-646.023269121119
 21
252.4587767256671
 31
0.0
  0
LINE
  5
215E
330
2
100
AcDbEntity
  8
画層1
370
    20
100
AcDbLine
 10
-643.5652292295692
 20
251.4587767256671
 30
0.0
 11
-643.5652292295692
 21
249.9587767256671
 31
0.0
  0
LINE
  5
215F
330
2
100
AcDbEntity
  8
画層1
370
    20
100
AcDbLine
 10
-643.5652292295692
 20
249.9587767256671
 30
0.0
 11
-642.5652292295692
 21
249.9587767256671
 31
0.0
  0
LINE
  5
2160
330
2
100
AcDbEntity
  8
画層1
370
    20
100
AcDbLine
 10
-642.5652292295692
 20
252.4587767256671
 30
0.0
 11
-642.5652292295692
 21
253.9587767256671
 31
0.0
  0
LINE
  5
2161
330
2
100
AcDbEntity
  8
画層1
370
    20
100
AcDbLine
 10
-643.5652292295692
 20
253.9587767256671
 30
0.0
 11
-643.5652292295692
 21
252.4587767256671
 31
0.0
  0
LINE
  5
2162
330
2
100
AcDbEntity
  8
画層1
370
    20
100
AcDbLine
 10
-639.0652292295692
 20
253.9587767256673
 30
0.0
 11
-639.0652292295693
 21
249.9587766256671
 31
0.0
  0
LINE
  5
2163
330
2
100
AcDbEntity
  8
画層1
370
    20
100
AcDbLine
 10
-647.0652292295692
 20
253.9587767256672
 30
0.0
 11
-647.0652292295691
 21
249.9587766256671
 31
0.0
  0
CIRCLE
  5
2164
330
2
100
AcDbEntity
  8
画層1
370
    20
100
AcDbCircle
 10
-643.0652292295692
 20
251.9587767256671
 30
0.0
 40
3.0
  0
CIRCLE
  5
2165
330
2
100
AcDbEntity
  8
画層1
370
    20
100
AcDbCircle
 10
-643.0652292295692
 20
271.9587767256671
 30
0.0
 40
3.0
  0
ARC
  5
2166
330
2
100
AcDbEntity
  8
画層1
370
    20
100
AcDbCircle
 10
-641.0652292295691
 20
273.9587767256673
 30
0.0
 40
2.0
100
AcDbArc
 50
359.9999999999967
 51
90.0
  0
ARC
  5
2167
330
2
100
AcDbEntity
  8
画層1
370
    20
100
AcDbCircle
 10
-645.0652292295693
 20
273.9587767256672
 30
0.0
 40
2.0
100
AcDbArc
 50
89.99999999999349
 51
180.0000000000016
  0
LINE
  5
2168
330
2
100
AcDbEntity
  8
画層1
370
    20
100
AcDbLine
 10
-637.5652292295692
 20
275.9587767256671
 30
0.0
 11
-637.5652292295692
 21
267.9587767256671
 31
0.0
  0
LINE
  5
2169
330
2
100
AcDbEntity
  8
画層1
370
    20
100
AcDbLine
 10
-648.5652292295692
 20
275.9587767256671
 30
0.0
 11
-648.5652292295692
 21
267.9587767256671
 31
0.0
  0
LINE
  5
216A
330
2
100
AcDbEntity
  8
画層1
370
    20
100
AcDbLine
 10
-640.1071893380194
 20
272.4587767256671
 30
0.0
 11
-642.5652292295692
 21
272.4587767256671
 31
0.0
  0
LINE
  5
216B
330
2
100
AcDbEntity
  8
画層1
370
    20
100
AcDbLine
 10
-642.5652292295692
 20
271.4587767256671
 30
0.0
 11
-640.1071893380194
 21
271.4587767256671
 31
0.0
  0
LINE
  5
216C
330
2
100
AcDbEntity
  8
画層1
370
    20
100
AcDbLine
 10
-642.5652292295692
 20
272.4587767256671
 30
0.0
 11
-642.5652292295692
 21
273.9587767256671
 31
0.0
  0
LINE
  5
216D
330
2
100
AcDbEntity
  8
画層1
370
    20
100
AcDbLine
 10
-642.5652292295692
 20
269.9587767256671
 30
0.0
 11
-642.5652292295692
 21
271.4587767256671
 31
0.0
  0
LINE
  5
216E
330
2
100
AcDbEntity
  8
画層1
370
    20
100
AcDbLine
 10
-639.0652292295692
 20
269.9587767256671
 30
0.0
 11
-639.0652292295692
 21
273.9587767256671
 31
0.0
  0
LINE
  5
216F
330
2
100
AcDbEntity
  8
画層1
370
    20
100
AcDbLine
 10
-647.0652292295692
 20
269.9587767256671
 30
0.0
 11
-647.0652292295692
 21
273.9587767256671
 31
0.0
  0
LINE
  5
2170
330
2
100
AcDbEntity
  8
画層1
370
    20
100
AcDbLine
 10
-643.5652292295692
 20
271.4587767256671
 30
0.0
 11
-643.5652292295692
 21
269.9587767256671
 31
0.0
  0
LINE
  5
2171
330
2
100
AcDbEntity
  8
画層1
370
    20
100
AcDbLine
 10
-646.023269121119
 20
271.4587767256671
 30
0.0
 11
-643.5652292295692
 21
271.4587767256671
 31
0.0
  0
LINE
  5
2172
330
2
100
AcDbEntity
  8
画層1
370
    20
100
AcDbLine
 10
-643.5652292295692
 20
272.4587767256671
 30
0.0
 11
-646.023269121119
 21
272.4587767256671
 31
0.0
  0
LINE
  5
2173
330
2
100
AcDbEntity
  8
画層1
370
    20
100
AcDbLine
 10
-643.5652292295692
 20
273.9587767256671
 30
0.0
 11
-643.5652292295692
 21
272.4587767256671
 31
0.0
  0
LINE
  5
2174
330
2
100
AcDbEntity
  8
画層1
370
    20
100
AcDbLine
 10
-642.5652292295692
 20
273.9587767256671
 30
0.0
 11
-643.5652292295692
 21
273.9587767256671
 31
0.0
  0
LINE
  5
2175
330
2
100
AcDbEntity
  8
画層1
370
    20
100
AcDbLine
 10
-643.5652292295692
 20
269.9587767256671
 30
0.0
 11
-642.5652292295692
 21
269.9587767256671
 31
0.0
  0
LINE
  5
2176
330
2
100
AcDbEntity
  8
画層1
370
    20
100
AcDbLine
 10
-642.5652292295692
 20
261.4587767256671
 30
0.0
 11
-640.1071893380194
 21
261.4587767256671
 31
0.0
  0
LINE
  5
2177
330
2
100
AcDbEntity
  8
画層1
370
    20
100
AcDbLine
 10
-640.1071893380194
 20
262.4587767256671
 30
0.0
 11
-642.5652292295692
 21
262.4587767256671
 31
0.0
  0
ARC
  5
2178
330
2
100
AcDbEntity
  8
画層1
370
    20
100
AcDbCircle
 10
-641.0652292295691
 20
263.9587767256673
 30
0.0
 40
2.0
100
AcDbArc
 50
359.9999999999967
 51
90.0
  0
LINE
  5
2179
330
2
100
AcDbEntity
  8
画層1
370
    20
100
AcDbLine
 10
-642.5652292295692
 20
262.4587767256671
 30
0.0
 11
-642.5652292295692
 21
263.9587767256671
 31
0.0
  0
LINE
  5
217A
330
2
100
AcDbEntity
  8
画層1
370
    20
100
AcDbLine
 10
-643.5652292295692
 20
263.9587767256671
 30
0.0
 11
-643.5652292295692
 21
262.4587767256671
 31
0.0
  0
ARC
  5
217B
330
2
100
AcDbEntity
  8
画層1
370
    20
100
AcDbCircle
 10
-645.0652292295693
 20
263.9587767256672
 30
0.0
 40
2.0
100
AcDbArc
 50
89.99999999999349
 51
180.0000000000016
  0
LINE
  5
217C
330
2
100
AcDbEntity
  8
画層1
370
    20
100
AcDbLine
 10
-643.5652292295692
 20
262.4587767256671
 30
0.0
 11
-646.023269121119
 21
262.4587767256671
 31
0.0
  0
LINE
  5
217D
330
2
100
AcDbEntity
  8
画層1
370
    20
100
AcDbLine
 10
-646.023269121119
 20
261.4587767256671
 30
0.0
 11
-643.5652292295692
 21
261.4587767256671
 31
0.0
  0
LINE
  5
217E
330
2
100
AcDbEntity
  8
画層1
370
    20
100
AcDbLine
 10
-642.5652292295692
 20
263.9587767256671
 30
0.0
 11
-643.5652292295692
 21
263.9587767256671
 31
0.0
  0
LINE
  5
217F
330
2
100
AcDbEntity
  8
画層1
370
    20
100
AcDbLine
 10
-645.0652292295692
 20
265.9587767256671
 30
0.0
 11
-641.0652292295692
 21
265.9587767256671
 31
0.0
  0
LINE
  5
2180
330
2
100
AcDbEntity
  8
画層1
370
    20
100
AcDbLine
 10
-645.0652292295692
 20
267.9587767256671
 30
0.0
 11
-641.0652292295692
 21
267.9587767256671
 31
0.0
  0
ARC
  5
2181
330
2
100
AcDbEntity
  8
画層1
370
    20
100
AcDbCircle
 10
-641.0652292295694
 20
269.9587767256671
 30
0.0
 40
2.0
100
AcDbArc
 50
270.0
 51
0.0000000000016284
  0
ARC
  5
2182
330
2
100
AcDbEntity
  8
画層1
370
    20
100
AcDbCircle
 10
-645.0652292295691
 20
269.9587767256669
 30
0.0
 40
2.0
100
AcDbArc
 50
179.9999999999951
 51
269.9999999999934
  0
ARC
  5
2183
330
2
100
AcDbEntity
  8
画層1
370
    20
100
AcDbCircle
 10
-641.0652292295691
 20
283.9587767256673
 30
0.0
 40
2.0
100
AcDbArc
 50
359.9999999999967
 51
90.0
  0
ARC
  5
2184
330
2
100
AcDbEntity
  8
画層1
370
    20
100
AcDbCircle
 10
-645.0652292295693
 20
283.9587767256672
 30
0.0
 40
2.0
100
AcDbArc
 50
89.99999999999349
 51
180.0000000000016
  0
LINE
  5
2185
330
2
100
AcDbEntity
  8
画層1
370
    20
100
AcDbLine
 10
-642.5652292295692
 20
283.9587767256671
 30
0.0
 11
-643.5652292295692
 21
283.9587767256671
 31
0.0
  0
LINE
  5
2186
330
2
100
AcDbEntity
  8
画層1
370
    20
100
AcDbLine
 10
-645.0652292295692
 20
285.9587767256671
 30
0.0
 11
-641.0652292295692
 21
285.9587767256671
 31
0.0
  0
ARC
  5
2187
330
2
100
AcDbEntity
  8
画層1
370
    20
100
AcDbCircle
 10
-641.0652292295694
 20
279.9587767256671
 30
0.0
 40
2.0
100
AcDbArc
 50
270.0
 51
0.0000000000016284
  0
LINE
  5
2188
330
2
100
AcDbEntity
  8
画層1
370
    20
100
AcDbLine
 10
-642.5652292295692
 20
279.9587767256671
 30
0.0
 11
-642.5652292295692
 21
281.4587767256671
 31
0.0
  0
LINE
  5
2189
330
2
100
AcDbEntity
  8
画層1
370
    20
100
AcDbLine
 10
-642.5652292295692
 20
281.4587767256671
 30
0.0
 11
-640.1071893380194
 21
281.4587767256671
 31
0.0
  0
LINE
  5
218A
330
2
100
AcDbEntity
  8
画層1
370
    20
100
AcDbLine
 10
-640.1071893380194
 20
282.4587767256671
 30
0.0
 11
-642.5652292295692
 21
282.4587767256671
 31
0.0
  0
ARC
  5
218B
330
2
100
AcDbEntity
  8
画層1
370
    20
100
AcDbCircle
 10
-645.0652292295691
 20
279.958776725667
 30
0.0
 40
2.0
100
AcDbArc
 50
179.9999999999951
 51
269.9999999999934
  0
LINE
  5
218C
330
2
100
AcDbEntity
  8
画層1
370
    20
100
AcDbLine
 10
-643.5652292295692
 20
282.4587767256671
 30
0.0
 11
-646.023269121119
 21
282.4587767256671
 31
0.0
  0
LINE
  5
218D
330
2
100
AcDbEntity
  8
画層1
370
    20
100
AcDbLine
 10
-646.023269121119
 20
281.4587767256671
 30
0.0
 11
-643.5652292295692
 21
281.4587767256671
 31
0.0
  0
LINE
  5
218E
330
2
100
AcDbEntity
  8
画層1
370
    20
100
AcDbLine
 10
-643.5652292295692
 20
281.4587767256671
 30
0.0
 11
-643.5652292295692
 21
279.9587767256671
 31
0.0
  0
LINE
  5
218F
330
2
100
AcDbEntity
  8
画層1
370
    20
100
AcDbLine
 10
-645.0652292295692
 20
275.9587767256671
 30
0.0
 11
-641.0652292295692
 21
275.9587767256671
 31
0.0
  0
LINE
  5
2190
330
2
100
AcDbEntity
  8
画層1
370
    20
100
AcDbLine
 10
-643.5652292295692
 20
279.9587767256671
 30
0.0
 11
-642.5652292295692
 21
279.9587767256671
 31
0.0
  0
CIRCLE
  5
2191
330
2
100
AcDbEntity
  8
画層1
370
    20
100
AcDbCircle
 10
-643.0652292295692
 20
281.9587767256671
 30
0.0
 40
3.0
  0
LINE
  5
2192
330
2
100
AcDbEntity
  8
画層1
370
    20
100
AcDbLine
 10
-639.0652292295692
 20
279.9587767256671
 30
0.0
 11
-639.0652292295692
 21
283.9587767256671
 31
0.0
  0
LINE
  5
2193
330
2
100
AcDbEntity
  8
画層1
370
    20
100
AcDbLine
 10
-643.5652292295692
 20
283.9587767256671
 30
0.0
 11
-643.5652292295692
 21
282.4587767256671
 31
0.0
  0
LINE
  5
2194
330
2
100
AcDbEntity
  8
画層1
370
    20
100
AcDbLine
 10
-642.5652292295692
 20
282.4587767256671
 30
0.0
 11
-642.5652292295692
 21
283.9587767256671
 31
0.0
  0
LINE
  5
2195
330
2
100
AcDbEntity
  8
画層1
370
    20
100
AcDbLine
 10
-648.5652292295692
 20
285.9587767256671
 30
0.0
 11
-648.5652292295692
 21
277.9587767256671
 31
0.0
  0
LINE
  5
2196
330
2
100
AcDbEntity
  8
画層1
370
    20
100
AcDbLine
 10
-647.0652292295692
 20
279.9587767256671
 30
0.0
 11
-647.0652292295692
 21
283.9587767256671
 31
0.0
  0
LINE
  5
2197
330
2
100
AcDbEntity
  8
画層1
370
    20
100
AcDbLine
 10
-637.5652292295692
 20
285.9587767256671
 30
0.0
 11
-637.5652292295692
 21
277.9587767256671
 31
0.0
  0
CIRCLE
  5
2198
330
2
100
AcDbEntity
  8
画層1
370
    20
100
AcDbCircle
 10
-640.5652295960735
 20
298.9587767256671
 30
0.0
 40
3.0
  0
ARC
  5
2199
330
2
100
AcDbEntity
  8
画層1
370
    20
100
AcDbCircle
 10
-640.5652295960735
 20
298.9587767256671
 30
0.0
 40
2.5
100
AcDbArc
 50
306.8698976458439
 51
233.1301023541559
  0
LINE
  5
219A
330
2
100
AcDbEntity
  8
画層1
370
    20
100
AcDbLine
 10
-639.7037946509458
 20
298.4509087946921
 30
0.0
 11
-638.3710817330252
 21
297.6651940334834
 31
0.0
  0
LINE
  5
219B
330
2
100
AcDbEntity
  8
画層1
370
    20
100
AcDbLine
 10
-642.0652295960735
 20
296.9587767256671
 30
0.0
 11
-641.1652295960736
 21
298.1587767256671
 31
0.0
  0
LINE
  5
219C
330
2
100
AcDbEntity
  8
画層1
370
    20
100
AcDbLine
 10
-639.9652295960735
 20
298.1587767256671
 30
0.0
 11
-639.0652295960735
 21
296.9587767256671
 31
0.0
  0
CIRCLE
  5
219D
330
2
100
AcDbEntity
  8
画層1
370
    20
100
AcDbCircle
 10
-640.5652295960735
 20
298.9587767256671
 30
0.0
 40
1.0
  0
CIRCLE
  5
219E
330
2
100
AcDbEntity
  8
画層1
370
    20
100
AcDbCircle
 10
-640.5652295960735
 20
309.4587767256671
 30
0.0
 40
1.5
  0
LINE
  5
219F
330
2
100
AcDbEntity
  8
画層1
370
    20
100
AcDbLine
 10
-645.0670997102823
 20
317.3854908631551
 30
0.0
 11
-645.0670997102823
 21
316.3854908631551
 31
0.0
  0
LINE
  5
21A0
330
2
100
AcDbEntity
  8
画層1
370
    20
100
AcDbLine
 10
-644.0670997102824
 20
316.3854908631551
 30
0.0
 11
-644.0670997102824
 21
317.3854908631551
 31
0.0
  0
LINE
  5
21A1
330
2
100
AcDbEntity
  8
画層1
370
    20
100
AcDbLine
 10
-645.0670997102823
 20
316.3854908631551
 30
0.0
 11
-644.0670997102824
 21
316.3854908631551
 31
0.0
  0
LINE
  5
21A2
330
2
100
AcDbEntity
  8
画層1
370
    20
100
AcDbLine
 10
-643.0670997102823
 20
317.3854908631551
 30
0.0
 11
-643.0670997102823
 21
318.3854908631551
 31
0.0
  0
LINE
  5
21A3
330
2
100
AcDbEntity
  8
画層1
370
    20
100
AcDbLine
 10
-645.0670997102823
 20
319.3854908631551
 30
0.0
 11
-645.0670997102823
 21
318.3854908631551
 31
0.0
  0
LINE
  5
21A4
330
2
100
AcDbEntity
  8
画層1
370
    20
100
AcDbLine
 10
-644.0670997102824
 20
318.3854908631551
 30
0.0
 11
-644.0670997102824
 21
319.3854908631551
 31
0.0
  0
LINE
  5
21A5
330
2
100
AcDbEntity
  8
画層1
370
    20
100
AcDbLine
 10
-644.0670997102824
 20
319.3854908631551
 30
0.0
 11
-645.0670997102823
 21
319.3854908631551
 31
0.0
  0
LINE
  5
21A6
330
2
100
AcDbEntity
  8
画層1
370
    20
100
AcDbLine
 10
-644.0670997102824
 20
317.3854908631551
 30
0.0
 11
-643.0670997102823
 21
317.3854908631551
 31
0.0
  0
LINE
  5
21A7
330
2
100
AcDbEntity
  8
画層1
370
    20
100
AcDbLine
 10
-643.0670997102823
 20
318.3854908631551
 30
0.0
 11
-644.0670997102824
 21
318.3854908631551
 31
0.0
  0
LINE
  5
21A8
330
2
100
AcDbEntity
  8
画層1
370
    20
100
AcDbLine
 10
-645.0670997102823
 20
318.3854908631551
 30
0.0
 11
-646.0670997102823
 21
318.3854908631551
 31
0.0
  0
LINE
  5
21A9
330
2
100
AcDbEntity
  8
画層1
370
    20
100
AcDbLine
 10
-646.0670997102823
 20
318.3854908631551
 30
0.0
 11
-646.0670997102823
 21
317.3854908631551
 31
0.0
  0
LINE
  5
21AA
330
2
100
AcDbEntity
  8
画層1
370
    20
100
AcDbLine
 10
-646.0670997102823
 20
317.3854908631551
 30
0.0
 11
-645.0670997102823
 21
317.3854908631551
 31
0.0
  0
CIRCLE
  5
21AB
330
2
100
AcDbEntity
  8
画層1
370
    20
100
AcDbCircle
 10
-644.5652295960735
 20
317.958776737169
 30
0.0
 40
3.0
  0
LINE
  5
21AC
330
2
100
AcDbEntity
  8
画層1
370
    20
100
AcDbLine
 10
-650.5652295960735
 20
173.958776737169
 30
0.0
 11
-627.5652295960735
 21
173.958776737169
 31
0.0
  0
LINE
  5
21AD
330
2
100
AcDbEntity
  8
画層1
370
    20
100
AcDbLine
 10
-627.5652295960735
 20
323.958776737169
 30
0.0
 11
-650.5652295960735
 21
323.958776737169
 31
0.0
  0
LINE
  5
21AE
330
2
100
AcDbEntity
  8
画層1
370
    20
100
AcDbLine
 10
-675.0652295960735
 20
117.958776737169
 30
0.0
 11
-476.0652295960735
 21
117.958776737169
 31
0.0
  0
CIRCLE
  5
21BE
330
2
100
AcDbEntity
  8
画層1
370
    20
100
AcDbCircle
 10
-518.0652295960737
 20
132.958776737169
 30
0.0
 40
4.0
  0
CIRCLE
  5
21C0
330
2
100
AcDbEntity
  8
画層1
370
    20
100
AcDbCircle
 10
-518.0652295960737
 20
132.958776737169
 30
0.0
 40
3.5
  0
LINE
  5
21CA
330
2
100
AcDbEntity
  8
画層1
370
    20
100
AcDbLine
 10
-518.5652295960736
 20
130.958776737169
 30
0.0
 11
-517.5652295960737
 21
130.958776737169
 31
0.0
  0
LINE
  5
21CB
330
2
100
AcDbEntity
  8
画層1
370
    20
100
AcDbLine
 10
-518.5652295960736
 20
134.958776737169
 30
0.0
 11
-517.5652295960737
 21
134.958776737169
 31
0.0
  0
LINE
  5
21CE
330
2
100
AcDbEntity
  8
画層1
370
    20
100
AcDbLine
 10
-517.5652295960737
 20
130.958776737169
 30
0.0
 11
-517.5652295960738
 21
131.9587767371689
 31
0.0
  0
LINE
  5
21CF
330
2
100
AcDbEntity
  8
画層1
370
    20
100
AcDbLine
 10
-517.0652295960738
 20
132.4587767371689
 30
0.0
 11
-516.0652295960736
 21
132.458776737169
 31
0.0
  0
LINE
  5
21D0
330
2
100
AcDbEntity
  8
画層1
370
    20
100
AcDbLine
 10
-516.0652295960736
 20
132.458776737169
 30
0.0
 11
-516.0652295960736
 21
133.458776737169
 31
0.0
  0
LINE
  5
21D1
330
2
100
AcDbEntity
  8
画層1
370
    20
100
AcDbLine
 10
-516.0652295960736
 20
133.458776737169
 30
0.0
 11
-517.0652295960738
 21
133.4587767371689
 31
0.0
  0
LINE
  5
21D2
330
2
100
AcDbEntity
  8
画層1
370
    20
100
AcDbLine
 10
-517.5652295960738
 20
133.9587767371689
 30
0.0
 11
-517.5652295960737
 21
134.958776737169
 31
0.0
  0
LINE
  5
21D3
330
2
100
AcDbEntity
  8
画層1
370
    20
100
AcDbLine
 10
-518.5652295960736
 20
134.958776737169
 30
0.0
 11
-518.5652295960737
 21
133.9587767371689
 31
0.0
  0
LINE
  5
21D4
330
2
100
AcDbEntity
  8
画層1
370
    20
100
AcDbLine
 10
-519.0652295960737
 20
133.4587767371689
 30
0.0
 11
-520.0652295960736
 21
133.458776737169
 31
0.0
  0
LINE
  5
21D5
330
2
100
AcDbEntity
  8
画層1
370
    20
100
AcDbLine
 10
-520.0652295960736
 20
133.458776737169
 30
0.0
 11
-520.0652295960736
 21
132.458776737169
 31
0.0
  0
LINE
  5
21D6
330
2
100
AcDbEntity
  8
画層1
370
    20
100
AcDbLine
 10
-520.0652295960736
 20
132.458776737169
 30
0.0
 11
-519.0652295960737
 21
132.4587767371689
 31
0.0
  0
LINE
  5
21D7
330
2
100
AcDbEntity
  8
画層1
370
    20
100
AcDbLine
 10
-518.5652295960737
 20
131.9587767371689
 30
0.0
 11
-518.5652295960736
 21
130.958776737169
 31
0.0
  0
LINE
  5
21D8
330
2
100
AcDbEntity
  8
画層1
370
    20
100
AcDbLine
 10
-634.0652295960737
 20
132.458776737169
 30
0.0
 11
-633.0652295960738
 21
132.4587767371689
 31
0.0
  0
LINE
  5
21D9
330
2
100
AcDbEntity
  8
画層1
370
    20
100
AcDbLine
 10
-633.0652295960738
 20
133.4587767371689
 30
0.0
 11
-634.0652295960737
 21
133.458776737169
 31
0.0
  0
CIRCLE
  5
21DA
330
2
100
AcDbEntity
  8
画層1
370
    20
100
AcDbCircle
 10
-632.0652295960736
 20
132.958776737169
 30
0.0
 40
3.5
  0
CIRCLE
  5
21DB
330
2
100
AcDbEntity
  8
画層1
370
    20
100
AcDbCircle
 10
-632.0652295960736
 20
132.958776737169
 30
0.0
 40
4.0
  0
LINE
  5
21DC
330
2
100
AcDbEntity
  8
画層1
370
    20
100
AcDbLine
 10
-634.0652295960737
 20
133.458776737169
 30
0.0
 11
-634.0652295960737
 21
132.458776737169
 31
0.0
  0
LINE
  5
21DD
330
2
100
AcDbEntity
  8
画層1
370
    20
100
AcDbLine
 10
-632.5652295960737
 20
131.9587767371689
 30
0.0
 11
-632.5652295960736
 21
130.958776737169
 31
0.0
  0
LINE
  5
21DE
330
2
100
AcDbEntity
  8
画層1
370
    20
100
AcDbLine
 10
-632.5652295960736
 20
134.958776737169
 30
0.0
 11
-632.5652295960737
 21
133.9587767371689
 31
0.0
  0
LINE
  5
21DF
330
2
100
AcDbEntity
  8
画層1
370
    20
100
AcDbLine
 10
-631.5652295960737
 20
133.9587767371689
 30
0.0
 11
-631.5652295960736
 21
134.958776737169
 31
0.0
  0
LINE
  5
21E0
330
2
100
AcDbEntity
  8
画層1
370
    20
100
AcDbLine
 10
-630.0652295960737
 20
133.458776737169
 30
0.0
 11
-631.0652295960737
 21
133.4587767371689
 31
0.0
  0
LINE
  5
21E1
330
2
100
AcDbEntity
  8
画層1
370
    20
100
AcDbLine
 10
-630.0652295960737
 20
132.458776737169
 30
0.0
 11
-630.0652295960737
 21
133.458776737169
 31
0.0
  0
LINE
  5
21E2
330
2
100
AcDbEntity
  8
画層1
370
    20
100
AcDbLine
 10
-631.0652295960737
 20
132.4587767371689
 30
0.0
 11
-630.0652295960737
 21
132.458776737169
 31
0.0
  0
LINE
  5
21E3
330
2
100
AcDbEntity
  8
画層1
370
    20
100
AcDbLine
 10
-631.5652295960736
 20
130.958776737169
 30
0.0
 11
-631.5652295960737
 21
131.9587767371689
 31
0.0
  0
LINE
  5
21E4
330
2
100
AcDbEntity
  8
画層1
370
    20
100
AcDbLine
 10
-632.5652295960736
 20
134.958776737169
 30
0.0
 11
-631.5652295960736
 21
134.958776737169
 31
0.0
  0
LINE
  5
21E5
330
2
100
AcDbEntity
  8
画層1
370
    20
100
AcDbLine
 10
-632.5652295960736
 20
130.958776737169
 30
0.0
 11
-631.5652295960736
 21
130.958776737169
 31
0.0
  0
LINE
  5
21E8
330
2
100
AcDbEntity
  8
画層1
370
    20
100
AcDbLine
 10
-639.0652295960734
 20
139.958776737169
 30
0.0
 11
-639.0652295960735
 21
147.958776737169
 31
0.0
  0
LINE
  5
21E9
330
2
100
AcDbEntity
  8
画層1
370
    20
100
AcDbLine
 10
-639.0652295960735
 20
147.958776737169
 30
0.0
 11
-512.0652295960735
 21
147.958776737169
 31
0.0
  0
LINE
  5
21EA
330
2
100
AcDbEntity
  8
画層1
370
    20
100
AcDbLine
 10
-512.0652295960735
 20
147.958776737169
 30
0.0
 11
-512.0652295960735
 21
139.958776737169
 31
0.0
  0
LINE
  5
21F0
330
2
100
AcDbEntity
  8
画層1
370
    20
100
AcDbLine
 10
-638.0652295960734
 20
138.958776737169
 30
0.0
 11
-627.0652295960736
 21
138.958776737169
 31
0.0
  0
LINE
  5
21F1
330
2
100
AcDbEntity
  8
画層1
370
    20
100
AcDbLine
 10
-627.0652295960736
 20
138.958776737169
 30
0.0
 11
-627.0652295960736
 21
126.958776737169
 31
0.0
  0
LINE
  5
21F2
330
2
100
AcDbEntity
  8
画層1
370
    20
100
AcDbLine
 10
-627.0652295960736
 20
126.958776737169
 30
0.0
 11
-638.0652295960734
 21
126.958776737169
 31
0.0
  0
ARC
  5
21F4
330
2
100
AcDbEntity
  8
画層1
370
    20
100
AcDbCircle
 10
-638.0652295960734
 20
139.958776737169
 30
0.0
 40
1.0
100
AcDbArc
 50
180.0
 51
270.0
  0
LINE
  5
21F7
330
2
100
AcDbEntity
  8
画層1
370
    20
100
AcDbLine
 10
-639.0652295960734
 20
125.958776737169
 30
0.0
 11
-639.0652295960735
 21
117.958776737169
 31
0.0
  0
ARC
  5
21F8
330
2
100
AcDbEntity
  8
画層1
370
    20
100
AcDbCircle
 10
-638.0652295960734
 20
125.958776737169
 30
0.0
 40
1.0
100
AcDbArc
 50
90.0
 51
180.0
  0
LINE
  5
21F9
330
2
100
AcDbEntity
  8
画層1
370
    20
100
AcDbLine
 10
-639.0652295960734
 20
139.958776737169
 30
0.0
 11
-639.0652295960734
 21
125.958776737169
 31
0.0
  0
ARC
  5
21FA
330
2
100
AcDbEntity
  8
画層1
370
    20
100
AcDbCircle
 10
-513.0652295960736
 20
139.958776737169
 30
0.0
 40
1.0
100
AcDbArc
 50
270.0
 51
0.000000000000007
  0
LINE
  5
21FB
330
2
100
AcDbEntity
  8
画層1
370
    20
100
AcDbLine
 10
-512.0652295960736
 20
139.958776737169
 30
0.0
 11
-512.0652295960736
 21
125.958776737169
 31
0.0
  0
LINE
  5
21FC
330
2
100
AcDbEntity
  8
画層1
370
    20
100
AcDbLine
 10
-512.0652295960736
 20
139.958776737169
 30
0.0
 11
-512.0652295960735
 21
147.958776737169
 31
0.0
  0
LINE
  5
21FD
330
2
100
AcDbEntity
  8
画層1
370
    20
100
AcDbLine
 10
-513.0652295960736
 20
138.958776737169
 30
0.0
 11
-524.0652295960735
 21
138.958776737169
 31
0.0
  0
LINE
  5
21FE
330
2
100
AcDbEntity
  8
画層1
370
    20
100
AcDbLine
 10
-524.0652295960735
 20
138.958776737169
 30
0.0
 11
-524.0652295960735
 21
126.958776737169
 31
0.0
  0
LINE
  5
21FF
330
2
100
AcDbEntity
  8
画層1
370
    20
100
AcDbLine
 10
-524.0652295960735
 20
126.958776737169
 30
0.0
 11
-513.0652295960736
 21
126.958776737169
 31
0.0
  0
LINE
  5
2200
330
2
100
AcDbEntity
  8
画層1
370
    20
100
AcDbLine
 10
-512.0652295960736
 20
125.958776737169
 30
0.0
 11
-512.0652295960735
 21
117.958776737169
 31
0.0
  0
ARC
  5
2201
330
2
100
AcDbEntity
  8
画層1
370
    20
100
AcDbCircle
 10
-513.0652295960736
 20
125.958776737169
 30
0.0
 40
1.0
100
AcDbArc
 50
0.000000000000007
 51
90.0
  0
CIRCLE
  5
2204
330
2
100
AcDbEntity
  8
画層1
370
    20
100
AcDbCircle
 10
-518.0652295960737
 20
122.958776737169
 30
0.0
 40
3.0
  0
LINE
  5
220F
330
2
100
AcDbEntity
  8
画層1
370
    20
100
AcDbLine
 10
-519.5652295960736
 20
123.458776737169
 30
0.0
 11
-519.5652295960736
 21
122.458776737169
 31
0.0
  0
LINE
  5
2210
330
2
100
AcDbEntity
  8
画層1
370
    20
100
AcDbLine
 10
-519.5652295960736
 20
122.458776737169
 30
0.0
 11
-519.0652295960736
 21
122.458776737169
 31
0.0
  0
LINE
  5
2211
330
2
100
AcDbEntity
  8
画層1
370
    20
100
AcDbLine
 10
-518.5652295960736
 20
121.958776737169
 30
0.0
 11
-518.5652295960736
 21
121.458776737169
 31
0.0
  0
LINE
  5
2212
330
2
100
AcDbEntity
  8
画層1
370
    20
100
AcDbLine
 10
-518.5652295960736
 20
121.458776737169
 30
0.0
 11
-517.5652295960737
 21
121.458776737169
 31
0.0
  0
LINE
  5
2213
330
2
100
AcDbEntity
  8
画層1
370
    20
100
AcDbLine
 10
-517.5652295960737
 20
121.458776737169
 30
0.0
 11
-517.5652295960737
 21
121.958776737169
 31
0.0
  0
LINE
  5
2214
330
2
100
AcDbEntity
  8
画層1
370
    20
100
AcDbLine
 10
-517.0652295960736
 20
122.458776737169
 30
0.0
 11
-516.5652295960736
 21
122.458776737169
 31
0.0
  0
LINE
  5
2215
330
2
100
AcDbEntity
  8
画層1
370
    20
100
AcDbLine
 10
-516.5652295960736
 20
122.458776737169
 30
0.0
 11
-516.5652295960736
 21
123.458776737169
 31
0.0
  0
LINE
  5
2216
330
2
100
AcDbEntity
  8
画層1
370
    20
100
AcDbLine
 10
-516.5652295960736
 20
123.458776737169
 30
0.0
 11
-517.0652295960736
 21
123.458776737169
 31
0.0
  0
LINE
  5
2217
330
2
100
AcDbEntity
  8
画層1
370
    20
100
AcDbLine
 10
-517.5652295960737
 20
123.958776737169
 30
0.0
 11
-517.5652295960737
 21
124.458776737169
 31
0.0
  0
LINE
  5
2218
330
2
100
AcDbEntity
  8
画層1
370
    20
100
AcDbLine
 10
-517.5652295960737
 20
124.458776737169
 30
0.0
 11
-518.5652295960736
 21
124.458776737169
 31
0.0
  0
LINE
  5
2219
330
2
100
AcDbEntity
  8
画層1
370
    20
100
AcDbLine
 10
-518.5652295960736
 20
124.458776737169
 30
0.0
 11
-518.5652295960736
 21
123.958776737169
 31
0.0
  0
LINE
  5
221A
330
2
100
AcDbEntity
  8
画層1
370
    20
100
AcDbLine
 10
-519.0652295960736
 20
123.458776737169
 30
0.0
 11
-519.5652295960736
 21
123.458776737169
 31
0.0
  0
CIRCLE
  5
221C
330
2
100
AcDbEntity
  8
画層1
370
    20
100
AcDbCircle
 10
-632.0652295960736
 20
142.958776737169
 30
0.0
 40
3.0
  0
LINE
  5
221D
330
2
100
AcDbEntity
  8
画層1
370
    20
100
AcDbLine
 10
-633.0652295960736
 20
142.458776737169
 30
0.0
 11
-633.5652295960736
 21
142.458776737169
 31
0.0
  0
LINE
  5
221E
330
2
100
AcDbEntity
  8
画層1
370
    20
100
AcDbLine
 10
-632.5652295960736
 20
141.458776737169
 30
0.0
 11
-632.5652295960736
 21
141.958776737169
 31
0.0
  0
LINE
  5
221F
330
2
100
AcDbEntity
  8
画層1
370
    20
100
AcDbLine
 10
-631.5652295960736
 20
141.458776737169
 30
0.0
 11
-632.5652295960736
 21
141.458776737169
 31
0.0
  0
LINE
  5
2220
330
2
100
AcDbEntity
  8
画層1
370
    20
100
AcDbLine
 10
-631.5652295960736
 20
141.958776737169
 30
0.0
 11
-631.5652295960736
 21
141.458776737169
 31
0.0
  0
LINE
  5
2221
330
2
100
AcDbEntity
  8
画層1
370
    20
100
AcDbLine
 10
-630.5652295960737
 20
142.458776737169
 30
0.0
 11
-631.0652295960736
 21
142.458776737169
 31
0.0
  0
LINE
  5
2222
330
2
100
AcDbEntity
  8
画層1
370
    20
100
AcDbLine
 10
-630.5652295960737
 20
143.458776737169
 30
0.0
 11
-630.5652295960737
 21
142.458776737169
 31
0.0
  0
LINE
  5
2223
330
2
100
AcDbEntity
  8
画層1
370
    20
100
AcDbLine
 10
-631.0652295960736
 20
143.458776737169
 30
0.0
 11
-630.5652295960737
 21
143.458776737169
 31
0.0
  0
LINE
  5
2224
330
2
100
AcDbEntity
  8
画層1
370
    20
100
AcDbLine
 10
-631.5652295960736
 20
144.458776737169
 30
0.0
 11
-631.5652295960736
 21
143.958776737169
 31
0.0
  0
LINE
  5
2225
330
2
100
AcDbEntity
  8
画層1
370
    20
100
AcDbLine
 10
-632.5652295960736
 20
144.458776737169
 30
0.0
 11
-631.5652295960736
 21
144.458776737169
 31
0.0
  0
LINE
  5
2226
330
2
100
AcDbEntity
  8
画層1
370
    20
100
AcDbLine
 10
-632.5652295960736
 20
143.958776737169
 30
0.0
 11
-632.5652295960736
 21
144.458776737169
 31
0.0
  0
LINE
  5
2227
330
2
100
AcDbEntity
  8
画層1
370
    20
100
AcDbLine
 10
-633.5652295960736
 20
143.458776737169
 30
0.0
 11
-633.0652295960736
 21
143.458776737169
 31
0.0
  0
LINE
  5
2228
330
2
100
AcDbEntity
  8
画層1
370
    20
100
AcDbLine
 10
-633.5652295960736
 20
142.458776737169
 30
0.0
 11
-633.5652295960736
 21
143.458776737169
 31
0.0
  0
LWPOLYLINE
  5
2230
330
2
100
AcDbEntity
  8
画層1
370
    20
100
AcDbPolyline
 90
        4
 70
     1
 43
0.0
 10
-574.5652295960735
 20
124.958776737169
 10
-560.5652295960735
 20
124.958776737169
 10
-560.5652295960735
 20
140.958776737169
 10
-574.5652295960735
 20
140.958776737169
  0
CIRCLE
  5
2231
330
2
100
AcDbEntity
  8
画層1
370
    20
100
AcDbCircle
 10
-567.5652295960735
 20
132.958776737169
 30
0.0
 40
5.0
  0
CIRCLE
  5
226C
330
2
100
AcDbEntity
  8
画層1
370
    20
100
AcDbCircle
 10
-583.5652295960735
 20
132.958776737169
 30
0.0
 40
5.0
  0
LWPOLYLINE
  5
226D
330
2
100
AcDbEntity
  8
画層1
370
    20
100
AcDbPolyline
 90
        4
 70
     1
 43
0.0
 10
-590.5652295960735
 20
124.958776737169
 10
-576.5652295960735
 20
124.958776737169
 10
-576.5652295960735
 20
140.958776737169
 10
-590.5652295960735
 20
140.958776737169
  0
ARC
  5
227D
330
2
100
AcDbEntity
  8
画層1
370
    20
100
AcDbCircle
 10
-575.5652295960735
 20
146.958776737169
 30
0.0
 40
1.0
100
AcDbArc
 50
0.0
 51
180.0
  0
ARC
  5
227E
330
2
100
AcDbEntity
  8
画層1
370
    20
100
AcDbCircle
 10
-575.5652295960735
 20
118.958776737169
 30
0.0
 40
1.0
100
AcDbArc
 50
180.0
 51
0.0
  0
LINE
  5
2282
330
2
100
AcDbEntity
  8
画層1
370
    20
100
AcDbLine
 10
-576.5652295960735
 20
118.958776737169
 30
0.0
 11
-576.5652295960735
 21
124.958776737169
 31
0.0
  0
LINE
  5
2283
330
2
100
AcDbEntity
  8
画層1
370
    20
100
AcDbLine
 10
-574.5652295960735
 20
118.958776737169
 30
0.0
 11
-574.5652295960735
 21
124.958776737169
 31
0.0
  0
LINE
  5
2284
330
2
100
AcDbEntity
  8
画層1
370
    20
100
AcDbLine
 10
-576.5652295960735
 20
140.958776737169
 30
0.0
 11
-576.5652295960735
 21
146.958776737169
 31
0.0
  0
LINE
  5
2285
330
2
100
AcDbEntity
  8
画層1
370
    20
100
AcDbLine
 10
-574.5652295960735
 20
140.958776737169
 30
0.0
 11
-574.5652295960735
 21
146.958776737169
 31
0.0
  0
CIRCLE
  5
2286
330
2
100
AcDbEntity
  8
画層1
370
    20
100
AcDbCircle
 10
-551.5652295960735
 20
132.958776737169
 30
0.0
 40
5.0
  0
LINE
  5
2287
330
2
100
AcDbEntity
  8
画層1
370
    20
100
AcDbLine
 10
-558.5652295960735
 20
118.958776737169
 30
0.0
 11
-558.5652295960735
 21
124.958776737169
 31
0.0
  0
LINE
  5
2288
330
2
100
AcDbEntity
  8
画層1
370
    20
100
AcDbLine
 10
-560.5652295960735
 20
118.958776737169
 30
0.0
 11
-560.5652295960735
 21
124.958776737169
 31
0.0
  0
ARC
  5
2289
330
2
100
AcDbEntity
  8
画層1
370
    20
100
AcDbCircle
 10
-559.5652295960735
 20
118.958776737169
 30
0.0
 40
1.0
100
AcDbArc
 50
180.0
 51
0.0
  0
LWPOLYLINE
  5
228A
330
2
100
AcDbEntity
  8
画層1
370
    20
100
AcDbPolyline
 90
        4
 70
     1
 43
0.0
 10
-558.5652295960735
 20
124.958776737169
 10
-544.5652295960735
 20
124.958776737169
 10
-544.5652295960735
 20
140.958776737169
 10
-558.5652295960735
 20
140.958776737169
  0
LINE
  5
2297
330
2
100
AcDbEntity
  8
画層1
370
    20
100
AcDbLine
 10
-558.5652295960735
 20
140.958776737169
 30
0.0
 11
-558.5652295960735
 21
146.958776737169
 31
0.0
  0
LINE
  5
2298
330
2
100
AcDbEntity
  8
画層1
370
    20
100
AcDbLine
 10
-560.5652295960735
 20
140.958776737169
 30
0.0
 11
-560.5652295960735
 21
146.958776737169
 31
0.0
  0
ARC
  5
2299
330
2
100
AcDbEntity
  8
画層1
370
    20
100
AcDbCircle
 10
-559.5652295960735
 20
146.958776737169
 30
0.0
 40
1.0
100
AcDbArc
 50
0.0
 51
180.0
  0
LINE
  5
229A
330
2
100
AcDbEntity
  8
画層1
370
    20
100
AcDbLine
 10
-544.5652295960735
 20
118.958776737169
 30
0.0
 11
-544.5652295960735
 21
124.958776737169
 31
0.0
  0
LINE
  5
229B
330
2
100
AcDbEntity
  8
画層1
370
    20
100
AcDbLine
 10
-542.5652295960735
 20
118.958776737169
 30
0.0
 11
-542.5652295960735
 21
124.958776737169
 31
0.0
  0
ARC
  5
229C
330
2
100
AcDbEntity
  8
画層1
370
    20
100
AcDbCircle
 10
-543.5652295960735
 20
118.958776737169
 30
0.0
 40
1.0
100
AcDbArc
 50
180.0
 51
0.0
  0
LWPOLYLINE
  5
229D
330
2
100
AcDbEntity
  8
画層1
370
    20
100
AcDbPolyline
 90
        4
 70
     1
 43
0.0
 10
-542.5652295960735
 20
124.958776737169
 10
-528.5652295960735
 20
124.958776737169
 10
-528.5652295960735
 20
140.958776737169
 10
-542.5652295960735
 20
140.958776737169
  0
CIRCLE
  5
229E
330
2
100
AcDbEntity
  8
画層1
370
    20
100
AcDbCircle
 10
-535.5652295960735
 20
132.958776737169
 30
0.0
 40
5.0
  0
LINE
  5
229F
330
2
100
AcDbEntity
  8
画層1
370
    20
100
AcDbLine
 10
-536.5652295960735
 20
129.958776737169
 30
0.0
 11
-534.5652295960735
 21
129.958776737169
 31
0.0
  0
LINE
  5
22A0
330
2
100
AcDbEntity
  8
画層1
370
    20
100
AcDbLine
 10
-536.5652295960735
 20
135.958776737169
 30
0.0
 11
-534.5652295960735
 21
135.958776737169
 31
0.0
  0
LINE
  5
22A1
330
2
100
AcDbEntity
  8
画層1
370
    20
100
AcDbLine
 10
-538.5652295960735
 20
133.958776737169
 30
0.0
 11
-538.5652295960735
 21
131.958776737169
 31
0.0
  0
LINE
  5
22A2
330
2
100
AcDbEntity
  8
画層1
370
    20
100
AcDbLine
 10
-538.5652295960735
 20
131.958776737169
 30
0.0
 11
-537.5652295960735
 21
131.9587767371689
 31
0.0
  0
LINE
  5
22A3
330
2
100
AcDbEntity
  8
画層1
370
    20
100
AcDbLine
 10
-536.5652295960735
 20
130.958776737169
 30
0.0
 11
-536.5652295960735
 21
129.958776737169
 31
0.0
  0
LINE
  5
22A4
330
2
100
AcDbEntity
  8
画層1
370
    20
100
AcDbLine
 10
-537.5652295960735
 20
133.9587767371689
 30
0.0
 11
-538.5652295960735
 21
133.958776737169
 31
0.0
  0
LINE
  5
22A5
330
2
100
AcDbEntity
  8
画層1
370
    20
100
AcDbLine
 10
-536.5652295960735
 20
135.958776737169
 30
0.0
 11
-536.5652295960735
 21
134.9587767371689
 31
0.0
  0
LINE
  5
22A6
330
2
100
AcDbEntity
  8
画層1
370
    20
100
AcDbLine
 10
-532.5652295960735
 20
131.958776737169
 30
0.0
 11
-532.5652295960735
 21
133.958776737169
 31
0.0
  0
LINE
  5
22A7
330
2
100
AcDbEntity
  8
画層1
370
    20
100
AcDbLine
 10
-533.5652295960735
 20
131.9587767371689
 30
0.0
 11
-532.5652295960735
 21
131.958776737169
 31
0.0
  0
LINE
  5
22A8
330
2
100
AcDbEntity
  8
画層1
370
    20
100
AcDbLine
 10
-534.5652295960735
 20
129.958776737169
 30
0.0
 11
-534.5652295960735
 21
130.958776737169
 31
0.0
  0
LINE
  5
22A9
330
2
100
AcDbEntity
  8
画層1
370
    20
100
AcDbLine
 10
-532.5652295960735
 20
133.958776737169
 30
0.0
 11
-533.5652295960735
 21
133.9587767371689
 31
0.0
  0
LINE
  5
22AA
330
2
100
AcDbEntity
  8
画層1
370
    20
100
AcDbLine
 10
-534.5652295960735
 20
134.9587767371689
 30
0.0
 11
-534.5652295960735
 21
135.958776737169
 31
0.0
  0
ARC
  5
22AB
330
2
100
AcDbEntity
  8
画層1
370
    20
100
AcDbCircle
 10
-543.5652295960735
 20
146.958776737169
 30
0.0
 40
1.0
100
AcDbArc
 50
0.0
 51
180.0
  0
LINE
  5
22AC
330
2
100
AcDbEntity
  8
画層1
370
    20
100
AcDbLine
 10
-544.5652295960735
 20
140.958776737169
 30
0.0
 11
-544.5652295960735
 21
146.958776737169
 31
0.0
  0
LINE
  5
22AD
330
2
100
AcDbEntity
  8
画層1
370
    20
100
AcDbLine
 10
-542.5652295960735
 20
140.958776737169
 30
0.0
 11
-542.5652295960735
 21
146.958776737169
 31
0.0
  0
LINE
  5
22B0
330
2
100
AcDbEntity
  8
画層1
370
    20
100
AcDbLine
 10
-528.5652295960735
 20
140.958776737169
 30
0.0
 11
-528.5652295960735
 21
147.958776737169
 31
0.0
  0
LINE
  5
22B2
330
2
100
AcDbEntity
  8
画層1
370
    20
100
AcDbLine
 10
-528.5652295960735
 20
117.958776737169
 30
0.0
 11
-528.5652295960735
 21
124.958776737169
 31
0.0
  0
LINE
  5
22B4
330
2
100
AcDbEntity
  8
画層1
370
    20
100
AcDbLine
 10
-590.5652295960735
 20
118.958776737169
 30
0.0
 11
-590.5652295960735
 21
124.958776737169
 31
0.0
  0
LINE
  5
22B5
330
2
100
AcDbEntity
  8
画層1
370
    20
100
AcDbLine
 10
-592.5652295960735
 20
118.958776737169
 30
0.0
 11
-592.5652295960735
 21
124.958776737169
 31
0.0
  0
ARC
  5
22B6
330
2
100
AcDbEntity
  8
画層1
370
    20
100
AcDbCircle
 10
-591.5652295960735
 20
118.958776737169
 30
0.0
 40
1.0
100
AcDbArc
 50
180.0
 51
0.0
  0
LWPOLYLINE
  5
22B9
330
2
100
AcDbEntity
  8
画層1
370
    20
100
AcDbPolyline
 90
        4
 70
     1
 43
0.0
 10
-606.5652295960735
 20
124.958776737169
 10
-592.5652295960735
 20
124.958776737169
 10
-592.5652295960735
 20
140.958776737169
 10
-606.5652295960735
 20
140.958776737169
  0
CIRCLE
  5
22BA
330
2
100
AcDbEntity
  8
画層1
370
    20
100
AcDbCircle
 10
-599.5652295960735
 20
132.958776737169
 30
0.0
 40
5.0
  0
LINE
  5
22C5
330
2
100
AcDbEntity
  8
画層1
370
    20
100
AcDbLine
 10
-590.5652295960735
 20
140.958776737169
 30
0.0
 11
-590.5652295960735
 21
146.958776737169
 31
0.0
  0
LINE
  5
22C6
330
2
100
AcDbEntity
  8
画層1
370
    20
100
AcDbLine
 10
-592.5652295960735
 20
140.958776737169
 30
0.0
 11
-592.5652295960735
 21
146.958776737169
 31
0.0
  0
ARC
  5
22C7
330
2
100
AcDbEntity
  8
画層1
370
    20
100
AcDbCircle
 10
-591.5652295960735
 20
146.958776737169
 30
0.0
 40
1.0
100
AcDbArc
 50
0.0
 51
180.0
  0
LINE
  5
22C8
330
2
100
AcDbEntity
  8
画層1
370
    20
100
AcDbLine
 10
-608.5652295960735
 20
118.958776737169
 30
0.0
 11
-608.5652295960735
 21
124.958776737169
 31
0.0
  0
LINE
  5
22C9
330
2
100
AcDbEntity
  8
画層1
370
    20
100
AcDbLine
 10
-606.5652295960735
 20
118.958776737169
 30
0.0
 11
-606.5652295960735
 21
124.958776737169
 31
0.0
  0
ARC
  5
22CA
330
2
100
AcDbEntity
  8
画層1
370
    20
100
AcDbCircle
 10
-607.5652295960735
 20
118.958776737169
 30
0.0
 40
1.0
100
AcDbArc
 50
180.0
 51
0.0
  0
LWPOLYLINE
  5
22CB
330
2
100
AcDbEntity
  8
画層1
370
    20
100
AcDbPolyline
 90
        4
 70
     1
 43
0.0
 10
-622.5652295960735
 20
124.958776737169
 10
-608.5652295960735
 20
124.958776737169
 10
-608.5652295960735
 20
140.958776737169
 10
-622.5652295960735
 20
140.958776737169
  0
CIRCLE
  5
22CC
330
2
100
AcDbEntity
  8
画層1
370
    20
100
AcDbCircle
 10
-615.5652295960735
 20
132.958776737169
 30
0.0
 40
5.0
  0
ARC
  5
22D9
330
2
100
AcDbEntity
  8
画層1
370
    20
100
AcDbCircle
 10
-607.5652295960735
 20
146.958776737169
 30
0.0
 40
1.0
100
AcDbArc
 50
0.0
 51
180.0
  0
LINE
  5
22DA
330
2
100
AcDbEntity
  8
画層1
370
    20
100
AcDbLine
 10
-608.5652295960735
 20
140.958776737169
 30
0.0
 11
-608.5652295960735
 21
146.958776737169
 31
0.0
  0
LINE
  5
22DB
330
2
100
AcDbEntity
  8
画層1
370
    20
100
AcDbLine
 10
-606.5652295960735
 20
140.958776737169
 30
0.0
 11
-606.5652295960735
 21
146.958776737169
 31
0.0
  0
LINE
  5
22DD
330
2
100
AcDbEntity
  8
画層1
370
    20
100
AcDbLine
 10
-622.5652295960735
 20
140.958776737169
 30
0.0
 11
-622.5652295960735
 21
147.958776737169
 31
0.0
  0
LINE
  5
22DE
330
2
100
AcDbEntity
  8
画層1
370
    20
100
AcDbLine
 10
-622.5652295960735
 20
117.958776737169
 30
0.0
 11
-622.5652295960735
 21
124.958776737169
 31
0.0
  0
ARC
  5
22E3
330
2
100
AcDbEntity
  8
画層1
370
    20
100
AcDbCircle
 10
-474.0652295960736
 20
147.958776737169
 30
0.0
 40
2.0
100
AcDbArc
 50
270.0000000000032
 51
355.5118060505389
  0
LINE
  5
22E4
330
2
100
AcDbEntity
  8
画層1
370
    20
100
AcDbLine
 10
-474.0652295960735
 20
151.958776737169
 30
0.0
 11
-474.0652295960735
 21
145.958776737169
 31
0.0
  0
ARC
  5
22E5
330
2
100
AcDbEntity
  8
画層1
370
    20
100
AcDbCircle
 10
-475.0652295960736
 20
145.958776737169
 30
0.0
 40
1.0
100
AcDbArc
 50
270.0
 51
0.0
  0
LINE
  5
22E6
330
2
100
AcDbEntity
  8
画層1
370
    20
100
AcDbLine
 10
-476.0652295960735
 20
143.958776737169
 30
0.0
 11
-476.0652295960735
 21
143.958776737169
 31
0.0
  0
ARC
  5
22E8
330
2
100
AcDbEntity
  8
画層1
370
    20
100
AcDbCircle
 10
-475.0652295960735
 20
151.958776737169
 30
0.0
 40
1.0
100
AcDbArc
 50
0.0
 51
90.0
  0
LINE
  5
22EA
330
2
100
AcDbEntity
  8
画層1
370
    20
100
AcDbLine
 10
-473.0652295960735
 20
149.4861287371352
 30
0.0
 11
-473.0652295960735
 21
148.4861287371352
 31
0.0
  0
ARC
  5
22EB
330
2
100
AcDbEntity
  8
画層1
370
    20
100
AcDbCircle
 10
-474.0652295960735
 20
149.958776737169
 30
0.0
 40
2.000000000000003
100
AcDbArc
 50
8.896611521296255
 51
90.0
  0
ARC
  5
22ED
330
2
100
AcDbEntity
  8
画層1
370
    20
100
AcDbCircle
 10
-473.1319731403993
 20
147.3249955672228
 30
0.0
 40
1.163049843721167
100
AcDbArc
 50
24.22770461251321
 51
86.71017928508399
  0
LINE
  5
22EE
330
2
100
AcDbEntity
  8
画層1
370
    20
100
AcDbLine
 10
-473.0652295960735
 20
148.4861287371352
 30
0.0
 11
-473.0652295960735
 21
148.4861287371352
 31
0.0
  0
ARC
  5
22EF
330
2
100
AcDbEntity
  8
画層1
370
    20
100
AcDbCircle
 10
-473.0652295960735
 20
150.4861287371352
 30
0.0
 40
0.9999999999999431
100
AcDbArc
 50
269.9999999999967
 51
347.4055866001636
  0
LINE
  5
22F0
330
2
100
AcDbEntity
  8
画層1
370
    20
100
AcDbLine
 10
-473.0652295960735
 20
149.4861287371352
 30
0.0
 11
-473.0652295960735
 21
149.4861287371352
 31
0.0
  0
LINE
  5
22F4
330
2
100
AcDbEntity
  8
画層1
370
    20
100
AcDbLine
 10
-472.0892915688117
 20
150.2680806531165
 30
0.0
 11
-472.071362637243
 21
147.8022693875545
 31
0.0
  0
LINE
  5
22F5
330
2
100
AcDbEntity
  8
画層1
370
    20
100
AcDbLine
 10
-476.0652295960735
 20
153.958776737169
 30
0.0
 11
-476.0652295960735
 21
153.958776737169
 31
0.0
  0
LINE
  5
22FA
330
2
100
AcDbEntity
  8
画層1
370
    20
100
AcDbLine
 10
-475.0652295960735
 20
152.958776737169
 30
0.0
 11
-476.0652295960735
 21
152.958776737169
 31
0.0
  0
LINE
  5
22FB
330
2
100
AcDbEntity
  8
画層1
370
    20
100
AcDbLine
 10
-475.0652295960736
 20
144.958776737169
 30
0.0
 11
-476.0652295960735
 21
144.958776737169
 31
0.0
  0
LINE
  5
2314
330
2
100
AcDbEntity
  8
画層1
370
    20
100
AcDbLine
 10
-677.0652295960736
 20
151.958776737169
 30
0.0
 11
-677.0652295960736
 21
145.958776737169
 31
0.0
  0
ARC
  5
2315
330
2
100
AcDbEntity
  8
画層1
370
    20
100
AcDbCircle
 10
-677.0652295960736
 20
149.958776737169
 30
0.0
 40
2.000000000000003
100
AcDbArc
 50
90.0
 51
171.1033884787037
  0
LINE
  5
2316
330
2
100
AcDbEntity
  8
画層1
370
    20
100
AcDbLine
 10
-676.0652295960734
 20
144.958776737169
 30
0.0
 11
-675.0652295960735
 21
144.958776737169
 31
0.0
  0
ARC
  5
2317
330
2
100
AcDbEntity
  8
画層1
370
    20
100
AcDbCircle
 10
-676.0652295960734
 20
145.958776737169
 30
0.0
 40
1.0
100
AcDbArc
 50
180.0
 51
270.0
  0
ARC
  5
2318
330
2
100
AcDbEntity
  8
画層1
370
    20
100
AcDbCircle
 10
-678.0652295960735
 20
150.4861287371352
 30
0.0
 40
0.9999999999999431
100
AcDbArc
 50
192.5944133998363
 51
270.0000000000032
  0
LINE
  5
2319
330
2
100
AcDbEntity
  8
画層1
370
    20
100
AcDbLine
 10
-679.0411676233354
 20
150.2680806531165
 30
0.0
 11
-679.059096554904
 21
147.8022693875545
 31
0.0
  0
ARC
  5
231A
330
2
100
AcDbEntity
  8
画層1
370
    20
100
AcDbCircle
 10
-677.0652295960734
 20
147.958776737169
 30
0.0
 40
2.0
100
AcDbArc
 50
184.488193949461
 51
269.9999999999967
  0
ARC
  5
231B
330
2
100
AcDbEntity
  8
画層1
370
    20
100
AcDbCircle
 10
-677.9984860517477
 20
147.3249955672228
 30
0.0
 40
1.163049843721167
100
AcDbArc
 50
93.289820714916
 51
155.7722953874867
  0
LINE
  5
231C
330
2
100
AcDbEntity
  8
画層1
370
    20
100
AcDbLine
 10
-675.0652295960735
 20
143.958776737169
 30
0.0
 11
-675.0652295960735
 21
143.958776737169
 31
0.0
  0
LINE
  5
231D
330
2
100
AcDbEntity
  8
画層1
370
    20
100
AcDbLine
 10
-678.0652295960735
 20
149.4861287371352
 30
0.0
 11
-678.0652295960735
 21
149.4861287371352
 31
0.0
  0
LINE
  5
231E
330
2
100
AcDbEntity
  8
画層1
370
    20
100
AcDbLine
 10
-678.0652295960735
 20
148.4861287371352
 30
0.0
 11
-678.0652295960735
 21
148.4861287371352
 31
0.0
  0
LINE
  5
231F
330
2
100
AcDbEntity
  8
画層1
370
    20
100
AcDbLine
 10
-678.0652295960735
 20
149.4861287371352
 30
0.0
 11
-678.0652295960735
 21
148.4861287371352
 31
0.0
  0
LINE
  5
2320
330
2
100
AcDbEntity
  8
画層1
370
    20
100
AcDbLine
 10
-676.0652295960735
 20
152.958776737169
 30
0.0
 11
-675.0652295960735
 21
152.958776737169
 31
0.0
  0
ARC
  5
2321
330
2
100
AcDbEntity
  8
画層1
370
    20
100
AcDbCircle
 10
-676.0652295960735
 20
151.958776737169
 30
0.0
 40
1.0
100
AcDbArc
 50
90.0
 51
180.0
  0
LINE
  5
2322
330
2
100
AcDbEntity
  8
画層1
370
    20
100
AcDbLine
 10
-675.0652295960735
 20
153.958776737169
 30
0.0
 11
-675.0652295960735
 21
153.958776737169
 31
0.0
  0
LINE
  5
232D
330
2
100
AcDbEntity
  8
画層1
370
    20
100
AcDbLine
 10
-472.0652295960735
 20
302.9587767371689
 30
0.0
 11
-476.0652295960735
 21
302.9587767371689
 31
0.0
  0
LINE
  5
232E
330
2
100
AcDbEntity
  8
画層1
370
    20
100
AcDbLine
 10
-472.0652295960735
 20
314.9587767371689
 30
0.0
 11
-476.0652295960735
 21
314.9587767371689
 31
0.0
  0
LINE
  5
232F
330
2
100
AcDbEntity
  8
画層1
370
    20
100
AcDbLine
 10
-472.0652295960735
 20
312.9587767371689
 30
0.0
 11
-476.0652295960735
 21
312.9587767371689
 31
0.0
  0
LINE
  5
2330
330
2
100
AcDbEntity
  8
画層1
370
    20
100
AcDbLine
 10
-472.0652295960735
 20
304.9587767371689
 30
0.0
 11
-476.0652295960735
 21
304.9587767371689
 31
0.0
  0
LINE
  5
2331
330
2
100
AcDbEntity
  8
画層1
370
    20
100
AcDbLine
 10
-471.0652295960735
 20
313.9587767371689
 30
0.0
 11
-471.0652295960735
 21
303.9587767371689
 31
0.0
  0
ARC
  5
2332
330
2
100
AcDbEntity
  8
画層1
370
    20
100
AcDbCircle
 10
-472.0652295960735
 20
313.9587767371689
 30
0.0
 40
1.0
100
AcDbArc
 50
0.0
 51
90.0
  0
ARC
  5
2333
330
2
100
AcDbEntity
  8
画層1
370
    20
100
AcDbCircle
 10
-472.0652295960735
 20
313.9587767371689
 30
0.0
 40
1.0
100
AcDbArc
 50
270.0
 51
0.0
  0
ARC
  5
2335
330
2
100
AcDbEntity
  8
画層1
370
    20
100
AcDbCircle
 10
-472.0652295960735
 20
303.9587767371689
 30
0.0
 40
1.0
100
AcDbArc
 50
0.0
 51
90.0
  0
ARC
  5
2336
330
2
100
AcDbEntity
  8
画層1
370
    20
100
AcDbCircle
 10
-472.0652295960735
 20
303.9587767371689
 30
0.0
 40
1.0
100
AcDbArc
 50
270.0
 51
0.0
  0
LINE
  5
2341
330
2
100
AcDbEntity
  8
画層1
370
    20
100
AcDbLine
 10
-474.0652295960735
 20
321.958776737169
 30
0.0
 11
-474.0652295960735
 21
315.958776737169
 31
0.0
  0
ARC
  5
2342
330
2
100
AcDbEntity
  8
画層1
370
    20
100
AcDbCircle
 10
-474.0652295960735
 20
319.958776737169
 30
0.0
 40
2.000000000000003
100
AcDbArc
 50
8.896611521296255
 51
90.0
  0
LINE
  5
2343
330
2
100
AcDbEntity
  8
画層1
370
    20
100
AcDbLine
 10
-475.0652295960736
 20
314.958776737169
 30
0.0
 11
-476.0652295960735
 21
314.958776737169
 31
0.0
  0
ARC
  5
2344
330
2
100
AcDbEntity
  8
画層1
370
    20
100
AcDbCircle
 10
-475.0652295960736
 20
315.958776737169
 30
0.0
 40
1.0
100
AcDbArc
 50
270.0
 51
0.0
  0
ARC
  5
2345
330
2
100
AcDbEntity
  8
画層1
370
    20
100
AcDbCircle
 10
-473.0652295960735
 20
320.4861287371352
 30
0.0
 40
0.9999999999999431
100
AcDbArc
 50
269.9999999999967
 51
347.4055866001636
  0
LINE
  5
2346
330
2
100
AcDbEntity
  8
画層1
370
    20
100
AcDbLine
 10
-472.0892915688117
 20
320.2680806531166
 30
0.0
 11
-472.071362637243
 21
317.8022693875545
 31
0.0
  0
ARC
  5
2347
330
2
100
AcDbEntity
  8
画層1
370
    20
100
AcDbCircle
 10
-474.0652295960736
 20
317.958776737169
 30
0.0
 40
2.0
100
AcDbArc
 50
270.0000000000032
 51
355.5118060505389
  0
ARC
  5
2348
330
2
100
AcDbEntity
  8
画層1
370
    20
100
AcDbCircle
 10
-473.1319731403993
 20
317.3249955672228
 30
0.0
 40
1.163049843721167
100
AcDbArc
 50
24.22770461251321
 51
86.71017928508399
  0
LINE
  5
2349
330
2
100
AcDbEntity
  8
画層1
370
    20
100
AcDbLine
 10
-476.0652295960735
 20
313.958776737169
 30
0.0
 11
-476.0652295960735
 21
313.958776737169
 31
0.0
  0
LINE
  5
234A
330
2
100
AcDbEntity
  8
画層1
370
    20
100
AcDbLine
 10
-473.0652295960735
 20
319.4861287371352
 30
0.0
 11
-473.0652295960735
 21
319.4861287371352
 31
0.0
  0
LINE
  5
234B
330
2
100
AcDbEntity
  8
画層1
370
    20
100
AcDbLine
 10
-473.0652295960735
 20
318.4861287371353
 30
0.0
 11
-473.0652295960735
 21
318.4861287371353
 31
0.0
  0
LINE
  5
234C
330
2
100
AcDbEntity
  8
画層1
370
    20
100
AcDbLine
 10
-473.0652295960735
 20
319.4861287371352
 30
0.0
 11
-473.0652295960735
 21
318.4861287371353
 31
0.0
  0
LINE
  5
234D
330
2
100
AcDbEntity
  8
画層1
370
    20
100
AcDbLine
 10
-475.0652295960735
 20
322.958776737169
 30
0.0
 11
-476.0652295960735
 21
322.958776737169
 31
0.0
  0
ARC
  5
234E
330
2
100
AcDbEntity
  8
画層1
370
    20
100
AcDbCircle
 10
-475.0652295960735
 20
321.958776737169
 30
0.0
 40
1.0
100
AcDbArc
 50
0.0
 51
90.0
  0
LINE
  5
234F
330
2
100
AcDbEntity
  8
画層1
370
    20
100
AcDbLine
 10
-476.0652295960735
 20
323.958776737169
 30
0.0
 11
-476.0652295960735
 21
323.958776737169
 31
0.0
  0
ARC
  5
2350
330
2
100
AcDbEntity
  8
画層1
370
    20
100
AcDbCircle
 10
-677.0652295960736
 20
319.958776737169
 30
0.0
 40
2.000000000000003
100
AcDbArc
 50
90.0
 51
171.1033884787037
  0
LINE
  5
2351
330
2
100
AcDbEntity
  8
画層1
370
    20
100
AcDbLine
 10
-677.0652295960736
 20
321.958776737169
 30
0.0
 11
-677.0652295960736
 21
315.958776737169
 31
0.0
  0
LINE
  5
2352
330
2
100
AcDbEntity
  8
画層1
370
    20
100
AcDbLine
 10
-678.0652295960735
 20
319.4861287371352
 30
0.0
 11
-678.0652295960735
 21
318.4861287371353
 31
0.0
  0
LINE
  5
2353
330
2
100
AcDbEntity
  8
画層1
370
    20
100
AcDbLine
 10
-678.0652295960735
 20
318.4861287371353
 30
0.0
 11
-678.0652295960735
 21
318.4861287371353
 31
0.0
  0
LINE
  5
2354
330
2
100
AcDbEntity
  8
画層1
370
    20
100
AcDbLine
 10
-678.0652295960735
 20
319.4861287371352
 30
0.0
 11
-678.0652295960735
 21
319.4861287371352
 31
0.0
  0
ARC
  5
2356
330
2
100
AcDbEntity
  8
画層1
370
    20
100
AcDbCircle
 10
-677.9984860517477
 20
317.3249955672228
 30
0.0
 40
1.163049843721167
100
AcDbArc
 50
93.289820714916
 51
155.7722953874867
  0
ARC
  5
2357
330
2
100
AcDbEntity
  8
画層1
370
    20
100
AcDbCircle
 10
-677.0652295960734
 20
317.958776737169
 30
0.0
 40
2.0
100
AcDbArc
 50
184.488193949461
 51
269.9999999999967
  0
LINE
  5
2358
330
2
100
AcDbEntity
  8
画層1
370
    20
100
AcDbLine
 10
-679.0411676233354
 20
320.2680806531166
 30
0.0
 11
-679.059096554904
 21
317.8022693875545
 31
0.0
  0
ARC
  5
2359
330
2
100
AcDbEntity
  8
画層1
370
    20
100
AcDbCircle
 10
-678.0652295960735
 20
320.4861287371352
 30
0.0
 40
0.9999999999999431
100
AcDbArc
 50
192.5944133998363
 51
270.0000000000032
  0
ARC
  5
235A
330
2
100
AcDbEntity
  8
画層1
370
    20
100
AcDbCircle
 10
-676.0652295960734
 20
315.958776737169
 30
0.0
 40
1.0
100
AcDbArc
 50
180.0
 51
270.0
  0
LINE
  5
235B
330
2
100
AcDbEntity
  8
画層1
370
    20
100
AcDbLine
 10
-676.0652295960734
 20
314.958776737169
 30
0.0
 11
-675.0652295960735
 21
314.958776737169
 31
0.0
  0
LINE
  5
235C
330
2
100
AcDbEntity
  8
画層1
370
    20
100
AcDbLine
 10
-675.0652295960735
 20
323.958776737169
 30
0.0
 11
-675.0652295960735
 21
323.958776737169
 31
0.0
  0
ARC
  5
235D
330
2
100
AcDbEntity
  8
画層1
370
    20
100
AcDbCircle
 10
-676.0652295960735
 20
321.958776737169
 30
0.0
 40
1.0
100
AcDbArc
 50
90.0
 51
180.0
  0
LINE
  5
235E
330
2
100
AcDbEntity
  8
画層1
370
    20
100
AcDbLine
 10
-676.0652295960735
 20
322.958776737169
 30
0.0
 11
-675.0652295960735
 21
322.958776737169
 31
0.0
  0
LINE
  5
2363
330
2
100
AcDbEntity
  8
画層1
370
    20
100
AcDbLine
 10
-214.745236816434
 20
116.9587767371689
 30
0.0
 11
-360.745236816434
 21
116.9587767371689
 31
0.0
  0
LINE
  5
2364
330
2
100
AcDbEntity
  8
画層1
370
    20
100
AcDbLine
 10
-360.745236816434
 20
116.9587767371689
 30
0.0
 11
-360.745236816434
 21
117.9587767371689
 31
0.0
  0
LINE
  5
2365
330
2
100
AcDbEntity
  8
画層1
370
    20
100
AcDbLine
 10
-355.745236816434
 20
360.958776737169
 30
0.0
 11
-214.745236816434
 21
360.958776737169
 31
0.0
  0
LINE
  5
2366
330
2
100
AcDbEntity
  8
画層1
370
    20
100
AcDbLine
 10
-214.745236816434
 20
360.958776737169
 30
0.0
 11
-214.745236816434
 21
116.9587767371689
 31
0.0
  0
ARC
  5
2367
330
2
100
AcDbEntity
  8
画層1
370
    20
100
AcDbCircle
 10
-355.745236816434
 20
355.9587767371689
 30
0.0
 40
5.0
100
AcDbArc
 50
90.0
 51
180.0
  0
LINE
  5
23A3
330
2
100
AcDbEntity
  8
画層1
370
    20
100
AcDbLine
 10
-362.2452368164339
 20
117.9587767371689
 30
0.0
 11
-353.245236816434
 21
117.9587767371689
 31
0.0
  0
LINE
  5
23A4
330
2
100
AcDbEntity
  8
画層1
370
    20
100
AcDbLine
 10
-351.245236816434
 20
119.9587767371689
 30
0.0
 11
-351.245236816434
 21
342.958776737169
 31
0.0
  0
LINE
  5
23A5
330
2
100
AcDbEntity
  8
画層1
370
    20
100
AcDbLine
 10
-353.245236816434
 20
344.958776737169
 30
0.0
 11
-362.2452368164339
 21
344.958776737169
 31
0.0
  0
ARC
  5
23A7
330
2
100
AcDbEntity
  8
画層1
370
    20
100
AcDbCircle
 10
-353.245236816434
 20
342.958776737169
 30
0.0
 40
2.0
100
AcDbArc
 50
0.0
 51
90.0
  0
ARC
  5
23A8
330
2
100
AcDbEntity
  8
画層1
370
    20
100
AcDbCircle
 10
-353.245236816434
 20
119.9587767371689
 30
0.0
 40
2.0
100
AcDbArc
 50
270.0
 51
0.0000000000000127
  0
CIRCLE
  5
23B0
330
2
100
AcDbEntity
  8
画層1
370
    20
100
AcDbCircle
 10
-355.745236816434
 20
148.9587767371689
 30
0.0
 40
4.000000000000028
  0
CIRCLE
  5
23B1
330
2
100
AcDbEntity
  8
画層1
370
    20
100
AcDbCircle
 10
-355.745236816434
 20
148.9587767371689
 30
0.0
 40
3.000000000000056
  0
LINE
  5
23B2
330
2
100
AcDbEntity
  8
画層1
370
    20
100
AcDbLine
 10
-354.2471069306428
 20
148.4861287371352
 30
0.0
 11
-354.2471069306428
 21
149.4861287371352
 31
0.0
  0
LINE
  5
23B3
330
2
100
AcDbEntity
  8
画層1
370
    20
100
AcDbLine
 10
-356.2471069306428
 20
150.4861287371352
 30
0.0
 11
-356.2471069306428
 21
149.9861287371352
 31
0.0
  0
LINE
  5
23B4
330
2
100
AcDbEntity
  8
画層1
370
    20
100
AcDbLine
 10
-355.2471069306428
 20
149.9861287371352
 30
0.0
 11
-355.2471069306428
 21
150.4861287371352
 31
0.0
  0
LINE
  5
23B5
330
2
100
AcDbEntity
  8
画層1
370
    20
100
AcDbLine
 10
-355.2471069306428
 20
150.4861287371352
 30
0.0
 11
-356.2471069306428
 21
150.4861287371352
 31
0.0
  0
LINE
  5
23B6
330
2
100
AcDbEntity
  8
画層1
370
    20
100
AcDbLine
 10
-354.7471069306428
 20
148.4861287371352
 30
0.0
 11
-354.2471069306428
 21
148.4861287371352
 31
0.0
  0
LINE
  5
23B7
330
2
100
AcDbEntity
  8
画層1
370
    20
100
AcDbLine
 10
-354.2471069306428
 20
149.4861287371352
 30
0.0
 11
-354.7471069306428
 21
149.4861287371352
 31
0.0
  0
LINE
  5
23B8
330
2
100
AcDbEntity
  8
画層1
370
    20
100
AcDbLine
 10
-356.7471069306428
 20
149.4861287371352
 30
0.0
 11
-357.2471069306428
 21
149.4861287371352
 31
0.0
  0
LINE
  5
23B9
330
2
100
AcDbEntity
  8
画層1
370
    20
100
AcDbLine
 10
-357.2471069306428
 20
149.4861287371352
 30
0.0
 11
-357.2471069306428
 21
148.4861287371352
 31
0.0
  0
LINE
  5
23BA
330
2
100
AcDbEntity
  8
画層1
370
    20
100
AcDbLine
 10
-357.2471069306428
 20
148.4861287371352
 30
0.0
 11
-356.7471069306428
 21
148.4861287371352
 31
0.0
  0
LINE
  5
23BB
330
2
100
AcDbEntity
  8
画層1
370
    20
100
AcDbLine
 10
-356.2471069306428
 20
147.4861287371352
 30
0.0
 11
-355.2471069306428
 21
147.4861287371352
 31
0.0
  0
LINE
  5
23BC
330
2
100
AcDbEntity
  8
画層1
370
    20
100
AcDbLine
 10
-356.2471069306428
 20
147.9861287371352
 30
0.0
 11
-356.2471069306428
 21
147.4861287371352
 31
0.0
  0
LINE
  5
23BD
330
2
100
AcDbEntity
  8
画層1
370
    20
100
AcDbLine
 10
-355.2471069306428
 20
147.4861287371352
 30
0.0
 11
-355.2471069306428
 21
147.9861287371352
 31
0.0
  0
ARC
  5
23C3
330
2
100
AcDbEntity
  8
画層1
370
    20
100
AcDbCircle
 10
-356.7471069306428
 20
147.9861287371352
 30
0.0
 40
0.5
100
AcDbArc
 50
0.0
 51
90.0
  0
ARC
  5
23C4
330
2
100
AcDbEntity
  8
画層1
370
    20
100
AcDbCircle
 10
-354.7471069306428
 20
147.9861287371352
 30
0.0
 40
0.5
100
AcDbArc
 50
90.0
 51
180.0
  0
ARC
  5
23C5
330
2
100
AcDbEntity
  8
画層1
370
    20
100
AcDbCircle
 10
-356.7471069306428
 20
149.9861287371352
 30
0.0
 40
0.5
100
AcDbArc
 50
270.0
 51
0.0
  0
ARC
  5
23C6
330
2
100
AcDbEntity
  8
画層1
370
    20
100
AcDbCircle
 10
-354.7471069306428
 20
149.9861287371352
 30
0.0
 40
0.5
100
AcDbArc
 50
180.0
 51
270.0
  0
ARC
  5
23CB
330
2
100
AcDbEntity
  8
画層1
370
    20
100
AcDbCircle
 10
-519.0652295960737
 20
131.9587767371689
 30
0.0
 40
0.5
100
AcDbArc
 50
0.0
 51
90.0
  0
ARC
  5
23CC
330
2
100
AcDbEntity
  8
画層1
370
    20
100
AcDbCircle
 10
-517.0652295960738
 20
133.9587767371689
 30
0.0
 40
0.5
100
AcDbArc
 50
180.0
 51
270.0
  0
ARC
  5
23CD
330
2
100
AcDbEntity
  8
画層1
370
    20
100
AcDbCircle
 10
-519.0652295960737
 20
133.9587767371689
 30
0.0
 40
0.5
100
AcDbArc
 50
270.0
 51
0.0
  0
ARC
  5
23CE
330
2
100
AcDbEntity
  8
画層1
370
    20
100
AcDbCircle
 10
-517.0652295960738
 20
131.9587767371689
 30
0.0
 40
0.5
100
AcDbArc
 50
90.0
 51
180.0
  0
ARC
  5
23CF
330
2
100
AcDbEntity
  8
画層1
370
    20
100
AcDbCircle
 10
-517.0652295960736
 20
121.958776737169
 30
0.0
 40
0.5
100
AcDbArc
 50
90.0
 51
180.0
  0
ARC
  5
23D0
330
2
100
AcDbEntity
  8
画層1
370
    20
100
AcDbCircle
 10
-517.0652295960736
 20
123.958776737169
 30
0.0
 40
0.5
100
AcDbArc
 50
180.0
 51
270.0
  0
ARC
  5
23D1
330
2
100
AcDbEntity
  8
画層1
370
    20
100
AcDbCircle
 10
-519.0652295960736
 20
123.958776737169
 30
0.0
 40
0.5
100
AcDbArc
 50
270.0
 51
0.0
  0
ARC
  5
23D2
330
2
100
AcDbEntity
  8
画層1
370
    20
100
AcDbCircle
 10
-519.0652295960736
 20
121.958776737169
 30
0.0
 40
0.5
100
AcDbArc
 50
0.0
 51
90.0
  0
ARC
  5
23D3
330
2
100
AcDbEntity
  8
画層1
370
    20
100
AcDbCircle
 10
-537.5652295960735
 20
130.958776737169
 30
0.0
 40
1.0
100
AcDbArc
 50
0.0
 51
90.0
  0
ARC
  5
23D4
330
2
100
AcDbEntity
  8
画層1
370
    20
100
AcDbCircle
 10
-533.5652295960735
 20
130.958776737169
 30
0.0
 40
1.0
100
AcDbArc
 50
90.0
 51
180.0
  0
ARC
  5
23D5
330
2
100
AcDbEntity
  8
画層1
370
    20
100
AcDbCircle
 10
-533.5652295960735
 20
134.9587767371689
 30
0.0
 40
1.0
100
AcDbArc
 50
180.0
 51
270.0
  0
ARC
  5
23D6
330
2
100
AcDbEntity
  8
画層1
370
    20
100
AcDbCircle
 10
-537.5652295960735
 20
134.9587767371689
 30
0.0
 40
1.0
100
AcDbArc
 50
270.0
 51
0.0
  0
LINE
  5
23D7
330
2
100
AcDbEntity
  8
画層1
370
    20
100
AcDbLine
 10
-552.5652295960735
 20
129.958776737169
 30
0.0
 11
-550.5652295960735
 21
129.958776737169
 31
0.0
  0
LINE
  5
23D8
330
2
100
AcDbEntity
  8
画層1
370
    20
100
AcDbLine
 10
-552.5652295960735
 20
135.958776737169
 30
0.0
 11
-550.5652295960735
 21
135.958776737169
 31
0.0
  0
LINE
  5
23D9
330
2
100
AcDbEntity
  8
画層1
370
    20
100
AcDbLine
 10
-554.5652295960735
 20
133.958776737169
 30
0.0
 11
-554.5652295960735
 21
131.958776737169
 31
0.0
  0
LINE
  5
23DA
330
2
100
AcDbEntity
  8
画層1
370
    20
100
AcDbLine
 10
-548.5652295960735
 20
131.958776737169
 30
0.0
 11
-548.5652295960735
 21
133.958776737169
 31
0.0
  0
LINE
  5
23DB
330
2
100
AcDbEntity
  8
画層1
370
    20
100
AcDbLine
 10
-552.5652295960735
 20
135.958776737169
 30
0.0
 11
-552.5652295960735
 21
134.9587767371689
 31
0.0
  0
LINE
  5
23DC
330
2
100
AcDbEntity
  8
画層1
370
    20
100
AcDbLine
 10
-553.5652295960735
 20
133.9587767371689
 30
0.0
 11
-554.5652295960735
 21
133.958776737169
 31
0.0
  0
ARC
  5
23DD
330
2
100
AcDbEntity
  8
画層1
370
    20
100
AcDbCircle
 10
-553.5652295960735
 20
134.9587767371689
 30
0.0
 40
1.0
100
AcDbArc
 50
270.0
 51
0.0
  0
LINE
  5
23DE
330
2
100
AcDbEntity
  8
画層1
370
    20
100
AcDbLine
 10
-550.5652295960735
 20
134.9587767371689
 30
0.0
 11
-550.5652295960735
 21
135.958776737169
 31
0.0
  0
LINE
  5
23DF
330
2
100
AcDbEntity
  8
画層1
370
    20
100
AcDbLine
 10
-548.5652295960735
 20
133.958776737169
 30
0.0
 11
-549.5652295960735
 21
133.9587767371689
 31
0.0
  0
ARC
  5
23E0
330
2
100
AcDbEntity
  8
画層1
370
    20
100
AcDbCircle
 10
-549.5652295960735
 20
134.9587767371689
 30
0.0
 40
1.0
100
AcDbArc
 50
180.0
 51
270.0
  0
LINE
  5
23E1
330
2
100
AcDbEntity
  8
画層1
370
    20
100
AcDbLine
 10
-550.5652295960735
 20
129.958776737169
 30
0.0
 11
-550.5652295960735
 21
130.958776737169
 31
0.0
  0
LINE
  5
23E2
330
2
100
AcDbEntity
  8
画層1
370
    20
100
AcDbLine
 10
-549.5652295960735
 20
131.9587767371689
 30
0.0
 11
-548.5652295960735
 21
131.958776737169
 31
0.0
  0
ARC
  5
23E3
330
2
100
AcDbEntity
  8
画層1
370
    20
100
AcDbCircle
 10
-549.5652295960735
 20
130.958776737169
 30
0.0
 40
1.0
100
AcDbArc
 50
90.0
 51
180.0
  0
LINE
  5
23E4
330
2
100
AcDbEntity
  8
画層1
370
    20
100
AcDbLine
 10
-552.5652295960735
 20
130.958776737169
 30
0.0
 11
-552.5652295960735
 21
129.958776737169
 31
0.0
  0
LINE
  5
23E5
330
2
100
AcDbEntity
  8
画層1
370
    20
100
AcDbLine
 10
-554.5652295960735
 20
131.958776737169
 30
0.0
 11
-553.5652295960735
 21
131.9587767371689
 31
0.0
  0
ARC
  5
23E6
330
2
100
AcDbEntity
  8
画層1
370
    20
100
AcDbCircle
 10
-553.5652295960735
 20
130.958776737169
 30
0.0
 40
1.0
100
AcDbArc
 50
0.0
 51
90.0
  0
LINE
  5
23E7
330
2
100
AcDbEntity
  8
画層1
370
    20
100
AcDbLine
 10
-568.5652295960735
 20
135.958776737169
 30
0.0
 11
-566.5652295960735
 21
135.958776737169
 31
0.0
  0
LINE
  5
23E8
330
2
100
AcDbEntity
  8
画層1
370
    20
100
AcDbLine
 10
-568.5652295960735
 20
129.958776737169
 30
0.0
 11
-566.5652295960735
 21
129.958776737169
 31
0.0
  0
ARC
  5
23E9
330
2
100
AcDbEntity
  8
画層1
370
    20
100
AcDbCircle
 10
-569.5652295960735
 20
130.958776737169
 30
0.0
 40
1.0
100
AcDbArc
 50
0.0
 51
90.0
  0
LINE
  5
23EA
330
2
100
AcDbEntity
  8
画層1
370
    20
100
AcDbLine
 10
-570.5652295960735
 20
131.958776737169
 30
0.0
 11
-569.5652295960735
 21
131.9587767371689
 31
0.0
  0
LINE
  5
23EB
330
2
100
AcDbEntity
  8
画層1
370
    20
100
AcDbLine
 10
-568.5652295960735
 20
130.958776737169
 30
0.0
 11
-568.5652295960735
 21
129.958776737169
 31
0.0
  0
ARC
  5
23EC
330
2
100
AcDbEntity
  8
画層1
370
    20
100
AcDbCircle
 10
-569.5652295960735
 20
134.9587767371689
 30
0.0
 40
1.0
100
AcDbArc
 50
270.0
 51
0.0
  0
LINE
  5
23ED
330
2
100
AcDbEntity
  8
画層1
370
    20
100
AcDbLine
 10
-569.5652295960735
 20
133.9587767371689
 30
0.0
 11
-570.5652295960735
 21
133.958776737169
 31
0.0
  0
LINE
  5
23EE
330
2
100
AcDbEntity
  8
画層1
370
    20
100
AcDbLine
 10
-568.5652295960735
 20
135.958776737169
 30
0.0
 11
-568.5652295960735
 21
134.9587767371689
 31
0.0
  0
LINE
  5
23EF
330
2
100
AcDbEntity
  8
画層1
370
    20
100
AcDbLine
 10
-570.5652295960735
 20
133.958776737169
 30
0.0
 11
-570.5652295960735
 21
131.958776737169
 31
0.0
  0
ARC
  5
23F0
330
2
100
AcDbEntity
  8
画層1
370
    20
100
AcDbCircle
 10
-565.5652295960735
 20
130.958776737169
 30
0.0
 40
1.0
100
AcDbArc
 50
90.0
 51
180.0
  0
LINE
  5
23F1
330
2
100
AcDbEntity
  8
画層1
370
    20
100
AcDbLine
 10
-565.5652295960735
 20
131.9587767371689
 30
0.0
 11
-564.5652295960736
 21
131.958776737169
 31
0.0
  0
LINE
  5
23F2
330
2
100
AcDbEntity
  8
画層1
370
    20
100
AcDbLine
 10
-566.5652295960735
 20
129.958776737169
 30
0.0
 11
-566.5652295960735
 21
130.958776737169
 31
0.0
  0
ARC
  5
23F3
330
2
100
AcDbEntity
  8
画層1
370
    20
100
AcDbCircle
 10
-565.5652295960735
 20
134.9587767371689
 30
0.0
 40
1.0
100
AcDbArc
 50
180.0
 51
270.0
  0
LINE
  5
23F4
330
2
100
AcDbEntity
  8
画層1
370
    20
100
AcDbLine
 10
-564.5652295960736
 20
133.958776737169
 30
0.0
 11
-565.5652295960735
 21
133.9587767371689
 31
0.0
  0
LINE
  5
23F5
330
2
100
AcDbEntity
  8
画層1
370
    20
100
AcDbLine
 10
-566.5652295960735
 20
134.9587767371689
 30
0.0
 11
-566.5652295960735
 21
135.958776737169
 31
0.0
  0
LINE
  5
23F6
330
2
100
AcDbEntity
  8
画層1
370
    20
100
AcDbLine
 10
-564.5652295960736
 20
131.958776737169
 30
0.0
 11
-564.5652295960736
 21
133.958776737169
 31
0.0
  0
LINE
  5
23F7
330
2
100
AcDbEntity
  8
画層1
370
    20
100
AcDbLine
 10
-596.5652295960735
 20
131.958776737169
 30
0.0
 11
-596.5652295960735
 21
133.958776737169
 31
0.0
  0
LINE
  5
23F8
330
2
100
AcDbEntity
  8
画層1
370
    20
100
AcDbLine
 10
-598.5652295960735
 20
134.9587767371689
 30
0.0
 11
-598.5652295960735
 21
135.958776737169
 31
0.0
  0
LINE
  5
23F9
330
2
100
AcDbEntity
  8
画層1
370
    20
100
AcDbLine
 10
-596.5652295960735
 20
133.958776737169
 30
0.0
 11
-597.5652295960735
 21
133.9587767371689
 31
0.0
  0
ARC
  5
23FA
330
2
100
AcDbEntity
  8
画層1
370
    20
100
AcDbCircle
 10
-597.5652295960735
 20
134.9587767371689
 30
0.0
 40
1.0
100
AcDbArc
 50
180.0
 51
270.0
  0
LINE
  5
23FB
330
2
100
AcDbEntity
  8
画層1
370
    20
100
AcDbLine
 10
-598.5652295960735
 20
129.958776737169
 30
0.0
 11
-598.5652295960735
 21
130.958776737169
 31
0.0
  0
LINE
  5
23FC
330
2
100
AcDbEntity
  8
画層1
370
    20
100
AcDbLine
 10
-597.5652295960735
 20
131.9587767371689
 30
0.0
 11
-596.5652295960735
 21
131.958776737169
 31
0.0
  0
ARC
  5
23FD
330
2
100
AcDbEntity
  8
画層1
370
    20
100
AcDbCircle
 10
-597.5652295960735
 20
130.958776737169
 30
0.0
 40
1.0
100
AcDbArc
 50
90.0
 51
180.0
  0
LINE
  5
23FE
330
2
100
AcDbEntity
  8
画層1
370
    20
100
AcDbLine
 10
-602.5652295960735
 20
133.958776737169
 30
0.0
 11
-602.5652295960735
 21
131.958776737169
 31
0.0
  0
LINE
  5
23FF
330
2
100
AcDbEntity
  8
画層1
370
    20
100
AcDbLine
 10
-600.5652295960735
 20
135.958776737169
 30
0.0
 11
-600.5652295960735
 21
134.9587767371689
 31
0.0
  0
LINE
  5
2400
330
2
100
AcDbEntity
  8
画層1
370
    20
100
AcDbLine
 10
-601.5652295960735
 20
133.9587767371689
 30
0.0
 11
-602.5652295960735
 21
133.958776737169
 31
0.0
  0
ARC
  5
2401
330
2
100
AcDbEntity
  8
画層1
370
    20
100
AcDbCircle
 10
-601.5652295960735
 20
134.9587767371689
 30
0.0
 40
1.0
100
AcDbArc
 50
270.0
 51
0.0
  0
LINE
  5
2402
330
2
100
AcDbEntity
  8
画層1
370
    20
100
AcDbLine
 10
-600.5652295960735
 20
130.958776737169
 30
0.0
 11
-600.5652295960735
 21
129.958776737169
 31
0.0
  0
LINE
  5
2403
330
2
100
AcDbEntity
  8
画層1
370
    20
100
AcDbLine
 10
-602.5652295960735
 20
131.958776737169
 30
0.0
 11
-601.5652295960735
 21
131.9587767371689
 31
0.0
  0
ARC
  5
2404
330
2
100
AcDbEntity
  8
画層1
370
    20
100
AcDbCircle
 10
-601.5652295960735
 20
130.958776737169
 30
0.0
 40
1.0
100
AcDbArc
 50
0.0
 51
90.0
  0
LINE
  5
2405
330
2
100
AcDbEntity
  8
画層1
370
    20
100
AcDbLine
 10
-600.5652295960735
 20
129.958776737169
 30
0.0
 11
-598.5652295960735
 21
129.958776737169
 31
0.0
  0
LINE
  5
2406
330
2
100
AcDbEntity
  8
画層1
370
    20
100
AcDbLine
 10
-600.5652295960735
 20
135.958776737169
 30
0.0
 11
-598.5652295960735
 21
135.958776737169
 31
0.0
  0
LINE
  5
2407
330
2
100
AcDbEntity
  8
画層1
370
    20
100
AcDbLine
 10
-584.5652295960735
 20
135.958776737169
 30
0.0
 11
-582.5652295960735
 21
135.958776737169
 31
0.0
  0
LINE
  5
2408
330
2
100
AcDbEntity
  8
画層1
370
    20
100
AcDbLine
 10
-584.5652295960735
 20
129.958776737169
 30
0.0
 11
-582.5652295960735
 21
129.958776737169
 31
0.0
  0
ARC
  5
2409
330
2
100
AcDbEntity
  8
画層1
370
    20
100
AcDbCircle
 10
-585.5652295960735
 20
130.958776737169
 30
0.0
 40
1.0
100
AcDbArc
 50
0.0
 51
90.0
  0
LINE
  5
240A
330
2
100
AcDbEntity
  8
画層1
370
    20
100
AcDbLine
 10
-586.5652295960735
 20
131.958776737169
 30
0.0
 11
-585.5652295960735
 21
131.9587767371689
 31
0.0
  0
LINE
  5
240B
330
2
100
AcDbEntity
  8
画層1
370
    20
100
AcDbLine
 10
-584.5652295960735
 20
130.958776737169
 30
0.0
 11
-584.5652295960735
 21
129.958776737169
 31
0.0
  0
ARC
  5
240C
330
2
100
AcDbEntity
  8
画層1
370
    20
100
AcDbCircle
 10
-585.5652295960735
 20
134.9587767371689
 30
0.0
 40
1.0
100
AcDbArc
 50
270.0
 51
0.0
  0
LINE
  5
240D
330
2
100
AcDbEntity
  8
画層1
370
    20
100
AcDbLine
 10
-585.5652295960735
 20
133.9587767371689
 30
0.0
 11
-586.5652295960735
 21
133.958776737169
 31
0.0
  0
LINE
  5
240E
330
2
100
AcDbEntity
  8
画層1
370
    20
100
AcDbLine
 10
-584.5652295960735
 20
135.958776737169
 30
0.0
 11
-584.5652295960735
 21
134.9587767371689
 31
0.0
  0
LINE
  5
240F
330
2
100
AcDbEntity
  8
画層1
370
    20
100
AcDbLine
 10
-586.5652295960735
 20
133.958776737169
 30
0.0
 11
-586.5652295960735
 21
131.958776737169
 31
0.0
  0
ARC
  5
2410
330
2
100
AcDbEntity
  8
画層1
370
    20
100
AcDbCircle
 10
-581.5652295960735
 20
130.958776737169
 30
0.0
 40
1.0
100
AcDbArc
 50
90.0
 51
180.0
  0
LINE
  5
2411
330
2
100
AcDbEntity
  8
画層1
370
    20
100
AcDbLine
 10
-581.5652295960735
 20
131.9587767371689
 30
0.0
 11
-580.5652295960735
 21
131.958776737169
 31
0.0
  0
LINE
  5
2412
330
2
100
AcDbEntity
  8
画層1
370
    20
100
AcDbLine
 10
-582.5652295960735
 20
129.958776737169
 30
0.0
 11
-582.5652295960735
 21
130.958776737169
 31
0.0
  0
ARC
  5
2413
330
2
100
AcDbEntity
  8
画層1
370
    20
100
AcDbCircle
 10
-581.5652295960735
 20
134.9587767371689
 30
0.0
 40
1.0
100
AcDbArc
 50
180.0
 51
270.0
  0
LINE
  5
2414
330
2
100
AcDbEntity
  8
画層1
370
    20
100
AcDbLine
 10
-580.5652295960735
 20
133.958776737169
 30
0.0
 11
-581.5652295960735
 21
133.9587767371689
 31
0.0
  0
LINE
  5
2415
330
2
100
AcDbEntity
  8
画層1
370
    20
100
AcDbLine
 10
-582.5652295960735
 20
134.9587767371689
 30
0.0
 11
-582.5652295960735
 21
135.958776737169
 31
0.0
  0
LINE
  5
2416
330
2
100
AcDbEntity
  8
画層1
370
    20
100
AcDbLine
 10
-580.5652295960735
 20
131.958776737169
 30
0.0
 11
-580.5652295960735
 21
133.958776737169
 31
0.0
  0
ARC
  5
2417
330
2
100
AcDbEntity
  8
画層1
370
    20
100
AcDbCircle
 10
-617.5652295960735
 20
134.9587767371689
 30
0.0
 40
1.0
100
AcDbArc
 50
270.0
 51
0.0
  0
ARC
  5
2418
330
2
100
AcDbEntity
  8
画層1
370
    20
100
AcDbCircle
 10
-617.5652295960735
 20
130.958776737169
 30
0.0
 40
1.0
100
AcDbArc
 50
0.0
 51
90.0
  0
LINE
  5
2419
330
2
100
AcDbEntity
  8
画層1
370
    20
100
AcDbLine
 10
-616.5652295960735
 20
129.958776737169
 30
0.0
 11
-614.5652295960736
 21
129.958776737169
 31
0.0
  0
LINE
  5
241A
330
2
100
AcDbEntity
  8
画層1
370
    20
100
AcDbLine
 10
-616.5652295960735
 20
135.958776737169
 30
0.0
 11
-614.5652295960736
 21
135.958776737169
 31
0.0
  0
LINE
  5
242B
330
2
100
AcDbEntity
  8
画層1
370
    20
100
AcDbLine
 10
-618.5652295960736
 20
133.958776737169
 30
0.0
 11
-618.5652295960736
 21
131.958776737169
 31
0.0
  0
LINE
  5
242C
330
2
100
AcDbEntity
  8
画層1
370
    20
100
AcDbLine
 10
-616.5652295960735
 20
135.958776737169
 30
0.0
 11
-616.5652295960735
 21
134.9587767371689
 31
0.0
  0
LINE
  5
242D
330
2
100
AcDbEntity
  8
画層1
370
    20
100
AcDbLine
 10
-617.5652295960735
 20
133.9587767371689
 30
0.0
 11
-618.5652295960736
 21
133.958776737169
 31
0.0
  0
LINE
  5
242E
330
2
100
AcDbEntity
  8
画層1
370
    20
100
AcDbLine
 10
-616.5652295960735
 20
130.958776737169
 30
0.0
 11
-616.5652295960735
 21
129.958776737169
 31
0.0
  0
LINE
  5
242F
330
2
100
AcDbEntity
  8
画層1
370
    20
100
AcDbLine
 10
-618.5652295960736
 20
131.958776737169
 30
0.0
 11
-617.5652295960735
 21
131.9587767371689
 31
0.0
  0
LINE
  5
2430
330
2
100
AcDbEntity
  8
画層1
370
    20
100
AcDbLine
 10
-612.5652295960735
 20
131.958776737169
 30
0.0
 11
-612.5652295960735
 21
133.958776737169
 31
0.0
  0
LINE
  5
2431
330
2
100
AcDbEntity
  8
画層1
370
    20
100
AcDbLine
 10
-614.5652295960736
 20
134.9587767371689
 30
0.0
 11
-614.5652295960736
 21
135.958776737169
 31
0.0
  0
LINE
  5
2432
330
2
100
AcDbEntity
  8
画層1
370
    20
100
AcDbLine
 10
-612.5652295960735
 20
133.958776737169
 30
0.0
 11
-613.5652295960735
 21
133.9587767371689
 31
0.0
  0
ARC
  5
2433
330
2
100
AcDbEntity
  8
画層1
370
    20
100
AcDbCircle
 10
-613.5652295960735
 20
134.9587767371689
 30
0.0
 40
1.0
100
AcDbArc
 50
180.0
 51
270.0
  0
LINE
  5
2434
330
2
100
AcDbEntity
  8
画層1
370
    20
100
AcDbLine
 10
-614.5652295960736
 20
129.958776737169
 30
0.0
 11
-614.5652295960736
 21
130.958776737169
 31
0.0
  0
LINE
  5
2435
330
2
100
AcDbEntity
  8
画層1
370
    20
100
AcDbLine
 10
-613.5652295960735
 20
131.9587767371689
 30
0.0
 11
-612.5652295960735
 21
131.958776737169
 31
0.0
  0
ARC
  5
2436
330
2
100
AcDbEntity
  8
画層1
370
    20
100
AcDbCircle
 10
-613.5652295960735
 20
130.958776737169
 30
0.0
 40
1.0
100
AcDbArc
 50
90.0
 51
180.0
  0
ARC
  5
2437
330
2
100
AcDbEntity
  8
画層1
370
    20
100
AcDbCircle
 10
-631.0652295960737
 20
131.9587767371689
 30
0.0
 40
0.5
100
AcDbArc
 50
90.0
 51
180.0
  0
ARC
  5
2438
330
2
100
AcDbEntity
  8
画層1
370
    20
100
AcDbCircle
 10
-633.0652295960738
 20
131.9587767371689
 30
0.0
 40
0.5
100
AcDbArc
 50
0.0
 51
90.0
  0
ARC
  5
2439
330
2
100
AcDbEntity
  8
画層1
370
    20
100
AcDbCircle
 10
-633.0652295960738
 20
133.9587767371689
 30
0.0
 40
0.5
100
AcDbArc
 50
270.0
 51
0.0
  0
ARC
  5
243A
330
2
100
AcDbEntity
  8
画層1
370
    20
100
AcDbCircle
 10
-631.0652295960737
 20
133.9587767371689
 30
0.0
 40
0.5
100
AcDbArc
 50
180.0
 51
270.0
  0
ARC
  5
243B
330
2
100
AcDbEntity
  8
画層1
370
    20
100
AcDbCircle
 10
-633.0652295960736
 20
141.958776737169
 30
0.0
 40
0.5
100
AcDbArc
 50
0.0
 51
90.0
  0
ARC
  5
243C
330
2
100
AcDbEntity
  8
画層1
370
    20
100
AcDbCircle
 10
-633.0652295960736
 20
143.958776737169
 30
0.0
 40
0.5
100
AcDbArc
 50
270.0
 51
0.0
  0
ARC
  5
243D
330
2
100
AcDbEntity
  8
画層1
370
    20
100
AcDbCircle
 10
-631.0652295960736
 20
143.958776737169
 30
0.0
 40
0.5
100
AcDbArc
 50
180.0
 51
270.0
  0
ARC
  5
243E
330
2
100
AcDbEntity
  8
画層1
370
    20
100
AcDbCircle
 10
-631.0652295960736
 20
141.958776737169
 30
0.0
 40
0.5
100
AcDbArc
 50
90.0
 51
180.0
  0
ARC
  5
243F
330
2
100
AcDbEntity
  8
画層1
370
    20
100
AcDbCircle
 10
-505.5670997102823
 20
166.8854908631551
 30
0.0
 40
0.5
100
AcDbArc
 50
90.0
 51
180.0
  0
ARC
  5
2440
330
2
100
AcDbEntity
  8
画層1
370
    20
100
AcDbCircle
 10
-507.5670997102823
 20
166.8854908631551
 30
0.0
 40
0.5
100
AcDbArc
 50
0.0
 51
90.0
  0
ARC
  5
2441
330
2
100
AcDbEntity
  8
画層1
370
    20
100
AcDbCircle
 10
-507.5670997102823
 20
168.8854908631551
 30
0.0
 40
0.5
100
AcDbArc
 50
270.0
 51
0.0
  0
ARC
  5
2442
330
2
100
AcDbEntity
  8
画層1
370
    20
100
AcDbCircle
 10
-505.5670997102823
 20
168.8854908631551
 30
0.0
 40
0.5
100
AcDbArc
 50
180.0
 51
270.0
  0
ARC
  5
2443
330
2
100
AcDbEntity
  8
画層1
370
    20
100
AcDbCircle
 10
-620.5670997102823
 20
166.8854908631551
 30
0.0
 40
0.5
100
AcDbArc
 50
90.0
 51
180.0
  0
ARC
  5
2444
330
2
100
AcDbEntity
  8
画層1
370
    20
100
AcDbCircle
 10
-622.5670997102824
 20
166.8854908631551
 30
0.0
 40
0.5
100
AcDbArc
 50
0.0
 51
90.0
  0
ARC
  5
2445
330
2
100
AcDbEntity
  8
画層1
370
    20
100
AcDbCircle
 10
-622.5670997102824
 20
168.8854908631551
 30
0.0
 40
0.5
100
AcDbArc
 50
270.0
 51
0.0
  0
ARC
  5
2446
330
2
100
AcDbEntity
  8
画層1
370
    20
100
AcDbCircle
 10
-620.5670997102823
 20
168.8854908631551
 30
0.0
 40
0.5
100
AcDbArc
 50
180.0
 51
270.0
  0
ARC
  5
2447
330
2
100
AcDbEntity
  8
画層1
370
    20
100
AcDbCircle
 10
-505.5670997102823
 20
338.8854908631551
 30
0.0
 40
0.5
100
AcDbArc
 50
90.0
 51
180.0
  0
ARC
  5
2448
330
2
100
AcDbEntity
  8
画層1
370
    20
100
AcDbCircle
 10
-507.5670997102823
 20
340.8854908631551
 30
0.0
 40
0.5
100
AcDbArc
 50
270.0
 51
0.0
  0
ARC
  5
2449
330
2
100
AcDbEntity
  8
画層1
370
    20
100
AcDbCircle
 10
-507.5670997102823
 20
338.8854908631551
 30
0.0
 40
0.5
100
AcDbArc
 50
0.0
 51
90.0
  0
ARC
  5
244A
330
2
100
AcDbEntity
  8
画層1
370
    20
100
AcDbCircle
 10
-505.5670997102823
 20
340.8854908631551
 30
0.0
 40
0.5
100
AcDbArc
 50
180.0
 51
270.0
  0
ARC
  5
244B
330
2
100
AcDbEntity
  8
画層1
370
    20
100
AcDbCircle
 10
-620.5670997102823
 20
338.8854908631551
 30
0.0
 40
0.5
100
AcDbArc
 50
90.0
 51
180.0
  0
ARC
  5
244C
330
2
100
AcDbEntity
  8
画層1
370
    20
100
AcDbCircle
 10
-620.5670997102823
 20
340.8854908631551
 30
0.0
 40
0.5
100
AcDbArc
 50
180.0
 51
270.0
  0
ARC
  5
244D
330
2
100
AcDbEntity
  8
画層1
370
    20
100
AcDbCircle
 10
-622.5670997102824
 20
340.8854908631551
 30
0.0
 40
0.5
100
AcDbArc
 50
270.0
 51
0.0
  0
ARC
  5
244E
330
2
100
AcDbEntity
  8
画層1
370
    20
100
AcDbCircle
 10
-622.5670997102824
 20
338.8854908631551
 30
0.0
 40
0.5
100
AcDbArc
 50
0.0
 51
90.0
  0
CIRCLE
  5
244F
330
2
100
AcDbEntity
  8
画層1
370
    20
100
AcDbCircle
 10
-355.745236816434
 20
318.958776737169
 30
0.0
 40
3.000000000000056
  0
CIRCLE
  5
2450
330
2
100
AcDbEntity
  8
画層1
370
    20
100
AcDbCircle
 10
-355.745236816434
 20
318.958776737169
 30
0.0
 40
4.000000000000028
  0
LINE
  5
2451
330
2
100
AcDbEntity
  8
画層1
370
    20
100
AcDbLine
 10
-354.2471069306428
 20
319.4861287371353
 30
0.0
 11
-354.7471069306428
 21
319.4861287371353
 31
0.0
  0
LINE
  5
2452
330
2
100
AcDbEntity
  8
画層1
370
    20
100
AcDbLine
 10
-355.2471069306428
 20
319.9861287371353
 30
0.0
 11
-355.2471069306428
 21
320.4861287371353
 31
0.0
  0
ARC
  5
2453
330
2
100
AcDbEntity
  8
画層1
370
    20
100
AcDbCircle
 10
-354.7471069306428
 20
319.9861287371353
 30
0.0
 40
0.5
100
AcDbArc
 50
180.0
 51
270.0
  0
LINE
  5
2454
330
2
100
AcDbEntity
  8
画層1
370
    20
100
AcDbLine
 10
-356.7471069306428
 20
319.4861287371353
 30
0.0
 11
-357.2471069306428
 21
319.4861287371353
 31
0.0
  0
LINE
  5
2455
330
2
100
AcDbEntity
  8
画層1
370
    20
100
AcDbLine
 10
-356.2471069306428
 20
320.4861287371353
 30
0.0
 11
-356.2471069306428
 21
319.9861287371353
 31
0.0
  0
ARC
  5
2456
330
2
100
AcDbEntity
  8
画層1
370
    20
100
AcDbCircle
 10
-356.7471069306428
 20
319.9861287371353
 30
0.0
 40
0.5
100
AcDbArc
 50
270.0
 51
0.0
  0
LINE
  5
2457
330
2
100
AcDbEntity
  8
画層1
370
    20
100
AcDbLine
 10
-355.2471069306428
 20
317.4861287371353
 30
0.0
 11
-355.2471069306428
 21
317.9861287371353
 31
0.0
  0
LINE
  5
2458
330
2
100
AcDbEntity
  8
画層1
370
    20
100
AcDbLine
 10
-354.7471069306428
 20
318.4861287371353
 30
0.0
 11
-354.2471069306428
 21
318.4861287371353
 31
0.0
  0
ARC
  5
2459
330
2
100
AcDbEntity
  8
画層1
370
    20
100
AcDbCircle
 10
-354.7471069306428
 20
317.9861287371353
 30
0.0
 40
0.5
100
AcDbArc
 50
90.0
 51
180.0
  0
LINE
  5
245A
330
2
100
AcDbEntity
  8
画層1
370
    20
100
AcDbLine
 10
-356.2471069306428
 20
317.9861287371353
 30
0.0
 11
-356.2471069306428
 21
317.4861287371353
 31
0.0
  0
LINE
  5
245B
330
2
100
AcDbEntity
  8
画層1
370
    20
100
AcDbLine
 10
-357.2471069306428
 20
318.4861287371353
 30
0.0
 11
-356.7471069306428
 21
318.4861287371353
 31
0.0
  0
ARC
  5
245C
330
2
100
AcDbEntity
  8
画層1
370
    20
100
AcDbCircle
 10
-356.7471069306428
 20
317.9861287371353
 30
0.0
 40
0.5
100
AcDbArc
 50
0.0
 51
90.0
  0
LINE
  5
245D
330
2
100
AcDbEntity
  8
画層1
370
    20
100
AcDbLine
 10
-356.2471069306428
 20
317.4861287371353
 30
0.0
 11
-355.2471069306428
 21
317.4861287371353
 31
0.0
  0
LINE
  5
245E
330
2
100
AcDbEntity
  8
画層1
370
    20
100
AcDbLine
 10
-355.2471069306428
 20
320.4861287371353
 30
0.0
 11
-356.2471069306428
 21
320.4861287371353
 31
0.0
  0
LINE
  5
245F
330
2
100
AcDbEntity
  8
画層1
370
    20
100
AcDbLine
 10
-357.2471069306428
 20
319.4861287371353
 30
0.0
 11
-357.2471069306428
 21
318.4861287371353
 31
0.0
  0
LINE
  5
2460
330
2
100
AcDbEntity
  8
画層1
370
    20
100
AcDbLine
 10
-354.2471069306428
 20
318.4861287371353
 30
0.0
 11
-354.2471069306428
 21
319.4861287371353
 31
0.0
  0
CIRCLE
  5
2461
330
2
100
AcDbEntity
  8
画層1
370
    20
100
AcDbCircle
 10
-294.745236816434
 20
308.9587767371689
 30
0.0
 40
6.0
  0
LINE
  5
2468
330
2
100
AcDbEntity
  8
画層1
370
    20
100
AcDbLine
 10
-294.745236816434
 20
314.9587767371689
 30
0.0
 11
-299.9452368164341
 21
311.9521026465879
 31
0.0
  0
LINE
  5
2469
330
2
100
AcDbEntity
  8
画層1
370
    20
100
AcDbLine
 10
-299.9452368164341
 20
311.9521026465879
 30
0.0
 11
-299.9452368164341
 21
305.9654508277498
 31
0.0
  0
LINE
  5
246A
330
2
100
AcDbEntity
  8
画層1
370
    20
100
AcDbLine
 10
-299.9452368164341
 20
305.9654508277498
 30
0.0
 11
-294.745236816434
 21
302.9587767371689
 31
0.0
  0
LINE
  5
246B
330
2
100
AcDbEntity
  8
画層1
370
    20
100
AcDbLine
 10
-294.745236816434
 20
302.9587767371689
 30
0.0
 11
-289.5533349555577
 21
305.9514265635062
 31
0.0
  0
LINE
  5
246C
330
2
100
AcDbEntity
  8
画層1
370
    20
100
AcDbLine
 10
-289.5533349555577
 20
305.9514265635062
 30
0.0
 11
-289.5533349555577
 21
311.9661269108316
 31
0.0
  0
LINE
  5
246D
330
2
100
AcDbEntity
  8
画層1
370
    20
100
AcDbLine
 10
-289.5533349555577
 20
311.9661269108316
 30
0.0
 11
-294.745236816434
 21
314.9587767371689
 31
0.0
  0
CIRCLE
  5
246E
330
2
100
AcDbEntity
  8
画層1
370
    20
100
AcDbCircle
 10
-294.745236816434
 20
308.9587767371689
 30
0.0
 40
5.200000000000045
  0
ARC
  5
247E
330
2
100
AcDbEntity
  8
画層1
370
    20
100
AcDbCircle
 10
-479.5652295960735
 20
308.9587767371689
 30
0.0
 40
8.5
100
AcDbArc
 50
331.927513064147
 51
28.07248693585297
  0
LINE
  5
247F
330
2
100
AcDbEntity
  8
画層1
370
    20
100
AcDbLine
 10
-475.0652295960736
 20
174.958776737169
 30
0.0
 11
-476.0652295960735
 21
174.958776737169
 31
0.0
  0
LINE
  5
2480
330
2
100
AcDbEntity
  8
画層1
370
    20
100
AcDbLine
 10
-476.0652295960735
 20
173.958776737169
 30
0.0
 11
-476.0652295960735
 21
173.958776737169
 31
0.0
  0
ARC
  5
2481
330
2
100
AcDbEntity
  8
画層1
370
    20
100
AcDbCircle
 10
-479.5652295960735
 20
168.9587767371689
 30
0.0
 40
8.5
100
AcDbArc
 50
331.927513064147
 51
28.07248693585297
  0
LINE
  5
2482
330
2
100
AcDbEntity
  8
画層1
370
    20
100
AcDbLine
 10
-471.0652295960735
 20
173.9587767371689
 30
0.0
 11
-471.0652295960735
 21
163.9587767371689
 31
0.0
  0
ARC
  5
2483
330
2
100
AcDbEntity
  8
画層1
370
    20
100
AcDbCircle
 10
-472.0652295960735
 20
163.9587767371689
 30
0.0
 40
1.0
100
AcDbArc
 50
270.0
 51
0.0
  0
ARC
  5
2484
330
2
100
AcDbEntity
  8
画層1
370
    20
100
AcDbCircle
 10
-472.0652295960735
 20
163.9587767371689
 30
0.0
 40
1.0
100
AcDbArc
 50
0.0
 51
90.0
  0
LINE
  5
2485
330
2
100
AcDbEntity
  8
画層1
370
    20
100
AcDbLine
 10
-472.0652295960735
 20
164.9587767371689
 30
0.0
 11
-476.0652295960735
 21
164.9587767371689
 31
0.0
  0
LINE
  5
2486
330
2
100
AcDbEntity
  8
画層1
370
    20
100
AcDbLine
 10
-472.0652295960735
 20
162.9587767371689
 30
0.0
 11
-476.0652295960735
 21
162.9587767371689
 31
0.0
  0
LINE
  5
2487
330
2
100
AcDbEntity
  8
画層1
370
    20
100
AcDbLine
 10
-472.0652295960735
 20
172.9587767371689
 30
0.0
 11
-476.0652295960735
 21
172.9587767371689
 31
0.0
  0
ARC
  5
2488
330
2
100
AcDbEntity
  8
画層1
370
    20
100
AcDbCircle
 10
-472.0652295960735
 20
173.9587767371689
 30
0.0
 40
1.0
100
AcDbArc
 50
270.0
 51
0.0
  0
ARC
  5
2489
330
2
100
AcDbEntity
  8
画層1
370
    20
100
AcDbCircle
 10
-472.0652295960735
 20
173.9587767371689
 30
0.0
 40
1.0
100
AcDbArc
 50
0.0
 51
90.0
  0
LINE
  5
248A
330
2
100
AcDbEntity
  8
画層1
370
    20
100
AcDbLine
 10
-472.0652295960735
 20
174.9587767371689
 30
0.0
 11
-476.0652295960735
 21
174.9587767371689
 31
0.0
  0
LINE
  5
248B
330
2
100
AcDbEntity
  8
画層1
370
    20
100
AcDbLine
 10
-676.0652295960734
 20
314.958776737169
 30
0.0
 11
-675.0652295960735
 21
314.958776737169
 31
0.0
  0
LINE
  5
248C
330
2
100
AcDbEntity
  8
画層1
370
    20
100
AcDbLine
 10
-675.0652295960735
 20
313.958776737169
 30
0.0
 11
-675.0652295960735
 21
313.958776737169
 31
0.0
  0
ARC
  5
248D
330
2
100
AcDbEntity
  8
画層1
370
    20
100
AcDbCircle
 10
-671.5652295960735
 20
308.9587767371689
 30
0.0
 40
8.5
100
AcDbArc
 50
151.927513064147
 51
208.0724869358529
  0
LINE
  5
248E
330
2
100
AcDbEntity
  8
画層1
370
    20
100
AcDbLine
 10
-680.0652295960735
 20
313.9587767371689
 30
0.0
 11
-680.0652295960735
 21
303.9587767371689
 31
0.0
  0
ARC
  5
248F
330
2
100
AcDbEntity
  8
画層1
370
    20
100
AcDbCircle
 10
-679.0652295960735
 20
303.9587767371689
 30
0.0
 40
1.0
100
AcDbArc
 50
180.0
 51
270.0
  0
ARC
  5
2490
330
2
100
AcDbEntity
  8
画層1
370
    20
100
AcDbCircle
 10
-679.0652295960735
 20
303.9587767371689
 30
0.0
 40
1.0
100
AcDbArc
 50
90.0
 51
180.0
  0
LINE
  5
2491
330
2
100
AcDbEntity
  8
画層1
370
    20
100
AcDbLine
 10
-679.0652295960735
 20
304.9587767371689
 30
0.0
 11
-675.0652295960735
 21
304.9587767371689
 31
0.0
  0
LINE
  5
2492
330
2
100
AcDbEntity
  8
画層1
370
    20
100
AcDbLine
 10
-679.0652295960735
 20
302.9587767371689
 30
0.0
 11
-675.0652295960735
 21
302.9587767371689
 31
0.0
  0
LINE
  5
2493
330
2
100
AcDbEntity
  8
画層1
370
    20
100
AcDbLine
 10
-679.0652295960735
 20
312.9587767371689
 30
0.0
 11
-675.0652295960735
 21
312.9587767371689
 31
0.0
  0
ARC
  5
2494
330
2
100
AcDbEntity
  8
画層1
370
    20
100
AcDbCircle
 10
-679.0652295960735
 20
313.9587767371689
 30
0.0
 40
1.0
100
AcDbArc
 50
180.0
 51
270.0
  0
ARC
  5
2495
330
2
100
AcDbEntity
  8
画層1
370
    20
100
AcDbCircle
 10
-679.0652295960735
 20
313.9587767371689
 30
0.0
 40
1.0
100
AcDbArc
 50
90.0
 51
180.0
  0
LINE
  5
2496
330
2
100
AcDbEntity
  8
画層1
370
    20
100
AcDbLine
 10
-679.0652295960735
 20
314.9587767371689
 30
0.0
 11
-675.0652295960735
 21
314.9587767371689
 31
0.0
  0
LINE
  5
2497
330
2
100
AcDbEntity
  8
画層1
370
    20
100
AcDbLine
 10
-676.0652295960734
 20
174.958776737169
 30
0.0
 11
-675.0652295960735
 21
174.958776737169
 31
0.0
  0
LINE
  5
2498
330
2
100
AcDbEntity
  8
画層1
370
    20
100
AcDbLine
 10
-680.0652295960735
 20
173.9587767371689
 30
0.0
 11
-680.0652295960735
 21
163.9587767371689
 31
0.0
  0
ARC
  5
2499
330
2
100
AcDbEntity
  8
画層1
370
    20
100
AcDbCircle
 10
-671.5652295960735
 20
168.9587767371689
 30
0.0
 40
8.5
100
AcDbArc
 50
151.927513064147
 51
208.0724869358529
  0
LINE
  5
249A
330
2
100
AcDbEntity
  8
画層1
370
    20
100
AcDbLine
 10
-679.0652295960735
 20
162.9587767371689
 30
0.0
 11
-675.0652295960735
 21
162.9587767371689
 31
0.0
  0
LINE
  5
249B
330
2
100
AcDbEntity
  8
画層1
370
    20
100
AcDbLine
 10
-679.0652295960735
 20
164.9587767371689
 30
0.0
 11
-675.0652295960735
 21
164.9587767371689
 31
0.0
  0
ARC
  5
249C
330
2
100
AcDbEntity
  8
画層1
370
    20
100
AcDbCircle
 10
-679.0652295960735
 20
163.9587767371689
 30
0.0
 40
1.0
100
AcDbArc
 50
90.0
 51
180.0
  0
ARC
  5
249D
330
2
100
AcDbEntity
  8
画層1
370
    20
100
AcDbCircle
 10
-679.0652295960735
 20
163.9587767371689
 30
0.0
 40
1.0
100
AcDbArc
 50
180.0
 51
270.0
  0
LINE
  5
249E
330
2
100
AcDbEntity
  8
画層1
370
    20
100
AcDbLine
 10
-679.0652295960735
 20
174.9587767371689
 30
0.0
 11
-675.0652295960735
 21
174.9587767371689
 31
0.0
  0
ARC
  5
249F
330
2
100
AcDbEntity
  8
画層1
370
    20
100
AcDbCircle
 10
-679.0652295960735
 20
173.9587767371689
 30
0.0
 40
1.0
100
AcDbArc
 50
90.0
 51
180.0
  0
ARC
  5
24A0
330
2
100
AcDbEntity
  8
画層1
370
    20
100
AcDbCircle
 10
-679.0652295960735
 20
173.9587767371689
 30
0.0
 40
1.0
100
AcDbArc
 50
180.0
 51
270.0
  0
LINE
  5
24A1
330
2
100
AcDbEntity
  8
画層1
370
    20
100
AcDbLine
 10
-679.0652295960735
 20
172.9587767371689
 30
0.0
 11
-675.0652295960735
 21
172.9587767371689
 31
0.0
  0
LINE
  5
24A2
330
2
100
AcDbEntity
  8
画層1
370
    20
100
AcDbLine
 10
-675.0652295960735
 20
173.958776737169
 30
0.0
 11
-675.0652295960735
 21
173.958776737169
 31
0.0
  0
LINE
  5
24A3
330
2
100
AcDbEntity
  8
画層1
370
    20
100
AcDbLine
 10
-676.0652295960734
 20
174.958776737169
 30
0.0
 11
-675.0652295960735
 21
174.958776737169
 31
0.0
  0
CIRCLE
  5
24A5
330
2
100
AcDbEntity
  8
画層1
370
    20
100
AcDbCircle
 10
-294.745236816434
 20
168.9587767371689
 30
0.0
 40
5.200000000000045
  0
LINE
  5
24A6
330
2
100
AcDbEntity
  8
画層1
370
    20
100
AcDbLine
 10
-289.5533349555577
 20
165.9514265635061
 30
0.0
 11
-289.5533349555577
 21
171.9661269108316
 31
0.0
  0
LINE
  5
24A7
330
2
100
AcDbEntity
  8
画層1
370
    20
100
AcDbLine
 10
-299.9452368164341
 20
171.952102646588
 30
0.0
 11
-299.9452368164341
 21
165.9654508277498
 31
0.0
  0
CIRCLE
  5
24A8
330
2
100
AcDbEntity
  8
画層1
370
    20
100
AcDbCircle
 10
-294.745236816434
 20
168.9587767371689
 30
0.0
 40
6.0
  0
LINE
  5
24A9
330
2
100
AcDbEntity
  8
画層1
370
    20
100
AcDbLine
 10
-294.745236816434
 20
162.9587767371689
 30
0.0
 11
-289.5533349555577
 21
165.9514265635061
 31
0.0
  0
LINE
  5
24AA
330
2
100
AcDbEntity
  8
画層1
370
    20
100
AcDbLine
 10
-299.9452368164341
 20
165.9654508277498
 30
0.0
 11
-294.745236816434
 21
162.9587767371689
 31
0.0
  0
LINE
  5
24AB
330
2
100
AcDbEntity
  8
画層1
370
    20
100
AcDbLine
 10
-289.5533349555577
 20
171.9661269108316
 30
0.0
 11
-294.745236816434
 21
174.9587767371689
 31
0.0
  0
LINE
  5
24AC
330
2
100
AcDbEntity
  8
画層1
370
    20
100
AcDbLine
 10
-294.745236816434
 20
174.9587767371689
 30
0.0
 11
-299.9452368164341
 21
171.952102646588
 31
0.0
  0
LINE
  5
24B4
330
2
100
AcDbEntity
  8
画層1
370
    20
100
AcDbLine
 10
-362.745236816434
 20
343.958776737169
 30
0.0
 11
-363.745236816434
 21
343.958776737169
 31
0.0
  0
LINE
  5
24B5
330
2
100
AcDbEntity
  8
画層1
370
    20
100
AcDbLine
 10
-363.745236816434
 20
343.958776737169
 30
0.0
 11
-363.745236816434
 21
335.458776737169
 31
0.0
  0
LINE
  5
24B6
330
2
100
AcDbEntity
  8
画層1
370
    20
100
AcDbLine
 10
-363.745236816434
 20
335.458776737169
 30
0.0
 11
-409.745236816434
 21
335.458776737169
 31
0.0
  0
LINE
  5
24BA
330
2
100
AcDbEntity
  8
画層1
370
    20
100
AcDbLine
 10
-409.745236816434
 20
335.458776737169
 30
0.0
 11
-409.745236816434
 21
172.458776737169
 31
0.0
  0
LINE
  5
24C1
330
2
100
AcDbEntity
  8
画層1
370
    20
100
AcDbLine
 10
-409.745236816434
 20
172.458776737169
 30
0.0
 11
-363.745236816434
 21
172.458776737169
 31
0.0
  0
LINE
  5
24C2
330
2
100
AcDbEntity
  8
画層1
370
    20
100
AcDbLine
 10
-363.745236816434
 20
172.458776737169
 30
0.0
 11
-363.745236816434
 21
163.958776737169
 31
0.0
  0
LINE
  5
24C3
330
2
100
AcDbEntity
  8
画層1
370
    20
100
AcDbLine
 10
-363.745236816434
 20
163.958776737169
 30
0.0
 11
-362.745236816434
 21
163.958776737169
 31
0.0
  0
LINE
  5
24C6
330
2
100
AcDbEntity
  8
画層1
370
    20
100
AcDbLine
 10
-408.745236816434
 20
173.458776737169
 30
0.0
 11
-362.745236816434
 21
173.458776737169
 31
0.0
  0
LINE
  5
24C8
330
2
100
AcDbEntity
  8
画層1
370
    20
100
AcDbLine
 10
-408.745236816434
 20
334.458776737169
 30
0.0
 11
-408.745236816434
 21
173.458776737169
 31
0.0
  0
LINE
  5
24CA
330
2
100
AcDbEntity
  8
画層1
370
    20
100
AcDbLine
 10
-408.745236816434
 20
334.458776737169
 30
0.0
 11
-406.8257566570974
 21
334.458776737169
 31
0.0
  0
LINE
  5
24CB
330
2
100
AcDbEntity
  8
画層1
370
    20
100
AcDbLine
 10
-406.8257566570974
 20
334.458776737169
 30
0.0
 11
-362.745236816434
 21
334.458776737169
 31
0.0
  0
LINE
  5
24CC
330
2
100
AcDbEntity
  8
画層1
370
    20
100
AcDbLine
 10
-362.745236816434
 20
334.458776737169
 30
0.0
 11
-362.745236816434
 21
343.958776737169
 31
0.0
  0
LINE
  5
24CD
330
2
100
AcDbEntity
  8
画層1
370
    20
100
AcDbLine
 10
-362.2452368164339
 20
344.958776737169
 30
0.0
 11
-362.2452368164339
 21
117.9587767371689
 31
0.0
  0
LINE
  5
24D0
330
2
100
AcDbEntity
  8
画層1
370
    20
100
AcDbLine
 10
-360.745236816434
 20
344.958776737169
 30
0.0
 11
-360.745236816434
 21
355.9587767371689
 31
0.0
  0
LINE
  5
24D3
330
2
100
AcDbEntity
  8
画層1
370
    20
100
AcDbLine
 10
-362.745236816434
 20
173.458776737169
 30
0.0
 11
-362.745236816434
 21
163.958776737169
 31
0.0
  0
LINE
  5
24E4
330
2
100
AcDbEntity
  8
画層1
370
    20
100
AcDbLine
 10
-363.745236816434
 20
343.958776737169
 30
0.0
 11
-365.245236816434
 21
343.958776737169
 31
0.0
  0
LINE
  5
24E5
330
2
100
AcDbEntity
  8
画層1
370
    20
100
AcDbLine
 10
-365.745236816434
 20
343.458776737169
 30
0.0
 11
-365.745236816434
 21
336.4587767371691
 31
0.0
  0
LINE
  5
24E6
330
2
100
AcDbEntity
  8
画層1
370
    20
100
AcDbLine
 10
-365.245236816434
 20
335.958776737169
 30
0.0
 11
-363.745236816434
 21
335.958776737169
 31
0.0
  0
LINE
  5
24E9
330
2
100
AcDbEntity
  8
画層1
370
    20
100
AcDbLine
 10
-365.745236816434
 20
336.458776737169
 30
0.0
 11
-365.745236816434
 21
336.458776737169
 31
0.0
  0
LINE
  5
24EA
330
2
100
AcDbEntity
  8
画層1
370
    20
100
AcDbLine
 10
-367.745236816434
 20
338.458776737169
 30
0.0
 11
-367.745236816434
 21
341.458776737169
 31
0.0
  0
LINE
  5
24EB
330
2
100
AcDbEntity
  8
画層1
370
    20
100
AcDbLine
 10
-365.745236816434
 20
343.458776737169
 30
0.0
 11
-365.745236816434
 21
343.458776737169
 31
0.0
  0
ARC
  5
24EC
330
2
100
AcDbEntity
  8
画層1
370
    20
100
AcDbCircle
 10
-365.245236816434
 20
343.458776737169
 30
0.0
 40
0.5
100
AcDbArc
 50
90.0
 51
180.0
  0
ARC
  5
24ED
330
2
100
AcDbEntity
  8
画層1
370
    20
100
AcDbCircle
 10
-365.245236816434
 20
336.4587767371691
 30
0.0
 40
0.5
100
AcDbArc
 50
180.0
 51
270.0
  0
ARC
  5
24EE
330
2
100
AcDbEntity
  8
画層1
370
    20
100
AcDbCircle
 10
-365.745236816434
 20
338.458776737169
 30
0.0
 40
2.0
100
AcDbArc
 50
180.0
 51
270.0
  0
ARC
  5
24EF
330
2
100
AcDbEntity
  8
画層1
370
    20
100
AcDbCircle
 10
-365.745236816434
 20
341.458776737169
 30
0.0
 40
2.0
100
AcDbArc
 50
90.0
 51
180.0
  0
LINE
  5
24F3
330
2
100
AcDbEntity
  8
画層1
370
    20
100
AcDbLine
 10
-366.745236816434
 20
340.458776737169
 30
0.0
 11
-366.745236816434
 21
339.458776737169
 31
0.0
  0
ARC
  5
24F4
330
2
100
AcDbEntity
  8
画層1
370
    20
100
AcDbCircle
 10
-366.745236816434
 20
338.458776737169
 30
0.0
 40
1.0
100
AcDbArc
 50
90.0
 51
180.0
  0
ARC
  5
24F5
330
2
100
AcDbEntity
  8
画層1
370
    20
100
AcDbCircle
 10
-366.745236816434
 20
341.458776737169
 30
0.0
 40
1.0
100
AcDbArc
 50
180.0
 51
270.0
  0
ARC
  5
24F9
330
2
100
AcDbEntity
  8
画層1
370
    20
100
AcDbCircle
 10
-366.745236816434
 20
169.458776737169
 30
0.0
 40
1.0
100
AcDbArc
 50
180.0
 51
270.0
  0
ARC
  5
24FA
330
2
100
AcDbEntity
  8
画層1
370
    20
100
AcDbCircle
 10
-366.745236816434
 20
166.458776737169
 30
0.0
 40
1.0
100
AcDbArc
 50
90.0
 51
180.0
  0
LINE
  5
24FB
330
2
100
AcDbEntity
  8
画層1
370
    20
100
AcDbLine
 10
-366.745236816434
 20
168.458776737169
 30
0.0
 11
-366.745236816434
 21
167.458776737169
 31
0.0
  0
LINE
  5
24FC
330
2
100
AcDbEntity
  8
画層1
370
    20
100
AcDbLine
 10
-365.745236816434
 20
171.458776737169
 30
0.0
 11
-365.745236816434
 21
171.458776737169
 31
0.0
  0
LINE
  5
24FD
330
2
100
AcDbEntity
  8
画層1
370
    20
100
AcDbLine
 10
-367.745236816434
 20
166.458776737169
 30
0.0
 11
-367.745236816434
 21
169.458776737169
 31
0.0
  0
ARC
  5
24FE
330
2
100
AcDbEntity
  8
画層1
370
    20
100
AcDbCircle
 10
-365.745236816434
 20
169.458776737169
 30
0.0
 40
2.0
100
AcDbArc
 50
90.0
 51
180.0
  0
LINE
  5
24FF
330
2
100
AcDbEntity
  8
画層1
370
    20
100
AcDbLine
 10
-365.745236816434
 20
164.458776737169
 30
0.0
 11
-365.745236816434
 21
164.458776737169
 31
0.0
  0
ARC
  5
2500
330
2
100
AcDbEntity
  8
画層1
370
    20
100
AcDbCircle
 10
-365.745236816434
 20
166.458776737169
 30
0.0
 40
2.0
100
AcDbArc
 50
180.0
 51
270.0
  0
LINE
  5
2501
330
2
100
AcDbEntity
  8
画層1
370
    20
100
AcDbLine
 10
-365.245236816434
 20
163.9587767371691
 30
0.0
 11
-363.745236816434
 21
163.958776737169
 31
0.0
  0
LINE
  5
2502
330
2
100
AcDbEntity
  8
画層1
370
    20
100
AcDbLine
 10
-365.745236816434
 20
171.458776737169
 30
0.0
 11
-365.745236816434
 21
164.4587767371691
 31
0.0
  0
ARC
  5
2503
330
2
100
AcDbEntity
  8
画層1
370
    20
100
AcDbCircle
 10
-365.245236816434
 20
164.4587767371691
 30
0.0
 40
0.5
100
AcDbArc
 50
180.0
 51
270.0
  0
LINE
  5
2504
330
2
100
AcDbEntity
  8
画層1
370
    20
100
AcDbLine
 10
-363.745236816434
 20
171.958776737169
 30
0.0
 11
-365.245236816434
 21
171.958776737169
 31
0.0
  0
ARC
  5
2505
330
2
100
AcDbEntity
  8
画層1
370
    20
100
AcDbCircle
 10
-365.245236816434
 20
171.458776737169
 30
0.0
 40
0.5
100
AcDbArc
 50
90.0
 51
180.0
  0
LINE
  5
2534
330
2
100
AcDbEntity
  8
画層1
370
    20
100
AcDbLine
 10
-362.2452368164339
 20
184.958776737169
 30
0.0
 11
-370.145236816434
 21
184.958776737169
 31
0.0
  0
LINE
  5
2535
330
2
100
AcDbEntity
  8
画層1
370
    20
100
AcDbLine
 10
-362.2452368164339
 20
174.958776737169
 30
0.0
 11
-370.145236816434
 21
174.958776737169
 31
0.0
  0
LINE
  5
2537
330
2
100
AcDbEntity
  8
画層1
370
    20
100
AcDbLine
 10
-371.745236816434
 20
174.958776737169
 30
0.0
 11
-376.745236816434
 21
174.958776737169
 31
0.0
  0
LINE
  5
2538
330
2
100
AcDbEntity
  8
画層1
370
    20
100
AcDbLine
 10
-376.745236816434
 20
174.958776737169
 30
0.0
 11
-376.745236816434
 21
184.958776737169
 31
0.0
  0
LINE
  5
2539
330
2
100
AcDbEntity
  8
画層1
370
    20
100
AcDbLine
 10
-376.745236816434
 20
184.958776737169
 30
0.0
 11
-371.745236816434
 21
184.958776737169
 31
0.0
  0
LINE
  5
253B
330
2
100
AcDbEntity
  8
画層1
370
    20
100
AcDbLine
 10
-370.145236816434
 20
323.958776737169
 30
0.0
 11
-370.145236816434
 21
173.958776737169
 31
0.0
  0
LINE
  5
253C
330
2
100
AcDbEntity
  8
画層1
370
    20
100
AcDbLine
 10
-370.145236816434
 20
173.958776737169
 30
0.0
 11
-371.745236816434
 21
173.958776737169
 31
0.0
  0
LINE
  5
253D
330
2
100
AcDbEntity
  8
画層1
370
    20
100
AcDbLine
 10
-371.745236816434
 20
173.958776737169
 30
0.0
 11
-371.745236816434
 21
323.958776737169
 31
0.0
  0
LINE
  5
2541
330
2
100
AcDbEntity
  8
画層1
370
    20
100
AcDbLine
 10
-371.745236816434
 20
323.958776737169
 30
0.0
 11
-370.145236816434
 21
323.958776737169
 31
0.0
  0
LINE
  5
2546
330
2
100
AcDbEntity
  8
画層1
370
    20
100
AcDbLine
 10
-362.2452368164339
 20
322.958776737169
 30
0.0
 11
-370.145236816434
 21
322.958776737169
 31
0.0
  0
LINE
  5
2547
330
2
100
AcDbEntity
  8
画層1
370
    20
100
AcDbLine
 10
-362.2452368164339
 20
312.958776737169
 30
0.0
 11
-370.145236816434
 21
312.958776737169
 31
0.0
  0
LINE
  5
2549
330
2
100
AcDbEntity
  8
画層1
370
    20
100
AcDbLine
 10
-371.745236816434
 20
322.958776737169
 30
0.0
 11
-376.745236816434
 21
322.958776737169
 31
0.0
  0
LINE
  5
254A
330
2
100
AcDbEntity
  8
画層1
370
    20
100
AcDbLine
 10
-376.745236816434
 20
322.958776737169
 30
0.0
 11
-376.745236816434
 21
312.958776737169
 31
0.0
  0
LINE
  5
254B
330
2
100
AcDbEntity
  8
画層1
370
    20
100
AcDbLine
 10
-376.745236816434
 20
312.958776737169
 30
0.0
 11
-371.745236816434
 21
312.958776737169
 31
0.0
  0
LINE
  5
254C
330
2
100
AcDbEntity
  8
画層1
370
    20
100
AcDbLine
 10
-371.745236816434
 20
174.958776737169
 30
0.0
 11
-371.745236816434
 21
174.958776737169
 31
0.0
  0
LINE
  5
2551
330
2
100
AcDbEntity
  8
画層1
370
    20
100
AcDbLine
 10
-371.745236816434
 20
185.9587767256671
 30
0.0
 11
-386.745236816434
 21
185.9587767256671
 31
0.0
  0
LINE
  5
2555
330
2
100
AcDbEntity
  8
画層1
370
    20
100
AcDbLine
 10
-386.745236816434
 20
185.9587767256671
 30
0.0
 11
-386.745236816434
 21
187.958776737169
 31
0.0
  0
LINE
  5
2557
330
2
100
AcDbEntity
  8
画層1
370
    20
100
AcDbLine
 10
-386.745236816434
 20
187.958776737169
 30
0.0
 11
-375.345236816434
 21
187.958776737169
 31
0.0
  0
ARC
  5
2558
330
2
100
AcDbEntity
  8
画層1
370
    20
100
AcDbCircle
 10
-384.345236816434
 20
193.958776737169
 30
0.0
 40
1.0
100
AcDbArc
 50
90.0
 51
179.9999999999993
  0
LINE
  5
2559
330
2
100
AcDbEntity
  8
画層1
370
    20
100
AcDbLine
 10
-375.345236816434
 20
195.958776737169
 30
0.0
 11
-386.745236816434
 21
195.958776737169
 31
0.0
  0
ARC
  5
255A
330
2
100
AcDbEntity
  8
画層1
370
    20
100
AcDbCircle
 10
-384.3452368164341
 20
189.958776737169
 30
0.0
 40
1.0
100
AcDbArc
 50
180.0
 51
270.0
  0
ARC
  5
255B
330
2
100
AcDbEntity
  8
画層1
370
    20
100
AcDbCircle
 10
-384.3452368164341
 20
190.458776737169
 30
0.0
 40
1.0
100
AcDbArc
 50
90.0
 51
180.0
  0
ARC
  5
255C
330
2
100
AcDbEntity
  8
画層1
370
    20
100
AcDbCircle
 10
-384.3452368164341
 20
193.458776737169
 30
0.0
 40
1.0
100
AcDbArc
 50
180.0
 51
270.0
  0
LINE
  5
255E
330
2
100
AcDbEntity
  8
画層1
370
    20
100
AcDbLine
 10
-386.745236816434
 20
195.9587767486709
 30
0.0
 11
-386.745236816434
 21
197.9587767486709
 31
0.0
  0
LINE
  5
2560
330
2
100
AcDbEntity
  8
画層1
370
    20
100
AcDbLine
 10
-385.3452368164341
 20
189.958776737169
 30
0.0
 11
-385.345236816434
 21
193.958776737169
 31
0.0
  0
LINE
  5
2561
330
2
100
AcDbEntity
  8
画層1
370
    20
100
AcDbLine
 10
-382.345236816434
 20
194.958776737169
 30
0.0
 11
-381.345236816434
 21
194.958776737169
 31
0.0
  0
LINE
  5
2562
330
2
100
AcDbEntity
  8
画層1
370
    20
100
AcDbLine
 10
-384.345236816434
 20
194.958776737169
 30
0.0
 11
-382.345236816434
 21
194.958776737169
 31
0.0
  0
LINE
  5
2563
330
2
100
AcDbEntity
  8
画層1
370
    20
100
AcDbLine
 10
-381.345236816434
 20
188.958776737169
 30
0.0
 11
-382.345236816434
 21
188.958776737169
 31
0.0
  0
LINE
  5
2564
330
2
100
AcDbEntity
  8
画層1
370
    20
100
AcDbLine
 10
-384.3452368164341
 20
192.458776737169
 30
0.0
 11
-384.3452368164341
 21
191.458776737169
 31
0.0
  0
LINE
  5
2565
330
2
100
AcDbEntity
  8
画層1
370
    20
100
AcDbLine
 10
-382.345236816434
 20
188.958776737169
 30
0.0
 11
-384.3452368164341
 21
188.958776737169
 31
0.0
  0
LINE
  5
2566
330
2
100
AcDbEntity
  8
画層1
370
    20
100
AcDbLine
 10
-378.345236816434
 20
187.958776737169
 30
0.0
 11
-378.345236816434
 21
195.958776737169
 31
0.0
  0
LINE
  5
2567
330
2
100
AcDbEntity
  8
画層1
370
    20
100
AcDbLine
 10
-379.845236816434
 20
187.958776737169
 30
0.0
 11
-379.845236816434
 21
195.958776737169
 31
0.0
  0
LINE
  5
2568
330
2
100
AcDbEntity
  8
画層1
370
    20
100
AcDbLine
 10
-381.345236816434
 20
187.958776737169
 30
0.0
 11
-381.345236816434
 21
195.958776737169
 31
0.0
  0
LINE
  5
2569
330
2
100
AcDbEntity
  8
画層1
370
    20
100
AcDbLine
 10
-382.345236816434
 20
188.958776737169
 30
0.0
 11
-382.345236816434
 21
194.958776737169
 31
0.0
  0
LINE
  5
256A
330
2
100
AcDbEntity
  8
画層1
370
    20
100
AcDbLine
 10
-375.345236816434
 20
187.958776737169
 30
0.0
 11
-375.345236816434
 21
195.958776737169
 31
0.0
  0
LINE
  5
257B
330
2
100
AcDbEntity
  8
画層1
370
    20
100
AcDbLine
 10
-378.345236816434
 20
197.9587767486709
 30
0.0
 11
-378.345236816434
 21
205.9587767486709
 31
0.0
  0
LINE
  5
257C
330
2
100
AcDbEntity
  8
画層1
370
    20
100
AcDbLine
 10
-379.845236816434
 20
197.9587767486709
 30
0.0
 11
-379.845236816434
 21
205.9587767486709
 31
0.0
  0
LINE
  5
257D
330
2
100
AcDbEntity
  8
画層1
370
    20
100
AcDbLine
 10
-381.345236816434
 20
197.9587767486709
 30
0.0
 11
-381.345236816434
 21
205.9587767486709
 31
0.0
  0
LINE
  5
257E
330
2
100
AcDbEntity
  8
画層1
370
    20
100
AcDbLine
 10
-375.345236816434
 20
197.9587767486709
 30
0.0
 11
-375.345236816434
 21
205.9587767486709
 31
0.0
  0
LINE
  5
257F
330
2
100
AcDbEntity
  8
画層1
370
    20
100
AcDbLine
 10
-382.345236816434
 20
198.9587767486709
 30
0.0
 11
-382.345236816434
 21
204.9587767486709
 31
0.0
  0
LINE
  5
2580
330
2
100
AcDbEntity
  8
画層1
370
    20
100
AcDbLine
 10
-386.745236816434
 20
197.9587767486709
 30
0.0
 11
-375.345236816434
 21
197.9587767486709
 31
0.0
  0
LINE
  5
2581
330
2
100
AcDbEntity
  8
画層1
370
    20
100
AcDbLine
 10
-381.345236816434
 20
198.9587767486709
 30
0.0
 11
-382.345236816434
 21
198.9587767486709
 31
0.0
  0
LINE
  5
2582
330
2
100
AcDbEntity
  8
画層1
370
    20
100
AcDbLine
 10
-382.345236816434
 20
198.9587767486709
 30
0.0
 11
-384.3452368164341
 21
198.9587767486709
 31
0.0
  0
LINE
  5
2583
330
2
100
AcDbEntity
  8
画層1
370
    20
100
AcDbLine
 10
-375.345236816434
 20
205.9587767486709
 30
0.0
 11
-386.745236816434
 21
205.9587767486709
 31
0.0
  0
LINE
  5
2584
330
2
100
AcDbEntity
  8
画層1
370
    20
100
AcDbLine
 10
-382.345236816434
 20
204.9587767486709
 30
0.0
 11
-381.345236816434
 21
204.9587767486709
 31
0.0
  0
LINE
  5
2585
330
2
100
AcDbEntity
  8
画層1
370
    20
100
AcDbLine
 10
-384.345236816434
 20
204.9587767486709
 30
0.0
 11
-382.345236816434
 21
204.9587767486709
 31
0.0
  0
LINE
  5
2586
330
2
100
AcDbEntity
  8
画層1
370
    20
100
AcDbLine
 10
-386.745236816434
 20
205.9587767601728
 30
0.0
 11
-386.745236816434
 21
207.9587767601728
 31
0.0
  0
ARC
  5
2587
330
2
100
AcDbEntity
  8
画層1
370
    20
100
AcDbCircle
 10
-384.3452368164341
 20
203.4587767486708
 30
0.0
 40
1.0
100
AcDbArc
 50
180.0
 51
270.0
  0
LINE
  5
2588
330
2
100
AcDbEntity
  8
画層1
370
    20
100
AcDbLine
 10
-385.3452368164341
 20
199.9587767486709
 30
0.0
 11
-385.345236816434
 21
203.9587767486709
 31
0.0
  0
LINE
  5
2589
330
2
100
AcDbEntity
  8
画層1
370
    20
100
AcDbLine
 10
-384.3452368164341
 20
202.4587767486709
 30
0.0
 11
-384.3452368164341
 21
201.4587767486708
 31
0.0
  0
ARC
  5
258A
330
2
100
AcDbEntity
  8
画層1
370
    20
100
AcDbCircle
 10
-384.345236816434
 20
203.9587767486709
 30
0.0
 40
1.0
100
AcDbArc
 50
90.0
 51
179.9999999999993
  0
ARC
  5
258B
330
2
100
AcDbEntity
  8
画層1
370
    20
100
AcDbCircle
 10
-384.3452368164341
 20
199.9587767486709
 30
0.0
 40
1.0
100
AcDbArc
 50
180.0
 51
270.0
  0
ARC
  5
258C
330
2
100
AcDbEntity
  8
画層1
370
    20
100
AcDbCircle
 10
-384.3452368164341
 20
200.4587767486709
 30
0.0
 40
1.0
100
AcDbArc
 50
90.0
 51
180.0
  0
LINE
  5
258D
330
2
100
AcDbEntity
  8
画層1
370
    20
100
AcDbLine
 10
-384.3452368164341
 20
212.4587767601727
 30
0.0
 11
-384.3452368164341
 21
211.4587767601727
 31
0.0
  0
LINE
  5
258E
330
2
100
AcDbEntity
  8
画層1
370
    20
100
AcDbLine
 10
-385.3452368164341
 20
209.9587767601728
 30
0.0
 11
-385.345236816434
 21
213.9587767601728
 31
0.0
  0
ARC
  5
258F
330
2
100
AcDbEntity
  8
画層1
370
    20
100
AcDbCircle
 10
-384.3452368164341
 20
213.4587767601727
 30
0.0
 40
1.0
100
AcDbArc
 50
180.0
 51
270.0
  0
ARC
  5
2590
330
2
100
AcDbEntity
  8
画層1
370
    20
100
AcDbCircle
 10
-384.3452368164341
 20
210.4587767601727
 30
0.0
 40
1.0
100
AcDbArc
 50
90.0
 51
180.0
  0
LINE
  5
2591
330
2
100
AcDbEntity
  8
画層1
370
    20
100
AcDbLine
 10
-375.345236816434
 20
215.9587767601727
 30
0.0
 11
-386.745236816434
 21
215.9587767601727
 31
0.0
  0
ARC
  5
2592
330
2
100
AcDbEntity
  8
画層1
370
    20
100
AcDbCircle
 10
-384.345236816434
 20
213.9587767601728
 30
0.0
 40
1.0
100
AcDbArc
 50
90.0
 51
179.9999999999993
  0
LINE
  5
2593
330
2
100
AcDbEntity
  8
画層1
370
    20
100
AcDbLine
 10
-386.745236816434
 20
215.9587767716746
 30
0.0
 11
-386.745236816434
 21
217.9587767716746
 31
0.0
  0
LINE
  5
2594
330
2
100
AcDbEntity
  8
画層1
370
    20
100
AcDbLine
 10
-384.345236816434
 20
214.9587767601727
 30
0.0
 11
-382.345236816434
 21
214.9587767601727
 31
0.0
  0
LINE
  5
2595
330
2
100
AcDbEntity
  8
画層1
370
    20
100
AcDbLine
 10
-382.345236816434
 20
214.9587767601727
 30
0.0
 11
-381.345236816434
 21
214.9587767601727
 31
0.0
  0
LINE
  5
2596
330
2
100
AcDbEntity
  8
画層1
370
    20
100
AcDbLine
 10
-382.345236816434
 20
208.9587767601727
 30
0.0
 11
-382.345236816434
 21
214.9587767601727
 31
0.0
  0
LINE
  5
2597
330
2
100
AcDbEntity
  8
画層1
370
    20
100
AcDbLine
 10
-375.345236816434
 20
207.9587767601728
 30
0.0
 11
-375.345236816434
 21
215.9587767601727
 31
0.0
  0
LINE
  5
2598
330
2
100
AcDbEntity
  8
画層1
370
    20
100
AcDbLine
 10
-381.345236816434
 20
207.9587767601728
 30
0.0
 11
-381.345236816434
 21
215.9587767601727
 31
0.0
  0
LINE
  5
2599
330
2
100
AcDbEntity
  8
画層1
370
    20
100
AcDbLine
 10
-379.845236816434
 20
207.9587767601728
 30
0.0
 11
-379.845236816434
 21
215.9587767601727
 31
0.0
  0
LINE
  5
259A
330
2
100
AcDbEntity
  8
画層1
370
    20
100
AcDbLine
 10
-378.345236816434
 20
207.9587767601728
 30
0.0
 11
-378.345236816434
 21
215.9587767601727
 31
0.0
  0
LINE
  5
259B
330
2
100
AcDbEntity
  8
画層1
370
    20
100
AcDbLine
 10
-386.745236816434
 20
207.9587767601728
 30
0.0
 11
-375.345236816434
 21
207.9587767601728
 31
0.0
  0
LINE
  5
259C
330
2
100
AcDbEntity
  8
画層1
370
    20
100
AcDbLine
 10
-382.345236816434
 20
208.9587767601727
 30
0.0
 11
-384.3452368164341
 21
208.9587767601727
 31
0.0
  0
LINE
  5
259D
330
2
100
AcDbEntity
  8
画層1
370
    20
100
AcDbLine
 10
-381.345236816434
 20
208.9587767601727
 30
0.0
 11
-382.345236816434
 21
208.9587767601727
 31
0.0
  0
ARC
  5
259E
330
2
100
AcDbEntity
  8
画層1
370
    20
100
AcDbCircle
 10
-384.3452368164341
 20
209.9587767601728
 30
0.0
 40
1.0
100
AcDbArc
 50
180.0
 51
270.0
  0
LINE
  5
259F
330
2
100
AcDbEntity
  8
画層1
370
    20
100
AcDbLine
 10
-378.345236816434
 20
217.9587767716746
 30
0.0
 11
-378.345236816434
 21
225.9587767716746
 31
0.0
  0
LINE
  5
25A0
330
2
100
AcDbEntity
  8
画層1
370
    20
100
AcDbLine
 10
-379.845236816434
 20
217.9587767716746
 30
0.0
 11
-379.845236816434
 21
225.9587767716746
 31
0.0
  0
LINE
  5
25A1
330
2
100
AcDbEntity
  8
画層1
370
    20
100
AcDbLine
 10
-381.345236816434
 20
217.9587767716746
 30
0.0
 11
-381.345236816434
 21
225.9587767716746
 31
0.0
  0
LINE
  5
25A2
330
2
100
AcDbEntity
  8
画層1
370
    20
100
AcDbLine
 10
-375.345236816434
 20
217.9587767716746
 30
0.0
 11
-375.345236816434
 21
225.9587767716746
 31
0.0
  0
LINE
  5
25A3
330
2
100
AcDbEntity
  8
画層1
370
    20
100
AcDbLine
 10
-386.745236816434
 20
217.9587767716746
 30
0.0
 11
-375.345236816434
 21
217.9587767716746
 31
0.0
  0
ARC
  5
25A4
330
2
100
AcDbEntity
  8
画層1
370
    20
100
AcDbCircle
 10
-384.3452368164341
 20
219.9587767716746
 30
0.0
 40
1.0
100
AcDbArc
 50
180.0
 51
270.0
  0
LINE
  5
25A5
330
2
100
AcDbEntity
  8
画層1
370
    20
100
AcDbLine
 10
-381.345236816434
 20
218.9587767716746
 30
0.0
 11
-382.345236816434
 21
218.9587767716746
 31
0.0
  0
LINE
  5
25A6
330
2
100
AcDbEntity
  8
画層1
370
    20
100
AcDbLine
 10
-382.345236816434
 20
218.9587767716746
 30
0.0
 11
-384.3452368164341
 21
218.9587767716746
 31
0.0
  0
LINE
  5
25A7
330
2
100
AcDbEntity
  8
画層1
370
    20
100
AcDbLine
 10
-382.345236816434
 20
218.9587767716746
 30
0.0
 11
-382.345236816434
 21
224.9587767716746
 31
0.0
  0
LINE
  5
25A8
330
2
100
AcDbEntity
  8
画層1
370
    20
100
AcDbLine
 10
-382.345236816434
 20
224.9587767716746
 30
0.0
 11
-381.345236816434
 21
224.9587767716746
 31
0.0
  0
LINE
  5
25A9
330
2
100
AcDbEntity
  8
画層1
370
    20
100
AcDbLine
 10
-384.345236816434
 20
224.9587767716746
 30
0.0
 11
-382.345236816434
 21
224.9587767716746
 31
0.0
  0
ARC
  5
25AA
330
2
100
AcDbEntity
  8
画層1
370
    20
100
AcDbCircle
 10
-384.345236816434
 20
223.9587767716746
 30
0.0
 40
1.0
100
AcDbArc
 50
90.0
 51
179.9999999999993
  0
ARC
  5
25AB
330
2
100
AcDbEntity
  8
画層1
370
    20
100
AcDbCircle
 10
-384.3452368164341
 20
220.4587767716746
 30
0.0
 40
1.0
100
AcDbArc
 50
90.0
 51
180.0
  0
ARC
  5
25AC
330
2
100
AcDbEntity
  8
画層1
370
    20
100
AcDbCircle
 10
-384.3452368164341
 20
223.4587767716746
 30
0.0
 40
1.0
100
AcDbArc
 50
180.0
 51
270.0
  0
LINE
  5
25AD
330
2
100
AcDbEntity
  8
画層1
370
    20
100
AcDbLine
 10
-385.3452368164341
 20
219.9587767716746
 30
0.0
 11
-385.345236816434
 21
223.9587767716746
 31
0.0
  0
LINE
  5
25AE
330
2
100
AcDbEntity
  8
画層1
370
    20
100
AcDbLine
 10
-384.3452368164341
 20
222.4587767716746
 30
0.0
 11
-384.3452368164341
 21
221.4587767716746
 31
0.0
  0
LINE
  5
25AF
330
2
100
AcDbEntity
  8
画層1
370
    20
100
AcDbLine
 10
-375.345236816434
 20
225.9587767716746
 30
0.0
 11
-386.745236816434
 21
225.9587767716746
 31
0.0
  0
LINE
  5
25B0
330
2
100
AcDbEntity
  8
画層1
370
    20
100
AcDbLine
 10
-386.745236816434
 20
225.9587767831765
 30
0.0
 11
-386.745236816434
 21
227.9587767831765
 31
0.0
  0
LINE
  5
25B1
330
2
100
AcDbEntity
  8
画層1
370
    20
100
AcDbLine
 10
-375.345236816434
 20
235.9587767831765
 30
0.0
 11
-386.745236816434
 21
235.9587767831765
 31
0.0
  0
LINE
  5
25B2
330
2
100
AcDbEntity
  8
画層1
370
    20
100
AcDbLine
 10
-386.745236816434
 20
227.9587767831765
 30
0.0
 11
-375.345236816434
 21
227.9587767831765
 31
0.0
  0
LINE
  5
25B3
330
2
100
AcDbEntity
  8
画層1
370
    20
100
AcDbLine
 10
-384.3452368164341
 20
232.4587767831765
 30
0.0
 11
-384.3452368164341
 21
231.4587767831765
 31
0.0
  0
LINE
  5
25B4
330
2
100
AcDbEntity
  8
画層1
370
    20
100
AcDbLine
 10
-385.3452368164341
 20
229.9587767831765
 30
0.0
 11
-385.345236816434
 21
233.9587767831765
 31
0.0
  0
ARC
  5
25B5
330
2
100
AcDbEntity
  8
画層1
370
    20
100
AcDbCircle
 10
-384.3452368164341
 20
233.4587767831765
 30
0.0
 40
1.0
100
AcDbArc
 50
180.0
 51
270.0
  0
ARC
  5
25B6
330
2
100
AcDbEntity
  8
画層1
370
    20
100
AcDbCircle
 10
-384.3452368164341
 20
230.4587767831765
 30
0.0
 40
1.0
100
AcDbArc
 50
90.0
 51
180.0
  0
ARC
  5
25B7
330
2
100
AcDbEntity
  8
画層1
370
    20
100
AcDbCircle
 10
-384.345236816434
 20
233.9587767831765
 30
0.0
 40
1.0
100
AcDbArc
 50
90.0
 51
179.9999999999993
  0
LINE
  5
25B8
330
2
100
AcDbEntity
  8
画層1
370
    20
100
AcDbLine
 10
-384.345236816434
 20
234.9587767831765
 30
0.0
 11
-382.345236816434
 21
234.9587767831765
 31
0.0
  0
LINE
  5
25B9
330
2
100
AcDbEntity
  8
画層1
370
    20
100
AcDbLine
 10
-382.345236816434
 20
234.9587767831765
 30
0.0
 11
-381.345236816434
 21
234.9587767831765
 31
0.0
  0
LINE
  5
25BA
330
2
100
AcDbEntity
  8
画層1
370
    20
100
AcDbLine
 10
-382.345236816434
 20
228.9587767831765
 30
0.0
 11
-382.345236816434
 21
234.9587767831765
 31
0.0
  0
LINE
  5
25BB
330
2
100
AcDbEntity
  8
画層1
370
    20
100
AcDbLine
 10
-382.345236816434
 20
228.9587767831765
 30
0.0
 11
-384.3452368164341
 21
228.9587767831765
 31
0.0
  0
LINE
  5
25BC
330
2
100
AcDbEntity
  8
画層1
370
    20
100
AcDbLine
 10
-381.345236816434
 20
228.9587767831765
 30
0.0
 11
-382.345236816434
 21
228.9587767831765
 31
0.0
  0
ARC
  5
25BD
330
2
100
AcDbEntity
  8
画層1
370
    20
100
AcDbCircle
 10
-384.3452368164341
 20
229.9587767831765
 30
0.0
 40
1.0
100
AcDbArc
 50
180.0
 51
270.0
  0
LINE
  5
25BE
330
2
100
AcDbEntity
  8
画層1
370
    20
100
AcDbLine
 10
-381.345236816434
 20
227.9587767831765
 30
0.0
 11
-381.345236816434
 21
235.9587767831765
 31
0.0
  0
LINE
  5
25BF
330
2
100
AcDbEntity
  8
画層1
370
    20
100
AcDbLine
 10
-379.845236816434
 20
227.9587767831765
 30
0.0
 11
-379.845236816434
 21
235.9587767831765
 31
0.0
  0
LINE
  5
25C0
330
2
100
AcDbEntity
  8
画層1
370
    20
100
AcDbLine
 10
-375.345236816434
 20
227.9587767831765
 30
0.0
 11
-375.345236816434
 21
235.9587767831765
 31
0.0
  0
LINE
  5
25C1
330
2
100
AcDbEntity
  8
画層1
370
    20
100
AcDbLine
 10
-378.345236816434
 20
227.9587767831765
 30
0.0
 11
-378.345236816434
 21
235.9587767831765
 31
0.0
  0
LINE
  5
25C2
330
2
100
AcDbEntity
  8
画層1
370
    20
100
AcDbLine
 10
-386.745236816434
 20
235.9587767946783
 30
0.0
 11
-386.745236816434
 21
237.9587767946783
 31
0.0
  0
LINE
  5
25C3
330
2
100
AcDbEntity
  8
画層1
370
    20
100
AcDbLine
 10
-375.345236816434
 20
245.9587767946783
 30
0.0
 11
-386.745236816434
 21
245.9587767946783
 31
0.0
  0
LINE
  5
25C4
330
2
100
AcDbEntity
  8
画層1
370
    20
100
AcDbLine
 10
-386.745236816434
 20
245.9587768061802
 30
0.0
 11
-386.745236816434
 21
247.9587768061802
 31
0.0
  0
ARC
  5
25C5
330
2
100
AcDbEntity
  8
画層1
370
    20
100
AcDbCircle
 10
-384.3452368164341
 20
239.9587767946783
 30
0.0
 40
1.0
100
AcDbArc
 50
180.0
 51
270.0
  0
LINE
  5
25C6
330
2
100
AcDbEntity
  8
画層1
370
    20
100
AcDbLine
 10
-381.345236816434
 20
238.9587767946784
 30
0.0
 11
-382.345236816434
 21
238.9587767946784
 31
0.0
  0
LINE
  5
25C7
330
2
100
AcDbEntity
  8
画層1
370
    20
100
AcDbLine
 10
-382.345236816434
 20
238.9587767946784
 30
0.0
 11
-384.3452368164341
 21
238.9587767946784
 31
0.0
  0
LINE
  5
25C8
330
2
100
AcDbEntity
  8
画層1
370
    20
100
AcDbLine
 10
-382.345236816434
 20
238.9587767946784
 30
0.0
 11
-382.345236816434
 21
244.9587767946784
 31
0.0
  0
LINE
  5
25C9
330
2
100
AcDbEntity
  8
画層1
370
    20
100
AcDbLine
 10
-382.345236816434
 20
244.9587767946784
 30
0.0
 11
-381.345236816434
 21
244.9587767946784
 31
0.0
  0
LINE
  5
25CA
330
2
100
AcDbEntity
  8
画層1
370
    20
100
AcDbLine
 10
-384.345236816434
 20
244.9587767946784
 30
0.0
 11
-382.345236816434
 21
244.9587767946784
 31
0.0
  0
ARC
  5
25CB
330
2
100
AcDbEntity
  8
画層1
370
    20
100
AcDbCircle
 10
-384.345236816434
 20
243.9587767946783
 30
0.0
 40
1.0
100
AcDbArc
 50
90.0
 51
179.9999999999993
  0
ARC
  5
25CC
330
2
100
AcDbEntity
  8
画層1
370
    20
100
AcDbCircle
 10
-384.3452368164341
 20
240.4587767946783
 30
0.0
 40
1.0
100
AcDbArc
 50
90.0
 51
180.0
  0
ARC
  5
25CD
330
2
100
AcDbEntity
  8
画層1
370
    20
100
AcDbCircle
 10
-384.3452368164341
 20
243.4587767946783
 30
0.0
 40
1.0
100
AcDbArc
 50
180.0
 51
270.0
  0
LINE
  5
25CE
330
2
100
AcDbEntity
  8
画層1
370
    20
100
AcDbLine
 10
-385.3452368164341
 20
239.9587767946783
 30
0.0
 11
-385.345236816434
 21
243.9587767946783
 31
0.0
  0
LINE
  5
25CF
330
2
100
AcDbEntity
  8
画層1
370
    20
100
AcDbLine
 10
-384.3452368164341
 20
242.4587767946783
 30
0.0
 11
-384.3452368164341
 21
241.4587767946783
 31
0.0
  0
LINE
  5
25D0
330
2
100
AcDbEntity
  8
画層1
370
    20
100
AcDbLine
 10
-378.345236816434
 20
237.9587767946783
 30
0.0
 11
-378.345236816434
 21
245.9587767946783
 31
0.0
  0
LINE
  5
25D1
330
2
100
AcDbEntity
  8
画層1
370
    20
100
AcDbLine
 10
-375.345236816434
 20
237.9587767946783
 30
0.0
 11
-375.345236816434
 21
245.9587767946783
 31
0.0
  0
LINE
  5
25D2
330
2
100
AcDbEntity
  8
画層1
370
    20
100
AcDbLine
 10
-379.845236816434
 20
237.9587767946783
 30
0.0
 11
-379.845236816434
 21
245.9587767946783
 31
0.0
  0
LINE
  5
25D3
330
2
100
AcDbEntity
  8
画層1
370
    20
100
AcDbLine
 10
-381.345236816434
 20
237.9587767946783
 30
0.0
 11
-381.345236816434
 21
245.9587767946783
 31
0.0
  0
LINE
  5
25D4
330
2
100
AcDbEntity
  8
画層1
370
    20
100
AcDbLine
 10
-386.745236816434
 20
237.9587767946783
 30
0.0
 11
-375.345236816434
 21
237.9587767946783
 31
0.0
  0
LINE
  5
25D5
330
2
100
AcDbEntity
  8
画層1
370
    20
100
AcDbLine
 10
-381.345236816434
 20
247.9587768061802
 30
0.0
 11
-381.345236816434
 21
255.9587768061802
 31
0.0
  0
LINE
  5
25D6
330
2
100
AcDbEntity
  8
画層1
370
    20
100
AcDbLine
 10
-379.845236816434
 20
247.9587768061802
 30
0.0
 11
-379.845236816434
 21
255.9587768061802
 31
0.0
  0
LINE
  5
25D7
330
2
100
AcDbEntity
  8
画層1
370
    20
100
AcDbLine
 10
-375.345236816434
 20
247.9587768061802
 30
0.0
 11
-375.345236816434
 21
255.9587768061802
 31
0.0
  0
LINE
  5
25D8
330
2
100
AcDbEntity
  8
画層1
370
    20
100
AcDbLine
 10
-378.345236816434
 20
247.9587768061802
 30
0.0
 11
-378.345236816434
 21
255.9587768061802
 31
0.0
  0
ARC
  5
25D9
330
2
100
AcDbEntity
  8
画層1
370
    20
100
AcDbCircle
 10
-384.3452368164341
 20
250.4587768061802
 30
0.0
 40
1.0
100
AcDbArc
 50
90.0
 51
180.0
  0
LINE
  5
25DA
330
2
100
AcDbEntity
  8
画層1
370
    20
100
AcDbLine
 10
-382.345236816434
 20
248.9587768061802
 30
0.0
 11
-382.345236816434
 21
254.9587768061802
 31
0.0
  0
LINE
  5
25DB
330
2
100
AcDbEntity
  8
画層1
370
    20
100
AcDbLine
 10
-386.745236816434
 20
247.9587768061802
 30
0.0
 11
-375.345236816434
 21
247.9587768061802
 31
0.0
  0
LINE
  5
25DC
330
2
100
AcDbEntity
  8
画層1
370
    20
100
AcDbLine
 10
-382.345236816434
 20
248.9587768061802
 30
0.0
 11
-384.3452368164341
 21
248.9587768061802
 31
0.0
  0
LINE
  5
25DD
330
2
100
AcDbEntity
  8
画層1
370
    20
100
AcDbLine
 10
-381.345236816434
 20
248.9587768061802
 30
0.0
 11
-382.345236816434
 21
248.9587768061802
 31
0.0
  0
ARC
  5
25DE
330
2
100
AcDbEntity
  8
画層1
370
    20
100
AcDbCircle
 10
-384.3452368164341
 20
249.9587768061802
 30
0.0
 40
1.0
100
AcDbArc
 50
180.0
 51
270.0
  0
LINE
  5
25DF
330
2
100
AcDbEntity
  8
画層1
370
    20
100
AcDbLine
 10
-375.345236816434
 20
255.9587768061802
 30
0.0
 11
-386.745236816434
 21
255.9587768061802
 31
0.0
  0
LINE
  5
25E0
330
2
100
AcDbEntity
  8
画層1
370
    20
100
AcDbLine
 10
-384.3452368164341
 20
252.4587768061802
 30
0.0
 11
-384.3452368164341
 21
251.4587768061802
 31
0.0
  0
ARC
  5
25E1
330
2
100
AcDbEntity
  8
画層1
370
    20
100
AcDbCircle
 10
-384.3452368164341
 20
253.4587768061802
 30
0.0
 40
1.0
100
AcDbArc
 50
180.0
 51
270.0
  0
ARC
  5
25E2
330
2
100
AcDbEntity
  8
画層1
370
    20
100
AcDbCircle
 10
-384.345236816434
 20
253.9587768061802
 30
0.0
 40
1.0
100
AcDbArc
 50
90.0
 51
179.9999999999993
  0
LINE
  5
25E3
330
2
100
AcDbEntity
  8
画層1
370
    20
100
AcDbLine
 10
-384.345236816434
 20
254.9587768061802
 30
0.0
 11
-382.345236816434
 21
254.9587768061802
 31
0.0
  0
LINE
  5
25E4
330
2
100
AcDbEntity
  8
画層1
370
    20
100
AcDbLine
 10
-382.345236816434
 20
254.9587768061802
 30
0.0
 11
-381.345236816434
 21
254.9587768061802
 31
0.0
  0
LINE
  5
25E5
330
2
100
AcDbEntity
  8
画層1
370
    20
100
AcDbLine
 10
-385.3452368164341
 20
249.9587768061802
 30
0.0
 11
-385.345236816434
 21
253.9587768061802
 31
0.0
  0
ARC
  5
25F8
330
2
100
AcDbEntity
  8
画層1
370
    20
100
AcDbCircle
 10
-384.345236816434
 20
263.9587768061802
 30
0.0
 40
1.0
100
AcDbArc
 50
90.0
 51
179.9999999999993
  0
LINE
  5
25F9
330
2
100
AcDbEntity
  8
画層1
370
    20
100
AcDbLine
 10
-382.345236816434
 20
258.9587768061802
 30
0.0
 11
-382.345236816434
 21
264.9587768061802
 31
0.0
  0
LINE
  5
25FA
330
2
100
AcDbEntity
  8
画層1
370
    20
100
AcDbLine
 10
-378.345236816434
 20
257.9587768061802
 30
0.0
 11
-378.345236816434
 21
265.9587768061802
 31
0.0
  0
LINE
  5
25FB
330
2
100
AcDbEntity
  8
画層1
370
    20
100
AcDbLine
 10
-375.345236816434
 20
257.9587768061802
 30
0.0
 11
-375.345236816434
 21
265.9587768061802
 31
0.0
  0
LINE
  5
25FC
330
2
100
AcDbEntity
  8
画層1
370
    20
100
AcDbLine
 10
-379.845236816434
 20
257.9587768061802
 30
0.0
 11
-379.845236816434
 21
265.9587768061802
 31
0.0
  0
LINE
  5
25FD
330
2
100
AcDbEntity
  8
画層1
370
    20
100
AcDbLine
 10
-381.345236816434
 20
257.9587768061802
 30
0.0
 11
-381.345236816434
 21
265.9587768061802
 31
0.0
  0
LINE
  5
25FE
330
2
100
AcDbEntity
  8
画層1
370
    20
100
AcDbLine
 10
-386.745236816434
 20
257.9587768061802
 30
0.0
 11
-375.345236816434
 21
257.9587768061802
 31
0.0
  0
LINE
  5
25FF
330
2
100
AcDbEntity
  8
画層1
370
    20
100
AcDbLine
 10
-385.3452368164341
 20
259.9587768061802
 30
0.0
 11
-385.345236816434
 21
263.9587768061802
 31
0.0
  0
ARC
  5
2600
330
2
100
AcDbEntity
  8
画層1
370
    20
100
AcDbCircle
 10
-384.3452368164341
 20
263.4587768061802
 30
0.0
 40
1.0
100
AcDbArc
 50
180.0
 51
270.0
  0
LINE
  5
2601
330
2
100
AcDbEntity
  8
画層1
370
    20
100
AcDbLine
 10
-384.3452368164341
 20
262.4587768061802
 30
0.0
 11
-384.3452368164341
 21
261.4587768061802
 31
0.0
  0
ARC
  5
2602
330
2
100
AcDbEntity
  8
画層1
370
    20
100
AcDbCircle
 10
-384.3452368164341
 20
259.9587768061802
 30
0.0
 40
1.0
100
AcDbArc
 50
180.0
 51
270.0
  0
LINE
  5
2603
330
2
100
AcDbEntity
  8
画層1
370
    20
100
AcDbLine
 10
-381.345236816434
 20
258.9587768061802
 30
0.0
 11
-382.345236816434
 21
258.9587768061802
 31
0.0
  0
LINE
  5
2604
330
2
100
AcDbEntity
  8
画層1
370
    20
100
AcDbLine
 10
-382.345236816434
 20
258.9587768061802
 30
0.0
 11
-384.3452368164341
 21
258.9587768061802
 31
0.0
  0
ARC
  5
2605
330
2
100
AcDbEntity
  8
画層1
370
    20
100
AcDbCircle
 10
-384.3452368164341
 20
260.4587768061802
 30
0.0
 40
1.0
100
AcDbArc
 50
90.0
 51
180.0
  0
LINE
  5
2606
330
2
100
AcDbEntity
  8
画層1
370
    20
100
AcDbLine
 10
-375.345236816434
 20
265.9587768061802
 30
0.0
 11
-386.745236816434
 21
265.9587768061802
 31
0.0
  0
LINE
  5
2607
330
2
100
AcDbEntity
  8
画層1
370
    20
100
AcDbLine
 10
-382.345236816434
 20
264.9587768061802
 30
0.0
 11
-381.345236816434
 21
264.9587768061802
 31
0.0
  0
LINE
  5
2608
330
2
100
AcDbEntity
  8
画層1
370
    20
100
AcDbLine
 10
-384.345236816434
 20
264.9587768061802
 30
0.0
 11
-382.345236816434
 21
264.9587768061802
 31
0.0
  0
LINE
  5
2609
330
2
100
AcDbEntity
  8
画層1
370
    20
100
AcDbLine
 10
-386.745236816434
 20
255.9587768061802
 30
0.0
 11
-386.745236816434
 21
257.9587768061802
 31
0.0
  0
ARC
  5
260A
330
2
100
AcDbEntity
  8
画層1
370
    20
100
AcDbCircle
 10
-384.345236816434
 20
273.9587768061802
 30
0.0
 40
1.0
100
AcDbArc
 50
90.0
 51
179.9999999999993
  0
LINE
  5
260B
330
2
100
AcDbEntity
  8
画層1
370
    20
100
AcDbLine
 10
-382.345236816434
 20
268.9587768061802
 30
0.0
 11
-382.345236816434
 21
274.9587768061802
 31
0.0
  0
LINE
  5
260C
330
2
100
AcDbEntity
  8
画層1
370
    20
100
AcDbLine
 10
-378.345236816434
 20
267.9587768061802
 30
0.0
 11
-378.345236816434
 21
275.9587768061802
 31
0.0
  0
LINE
  5
260D
330
2
100
AcDbEntity
  8
画層1
370
    20
100
AcDbLine
 10
-375.345236816434
 20
267.9587768061802
 30
0.0
 11
-375.345236816434
 21
275.9587768061802
 31
0.0
  0
LINE
  5
260E
330
2
100
AcDbEntity
  8
画層1
370
    20
100
AcDbLine
 10
-379.845236816434
 20
267.9587768061802
 30
0.0
 11
-379.845236816434
 21
275.9587768061802
 31
0.0
  0
LINE
  5
260F
330
2
100
AcDbEntity
  8
画層1
370
    20
100
AcDbLine
 10
-381.345236816434
 20
267.9587768061802
 30
0.0
 11
-381.345236816434
 21
275.9587768061802
 31
0.0
  0
LINE
  5
2610
330
2
100
AcDbEntity
  8
画層1
370
    20
100
AcDbLine
 10
-386.745236816434
 20
267.9587768061802
 30
0.0
 11
-375.345236816434
 21
267.9587768061802
 31
0.0
  0
LINE
  5
2611
330
2
100
AcDbEntity
  8
画層1
370
    20
100
AcDbLine
 10
-385.3452368164341
 20
269.9587768061802
 30
0.0
 11
-385.345236816434
 21
273.9587768061802
 31
0.0
  0
ARC
  5
2612
330
2
100
AcDbEntity
  8
画層1
370
    20
100
AcDbCircle
 10
-384.3452368164341
 20
273.4587768061802
 30
0.0
 40
1.0
100
AcDbArc
 50
180.0
 51
270.0
  0
LINE
  5
2613
330
2
100
AcDbEntity
  8
画層1
370
    20
100
AcDbLine
 10
-384.3452368164341
 20
272.4587768061802
 30
0.0
 11
-384.3452368164341
 21
271.4587768061802
 31
0.0
  0
ARC
  5
2614
330
2
100
AcDbEntity
  8
画層1
370
    20
100
AcDbCircle
 10
-384.3452368164341
 20
269.9587768061802
 30
0.0
 40
1.0
100
AcDbArc
 50
180.0
 51
270.0
  0
LINE
  5
2615
330
2
100
AcDbEntity
  8
画層1
370
    20
100
AcDbLine
 10
-381.345236816434
 20
268.9587768061802
 30
0.0
 11
-382.345236816434
 21
268.9587768061802
 31
0.0
  0
LINE
  5
2616
330
2
100
AcDbEntity
  8
画層1
370
    20
100
AcDbLine
 10
-382.345236816434
 20
268.9587768061802
 30
0.0
 11
-384.3452368164341
 21
268.9587768061802
 31
0.0
  0
ARC
  5
2617
330
2
100
AcDbEntity
  8
画層1
370
    20
100
AcDbCircle
 10
-384.3452368164341
 20
270.4587768061802
 30
0.0
 40
1.0
100
AcDbArc
 50
90.0
 51
180.0
  0
LINE
  5
2618
330
2
100
AcDbEntity
  8
画層1
370
    20
100
AcDbLine
 10
-375.345236816434
 20
275.9587768061802
 30
0.0
 11
-386.745236816434
 21
275.9587768061802
 31
0.0
  0
LINE
  5
2619
330
2
100
AcDbEntity
  8
画層1
370
    20
100
AcDbLine
 10
-382.345236816434
 20
274.9587768061802
 30
0.0
 11
-381.345236816434
 21
274.9587768061802
 31
0.0
  0
LINE
  5
261A
330
2
100
AcDbEntity
  8
画層1
370
    20
100
AcDbLine
 10
-384.345236816434
 20
274.9587768061802
 30
0.0
 11
-382.345236816434
 21
274.9587768061802
 31
0.0
  0
LINE
  5
261B
330
2
100
AcDbEntity
  8
画層1
370
    20
100
AcDbLine
 10
-386.745236816434
 20
265.9587768061802
 30
0.0
 11
-386.745236816434
 21
267.9587768061802
 31
0.0
  0
ARC
  5
261C
330
2
100
AcDbEntity
  8
画層1
370
    20
100
AcDbCircle
 10
-384.345236816434
 20
283.9587768061802
 30
0.0
 40
1.0
100
AcDbArc
 50
90.0
 51
179.9999999999993
  0
LINE
  5
261D
330
2
100
AcDbEntity
  8
画層1
370
    20
100
AcDbLine
 10
-382.345236816434
 20
278.9587768061802
 30
0.0
 11
-382.345236816434
 21
284.9587768061802
 31
0.0
  0
LINE
  5
261E
330
2
100
AcDbEntity
  8
画層1
370
    20
100
AcDbLine
 10
-378.345236816434
 20
277.9587768061802
 30
0.0
 11
-378.345236816434
 21
285.9587768061802
 31
0.0
  0
LINE
  5
261F
330
2
100
AcDbEntity
  8
画層1
370
    20
100
AcDbLine
 10
-375.345236816434
 20
277.9587768061802
 30
0.0
 11
-375.345236816434
 21
285.9587768061802
 31
0.0
  0
LINE
  5
2620
330
2
100
AcDbEntity
  8
画層1
370
    20
100
AcDbLine
 10
-379.845236816434
 20
277.9587768061802
 30
0.0
 11
-379.845236816434
 21
285.9587768061802
 31
0.0
  0
LINE
  5
2621
330
2
100
AcDbEntity
  8
画層1
370
    20
100
AcDbLine
 10
-381.345236816434
 20
277.9587768061802
 30
0.0
 11
-381.345236816434
 21
285.9587768061802
 31
0.0
  0
LINE
  5
2622
330
2
100
AcDbEntity
  8
画層1
370
    20
100
AcDbLine
 10
-386.745236816434
 20
277.9587768061802
 30
0.0
 11
-375.345236816434
 21
277.9587768061802
 31
0.0
  0
LINE
  5
2623
330
2
100
AcDbEntity
  8
画層1
370
    20
100
AcDbLine
 10
-385.3452368164341
 20
279.9587768061802
 30
0.0
 11
-385.345236816434
 21
283.9587768061802
 31
0.0
  0
ARC
  5
2624
330
2
100
AcDbEntity
  8
画層1
370
    20
100
AcDbCircle
 10
-384.3452368164341
 20
283.4587768061802
 30
0.0
 40
1.0
100
AcDbArc
 50
180.0
 51
270.0
  0
LINE
  5
2625
330
2
100
AcDbEntity
  8
画層1
370
    20
100
AcDbLine
 10
-384.3452368164341
 20
282.4587768061802
 30
0.0
 11
-384.3452368164341
 21
281.4587768061802
 31
0.0
  0
ARC
  5
2626
330
2
100
AcDbEntity
  8
画層1
370
    20
100
AcDbCircle
 10
-384.3452368164341
 20
279.9587768061802
 30
0.0
 40
1.0
100
AcDbArc
 50
180.0
 51
270.0
  0
LINE
  5
2627
330
2
100
AcDbEntity
  8
画層1
370
    20
100
AcDbLine
 10
-381.345236816434
 20
278.9587768061802
 30
0.0
 11
-382.345236816434
 21
278.9587768061802
 31
0.0
  0
LINE
  5
2628
330
2
100
AcDbEntity
  8
画層1
370
    20
100
AcDbLine
 10
-382.345236816434
 20
278.9587768061802
 30
0.0
 11
-384.3452368164341
 21
278.9587768061802
 31
0.0
  0
ARC
  5
2629
330
2
100
AcDbEntity
  8
画層1
370
    20
100
AcDbCircle
 10
-384.3452368164341
 20
280.4587768061802
 30
0.0
 40
1.0
100
AcDbArc
 50
90.0
 51
180.0
  0
LINE
  5
262A
330
2
100
AcDbEntity
  8
画層1
370
    20
100
AcDbLine
 10
-375.345236816434
 20
285.9587768061802
 30
0.0
 11
-386.745236816434
 21
285.9587768061802
 31
0.0
  0
LINE
  5
262B
330
2
100
AcDbEntity
  8
画層1
370
    20
100
AcDbLine
 10
-382.345236816434
 20
284.9587768061802
 30
0.0
 11
-381.345236816434
 21
284.9587768061802
 31
0.0
  0
LINE
  5
262C
330
2
100
AcDbEntity
  8
画層1
370
    20
100
AcDbLine
 10
-384.345236816434
 20
284.9587768061802
 30
0.0
 11
-382.345236816434
 21
284.9587768061802
 31
0.0
  0
LINE
  5
262D
330
2
100
AcDbEntity
  8
画層1
370
    20
100
AcDbLine
 10
-386.745236816434
 20
285.9587768061802
 30
0.0
 11
-386.745236816434
 21
287.9587768061802
 31
0.0
  0
LINE
  5
262E
330
2
100
AcDbEntity
  8
画層1
370
    20
100
AcDbLine
 10
-386.745236816434
 20
287.9587767256671
 30
0.0
 11
-371.745236816434
 21
287.9587767256671
 31
0.0
  0
LINE
  5
262F
330
2
100
AcDbEntity
  8
画層1
370
    20
100
AcDbLine
 10
-386.745236816434
 20
275.9587768866933
 30
0.0
 11
-386.745236816434
 21
277.9587768866933
 31
0.0
  0
LINE
  5
2662
330
2
100
AcDbEntity
  8
画層1
370
    20
100
AcDbLine
 10
-362.2452368164339
 20
147.958776737169
 30
0.0
 11
-387.2452368164339
 21
147.958776737169
 31
0.0
  0
LINE
  5
2663
330
2
100
AcDbEntity
  8
画層1
370
    20
100
AcDbLine
 10
-385.2452368164339
 20
147.958776737169
 30
0.0
 11
-385.2452368164339
 21
117.958776737169
 31
0.0
  0
LINE
  5
2664
330
2
100
AcDbEntity
  8
画層1
370
    20
100
AcDbLine
 10
-387.2452368164339
 20
117.958776737169
 30
0.0
 11
-362.2452368164339
 21
117.958776737169
 31
0.0
  0
LINE
  5
2666
330
2
100
AcDbEntity
  8
画層1
370
    20
100
AcDbLine
 10
-387.2452368164339
 20
147.958776737169
 30
0.0
 11
-387.2452368164339
 21
117.958776737169
 31
0.0
  0
LINE
  5
266F
330
2
100
AcDbEntity
  8
画層1
370
    20
100
AcDbLine
 10
-385.2452368164339
 20
140.9587767371689
 30
0.0
 11
-373.2452368164339
 21
140.9587767371689
 31
0.0
  0
LINE
  5
2670
330
2
100
AcDbEntity
  8
画層1
370
    20
100
AcDbLine
 10
-373.2452368164339
 20
140.9587767371689
 30
0.0
 11
-373.2452368164339
 21
124.9587767371689
 31
0.0
  0
LINE
  5
2671
330
2
100
AcDbEntity
  8
画層1
370
    20
100
AcDbLine
 10
-373.2452368164339
 20
124.9587767371689
 30
0.0
 11
-385.2452368164339
 21
124.9587767371689
 31
0.0
  0
LINE
  5
2672
330
2
100
AcDbEntity
  8
画層1
370
    20
100
AcDbLine
 10
-373.2452368164339
 20
138.9587767371689
 30
0.0
 11
-385.2452368164339
 21
138.9587767371689
 31
0.0
  0
LINE
  5
2673
330
2
100
AcDbEntity
  8
画層1
370
    20
100
AcDbLine
 10
-373.2452368164339
 20
126.9587767371689
 30
0.0
 11
-385.2452368164339
 21
126.9587767371689
 31
0.0
  0
LINE
  5
267B
330
2
100
AcDbEntity
  8
画層1
370
    20
100
AcDbLine
 10
-373.2452368164339
 20
136.958776737169
 30
0.0
 11
-373.745236816434
 21
136.958776737169
 31
0.0
  0
LINE
  5
267C
330
2
100
AcDbEntity
  8
画層1
370
    20
100
AcDbLine
 10
-374.245236816434
 20
136.458776737169
 30
0.0
 11
-374.245236816434
 21
129.458776737169
 31
0.0
  0
LINE
  5
267D
330
2
100
AcDbEntity
  8
画層1
370
    20
100
AcDbLine
 10
-373.745236816434
 20
128.958776737169
 30
0.0
 11
-373.2452368164339
 21
128.958776737169
 31
0.0
  0
LINE
  5
2680
330
2
100
AcDbEntity
  8
画層1
370
    20
100
AcDbLine
 10
-374.245236816434
 20
129.458776737169
 30
0.0
 11
-375.2452368164339
 21
129.458776737169
 31
0.0
  0
LINE
  5
2681
330
2
100
AcDbEntity
  8
画層1
370
    20
100
AcDbLine
 10
-377.2452368164339
 20
131.458776737169
 30
0.0
 11
-377.2452368164339
 21
134.4587767371689
 31
0.0
  0
LINE
  5
2682
330
2
100
AcDbEntity
  8
画層1
370
    20
100
AcDbLine
 10
-375.2452368164339
 20
136.4587767371689
 30
0.0
 11
-374.245236816434
 21
136.458776737169
 31
0.0
  0
ARC
  5
2683
330
2
100
AcDbEntity
  8
画層1
370
    20
100
AcDbCircle
 10
-373.745236816434
 20
136.458776737169
 30
0.0
 40
0.5
100
AcDbArc
 50
90.0
 51
180.0
  0
ARC
  5
2684
330
2
100
AcDbEntity
  8
画層1
370
    20
100
AcDbCircle
 10
-373.745236816434
 20
129.458776737169
 30
0.0
 40
0.5
100
AcDbArc
 50
180.0
 51
270.0
  0
ARC
  5
2685
330
2
100
AcDbEntity
  8
画層1
370
    20
100
AcDbCircle
 10
-375.2452368164339
 20
134.4587767371689
 30
0.0
 40
2.0
100
AcDbArc
 50
90.0
 51
180.0
  0
ARC
  5
2686
330
2
100
AcDbEntity
  8
画層1
370
    20
100
AcDbCircle
 10
-375.2452368164339
 20
131.458776737169
 30
0.0
 40
2.0
100
AcDbArc
 50
179.9999999999993
 51
270.0
  0
LINE
  5
268E
330
2
100
AcDbEntity
  8
画層1
370
    20
100
AcDbLine
 10
-376.2452368164339
 20
133.458776737169
 30
0.0
 11
-376.2452368164339
 21
132.4587767371689
 31
0.0
  0
ARC
  5
268F
330
2
100
AcDbEntity
  8
画層1
370
    20
100
AcDbCircle
 10
-376.2452368164339
 20
131.4587767371689
 30
0.0
 40
1.0
100
AcDbArc
 50
90.0
 51
179.9999999999967
  0
ARC
  5
2690
330
2
100
AcDbEntity
  8
画層1
370
    20
100
AcDbCircle
 10
-376.2452368164338
 20
134.4587767371689
 30
0.0
 40
1.0
100
AcDbArc
 50
180.0
 51
269.9999999999967
  0
LINE
  5
269A
330
2
100
AcDbEntity
  8
画層1
370
    20
100
AcDbLine
 10
-387.2452368164339
 20
145.958776737169
 30
0.0
 11
-388.245236816434
 21
145.958776737169
 31
0.0
  0
LINE
  5
269B
330
2
100
AcDbEntity
  8
画層1
370
    20
100
AcDbLine
 10
-388.245236816434
 20
145.958776737169
 30
0.0
 11
-388.245236816434
 21
139.958776737169
 31
0.0
  0
LINE
  5
269C
330
2
100
AcDbEntity
  8
画層1
370
    20
100
AcDbLine
 10
-388.245236816434
 20
139.958776737169
 30
0.0
 11
-387.2452368164339
 21
139.958776737169
 31
0.0
  0
LINE
  5
26A1
330
2
100
AcDbEntity
  8
画層1
370
    20
100
AcDbLine
 10
-388.245236816434
 20
145.958776737169
 30
0.0
 11
-389.245236816434
 21
145.958776737169
 31
0.0
  0
LINE
  5
26A2
330
2
100
AcDbEntity
  8
画層1
370
    20
100
AcDbLine
 10
-390.245236816434
 20
144.958776737169
 30
0.0
 11
-390.245236816434
 21
140.958776737169
 31
0.0
  0
LINE
  5
26A3
330
2
100
AcDbEntity
  8
画層1
370
    20
100
AcDbLine
 10
-389.245236816434
 20
139.958776737169
 30
0.0
 11
-388.245236816434
 21
139.958776737169
 31
0.0
  0
ARC
  5
26A6
330
2
100
AcDbEntity
  8
画層1
370
    20
100
AcDbCircle
 10
-389.245236816434
 20
140.958776737169
 30
0.0
 40
1.0
100
AcDbArc
 50
180.0
 51
270.0
  0
ARC
  5
26A7
330
2
100
AcDbEntity
  8
画層1
370
    20
100
AcDbCircle
 10
-389.245236816434
 20
144.958776737169
 30
0.0
 40
1.0
100
AcDbArc
 50
90.0
 51
180.0
  0
LINE
  5
26AB
330
2
100
AcDbEntity
  8
画層1
370
    20
100
AcDbLine
 10
-389.245236816434
 20
143.458776737169
 30
0.0
 11
-389.245236816434
 21
142.458776737169
 31
0.0
  0
ARC
  5
26AC
330
2
100
AcDbEntity
  8
画層1
370
    20
100
AcDbCircle
 10
-389.245236816434
 20
141.458776737169
 30
0.0
 40
1.0
100
AcDbArc
 50
90.0
 51
180.0
  0
ARC
  5
26AD
330
2
100
AcDbEntity
  8
画層1
370
    20
100
AcDbCircle
 10
-389.245236816434
 20
144.458776737169
 30
0.0
 40
1.0
100
AcDbArc
 50
180.0
 51
270.0
  0
ARC
  5
26AE
330
2
100
AcDbEntity
  8
画層1
370
    20
100
AcDbCircle
 10
-389.245236816434
 20
124.458776737169
 30
0.0
 40
1.0
100
AcDbArc
 50
180.0
 51
270.0
  0
ARC
  5
26AF
330
2
100
AcDbEntity
  8
画層1
370
    20
100
AcDbCircle
 10
-389.245236816434
 20
121.458776737169
 30
0.0
 40
1.0
100
AcDbArc
 50
90.0
 51
180.0
  0
ARC
  5
26B0
330
2
100
AcDbEntity
  8
画層1
370
    20
100
AcDbCircle
 10
-389.2452368164339
 20
124.958776737169
 30
0.0
 40
1.0
100
AcDbArc
 50
90.0
 51
180.0
  0
ARC
  5
26B1
330
2
100
AcDbEntity
  8
画層1
370
    20
100
AcDbCircle
 10
-389.2452368164339
 20
120.958776737169
 30
0.0
 40
1.0
100
AcDbArc
 50
180.0
 51
270.0
  0
LINE
  5
26B2
330
2
100
AcDbEntity
  8
画層1
370
    20
100
AcDbLine
 10
-390.2452368164339
 20
124.958776737169
 30
0.0
 11
-390.2452368164339
 21
120.958776737169
 31
0.0
  0
LINE
  5
26B3
330
2
100
AcDbEntity
  8
画層1
370
    20
100
AcDbLine
 10
-389.245236816434
 20
123.458776737169
 30
0.0
 11
-389.245236816434
 21
122.458776737169
 31
0.0
  0
LINE
  5
26B4
330
2
100
AcDbEntity
  8
画層1
370
    20
100
AcDbLine
 10
-388.2452368164339
 20
125.958776737169
 30
0.0
 11
-389.2452368164339
 21
125.958776737169
 31
0.0
  0
LINE
  5
26B5
330
2
100
AcDbEntity
  8
画層1
370
    20
100
AcDbLine
 10
-389.2452368164339
 20
119.958776737169
 30
0.0
 11
-388.2452368164339
 21
119.958776737169
 31
0.0
  0
LINE
  5
26B6
330
2
100
AcDbEntity
  8
画層1
370
    20
100
AcDbLine
 10
-388.2452368164339
 20
119.958776737169
 30
0.0
 11
-387.2452368164339
 21
119.958776737169
 31
0.0
  0
LINE
  5
26B7
330
2
100
AcDbEntity
  8
画層1
370
    20
100
AcDbLine
 10
-388.2452368164339
 20
125.958776737169
 30
0.0
 11
-388.2452368164339
 21
119.958776737169
 31
0.0
  0
LINE
  5
26B8
330
2
100
AcDbEntity
  8
画層1
370
    20
100
AcDbLine
 10
-387.2452368164339
 20
125.958776737169
 30
0.0
 11
-388.2452368164339
 21
125.958776737169
 31
0.0
  0
DIMENSION
  5
26E7
330
2
100
AcDbEntity
  8
画層1
 62
     1
370
    20
100
AcDbDimension
  2
*D4
 10
-645.5652295960735
 20
375.2238099646804
 30
0.0
 11
-575.5652295960735
 21
377.4738099646804
 31
0.0
 70
    32
 71
     5
 42
-1.0
  3
STANDARD_WS
100
AcDbAlignedDimension
 13
-505.5652295960735
 23
350.9587767371689
 33
0.0
 14
-645.5652295960735
 24
350.9587767371689
 34
0.0
100
AcDbRotatedDimension
1001
ACAD
1000
DSTYLE
1002
{
1070
    47
1040
0.6
1070
   140
1040
50.0
1070
   146
1040
0.5
1070
   147
1040
1.0
1070
   173
1070
     0
1070
   271
1070
     0
1070
   272
1070
     0
1070
   284
1070
     8
1070
   341
1005
28
1070
     5
1000
OPEN30
1070
     6
1000

1070
     7
1000

1002
}
  0
DIMENSION
  5
26F4
330
2
100
AcDbEntity
  8
画層1
 62
     1
370
    20
100
AcDbDimension
  2
*D5
 10
-680.0652295960735
 20
382.3485421215659
 30
0.0
 11
-575.5652295960735
 21
384.5985421215659
 31
0.0
 70
    32
 71
     5
 42
-1.0
  3
STANDARD_WS
100
AcDbAlignedDimension
 13
-471.0652295960735
 23
313.9587767371689
 33
0.0
 14
-680.0652295960735
 24
313.9587767371689
 34
0.0
100
AcDbRotatedDimension
1001
ACAD
1000
DSTYLE
1002
{
1070
    47
1040
0.6
1070
   140
1040
50.0
1070
   146
1040
0.5
1070
   147
1040
1.0
1070
   173
1070
     0
1070
   271
1070
     0
1070
   272
1070
     0
1070
   284
1070
     8
1070
   341
1005
28
1070
     5
1000
OPEN30
1070
     6
1000

1070
     7
1000

1002
}
  0
DIMENSION
  5
2702
330
2
100
AcDbEntity
  8
画層1
 62
     1
370
    20
100
AcDbDimension
  2
*D6
 10
-456.7932266585012
 20
350.9587767371689
 30
0.0
 11
-459.0432266585012
 21
238.9587767371689
 31
0.0
 70
    32
 71
     5
 42
-1.0
  3
STANDARD_WS
100
AcDbAlignedDimension
 13
-476.0652295960735
 23
126.958776737169
 33
0.0
 14
-505.5652295960735
 24
350.9587767371689
 34
0.0
 50
90.0
100
AcDbRotatedDimension
1001
ACAD
1000
DSTYLE
1002
{
1070
    47
1040
0.6
1070
   140
1040
50.0
1070
   146
1040
0.5
1070
   147
1040
1.0
1070
   173
1070
     0
1070
   271
1070
     0
1070
   272
1070
     0
1070
   284
1070
     8
1070
   341
1005
28
1070
     5
1000
OPEN30
1070
     6
1000

1070
     7
1000

1002
}
  0
DIMENSION
  5
270F
330
2
100
AcDbEntity
  8
画層1
 62
     1
370
    20
100
AcDbDimension
  2
*D7
 10
-447.1073210725599
 20
116.958776737169
 30
0.0
 11
-449.3573210725599
 21
238.9587767371689
 31
0.0
 70
    32
 71
     5
 42
-1.0
  3
STANDARD_WS
100
AcDbAlignedDimension
 13
-477.4652295960735
 23
360.958776737169
 33
0.0
 14
-477.4652295960735
 24
116.958776737169
 34
0.0
 50
90.0
100
AcDbRotatedDimension
1001
ACAD
1000
DSTYLE
1002
{
1070
    47
1040
0.6
1070
   140
1040
50.0
1070
   146
1040
0.5
1070
   147
1040
1.0
1070
   173
1070
     0
1070
   271
1070
     0
1070
   272
1070
     0
1070
   284
1070
     8
1070
   341
1005
28
1070
     5
1000
OPEN30
1070
     6
1000

1070
     7
1000

1002
}
  0
DIMENSION
  5
271C
330
2
100
AcDbEntity
  8
画層1
 62
     1
370
    20
100
AcDbDimension
  2
*D8
 10
-385.2452368164339
 20
107.2164517653895
 30
0.0
 11
-299.995236816434
 21
109.4664517653896
 31
0.0
 70
    32
 71
     5
 42
-1.0
  3
STANDARD_WS
100
AcDbAlignedDimension
 13
-214.745236816434
 23
116.9587767371689
 33
0.0
 14
-385.2452368164339
 24
117.958776737169
 34
0.0
100
AcDbRotatedDimension
1001
ACAD
1000
DSTYLE
1002
{
1070
    47
1040
0.6
1070
   140
1040
50.0
1070
   146
1040
0.5
1070
   147
1040
1.0
1070
   173
1070
     0
1070
   271
1070
     0
1070
   272
1070
     0
1070
   284
1070
     8
1070
   341
1005
28
1070
     5
1000
OPEN30
1070
     6
1000

1070
     7
1000

1002
}
  0
DIMENSION
  5
2729
330
2
100
AcDbEntity
  8
画層1
 62
     1
370
    20
100
AcDbDimension
  2
*D9
 10
-386.745236816434
 20
366.7964574901541
 30
0.0
 11
-300.745236816434
 21
369.0464574901541
 31
0.0
 70
    32
 71
     5
 42
-1.0
  3
STANDARD_WS
100
AcDbAlignedDimension
 13
-214.745236816434
 23
360.958776737169
 33
0.0
 14
-386.745236816434
 24
287.9587768061802
 34
0.0
100
AcDbRotatedDimension
1001
ACAD
1000
DSTYLE
1002
{
1070
    47
1040
0.6
1070
   140
1040
50.0
1070
   146
1040
0.5
1070
   147
1040
1.0
1070
   173
1070
     0
1070
   271
1070
     0
1070
   272
1070
     0
1070
   284
1070
     8
1070
   341
1005
28
1070
     5
1000
OPEN30
1070
     6
1000

1070
     7
1000

1002
}
  0
DIMENSION
  5
2736
330
2
100
AcDbEntity
  8
画層1
 62
     1
370
    20
100
AcDbDimension
  2
*D10
 10
-409.745236816434
 20
376.9710344325758
 30
0.0
 11
-312.245236816434
 21
379.2210344325758
 31
0.0
 70
    32
 71
     5
 42
-1.0
  3
STANDARD_WS
100
AcDbAlignedDimension
 13
-214.745236816434
 23
368.0464574901541
 33
0.0
 14
-409.745236816434
 24
335.458776737169
 34
0.0
100
AcDbRotatedDimension
1001
ACAD
1000
DSTYLE
1002
{
1070
    47
1040
0.6
1070
   140
1040
50.0
1070
   146
1040
0.5
1070
   147
1040
1.0
1070
   173
1070
     0
1070
   271
1070
     0
1070
   272
1070
     0
1070
   284
1070
     8
1070
   341
1005
28
1070
     5
1000
OPEN30
1070
     6
1000

1070
     7
1000

1002
}
  0
ENDSEC
  0
SECTION
  2
OBJECTS
  0
DICTIONARY
  5
9
330
0
100
AcDbDictionary
281
     1
  3
ACAD_GROUP
350
23
  3
ACAD_LAYOUT
350
D
  3
ACAD_MLINESTYLE
350
24
  3
ACAD_PLOTSETTINGS
350
25
  3
ACAD_PLOTSTYLENAME
350
8
  3
AcDbVariableDictionary
350
24D7
  3
DWGPROPS
350
B1B
  0
DICTIONARY
  5
3
330
2
100
AcDbDictionary
280
     1
281
     1
  3
ACAD_LAYOUTSELFREF
360
27DD
  0
DICTIONARY
  5
F
330
E
100
AcDbDictionary
280
     1
281
     1
  3
ACAD_LAYOUTSELFREF
360
27E2
  0
DICTIONARY
  5
23
102
{ACAD_REACTORS
330
9
102
}
330
9
100
AcDbDictionary
281
     1
  0
DICTIONARY
  5
D
102
{ACAD_REACTORS
330
9
102
}
330
9
100
AcDbDictionary
281
     1
  3
Model
350
560
  3
ﾚｲｱｳﾄ1
350
561
  0
DICTIONARY
  5
24
102
{ACAD_REACTORS
330
9
102
}
330
9
100
AcDbDictionary
281
     1
  3
STANDARD
350
34
  0
DICTIONARY
  5
25
102
{ACAD_REACTORS
330
9
102
}
330
9
100
AcDbDictionary
281
     1
  0
ACDBDICTIONARYWDFLT
  5
8
102
{ACAD_REACTORS
330
9
102
}
330
9
100
AcDbDictionary
281
     1
  3
Normal
350
7
100
AcDbDictionaryWithDefault
340
7
  0
DICTIONARY
  5
24D7
102
{ACAD_REACTORS
330
9
102
}
330
9
100
AcDbDictionary
281
     1
  3
SORTENTS
350
24D8
  0
XRECORD
  5
B1B
102
{ACAD_REACTORS
330
9
102
}
330
9
100
AcDbXrecord
280
     1
  1
DWGPROPS COOKIE
  2

  3

  4

  6

  7

  8

  9

300
=
301
=
302
=
303
=
304
=
305
=
306
=
307
=
308
=
309
=
 40
3.889878958333333
 41
2450995.462150231
 42
2454049.770371816
  1

 90
        0
  0
XRECORD
  5
27DD
102
{ACAD_REACTORS
330
3
102
}
330
3
100
AcDbXrecord
280
     1
340
2
  0
XRECORD
  5
27E2
102
{ACAD_REACTORS
330
F
102
}
330
F
100
AcDbXrecord
280
     1
340
E
  0
LAYOUT
  5
560
102
{ACAD_REACTORS
330
D
102
}
330
D
100
AcDbPlotSettings
  1

  2
DocuPrint 360
  4
A3
  6

 40
5.238749980926513
 41
5.238728046417236
 42
5.32342529296875
 43
5.238739013671875
 44
296.9683227539062
 45
419.9889831542968
 46
73.06999999999999
 47
85.0
 48
0.0
 49
0.0
140
0.0
141
0.0
142
1.0
143
2.0
 70
 11956
 72
     1
 73
     1
 74
     1
  7

 75
    17
147
0.5
148
683.6989082163094
149
-105.9537215540824
100
AcDbLayout
  1
Model
 70
     1
 71
     0
 10
0.0
 20
0.0
 11
12.0
 21
9.0
 12
0.0
 22
0.0
 32
0.0
 14
0.0
 24
0.0
 34
0.0
 15
0.0
 25
0.0
 35
0.0
146
0.0
 13
0.0
 23
0.0
 33
0.0
 16
1.0
 26
0.0
 36
0.0
 17
0.0
 27
1.0
 37
0.0
 76
     0
330
2
  0
LAYOUT
  5
561
102
{ACAD_REACTORS
330
D
102
}
330
D
100
AcDbPlotSettings
  1

  2
EPSON MJ-6000C
  4

  6

 40
0.0
 41
0.0
 42
0.0
 43
0.0
 44
0.0
 45
0.0
 46
0.0
 47
0.0
 48
0.0
 49
0.0
140
0.0
141
0.0
142
1.0
143
1.0
 70
   688
 72
     0
 73
     0
 74
     5
  7

 75
    16
147
1.0
148
0.0
149
0.0
100
AcDbLayout
  1
ﾚｲｱｳﾄ1
 70
     1
 71
     1
 10
0.0
 20
0.0
 11
420.0
 21
297.0
 12
0.0
 22
0.0
 32
0.0
 14
1.000000000000000E+20
 24
1.000000000000000E+20
 34
1.000000000000000E+20
 15
-1.000000000000000E+20
 25
-1.000000000000000E+20
 35
-1.000000000000000E+20
146
0.0
 13
0.0
 23
0.0
 33
0.0
 16
1.0
 26
0.0
 36
0.0
 17
0.0
 27
1.0
 37
0.0
 76
     0
330
E
  0
MLINESTYLE
  5
34
102
{ACAD_REACTORS
330
24
102
}
330
24
100
AcDbMlineStyle
  2
STANDARD
 70
     0
  3

 62
   256
 51
90.0
 52
90.0
 71
     2
 49
0.5
 62
   256
  6
BYLAYER
 49
-0.5
 62
   256
  6
BYLAYER
  0
ACDBPLACEHOLDER
  5
7
102
{ACAD_REACTORS
330
8
102
}
330
8
  0
DICTIONARYVAR
  5
24D8
102
{ACAD_REACTORS
330
24D7
102
}
330
24D7
100
DictionaryVariables
280
     0
  1
96
  0
ENDSEC
  0
EOF
