  0
SECTION
  2
HEADER
  9
$ACADVER
  1
AC1015
  9
$ACADMAINTVER
 70
     6
  9
$DWGCODEPAGE
  3
ANSI_932
  9
$INSBASE
 10
0.0
 20
0.0
 30
0.0
  9
$EXTMIN
 10
-728.4923383341824
 20
-29.41808208678662
 30
-0.0000000349181948
  9
$EXTMAX
 10
-10.08633749590353
 20
527.552025458159
 30
0.0000000814935746
  9
$LIMMIN
 10
0.0
 20
0.0
  9
$LIMMAX
 10
420.0
 20
297.0
  9
$ORTHOMODE
 70
     1
  9
$REGENMODE
 70
     1
  9
$FILLMODE
 70
     1
  9
$QTEXTMODE
 70
     0
  9
$MIRRTEXT
 70
     1
  9
$LTSCALE
 40
0.2
  9
$ATTMODE
 70
     1
  9
$TEXTSIZE
 40
2.5
  9
$TRACEWID
 40
1.0
  9
$TEXTSTYLE
  7
STYLE1
  9
$CLAYER
  8
画層1
  9
$CELTYPE
  6
BYLAYER
  9
$CECOLOR
 62
     1
  9
$CELTSCALE
 40
1.0
  9
$DISPSILH
 70
     0
  9
$DIMSCALE
 40
1.0
  9
$DIMASZ
 40
1.5
  9
$DIMEXO
 40
0.63
  9
$DIMDLI
 40
3.75
  9
$DIMRND
 40
0.0
  9
$DIMDLE
 40
0.0
  9
$DIMEXE
 40
1.25
  9
$DIMTP
 40
0.6
  9
$DIMTM
 40
0.0
  9
$DIMTXT
 40
50.0
  9
$DIMCEN
 40
2.5
  9
$DIMTSZ
 40
0.0
  9
$DIMTOL
 70
     0
  9
$DIMLIM
 70
     0
  9
$DIMTIH
 70
     0
  9
$DIMTOH
 70
     0
  9
$DIMSE1
 70
     0
  9
$DIMSE2
 70
     0
  9
$DIMTAD
 70
     1
  9
$DIMZIN
 70
     8
  9
$DIMBLK
  1
OPEN30
  9
$DIMASO
 70
     1
  9
$DIMSHO
 70
     1
  9
$DIMPOST
  1

  9
$DIMAPOST
  1

  9
$DIMALT
 70
     0
  9
$DIMALTD
 70
     4
  9
$DIMALTF
 40
0.04
  9
$DIMLFAC
 40
1.0
  9
$DIMTOFL
 70
     1
  9
$DIMTVP
 40
0.0
  9
$DIMTIX
 70
     0
  9
$DIMSOXD
 70
     0
  9
$DIMSAH
 70
     0
  9
$DIMBLK1
  1

  9
$DIMBLK2
  1

  9
$DIMSTYLE
  2
STANDARD_WS
  9
$DIMCLRD
 70
     0
  9
$DIMCLRE
 70
     0
  9
$DIMCLRT
 70
     0
  9
$DIMTFAC
 40
0.5
  9
$DIMGAP
 40
1.0
  9
$DIMJUST
 70
     0
  9
$DIMSD1
 70
     0
  9
$DIMSD2
 70
     0
  9
$DIMTOLJ
 70
     1
  9
$DIMTZIN
 70
     8
  9
$DIMALTZ
 70
     0
  9
$DIMALTTZ
 70
     0
  9
$DIMUPT
 70
     0
  9
$DIMDEC
 70
     0
  9
$DIMTDEC
 70
     0
  9
$DIMALTU
 70
     8
  9
$DIMALTTD
 70
     4
  9
$DIMTXSTY
  7
STANDARD
  9
$DIMAUNIT
 70
     0
  9
$DIMADEC
 70
     0
  9
$DIMALTRND
 40
0.0
  9
$DIMAZIN
 70
     0
  9
$DIMDSEP
 70
    46
  9
$DIMATFIT
 70
     3
  9
$DIMFRAC
 70
     0
  9
$DIMLDRBLK
  1
OPEN30
  9
$DIMLUNIT
 70
     2
  9
$DIMLWD
 70
    -2
  9
$DIMLWE
 70
    -2
  9
$DIMTMOVE
 70
     0
  9
$LUNITS
 70
     2
  9
$LUPREC
 70
     4
  9
$SKETCHINC
 40
1.0
  9
$FILLETRAD
 40
5.0
  9
$AUNITS
 70
     0
  9
$AUPREC
 70
     0
  9
$MENU
  1
acad
  9
$ELEVATION
 40
0.0
  9
$PELEVATION
 40
0.0
  9
$THICKNESS
 40
0.0
  9
$LIMCHECK
 70
     0
  9
$CHAMFERA
 40
4.0
  9
$CHAMFERB
 40
4.0
  9
$CHAMFERC
 40
20.0
  9
$CHAMFERD
 40
0.0
  9
$SKPOLY
 70
     0
  9
$TDCREATE
 40
2450995.462150231
  9
$TDUCREATE
 40
2450995.087150231
  9
$TDUPDATE
 40
2454398.560098194
  9
$TDUUPDATE
 40
2454398.185098194
  9
$TDINDWG
 40
7.4296090046
  9
$TDUSRTIMER
 40
7.4296051852
  9
$USRTIMER
 70
     1
  9
$ANGBASE
 50
0.0
  9
$ANGDIR
 70
     0
  9
$PDMODE
 70
     0
  9
$PDSIZE
 40
0.0
  9
$PLINEWID
 40
10.0
  9
$SPLFRAME
 70
     0
  9
$SPLINETYPE
 70
     6
  9
$SPLINESEGS
 70
     8
  9
$HANDSEED
  5
28F1
  9
$SURFTAB1
 70
     6
  9
$SURFTAB2
 70
     6
  9
$SURFTYPE
 70
     6
  9
$SURFU
 70
     6
  9
$SURFV
 70
     6
  9
$UCSBASE
  2

  9
$UCSNAME
  2

  9
$UCSORG
 10
0.0
 20
0.0
 30
0.0
  9
$UCSXDIR
 10
1.0
 20
0.0
 30
0.0
  9
$UCSYDIR
 10
0.0
 20
1.0
 30
0.0
  9
$UCSORTHOREF
  2

  9
$UCSORTHOVIEW
 70
     0
  9
$UCSORGTOP
 10
0.0
 20
0.0
 30
0.0
  9
$UCSORGBOTTOM
 10
0.0
 20
0.0
 30
0.0
  9
$UCSORGLEFT
 10
0.0
 20
0.0
 30
0.0
  9
$UCSORGRIGHT
 10
0.0
 20
0.0
 30
0.0
  9
$UCSORGFRONT
 10
0.0
 20
0.0
 30
0.0
  9
$UCSORGBACK
 10
0.0
 20
0.0
 30
0.0
  9
$PUCSBASE
  2

  9
$PUCSNAME
  2

  9
$PUCSORG
 10
0.0
 20
0.0
 30
0.0
  9
$PUCSXDIR
 10
1.0
 20
0.0
 30
0.0
  9
$PUCSYDIR
 10
0.0
 20
1.0
 30
0.0
  9
$PUCSORTHOREF
  2

  9
$PUCSORTHOVIEW
 70
     0
  9
$PUCSORGTOP
 10
0.0
 20
0.0
 30
0.0
  9
$PUCSORGBOTTOM
 10
0.0
 20
0.0
 30
0.0
  9
$PUCSORGLEFT
 10
0.0
 20
0.0
 30
0.0
  9
$PUCSORGRIGHT
 10
0.0
 20
0.0
 30
0.0
  9
$PUCSORGFRONT
 10
0.0
 20
0.0
 30
0.0
  9
$PUCSORGBACK
 10
0.0
 20
0.0
 30
0.0
  9
$USERI1
 70
     0
  9
$USERI2
 70
     0
  9
$USERI3
 70
     0
  9
$USERI4
 70
     0
  9
$USERI5
 70
     0
  9
$USERR1
 40
0.0
  9
$USERR2
 40
0.0
  9
$USERR3
 40
0.0
  9
$USERR4
 40
0.0
  9
$USERR5
 40
0.0
  9
$WORLDVIEW
 70
     1
  9
$SHADEDGE
 70
     3
  9
$SHADEDIF
 70
    70
  9
$TILEMODE
 70
     1
  9
$MAXACTVP
 70
    48
  9
$PINSBASE
 10
0.0
 20
0.0
 30
0.0
  9
$PLIMCHECK
 70
     0
  9
$PEXTMIN
 10
0.0
 20
0.0
 30
0.0
  9
$PEXTMAX
 10
0.0
 20
0.0
 30
0.0
  9
$PLIMMIN
 10
0.0
 20
0.0
  9
$PLIMMAX
 10
420.0
 20
297.0
  9
$UNITMODE
 70
     0
  9
$VISRETAIN
 70
     1
  9
$PLINEGEN
 70
     0
  9
$PSLTSCALE
 70
     1
  9
$TREEDEPTH
 70
  3020
  9
$CMLSTYLE
  2
STANDARD
  9
$CMLJUST
 70
     0
  9
$CMLSCALE
 40
20.0
  9
$PROXYGRAPHICS
 70
     1
  9
$MEASUREMENT
 70
     1
  9
$CELWEIGHT
370
    20
  9
$ENDCAPS
280
     0
  9
$JOINSTYLE
280
     0
  9
$LWDISPLAY
290
     0
  9
$INSUNITS
 70
     0
  9
$HYPERLINKBASE
  1

  9
$STYLESHEET
  1

  9
$XEDIT
290
     1
  9
$CEPSNTYPE
380
     0
  9
$PSTYLEMODE
290
     1
  9
$FINGERPRINTGUID
  2
{12426522-B208-11D3-A790-004026173390}
  9
$VERSIONGUID
  2
{41E026A9-9A1E-4799-BB9B-DFEC0B203810}
  9
$EXTNAMES
290
     1
  9
$PSVPSCALE
 40
0.0
  9
$OLESTARTUP
290
     0
  0
ENDSEC
  0
SECTION
  2
CLASSES
  0
CLASS
  1
DICTIONARYVAR
  2
AcDbDictionaryVar
  3
AutoCAD 2000
 90
        0
280
     0
281
     0
  0
CLASS
  1
LWPOLYLINE
  2
AcDbPolyline
  3
AutoCAD 2000
 90
    32768
280
     0
281
     1
  0
CLASS
  1
OLE2FRAME
  2
AcDbOle2Frame
  3
AutoCAD 2000
 90
    32768
280
     0
281
     1
  0
CLASS
  1
HATCH
  2
AcDbHatch
  3
AutoCAD 2000
 90
    32768
280
     0
281
     1
  0
CLASS
  1
ACDBDICTIONARYWDFLT
  2
AcDbDictionaryWithDefault
  3
AutoCAD 2000
 90
        0
280
     0
281
     0
  0
CLASS
  1
ACDBPLACEHOLDER
  2
AcDbPlaceHolder
  3
AutoCAD 2000
 90
        0
280
     0
281
     0
  0
CLASS
  1
LAYOUT
  2
AcDbLayout
  3
AutoCAD 2000
 90
        0
280
     0
281
     0
  0
CLASS
  1
LONG_TRANSACTION
  2
AcDbLongTransaction
  3
AutoCAD 2000
 90
    32768
280
     0
281
     0
  0
CLASS
  1
LWPOLYLINE
  2
AcDbPolyline
  3
AutoCAD 2000
 90
    32768
280
     0
281
     1
  0
CLASS
  1
HATCH
  2
AcDbHatch
  3
AutoCAD 2000
 90
    32768
280
     0
281
     1
  0
CLASS
  1
XRECORD
  2
AcDbXrecord
  3
AutoCAD 2000
 90
    32768
280
     0
281
     0
  0
CLASS
  1
LONG_TRANSACTION
  2
AcDbLongTransaction
  3
AutoCAD 2000
 90
    32768
280
     0
281
     0
  0
CLASS
  1
LWPOLYLINE
  2
AcDbPolyline
  3
AutoCAD 2000
 90
    32768
280
     0
281
     1
  0
CLASS
  1
HATCH
  2
AcDbHatch
  3
AutoCAD 2000
 90
    32768
280
     0
281
     1
  0
CLASS
  1
XRECORD
  2
AcDbXrecord
  3
AutoCAD 2000
 90
    32768
280
     0
281
     0
  0
CLASS
  1
LONG_TRANSACTION
  2
AcDbLongTransaction
  3
AutoCAD 2000
 90
    32768
280
     0
281
     0
  0
CLASS
  1
LWPOLYLINE
  2
AcDbPolyline
  3
AutoCAD 2000
 90
    32768
280
     0
281
     1
  0
CLASS
  1
HATCH
  2
AcDbHatch
  3
AutoCAD 2000
 90
    32768
280
     0
281
     1
  0
CLASS
  1
XRECORD
  2
AcDbXrecord
  3
AutoCAD 2000
 90
    32768
280
     0
281
     0
  0
CLASS
  1
LONG_TRANSACTION
  2
AcDbLongTransaction
  3
AutoCAD 2000
 90
    32768
280
     0
281
     0
  0
CLASS
  1
LWPOLYLINE
  2
AcDbPolyline
  3
AutoCAD 2000
 90
    32768
280
     0
281
     1
  0
CLASS
  1
HATCH
  2
AcDbHatch
  3
AutoCAD 2000
 90
    32768
280
     0
281
     1
  0
CLASS
  1
XRECORD
  2
AcDbXrecord
  3
AutoCAD 2000
 90
    32768
280
     0
281
     0
  0
CLASS
  1
LONG_TRANSACTION
  2
AcDbLongTransaction
  3
AutoCAD 2000
 90
    32768
280
     0
281
     0
  0
CLASS
  1
LWPOLYLINE
  2
AcDbPolyline
  3
AutoCAD 2000
 90
    32768
280
     0
281
     1
  0
CLASS
  1
HATCH
  2
AcDbHatch
  3
AutoCAD 2000
 90
    32768
280
     0
281
     1
  0
CLASS
  1
XRECORD
  2
AcDbXrecord
  3
AutoCAD 2000
 90
    32768
280
     0
281
     0
  0
CLASS
  1
LONG_TRANSACTION
  2
AcDbLongTransaction
  3
AutoCAD 2000
 90
    32768
280
     0
281
     0
  0
CLASS
  1
LWPOLYLINE
  2
AcDbPolyline
  3
AutoCAD 2000
 90
    32768
280
     0
281
     1
  0
CLASS
  1
HATCH
  2
AcDbHatch
  3
AutoCAD 2000
 90
    32768
280
     0
281
     1
  0
CLASS
  1
XRECORD
  2
AcDbXrecord
  3
AutoCAD 2000
 90
    32768
280
     0
281
     0
  0
CLASS
  1
LONG_TRANSACTION
  2
AcDbLongTransaction
  3
AutoCAD 2000
 90
    32768
280
     0
281
     0
  0
CLASS
  1
LWPOLYLINE
  2
AcDbPolyline
  3
AutoCAD 2000
 90
    32768
280
     0
281
     1
  0
CLASS
  1
HATCH
  2
AcDbHatch
  3
AutoCAD 2000
 90
    32768
280
     0
281
     1
  0
CLASS
  1
XRECORD
  2
AcDbXrecord
  3
AutoCAD 2000
 90
    32768
280
     0
281
     0
  0
CLASS
  1
LONG_TRANSACTION
  2
AcDbLongTransaction
  3
AutoCAD 2000
 90
    32768
280
     0
281
     0
  0
CLASS
  1
LWPOLYLINE
  2
AcDbPolyline
  3
AutoCAD 2000
 90
    32768
280
     0
281
     1
  0
CLASS
  1
HATCH
  2
AcDbHatch
  3
AutoCAD 2000
 90
    32768
280
     0
281
     1
  0
CLASS
  1
XRECORD
  2
AcDbXrecord
  3
AutoCAD 2000
 90
    32768
280
     0
281
     0
  0
CLASS
  1
LONG_TRANSACTION
  2
AcDbLongTransaction
  3
AutoCAD 2000
 90
    32768
280
     0
281
     0
  0
CLASS
  1
LWPOLYLINE
  2
AcDbPolyline
  3
AutoCAD 2000
 90
    32768
280
     0
281
     1
  0
CLASS
  1
HATCH
  2
AcDbHatch
  3
AutoCAD 2000
 90
    32768
280
     0
281
     1
  0
CLASS
  1
XRECORD
  2
AcDbXrecord
  3
AutoCAD 2000
 90
    32768
280
     0
281
     0
  0
CLASS
  1
LONG_TRANSACTION
  2
AcDbLongTransaction
  3
AutoCAD 2000
 90
    32768
280
     0
281
     0
  0
CLASS
  1
LWPOLYLINE
  2
AcDbPolyline
  3
AutoCAD 2000
 90
    32768
280
     0
281
     1
  0
CLASS
  1
HATCH
  2
AcDbHatch
  3
AutoCAD 2000
 90
    32768
280
     0
281
     1
  0
CLASS
  1
XRECORD
  2
AcDbXrecord
  3
AutoCAD 2000
 90
    32768
280
     0
281
     0
  0
CLASS
  1
LONG_TRANSACTION
  2
AcDbLongTransaction
  3
AutoCAD 2000
 90
    32768
280
     0
281
     0
  0
CLASS
  1
LWPOLYLINE
  2
AcDbPolyline
  3
AutoCAD 2000
 90
    32768
280
     0
281
     1
  0
CLASS
  1
HATCH
  2
AcDbHatch
  3
AutoCAD 2000
 90
    32768
280
     0
281
     1
  0
CLASS
  1
XRECORD
  2
AcDbXrecord
  3
AutoCAD 2000
 90
    32768
280
     0
281
     0
  0
CLASS
  1
LONG_TRANSACTION
  2
AcDbLongTransaction
  3
AutoCAD 2000
 90
    32768
280
     0
281
     0
  0
CLASS
  1
LWPOLYLINE
  2
AcDbPolyline
  3
AutoCAD 2000
 90
    32768
280
     0
281
     1
  0
CLASS
  1
HATCH
  2
AcDbHatch
  3
AutoCAD 2000
 90
    32768
280
     0
281
     1
  0
CLASS
  1
XRECORD
  2
AcDbXrecord
  3
AutoCAD 2000
 90
    32768
280
     0
281
     0
  0
CLASS
  1
LONG_TRANSACTION
  2
AcDbLongTransaction
  3
AutoCAD 2000
 90
    32768
280
     0
281
     0
  0
CLASS
  1
LWPOLYLINE
  2
AcDbPolyline
  3
AutoCAD 2000
 90
    32768
280
     0
281
     1
  0
CLASS
  1
HATCH
  2
AcDbHatch
  3
AutoCAD 2000
 90
    32768
280
     0
281
     1
  0
CLASS
  1
XRECORD
  2
AcDbXrecord
  3
AutoCAD 2000
 90
    32768
280
     0
281
     0
  0
CLASS
  1
LONG_TRANSACTION
  2
AcDbLongTransaction
  3
AutoCAD 2000
 90
    32768
280
     0
281
     0
  0
CLASS
  1
LWPOLYLINE
  2
AcDbPolyline
  3
AutoCAD 2000
 90
    32768
280
     0
281
     1
  0
CLASS
  1
HATCH
  2
AcDbHatch
  3
AutoCAD 2000
 90
    32768
280
     0
281
     1
  0
CLASS
  1
XRECORD
  2
AcDbXrecord
  3
AutoCAD 2000
 90
    32768
280
     0
281
     0
  0
CLASS
  1
LONG_TRANSACTION
  2
AcDbLongTransaction
  3
AutoCAD 2000
 90
    32768
280
     0
281
     0
  0
CLASS
  1
LWPOLYLINE
  2
AcDbPolyline
  3
AutoCAD 2000
 90
    32768
280
     0
281
     1
  0
CLASS
  1
HATCH
  2
AcDbHatch
  3
AutoCAD 2000
 90
    32768
280
     0
281
     1
  0
CLASS
  1
XRECORD
  2
AcDbXrecord
  3
AutoCAD 2000
 90
    32768
280
     0
281
     0
  0
CLASS
  1
LONG_TRANSACTION
  2
AcDbLongTransaction
  3
AutoCAD 2000
 90
    32768
280
     0
281
     0
  0
CLASS
  1
LWPOLYLINE
  2
AcDbPolyline
  3
AutoCAD 2000
 90
    32768
280
     0
281
     1
  0
CLASS
  1
HATCH
  2
AcDbHatch
  3
AutoCAD 2000
 90
    32768
280
     0
281
     1
  0
CLASS
  1
XRECORD
  2
AcDbXrecord
  3
AutoCAD 2000
 90
    32768
280
     0
281
     0
  0
CLASS
  1
LONG_TRANSACTION
  2
AcDbLongTransaction
  3
AutoCAD 2000
 90
    32768
280
     0
281
     0
  0
CLASS
  1
LWPOLYLINE
  2
AcDbPolyline
  3
AutoCAD 2000
 90
    32768
280
     0
281
     1
  0
CLASS
  1
HATCH
  2
AcDbHatch
  3
AutoCAD 2000
 90
    32768
280
     0
281
     1
  0
CLASS
  1
XRECORD
  2
AcDbXrecord
  3
AutoCAD 2000
 90
    32768
280
     0
281
     0
  0
CLASS
  1
LONG_TRANSACTION
  2
AcDbLongTransaction
  3
AutoCAD 2000
 90
    32768
280
     0
281
     0
  0
CLASS
  1
LWPOLYLINE
  2
AcDbPolyline
  3
AutoCAD 2000
 90
    32768
280
     0
281
     1
  0
CLASS
  1
HATCH
  2
AcDbHatch
  3
AutoCAD 2000
 90
    32768
280
     0
281
     1
  0
CLASS
  1
XRECORD
  2
AcDbXrecord
  3
AutoCAD 2000
 90
    32768
280
     0
281
     0
  0
CLASS
  1
LONG_TRANSACTION
  2
AcDbLongTransaction
  3
AutoCAD 2000
 90
    32768
280
     0
281
     0
  0
CLASS
  1
LWPOLYLINE
  2
AcDbPolyline
  3
AutoCAD 2000
 90
    32768
280
     0
281
     1
  0
CLASS
  1
HATCH
  2
AcDbHatch
  3
AutoCAD 2000
 90
    32768
280
     0
281
     1
  0
CLASS
  1
XRECORD
  2
AcDbXrecord
  3
AutoCAD 2000
 90
    32768
280
     0
281
     0
  0
CLASS
  1
LONG_TRANSACTION
  2
AcDbLongTransaction
  3
AutoCAD 2000
 90
    32768
280
     0
281
     0
  0
CLASS
  1
LWPOLYLINE
  2
AcDbPolyline
  3
AutoCAD 2000
 90
    32768
280
     0
281
     1
  0
CLASS
  1
HATCH
  2
AcDbHatch
  3
AutoCAD 2000
 90
    32768
280
     0
281
     1
  0
CLASS
  1
XRECORD
  2
AcDbXrecord
  3
AutoCAD 2000
 90
    32768
280
     0
281
     0
  0
CLASS
  1
LONG_TRANSACTION
  2
AcDbLongTransaction
  3
AutoCAD 2000
 90
    32768
280
     0
281
     0
  0
CLASS
  1
LWPOLYLINE
  2
AcDbPolyline
  3
AutoCAD 2000
 90
    32768
280
     0
281
     1
  0
CLASS
  1
HATCH
  2
AcDbHatch
  3
AutoCAD 2000
 90
    32768
280
     0
281
     1
  0
CLASS
  1
XRECORD
  2
AcDbXrecord
  3
AutoCAD 2000
 90
    32768
280
     0
281
     0
  0
CLASS
  1
LONG_TRANSACTION
  2
AcDbLongTransaction
  3
AutoCAD 2000
 90
    32768
280
     0
281
     0
  0
CLASS
  1
LWPOLYLINE
  2
AcDbPolyline
  3
AutoCAD 2000
 90
    32768
280
     0
281
     1
  0
CLASS
  1
HATCH
  2
AcDbHatch
  3
AutoCAD 2000
 90
    32768
280
     0
281
     1
  0
CLASS
  1
XRECORD
  2
AcDbXrecord
  3
AutoCAD 2000
 90
    32768
280
     0
281
     0
  0
CLASS
  1
LONG_TRANSACTION
  2
AcDbLongTransaction
  3
AutoCAD 2000
 90
    32768
280
     0
281
     0
  0
CLASS
  1
LWPOLYLINE
  2
AcDbPolyline
  3
AutoCAD 2000
 90
    32768
280
     0
281
     1
  0
CLASS
  1
HATCH
  2
AcDbHatch
  3
AutoCAD 2000
 90
    32768
280
     0
281
     1
  0
CLASS
  1
XRECORD
  2
AcDbXrecord
  3
AutoCAD 2000
 90
    32768
280
     0
281
     0
  0
CLASS
  1
LONG_TRANSACTION
  2
AcDbLongTransaction
  3
AutoCAD 2000
 90
    32768
280
     0
281
     0
  0
CLASS
  1
LWPOLYLINE
  2
AcDbPolyline
  3
AutoCAD 2000
 90
    32768
280
     0
281
     1
  0
CLASS
  1
HATCH
  2
AcDbHatch
  3
AutoCAD 2000
 90
    32768
280
     0
281
     1
  0
CLASS
  1
XRECORD
  2
AcDbXrecord
  3
AutoCAD 2000
 90
    32768
280
     0
281
     0
  0
CLASS
  1
LONG_TRANSACTION
  2
AcDbLongTransaction
  3
AutoCAD 2000
 90
    32768
280
     0
281
     0
  0
CLASS
  1
LWPOLYLINE
  2
AcDbPolyline
  3
AutoCAD 2000
 90
    32768
280
     0
281
     1
  0
CLASS
  1
HATCH
  2
AcDbHatch
  3
AutoCAD 2000
 90
    32768
280
     0
281
     1
  0
CLASS
  1
XRECORD
  2
AcDbXrecord
  3
AutoCAD 2000
 90
    32768
280
     0
281
     0
  0
ENDSEC
  0
SECTION
  2
TABLES
  0
TABLE
  2
VPORT
  5
1E
330
0
100
AcDbSymbolTable
 70
     5
  0
VPORT
  5
28F0
330
1E
100
AcDbSymbolTableRecord
100
AcDbViewportTableRecord
  2
*Active
 70
     0
 10
0.0
 20
0.0
 11
1.0
 21
1.0
 12
-536.7171866176286
 22
250.8563377331987
 13
0.0
 23
0.0
 14
1.0
 24
1.0
 15
2.0
 25
2.0
 16
0.0
 26
0.0
 36
1.0
 17
0.0
 27
0.0
 37
0.0
 40
720.6706547636265
 41
1.709909909909909
 42
50.0
 43
0.0
 44
0.0
 50
0.0
 51
0.0
 71
     0
 72
   100
 73
     1
 74
     1
 75
     0
 76
     0
 77
     0
 78
     0
281
     0
 65
     1
110
0.0
120
0.0
130
0.0
111
1.0
121
0.0
131
0.0
112
0.0
122
1.0
132
0.0
 79
     0
146
0.0
  0
ENDTAB
  0
TABLE
  2
LTYPE
  5
19
330
0
100
AcDbSymbolTable
 70
     3
  0
LTYPE
  5
1A
330
19
100
AcDbSymbolTableRecord
100
AcDbLinetypeTableRecord
  2
BYBLOCK
 70
     0
  3

 72
    65
 73
     0
 40
0.0
  0
LTYPE
  5
1B
330
19
100
AcDbSymbolTableRecord
100
AcDbLinetypeTableRecord
  2
BYLAYER
 70
     0
  3

 72
    65
 73
     0
 40
0.0
  0
LTYPE
  5
A
330
19
100
AcDbSymbolTableRecord
100
AcDbLinetypeTableRecord
  2
CONTINUOUS
 70
     0
  3
Solid line
 72
    65
 73
     0
 40
0.0
  0
LTYPE
  5
68
330
19
100
AcDbSymbolTableRecord
100
AcDbLinetypeTableRecord
  2
DASHED2
 70
     0
  3
Dashed (.5x) _ _ _ _ _ _ _ _ _ _ _ _ _ _ _ _ _
 72
    65
 73
     2
 40
9.529999999999999
 49
6.349999999999998
 74
     0
 49
-3.18
 74
     0
  0
LTYPE
  5
76
330
19
100
AcDbSymbolTableRecord
100
AcDbLinetypeTableRecord
  2
CENTER
 70
     0
  3
Center ____ _ ____ _ ____ _ ____ _ ____ _ ____
 72
    65
 73
     4
 40
50.8
 49
31.75
 74
     0
 49
-6.349999999999998
 74
     0
 49
6.349999999999998
 74
     0
 49
-6.349999999999998
 74
     0
  0
ENDTAB
  0
TABLE
  2
LAYER
  5
14
330
0
100
AcDbSymbolTable
 70
     3
  0
LAYER
  5
6
330
14
100
AcDbSymbolTableRecord
100
AcDbLayerTableRecord
  2
0
 70
     0
 62
     7
  6
CONTINUOUS
370
    -3
390
7
  0
LAYER
  5
3F
330
14
100
AcDbSymbolTableRecord
100
AcDbLayerTableRecord
  2
DEFPOINTS
 70
     0
 62
     7
  6
CONTINUOUS
290
     0
370
    -3
390
7
  0
LAYER
  5
26
330
14
100
AcDbSymbolTableRecord
100
AcDbLayerTableRecord
  2
画層1
 70
     0
 62
     7
  6
CONTINUOUS
370
    -3
390
7
  0
ENDTAB
  0
TABLE
  2
STYLE
  5
15
330
0
100
AcDbSymbolTable
 70
     2
  0
STYLE
  5
16
330
15
100
AcDbSymbolTableRecord
100
AcDbTextStyleTableRecord
  2
STANDARD
 70
     0
 40
2.5
 41
1.0
 50
0.0
 71
     0
 42
1.5
  3
MS PMincho.ttf
  4

1001
ACAD
1000
MS PMincho
1071
    32786
  0
STYLE
  5
27
330
15
100
AcDbSymbolTableRecord
100
AcDbTextStyleTableRecord
  2
STYLE1
 70
     0
 40
2.5
 41
1.0
 50
0.0
 71
     0
 42
2.5
  3
MS Gothic.ttf
  4

1001
ACAD
1000
MS Gothic
1071
    32817
  0
ENDTAB
  0
TABLE
  2
VIEW
  5
1C
330
0
100
AcDbSymbolTable
 70
     0
  0
ENDTAB
  0
TABLE
  2
UCS
  5
1D
330
0
100
AcDbSymbolTable
 70
     0
  0
ENDTAB
  0
TABLE
  2
APPID
  5
20
330
0
100
AcDbSymbolTable
 70
     1
  0
APPID
  5
17
330
20
100
AcDbSymbolTableRecord
100
AcDbRegAppTableRecord
  2
ACAD
 70
     0
  0
ENDTAB
  0
TABLE
  2
DIMSTYLE
  5
21
330
0
100
AcDbSymbolTable
 70
     1
100
AcDbDimStyleTable
 71
     1
340
35
  0
DIMSTYLE
105
35
102
{ACAD_REACTORS
330
2509
330
2516
330
2523
330
256B
330
255E
330
25B1
330
25C7
330
25DD
330
25F3
330
2600
330
2625
330
263B
330
2618
330
266C
330
269D
330
26AA
330
26B7
330
26CF
102
}
330
21
100
AcDbSymbolTableRecord
100
AcDbDimStyleTableRecord
  2
STANDARD_WS
 70
     0
 41
1.5
 42
0.63
 43
3.75
 44
1.25
 73
     0
 74
     0
 77
     1
 78
     8
140
2.5
141
2.5
143
0.04
147
0.63
171
     4
172
     1
173
     1
273
     8
274
     4
340
16
341
2E
343
2E
344
2E
  0
ENDTAB
  0
TABLE
  2
BLOCK_RECORD
  5
1
330
0
100
AcDbSymbolTable
 70
    21
  0
BLOCK_RECORD
  5
2
102
{ACAD_XDICTIONARY
360
3
102
}
330
1
100
AcDbSymbolTableRecord
100
AcDbBlockTableRecord
  2
*MODEL_SPACE
340
560
  0
BLOCK_RECORD
  5
E
102
{ACAD_XDICTIONARY
360
F
102
}
330
1
100
AcDbSymbolTableRecord
100
AcDbBlockTableRecord
  2
*PAPER_SPACE
340
561
  0
BLOCK_RECORD
  5
2E
330
1
100
AcDbSymbolTableRecord
100
AcDbBlockTableRecord
  2
_OPEN
340
0
  0
BLOCK_RECORD
  5
28
330
1
100
AcDbSymbolTableRecord
100
AcDbBlockTableRecord
  2
_OPEN30
340
0
102
{BLKREFS
331
250E
331
250F
331
251B
331
251C
331
252A
331
252B
331
2537
331
2538
331
2542
331
2543
331
254D
331
254E
331
2558
331
2559
331
2563
331
2564
331
2570
331
2571
331
257E
331
257F
331
2587
331
2588
331
2590
331
2591
331
2599
331
259A
331
25A2
331
25A3
331
25AB
331
25AC
331
25B6
331
25B7
331
25C1
331
25C2
331
25CC
331
25CD
331
25D7
331
25D8
331
25E2
331
25E3
331
25ED
331
25EE
331
25F8
331
25F9
331
2605
331
2606
331
2612
331
2613
331
261D
331
261E
331
262A
331
262B
331
2635
331
2636
331
2640
331
2641
331
264B
331
264C
331
2654
331
2655
331
265D
331
265E
331
2666
331
2667
331
2671
331
2672
331
267C
331
267D
331
2685
331
2686
331
268E
331
268F
331
2697
331
2698
331
26A2
331
26A3
331
26AF
331
26B0
331
26BC
331
26BD
331
26C8
331
26C9
331
26D4
331
26D5
331
26E0
331
26E1
331
26EA
331
26EB
331
2867
331
2868
331
2870
331
2871
331
287B
331
287C
331
2884
331
2885
331
288D
331
288E
331
2896
331
2897
331
289F
331
28A0
331
28A8
331
28A9
331
28B1
331
28B2
331
28BA
331
28BB
331
28C3
331
28C4
331
28CC
331
28CD
331
28D5
331
28D6
331
28DF
331
28E0
331
28E9
331
28EA
102
}
  0
BLOCK_RECORD
  5
121
330
1
100
AcDbSymbolTableRecord
100
AcDbBlockTableRecord
  2
_DOTSMALL
340
0
  0
BLOCK_RECORD
  5
250A
330
1
100
AcDbSymbolTableRecord
100
AcDbBlockTableRecord
  2
*D3
340
0
  0
BLOCK_RECORD
  5
2517
330
1
100
AcDbSymbolTableRecord
100
AcDbBlockTableRecord
  2
*D4
340
0
  0
BLOCK_RECORD
  5
2524
330
1
100
AcDbSymbolTableRecord
100
AcDbBlockTableRecord
  2
*D5
340
0
  0
BLOCK_RECORD
  5
255F
330
1
100
AcDbSymbolTableRecord
100
AcDbBlockTableRecord
  2
*D6
340
0
  0
BLOCK_RECORD
  5
256C
330
1
100
AcDbSymbolTableRecord
100
AcDbBlockTableRecord
  2
*D7
340
0
  0
BLOCK_RECORD
  5
25B2
330
1
100
AcDbSymbolTableRecord
100
AcDbBlockTableRecord
  2
*D8
340
0
  0
BLOCK_RECORD
  5
25C8
330
1
100
AcDbSymbolTableRecord
100
AcDbBlockTableRecord
  2
*D9
340
0
  0
BLOCK_RECORD
  5
25DE
330
1
100
AcDbSymbolTableRecord
100
AcDbBlockTableRecord
  2
*D10
340
0
  0
BLOCK_RECORD
  5
25F4
330
1
100
AcDbSymbolTableRecord
100
AcDbBlockTableRecord
  2
*D11
340
0
  0
BLOCK_RECORD
  5
2601
330
1
100
AcDbSymbolTableRecord
100
AcDbBlockTableRecord
  2
*D12
340
0
  0
BLOCK_RECORD
  5
2619
330
1
100
AcDbSymbolTableRecord
100
AcDbBlockTableRecord
  2
*D13
340
0
  0
BLOCK_RECORD
  5
2626
330
1
100
AcDbSymbolTableRecord
100
AcDbBlockTableRecord
  2
*D14
340
0
  0
BLOCK_RECORD
  5
263C
330
1
100
AcDbSymbolTableRecord
100
AcDbBlockTableRecord
  2
*D15
340
0
  0
BLOCK_RECORD
  5
266D
330
1
100
AcDbSymbolTableRecord
100
AcDbBlockTableRecord
  2
*D16
340
0
  0
BLOCK_RECORD
  5
269E
330
1
100
AcDbSymbolTableRecord
100
AcDbBlockTableRecord
  2
*D17
340
0
  0
BLOCK_RECORD
  5
26AB
330
1
100
AcDbSymbolTableRecord
100
AcDbBlockTableRecord
  2
*D18
340
0
  0
BLOCK_RECORD
  5
26B8
330
1
100
AcDbSymbolTableRecord
100
AcDbBlockTableRecord
  2
*D19
340
0
  0
BLOCK_RECORD
  5
26D0
330
1
100
AcDbSymbolTableRecord
100
AcDbBlockTableRecord
  2
*D20
340
0
  0
ENDTAB
  0
ENDSEC
  0
SECTION
  2
BLOCKS
  0
BLOCK
  5
5
330
2
100
AcDbEntity
  8
0
100
AcDbBlockBegin
  2
*MODEL_SPACE
 70
     0
 10
0.0
 20
0.0
 30
0.0
  3
*MODEL_SPACE
  1

  0
ENDBLK
  5
B
330
2
100
AcDbEntity
  8
0
100
AcDbBlockEnd
  0
BLOCK
  5
11
330
E
100
AcDbEntity
 67
     1
  8
0
100
AcDbBlockBegin
  2
*PAPER_SPACE
 70
     0
 10
0.0
 20
0.0
 30
0.0
  3
*PAPER_SPACE
  1

  0
ENDBLK
  5
12
330
E
100
AcDbEntity
 67
     1
  8
0
100
AcDbBlockEnd
  0
BLOCK
  5
32
330
2E
100
AcDbEntity
  8
0
100
AcDbBlockBegin
  2
_OPEN
 70
     0
 10
0.0
 20
0.0
 30
0.0
  3
_OPEN
  1

  0
LINE
  5
2F
330
2E
100
AcDbEntity
  8
0
  6
ByBlock
 62
     0
100
AcDbLine
 10
-1.0
 20
0.17
 30
0.0
 11
0.0
 21
0.0
 31
0.0
  0
LINE
  5
30
330
2E
100
AcDbEntity
  8
0
  6
ByBlock
 62
     0
100
AcDbLine
 10
0.0
 20
0.0
 30
0.0
 11
-1.0
 21
-0.17
 31
0.0
  0
LINE
  5
31
330
2E
100
AcDbEntity
  8
0
  6
ByBlock
 62
     0
100
AcDbLine
 10
0.0
 20
0.0
 30
0.0
 11
-1.0
 21
0.0
 31
0.0
  0
ENDBLK
  5
33
330
2E
100
AcDbEntity
  8
0
100
AcDbBlockEnd
  0
BLOCK
  5
2C
330
28
100
AcDbEntity
  8
0
100
AcDbBlockBegin
  2
_OPEN30
 70
     0
 10
0.0
 20
0.0
 30
0.0
  3
_OPEN30
  1

  0
LINE
  5
29
330
28
100
AcDbEntity
  8
0
  6
ByBlock
 62
     0
100
AcDbLine
 10
-1.0
 20
0.27
 30
0.0
 11
0.0
 21
0.0
 31
0.0
  0
LINE
  5
2A
330
28
100
AcDbEntity
  8
0
  6
ByBlock
 62
     0
100
AcDbLine
 10
0.0
 20
0.0
 30
0.0
 11
-1.0
 21
-0.27
 31
0.0
  0
LINE
  5
2B
330
28
100
AcDbEntity
  8
0
  6
ByBlock
 62
     0
100
AcDbLine
 10
0.0
 20
0.0
 30
0.0
 11
-1.0
 21
0.0
 31
0.0
  0
ENDBLK
  5
2D
330
28
100
AcDbEntity
  8
0
100
AcDbBlockEnd
  0
BLOCK
  5
123
330
121
100
AcDbEntity
  8
0
 62
     1
100
AcDbBlockBegin
  2
_DOTSMALL
 70
     0
 10
0.0
 20
0.0
 30
0.0
  3
_DOTSMALL
  1

  0
LWPOLYLINE
  5
122
330
121
100
AcDbEntity
  8
画層1
 62
     0
100
AcDbPolyline
 90
        2
 70
     1
 43
0.5
 10
-0.06
 20
0.0
 42
1.0
 10
0.06
 20
0.0
 42
1.0
  0
ENDBLK
  5
124
330
121
100
AcDbEntity
  8
0
 62
     1
100
AcDbBlockEnd
  0
BLOCK
  5
2514
330
250A
100
AcDbEntity
  8
0
 62
     1
370
    20
100
AcDbBlockBegin
  2
*D3
 70
     1
 10
0.0
 20
0.0
 30
0.0
  3
*D3
  1

  0
LINE
  5
2864
330
250A
100
AcDbEntity
  8
画層1
 62
     0
370
    -2
100
AcDbLine
 10
-30.09040117899707
 20
463.088776737169
 30
0.0
 11
-30.09040117899707
 21
509.2114103357714
 31
0.0
  0
LINE
  5
2865
330
250A
100
AcDbEntity
  8
画層1
 62
     0
370
    -2
100
AcDbLine
 10
-340.090401178997
 20
464.5887767371689
 30
0.0
 11
-340.090401178997
 21
509.2114103357714
 31
0.0
  0
LINE
  5
2866
330
250A
100
AcDbEntity
  8
画層1
 62
     0
370
    -2
100
AcDbLine
 10
-31.59040117899706
 20
507.9614103357714
 30
0.0
 11
-338.590401178997
 21
507.9614103357714
 31
0.0
  0
INSERT
  5
2867
330
250A
100
AcDbEntity
  8
画層1
 62
     0
370
    -2
100
AcDbBlockReference
  2
_OPEN30
 10
-30.09040117899707
 20
507.9614103357714
 30
0.0
 41
1.5
 42
1.5
 43
1.5
  0
INSERT
  5
2868
330
250A
100
AcDbEntity
  8
画層1
 62
     0
370
    -2
100
AcDbBlockReference
  2
_OPEN30
 10
-340.090401178997
 20
507.9614103357714
 30
0.0
 41
1.5
 42
1.5
 43
1.5
 50
180.0
  0
MTEXT
  5
2869
330
250A
100
AcDbEntity
  8
画層1
 62
     0
370
    20
100
AcDbMText
 10
-185.090401178997
 20
510.2114103357714
 30
0.0
 40
2.5
 41
0.0
 71
     5
 72
     1
  1
\A1;310
 73
     1
 44
1.0
  0
POINT
  5
286A
330
250A
100
AcDbEntity
  8
DEFPOINTS
 62
     0
370
    20
100
AcDbPoint
 10
-30.09040117899707
 20
462.458776737169
 30
0.0
  0
POINT
  5
286B
330
250A
100
AcDbEntity
  8
DEFPOINTS
 62
     0
370
    20
100
AcDbPoint
 10
-340.090401178997
 20
463.958776737169
 30
0.0
  0
POINT
  5
286C
330
250A
100
AcDbEntity
  8
DEFPOINTS
 62
     0
370
    20
100
AcDbPoint
 10
-340.090401178997
 20
507.9614103357714
 30
0.0
  0
ENDBLK
  5
2515
330
250A
100
AcDbEntity
  8
0
 62
     1
370
    20
100
AcDbBlockEnd
  0
BLOCK
  5
2521
330
2517
100
AcDbEntity
  8
0
 62
     1
370
    20
100
AcDbBlockBegin
  2
*D4
 70
     1
 10
0.0
 20
0.0
 30
0.0
  3
*D4
  1

  0
LINE
  5
286D
330
2517
100
AcDbEntity
  8
画層1
 62
     0
370
    -2
100
AcDbLine
 10
-30.09040117899712
 20
24.82877673716904
 30
0.0
 11
-30.09040117899712
 21
-1.45365246882261
 31
0.0
  0
LINE
  5
286E
330
2517
100
AcDbEntity
  8
画層1
 62
     0
370
    -2
100
AcDbLine
 10
-190.0904011789971
 20
23.32877673716893
 30
0.0
 11
-190.0904011789971
 21
-1.45365246882261
 31
0.0
  0
LINE
  5
286F
330
2517
100
AcDbEntity
  8
画層1
 62
     0
370
    -2
100
AcDbLine
 10
-31.59040117899712
 20
-0.2036524688226109
 30
0.0
 11
-188.5904011789971
 21
-0.2036524688226109
 31
0.0
  0
INSERT
  5
2870
330
2517
100
AcDbEntity
  8
画層1
 62
     0
370
    -2
100
AcDbBlockReference
  2
_OPEN30
 10
-30.09040117899712
 20
-0.2036524688226109
 30
0.0
 41
1.5
 42
1.5
 43
1.5
  0
INSERT
  5
2871
330
2517
100
AcDbEntity
  8
画層1
 62
     0
370
    -2
100
AcDbBlockReference
  2
_OPEN30
 10
-190.0904011789971
 20
-0.2036524688226109
 30
0.0
 41
1.5
 42
1.5
 43
1.5
 50
180.0
  0
MTEXT
  5
2872
330
2517
100
AcDbEntity
  8
画層1
 62
     0
370
    20
100
AcDbMText
 10
-110.0904011789971
 20
2.046347531177389
 30
0.0
 40
2.5
 41
0.0
 71
     5
 72
     1
  1
\A1;160
 73
     1
 44
1.0
  0
POINT
  5
2873
330
2517
100
AcDbEntity
  8
DEFPOINTS
 62
     0
370
    20
100
AcDbPoint
 10
-30.09040117899712
 20
25.45877673716904
 30
0.0
  0
POINT
  5
2874
330
2517
100
AcDbEntity
  8
DEFPOINTS
 62
     0
370
    20
100
AcDbPoint
 10
-190.0904011789971
 20
23.95877673716893
 30
0.0
  0
POINT
  5
2875
330
2517
100
AcDbEntity
  8
DEFPOINTS
 62
     0
370
    20
100
AcDbPoint
 10
-190.0904011789971
 20
-0.2036524688226109
 30
0.0
  0
ENDBLK
  5
2522
330
2517
100
AcDbEntity
  8
0
 62
     1
370
    20
100
AcDbBlockEnd
  0
BLOCK
  5
2530
330
2524
100
AcDbEntity
  8
0
 62
     1
370
    20
100
AcDbBlockBegin
  2
*D5
 70
     1
 10
0.0
 20
0.0
 30
0.0
  3
*D5
  1

  0
LINE
  5
2876
330
2524
100
AcDbEntity
  8
画層1
 62
     0
370
    -2
100
AcDbLine
 10
-194.0904011789971
 20
24.82877673716904
 30
0.0
 11
-194.0904011789971
 21
-1.45365246882261
 31
0.0
  0
LINE
  5
2877
330
2524
100
AcDbEntity
  8
画層1
 62
     0
370
    -2
100
AcDbLine
 10
-190.0904011789971
 20
0.4263475311773891
 30
0.0
 11
-190.0904011789971
 21
1.046347531177389
 31
0.0
  0
LINE
  5
2878
330
2524
100
AcDbEntity
  8
画層1
 62
     0
370
    -2
100
AcDbLine
 10
-188.5904011789971
 20
-0.2036524688226109
 30
0.0
 11
-187.0904011789971
 21
-0.2036524688226109
 31
0.0
  0
LINE
  5
2879
330
2524
100
AcDbEntity
  8
画層1
 62
     0
370
    -2
100
AcDbLine
 10
-195.5904011789971
 20
-0.2036524688226109
 30
0.0
 11
-200.6353449992218
 21
-0.2036524688226109
 31
0.0
  0
LINE
  5
287A
330
2524
100
AcDbEntity
  8
画層1
 62
     0
370
    -2
100
AcDbLine
 10
-190.0904011789971
 20
-0.2036524688226109
 30
0.0
 11
-194.0904011789971
 21
-0.2036524688226109
 31
0.0
  0
INSERT
  5
287B
330
2524
100
AcDbEntity
  8
画層1
 62
     0
370
    -2
100
AcDbBlockReference
  2
_OPEN30
 10
-190.0904011789971
 20
-0.2036524688226109
 30
0.0
 41
1.5
 42
1.5
 43
1.5
 50
180.0
  0
INSERT
  5
287C
330
2524
100
AcDbEntity
  8
画層1
 62
     0
370
    -2
100
AcDbBlockReference
  2
_OPEN30
 10
-194.0904011789971
 20
-0.2036524688226109
 30
0.0
 41
1.5
 42
1.5
 43
1.5
  0
MTEXT
  5
287D
330
2524
100
AcDbEntity
  8
画層1
 62
     0
370
    20
100
AcDbMText
 10
-198.8628730891094
 20
2.046347531177389
 30
0.0
 40
2.5
 41
0.0
 71
     5
 72
     1
  1
\A1;4
 73
     1
 44
1.0
  0
POINT
  5
287E
330
2524
100
AcDbEntity
  8
DEFPOINTS
 62
     0
370
    20
100
AcDbPoint
 10
-194.0904011789971
 20
25.45877673716904
 30
0.0
  0
POINT
  5
287F
330
2524
100
AcDbEntity
  8
DEFPOINTS
 62
     0
370
    20
100
AcDbPoint
 10
-190.0904011789971
 20
-0.2036524688226109
 30
0.0
  0
POINT
  5
2880
330
2524
100
AcDbEntity
  8
DEFPOINTS
 62
     0
370
    20
100
AcDbPoint
 10
-190.0904011789971
 20
-0.2036524688226109
 30
0.0
  0
ENDBLK
  5
2531
330
2524
100
AcDbEntity
  8
0
 62
     1
370
    20
100
AcDbBlockEnd
  0
BLOCK
  5
2569
330
255F
100
AcDbEntity
  8
0
 62
     1
370
    20
100
AcDbBlockBegin
  2
*D6
 70
     1
 10
0.0
 20
0.0
 30
0.0
  3
*D6
  1

  0
LINE
  5
25A8
330
255F
100
AcDbEntity
  8
画層1
 62
     0
370
    -2
100
AcDbLine
 10
-485.0067862660604
 20
34.07555146327058
 30
0.0
 11
-414.468265176131
 21
34.07555146327056
 31
0.0
  0
LINE
  5
25A9
330
255F
100
AcDbEntity
  8
画層1
 62
     0
370
    -2
100
AcDbLine
 10
-484.9352295960735
 20
455.458776737169
 30
0.0
 11
-414.4682651761309
 21
455.458776737169
 31
0.0
  0
LINE
  5
25AA
330
255F
100
AcDbEntity
  8
画層1
 62
     0
370
    -2
100
AcDbLine
 10
-415.718265176131
 20
35.57555146327056
 30
0.0
 11
-415.7182651761308
 21
453.9587767371689
 31
0.0
  0
INSERT
  5
25AB
330
255F
100
AcDbEntity
  8
画層1
 62
     0
370
    -2
100
AcDbBlockReference
  2
_OPEN30
 10
-415.718265176131
 20
34.07555146327056
 30
0.0
 41
1.5
 42
1.5
 43
1.5
 50
270.0
  0
INSERT
  5
25AC
330
255F
100
AcDbEntity
  8
画層1
 62
     0
370
    -2
100
AcDbBlockReference
  2
_OPEN30
 10
-415.7182651761308
 20
455.458776737169
 30
0.0
 41
1.5
 42
1.5
 43
1.5
 50
90.0
  0
MTEXT
  5
25AD
330
255F
100
AcDbEntity
  8
画層1
 62
     0
370
    20
100
AcDbMText
 10
-417.968265176131
 20
244.7671641002197
 30
0.0
 40
2.5
 41
0.0
 71
     5
 72
     1
  1
\A1;421
 11
0.0000000000000001
 21
1.0
 31
0.0
 73
     1
 44
1.0
  0
POINT
  5
25AE
330
255F
100
AcDbEntity
  8
DEFPOINTS
 62
     0
370
    20
100
AcDbPoint
 10
-485.6367862660603
 20
34.07555146327058
 30
0.0
  0
POINT
  5
25AF
330
255F
100
AcDbEntity
  8
DEFPOINTS
 62
     0
370
    20
100
AcDbPoint
 10
-485.5652295960735
 20
455.458776737169
 30
0.0
  0
POINT
  5
25B0
330
255F
100
AcDbEntity
  8
DEFPOINTS
 62
     0
370
    20
100
AcDbPoint
 10
-415.7182651761308
 20
455.458776737169
 30
0.0
  0
ENDBLK
  5
256A
330
255F
100
AcDbEntity
  8
0
 62
     1
370
    20
100
AcDbBlockEnd
  0
BLOCK
  5
2576
330
256C
100
AcDbEntity
  8
0
 62
     1
370
    20
100
AcDbBlockBegin
  2
*D7
 70
     1
 10
0.0
 20
0.0
 30
0.0
  3
*D7
  1

  0
LINE
  5
2881
330
256C
100
AcDbEntity
  8
画層1
 62
     0
370
    -2
100
AcDbLine
 10
-434.9352295960735
 20
23.95877673716893
 30
0.0
 11
-400.5137925718765
 21
23.95877673716892
 31
0.0
  0
LINE
  5
2882
330
256C
100
AcDbEntity
  8
画層1
 62
     0
370
    -2
100
AcDbLine
 10
-434.9352295960735
 20
463.958776737169
 30
0.0
 11
-400.5137925718763
 21
463.958776737169
 31
0.0
  0
LINE
  5
2883
330
256C
100
AcDbEntity
  8
画層1
 62
     0
370
    -2
100
AcDbLine
 10
-401.7637925718764
 20
25.45877673716892
 30
0.0
 11
-401.7637925718763
 21
462.4587767371689
 31
0.0
  0
INSERT
  5
2884
330
256C
100
AcDbEntity
  8
画層1
 62
     0
370
    -2
100
AcDbBlockReference
  2
_OPEN30
 10
-401.7637925718764
 20
23.95877673716892
 30
0.0
 41
1.5
 42
1.5
 43
1.5
 50
270.0
  0
INSERT
  5
2885
330
256C
100
AcDbEntity
  8
画層1
 62
     0
370
    -2
100
AcDbBlockReference
  2
_OPEN30
 10
-401.7637925718763
 20
463.958776737169
 30
0.0
 41
1.5
 42
1.5
 43
1.5
 50
90.0
  0
MTEXT
  5
2886
330
256C
100
AcDbEntity
  8
画層1
 62
     0
370
    20
100
AcDbMText
 10
-404.0137925718765
 20
243.9587767371688
 30
0.0
 40
2.5
 41
0.0
 71
     5
 72
     1
  1
\A1;440
 11
0.0000000000000001
 21
1.0
 31
0.0
 73
     1
 44
1.0
  0
POINT
  5
2887
330
256C
100
AcDbEntity
  8
DEFPOINTS
 62
     0
370
    20
100
AcDbPoint
 10
-435.5652295960735
 20
23.95877673716893
 30
0.0
  0
POINT
  5
2888
330
256C
100
AcDbEntity
  8
DEFPOINTS
 62
     0
370
    20
100
AcDbPoint
 10
-435.5652295960735
 20
463.958776737169
 30
0.0
  0
POINT
  5
2889
330
256C
100
AcDbEntity
  8
DEFPOINTS
 62
     0
370
    20
100
AcDbPoint
 10
-401.7637925718763
 20
463.958776737169
 30
0.0
  0
ENDBLK
  5
2577
330
256C
100
AcDbEntity
  8
0
 62
     1
370
    20
100
AcDbBlockEnd
  0
BLOCK
  5
25BC
330
25B2
100
AcDbEntity
  8
0
 62
     1
370
    20
100
AcDbBlockBegin
  2
*D8
 70
     1
 10
0.0
 20
0.0
 30
0.0
  3
*D8
  1

  0
LINE
  5
288A
330
25B2
100
AcDbEntity
  8
画層1
 62
     0
370
    -2
100
AcDbLine
 10
-484.9352295960735
 20
33.95877673716899
 30
0.0
 11
-424.0923731761951
 21
33.95877673716896
 31
0.0
  0
LINE
  5
288B
330
25B2
100
AcDbEntity
  8
画層1
 62
     0
370
    -2
100
AcDbLine
 10
-484.9352295960735
 20
453.9587767371689
 30
0.0
 11
-424.092373176195
 21
453.9587767371689
 31
0.0
  0
LINE
  5
288C
330
25B2
100
AcDbEntity
  8
画層1
 62
     0
370
    -2
100
AcDbLine
 10
-425.3423731761951
 20
35.45877673716896
 30
0.0
 11
-425.342373176195
 21
452.458776737169
 31
0.0
  0
INSERT
  5
288D
330
25B2
100
AcDbEntity
  8
画層1
 62
     0
370
    -2
100
AcDbBlockReference
  2
_OPEN30
 10
-425.3423731761951
 20
33.95877673716896
 30
0.0
 41
1.5
 42
1.5
 43
1.5
 50
270.0
  0
INSERT
  5
288E
330
25B2
100
AcDbEntity
  8
画層1
 62
     0
370
    -2
100
AcDbBlockReference
  2
_OPEN30
 10
-425.342373176195
 20
453.9587767371689
 30
0.0
 41
1.5
 42
1.5
 43
1.5
 50
90.0
  0
MTEXT
  5
288F
330
25B2
100
AcDbEntity
  8
画層1
 62
     0
370
    20
100
AcDbMText
 10
-427.5923731761951
 20
243.9587767371689
 30
0.0
 40
2.5
 41
0.0
 71
     5
 72
     1
  1
\A1;420
 11
0.0000000000000001
 21
1.0
 31
0.0
 73
     1
 44
1.0
  0
POINT
  5
2890
330
25B2
100
AcDbEntity
  8
DEFPOINTS
 62
     0
370
    20
100
AcDbPoint
 10
-485.5652295960735
 20
33.95877673716899
 30
0.0
  0
POINT
  5
2891
330
25B2
100
AcDbEntity
  8
DEFPOINTS
 62
     0
370
    20
100
AcDbPoint
 10
-485.5652295960735
 20
453.9587767371689
 30
0.0
  0
POINT
  5
2892
330
25B2
100
AcDbEntity
  8
DEFPOINTS
 62
     0
370
    20
100
AcDbPoint
 10
-425.342373176195
 20
453.9587767371689
 30
0.0
  0
ENDBLK
  5
25BD
330
25B2
100
AcDbEntity
  8
0
 62
     1
370
    20
100
AcDbBlockEnd
  0
BLOCK
  5
25D2
330
25C8
100
AcDbEntity
  8
0
 62
     1
370
    20
100
AcDbBlockBegin
  2
*D9
 70
     1
 10
0.0
 20
0.0
 30
0.0
  3
*D9
  1

  0
LINE
  5
2893
330
25C8
100
AcDbEntity
  8
画層1
 62
     0
370
    -2
100
AcDbLine
 10
-425.9723731761949
 20
453.9587767371689
 30
0.0
 11
-426.5923731761949
 21
453.9587767371689
 31
0.0
  0
LINE
  5
2894
330
25C8
100
AcDbEntity
  8
画層1
 62
     0
370
    -2
100
AcDbLine
 10
-434.9352295960735
 20
463.958776737169
 30
0.0
 11
-424.092373176195
 21
463.958776737169
 31
0.0
  0
LINE
  5
2895
330
25C8
100
AcDbEntity
  8
画層1
 62
     0
370
    -2
100
AcDbLine
 10
-425.342373176195
 20
455.458776737169
 30
0.0
 11
-425.342373176195
 21
462.4587767371689
 31
0.0
  0
INSERT
  5
2896
330
25C8
100
AcDbEntity
  8
画層1
 62
     0
370
    -2
100
AcDbBlockReference
  2
_OPEN30
 10
-425.342373176195
 20
453.9587767371689
 30
0.0
 41
1.5
 42
1.5
 43
1.5
 50
270.0
  0
INSERT
  5
2897
330
25C8
100
AcDbEntity
  8
画層1
 62
     0
370
    -2
100
AcDbBlockReference
  2
_OPEN30
 10
-425.342373176195
 20
463.958776737169
 30
0.0
 41
1.5
 42
1.5
 43
1.5
 50
90.0
  0
MTEXT
  5
2898
330
25C8
100
AcDbEntity
  8
画層1
 62
     0
370
    20
100
AcDbMText
 10
-427.5923731761951
 20
458.9587767371688
 30
0.0
 40
2.5
 41
0.0
 71
     5
 72
     1
  1
\A1;10
 11
0.0000000000000001
 21
1.0
 31
0.0
 73
     1
 44
1.0
  0
POINT
  5
2899
330
25C8
100
AcDbEntity
  8
DEFPOINTS
 62
     0
370
    20
100
AcDbPoint
 10
-425.342373176195
 20
453.9587767371689
 30
0.0
  0
POINT
  5
289A
330
25C8
100
AcDbEntity
  8
DEFPOINTS
 62
     0
370
    20
100
AcDbPoint
 10
-435.5652295960735
 20
463.958776737169
 30
0.0
  0
POINT
  5
289B
330
25C8
100
AcDbEntity
  8
DEFPOINTS
 62
     0
370
    20
100
AcDbPoint
 10
-425.342373176195
 20
463.958776737169
 30
0.0
  0
ENDBLK
  5
25D3
330
25C8
100
AcDbEntity
  8
0
 62
     1
370
    20
100
AcDbBlockEnd
  0
BLOCK
  5
25E8
330
25DE
100
AcDbEntity
  8
0
 62
     1
370
    20
100
AcDbBlockBegin
  2
*D10
 70
     1
 10
0.0
 20
0.0
 30
0.0
  3
*D10
  1

  0
LINE
  5
289C
330
25DE
100
AcDbEntity
  8
画層1
 62
     0
370
    -2
100
AcDbLine
 10
-425.972373176195
 20
33.95877673716896
 30
0.0
 11
-426.5923731761951
 21
33.95877673716896
 31
0.0
  0
LINE
  5
289D
330
25DE
100
AcDbEntity
  8
画層1
 62
     0
370
    -2
100
AcDbLine
 10
-434.9352295960735
 20
23.95877673716893
 30
0.0
 11
-424.0923731761951
 21
23.95877673716893
 31
0.0
  0
LINE
  5
289E
330
25DE
100
AcDbEntity
  8
画層1
 62
     0
370
    -2
100
AcDbLine
 10
-425.3423731761951
 20
32.45877673716897
 30
0.0
 11
-425.3423731761951
 21
25.45877673716893
 31
0.0
  0
INSERT
  5
289F
330
25DE
100
AcDbEntity
  8
画層1
 62
     0
370
    -2
100
AcDbBlockReference
  2
_OPEN30
 10
-425.3423731761951
 20
33.95877673716896
 30
0.0
 41
1.5
 42
1.5
 43
1.5
 50
90.0
  0
INSERT
  5
28A0
330
25DE
100
AcDbEntity
  8
画層1
 62
     0
370
    -2
100
AcDbBlockReference
  2
_OPEN30
 10
-425.3423731761951
 20
23.95877673716893
 30
0.0
 41
1.5
 42
1.5
 43
1.5
 50
270.0
  0
MTEXT
  5
28A1
330
25DE
100
AcDbEntity
  8
画層1
 62
     0
370
    20
100
AcDbMText
 10
-427.5923731761951
 20
28.95877673716888
 30
0.0
 40
2.5
 41
0.0
 71
     5
 72
     1
  1
\A1;10
 11
0.0000000000000001
 21
1.0
 31
0.0
 73
     1
 44
1.0
  0
POINT
  5
28A2
330
25DE
100
AcDbEntity
  8
DEFPOINTS
 62
     0
370
    20
100
AcDbPoint
 10
-425.3423731761951
 20
33.95877673716896
 30
0.0
  0
POINT
  5
28A3
330
25DE
100
AcDbEntity
  8
DEFPOINTS
 62
     0
370
    20
100
AcDbPoint
 10
-435.5652295960735
 20
23.95877673716893
 30
0.0
  0
POINT
  5
28A4
330
25DE
100
AcDbEntity
  8
DEFPOINTS
 62
     0
370
    20
100
AcDbPoint
 10
-425.3423731761951
 20
23.95877673716893
 30
0.0
  0
ENDBLK
  5
25E9
330
25DE
100
AcDbEntity
  8
0
 62
     1
370
    20
100
AcDbBlockEnd
  0
BLOCK
  5
25FE
330
25F4
100
AcDbEntity
  8
0
 62
     1
370
    20
100
AcDbBlockBegin
  2
*D11
 70
     1
 10
0.0
 20
0.0
 30
0.0
  3
*D11
  1

  0
LINE
  5
28A5
330
25F4
100
AcDbEntity
  8
画層1
 62
     0
370
    -2
100
AcDbLine
 10
-435.5652295960735
 20
464.5887767371689
 30
0.0
 11
-435.5652295960735
 21
507.3405630466113
 31
0.0
  0
LINE
  5
28A6
330
25F4
100
AcDbEntity
  8
画層1
 62
     0
370
    -2
100
AcDbLine
 10
-485.5652295960735
 20
454.588776737169
 30
0.0
 11
-485.5652295960735
 21
507.3405630466113
 31
0.0
  0
LINE
  5
28A7
330
25F4
100
AcDbEntity
  8
画層1
 62
     0
370
    -2
100
AcDbLine
 10
-437.0652295960735
 20
506.0905630466113
 30
0.0
 11
-484.0652295960735
 21
506.0905630466113
 31
0.0
  0
INSERT
  5
28A8
330
25F4
100
AcDbEntity
  8
画層1
 62
     0
370
    -2
100
AcDbBlockReference
  2
_OPEN30
 10
-435.5652295960735
 20
506.0905630466113
 30
0.0
 41
1.5
 42
1.5
 43
1.5
  0
INSERT
  5
28A9
330
25F4
100
AcDbEntity
  8
画層1
 62
     0
370
    -2
100
AcDbBlockReference
  2
_OPEN30
 10
-485.5652295960735
 20
506.0905630466113
 30
0.0
 41
1.5
 42
1.5
 43
1.5
 50
180.0
  0
MTEXT
  5
28AA
330
25F4
100
AcDbEntity
  8
画層1
 62
     0
370
    20
100
AcDbMText
 10
-460.5652295960735
 20
508.3405630466113
 30
0.0
 40
2.5
 41
0.0
 71
     5
 72
     1
  1
\A1;50
 73
     1
 44
1.0
  0
POINT
  5
28AB
330
25F4
100
AcDbEntity
  8
DEFPOINTS
 62
     0
370
    20
100
AcDbPoint
 10
-435.5652295960735
 20
463.958776737169
 30
0.0
  0
POINT
  5
28AC
330
25F4
100
AcDbEntity
  8
DEFPOINTS
 62
     0
370
    20
100
AcDbPoint
 10
-485.5652295960735
 20
453.9587767371689
 30
0.0
  0
POINT
  5
28AD
330
25F4
100
AcDbEntity
  8
DEFPOINTS
 62
     0
370
    20
100
AcDbPoint
 10
-485.5652295960735
 20
506.0905630466113
 30
0.0
  0
ENDBLK
  5
25FF
330
25F4
100
AcDbEntity
  8
0
 62
     1
370
    20
100
AcDbBlockEnd
  0
BLOCK
  5
260B
330
2601
100
AcDbEntity
  8
0
 62
     1
370
    20
100
AcDbBlockBegin
  2
*D12
 70
     1
 10
0.0
 20
0.0
 30
0.0
  3
*D12
  1

  0
LINE
  5
28AE
330
2601
100
AcDbEntity
  8
画層1
 62
     0
370
    -2
100
AcDbLine
 10
-715.5652295960735
 20
464.5887767371689
 30
0.0
 11
-715.5652295960735
 21
507.3405630466113
 31
0.0
  0
LINE
  5
28AF
330
2601
100
AcDbEntity
  8
画層1
 62
     0
370
    -2
100
AcDbLine
 10
-665.5652295960735
 20
454.588776737169
 30
0.0
 11
-665.5652295960735
 21
507.3405630466113
 31
0.0
  0
LINE
  5
28B0
330
2601
100
AcDbEntity
  8
画層1
 62
     0
370
    -2
100
AcDbLine
 10
-714.0652295960735
 20
506.0905630466113
 30
0.0
 11
-667.0652295960735
 21
506.0905630466113
 31
0.0
  0
INSERT
  5
28B1
330
2601
100
AcDbEntity
  8
画層1
 62
     0
370
    -2
100
AcDbBlockReference
  2
_OPEN30
 10
-715.5652295960735
 20
506.0905630466113
 30
0.0
 41
1.5
 42
1.5
 43
1.5
 50
180.0
  0
INSERT
  5
28B2
330
2601
100
AcDbEntity
  8
画層1
 62
     0
370
    -2
100
AcDbBlockReference
  2
_OPEN30
 10
-665.5652295960735
 20
506.0905630466113
 30
0.0
 41
1.5
 42
1.5
 43
1.5
  0
MTEXT
  5
28B3
330
2601
100
AcDbEntity
  8
画層1
 62
     0
370
    20
100
AcDbMText
 10
-690.5652295960735
 20
508.3405630466113
 30
0.0
 40
2.5
 41
0.0
 71
     5
 72
     1
  1
\A1;50
 73
     1
 44
1.0
  0
POINT
  5
28B4
330
2601
100
AcDbEntity
  8
DEFPOINTS
 62
     0
370
    20
100
AcDbPoint
 10
-715.5652295960735
 20
463.958776737169
 30
0.0
  0
POINT
  5
28B5
330
2601
100
AcDbEntity
  8
DEFPOINTS
 62
     0
370
    20
100
AcDbPoint
 10
-665.5652295960735
 20
453.9587767371689
 30
0.0
  0
POINT
  5
28B6
330
2601
100
AcDbEntity
  8
DEFPOINTS
 62
     0
370
    20
100
AcDbPoint
 10
-665.5652295960735
 20
506.0905630466113
 30
0.0
  0
ENDBLK
  5
260C
330
2601
100
AcDbEntity
  8
0
 62
     1
370
    20
100
AcDbBlockEnd
  0
BLOCK
  5
2623
330
2619
100
AcDbEntity
  8
0
 62
     1
370
    20
100
AcDbBlockBegin
  2
*D13
 70
     1
 10
0.0
 20
0.0
 30
0.0
  3
*D13
  1

  0
LINE
  5
2663
330
2619
100
AcDbEntity
  8
画層1
 62
     0
370
    -2
100
AcDbLine
 10
-484.0652295960735
 20
505.8655630466112
 30
0.0
 11
-484.0652295960735
 21
504.8405630466113
 31
0.0
  0
LINE
  5
2664
330
2619
100
AcDbEntity
  8
画層1
 62
     0
370
    -2
100
AcDbLine
 10
-665.5652295960735
 20
505.1817781590862
 30
0.0
 11
-665.5652295960735
 21
507.3405630466113
 31
0.0
  0
LINE
  5
2665
330
2619
100
AcDbEntity
  8
画層1
 62
     0
370
    -2
100
AcDbLine
 10
-485.5652295960735
 20
506.0905630466113
 30
0.0
 11
-664.0652295960735
 21
506.0905630466113
 31
0.0
  0
INSERT
  5
2666
330
2619
100
AcDbEntity
  8
画層1
 62
     0
370
    -2
100
AcDbBlockReference
  2
_OPEN30
 10
-484.0652295960735
 20
506.0905630466113
 30
0.0
 41
1.5
 42
1.5
 43
1.5
  0
INSERT
  5
2667
330
2619
100
AcDbEntity
  8
画層1
 62
     0
370
    -2
100
AcDbBlockReference
  2
_OPEN30
 10
-665.5652295960735
 20
506.0905630466113
 30
0.0
 41
1.5
 42
1.5
 43
1.5
 50
180.0
  0
MTEXT
  5
2668
330
2619
100
AcDbEntity
  8
画層1
 62
     0
370
    20
100
AcDbMText
 10
-574.8152295960735
 20
508.3405630466113
 30
0.0
 40
2.5
 41
0.0
 71
     5
 72
     1
  1
\A1;182
 73
     1
 44
1.0
  0
POINT
  5
2669
330
2619
100
AcDbEntity
  8
DEFPOINTS
 62
     0
370
    20
100
AcDbPoint
 10
-484.0652295960735
 20
506.4955630466113
 30
0.0
  0
POINT
  5
266A
330
2619
100
AcDbEntity
  8
DEFPOINTS
 62
     0
370
    20
100
AcDbPoint
 10
-665.5652295960735
 20
504.5517781590863
 30
0.0
  0
POINT
  5
266B
330
2619
100
AcDbEntity
  8
DEFPOINTS
 62
     0
370
    20
100
AcDbPoint
 10
-665.5652295960735
 20
506.0905630466113
 30
0.0
  0
ENDBLK
  5
2624
330
2619
100
AcDbEntity
  8
0
 62
     1
370
    20
100
AcDbBlockEnd
  0
BLOCK
  5
2630
330
2626
100
AcDbEntity
  8
0
 62
     1
370
    20
100
AcDbBlockBegin
  2
*D14
 70
     1
 10
0.0
 20
0.0
 30
0.0
  3
*D14
  1

  0
LINE
  5
2632
330
2626
100
AcDbEntity
  8
画層1
 62
     0
370
    -2
100
AcDbLine
 10
-435.5652295960735
 20
506.7205630466113
 30
0.0
 11
-435.5652295960735
 21
540.8401137309733
 31
0.0
  0
LINE
  5
2633
330
2626
100
AcDbEntity
  8
画層1
 62
     0
370
    -2
100
AcDbLine
 10
-715.5652295960735
 20
505.1817781590862
 30
0.0
 11
-715.5652295960735
 21
540.8401137309733
 31
0.0
  0
LINE
  5
2634
330
2626
100
AcDbEntity
  8
画層1
 62
     0
370
    -2
100
AcDbLine
 10
-437.0652295960735
 20
539.5901137309733
 30
0.0
 11
-714.0652295960735
 21
539.5901137309733
 31
0.0
  0
INSERT
  5
2635
330
2626
100
AcDbEntity
  8
画層1
 62
     0
370
    -2
100
AcDbBlockReference
  2
_OPEN30
 10
-435.5652295960735
 20
539.5901137309733
 30
0.0
 41
1.5
 42
1.5
 43
1.5
  0
INSERT
  5
2636
330
2626
100
AcDbEntity
  8
画層1
 62
     0
370
    -2
100
AcDbBlockReference
  2
_OPEN30
 10
-715.5652295960735
 20
539.5901137309733
 30
0.0
 41
1.5
 42
1.5
 43
1.5
 50
180.0
  0
MTEXT
  5
2637
330
2626
100
AcDbEntity
  8
画層1
 62
     0
370
    20
100
AcDbMText
 10
-575.5652295960735
 20
541.8401137309733
 30
0.0
 40
2.5
 41
0.0
 71
     5
 72
     1
  1
\A1;280
 73
     1
 44
1.0
  0
POINT
  5
2638
330
2626
100
AcDbEntity
  8
DEFPOINTS
 62
     0
370
    20
100
AcDbPoint
 10
-435.5652295960735
 20
506.0905630466113
 30
0.0
  0
POINT
  5
2639
330
2626
100
AcDbEntity
  8
DEFPOINTS
 62
     0
370
    20
100
AcDbPoint
 10
-715.5652295960735
 20
504.5517781590863
 30
0.0
  0
POINT
  5
263A
330
2626
100
AcDbEntity
  8
DEFPOINTS
 62
     0
370
    20
100
AcDbPoint
 10
-715.5652295960735
 20
539.5901137309733
 30
0.0
  0
ENDBLK
  5
2631
330
2626
100
AcDbEntity
  8
0
 62
     1
370
    20
100
AcDbBlockEnd
  0
BLOCK
  5
2646
330
263C
100
AcDbEntity
  8
0
 62
     1
370
    20
100
AcDbBlockBegin
  2
*D15
 70
     1
 10
0.0
 20
0.0
 30
0.0
  3
*D15
  1

  0
LINE
  5
28B7
330
263C
100
AcDbEntity
  8
画層1
 62
     0
370
    -2
100
AcDbLine
 10
-715.5652295960735
 20
505.1817781590862
 30
0.0
 11
-715.5652295960735
 21
524.6805152032407
 31
0.0
  0
LINE
  5
28B8
330
263C
100
AcDbEntity
  8
画層1
 62
     0
370
    -2
100
AcDbLine
 10
-435.5652295960735
 20
507.9705630466113
 30
0.0
 11
-435.5652295960735
 21
524.6805152032407
 31
0.0
  0
LINE
  5
28B9
330
263C
100
AcDbEntity
  8
画層1
 62
     0
370
    -2
100
AcDbLine
 10
-714.0652295960735
 20
523.4305152032407
 30
0.0
 11
-437.0652295960735
 21
523.4305152032407
 31
0.0
  0
INSERT
  5
28BA
330
263C
100
AcDbEntity
  8
画層1
 62
     0
370
    -2
100
AcDbBlockReference
  2
_OPEN30
 10
-715.5652295960735
 20
523.4305152032407
 30
0.0
 41
1.5
 42
1.5
 43
1.5
 50
180.0
  0
INSERT
  5
28BB
330
263C
100
AcDbEntity
  8
画層1
 62
     0
370
    -2
100
AcDbBlockReference
  2
_OPEN30
 10
-435.5652295960735
 20
523.4305152032407
 30
0.0
 41
1.5
 42
1.5
 43
1.5
  0
MTEXT
  5
28BC
330
263C
100
AcDbEntity
  8
画層1
 62
     0
370
    20
100
AcDbMText
 10
-575.5652295960735
 20
525.6805152032407
 30
0.0
 40
2.5
 41
0.0
 71
     5
 72
     1
  1
\A1;280
 73
     1
 44
1.0
  0
POINT
  5
28BD
330
263C
100
AcDbEntity
  8
DEFPOINTS
 62
     0
370
    20
100
AcDbPoint
 10
-715.5652295960735
 20
504.5517781590863
 30
0.0
  0
POINT
  5
28BE
330
263C
100
AcDbEntity
  8
DEFPOINTS
 62
     0
370
    20
100
AcDbPoint
 10
-435.5652295960735
 20
507.3405630466113
 30
0.0
  0
POINT
  5
28BF
330
263C
100
AcDbEntity
  8
DEFPOINTS
 62
     0
370
    20
100
AcDbPoint
 10
-435.5652295960735
 20
523.4305152032407
 30
0.0
  0
ENDBLK
  5
2647
330
263C
100
AcDbEntity
  8
0
 62
     1
370
    20
100
AcDbBlockEnd
  0
BLOCK
  5
2677
330
266D
100
AcDbEntity
  8
0
 62
     1
370
    20
100
AcDbBlockBegin
  2
*D16
 70
     1
 10
0.0
 20
0.0
 30
0.0
  3
*D16
  1

  0
LINE
  5
28C0
330
266D
100
AcDbEntity
  8
画層1
 62
     0
370
    -2
100
AcDbLine
 10
-665.5652295960735
 20
505.1817781590862
 30
0.0
 11
-665.5652295960735
 21
507.3405630466113
 31
0.0
  0
LINE
  5
28C1
330
266D
100
AcDbEntity
  8
画層1
 62
     0
370
    -2
100
AcDbLine
 10
-485.5652295960735
 20
506.7205630466113
 30
0.0
 11
-485.5652295960735
 21
507.3405630466113
 31
0.0
  0
LINE
  5
28C2
330
266D
100
AcDbEntity
  8
画層1
 62
     0
370
    -2
100
AcDbLine
 10
-664.0652295960735
 20
506.0905630466113
 30
0.0
 11
-487.0652295960735
 21
506.0905630466113
 31
0.0
  0
INSERT
  5
28C3
330
266D
100
AcDbEntity
  8
画層1
 62
     0
370
    -2
100
AcDbBlockReference
  2
_OPEN30
 10
-665.5652295960735
 20
506.0905630466113
 30
0.0
 41
1.5
 42
1.5
 43
1.5
 50
180.0
  0
INSERT
  5
28C4
330
266D
100
AcDbEntity
  8
画層1
 62
     0
370
    -2
100
AcDbBlockReference
  2
_OPEN30
 10
-485.5652295960735
 20
506.0905630466113
 30
0.0
 41
1.5
 42
1.5
 43
1.5
  0
MTEXT
  5
28C5
330
266D
100
AcDbEntity
  8
画層1
 62
     0
370
    20
100
AcDbMText
 10
-575.5652295960735
 20
508.3405630466113
 30
0.0
 40
2.5
 41
0.0
 71
     5
 72
     1
  1
\A1;180
 73
     1
 44
1.0
  0
POINT
  5
28C6
330
266D
100
AcDbEntity
  8
DEFPOINTS
 62
     0
370
    20
100
AcDbPoint
 10
-665.5652295960735
 20
504.5517781590863
 30
0.0
  0
POINT
  5
28C7
330
266D
100
AcDbEntity
  8
DEFPOINTS
 62
     0
370
    20
100
AcDbPoint
 10
-485.5652295960735
 20
506.0905630466113
 30
0.0
  0
POINT
  5
28C8
330
266D
100
AcDbEntity
  8
DEFPOINTS
 62
     0
370
    20
100
AcDbPoint
 10
-485.5652295960735
 20
506.0905630466113
 30
0.0
  0
ENDBLK
  5
2678
330
266D
100
AcDbEntity
  8
0
 62
     1
370
    20
100
AcDbBlockEnd
  0
BLOCK
  5
26A8
330
269E
100
AcDbEntity
  8
0
 62
     1
370
    20
100
AcDbBlockBegin
  2
*D17
 70
     1
 10
0.0
 20
0.0
 30
0.0
  3
*D17
  1

  0
LINE
  5
28C9
330
269E
100
AcDbEntity
  8
画層1
 62
     0
370
    -2
100
AcDbLine
 10
-643.5652295960736
 20
80.58877673716892
 30
0.0
 11
-643.5652295960736
 21
97.20022665564693
 31
0.0
  0
LINE
  5
28CA
330
269E
100
AcDbEntity
  8
画層1
 62
     0
370
    -2
100
AcDbLine
 10
-613.5652295960735
 20
80.58877673716892
 30
0.0
 11
-613.5652295960735
 21
97.20022665564693
 31
0.0
  0
LINE
  5
28CB
330
269E
100
AcDbEntity
  8
画層1
 62
     0
370
    -2
100
AcDbLine
 10
-642.0652295960735
 20
95.95022665564693
 30
0.0
 11
-615.0652295960735
 21
95.95022665564693
 31
0.0
  0
INSERT
  5
28CC
330
269E
100
AcDbEntity
  8
画層1
 62
     0
370
    -2
100
AcDbBlockReference
  2
_OPEN30
 10
-643.5652295960736
 20
95.95022665564693
 30
0.0
 41
1.5
 42
1.5
 43
1.5
 50
180.0
  0
INSERT
  5
28CD
330
269E
100
AcDbEntity
  8
画層1
 62
     0
370
    -2
100
AcDbBlockReference
  2
_OPEN30
 10
-613.5652295960735
 20
95.95022665564693
 30
0.0
 41
1.5
 42
1.5
 43
1.5
  0
MTEXT
  5
28CE
330
269E
100
AcDbEntity
  8
画層1
 62
     0
370
    20
100
AcDbMText
 10
-628.5652295960735
 20
98.20022665564692
 30
0.0
 40
2.5
 41
0.0
 71
     5
 72
     1
  1
\A1;30
 73
     1
 44
1.0
  0
POINT
  5
28CF
330
269E
100
AcDbEntity
  8
DEFPOINTS
 62
     0
370
    20
100
AcDbPoint
 10
-643.5652295960736
 20
79.95877673716893
 30
0.0
  0
POINT
  5
28D0
330
269E
100
AcDbEntity
  8
DEFPOINTS
 62
     0
370
    20
100
AcDbPoint
 10
-613.5652295960735
 20
79.95877673716893
 30
0.0
  0
POINT
  5
28D1
330
269E
100
AcDbEntity
  8
DEFPOINTS
 62
     0
370
    20
100
AcDbPoint
 10
-613.5652295960735
 20
95.95022665564693
 30
0.0
  0
ENDBLK
  5
26A9
330
269E
100
AcDbEntity
  8
0
 62
     1
370
    20
100
AcDbBlockEnd
  0
BLOCK
  5
26B5
330
26AB
100
AcDbEntity
  8
0
 62
     1
370
    20
100
AcDbBlockBegin
  2
*D18
 70
     1
 10
0.0
 20
0.0
 30
0.0
  3
*D18
  1

  0
LINE
  5
28D2
330
26AB
100
AcDbEntity
  8
画層1
 62
     0
370
    -2
100
AcDbLine
 10
-628.5652295960735
 20
38.58877673716893
 30
0.0
 11
-628.5652295960735
 21
110.9490740221813
 31
0.0
  0
LINE
  5
28D3
330
26AB
100
AcDbEntity
  8
画層1
 62
     0
370
    -2
100
AcDbLine
 10
-522.5652295960735
 20
38.58877673716893
 30
0.0
 11
-522.5652295960735
 21
110.9490740221813
 31
0.0
  0
LINE
  5
28D4
330
26AB
100
AcDbEntity
  8
画層1
 62
     0
370
    -2
100
AcDbLine
 10
-627.0652295960736
 20
109.6990740221813
 30
0.0
 11
-524.0652295960735
 21
109.6990740221813
 31
0.0
  0
INSERT
  5
28D5
330
26AB
100
AcDbEntity
  8
画層1
 62
     0
370
    -2
100
AcDbBlockReference
  2
_OPEN30
 10
-628.5652295960735
 20
109.6990740221813
 30
0.0
 41
1.5
 42
1.5
 43
1.5
 50
180.0
  0
INSERT
  5
28D6
330
26AB
100
AcDbEntity
  8
画層1
 62
     0
370
    -2
100
AcDbBlockReference
  2
_OPEN30
 10
-522.5652295960735
 20
109.6990740221813
 30
0.0
 41
1.5
 42
1.5
 43
1.5
  0
MTEXT
  5
28D7
330
26AB
100
AcDbEntity
  8
画層1
 62
     0
370
    20
100
AcDbMText
 10
-575.5652295960735
 20
111.9490740221813
 30
0.0
 40
2.5
 41
0.0
 71
     5
 72
     1
  1
\A1;106
 73
     1
 44
1.0
  0
POINT
  5
28D8
330
26AB
100
AcDbEntity
  8
DEFPOINTS
 62
     0
370
    20
100
AcDbPoint
 10
-628.5652295960735
 20
37.95877673716893
 30
0.0
  0
POINT
  5
28D9
330
26AB
100
AcDbEntity
  8
DEFPOINTS
 62
     0
370
    20
100
AcDbPoint
 10
-522.5652295960735
 20
37.95877673716893
 30
0.0
  0
POINT
  5
28DA
330
26AB
100
AcDbEntity
  8
DEFPOINTS
 62
     0
370
    20
100
AcDbPoint
 10
-522.5652295960735
 20
109.6990740221813
 30
0.0
  0
ENDBLK
  5
26B6
330
26AB
100
AcDbEntity
  8
0
 62
     1
370
    20
100
AcDbBlockEnd
  0
BLOCK
  5
26C2
330
26B8
100
AcDbEntity
  8
0
 62
     1
370
    20
100
AcDbBlockBegin
  2
*D19
 70
     1
 10
0.0
 20
0.0
 30
0.0
  3
*D19
  1

  0
LINE
  5
28DB
330
26B8
100
AcDbEntity
  8
画層1
 62
     0
370
    -2
100
AcDbLine
 10
-481.0652295960735
 20
454.588776737169
 30
0.0
 11
-481.0652295960735
 21
476.9230088560962
 31
0.0
  0
LINE
  5
28DC
330
26B8
100
AcDbEntity
  8
画層1
 62
     0
370
    -2
100
AcDbLine
 10
-490.0652295960735
 20
454.588776737169
 30
0.0
 11
-490.0652295960735
 21
476.9230088560962
 31
0.0
  0
LINE
  5
28DD
330
26B8
100
AcDbEntity
  8
画層1
 62
     0
370
    -2
100
AcDbLine
 10
-482.5652295960735
 20
475.6730088560962
 30
0.0
 11
-488.5652295960735
 21
475.6730088560962
 31
0.0
  0
LINE
  5
28DE
330
26B8
100
AcDbEntity
  8
画層1
 62
     0
370
    -2
100
AcDbLine
 10
-490.0652295960735
 20
475.6730088560962
 30
0.0
 11
-495.0118588095567
 21
475.6730088560962
 31
0.0
  0
INSERT
  5
28DF
330
26B8
100
AcDbEntity
  8
画層1
 62
     0
370
    -2
100
AcDbBlockReference
  2
_OPEN30
 10
-481.0652295960735
 20
475.6730088560962
 30
0.0
 41
1.5
 42
1.5
 43
1.5
  0
INSERT
  5
28E0
330
26B8
100
AcDbEntity
  8
画層1
 62
     0
370
    -2
100
AcDbBlockReference
  2
_OPEN30
 10
-490.0652295960735
 20
475.6730088560962
 30
0.0
 41
1.5
 42
1.5
 43
1.5
 50
180.0
  0
MTEXT
  5
28E1
330
26B8
100
AcDbEntity
  8
画層1
 62
     0
370
    20
100
AcDbMText
 10
-493.288544202815
 20
477.9230088560962
 30
0.0
 40
2.5
 41
0.0
 71
     5
 72
     1
  1
\A1;9
 73
     1
 44
1.0
  0
POINT
  5
28E2
330
26B8
100
AcDbEntity
  8
DEFPOINTS
 62
     0
370
    20
100
AcDbPoint
 10
-481.0652295960735
 20
453.9587767371689
 30
0.0
  0
POINT
  5
28E3
330
26B8
100
AcDbEntity
  8
DEFPOINTS
 62
     0
370
    20
100
AcDbPoint
 10
-490.0652295960735
 20
453.9587767371689
 30
0.0
  0
POINT
  5
28E4
330
26B8
100
AcDbEntity
  8
DEFPOINTS
 62
     0
370
    20
100
AcDbPoint
 10
-490.0652295960735
 20
475.6730088560962
 30
0.0
  0
ENDBLK
  5
26C3
330
26B8
100
AcDbEntity
  8
0
 62
     1
370
    20
100
AcDbBlockEnd
  0
BLOCK
  5
26DA
330
26D0
100
AcDbEntity
  8
0
 62
     1
370
    20
100
AcDbBlockBegin
  2
*D20
 70
     1
 10
0.0
 20
0.0
 30
0.0
  3
*D20
  1

  0
LINE
  5
28E5
330
26D0
100
AcDbEntity
  8
画層1
 62
     0
370
    -2
100
AcDbLine
 10
-661.0652295960735
 20
454.588776737169
 30
0.0
 11
-661.0652295960735
 21
476.9230088560962
 31
0.0
  0
LINE
  5
28E6
330
26D0
100
AcDbEntity
  8
画層1
 62
     0
370
    -2
100
AcDbLine
 10
-670.0652295960735
 20
454.588776737169
 30
0.0
 11
-670.0652295960735
 21
476.9230088560962
 31
0.0
  0
LINE
  5
28E7
330
26D0
100
AcDbEntity
  8
画層1
 62
     0
370
    -2
100
AcDbLine
 10
-668.5652295960736
 20
475.6730088560962
 30
0.0
 11
-662.5652295960735
 21
475.6730088560962
 31
0.0
  0
LINE
  5
28E8
330
26D0
100
AcDbEntity
  8
画層1
 62
     0
370
    -2
100
AcDbLine
 10
-661.0652295960735
 20
475.6730088560962
 30
0.0
 11
-653.3195162988113
 21
475.6730088560962
 31
0.0
  0
INSERT
  5
28E9
330
26D0
100
AcDbEntity
  8
画層1
 62
     0
370
    -2
100
AcDbBlockReference
  2
_OPEN30
 10
-670.0652295960735
 20
475.6730088560962
 30
0.0
 41
1.5
 42
1.5
 43
1.5
 50
180.0
  0
INSERT
  5
28EA
330
26D0
100
AcDbEntity
  8
画層1
 62
     0
370
    -2
100
AcDbBlockReference
  2
_OPEN30
 10
-661.0652295960735
 20
475.6730088560962
 30
0.0
 41
1.5
 42
1.5
 43
1.5
  0
MTEXT
  5
28EB
330
26D0
100
AcDbEntity
  8
画層1
 62
     0
370
    20
100
AcDbMText
 10
-655.0428309055527
 20
477.9230088560962
 30
0.0
 40
2.5
 41
0.0
 71
     5
 72
     1
  1
\A1;9
 73
     1
 44
1.0
  0
POINT
  5
28EC
330
26D0
100
AcDbEntity
  8
DEFPOINTS
 62
     0
370
    20
100
AcDbPoint
 10
-661.0652295960735
 20
453.9587767371689
 30
0.0
  0
POINT
  5
28ED
330
26D0
100
AcDbEntity
  8
DEFPOINTS
 62
     0
370
    20
100
AcDbPoint
 10
-670.0652295960735
 20
453.9587767371689
 30
0.0
  0
POINT
  5
28EE
330
26D0
100
AcDbEntity
  8
DEFPOINTS
 62
     0
370
    20
100
AcDbPoint
 10
-670.0652295960735
 20
475.6730088560962
 30
0.0
  0
ENDBLK
  5
26DB
330
26D0
100
AcDbEntity
  8
0
 62
     1
370
    20
100
AcDbBlockEnd
  0
ENDSEC
  0
SECTION
  2
ENTITIES
  0
LINE
  5
B81
330
2
100
AcDbEntity
  8
画層1
  6
CENTER
 62
     0
370
    20
100
AcDbLine
 10
-728.4482549846975
 20
243.958776737169
 30
0.0
 11
-428.2478456741054
 21
243.958776737169
 31
0.0
  0
LINE
  5
B84
330
2
100
AcDbEntity
  8
画層1
  6
CENTER
 62
     0
370
    20
100
AcDbLine
 10
-575.5652295960735
 20
501.6767889471471
 30
0.0
 11
-575.5652295960735
 21
-23.30550081343244
 31
0.0
  0
LINE
  5
BB4
330
2
100
AcDbEntity
  8
画層1
  6
CENTER
 62
     0
370
    20
100
AcDbLine
 10
-377.0904011789971
 20
243.958776737169
 30
0.0
 11
-10.09040117899712
 21
243.958776737169
 31
0.0
  0
LWPOLYLINE
  5
118D
330
2
100
AcDbEntity
  8
画層1
 62
     0
370
    20
100
AcDbPolyline
 90
        4
 70
     1
 43
0.0
 10
-696.9652295960734
 20
93.95877673716894
 10
-683.9652295960735
 20
93.95877673716894
 10
-683.9652295960735
 20
91.95877673716893
 10
-696.9652295960734
 20
91.95877673716893
  0
LWPOLYLINE
  5
118E
330
2
100
AcDbEntity
  8
画層1
 62
     0
370
    20
100
AcDbPolyline
 90
        4
 70
     1
 43
0.0
 10
-696.9652295960734
 20
103.9587767371689
 10
-683.9652295960735
 20
103.9587767371689
 10
-683.9652295960735
 20
101.9587767371689
 10
-696.9652295960734
 20
101.9587767371689
  0
LWPOLYLINE
  5
118F
330
2
100
AcDbEntity
  8
画層1
 62
     0
370
    20
100
AcDbPolyline
 90
        4
 70
     1
 43
0.0
 10
-696.9652295960734
 20
113.9587767371689
 10
-683.9652295960735
 20
113.9587767371689
 10
-683.9652295960735
 20
111.9587767371689
 10
-696.9652295960734
 20
111.9587767371689
  0
LWPOLYLINE
  5
1190
330
2
100
AcDbEntity
  8
画層1
 62
     0
370
    20
100
AcDbPolyline
 90
        4
 70
     1
 43
0.0
 10
-696.9652295960734
 20
123.9587767371689
 10
-683.9652295960735
 20
123.9587767371689
 10
-683.9652295960735
 20
121.9587767371689
 10
-696.9652295960734
 20
121.9587767371689
  0
LWPOLYLINE
  5
1191
330
2
100
AcDbEntity
  8
画層1
 62
     0
370
    20
100
AcDbPolyline
 90
        4
 70
     1
 43
0.0
 10
-696.9652295960734
 20
133.9587767371689
 10
-683.9652295960735
 20
133.9587767371689
 10
-683.9652295960735
 20
131.9587767371689
 10
-696.9652295960734
 20
131.9587767371689
  0
LWPOLYLINE
  5
1192
330
2
100
AcDbEntity
  8
画層1
 62
     0
370
    20
100
AcDbPolyline
 90
        4
 70
     1
 43
0.0
 10
-696.9652295960734
 20
143.9587767371689
 10
-683.9652295960735
 20
143.9587767371689
 10
-683.9652295960735
 20
141.9587767371689
 10
-696.9652295960734
 20
141.9587767371689
  0
LWPOLYLINE
  5
1193
330
2
100
AcDbEntity
  8
画層1
 62
     0
370
    20
100
AcDbPolyline
 90
        4
 70
     1
 43
0.0
 10
-696.9652295960734
 20
153.9587767371689
 10
-683.9652295960735
 20
153.9587767371689
 10
-683.9652295960735
 20
151.9587767371689
 10
-696.9652295960734
 20
151.9587767371689
  0
LWPOLYLINE
  5
1194
330
2
100
AcDbEntity
  8
画層1
 62
     0
370
    20
100
AcDbPolyline
 90
        4
 70
     1
 43
0.0
 10
-696.9652295960734
 20
163.9587767371689
 10
-683.9652295960735
 20
163.9587767371689
 10
-683.9652295960735
 20
161.9587767371689
 10
-696.9652295960734
 20
161.9587767371689
  0
LWPOLYLINE
  5
1195
330
2
100
AcDbEntity
  8
画層1
 62
     0
370
    20
100
AcDbPolyline
 90
        4
 70
     1
 43
0.0
 10
-696.9652295960734
 20
173.9587767371689
 10
-683.9652295960735
 20
173.9587767371689
 10
-683.9652295960735
 20
171.9587767371689
 10
-696.9652295960734
 20
171.9587767371689
  0
LINE
  5
1197
330
2
100
AcDbEntity
  8
画層1
 62
     0
370
    20
100
AcDbLine
 10
-683.9652295960735
 20
173.9587767371689
 30
0.0
 11
-683.9652295960735
 21
93.95877673716894
 31
0.0
  0
LINE
  5
1198
330
2
100
AcDbEntity
  8
画層1
 62
     0
370
    20
100
AcDbLine
 10
-696.9652295960734
 20
173.9587767371689
 30
0.0
 11
-696.9652295960734
 21
93.95877673716894
 31
0.0
  0
LINE
  5
11B1
330
2
100
AcDbEntity
  8
画層1
 62
     0
370
    20
100
AcDbLine
 10
-692.4652295960735
 20
173.9587767371689
 30
0.0
 11
-688.4652295960735
 21
173.9587767371689
 31
0.0
  0
LINE
  5
11B9
330
2
100
AcDbEntity
  8
画層1
 62
     0
370
    20
100
AcDbLine
 10
-686.4652295960735
 20
169.958776737169
 30
0.0
 11
-686.4652295960736
 21
165.9587766371689
 31
0.0
  0
LINE
  5
11BB
330
2
100
AcDbEntity
  8
画層1
 62
     0
370
    20
100
AcDbLine
 10
-694.4652295960735
 20
169.9587767371689
 30
0.0
 11
-694.4652295960734
 21
165.9587766371689
 31
0.0
  0
LINE
  5
11BD
330
2
100
AcDbEntity
  8
画層1
 62
     0
370
    20
100
AcDbLine
 10
-689.9652295960735
 20
165.9587767371689
 30
0.0
 11
-689.9652295960735
 21
167.4587767371689
 31
0.0
  0
LINE
  5
11BE
330
2
100
AcDbEntity
  8
画層1
 62
     0
370
    20
100
AcDbLine
 10
-690.9652295960735
 20
167.4587767371689
 30
0.0
 11
-690.9652295960735
 21
165.9587767371689
 31
0.0
  0
CIRCLE
  5
11BF
330
2
100
AcDbEntity
  8
画層1
 62
     0
370
    20
100
AcDbCircle
 10
-690.4652295960735
 20
167.9587767371689
 30
0.0
 40
3.0
  0
LINE
  5
11C0
330
2
100
AcDbEntity
  8
画層1
 62
     0
370
    20
100
AcDbLine
 10
-692.4652295960735
 20
163.9587767371689
 30
0.0
 11
-688.4652295960735
 21
163.9587767371689
 31
0.0
  0
ARC
  5
11C1
330
2
100
AcDbEntity
  8
画層1
 62
     0
370
    20
100
AcDbCircle
 10
-692.4652295960734
 20
165.9587767371687
 30
0.0
 40
2.0
100
AcDbArc
 50
179.9999999999951
 51
269.9999999999967
  0
ARC
  5
11C2
330
2
100
AcDbEntity
  8
画層1
 62
     0
370
    20
100
AcDbCircle
 10
-688.4652295960736
 20
165.9587767371688
 30
0.0
 40
2.0
100
AcDbArc
 50
270.0000000000032
 51
0.0000000000016284
  0
LINE
  5
11C3
330
2
100
AcDbEntity
  8
画層1
 62
     0
370
    20
100
AcDbLine
 10
-690.9652295960735
 20
165.9587767371689
 30
0.0
 11
-689.9652295960735
 21
165.9587767371689
 31
0.0
  0
LINE
  5
11C4
330
2
100
AcDbEntity
  8
画層1
 62
     0
370
    20
100
AcDbLine
 10
-692.4652295960735
 20
171.9587767371689
 30
0.0
 11
-688.4652295960735
 21
171.9587767371689
 31
0.0
  0
LINE
  5
11C5
330
2
100
AcDbEntity
  8
画層1
 62
     0
370
    20
100
AcDbLine
 10
-693.4232694876233
 20
167.4587767371689
 30
0.0
 11
-690.9652295960735
 21
167.4587767371689
 31
0.0
  0
LINE
  5
11C6
330
2
100
AcDbEntity
  8
画層1
 62
     0
370
    20
100
AcDbLine
 10
-690.9652295960735
 20
168.4587767371689
 30
0.0
 11
-693.4232694876233
 21
168.4587767371689
 31
0.0
  0
ARC
  5
11C7
330
2
100
AcDbEntity
  8
画層1
 62
     0
370
    20
100
AcDbCircle
 10
-692.4652295960736
 20
169.9587767371689
 30
0.0
 40
2.0
100
AcDbArc
 50
89.99999999999674
 51
180.0000000000016
  0
ARC
  5
11C8
330
2
100
AcDbEntity
  8
画層1
 62
     0
370
    20
100
AcDbCircle
 10
-688.4652295960734
 20
169.958776737169
 30
0.0
 40
2.0
100
AcDbArc
 50
359.9999999999967
 51
90.00000000000325
  0
LINE
  5
11C9
330
2
100
AcDbEntity
  8
画層1
 62
     0
370
    20
100
AcDbLine
 10
-689.9652295960735
 20
169.9587767371689
 30
0.0
 11
-690.9652295960735
 21
169.9587767371689
 31
0.0
  0
LINE
  5
11CA
330
2
100
AcDbEntity
  8
画層1
 62
     0
370
    20
100
AcDbLine
 10
-689.9652295960735
 20
168.4587767371689
 30
0.0
 11
-689.9652295960735
 21
169.9587767371689
 31
0.0
  0
LINE
  5
11CB
330
2
100
AcDbEntity
  8
画層1
 62
     0
370
    20
100
AcDbLine
 10
-687.5071897045237
 20
168.4587767371689
 30
0.0
 11
-689.9652295960735
 21
168.4587767371689
 31
0.0
  0
LINE
  5
11CC
330
2
100
AcDbEntity
  8
画層1
 62
     0
370
    20
100
AcDbLine
 10
-689.9652295960735
 20
167.4587767371689
 30
0.0
 11
-687.5071897045237
 21
167.4587767371689
 31
0.0
  0
LINE
  5
11CD
330
2
100
AcDbEntity
  8
画層1
 62
     0
370
    20
100
AcDbLine
 10
-690.9652295960735
 20
169.9587767371689
 30
0.0
 11
-690.9652295960735
 21
168.4587767371689
 31
0.0
  0
CIRCLE
  5
11CF
330
2
100
AcDbEntity
  8
画層1
 62
     0
370
    20
100
AcDbCircle
 10
-690.4652295960735
 20
157.9587767371689
 30
0.0
 40
3.0
  0
LINE
  5
11D0
330
2
100
AcDbEntity
  8
画層1
 62
     0
370
    20
100
AcDbLine
 10
-690.9652295960735
 20
157.4587767371689
 30
0.0
 11
-690.9652295960735
 21
155.9587767371689
 31
0.0
  0
LINE
  5
11D1
330
2
100
AcDbEntity
  8
画層1
 62
     0
370
    20
100
AcDbLine
 10
-689.9652295960735
 20
155.9587767371689
 30
0.0
 11
-689.9652295960735
 21
157.4587767371689
 31
0.0
  0
LINE
  5
11D2
330
2
100
AcDbEntity
  8
画層1
 62
     0
370
    20
100
AcDbLine
 10
-694.4652295960735
 20
159.9587767371689
 30
0.0
 11
-694.4652295960734
 21
155.9587766371689
 31
0.0
  0
LINE
  5
11D3
330
2
100
AcDbEntity
  8
画層1
 62
     0
370
    20
100
AcDbLine
 10
-686.4652295960735
 20
159.958776737169
 30
0.0
 11
-686.4652295960736
 21
155.9587766371689
 31
0.0
  0
LINE
  5
11D4
330
2
100
AcDbEntity
  8
画層1
 62
     0
370
    20
100
AcDbLine
 10
-692.4652295960735
 20
153.9587767371689
 30
0.0
 11
-688.4652295960735
 21
153.9587767371689
 31
0.0
  0
ARC
  5
11D5
330
2
100
AcDbEntity
  8
画層1
 62
     0
370
    20
100
AcDbCircle
 10
-692.4652295960734
 20
155.9587767371687
 30
0.0
 40
2.0
100
AcDbArc
 50
179.9999999999951
 51
269.9999999999967
  0
LINE
  5
11D6
330
2
100
AcDbEntity
  8
画層1
 62
     0
370
    20
100
AcDbLine
 10
-690.9652295960735
 20
155.9587767371689
 30
0.0
 11
-689.9652295960735
 21
155.9587767371689
 31
0.0
  0
ARC
  5
11D7
330
2
100
AcDbEntity
  8
画層1
 62
     0
370
    20
100
AcDbCircle
 10
-688.4652295960736
 20
155.9587767371688
 30
0.0
 40
2.0
100
AcDbArc
 50
270.0000000000032
 51
0.0000000000016284
  0
LINE
  5
11D8
330
2
100
AcDbEntity
  8
画層1
 62
     0
370
    20
100
AcDbLine
 10
-690.9652295960735
 20
158.4587767371689
 30
0.0
 11
-693.4232694876233
 21
158.4587767371689
 31
0.0
  0
LINE
  5
11D9
330
2
100
AcDbEntity
  8
画層1
 62
     0
370
    20
100
AcDbLine
 10
-693.4232694876233
 20
157.4587767371689
 30
0.0
 11
-690.9652295960735
 21
157.4587767371689
 31
0.0
  0
LINE
  5
11DA
330
2
100
AcDbEntity
  8
画層1
 62
     0
370
    20
100
AcDbLine
 10
-692.4652295960735
 20
161.9587767371689
 30
0.0
 11
-688.4652295960735
 21
161.9587767371689
 31
0.0
  0
ARC
  5
11DB
330
2
100
AcDbEntity
  8
画層1
 62
     0
370
    20
100
AcDbCircle
 10
-692.4652295960736
 20
159.9587767371689
 30
0.0
 40
2.0
100
AcDbArc
 50
89.99999999999674
 51
180.0000000000016
  0
LINE
  5
11DC
330
2
100
AcDbEntity
  8
画層1
 62
     0
370
    20
100
AcDbLine
 10
-690.9652295960735
 20
159.9587767371689
 30
0.0
 11
-690.9652295960735
 21
158.4587767371689
 31
0.0
  0
LINE
  5
11DD
330
2
100
AcDbEntity
  8
画層1
 62
     0
370
    20
100
AcDbLine
 10
-689.9652295960735
 20
157.4587767371689
 30
0.0
 11
-687.5071897045237
 21
157.4587767371689
 31
0.0
  0
LINE
  5
11DE
330
2
100
AcDbEntity
  8
画層1
 62
     0
370
    20
100
AcDbLine
 10
-687.5071897045237
 20
158.4587767371689
 30
0.0
 11
-689.9652295960735
 21
158.4587767371689
 31
0.0
  0
LINE
  5
11DF
330
2
100
AcDbEntity
  8
画層1
 62
     0
370
    20
100
AcDbLine
 10
-689.9652295960735
 20
158.4587767371689
 30
0.0
 11
-689.9652295960735
 21
159.9587767371689
 31
0.0
  0
LINE
  5
11E0
330
2
100
AcDbEntity
  8
画層1
 62
     0
370
    20
100
AcDbLine
 10
-689.9652295960735
 20
159.9587767371689
 30
0.0
 11
-690.9652295960735
 21
159.9587767371689
 31
0.0
  0
ARC
  5
11E1
330
2
100
AcDbEntity
  8
画層1
 62
     0
370
    20
100
AcDbCircle
 10
-688.4652295960734
 20
159.958776737169
 30
0.0
 40
2.0
100
AcDbArc
 50
359.9999999999967
 51
90.00000000000325
  0
LINE
  5
11E2
330
2
100
AcDbEntity
  8
画層1
 62
     0
370
    20
100
AcDbLine
 10
-686.4652295960735
 20
149.958776737169
 30
0.0
 11
-686.4652295960736
 21
145.9587766371689
 31
0.0
  0
LINE
  5
11E3
330
2
100
AcDbEntity
  8
画層1
 62
     0
370
    20
100
AcDbLine
 10
-694.4652295960735
 20
149.9587767371689
 30
0.0
 11
-694.4652295960734
 21
145.9587766371689
 31
0.0
  0
CIRCLE
  5
11E4
330
2
100
AcDbEntity
  8
画層1
 62
     0
370
    20
100
AcDbCircle
 10
-690.4652295960735
 20
147.9587767371689
 30
0.0
 40
3.0
  0
LINE
  5
11E5
330
2
100
AcDbEntity
  8
画層1
 62
     0
370
    20
100
AcDbLine
 10
-693.4232694876233
 20
147.4587767371689
 30
0.0
 11
-690.9652295960735
 21
147.4587767371689
 31
0.0
  0
LINE
  5
11E6
330
2
100
AcDbEntity
  8
画層1
 62
     0
370
    20
100
AcDbLine
 10
-692.4652295960735
 20
143.9587767371689
 30
0.0
 11
-688.4652295960735
 21
143.9587767371689
 31
0.0
  0
ARC
  5
11E7
330
2
100
AcDbEntity
  8
画層1
 62
     0
370
    20
100
AcDbCircle
 10
-692.4652295960734
 20
145.9587767371687
 30
0.0
 40
2.0
100
AcDbArc
 50
179.9999999999951
 51
269.9999999999967
  0
LINE
  5
11E8
330
2
100
AcDbEntity
  8
画層1
 62
     0
370
    20
100
AcDbLine
 10
-689.9652295960735
 20
147.4587767371689
 30
0.0
 11
-687.5071897045237
 21
147.4587767371689
 31
0.0
  0
ARC
  5
11E9
330
2
100
AcDbEntity
  8
画層1
 62
     0
370
    20
100
AcDbCircle
 10
-688.4652295960736
 20
145.9587767371688
 30
0.0
 40
2.0
100
AcDbArc
 50
270.0000000000032
 51
0.0000000000016284
  0
LINE
  5
11EA
330
2
100
AcDbEntity
  8
画層1
 62
     0
370
    20
100
AcDbLine
 10
-690.9652295960735
 20
145.9587767371689
 30
0.0
 11
-689.9652295960735
 21
145.9587767371689
 31
0.0
  0
LINE
  5
11EB
330
2
100
AcDbEntity
  8
画層1
 62
     0
370
    20
100
AcDbLine
 10
-689.9652295960735
 20
145.9587767371689
 30
0.0
 11
-689.9652295960735
 21
147.4587767371689
 31
0.0
  0
LINE
  5
11EC
330
2
100
AcDbEntity
  8
画層1
 62
     0
370
    20
100
AcDbLine
 10
-690.9652295960735
 20
147.4587767371689
 30
0.0
 11
-690.9652295960735
 21
145.9587767371689
 31
0.0
  0
LINE
  5
11ED
330
2
100
AcDbEntity
  8
画層1
 62
     0
370
    20
100
AcDbLine
 10
-692.4652295960735
 20
151.9587767371689
 30
0.0
 11
-688.4652295960735
 21
151.9587767371689
 31
0.0
  0
LINE
  5
11EE
330
2
100
AcDbEntity
  8
画層1
 62
     0
370
    20
100
AcDbLine
 10
-690.9652295960735
 20
148.4587767371689
 30
0.0
 11
-693.4232694876233
 21
148.4587767371689
 31
0.0
  0
ARC
  5
11EF
330
2
100
AcDbEntity
  8
画層1
 62
     0
370
    20
100
AcDbCircle
 10
-692.4652295960736
 20
149.9587767371689
 30
0.0
 40
2.0
100
AcDbArc
 50
89.99999999999674
 51
180.0000000000016
  0
ARC
  5
11F0
330
2
100
AcDbEntity
  8
画層1
 62
     0
370
    20
100
AcDbCircle
 10
-688.4652295960734
 20
149.958776737169
 30
0.0
 40
2.0
100
AcDbArc
 50
359.9999999999967
 51
90.00000000000325
  0
LINE
  5
11F1
330
2
100
AcDbEntity
  8
画層1
 62
     0
370
    20
100
AcDbLine
 10
-689.9652295960735
 20
149.9587767371689
 30
0.0
 11
-690.9652295960735
 21
149.9587767371689
 31
0.0
  0
LINE
  5
11F2
330
2
100
AcDbEntity
  8
画層1
 62
     0
370
    20
100
AcDbLine
 10
-689.9652295960735
 20
148.4587767371689
 30
0.0
 11
-689.9652295960735
 21
149.9587767371689
 31
0.0
  0
LINE
  5
11F3
330
2
100
AcDbEntity
  8
画層1
 62
     0
370
    20
100
AcDbLine
 10
-687.5071897045237
 20
148.4587767371689
 30
0.0
 11
-689.9652295960735
 21
148.4587767371689
 31
0.0
  0
LINE
  5
11F4
330
2
100
AcDbEntity
  8
画層1
 62
     0
370
    20
100
AcDbLine
 10
-690.9652295960735
 20
149.9587767371689
 30
0.0
 11
-690.9652295960735
 21
148.4587767371689
 31
0.0
  0
LINE
  5
11F5
330
2
100
AcDbEntity
  8
画層1
 62
     0
370
    20
100
AcDbLine
 10
-690.9652295960735
 20
139.9587767371689
 30
0.0
 11
-690.9652295960735
 21
138.4587767371689
 31
0.0
  0
LINE
  5
11F6
330
2
100
AcDbEntity
  8
画層1
 62
     0
370
    20
100
AcDbLine
 10
-689.9652295960735
 20
138.4587767371689
 30
0.0
 11
-689.9652295960735
 21
139.9587767371689
 31
0.0
  0
CIRCLE
  5
11F7
330
2
100
AcDbEntity
  8
画層1
 62
     0
370
    20
100
AcDbCircle
 10
-690.4652295960735
 20
137.9587767371689
 30
0.0
 40
3.0
  0
LINE
  5
11F8
330
2
100
AcDbEntity
  8
画層1
 62
     0
370
    20
100
AcDbLine
 10
-694.4652295960735
 20
139.9587767371689
 30
0.0
 11
-694.4652295960734
 21
135.9587766371689
 31
0.0
  0
LINE
  5
11F9
330
2
100
AcDbEntity
  8
画層1
 62
     0
370
    20
100
AcDbLine
 10
-686.4652295960735
 20
139.958776737169
 30
0.0
 11
-686.4652295960736
 21
135.9587766371689
 31
0.0
  0
LINE
  5
11FA
330
2
100
AcDbEntity
  8
画層1
 62
     0
370
    20
100
AcDbLine
 10
-690.9652295960735
 20
138.4587767371689
 30
0.0
 11
-693.4232694876233
 21
138.4587767371689
 31
0.0
  0
LINE
  5
11FB
330
2
100
AcDbEntity
  8
画層1
 62
     0
370
    20
100
AcDbLine
 10
-692.4652295960735
 20
133.9587767371689
 30
0.0
 11
-688.4652295960735
 21
133.9587767371689
 31
0.0
  0
LINE
  5
11FC
330
2
100
AcDbEntity
  8
画層1
 62
     0
370
    20
100
AcDbLine
 10
-693.4232694876233
 20
137.4587767371689
 30
0.0
 11
-690.9652295960735
 21
137.4587767371689
 31
0.0
  0
ARC
  5
11FD
330
2
100
AcDbEntity
  8
画層1
 62
     0
370
    20
100
AcDbCircle
 10
-692.4652295960734
 20
135.9587767371687
 30
0.0
 40
2.0
100
AcDbArc
 50
179.9999999999951
 51
269.9999999999967
  0
LINE
  5
11FE
330
2
100
AcDbEntity
  8
画層1
 62
     0
370
    20
100
AcDbLine
 10
-687.5071897045237
 20
138.4587767371689
 30
0.0
 11
-689.9652295960735
 21
138.4587767371689
 31
0.0
  0
LINE
  5
11FF
330
2
100
AcDbEntity
  8
画層1
 62
     0
370
    20
100
AcDbLine
 10
-690.9652295960735
 20
137.4587767371689
 30
0.0
 11
-690.9652295960735
 21
135.9587767371689
 31
0.0
  0
LINE
  5
1200
330
2
100
AcDbEntity
  8
画層1
 62
     0
370
    20
100
AcDbLine
 10
-689.9652295960735
 20
135.9587767371689
 30
0.0
 11
-689.9652295960735
 21
137.4587767371689
 31
0.0
  0
LINE
  5
1201
330
2
100
AcDbEntity
  8
画層1
 62
     0
370
    20
100
AcDbLine
 10
-690.9652295960735
 20
135.9587767371689
 30
0.0
 11
-689.9652295960735
 21
135.9587767371689
 31
0.0
  0
ARC
  5
1202
330
2
100
AcDbEntity
  8
画層1
 62
     0
370
    20
100
AcDbCircle
 10
-688.4652295960736
 20
135.9587767371688
 30
0.0
 40
2.0
100
AcDbArc
 50
270.0000000000032
 51
0.0000000000016284
  0
LINE
  5
1203
330
2
100
AcDbEntity
  8
画層1
 62
     0
370
    20
100
AcDbLine
 10
-689.9652295960735
 20
137.4587767371689
 30
0.0
 11
-687.5071897045237
 21
137.4587767371689
 31
0.0
  0
LINE
  5
1204
330
2
100
AcDbEntity
  8
画層1
 62
     0
370
    20
100
AcDbLine
 10
-692.4652295960735
 20
141.9587767371689
 30
0.0
 11
-688.4652295960735
 21
141.9587767371689
 31
0.0
  0
ARC
  5
1205
330
2
100
AcDbEntity
  8
画層1
 62
     0
370
    20
100
AcDbCircle
 10
-692.4652295960736
 20
139.9587767371689
 30
0.0
 40
2.0
100
AcDbArc
 50
89.99999999999674
 51
180.0000000000016
  0
LINE
  5
1206
330
2
100
AcDbEntity
  8
画層1
 62
     0
370
    20
100
AcDbLine
 10
-689.9652295960735
 20
139.9587767371689
 30
0.0
 11
-690.9652295960735
 21
139.9587767371689
 31
0.0
  0
ARC
  5
1207
330
2
100
AcDbEntity
  8
画層1
 62
     0
370
    20
100
AcDbCircle
 10
-688.4652295960734
 20
139.958776737169
 30
0.0
 40
2.0
100
AcDbArc
 50
359.9999999999967
 51
90.00000000000325
  0
LINE
  5
1208
330
2
100
AcDbEntity
  8
画層1
 62
     0
370
    20
100
AcDbLine
 10
-686.4652295960735
 20
129.958776737169
 30
0.0
 11
-686.4652295960736
 21
125.9587766371689
 31
0.0
  0
LINE
  5
1209
330
2
100
AcDbEntity
  8
画層1
 62
     0
370
    20
100
AcDbLine
 10
-694.4652295960735
 20
129.958776737169
 30
0.0
 11
-694.4652295960734
 21
125.9587766371689
 31
0.0
  0
CIRCLE
  5
120A
330
2
100
AcDbEntity
  8
画層1
 62
     0
370
    20
100
AcDbCircle
 10
-690.4652295960735
 20
127.9587767371689
 30
0.0
 40
3.0
  0
LINE
  5
120B
330
2
100
AcDbEntity
  8
画層1
 62
     0
370
    20
100
AcDbLine
 10
-689.9652295960735
 20
128.4587767371689
 30
0.0
 11
-689.9652295960735
 21
129.9587767371689
 31
0.0
  0
LINE
  5
120C
330
2
100
AcDbEntity
  8
画層1
 62
     0
370
    20
100
AcDbLine
 10
-690.9652295960735
 20
129.9587767371689
 30
0.0
 11
-690.9652295960735
 21
128.4587767371689
 31
0.0
  0
LINE
  5
120D
330
2
100
AcDbEntity
  8
画層1
 62
     0
370
    20
100
AcDbLine
 10
-693.4232694876233
 20
127.4587767371689
 30
0.0
 11
-690.9652295960735
 21
127.4587767371689
 31
0.0
  0
LINE
  5
120E
330
2
100
AcDbEntity
  8
画層1
 62
     0
370
    20
100
AcDbLine
 10
-692.4652295960735
 20
123.9587767371689
 30
0.0
 11
-688.4652295960735
 21
123.9587767371689
 31
0.0
  0
LINE
  5
120F
330
2
100
AcDbEntity
  8
画層1
 62
     0
370
    20
100
AcDbLine
 10
-690.9652295960735
 20
128.4587767371689
 30
0.0
 11
-693.4232694876233
 21
128.4587767371689
 31
0.0
  0
ARC
  5
1210
330
2
100
AcDbEntity
  8
画層1
 62
     0
370
    20
100
AcDbCircle
 10
-692.4652295960734
 20
125.9587767371687
 30
0.0
 40
2.0
100
AcDbArc
 50
179.9999999999951
 51
269.9999999999967
  0
LINE
  5
1211
330
2
100
AcDbEntity
  8
画層1
 62
     0
370
    20
100
AcDbLine
 10
-689.9652295960735
 20
127.4587767371689
 30
0.0
 11
-687.5071897045237
 21
127.4587767371689
 31
0.0
  0
ARC
  5
1212
330
2
100
AcDbEntity
  8
画層1
 62
     0
370
    20
100
AcDbCircle
 10
-688.4652295960736
 20
125.9587767371688
 30
0.0
 40
2.0
100
AcDbArc
 50
270.0000000000032
 51
0.0000000000016284
  0
LINE
  5
1213
330
2
100
AcDbEntity
  8
画層1
 62
     0
370
    20
100
AcDbLine
 10
-690.9652295960735
 20
125.9587767371689
 30
0.0
 11
-689.9652295960735
 21
125.9587767371689
 31
0.0
  0
LINE
  5
1214
330
2
100
AcDbEntity
  8
画層1
 62
     0
370
    20
100
AcDbLine
 10
-689.9652295960735
 20
125.9587767371689
 30
0.0
 11
-689.9652295960735
 21
127.4587767371689
 31
0.0
  0
LINE
  5
1215
330
2
100
AcDbEntity
  8
画層1
 62
     0
370
    20
100
AcDbLine
 10
-690.9652295960735
 20
127.4587767371689
 30
0.0
 11
-690.9652295960735
 21
125.9587767371689
 31
0.0
  0
LINE
  5
1216
330
2
100
AcDbEntity
  8
画層1
 62
     0
370
    20
100
AcDbLine
 10
-687.5071897045237
 20
128.4587767371689
 30
0.0
 11
-689.9652295960735
 21
128.4587767371689
 31
0.0
  0
LINE
  5
1217
330
2
100
AcDbEntity
  8
画層1
 62
     0
370
    20
100
AcDbLine
 10
-692.4652295960735
 20
131.9587767371689
 30
0.0
 11
-688.4652295960735
 21
131.9587767371689
 31
0.0
  0
ARC
  5
1218
330
2
100
AcDbEntity
  8
画層1
 62
     0
370
    20
100
AcDbCircle
 10
-692.4652295960736
 20
129.958776737169
 30
0.0
 40
2.0
100
AcDbArc
 50
89.99999999999674
 51
180.0000000000016
  0
ARC
  5
1219
330
2
100
AcDbEntity
  8
画層1
 62
     0
370
    20
100
AcDbCircle
 10
-688.4652295960734
 20
129.958776737169
 30
0.0
 40
2.0
100
AcDbArc
 50
359.9999999999967
 51
90.00000000000325
  0
LINE
  5
121A
330
2
100
AcDbEntity
  8
画層1
 62
     0
370
    20
100
AcDbLine
 10
-689.9652295960735
 20
129.9587767371689
 30
0.0
 11
-690.9652295960735
 21
129.9587767371689
 31
0.0
  0
ARC
  5
121B
330
2
100
AcDbEntity
  8
画層1
 62
     0
370
    20
100
AcDbCircle
 10
-688.4652295960734
 20
119.958776737169
 30
0.0
 40
2.0
100
AcDbArc
 50
359.9999999999967
 51
90.00000000000325
  0
ARC
  5
121C
330
2
100
AcDbEntity
  8
画層1
 62
     0
370
    20
100
AcDbCircle
 10
-692.4652295960736
 20
119.9587767371689
 30
0.0
 40
2.0
100
AcDbArc
 50
89.99999999999674
 51
180.0000000000016
  0
CIRCLE
  5
121D
330
2
100
AcDbEntity
  8
画層1
 62
     0
370
    20
100
AcDbCircle
 10
-690.4652295960735
 20
117.9587767371689
 30
0.0
 40
3.0
  0
LINE
  5
121E
330
2
100
AcDbEntity
  8
画層1
 62
     0
370
    20
100
AcDbLine
 10
-690.9652295960735
 20
118.4587767371689
 30
0.0
 11
-693.4232694876233
 21
118.4587767371689
 31
0.0
  0
LINE
  5
121F
330
2
100
AcDbEntity
  8
画層1
 62
     0
370
    20
100
AcDbLine
 10
-692.4652295960735
 20
113.9587767371689
 30
0.0
 11
-688.4652295960735
 21
113.9587767371689
 31
0.0
  0
LINE
  5
1220
330
2
100
AcDbEntity
  8
画層1
 62
     0
370
    20
100
AcDbLine
 10
-693.4232694876233
 20
117.4587767371689
 30
0.0
 11
-690.9652295960735
 21
117.4587767371689
 31
0.0
  0
ARC
  5
1221
330
2
100
AcDbEntity
  8
画層1
 62
     0
370
    20
100
AcDbCircle
 10
-692.4652295960734
 20
115.9587767371687
 30
0.0
 40
2.0
100
AcDbArc
 50
179.9999999999951
 51
269.9999999999967
  0
LINE
  5
1222
330
2
100
AcDbEntity
  8
画層1
 62
     0
370
    20
100
AcDbLine
 10
-694.4652295960735
 20
119.9587767371689
 30
0.0
 11
-694.4652295960734
 21
115.9587766371689
 31
0.0
  0
LINE
  5
1223
330
2
100
AcDbEntity
  8
画層1
 62
     0
370
    20
100
AcDbLine
 10
-689.9652295960735
 20
119.9587767371689
 30
0.0
 11
-690.9652295960735
 21
119.9587767371689
 31
0.0
  0
LINE
  5
1224
330
2
100
AcDbEntity
  8
画層1
 62
     0
370
    20
100
AcDbLine
 10
-687.5071897045237
 20
118.4587767371689
 30
0.0
 11
-689.9652295960735
 21
118.4587767371689
 31
0.0
  0
LINE
  5
1225
330
2
100
AcDbEntity
  8
画層1
 62
     0
370
    20
100
AcDbLine
 10
-690.9652295960735
 20
117.4587767371689
 30
0.0
 11
-690.9652295960735
 21
115.9587767371689
 31
0.0
  0
LINE
  5
1226
330
2
100
AcDbEntity
  8
画層1
 62
     0
370
    20
100
AcDbLine
 10
-689.9652295960735
 20
115.9587767371689
 30
0.0
 11
-689.9652295960735
 21
117.4587767371689
 31
0.0
  0
LINE
  5
1227
330
2
100
AcDbEntity
  8
画層1
 62
     0
370
    20
100
AcDbLine
 10
-690.9652295960735
 20
115.9587767371689
 30
0.0
 11
-689.9652295960735
 21
115.9587767371689
 31
0.0
  0
ARC
  5
1228
330
2
100
AcDbEntity
  8
画層1
 62
     0
370
    20
100
AcDbCircle
 10
-688.4652295960736
 20
115.9587767371688
 30
0.0
 40
2.0
100
AcDbArc
 50
270.0000000000032
 51
0.0000000000016284
  0
LINE
  5
1229
330
2
100
AcDbEntity
  8
画層1
 62
     0
370
    20
100
AcDbLine
 10
-689.9652295960735
 20
117.4587767371689
 30
0.0
 11
-687.5071897045237
 21
117.4587767371689
 31
0.0
  0
LINE
  5
122A
330
2
100
AcDbEntity
  8
画層1
 62
     0
370
    20
100
AcDbLine
 10
-690.9652295960735
 20
119.9587767371689
 30
0.0
 11
-690.9652295960735
 21
118.4587767371689
 31
0.0
  0
LINE
  5
122B
330
2
100
AcDbEntity
  8
画層1
 62
     0
370
    20
100
AcDbLine
 10
-689.9652295960735
 20
118.4587767371689
 30
0.0
 11
-689.9652295960735
 21
119.9587767371689
 31
0.0
  0
LINE
  5
122C
330
2
100
AcDbEntity
  8
画層1
 62
     0
370
    20
100
AcDbLine
 10
-686.4652295960735
 20
119.958776737169
 30
0.0
 11
-686.4652295960736
 21
115.9587766371689
 31
0.0
  0
LINE
  5
122D
330
2
100
AcDbEntity
  8
画層1
 62
     0
370
    20
100
AcDbLine
 10
-692.4652295960735
 20
121.9587767371689
 30
0.0
 11
-688.4652295960735
 21
121.9587767371689
 31
0.0
  0
ARC
  5
122E
330
2
100
AcDbEntity
  8
画層1
 62
     0
370
    20
100
AcDbCircle
 10
-692.4652295960736
 20
109.9587767371689
 30
0.0
 40
2.0
100
AcDbArc
 50
89.99999999999674
 51
180.0000000000016
  0
ARC
  5
122F
330
2
100
AcDbEntity
  8
画層1
 62
     0
370
    20
100
AcDbCircle
 10
-688.4652295960734
 20
109.958776737169
 30
0.0
 40
2.0
100
AcDbArc
 50
359.9999999999967
 51
90.00000000000325
  0
LINE
  5
1230
330
2
100
AcDbEntity
  8
画層1
 62
     0
370
    20
100
AcDbLine
 10
-693.4232694876233
 20
107.4587767371689
 30
0.0
 11
-690.9652295960735
 21
107.4587767371689
 31
0.0
  0
LINE
  5
1231
330
2
100
AcDbEntity
  8
画層1
 62
     0
370
    20
100
AcDbLine
 10
-692.4652295960735
 20
103.9587767371689
 30
0.0
 11
-688.4652295960735
 21
103.9587767371689
 31
0.0
  0
LINE
  5
1232
330
2
100
AcDbEntity
  8
画層1
 62
     0
370
    20
100
AcDbLine
 10
-690.9652295960735
 20
108.4587767371689
 30
0.0
 11
-693.4232694876233
 21
108.4587767371689
 31
0.0
  0
CIRCLE
  5
1233
330
2
100
AcDbEntity
  8
画層1
 62
     0
370
    20
100
AcDbCircle
 10
-690.4652295960735
 20
107.9587767371689
 30
0.0
 40
3.0
  0
LINE
  5
1234
330
2
100
AcDbEntity
  8
画層1
 62
     0
370
    20
100
AcDbLine
 10
-694.4652295960735
 20
109.9587767371689
 30
0.0
 11
-694.4652295960734
 21
105.9587766371689
 31
0.0
  0
ARC
  5
1235
330
2
100
AcDbEntity
  8
画層1
 62
     0
370
    20
100
AcDbCircle
 10
-692.4652295960734
 20
105.9587767371687
 30
0.0
 40
2.0
100
AcDbArc
 50
179.9999999999951
 51
269.9999999999967
  0
LINE
  5
1236
330
2
100
AcDbEntity
  8
画層1
 62
     0
370
    20
100
AcDbLine
 10
-686.4652295960735
 20
109.958776737169
 30
0.0
 11
-686.4652295960736
 21
105.9587766371689
 31
0.0
  0
LINE
  5
1237
330
2
100
AcDbEntity
  8
画層1
 62
     0
370
    20
100
AcDbLine
 10
-689.9652295960735
 20
108.4587767371689
 30
0.0
 11
-689.9652295960735
 21
109.9587767371689
 31
0.0
  0
LINE
  5
1238
330
2
100
AcDbEntity
  8
画層1
 62
     0
370
    20
100
AcDbLine
 10
-690.9652295960735
 20
109.9587767371689
 30
0.0
 11
-690.9652295960735
 21
108.4587767371689
 31
0.0
  0
LINE
  5
1239
330
2
100
AcDbEntity
  8
画層1
 62
     0
370
    20
100
AcDbLine
 10
-689.9652295960735
 20
107.4587767371689
 30
0.0
 11
-687.5071897045237
 21
107.4587767371689
 31
0.0
  0
ARC
  5
123A
330
2
100
AcDbEntity
  8
画層1
 62
     0
370
    20
100
AcDbCircle
 10
-688.4652295960736
 20
105.9587767371688
 30
0.0
 40
2.0
100
AcDbArc
 50
270.0000000000032
 51
0.0000000000016284
  0
LINE
  5
123B
330
2
100
AcDbEntity
  8
画層1
 62
     0
370
    20
100
AcDbLine
 10
-690.9652295960735
 20
105.9587767371689
 30
0.0
 11
-689.9652295960735
 21
105.9587767371689
 31
0.0
  0
LINE
  5
123C
330
2
100
AcDbEntity
  8
画層1
 62
     0
370
    20
100
AcDbLine
 10
-689.9652295960735
 20
105.9587767371689
 30
0.0
 11
-689.9652295960735
 21
107.4587767371689
 31
0.0
  0
LINE
  5
123D
330
2
100
AcDbEntity
  8
画層1
 62
     0
370
    20
100
AcDbLine
 10
-690.9652295960735
 20
107.4587767371689
 30
0.0
 11
-690.9652295960735
 21
105.9587767371689
 31
0.0
  0
LINE
  5
123E
330
2
100
AcDbEntity
  8
画層1
 62
     0
370
    20
100
AcDbLine
 10
-687.5071897045237
 20
108.4587767371689
 30
0.0
 11
-689.9652295960735
 21
108.4587767371689
 31
0.0
  0
LINE
  5
123F
330
2
100
AcDbEntity
  8
画層1
 62
     0
370
    20
100
AcDbLine
 10
-689.9652295960735
 20
109.9587767371689
 30
0.0
 11
-690.9652295960735
 21
109.9587767371689
 31
0.0
  0
LINE
  5
1240
330
2
100
AcDbEntity
  8
画層1
 62
     0
370
    20
100
AcDbLine
 10
-692.4652295960735
 20
111.9587767371689
 30
0.0
 11
-688.4652295960735
 21
111.9587767371689
 31
0.0
  0
ARC
  5
1241
330
2
100
AcDbEntity
  8
画層1
 62
     0
370
    20
100
AcDbCircle
 10
-688.4652295960734
 20
99.95877673716904
 30
0.0
 40
2.0
100
AcDbArc
 50
359.9999999999967
 51
90.00000000000325
  0
ARC
  5
1242
330
2
100
AcDbEntity
  8
画層1
 62
     0
370
    20
100
AcDbCircle
 10
-692.4652295960736
 20
99.95877673716899
 30
0.0
 40
2.0
100
AcDbArc
 50
89.99999999999674
 51
180.0000000000016
  0
LINE
  5
1243
330
2
100
AcDbEntity
  8
画層1
 62
     0
370
    20
100
AcDbLine
 10
-692.4652295960735
 20
101.9587767371689
 30
0.0
 11
-688.4652295960735
 21
101.9587767371689
 31
0.0
  0
CIRCLE
  5
1244
330
2
100
AcDbEntity
  8
画層1
 62
     0
370
    20
100
AcDbCircle
 10
-690.4652295960735
 20
97.95877673716894
 30
0.0
 40
3.0
  0
LINE
  5
1245
330
2
100
AcDbEntity
  8
画層1
 62
     0
370
    20
100
AcDbLine
 10
-690.9652295960735
 20
98.45877673716893
 30
0.0
 11
-693.4232694876233
 21
98.45877673716893
 31
0.0
  0
LINE
  5
1246
330
2
100
AcDbEntity
  8
画層1
 62
     0
370
    20
100
AcDbLine
 10
-692.4652295960735
 20
93.95877673716894
 30
0.0
 11
-688.4652295960735
 21
93.95877673716894
 31
0.0
  0
LINE
  5
1247
330
2
100
AcDbEntity
  8
画層1
 62
     0
370
    20
100
AcDbLine
 10
-693.4232694876233
 20
97.45877673716893
 30
0.0
 11
-690.9652295960735
 21
97.45877673716893
 31
0.0
  0
ARC
  5
1248
330
2
100
AcDbEntity
  8
画層1
 62
     0
370
    20
100
AcDbCircle
 10
-692.4652295960734
 20
95.95877673716875
 30
0.0
 40
2.0
100
AcDbArc
 50
179.9999999999951
 51
269.9999999999967
  0
LINE
  5
1249
330
2
100
AcDbEntity
  8
画層1
 62
     0
370
    20
100
AcDbLine
 10
-694.4652295960735
 20
99.95877673716899
 30
0.0
 11
-694.4652295960734
 21
95.9587766371689
 31
0.0
  0
LINE
  5
124A
330
2
100
AcDbEntity
  8
画層1
 62
     0
370
    20
100
AcDbLine
 10
-689.9652295960735
 20
99.95877673716893
 30
0.0
 11
-690.9652295960735
 21
99.95877673716893
 31
0.0
  0
LINE
  5
124B
330
2
100
AcDbEntity
  8
画層1
 62
     0
370
    20
100
AcDbLine
 10
-687.5071897045237
 20
98.45877673716893
 30
0.0
 11
-689.9652295960735
 21
98.45877673716893
 31
0.0
  0
LINE
  5
124C
330
2
100
AcDbEntity
  8
画層1
 62
     0
370
    20
100
AcDbLine
 10
-690.9652295960735
 20
97.45877673716893
 30
0.0
 11
-690.9652295960735
 21
95.95877673716893
 31
0.0
  0
LINE
  5
124D
330
2
100
AcDbEntity
  8
画層1
 62
     0
370
    20
100
AcDbLine
 10
-689.9652295960735
 20
95.95877673716893
 30
0.0
 11
-689.9652295960735
 21
97.45877673716893
 31
0.0
  0
LINE
  5
124E
330
2
100
AcDbEntity
  8
画層1
 62
     0
370
    20
100
AcDbLine
 10
-690.9652295960735
 20
95.95877673716893
 30
0.0
 11
-689.9652295960735
 21
95.95877673716893
 31
0.0
  0
ARC
  5
124F
330
2
100
AcDbEntity
  8
画層1
 62
     0
370
    20
100
AcDbCircle
 10
-688.4652295960736
 20
95.95877673716888
 30
0.0
 40
2.0
100
AcDbArc
 50
270.0000000000032
 51
0.0000000000016284
  0
LINE
  5
1250
330
2
100
AcDbEntity
  8
画層1
 62
     0
370
    20
100
AcDbLine
 10
-689.9652295960735
 20
97.45877673716893
 30
0.0
 11
-687.5071897045237
 21
97.45877673716893
 31
0.0
  0
LINE
  5
1251
330
2
100
AcDbEntity
  8
画層1
 62
     0
370
    20
100
AcDbLine
 10
-690.9652295960735
 20
99.95877673716893
 30
0.0
 11
-690.9652295960735
 21
98.45877673716893
 31
0.0
  0
LINE
  5
1252
330
2
100
AcDbEntity
  8
画層1
 62
     0
370
    20
100
AcDbLine
 10
-689.9652295960735
 20
98.45877673716893
 30
0.0
 11
-689.9652295960735
 21
99.95877673716893
 31
0.0
  0
LINE
  5
1253
330
2
100
AcDbEntity
  8
画層1
 62
     0
370
    20
100
AcDbLine
 10
-686.4652295960735
 20
99.95877673716904
 30
0.0
 11
-686.4652295960736
 21
95.9587766371689
 31
0.0
  0
CIRCLE
  5
1256
330
2
100
AcDbEntity
  8
画層1
 62
     0
370
    20
100
AcDbCircle
 10
-691.9652295960735
 20
185.7087767371689
 30
0.0
 40
2.75
  0
CIRCLE
  5
1258
330
2
100
AcDbEntity
  8
画層1
 62
     0
370
    20
100
AcDbCircle
 10
-691.9652295960735
 20
185.7087767371689
 30
0.0
 40
1.0
  0
LINE
  5
1259
330
2
100
AcDbEntity
  8
画層1
 62
     0
370
    20
100
AcDbLine
 10
-692.5401891706496
 20
184.8905949189871
 30
0.0
 11
-692.5401891706496
 21
184.8905949189871
 31
0.0
  0
LINE
  5
125A
330
2
100
AcDbEntity
  8
画層1
 62
     0
370
    20
100
AcDbLine
 10
-692.5401891706496
 20
184.8905949189871
 30
0.0
 11
-692.5401891706496
 21
184.8905949189871
 31
0.0
  0
LINE
  5
125B
330
2
100
AcDbEntity
  8
画層1
 62
     0
370
    20
100
AcDbLine
 10
-692.5401891706496
 20
184.8905949189871
 30
0.0
 11
-692.5401891706496
 21
184.8905949189871
 31
0.0
  0
LINE
  5
125D
330
2
100
AcDbEntity
  8
画層1
 62
     0
370
    20
100
AcDbLine
 10
-692.5401891706496
 20
184.8905949189871
 30
0.0
 11
-693.2588886388697
 21
183.8678676462598
 31
0.0
  0
LINE
  5
125E
330
2
100
AcDbEntity
  8
画層1
 62
     0
370
    20
100
AcDbLine
 10
-691.3902700214975
 20
184.8905949189871
 30
0.0
 11
-690.6715705532773
 21
183.8678676462598
 31
0.0
  0
ARC
  5
125F
330
2
100
AcDbEntity
  8
画層1
 62
     0
370
    20
100
AcDbCircle
 10
-691.9652295960735
 20
185.7087767371689
 30
0.0
 40
2.250000000000008
100
AcDbArc
 50
305.096801227586
 51
234.9031987724139
  0
LINE
  5
1262
330
2
100
AcDbEntity
  8
画層1
 62
     0
370
    20
100
AcDbLine
 10
-691.3902700214975
 20
202.8905949189871
 30
0.0
 11
-690.6715705532773
 21
201.8678676462598
 31
0.0
  0
LINE
  5
1263
330
2
100
AcDbEntity
  8
画層1
 62
     0
370
    20
100
AcDbLine
 10
-692.5401891706496
 20
202.8905949189871
 30
0.0
 11
-693.2588886388697
 21
201.8678676462598
 31
0.0
  0
ARC
  5
1264
330
2
100
AcDbEntity
  8
画層1
 62
     0
370
    20
100
AcDbCircle
 10
-691.9652295960735
 20
203.7087767371689
 30
0.0
 40
2.250000000000008
100
AcDbArc
 50
305.096801227586
 51
234.9031987724139
  0
CIRCLE
  5
1265
330
2
100
AcDbEntity
  8
画層1
 62
     0
370
    20
100
AcDbCircle
 10
-691.9652295960735
 20
203.7087767371689
 30
0.0
 40
2.75
  0
LINE
  5
1266
330
2
100
AcDbEntity
  8
画層1
 62
     0
370
    20
100
AcDbLine
 10
-692.5401891706496
 20
202.8905949189871
 30
0.0
 11
-692.5401891706496
 21
202.8905949189871
 31
0.0
  0
LINE
  5
1267
330
2
100
AcDbEntity
  8
画層1
 62
     0
370
    20
100
AcDbLine
 10
-692.5401891706496
 20
202.8905949189871
 30
0.0
 11
-692.5401891706496
 21
202.8905949189871
 31
0.0
  0
LINE
  5
1268
330
2
100
AcDbEntity
  8
画層1
 62
     0
370
    20
100
AcDbLine
 10
-692.5401891706496
 20
202.8905949189871
 30
0.0
 11
-692.5401891706496
 21
202.8905949189871
 31
0.0
  0
CIRCLE
  5
1269
330
2
100
AcDbEntity
  8
画層1
 62
     0
370
    20
100
AcDbCircle
 10
-691.9652295960735
 20
203.7087767371689
 30
0.0
 40
1.0
  0
LINE
  5
126B
330
2
100
AcDbEntity
  8
画層1
 62
     0
370
    20
100
AcDbLine
 10
-691.0013565359296
 20
185.4424147204907
 30
0.0
 11
-689.7965152107498
 21
185.1094621996429
 31
0.0
  0
LINE
  5
126C
330
2
100
AcDbEntity
  8
画層1
 62
     0
370
    20
100
AcDbLine
 10
-691.0013565359296
 20
203.4424147204907
 30
0.0
 11
-689.7965152107498
 21
203.1094621996429
 31
0.0
  0
CIRCLE
  5
1272
330
2
100
AcDbEntity
  8
画層1
 62
     0
370
    20
100
AcDbCircle
 10
-687.4652295960735
 20
213.9587767371689
 30
0.0
 40
1.5
  0
LINE
  5
1275
330
2
100
AcDbEntity
  8
画層1
 62
     0
370
    20
100
AcDbLine
 10
-696.9652295960734
 20
171.9587767371689
 30
0.0
 11
-696.9652295960734
 21
163.9587767371689
 31
0.0
  0
LINE
  5
1278
330
2
100
AcDbEntity
  8
画層1
 62
     0
370
    20
100
AcDbLine
 10
-684.9652295960735
 20
171.9587767371689
 30
0.0
 11
-684.9652295960735
 21
163.9587767371689
 31
0.0
  0
LINE
  5
1279
330
2
100
AcDbEntity
  8
画層1
 62
     0
370
    20
100
AcDbLine
 10
-695.9652295960735
 20
171.9587767371689
 30
0.0
 11
-695.9652295960735
 21
163.9587767371689
 31
0.0
  0
LINE
  5
127A
330
2
100
AcDbEntity
  8
画層1
 62
     0
370
    20
100
AcDbLine
 10
-695.9652295960735
 20
161.9587767371689
 30
0.0
 11
-695.9652295960735
 21
153.9587767371689
 31
0.0
  0
LINE
  5
127B
330
2
100
AcDbEntity
  8
画層1
 62
     0
370
    20
100
AcDbLine
 10
-684.9652295960735
 20
161.9587767371689
 30
0.0
 11
-684.9652295960735
 21
153.9587767371689
 31
0.0
  0
LINE
  5
127C
330
2
100
AcDbEntity
  8
画層1
 62
     0
370
    20
100
AcDbLine
 10
-684.9652295960735
 20
151.9587767371689
 30
0.0
 11
-684.9652295960735
 21
143.9587767371689
 31
0.0
  0
LINE
  5
127D
330
2
100
AcDbEntity
  8
画層1
 62
     0
370
    20
100
AcDbLine
 10
-695.9652295960735
 20
151.9587767371689
 30
0.0
 11
-695.9652295960735
 21
143.9587767371689
 31
0.0
  0
LINE
  5
127E
330
2
100
AcDbEntity
  8
画層1
 62
     0
370
    20
100
AcDbLine
 10
-684.9652295960735
 20
141.9587767371689
 30
0.0
 11
-684.9652295960735
 21
133.9587767371689
 31
0.0
  0
LINE
  5
127F
330
2
100
AcDbEntity
  8
画層1
 62
     0
370
    20
100
AcDbLine
 10
-695.9652295960735
 20
141.9587767371689
 30
0.0
 11
-695.9652295960735
 21
133.9587767371689
 31
0.0
  0
LINE
  5
1280
330
2
100
AcDbEntity
  8
画層1
 62
     0
370
    20
100
AcDbLine
 10
-684.9652295960735
 20
131.9587767371689
 30
0.0
 11
-684.9652295960735
 21
123.9587767371689
 31
0.0
  0
LINE
  5
1281
330
2
100
AcDbEntity
  8
画層1
 62
     0
370
    20
100
AcDbLine
 10
-695.9652295960735
 20
131.9587767371689
 30
0.0
 11
-695.9652295960735
 21
123.9587767371689
 31
0.0
  0
LINE
  5
1282
330
2
100
AcDbEntity
  8
画層1
 62
     0
370
    20
100
AcDbLine
 10
-684.9652295960735
 20
121.9587767371689
 30
0.0
 11
-684.9652295960735
 21
113.9587767371689
 31
0.0
  0
LINE
  5
1283
330
2
100
AcDbEntity
  8
画層1
 62
     0
370
    20
100
AcDbLine
 10
-695.9652295960735
 20
121.9587767371689
 30
0.0
 11
-695.9652295960735
 21
113.9587767371689
 31
0.0
  0
LINE
  5
1284
330
2
100
AcDbEntity
  8
画層1
 62
     0
370
    20
100
AcDbLine
 10
-684.9652295960735
 20
111.9587767371689
 30
0.0
 11
-684.9652295960735
 21
103.9587767371689
 31
0.0
  0
LINE
  5
1285
330
2
100
AcDbEntity
  8
画層1
 62
     0
370
    20
100
AcDbLine
 10
-695.9652295960735
 20
111.9587767371689
 30
0.0
 11
-695.9652295960735
 21
103.9587767371689
 31
0.0
  0
LINE
  5
1286
330
2
100
AcDbEntity
  8
画層1
 62
     0
370
    20
100
AcDbLine
 10
-684.9652295960735
 20
101.9587767371689
 30
0.0
 11
-684.9652295960735
 21
93.95877673716894
 31
0.0
  0
LINE
  5
1287
330
2
100
AcDbEntity
  8
画層1
 62
     0
370
    20
100
AcDbLine
 10
-695.9652295960735
 20
101.9587767371689
 30
0.0
 11
-695.9652295960735
 21
93.95877673716894
 31
0.0
  0
LINE
  5
1366
330
2
100
AcDbEntity
  8
画層1
 62
     0
370
    20
100
AcDbLine
 10
-30.09040117899707
 20
462.458776737169
 30
0.0
 11
-30.09040117899712
 21
25.45877673716904
 31
0.0
  0
TEXT
  5
1AF9
330
2
100
AcDbEntity
  8
画層1
 62
     0
370
    20
100
AcDbText
 10
-441.338120679738
 20
-27.55850279683846
 30
0.0
 40
10.0
  1
PAC30Z 200A
  7
STYLE1
100
AcDbText
  0
LINE
  5
1C39
330
2
100
AcDbEntity
  8
画層1
  6
DASHED2
 62
     0
370
    20
100
AcDbLine
 10
-435.5652295960735
 20
25.45877673716893
 30
0.0
 11
-715.5652295960735
 21
25.45877673716893
 31
0.0
  0
LINE
  5
1C6B
330
2
100
AcDbEntity
  8
画層1
  6
DASHED2
 62
     0
370
    20
100
AcDbLine
 10
-670.0652295960735
 20
453.9587767371689
 30
0.0
 11
-670.0652295960735
 21
447.8890622869148
 31
0.0
  0
ARC
  5
1C72
330
2
100
AcDbEntity
  8
画層1
  6
DASHED2
 62
     0
370
    20
100
AcDbCircle
 10
-665.5652295960735
 20
438.958776737169
 30
0.0
 40
9.999999999999985
100
AcDbArc
 50
116.743683950403
 51
63.25631604959696
  0
LINE
  5
1C73
330
2
100
AcDbEntity
  8
画層1
  6
DASHED2
 62
     0
370
    20
100
AcDbLine
 10
-661.0652295960735
 20
453.9587767371689
 30
0.0
 11
-661.0652295960735
 21
447.8890622869148
 31
0.0
  0
LINE
  5
1C74
330
2
100
AcDbEntity
  8
画層1
  6
DASHED2
 62
     0
370
    20
100
AcDbLine
 10
-670.0652295960735
 20
453.9587767371689
 30
0.0
 11
-670.0652295960735
 21
447.8890622869148
 31
0.0
  0
ARC
  5
1C76
330
2
100
AcDbEntity
  8
画層1
  6
DASHED2
 62
     0
370
    20
100
AcDbCircle
 10
-665.5652295960735
 20
453.9587767371689
 30
0.0
 40
4.5
100
AcDbArc
 50
0.0
 51
180.0
  0
ARC
  5
1C77
330
2
100
AcDbEntity
  8
画層1
  6
DASHED2
 62
     0
370
    20
100
AcDbCircle
 10
-485.5652295960735
 20
453.9587767371689
 30
0.0
 40
4.5
100
AcDbArc
 50
0.0
 51
180.0
  0
ARC
  5
1C78
330
2
100
AcDbEntity
  8
画層1
  6
DASHED2
 62
     0
370
    20
100
AcDbCircle
 10
-485.5652295960735
 20
438.958776737169
 30
0.0
 40
9.999999999999985
100
AcDbArc
 50
116.743683950403
 51
63.25631604959696
  0
LINE
  5
1C79
330
2
100
AcDbEntity
  8
画層1
  6
DASHED2
 62
     0
370
    20
100
AcDbLine
 10
-490.0652295960735
 20
453.9587767371689
 30
0.0
 11
-490.0652295960735
 21
447.8890622869148
 31
0.0
  0
LINE
  5
1C7A
330
2
100
AcDbEntity
  8
画層1
  6
DASHED2
 62
     0
370
    20
100
AcDbLine
 10
-481.0652295960735
 20
453.9587767371689
 30
0.0
 11
-481.0652295960735
 21
447.8890622869148
 31
0.0
  0
LINE
  5
1C7B
330
2
100
AcDbEntity
  8
画層1
  6
DASHED2
 62
     0
370
    20
100
AcDbLine
 10
-490.0652295960735
 20
453.9587767371689
 30
0.0
 11
-490.0652295960735
 21
447.8890622869148
 31
0.0
  0
LINE
  5
21F5
330
2
100
AcDbEntity
  8
画層1
  6
DASHED2
 62
     0
370
    20
100
AcDbLine
 10
-537.5652295960735
 20
25.45877673716893
 30
0.0
 11
-537.5652295960735
 21
79.95877673716893
 31
0.0
  0
LINE
  5
21F6
330
2
100
AcDbEntity
  8
画層1
  6
DASHED2
 62
     0
370
    20
100
AcDbLine
 10
-507.5652295960735
 20
79.95877673716893
 30
0.0
 11
-507.5652295960735
 21
25.45877673716893
 31
0.0
  0
CIRCLE
  5
21F7
330
2
100
AcDbEntity
  8
画層1
  6
DASHED2
 62
     0
370
    20
100
AcDbCircle
 10
-522.5652295960735
 20
37.95877673716893
 30
0.0
 40
4.5
  0
LINE
  5
21F8
330
2
100
AcDbEntity
  8
画層1
  6
DASHED2
 62
     0
370
    20
100
AcDbLine
 10
-537.5652295960735
 20
75.95877673716893
 30
0.0
 11
-507.5652295960735
 21
75.95877673716893
 31
0.0
  0
LINE
  5
21F9
330
2
100
AcDbEntity
  8
画層1
  6
DASHED2
 62
     0
370
    20
100
AcDbLine
 10
-537.5652295960735
 20
79.95877673716893
 30
0.0
 11
-507.5652295960735
 21
79.95877673716893
 31
0.0
  0
LINE
  5
2208
330
2
100
AcDbEntity
  8
画層1
  6
DASHED2
 62
     0
370
    20
100
AcDbLine
 10
-507.5652295960735
 20
392.9587767371689
 30
0.0
 11
-507.5652295960735
 21
462.4587767371689
 31
0.0
  0
LINE
  5
2209
330
2
100
AcDbEntity
  8
画層1
  6
DASHED2
 62
     0
370
    20
100
AcDbLine
 10
-537.5652295960735
 20
462.4587767371689
 30
0.0
 11
-537.5652295960735
 21
392.9587767371689
 31
0.0
  0
CIRCLE
  5
220A
330
2
100
AcDbEntity
  8
画層1
  6
DASHED2
 62
     0
370
    20
100
AcDbCircle
 10
-522.5652295960735
 20
449.9587767371689
 30
0.0
 40
4.5
  0
LINE
  5
220B
330
2
100
AcDbEntity
  8
画層1
  6
DASHED2
 62
     0
370
    20
100
AcDbLine
 10
-537.5652295960735
 20
392.958776737169
 30
0.0
 11
-507.5652295960735
 21
392.958776737169
 31
0.0
  0
LINE
  5
220C
330
2
100
AcDbEntity
  8
画層1
  6
DASHED2
 62
     0
370
    20
100
AcDbLine
 10
-537.5652295960735
 20
396.958776737169
 30
0.0
 11
-507.5652295960735
 21
396.958776737169
 31
0.0
  0
CIRCLE
  5
2241
330
2
100
AcDbEntity
  8
画層1
  6
DASHED2
 62
     0
370
    20
100
AcDbCircle
 10
-485.5652295960735
 20
33.95877673716899
 30
0.0
 40
4.5
  0
CIRCLE
  5
2242
330
2
100
AcDbEntity
  8
画層1
  6
DASHED2
 62
     0
370
    20
100
AcDbCircle
 10
-665.5652295960735
 20
33.95877673716899
 30
0.0
 40
4.5
  0
CIRCLE
  5
2246
330
2
100
AcDbEntity
  8
画層1
 62
     0
370
    20
100
AcDbCircle
 10
-441.5652295960735
 20
448.9587767371689
 30
0.0
 40
4.0
  0
CIRCLE
  5
2247
330
2
100
AcDbEntity
  8
画層1
 62
     0
370
    20
100
AcDbCircle
 10
-709.5652295960735
 20
448.9587767371689
 30
0.0
 40
4.0
  0
CIRCLE
  5
224B
330
2
100
AcDbEntity
  8
画層1
 62
     0
370
    20
100
AcDbCircle
 10
-709.5652295960735
 20
38.95877673716899
 30
0.0
 40
4.0
  0
CIRCLE
  5
224C
330
2
100
AcDbEntity
  8
画層1
 62
     0
370
    20
100
AcDbCircle
 10
-441.5652295960735
 20
38.95877673716899
 30
0.0
 40
4.0
  0
LINE
  5
2250
330
2
100
AcDbEntity
  8
画層1
 62
     0
370
    20
100
AcDbLine
 10
-435.5652295960735
 20
462.4587767371689
 30
0.0
 11
-435.5652295960735
 21
25.45877673716893
 31
0.0
  0
LINE
  5
2251
330
2
100
AcDbEntity
  8
画層1
 62
     0
370
    20
100
AcDbLine
 10
-715.5652295960735
 20
462.4587767371689
 30
0.0
 11
-715.5652295960735
 21
224.9587767371689
 31
0.0
  0
LINE
  5
2252
330
2
100
AcDbEntity
  8
画層1
  6
DASHED2
 62
     0
370
    20
100
AcDbLine
 10
-449.5652295960735
 20
462.4587767371689
 30
0.0
 11
-449.5652295960735
 21
25.45877673716893
 31
0.0
  0
LINE
  5
2253
330
2
100
AcDbEntity
  8
画層1
  6
DASHED2
 62
     0
370
    20
100
AcDbLine
 10
-701.5652295960735
 20
462.4587767371689
 30
0.0
 11
-701.5652295960735
 21
223.9587767371689
 31
0.0
  0
LINE
  5
2256
330
2
100
AcDbEntity
  8
画層1
  6
DASHED2
 62
     0
370
    20
100
AcDbLine
 10
-715.5652295960735
 20
224.9587767371689
 30
0.0
 11
-701.5652295960735
 21
224.9587767371689
 31
0.0
  0
LINE
  5
2257
330
2
100
AcDbEntity
  8
画層1
  6
DASHED2
 62
     0
370
    20
100
AcDbLine
 10
-715.5652295960735
 20
82.95877673716891
 30
0.0
 11
-701.5652295960735
 21
82.95877673716891
 31
0.0
  0
LINE
  5
2258
330
2
100
AcDbEntity
  8
画層1
 62
     0
370
    20
100
AcDbLine
 10
-715.5652295960735
 20
82.95877673716891
 30
0.0
 11
-715.5652295960735
 21
25.45877673716893
 31
0.0
  0
LINE
  5
2259
330
2
100
AcDbEntity
  8
画層1
  6
DASHED2
 62
     0
370
    20
100
AcDbLine
 10
-703.5652295960735
 20
462.4587767371689
 30
0.0
 11
-703.5652295960735
 21
223.9587767371689
 31
0.0
  0
LINE
  5
225A
330
2
100
AcDbEntity
  8
画層1
  6
DASHED2
 62
     0
370
    20
100
AcDbLine
 10
-447.5652295960735
 20
462.4587767371689
 30
0.0
 11
-447.5652295960735
 21
25.45877673716893
 31
0.0
  0
CIRCLE
  5
228F
330
2
100
AcDbEntity
  8
画層1
  6
DASHED2
 62
     0
370
    20
100
AcDbCircle
 10
-170.0904011789971
 20
188.9587767371689
 30
0.0
 40
6.0
  0
CIRCLE
  5
2290
330
2
100
AcDbEntity
  8
画層1
  6
DASHED2
 62
     0
370
    20
100
AcDbCircle
 10
-170.0904011789971
 20
78.95877673716899
 30
0.0
 40
6.0
  0
CIRCLE
  5
2291
330
2
100
AcDbEntity
  8
画層1
  6
DASHED2
 62
     0
370
    20
100
AcDbCircle
 10
-170.0904011789971
 20
298.9587767371689
 30
0.0
 40
6.0
  0
CIRCLE
  5
2292
330
2
100
AcDbEntity
  8
画層1
  6
DASHED2
 62
     0
370
    20
100
AcDbCircle
 10
-170.0904011789971
 20
408.9587767371689
 30
0.0
 40
6.0
  0
LINE
  5
229A
330
2
100
AcDbEntity
  8
画層1
  6
DASHED2
 62
     0
370
    20
100
AcDbLine
 10
-180.0904011789971
 20
428.9587767371689
 30
0.0
 11
-162.0904011789971
 21
428.9587767371689
 31
0.0
  0
LINE
  5
229B
330
2
100
AcDbEntity
  8
画層1
  6
DASHED2
 62
     0
370
    20
100
AcDbLine
 10
-162.0904011789971
 20
428.9587767371689
 30
0.0
 11
-162.0904011789971
 21
58.95877673716899
 31
0.0
  0
LINE
  5
229C
330
2
100
AcDbEntity
  8
画層1
  6
DASHED2
 62
     0
370
    20
100
AcDbLine
 10
-162.0904011789971
 20
58.95877673716899
 30
0.0
 11
-180.0904011789971
 21
58.95877673716899
 31
0.0
  0
LINE
  5
229D
330
2
100
AcDbEntity
  8
画層1
  6
DASHED2
 62
     0
370
    20
100
AcDbLine
 10
-180.0904011789971
 20
54.95877673716899
 30
0.0
 11
-180.0904011789971
 21
432.9587767371689
 31
0.0
  0
LINE
  5
22AF
330
2
100
AcDbEntity
  8
画層1
  6
DASHED2
 62
     0
370
    20
100
AcDbLine
 10
-180.0904011789971
 20
432.9587767371689
 30
0.0
 11
-190.0904011789971
 21
432.9587767371689
 31
0.0
  0
LINE
  5
22B0
330
2
100
AcDbEntity
  8
画層1
  6
DASHED2
 62
     0
370
    20
100
AcDbLine
 10
-190.0904011789971
 20
432.9587767371689
 30
0.0
 11
-190.0904011789971
 21
54.95877673716893
 31
0.0
  0
LINE
  5
22B1
330
2
100
AcDbEntity
  8
画層1
  6
DASHED2
 62
     0
370
    20
100
AcDbLine
 10
-190.0904011789971
 20
54.95877673716893
 30
0.0
 11
-180.0904011789971
 21
54.95877673716899
 31
0.0
  0
LINE
  5
22F7
330
2
100
AcDbEntity
  8
画層1
 62
     0
370
    20
100
AcDbLine
 10
-537.5652295960735
 20
25.45877673716893
 30
0.0
 11
-537.5652295960735
 21
23.95877673716893
 31
0.0
  0
LINE
  5
22F8
330
2
100
AcDbEntity
  8
画層1
 62
     0
370
    20
100
AcDbLine
 10
-537.5652295960735
 20
23.95877673716893
 30
0.0
 11
-507.5652295960735
 21
23.95877673716893
 31
0.0
  0
LINE
  5
22F9
330
2
100
AcDbEntity
  8
画層1
 62
     0
370
    20
100
AcDbLine
 10
-507.5652295960735
 20
23.95877673716893
 30
0.0
 11
-507.5652295960735
 21
25.45877673716893
 31
0.0
  0
LINE
  5
22FA
330
2
100
AcDbEntity
  8
画層1
  6
DASHED2
 62
     0
370
    20
100
AcDbLine
 10
-643.5652295960736
 20
25.45877673716893
 30
0.0
 11
-643.5652295960736
 21
79.95877673716893
 31
0.0
  0
LINE
  5
22FB
330
2
100
AcDbEntity
  8
画層1
  6
DASHED2
 62
     0
370
    20
100
AcDbLine
 10
-613.5652295960735
 20
79.95877673716893
 30
0.0
 11
-613.5652295960735
 21
25.45877673716893
 31
0.0
  0
LINE
  5
22FC
330
2
100
AcDbEntity
  8
画層1
 62
     0
370
    20
100
AcDbLine
 10
-643.5652295960736
 20
23.95877673716893
 30
0.0
 11
-613.5652295960735
 21
23.95877673716893
 31
0.0
  0
LINE
  5
22FD
330
2
100
AcDbEntity
  8
画層1
 62
     0
370
    20
100
AcDbLine
 10
-643.5652295960736
 20
25.45877673716893
 30
0.0
 11
-643.5652295960736
 21
23.95877673716893
 31
0.0
  0
LINE
  5
22FE
330
2
100
AcDbEntity
  8
画層1
 62
     0
370
    20
100
AcDbLine
 10
-613.5652295960735
 20
23.95877673716893
 30
0.0
 11
-613.5652295960735
 21
25.45877673716893
 31
0.0
  0
CIRCLE
  5
22FF
330
2
100
AcDbEntity
  8
画層1
  6
DASHED2
 62
     0
370
    20
100
AcDbCircle
 10
-628.5652295960735
 20
37.95877673716893
 30
0.0
 40
4.5
  0
LINE
  5
2300
330
2
100
AcDbEntity
  8
画層1
  6
DASHED2
 62
     0
370
    20
100
AcDbLine
 10
-643.5652295960736
 20
75.95877673716893
 30
0.0
 11
-613.5652295960735
 21
75.95877673716893
 31
0.0
  0
LINE
  5
2301
330
2
100
AcDbEntity
  8
画層1
  6
DASHED2
 62
     0
370
    20
100
AcDbLine
 10
-643.5652295960736
 20
79.95877673716893
 30
0.0
 11
-613.5652295960735
 21
79.95877673716893
 31
0.0
  0
LINE
  5
2304
330
2
100
AcDbEntity
  8
画層1
 62
     0
370
    20
100
AcDbLine
 10
-537.5652295960735
 20
463.958776737169
 30
0.0
 11
-507.5652295960735
 21
463.958776737169
 31
0.0
  0
LINE
  5
2306
330
2
100
AcDbEntity
  8
画層1
  6
DASHED2
 62
     0
370
    20
100
AcDbLine
 10
-643.5652295960736
 20
462.4587767371689
 30
0.0
 11
-643.5652295960736
 21
392.9587767371689
 31
0.0
  0
LINE
  5
2307
330
2
100
AcDbEntity
  8
画層1
  6
DASHED2
 62
     0
370
    20
100
AcDbLine
 10
-613.5652295960735
 20
392.9587767371689
 30
0.0
 11
-613.5652295960735
 21
462.4587767371689
 31
0.0
  0
CIRCLE
  5
2308
330
2
100
AcDbEntity
  8
画層1
  6
DASHED2
 62
     0
370
    20
100
AcDbCircle
 10
-628.5652295960735
 20
449.9587767371689
 30
0.0
 40
4.5
  0
LINE
  5
2309
330
2
100
AcDbEntity
  8
画層1
  6
DASHED2
 62
     0
370
    20
100
AcDbLine
 10
-643.5652295960736
 20
396.958776737169
 30
0.0
 11
-613.5652295960735
 21
396.958776737169
 31
0.0
  0
LINE
  5
230A
330
2
100
AcDbEntity
  8
画層1
  6
DASHED2
 62
     0
370
    20
100
AcDbLine
 10
-643.5652295960736
 20
392.958776737169
 30
0.0
 11
-613.5652295960735
 21
392.958776737169
 31
0.0
  0
LINE
  5
230B
330
2
100
AcDbEntity
  8
画層1
 62
     0
370
    20
100
AcDbLine
 10
-643.5652295960736
 20
463.958776737169
 30
0.0
 11
-613.5652295960735
 21
463.958776737169
 31
0.0
  0
LINE
  5
230F
330
2
100
AcDbEntity
  8
画層1
  6
DASHED2
 62
     0
370
    20
100
AcDbLine
 10
-715.5652295960735
 20
462.4587767371689
 30
0.0
 11
-435.5652295960735
 21
462.4587767371689
 31
0.0
  0
LINE
  5
2310
330
2
100
AcDbEntity
  8
画層1
 62
     0
370
    20
100
AcDbLine
 10
-537.5652295960735
 20
462.4587767371689
 30
0.0
 11
-537.5652295960735
 21
463.958776737169
 31
0.0
  0
LINE
  5
2311
330
2
100
AcDbEntity
  8
画層1
 62
     0
370
    20
100
AcDbLine
 10
-507.5652295960735
 20
463.958776737169
 30
0.0
 11
-507.5652295960735
 21
462.4587767371689
 31
0.0
  0
LINE
  5
2312
330
2
100
AcDbEntity
  8
画層1
 62
     0
370
    20
100
AcDbLine
 10
-643.5652295960736
 20
463.958776737169
 30
0.0
 11
-643.5652295960736
 21
462.4587767371689
 31
0.0
  0
LINE
  5
2313
330
2
100
AcDbEntity
  8
画層1
 62
     0
370
    20
100
AcDbLine
 10
-613.5652295960735
 20
463.958776737169
 30
0.0
 11
-613.5652295960735
 21
462.4587767371689
 31
0.0
  0
LINE
  5
231B
330
2
100
AcDbEntity
  8
画層1
  6
DASHED2
 62
     0
370
    20
100
AcDbLine
 10
-190.0904011789971
 20
395.958776737169
 30
0.0
 11
-190.0904011789971
 21
463.958776737169
 31
0.0
  0
LINE
  5
231C
330
2
100
AcDbEntity
  8
画層1
  6
DASHED2
 62
     0
370
    20
100
AcDbLine
 10
-190.0904011789971
 20
463.958776737169
 30
0.0
 11
-194.0904011789971
 21
463.958776737169
 31
0.0
  0
LINE
  5
231D
330
2
100
AcDbEntity
  8
画層1
  6
DASHED2
 62
     0
370
    20
100
AcDbLine
 10
-194.0904011789971
 20
463.958776737169
 30
0.0
 11
-194.0904011789971
 21
399.958776737169
 31
0.0
  0
LINE
  5
231F
330
2
100
AcDbEntity
  8
画層1
  6
DASHED2
 62
     0
370
    20
100
AcDbLine
 10
-193.0904011789971
 20
392.9587767371689
 30
0.0
 11
-255.0904011789971
 21
392.9587767371689
 31
0.0
  0
LINE
  5
2320
330
2
100
AcDbEntity
  8
画層1
  6
DASHED2
 62
     0
370
    20
100
AcDbLine
 10
-255.0904011789971
 20
392.9587767371689
 30
0.0
 11
-255.0904011789971
 21
396.958776737169
 31
0.0
  0
LINE
  5
2321
330
2
100
AcDbEntity
  8
画層1
  6
DASHED2
 62
     0
370
    20
100
AcDbLine
 10
-255.0904011789971
 20
396.958776737169
 30
0.0
 11
-197.0904011789971
 21
396.958776737169
 31
0.0
  0
ARC
  5
2322
330
2
100
AcDbEntity
  8
画層1
  6
DASHED2
 62
     0
370
    20
100
AcDbCircle
 10
-197.0904011789971
 20
399.958776737169
 30
0.0
 40
3.0
100
AcDbArc
 50
270.0
 51
0.0
  0
ARC
  5
2324
330
2
100
AcDbEntity
  8
画層1
  6
DASHED2
 62
     0
370
    20
100
AcDbCircle
 10
-193.0904011789971
 20
395.958776737169
 30
0.0
 40
3.0
100
AcDbArc
 50
270.0
 51
0.0
  0
LINE
  5
232B
330
2
100
AcDbEntity
  8
画層1
  6
DASHED2
 62
     0
370
    20
100
AcDbLine
 10
-193.0904011789971
 20
79.95877673716893
 30
0.0
 11
-255.0904011789971
 21
79.95877673716893
 31
0.0
  0
LINE
  5
232C
330
2
100
AcDbEntity
  8
画層1
  6
DASHED2
 62
     0
370
    20
100
AcDbLine
 10
-255.0904011789971
 20
79.95877673716893
 30
0.0
 11
-255.0904011789971
 21
75.95877673716893
 31
0.0
  0
LINE
  5
232D
330
2
100
AcDbEntity
  8
画層1
  6
DASHED2
 62
     0
370
    20
100
AcDbLine
 10
-255.0904011789971
 20
75.95877673716893
 30
0.0
 11
-197.090401178997
 21
75.95877673716893
 31
0.0
  0
LINE
  5
232E
330
2
100
AcDbEntity
  8
画層1
  6
DASHED2
 62
     0
370
    20
100
AcDbLine
 10
-194.0904011789971
 20
72.95877673716893
 30
0.0
 11
-194.0904011789971
 21
23.95877673716893
 31
0.0
  0
LINE
  5
232F
330
2
100
AcDbEntity
  8
画層1
  6
DASHED2
 62
     0
370
    20
100
AcDbLine
 10
-194.0904011789971
 20
23.95877673716893
 30
0.0
 11
-190.0904011789971
 21
23.95877673716893
 31
0.0
  0
LINE
  5
2330
330
2
100
AcDbEntity
  8
画層1
  6
DASHED2
 62
     0
370
    20
100
AcDbLine
 10
-190.0904011789971
 20
23.95877673716893
 30
0.0
 11
-190.0904011789971
 21
76.95877673716893
 31
0.0
  0
ARC
  5
2331
330
2
100
AcDbEntity
  8
画層1
  6
DASHED2
 62
     0
370
    20
100
AcDbCircle
 10
-197.090401178997
 20
72.95877673716893
 30
0.0
 40
3.0
100
AcDbArc
 50
0.0
 51
90.0
  0
ARC
  5
2332
330
2
100
AcDbEntity
  8
画層1
  6
DASHED2
 62
     0
370
    20
100
AcDbCircle
 10
-193.0904011789971
 20
76.95877673716893
 30
0.0
 40
3.0
100
AcDbArc
 50
0.0
 51
90.0
  0
LINE
  5
2334
330
2
100
AcDbEntity
  8
画層1
  6
DASHED2
 62
     0
370
    20
100
AcDbLine
 10
-235.5904011789971
 20
79.95877673716893
 30
0.0
 11
-235.5904011789971
 21
75.95877673716893
 31
0.0
  0
LINE
  5
2335
330
2
100
AcDbEntity
  8
画層1
  6
DASHED2
 62
     0
370
    20
100
AcDbLine
 10
-235.5904011789971
 20
396.958776737169
 30
0.0
 11
-235.5904011789971
 21
392.9587767371689
 31
0.0
  0
LINE
  5
2365
330
2
100
AcDbEntity
  8
画層1
  6
DASHED2
 62
     0
370
    20
100
AcDbLine
 10
-162.0904011789971
 20
109.9587767371689
 30
0.0
 11
-32.09040117899712
 21
109.9587767371689
 31
0.0
  0
LINE
  5
2366
330
2
100
AcDbEntity
  8
画層1
  6
DASHED2
 62
     0
370
    20
100
AcDbLine
 10
-32.09040117899712
 20
109.9587767371689
 30
0.0
 11
-32.09040117899712
 21
229.958776737169
 31
0.0
  0
LINE
  5
2367
330
2
100
AcDbEntity
  8
画層1
  6
DASHED2
 62
     0
370
    20
100
AcDbLine
 10
-32.09040117899712
 20
229.958776737169
 30
0.0
 11
-162.0904011789971
 21
229.958776737169
 31
0.0
  0
LINE
  5
236B
330
2
100
AcDbEntity
  8
画層1
  6
DASHED2
 62
     0
370
    20
100
AcDbLine
 10
-162.0904011789971
 20
241.958776737169
 30
0.0
 11
-32.09040117899712
 21
241.958776737169
 31
0.0
  0
LINE
  5
236C
330
2
100
AcDbEntity
  8
画層1
  6
DASHED2
 62
     0
370
    20
100
AcDbLine
 10
-32.09040117899712
 20
241.958776737169
 30
0.0
 11
-32.09040117899712
 21
361.9587767371689
 31
0.0
  0
LINE
  5
236D
330
2
100
AcDbEntity
  8
画層1
  6
DASHED2
 62
     0
370
    20
100
AcDbLine
 10
-32.09040117899712
 20
361.9587767371689
 30
0.0
 11
-162.0904011789971
 21
361.9587767371689
 31
0.0
  0
LINE
  5
23D6
330
2
100
AcDbEntity
  8
画層1
 62
     0
370
    20
100
AcDbLine
 10
-715.5652295960735
 20
25.45877673716893
 30
0.0
 11
-715.5652295960735
 21
23.95877673716893
 31
0.0
  0
LINE
  5
23D7
330
2
100
AcDbEntity
  8
画層1
 62
     0
370
    20
100
AcDbLine
 10
-715.5652295960735
 20
23.95877673716893
 30
0.0
 11
-435.5652295960735
 21
23.95877673716893
 31
0.0
  0
LINE
  5
23D8
330
2
100
AcDbEntity
  8
画層1
 62
     0
370
    20
100
AcDbLine
 10
-435.5652295960735
 20
23.95877673716893
 30
0.0
 11
-435.5652295960735
 21
25.45877673716893
 31
0.0
  0
LINE
  5
23D9
330
2
100
AcDbEntity
  8
画層1
 62
     0
370
    20
100
AcDbLine
 10
-435.5652295960735
 20
462.4587767371689
 30
0.0
 11
-435.5652295960735
 21
463.958776737169
 31
0.0
  0
LINE
  5
23DA
330
2
100
AcDbEntity
  8
画層1
 62
     0
370
    20
100
AcDbLine
 10
-435.5652295960735
 20
463.958776737169
 30
0.0
 11
-715.5652295960735
 21
463.958776737169
 31
0.0
  0
LINE
  5
23DB
330
2
100
AcDbEntity
  8
画層1
 62
     0
370
    20
100
AcDbLine
 10
-715.5652295960735
 20
463.958776737169
 30
0.0
 11
-715.5652295960735
 21
462.4587767371689
 31
0.0
  0
ARC
  5
240C
330
2
100
AcDbEntity
  8
画層1
  6
DASHED2
 62
     0
370
    20
100
AcDbCircle
 10
-441.5652295960735
 20
448.9587767371689
 30
0.0
 40
2.500000000000056
100
AcDbArc
 50
90.0
 51
270.0
  0
LINE
  5
240D
330
2
100
AcDbEntity
  8
画層1
 62
     0
370
    20
100
AcDbLine
 10
-438.4427305968744
 20
451.458776737169
 30
0.0
 11
-435.5652295960735
 21
451.458776737169
 31
0.0
  0
LINE
  5
240E
330
2
100
AcDbEntity
  8
画層1
 62
     0
370
    20
100
AcDbLine
 10
-438.4427305968743
 20
446.4587767371689
 30
0.0
 11
-435.5652295960735
 21
446.4587767371689
 31
0.0
  0
LINE
  5
240F
330
2
100
AcDbEntity
  8
画層1
  6
DASHED2
 62
     0
370
    20
100
AcDbLine
 10
-441.5652295960735
 20
451.458776737169
 30
0.0
 11
-438.4427305968744
 21
451.458776737169
 31
0.0
  0
LINE
  5
2410
330
2
100
AcDbEntity
  8
画層1
  6
DASHED2
 62
     0
370
    20
100
AcDbLine
 10
-441.5652295960735
 20
446.4587767371688
 30
0.0
 11
-438.4427305968743
 21
446.4587767371689
 31
0.0
  0
LINE
  5
2415
330
2
100
AcDbEntity
  8
画層1
 62
     0
370
    20
100
AcDbLine
 10
-435.5652295960735
 20
41.45877673716893
 30
0.0
 11
-438.4427305968743
 21
41.45877673716893
 31
0.0
  0
LINE
  5
2416
330
2
100
AcDbEntity
  8
画層1
 62
     0
370
    20
100
AcDbLine
 10
-435.5652295960735
 20
36.45877673716893
 30
0.0
 11
-438.4427305968744
 21
36.45877673716893
 31
0.0
  0
LINE
  5
2417
330
2
100
AcDbEntity
  8
画層1
  6
DASHED2
 62
     0
370
    20
100
AcDbLine
 10
-438.4427305968744
 20
36.45877673716893
 30
0.0
 11
-441.5652295960735
 21
36.45877673716893
 31
0.0
  0
LINE
  5
2418
330
2
100
AcDbEntity
  8
画層1
  6
DASHED2
 62
     0
370
    20
100
AcDbLine
 10
-438.4427305968743
 20
41.45877673716893
 30
0.0
 11
-441.5652295960735
 21
41.45877673716893
 31
0.0
  0
ARC
  5
2419
330
2
100
AcDbEntity
  8
画層1
  6
DASHED2
 62
     0
370
    20
100
AcDbCircle
 10
-441.5652295960735
 20
38.95877673716893
 30
0.0
 40
2.5
100
AcDbArc
 50
90.0
 51
270.0
  0
CIRCLE
  5
241C
330
2
100
AcDbEntity
  8
画層1
 62
     0
370
    20
100
AcDbCircle
 10
-522.5652295960735
 20
383.9587767371689
 30
0.0
 40
30.0
  0
CIRCLE
  5
241D
330
2
100
AcDbEntity
  8
画層1
 62
     0
370
    20
100
AcDbCircle
 10
-628.5652295960735
 20
383.9587767371689
 30
0.0
 40
30.0
  0
LINE
  5
241E
330
2
100
AcDbEntity
  8
画層1
 62
     0
370
    20
100
AcDbLine
 10
-703.5652295960735
 20
83.95877673716894
 30
0.0
 11
-703.5652295960735
 21
223.9587767371689
 31
0.0
  0
LINE
  5
241F
330
2
100
AcDbEntity
  8
画層1
  6
DASHED2
 62
     0
370
    20
100
AcDbLine
 10
-703.5652295960735
 20
83.95877673716894
 30
0.0
 11
-703.5652295960735
 21
25.45877673716893
 31
0.0
  0
LINE
  5
2421
330
2
100
AcDbEntity
  8
画層1
 62
     0
370
    20
100
AcDbLine
 10
-701.5652295960735
 20
83.95877673716894
 30
0.0
 11
-701.5652295960735
 21
223.9587767371689
 31
0.0
  0
LINE
  5
2422
330
2
100
AcDbEntity
  8
画層1
  6
DASHED2
 62
     0
370
    20
100
AcDbLine
 10
-701.5652295960735
 20
83.95877673716894
 30
0.0
 11
-701.5652295960735
 21
25.45877673716893
 31
0.0
  0
LINE
  5
2424
330
2
100
AcDbEntity
  8
画層1
  6
DASHED2
 62
     0
370
    20
100
AcDbLine
 10
-435.5652295960735
 20
24.95877673716893
 30
0.0
 11
-715.5652295960735
 21
24.95877673716893
 31
0.0
  0
LINE
  5
2426
330
2
100
AcDbEntity
  8
画層1
  6
DASHED2
 62
     0
370
    20
100
AcDbLine
 10
-715.5652295960735
 20
462.9587767371689
 30
0.0
 11
-435.5652295960735
 21
462.9587767371689
 31
0.0
  0
LINE
  5
242B
330
2
100
AcDbEntity
  8
画層1
 62
     0
370
    20
100
AcDbLine
 10
-715.5652295960735
 20
82.95877673716891
 30
0.0
 11
-715.5652295960735
 21
83.95877673716894
 31
0.0
  0
LINE
  5
242C
330
2
100
AcDbEntity
  8
画層1
 62
     0
370
    20
100
AcDbLine
 10
-715.5652295960735
 20
83.95877673716894
 30
0.0
 11
-672.5652295960735
 21
83.95877673716894
 31
0.0
  0
LINE
  5
242D
330
2
100
AcDbEntity
  8
画層1
 62
     0
370
    20
100
AcDbLine
 10
-674.5652295960735
 20
85.95877673716893
 30
0.0
 11
-674.5652295960735
 21
221.9587767371689
 31
0.0
  0
LINE
  5
242E
330
2
100
AcDbEntity
  8
画層1
 62
     0
370
    20
100
AcDbLine
 10
-672.5652295960735
 20
223.9587767371689
 30
0.0
 11
-715.5652295960735
 21
223.9587767371689
 31
0.0
  0
LINE
  5
242F
330
2
100
AcDbEntity
  8
画層1
 62
     0
370
    20
100
AcDbLine
 10
-715.5652295960735
 20
223.9587767371689
 30
0.0
 11
-715.5652295960735
 21
224.9587767371689
 31
0.0
  0
LINE
  5
2432
330
2
100
AcDbEntity
  8
画層1
 62
     0
370
    20
100
AcDbLine
 10
-674.5652295960735
 20
85.95877673716893
 30
0.0
 11
-672.5652295960735
 21
85.95877673716893
 31
0.0
  0
LINE
  5
2433
330
2
100
AcDbEntity
  8
画層1
 62
     0
370
    20
100
AcDbLine
 10
-672.5652295960735
 20
85.95877673716893
 30
0.0
 11
-672.5652295960735
 21
83.95877673716894
 31
0.0
  0
LINE
  5
2435
330
2
100
AcDbEntity
  8
画層1
 62
     0
370
    20
100
AcDbLine
 10
-674.5652295960735
 20
221.9587767371689
 30
0.0
 11
-672.5652295960735
 21
221.9587767371689
 31
0.0
  0
LINE
  5
2436
330
2
100
AcDbEntity
  8
画層1
 62
     0
370
    20
100
AcDbLine
 10
-672.5652295960735
 20
221.9587767371689
 30
0.0
 11
-672.5652295960735
 21
223.9587767371689
 31
0.0
  0
CIRCLE
  5
2437
330
2
100
AcDbEntity
  8
画層1
 62
     0
370
    20
100
AcDbCircle
 10
-441.5652295960735
 20
243.9587767371689
 30
0.0
 40
4.0
  0
ARC
  5
2438
330
2
100
AcDbEntity
  8
画層1
  6
DASHED2
 62
     0
370
    20
100
AcDbCircle
 10
-441.5652295960735
 20
243.9587767371689
 30
0.0
 40
2.500000000000056
100
AcDbArc
 50
90.0
 51
270.0
  0
LINE
  5
2439
330
2
100
AcDbEntity
  8
画層1
  6
DASHED2
 62
     0
370
    20
100
AcDbLine
 10
-441.5652295960735
 20
241.4587767371688
 30
0.0
 11
-438.4427305968743
 21
241.458776737169
 31
0.0
  0
LINE
  5
243A
330
2
100
AcDbEntity
  8
画層1
 62
     0
370
    20
100
AcDbLine
 10
-438.4427305968743
 20
241.458776737169
 30
0.0
 11
-435.5652295960735
 21
241.458776737169
 31
0.0
  0
LINE
  5
243B
330
2
100
AcDbEntity
  8
画層1
  6
DASHED2
 62
     0
370
    20
100
AcDbLine
 10
-441.5652295960735
 20
246.458776737169
 30
0.0
 11
-438.4427305968744
 21
246.458776737169
 31
0.0
  0
LINE
  5
243C
330
2
100
AcDbEntity
  8
画層1
 62
     0
370
    20
100
AcDbLine
 10
-438.4427305968744
 20
246.458776737169
 30
0.0
 11
-435.5652295960735
 21
246.458776737169
 31
0.0
  0
LINE
  5
2440
330
2
100
AcDbEntity
  8
画層1
  6
DASHED2
 62
     0
370
    20
100
AcDbLine
 10
-695.5652295960735
 20
23.95877673716893
 30
0.0
 11
-695.5652295960735
 21
36.95877673716893
 31
0.0
  0
LINE
  5
2441
330
2
100
AcDbEntity
  8
画層1
  6
DASHED2
 62
     0
370
    20
100
AcDbLine
 10
-695.5652295960735
 20
36.95877673716893
 30
0.0
 11
-455.5652295960735
 21
36.95877673716893
 31
0.0
  0
LINE
  5
2442
330
2
100
AcDbEntity
  8
画層1
  6
DASHED2
 62
     0
370
    20
100
AcDbLine
 10
-455.5652295960735
 20
36.95877673716893
 30
0.0
 11
-455.5652295960735
 21
23.95877673716893
 31
0.0
  0
LINE
  5
2443
330
2
100
AcDbEntity
  8
画層1
  6
DASHED2
 62
     0
370
    20
100
AcDbLine
 10
-695.5652295960735
 20
450.958776737169
 30
0.0
 11
-455.5652295960735
 21
450.958776737169
 31
0.0
  0
LINE
  5
2444
330
2
100
AcDbEntity
  8
画層1
  6
DASHED2
 62
     0
370
    20
100
AcDbLine
 10
-455.5652295960735
 20
450.958776737169
 30
0.0
 11
-455.5652295960735
 21
463.958776737169
 31
0.0
  0
LINE
  5
2445
330
2
100
AcDbEntity
  8
画層1
  6
DASHED2
 62
     0
370
    20
100
AcDbLine
 10
-695.5652295960735
 20
463.958776737169
 30
0.0
 11
-695.5652295960735
 21
450.958776737169
 31
0.0
  0
LINE
  5
244C
330
2
100
AcDbEntity
  8
画層1
 62
     0
370
    20
100
AcDbLine
 10
-30.09040117899707
 20
462.458776737169
 30
0.0
 11
-337.0904011789971
 21
462.458776737169
 31
0.0
  0
LINE
  5
244D
330
2
100
AcDbEntity
  8
画層1
 62
     0
370
    20
100
AcDbLine
 10
-337.0904011789971
 20
462.458776737169
 30
0.0
 11
-337.0904011789971
 21
25.45877673716904
 31
0.0
  0
LINE
  5
244E
330
2
100
AcDbEntity
  8
画層1
 62
     0
370
    20
100
AcDbLine
 10
-337.0904011789971
 20
25.45877673716904
 30
0.0
 11
-30.09040117899712
 21
25.45877673716904
 31
0.0
  0
LINE
  5
244F
330
2
100
AcDbEntity
  8
画層1
 62
     0
370
    20
100
AcDbLine
 10
-335.0904011789971
 20
462.458776737169
 30
0.0
 11
-335.0904011789971
 21
25.45877673716904
 31
0.0
  0
LINE
  5
2455
330
2
100
AcDbEntity
  8
画層1
 62
     0
370
    20
100
AcDbLine
 10
-340.090401178997
 20
463.958776737169
 30
0.0
 11
-340.090401178997
 21
23.95877673716899
 31
0.0
  0
LINE
  5
2456
330
2
100
AcDbEntity
  8
画層1
 62
     0
370
    20
100
AcDbLine
 10
-340.090401178997
 20
23.95877673716899
 30
0.0
 11
-314.090401178997
 21
23.95877673716893
 31
0.0
  0
LINE
  5
245B
330
2
100
AcDbEntity
  8
画層1
  6
DASHED2
 62
     0
370
    20
100
AcDbLine
 10
-314.090401178997
 20
25.45877673716904
 30
0.0
 11
-314.090401178997
 21
36.95877673716893
 31
0.0
  0
LINE
  5
245C
330
2
100
AcDbEntity
  8
画層1
 62
     0
370
    20
100
AcDbLine
 10
-339.090401178997
 20
24.95877673716893
 30
0.0
 11
-315.090401178997
 21
24.95877673716893
 31
0.0
  0
LINE
  5
245D
330
2
100
AcDbEntity
  8
画層1
  6
DASHED2
 62
     0
370
    20
100
AcDbLine
 10
-315.090401178997
 20
25.45877673716904
 30
0.0
 11
-315.090401178997
 21
36.95877673716893
 31
0.0
  0
LINE
  5
245E
330
2
100
AcDbEntity
  8
画層1
  6
DASHED2
 62
     0
370
    20
100
AcDbLine
 10
-315.090401178997
 20
36.95877673716893
 30
0.0
 11
-314.090401178997
 21
36.95877673716893
 31
0.0
  0
LINE
  5
245F
330
2
100
AcDbEntity
  8
画層1
 62
     0
370
    20
100
AcDbLine
 10
-339.090401178997
 20
462.9587767371689
 30
0.0
 11
-339.090401178997
 21
24.95877673716893
 31
0.0
  0
LINE
  5
2464
330
2
100
AcDbEntity
  8
画層1
  6
DASHED2
 62
     0
370
    20
100
AcDbLine
 10
-315.090401178997
 20
450.958776737169
 30
0.0
 11
-314.090401178997
 21
450.958776737169
 31
0.0
  0
LINE
  5
2465
330
2
100
AcDbEntity
  8
画層1
 62
     0
370
    20
100
AcDbLine
 10
-314.090401178997
 20
462.458776737169
 30
0.0
 11
-314.090401178997
 21
463.958776737169
 31
0.0
  0
LINE
  5
2466
330
2
100
AcDbEntity
  8
画層1
 62
     0
370
    20
100
AcDbLine
 10
-314.090401178997
 20
463.958776737169
 30
0.0
 11
-340.090401178997
 21
463.958776737169
 31
0.0
  0
LINE
  5
2467
330
2
100
AcDbEntity
  8
画層1
 62
     0
370
    20
100
AcDbLine
 10
-339.090401178997
 20
462.9587767371689
 30
0.0
 11
-315.090401178997
 21
462.9587767371689
 31
0.0
  0
LINE
  5
2468
330
2
100
AcDbEntity
  8
画層1
 62
     0
370
    20
100
AcDbLine
 10
-315.090401178997
 20
462.9587767371689
 30
0.0
 11
-315.090401178997
 21
462.458776737169
 31
0.0
  0
LINE
  5
2469
330
2
100
AcDbEntity
  8
画層1
  6
DASHED2
 62
     0
370
    20
100
AcDbLine
 10
-315.090401178997
 20
462.458776737169
 30
0.0
 11
-315.090401178997
 21
450.958776737169
 31
0.0
  0
LINE
  5
246A
330
2
100
AcDbEntity
  8
画層1
  6
DASHED2
 62
     0
370
    20
100
AcDbLine
 10
-314.090401178997
 20
462.458776737169
 30
0.0
 11
-314.090401178997
 21
450.958776737169
 31
0.0
  0
LINE
  5
246B
330
2
100
AcDbEntity
  8
画層1
 62
     0
370
    20
100
AcDbLine
 10
-315.090401178997
 20
25.45877673716904
 30
0.0
 11
-315.090401178997
 21
24.95877673716893
 31
0.0
  0
LINE
  5
246C
330
2
100
AcDbEntity
  8
画層1
 62
     0
370
    20
100
AcDbLine
 10
-314.090401178997
 20
25.45877673716904
 30
0.0
 11
-314.090401178997
 21
23.95877673716893
 31
0.0
  0
LINE
  5
2475
330
2
100
AcDbEntity
  8
画層1
  6
DASHED2
 62
     0
370
    20
100
AcDbLine
 10
-675.5652295960733
 20
67.95877673716894
 30
0.0
 11
-675.5652295960735
 21
23.95877673716893
 31
0.0
  0
LINE
  5
2476
330
2
100
AcDbEntity
  8
画層1
 62
     0
370
    20
100
AcDbLine
 10
-670.5652295960736
 20
-7.041223262831053
 30
0.0
 11
-480.5652295960735
 21
-7.041223262831053
 31
0.0
  0
LINE
  5
2477
330
2
100
AcDbEntity
  8
画層1
  6
DASHED2
 62
     0
370
    20
100
AcDbLine
 10
-475.5652295960735
 20
23.95877673716893
 30
0.0
 11
-475.5652295960735
 21
67.95877673716893
 31
0.0
  0
LINE
  5
2478
330
2
100
AcDbEntity
  8
画層1
  6
DASHED2
 62
     0
370
    20
100
AcDbLine
 10
-480.5652295960735
 20
72.95877673716893
 30
0.0
 11
-488.0652295960735
 21
72.95877673716893
 31
0.0
  0
LINE
  5
2479
330
2
100
AcDbEntity
  8
画層1
  6
DASHED2
 62
     0
370
    20
100
AcDbLine
 10
-493.0652295960735
 20
72.95877673716893
 30
0.0
 11
-658.0652295960735
 21
72.95877673716893
 31
0.0
  0
LINE
  5
247A
330
2
100
AcDbEntity
  8
画層1
  6
DASHED2
 62
     0
370
    20
100
AcDbLine
 10
-663.0652295960735
 20
72.95877673716893
 30
0.0
 11
-670.5652295960732
 21
72.95877673716893
 31
0.0
  0
ARC
  5
247D
330
2
100
AcDbEntity
  8
画層1
 62
     0
370
    20
100
AcDbCircle
 10
-670.5652295960736
 20
-2.041223262831053
 30
0.0
 40
5.0
100
AcDbArc
 50
179.9999999999998
 51
270.0
  0
ARC
  5
247E
330
2
100
AcDbEntity
  8
画層1
  6
DASHED2
 62
     0
370
    20
100
AcDbCircle
 10
-670.5652295960732
 20
67.95877673716893
 30
0.0
 40
5.0
100
AcDbArc
 50
90.0
 51
179.9999999999998
  0
ARC
  5
247F
330
2
100
AcDbEntity
  8
画層1
 62
     0
370
    20
100
AcDbCircle
 10
-480.5652295960735
 20
-2.041223262831053
 30
0.0
 40
5.0
100
AcDbArc
 50
270.0
 51
0.0
  0
ARC
  5
2480
330
2
100
AcDbEntity
  8
画層1
  6
DASHED2
 62
     0
370
    20
100
AcDbCircle
 10
-480.5652295960735
 20
67.95877673716893
 30
0.0
 40
5.0
100
AcDbArc
 50
0.0
 51
90.0
  0
ARC
  5
2485
330
2
100
AcDbEntity
  8
画層1
  6
DASHED2
 62
     0
370
    20
100
AcDbCircle
 10
-660.5652295960735
 20
64.95877673716893
 30
0.0
 40
2.5
100
AcDbArc
 50
180.0
 51
0.0
  0
LINE
  5
2487
330
2
100
AcDbEntity
  8
画層1
  6
DASHED2
 62
     0
370
    20
100
AcDbLine
 10
-663.0652295960735
 20
64.95877673716893
 30
0.0
 11
-663.0652295960735
 21
72.95877673716893
 31
0.0
  0
LINE
  5
2488
330
2
100
AcDbEntity
  8
画層1
  6
DASHED2
 62
     0
370
    20
100
AcDbLine
 10
-658.0652295960735
 20
64.95877673716893
 30
0.0
 11
-658.0652295960735
 21
72.95877673716893
 31
0.0
  0
LINE
  5
248B
330
2
100
AcDbEntity
  8
画層1
  6
DASHED2
 62
     0
370
    20
100
AcDbLine
 10
-488.0652295960735
 20
64.95877673716893
 30
0.0
 11
-488.0652295960735
 21
72.95877673716893
 31
0.0
  0
LINE
  5
248C
330
2
100
AcDbEntity
  8
画層1
  6
DASHED2
 62
     0
370
    20
100
AcDbLine
 10
-493.0652295960735
 20
64.95877673716893
 30
0.0
 11
-493.0652295960735
 21
72.95877673716893
 31
0.0
  0
ARC
  5
248D
330
2
100
AcDbEntity
  8
画層1
  6
DASHED2
 62
     0
370
    20
100
AcDbCircle
 10
-490.5652295960735
 20
64.95877673716893
 30
0.0
 40
2.5
100
AcDbArc
 50
180.0
 51
0.0
  0
LINE
  5
248E
330
2
100
AcDbEntity
  8
画層1
 62
     0
370
    20
100
AcDbLine
 10
-675.5652295960735
 20
23.95877673716893
 30
0.0
 11
-675.5652295960736
 21
-2.041223262831037
 31
0.0
  0
LINE
  5
248F
330
2
100
AcDbEntity
  8
画層1
 62
     0
370
    20
100
AcDbLine
 10
-475.5652295960735
 20
23.95877673716893
 30
0.0
 11
-475.5652295960735
 21
-2.041223262831053
 31
0.0
  0
LINE
  5
24F0
330
2
100
AcDbEntity
  8
画層1
 62
     0
370
    20
100
AcDbLine
 10
-670.5652295960736
 20
494.958776737169
 30
0.0
 11
-480.5652295960735
 21
494.958776737169
 31
0.0
  0
LINE
  5
24F1
330
2
100
AcDbEntity
  8
画層1
 62
     0
370
    20
100
AcDbLine
 10
-475.5652295960735
 20
463.958776737169
 30
0.0
 11
-475.5652295960735
 21
489.958776737169
 31
0.0
  0
ARC
  5
24F2
330
2
100
AcDbEntity
  8
画層1
 62
     0
370
    20
100
AcDbCircle
 10
-480.5652295960735
 20
489.958776737169
 30
0.0
 40
5.0
100
AcDbArc
 50
0.0
 51
90.00000000000003
  0
LINE
  5
24F3
330
2
100
AcDbEntity
  8
画層1
 62
     0
370
    20
100
AcDbLine
 10
-675.5652295960735
 20
463.958776737169
 30
0.0
 11
-675.5652295960736
 21
489.958776737169
 31
0.0
  0
ARC
  5
24F4
330
2
100
AcDbEntity
  8
画層1
 62
     0
370
    20
100
AcDbCircle
 10
-670.5652295960736
 20
489.958776737169
 30
0.0
 40
5.0
100
AcDbArc
 50
90.00000000000003
 51
180.0000000000001
  0
LINE
  5
24F5
330
2
100
AcDbEntity
  8
画層1
  6
DASHED2
 62
     0
370
    20
100
AcDbLine
 10
-493.0652295960735
 20
414.958776737169
 30
0.0
 11
-658.0652295960735
 21
414.958776737169
 31
0.0
  0
LINE
  5
24F6
330
2
100
AcDbEntity
  8
画層1
  6
DASHED2
 62
     0
370
    20
100
AcDbLine
 10
-658.0652295960735
 20
422.958776737169
 30
0.0
 11
-658.0652295960735
 21
414.958776737169
 31
0.0
  0
LINE
  5
24F7
330
2
100
AcDbEntity
  8
画層1
  6
DASHED2
 62
     0
370
    20
100
AcDbLine
 10
-663.0652295960735
 20
422.958776737169
 30
0.0
 11
-663.0652295960735
 21
414.958776737169
 31
0.0
  0
ARC
  5
24F8
330
2
100
AcDbEntity
  8
画層1
  6
DASHED2
 62
     0
370
    20
100
AcDbCircle
 10
-670.5652295960732
 20
419.958776737169
 30
0.0
 40
5.0
100
AcDbArc
 50
180.0000000000001
 51
270.0
  0
LINE
  5
24F9
330
2
100
AcDbEntity
  8
画層1
  6
DASHED2
 62
     0
370
    20
100
AcDbLine
 10
-675.5652295960733
 20
419.958776737169
 30
0.0
 11
-675.5652295960735
 21
463.958776737169
 31
0.0
  0
ARC
  5
24FA
330
2
100
AcDbEntity
  8
画層1
  6
DASHED2
 62
     0
370
    20
100
AcDbCircle
 10
-660.5652295960735
 20
422.958776737169
 30
0.0
 40
2.5
100
AcDbArc
 50
0.0
 51
180.0
  0
LINE
  5
24FB
330
2
100
AcDbEntity
  8
画層1
  6
DASHED2
 62
     0
370
    20
100
AcDbLine
 10
-663.0652295960735
 20
414.958776737169
 30
0.0
 11
-670.5652295960732
 21
414.958776737169
 31
0.0
  0
LINE
  5
24FC
330
2
100
AcDbEntity
  8
画層1
  6
DASHED2
 62
     0
370
    20
100
AcDbLine
 10
-493.0652295960735
 20
422.958776737169
 30
0.0
 11
-493.0652295960735
 21
414.958776737169
 31
0.0
  0
LINE
  5
24FD
330
2
100
AcDbEntity
  8
画層1
  6
DASHED2
 62
     0
370
    20
100
AcDbLine
 10
-488.0652295960735
 20
422.958776737169
 30
0.0
 11
-488.0652295960735
 21
414.958776737169
 31
0.0
  0
ARC
  5
24FE
330
2
100
AcDbEntity
  8
画層1
  6
DASHED2
 62
     0
370
    20
100
AcDbCircle
 10
-480.5652295960735
 20
419.958776737169
 30
0.0
 40
5.0
100
AcDbArc
 50
270.0
 51
0.0
  0
LINE
  5
24FF
330
2
100
AcDbEntity
  8
画層1
  6
DASHED2
 62
     0
370
    20
100
AcDbLine
 10
-475.5652295960735
 20
463.958776737169
 30
0.0
 11
-475.5652295960735
 21
419.958776737169
 31
0.0
  0
ARC
  5
2500
330
2
100
AcDbEntity
  8
画層1
  6
DASHED2
 62
     0
370
    20
100
AcDbCircle
 10
-490.5652295960735
 20
422.958776737169
 30
0.0
 40
2.5
100
AcDbArc
 50
0.0
 51
180.0
  0
LINE
  5
2501
330
2
100
AcDbEntity
  8
画層1
  6
DASHED2
 62
     0
370
    20
100
AcDbLine
 10
-480.5652295960735
 20
414.958776737169
 30
0.0
 11
-488.0652295960735
 21
414.958776737169
 31
0.0
  0
LWPOLYLINE
  5
2507
330
2
100
AcDbEntity
  8
画層1
 62
     0
370
    20
100
AcDbPolyline
 90
        4
 70
     1
 43
0.0
 10
-214.0904011789971
 20
494.958776737169
 10
-217.0904011789971
 20
494.958776737169
 10
-217.0904011789971
 20
414.958776737169
 10
-214.0904011789971
 20
414.958776737169
  0
LWPOLYLINE
  5
2508
330
2
100
AcDbEntity
  8
画層1
 62
     0
370
    20
100
AcDbPolyline
 90
        4
 70
     1
 43
0.0
 10
-214.0904011789971
 20
-7.041223262831067
 10
-217.0904011789971
 20
-7.041223262831067
 10
-217.0904011789971
 20
72.95877673716893
 10
-214.0904011789971
 20
72.95877673716893
  0
DIMENSION
  5
2509
330
2
100
AcDbEntity
  8
画層1
 62
     0
370
    20
100
AcDbDimension
  2
*D3
 10
-340.090401178997
 20
507.9614103357714
 30
0.0
 11
-185.090401178997
 21
510.2114103357714
 31
0.0
 70
    32
 71
     5
 42
310.0
  3
STANDARD_WS
100
AcDbAlignedDimension
 13
-30.09040117899707
 23
462.458776737169
 33
0.0
 14
-340.090401178997
 24
463.958776737169
 34
0.0
100
AcDbRotatedDimension
1001
ACAD
1000
DSTYLE
1002
{
1070
    47
1040
0.6
1070
   140
1040
50.0
1070
   146
1040
0.5
1070
   147
1040
1.0
1070
   173
1070
     0
1070
   271
1070
     0
1070
   272
1070
     0
1070
   284
1070
     8
1070
   341
1005
28
1070
   342
1005
28
1070
   343
1005
0
1070
   344
1005
0
1002
}
  0
DIMENSION
  5
2516
330
2
100
AcDbEntity
  8
画層1
 62
     0
370
    20
100
AcDbDimension
  2
*D4
 10
-190.0904011789971
 20
-0.2036524688226109
 30
0.0
 11
-110.0904011789971
 21
2.046347531177389
 31
0.0
 70
    32
 71
     5
 42
160.0
  3
STANDARD_WS
100
AcDbAlignedDimension
 13
-30.09040117899712
 23
25.45877673716904
 33
0.0
 14
-190.0904011789971
 24
23.95877673716893
 34
0.0
100
AcDbRotatedDimension
1001
ACAD
1000
DSTYLE
1002
{
1070
    47
1040
0.6
1070
   140
1040
50.0
1070
   146
1040
0.5
1070
   147
1040
1.0
1070
   173
1070
     0
1070
   271
1070
     0
1070
   272
1070
     0
1070
   284
1070
     8
1070
   341
1005
28
1070
   342
1005
28
1070
   343
1005
0
1070
   344
1005
0
1002
}
  0
DIMENSION
  5
2523
330
2
100
AcDbEntity
  8
画層1
 62
     0
370
    20
100
AcDbDimension
  2
*D5
 10
-190.0904011789971
 20
-0.2036524688226109
 30
0.0
 11
-198.8628730891094
 21
-0.2036524688226109
 31
0.0
 70
   160
 71
     5
 42
4.0
  3
STANDARD_WS
100
AcDbAlignedDimension
 13
-194.0904011789971
 23
25.45877673716904
 33
0.0
 14
-190.0904011789971
 24
-0.2036524688226109
 34
0.0
100
AcDbRotatedDimension
1001
ACAD
1000
DSTYLE
1002
{
1070
    47
1040
0.6
1070
   140
1040
50.0
1070
   146
1040
0.5
1070
   147
1040
1.0
1070
   173
1070
     0
1070
   271
1070
     0
1070
   272
1070
     0
1070
   284
1070
     8
1070
   341
1005
28
1070
   342
1005
28
1070
   343
1005
0
1070
   344
1005
0
1002
}
  0
DIMENSION
  5
256B
330
2
100
AcDbEntity
  8
画層1
 62
     0
370
    20
100
AcDbDimension
  2
*D7
 10
-401.7637925718763
 20
463.958776737169
 30
0.0
 11
-404.0137925718765
 21
243.9587767371688
 31
0.0
 70
    32
 71
     5
 42
440.0
  3
STANDARD_WS
100
AcDbAlignedDimension
 13
-435.5652295960735
 23
23.95877673716893
 33
0.0
 14
-435.5652295960735
 24
463.958776737169
 34
0.0
 50
90.0
100
AcDbRotatedDimension
1001
ACAD
1000
DSTYLE
1002
{
1070
    47
1040
0.6
1070
   140
1040
50.0
1070
   146
1040
0.5
1070
   147
1040
1.0
1070
   173
1070
     0
1070
   271
1070
     0
1070
   272
1070
     0
1070
   284
1070
     8
1070
   341
1005
28
1070
   342
1005
28
1070
   343
1005
0
1070
   344
1005
0
1002
}
  0
DIMENSION
  5
25B1
330
2
100
AcDbEntity
  8
画層1
 62
     0
370
    20
100
AcDbDimension
  2
*D8
 10
-425.342373176195
 20
453.9587767371689
 30
0.0
 11
-427.5923731761951
 21
243.9587767371689
 31
0.0
 70
    32
 71
     5
 42
420.0
  3
STANDARD_WS
100
AcDbAlignedDimension
 13
-485.5652295960735
 23
33.95877673716899
 33
0.0
 14
-485.5652295960735
 24
453.9587767371689
 34
0.0
 50
90.0
100
AcDbRotatedDimension
1001
ACAD
1000
DSTYLE
1002
{
1070
    47
1040
0.6
1070
   140
1040
50.0
1070
   146
1040
0.5
1070
   147
1040
1.0
1070
   173
1070
     0
1070
   271
1070
     0
1070
   272
1070
     0
1070
   284
1070
     8
1070
   341
1005
28
1070
   342
1005
28
1070
   343
1005
0
1070
   344
1005
0
1002
}
  0
DIMENSION
  5
25C7
330
2
100
AcDbEntity
  8
画層1
 62
     0
370
    20
100
AcDbDimension
  2
*D9
 10
-425.342373176195
 20
463.958776737169
 30
0.0
 11
-427.5923731761951
 21
458.9587767371688
 31
0.0
 70
    32
 71
     5
 42
10.0
  3
STANDARD_WS
100
AcDbAlignedDimension
 13
-425.342373176195
 23
453.9587767371689
 33
0.0
 14
-435.5652295960735
 24
463.958776737169
 34
0.0
 50
90.0
100
AcDbRotatedDimension
1001
ACAD
1000
DSTYLE
1002
{
1070
    47
1040
0.6
1070
   140
1040
50.0
1070
   146
1040
0.5
1070
   147
1040
1.0
1070
   173
1070
     0
1070
   271
1070
     0
1070
   272
1070
     0
1070
   284
1070
     8
1070
   341
1005
28
1070
   342
1005
28
1070
   343
1005
0
1070
   344
1005
0
1002
}
  0
DIMENSION
  5
25DD
330
2
100
AcDbEntity
  8
画層1
 62
     0
370
    20
100
AcDbDimension
  2
*D10
 10
-425.3423731761951
 20
23.95877673716893
 30
0.0
 11
-427.5923731761951
 21
28.95877673716888
 31
0.0
 70
    32
 71
     5
 42
10.00000000000003
  3
STANDARD_WS
100
AcDbAlignedDimension
 13
-425.3423731761951
 23
33.95877673716896
 33
0.0
 14
-435.5652295960735
 24
23.95877673716893
 34
0.0
 50
90.0
100
AcDbRotatedDimension
1001
ACAD
1000
DSTYLE
1002
{
1070
    47
1040
0.6
1070
   140
1040
50.0
1070
   146
1040
0.5
1070
   147
1040
1.0
1070
   173
1070
     0
1070
   271
1070
     0
1070
   272
1070
     0
1070
   284
1070
     8
1070
   341
1005
28
1070
   342
1005
28
1070
   343
1005
0
1070
   344
1005
0
1002
}
  0
DIMENSION
  5
25F3
330
2
100
AcDbEntity
  8
画層1
 62
     0
370
    20
100
AcDbDimension
  2
*D11
 10
-485.5652295960735
 20
506.0905630466113
 30
0.0
 11
-460.5652295960735
 21
508.3405630466113
 31
0.0
 70
    32
 71
     5
 42
50.0
  3
STANDARD_WS
100
AcDbAlignedDimension
 13
-435.5652295960735
 23
463.958776737169
 33
0.0
 14
-485.5652295960735
 24
453.9587767371689
 34
0.0
100
AcDbRotatedDimension
1001
ACAD
1000
DSTYLE
1002
{
1070
    47
1040
0.6
1070
   140
1040
50.0
1070
   146
1040
0.5
1070
   147
1040
1.0
1070
   173
1070
     0
1070
   271
1070
     0
1070
   272
1070
     0
1070
   284
1070
     8
1070
   341
1005
28
1070
   342
1005
28
1070
   343
1005
0
1070
   344
1005
0
1002
}
  0
DIMENSION
  5
2600
330
2
100
AcDbEntity
  8
画層1
 62
     0
370
    20
100
AcDbDimension
  2
*D12
 10
-665.5652295960735
 20
506.0905630466113
 30
0.0
 11
-690.5652295960735
 21
508.3405630466113
 31
0.0
 70
    32
 71
     5
 42
50.0
  3
STANDARD_WS
100
AcDbAlignedDimension
 13
-715.5652295960735
 23
463.958776737169
 33
0.0
 14
-665.5652295960735
 24
453.9587767371689
 34
0.0
100
AcDbRotatedDimension
1001
ACAD
1000
DSTYLE
1002
{
1070
    47
1040
0.6
1070
   140
1040
50.0
1070
   146
1040
0.5
1070
   147
1040
1.0
1070
   173
1070
     0
1070
   271
1070
     0
1070
   272
1070
     0
1070
   284
1070
     8
1070
   341
1005
28
1070
   342
1005
28
1070
   343
1005
0
1070
   344
1005
0
1002
}
  0
DIMENSION
  5
263B
330
2
100
AcDbEntity
  8
画層1
 62
     0
370
    20
100
AcDbDimension
  2
*D15
 10
-435.5652295960735
 20
523.4305152032407
 30
0.0
 11
-575.5652295960735
 21
525.6805152032407
 31
0.0
 70
    32
 71
     5
 42
280.0
  3
STANDARD_WS
100
AcDbAlignedDimension
 13
-715.5652295960735
 23
504.5517781590863
 33
0.0
 14
-435.5652295960735
 24
507.3405630466113
 34
0.0
100
AcDbRotatedDimension
1001
ACAD
1000
DSTYLE
1002
{
1070
    47
1040
0.6
1070
   140
1040
50.0
1070
   146
1040
0.5
1070
   147
1040
1.0
1070
   173
1070
     0
1070
   271
1070
     0
1070
   272
1070
     0
1070
   284
1070
     8
1070
   341
1005
28
1070
   342
1005
28
1070
   343
1005
0
1070
   344
1005
0
1002
}
  0
DIMENSION
  5
266C
330
2
100
AcDbEntity
  8
画層1
 62
     0
370
    20
100
AcDbDimension
  2
*D16
 10
-485.5652295960735
 20
506.0905630466113
 30
0.0
 11
-575.5652295960735
 21
506.0905630466113
 31
0.0
 70
   160
 71
     5
 42
180.0
  3
STANDARD_WS
100
AcDbAlignedDimension
 13
-665.5652295960735
 23
504.5517781590863
 33
0.0
 14
-485.5652295960735
 24
506.0905630466113
 34
0.0
100
AcDbRotatedDimension
1001
ACAD
1000
DSTYLE
1002
{
1070
    47
1040
0.6
1070
   140
1040
50.0
1070
   146
1040
0.5
1070
   147
1040
1.0
1070
   173
1070
     0
1070
   271
1070
     0
1070
   272
1070
     0
1070
   284
1070
     8
1070
   341
1005
28
1070
   342
1005
28
1070
   343
1005
0
1070
   344
1005
0
1002
}
  0
DIMENSION
  5
269D
330
2
100
AcDbEntity
  8
画層1
 62
     0
370
    20
100
AcDbDimension
  2
*D17
 10
-613.5652295960735
 20
95.95022665564693
 30
0.0
 11
-628.5652295960735
 21
98.20022665564692
 31
0.0
 70
    32
 71
     5
 42
30.0
  3
STANDARD_WS
100
AcDbAlignedDimension
 13
-643.5652295960736
 23
79.95877673716893
 33
0.0
 14
-613.5652295960735
 24
79.95877673716893
 34
0.0
100
AcDbRotatedDimension
1001
ACAD
1000
DSTYLE
1002
{
1070
    47
1040
0.6
1070
   140
1040
50.0
1070
   146
1040
0.5
1070
   147
1040
1.0
1070
   173
1070
     0
1070
   271
1070
     0
1070
   272
1070
     0
1070
   284
1070
     8
1070
   341
1005
28
1070
   342
1005
28
1070
   343
1005
0
1070
   344
1005
0
1002
}
  0
DIMENSION
  5
26AA
330
2
100
AcDbEntity
  8
画層1
 62
     0
370
    20
100
AcDbDimension
  2
*D18
 10
-522.5652295960735
 20
109.6990740221813
 30
0.0
 11
-575.5652295960735
 21
111.9490740221813
 31
0.0
 70
    32
 71
     5
 42
106.0
  3
STANDARD_WS
100
AcDbAlignedDimension
 13
-628.5652295960735
 23
37.95877673716893
 33
0.0
 14
-522.5652295960735
 24
37.95877673716893
 34
0.0
100
AcDbRotatedDimension
1001
ACAD
1000
DSTYLE
1002
{
1070
    47
1040
0.6
1070
   140
1040
50.0
1070
   146
1040
0.5
1070
   147
1040
1.0
1070
   173
1070
     0
1070
   271
1070
     0
1070
   272
1070
     0
1070
   284
1070
     8
1070
   341
1005
28
1070
   342
1005
28
1070
   343
1005
0
1070
   344
1005
0
1002
}
  0
DIMENSION
  5
26B7
330
2
100
AcDbEntity
  8
画層1
 62
     0
370
    20
100
AcDbDimension
  2
*D19
 10
-490.0652295960735
 20
475.6730088560962
 30
0.0
 11
-493.288544202815
 21
475.6730088560962
 31
0.0
 70
   160
 71
     5
 42
9.0
  3
STANDARD_WS
100
AcDbAlignedDimension
 13
-481.0652295960735
 23
453.9587767371689
 33
0.0
 14
-490.0652295960735
 24
453.9587767371689
 34
0.0
100
AcDbRotatedDimension
1001
ACAD
1000
DSTYLE
1002
{
1070
    47
1040
0.6
1070
   140
1040
50.0
1070
   146
1040
0.5
1070
   147
1040
1.0
1070
   173
1070
     0
1070
   271
1070
     0
1070
   272
1070
     0
1070
   284
1070
     8
1070
   341
1005
28
1070
   342
1005
28
1070
   343
1005
0
1070
   344
1005
0
1002
}
  0
DIMENSION
  5
26CF
330
2
100
AcDbEntity
  8
画層1
 62
     0
370
    20
100
AcDbDimension
  2
*D20
 10
-670.0652295960735
 20
475.6730088560962
 30
0.0
 11
-655.0428309055527
 21
475.6730088560962
 31
0.0
 70
   160
 71
     5
 42
9.0
  3
STANDARD_WS
100
AcDbAlignedDimension
 13
-661.0652295960735
 23
453.9587767371689
 33
0.0
 14
-670.0652295960735
 24
453.9587767371689
 34
0.0
100
AcDbRotatedDimension
1001
ACAD
1000
DSTYLE
1002
{
1070
    47
1040
0.6
1070
   140
1040
50.0
1070
   146
1040
0.5
1070
   147
1040
1.0
1070
   173
1070
     0
1070
   271
1070
     0
1070
   272
1070
     0
1070
   284
1070
     8
1070
   341
1005
28
1070
   342
1005
28
1070
   343
1005
0
1070
   344
1005
0
1002
}
  0
CIRCLE
  5
27AA
330
2
100
AcDbEntity
  8
画層1
 62
     0
370
    20
100
AcDbCircle
 10
-709.5652295960735
 20
243.958776737169
 30
0.0
 40
4.0
  0
ENDSEC
  0
SECTION
  2
OBJECTS
  0
DICTIONARY
  5
9
330
0
100
AcDbDictionary
281
     1
  3
ACAD_GROUP
350
23
  3
ACAD_LAYOUT
350
D
  3
ACAD_MLINESTYLE
350
24
  3
ACAD_PLOTSETTINGS
350
25
  3
ACAD_PLOTSTYLENAME
350
8
  3
AcDbVariableDictionary
350
115B
  3
DWGPROPS
350
B1B
  0
DICTIONARY
  5
3
330
2
100
AcDbDictionary
280
     1
281
     1
  0
DICTIONARY
  5
F
330
E
100
AcDbDictionary
280
     1
281
     1
  0
DICTIONARY
  5
23
102
{ACAD_REACTORS
330
9
102
}
330
9
100
AcDbDictionary
281
     1
  0
DICTIONARY
  5
D
102
{ACAD_REACTORS
330
9
102
}
330
9
100
AcDbDictionary
281
     1
  3
Model
350
560
  3
ﾚｲｱｳﾄ1
350
561
  0
DICTIONARY
  5
24
102
{ACAD_REACTORS
330
9
102
}
330
9
100
AcDbDictionary
281
     1
  3
STANDARD
350
34
  0
DICTIONARY
  5
25
102
{ACAD_REACTORS
330
9
102
}
330
9
100
AcDbDictionary
281
     1
  0
ACDBDICTIONARYWDFLT
  5
8
102
{ACAD_REACTORS
330
9
102
}
330
9
100
AcDbDictionary
281
     1
  3
Normal
350
7
100
AcDbDictionaryWithDefault
340
7
  0
DICTIONARY
  5
115B
102
{ACAD_REACTORS
330
9
102
}
330
9
100
AcDbDictionary
281
     1
  3
SORTENTS
350
115C
  0
XRECORD
  5
B1B
102
{ACAD_REACTORS
330
9
102
}
330
9
100
AcDbXrecord
280
     1
  1
DWGPROPS COOKIE
  2

  3

  4

  6

  7

  8

  9

300
=
301
=
302
=
303
=
304
=
305
=
306
=
307
=
308
=
309
=
 40
3.889878958333333
 41
2450995.462150231
 42
2454049.770371816
  1

 90
        0
  0
LAYOUT
  5
560
102
{ACAD_REACTORS
330
D
102
}
330
D
100
AcDbPlotSettings
  1

  2
DocuPrint 360
  4
A3
  6

 40
5.238749980926513
 41
5.238728046417236
 42
5.32342529296875
 43
5.238739013671875
 44
296.9683227539062
 45
419.9889831542968
 46
0.0
 47
0.0
 48
0.0
 49
0.0
140
0.0
141
0.0
142
1.0
143
1.0
 70
 11952
 72
     1
 73
     1
 74
     1
  7

 75
    16
147
1.0
148
643.5922839751201
149
-108.5339784519811
100
AcDbLayout
  1
Model
 70
     1
 71
     0
 10
0.0
 20
0.0
 11
12.0
 21
9.0
 12
0.0
 22
0.0
 32
0.0
 14
0.0
 24
0.0
 34
0.0
 15
0.0
 25
0.0
 35
0.0
146
0.0
 13
0.0
 23
0.0
 33
0.0
 16
1.0
 26
0.0
 36
0.0
 17
0.0
 27
1.0
 37
0.0
 76
     0
330
2
  0
LAYOUT
  5
561
102
{ACAD_REACTORS
330
D
102
}
330
D
100
AcDbPlotSettings
  1

  2
EPSON MJ-6000C
  4

  6

 40
0.0
 41
0.0
 42
0.0
 43
0.0
 44
0.0
 45
0.0
 46
0.0
 47
0.0
 48
0.0
 49
0.0
140
0.0
141
0.0
142
1.0
143
1.0
 70
   688
 72
     0
 73
     0
 74
     5
  7

 75
    16
147
1.0
148
0.0
149
0.0
100
AcDbLayout
  1
ﾚｲｱｳﾄ1
 70
     1
 71
     1
 10
0.0
 20
0.0
 11
420.0
 21
297.0
 12
0.0
 22
0.0
 32
0.0
 14
0.0
 24
0.0
 34
0.0
 15
0.0
 25
0.0
 35
0.0
146
0.0
 13
0.0
 23
0.0
 33
0.0
 16
1.0
 26
0.0
 36
0.0
 17
0.0
 27
1.0
 37
0.0
 76
     0
330
E
  0
MLINESTYLE
  5
34
102
{ACAD_REACTORS
330
24
102
}
330
24
100
AcDbMlineStyle
  2
STANDARD
 70
     0
  3

 62
   256
 51
90.0
 52
90.0
 71
     2
 49
0.5
 62
   256
  6
BYLAYER
 49
-0.5
 62
   256
  6
BYLAYER
  0
ACDBPLACEHOLDER
  5
7
102
{ACAD_REACTORS
330
8
102
}
330
8
  0
DICTIONARYVAR
  5
115C
102
{ACAD_REACTORS
330
115B
102
}
330
115B
100
DictionaryVariables
280
     0
  1
96
  0
ENDSEC
  0
EOF
