  0
SECTION
  2
HEADER
  9
$ACADVER
  1
AC1015
  9
$ACADMAINTVER
 70
     6
  9
$DWGCODEPAGE
  3
ANSI_932
  9
$INSBASE
 10
0.0
 20
0.0
 30
0.0
  9
$EXTMIN
 10
70.59000000000001
 20
103.2871065989847
 30
0.0
  9
$EXTMAX
 10
638.68
 20
464.2518781725888
 30
0.0
  9
$LIMMIN
 10
0.0
 20
0.0
  9
$LIMMAX
 10
420.0
 20
297.0
  9
$ORTHOMODE
 70
     0
  9
$REGENMODE
 70
     1
  9
$FILLMODE
 70
     1
  9
$QTEXTMODE
 70
     0
  9
$MIRRTEXT
 70
     1
  9
$LTSCALE
 40
0.2
  9
$ATTMODE
 70
     1
  9
$TEXTSIZE
 40
2.5
  9
$TRACEWID
 40
1.0
  9
$TEXTSTYLE
  7
STYLE1
  9
$CLAYER
  8
画層1
  9
$CELTYPE
  6
BYLAYER
  9
$CECOLOR
 62
     1
  9
$CELTSCALE
 40
1.0
  9
$DISPSILH
 70
     0
  9
$DIMSCALE
 40
1.0
  9
$DIMASZ
 40
1.5
  9
$DIMEXO
 40
0.63
  9
$DIMDLI
 40
3.75
  9
$DIMRND
 40
0.0
  9
$DIMDLE
 40
0.0
  9
$DIMEXE
 40
1.25
  9
$DIMTP
 40
0.6
  9
$DIMTM
 40
0.0
  9
$DIMTXT
 40
2.5
  9
$DIMCEN
 40
2.5
  9
$DIMTSZ
 40
0.0
  9
$DIMTOL
 70
     0
  9
$DIMLIM
 70
     0
  9
$DIMTIH
 70
     0
  9
$DIMTOH
 70
     0
  9
$DIMSE1
 70
     0
  9
$DIMSE2
 70
     0
  9
$DIMTAD
 70
     1
  9
$DIMZIN
 70
     8
  9
$DIMBLK
  1
OPEN30
  9
$DIMASO
 70
     1
  9
$DIMSHO
 70
     1
  9
$DIMPOST
  1

  9
$DIMAPOST
  1

  9
$DIMALT
 70
     0
  9
$DIMALTD
 70
     4
  9
$DIMALTF
 40
0.04
  9
$DIMLFAC
 40
2.0
  9
$DIMTOFL
 70
     1
  9
$DIMTVP
 40
0.0
  9
$DIMTIX
 70
     0
  9
$DIMSOXD
 70
     0
  9
$DIMSAH
 70
     0
  9
$DIMBLK1
  1
OPEN30
  9
$DIMBLK2
  1
OPEN
  9
$DIMSTYLE
  2
STANDARD_WS
  9
$DIMCLRD
 70
     0
  9
$DIMCLRE
 70
     0
  9
$DIMCLRT
 70
     0
  9
$DIMTFAC
 40
0.5
  9
$DIMGAP
 40
0.63
  9
$DIMJUST
 70
     0
  9
$DIMSD1
 70
     0
  9
$DIMSD2
 70
     0
  9
$DIMTOLJ
 70
     1
  9
$DIMTZIN
 70
     8
  9
$DIMALTZ
 70
     0
  9
$DIMALTTZ
 70
     0
  9
$DIMUPT
 70
     0
  9
$DIMDEC
 70
     4
  9
$DIMTDEC
 70
     4
  9
$DIMALTU
 70
     8
  9
$DIMALTTD
 70
     4
  9
$DIMTXSTY
  7
STYLE1
  9
$DIMAUNIT
 70
     0
  9
$DIMADEC
 70
     0
  9
$DIMALTRND
 40
0.0
  9
$DIMAZIN
 70
     0
  9
$DIMDSEP
 70
    46
  9
$DIMATFIT
 70
     3
  9
$DIMFRAC
 70
     0
  9
$DIMLDRBLK
  1
OPEN30
  9
$DIMLUNIT
 70
     2
  9
$DIMLWD
 70
    -2
  9
$DIMLWE
 70
    -2
  9
$DIMTMOVE
 70
     0
  9
$LUNITS
 70
     2
  9
$LUPREC
 70
     4
  9
$SKETCHINC
 40
1.0
  9
$FILLETRAD
 40
1.0
  9
$AUNITS
 70
     0
  9
$AUPREC
 70
     0
  9
$MENU
  1
acad
  9
$ELEVATION
 40
0.0
  9
$PELEVATION
 40
0.0
  9
$THICKNESS
 40
0.0
  9
$LIMCHECK
 70
     0
  9
$CHAMFERA
 40
10.0
  9
$CHAMFERB
 40
10.0
  9
$CHAMFERC
 40
20.0
  9
$CHAMFERD
 40
0.0
  9
$SKPOLY
 70
     0
  9
$TDCREATE
 40
2450995.462150231
  9
$TDUCREATE
 40
2450995.087150231
  9
$TDUPDATE
 40
2451964.721902778
  9
$TDUUPDATE
 40
2451964.346902778
  9
$TDINDWG
 40
4.3300144676
  9
$TDUSRTIMER
 40
4.3300085648
  9
$USRTIMER
 70
     1
  9
$ANGBASE
 50
0.0
  9
$ANGDIR
 70
     0
  9
$PDMODE
 70
     0
  9
$PDSIZE
 40
0.0
  9
$PLINEWID
 40
0.6
  9
$SPLFRAME
 70
     0
  9
$SPLINETYPE
 70
     6
  9
$SPLINESEGS
 70
     8
  9
$HANDSEED
  5
9AF
  9
$SURFTAB1
 70
     6
  9
$SURFTAB2
 70
     6
  9
$SURFTYPE
 70
     6
  9
$SURFU
 70
     6
  9
$SURFV
 70
     6
  9
$UCSBASE
  2

  9
$UCSNAME
  2

  9
$UCSORG
 10
0.0
 20
0.0
 30
0.0
  9
$UCSXDIR
 10
1.0
 20
0.0
 30
0.0
  9
$UCSYDIR
 10
0.0
 20
1.0
 30
0.0
  9
$UCSORTHOREF
  2

  9
$UCSORTHOVIEW
 70
     0
  9
$UCSORGTOP
 10
0.0
 20
0.0
 30
0.0
  9
$UCSORGBOTTOM
 10
0.0
 20
0.0
 30
0.0
  9
$UCSORGLEFT
 10
0.0
 20
0.0
 30
0.0
  9
$UCSORGRIGHT
 10
0.0
 20
0.0
 30
0.0
  9
$UCSORGFRONT
 10
0.0
 20
0.0
 30
0.0
  9
$UCSORGBACK
 10
0.0
 20
0.0
 30
0.0
  9
$PUCSBASE
  2

  9
$PUCSNAME
  2

  9
$PUCSORG
 10
0.0
 20
0.0
 30
0.0
  9
$PUCSXDIR
 10
1.0
 20
0.0
 30
0.0
  9
$PUCSYDIR
 10
0.0
 20
1.0
 30
0.0
  9
$PUCSORTHOREF
  2

  9
$PUCSORTHOVIEW
 70
     0
  9
$PUCSORGTOP
 10
0.0
 20
0.0
 30
0.0
  9
$PUCSORGBOTTOM
 10
0.0
 20
0.0
 30
0.0
  9
$PUCSORGLEFT
 10
0.0
 20
0.0
 30
0.0
  9
$PUCSORGRIGHT
 10
0.0
 20
0.0
 30
0.0
  9
$PUCSORGFRONT
 10
0.0
 20
0.0
 30
0.0
  9
$PUCSORGBACK
 10
0.0
 20
0.0
 30
0.0
  9
$USERI1
 70
     0
  9
$USERI2
 70
     0
  9
$USERI3
 70
     0
  9
$USERI4
 70
     0
  9
$USERI5
 70
     0
  9
$USERR1
 40
0.0
  9
$USERR2
 40
0.0
  9
$USERR3
 40
0.0
  9
$USERR4
 40
0.0
  9
$USERR5
 40
0.0
  9
$WORLDVIEW
 70
     1
  9
$SHADEDGE
 70
     3
  9
$SHADEDIF
 70
    70
  9
$TILEMODE
 70
     1
  9
$MAXACTVP
 70
    48
  9
$PINSBASE
 10
0.0
 20
0.0
 30
0.0
  9
$PLIMCHECK
 70
     0
  9
$PEXTMIN
 10
1.000000000000000E+20
 20
1.000000000000000E+20
 30
1.000000000000000E+20
  9
$PEXTMAX
 10
-1.000000000000000E+20
 20
-1.000000000000000E+20
 30
-1.000000000000000E+20
  9
$PLIMMIN
 10
0.0
 20
0.0
  9
$PLIMMAX
 10
420.0
 20
297.0
  9
$UNITMODE
 70
     0
  9
$VISRETAIN
 70
     1
  9
$PLINEGEN
 70
     0
  9
$PSLTSCALE
 70
     1
  9
$TREEDEPTH
 70
  3020
  9
$CMLSTYLE
  2
STANDARD
  9
$CMLJUST
 70
     0
  9
$CMLSCALE
 40
20.0
  9
$PROXYGRAPHICS
 70
     1
  9
$MEASUREMENT
 70
     1
  9
$CELWEIGHT
370
    -1
  9
$ENDCAPS
280
     0
  9
$JOINSTYLE
280
     0
  9
$LWDISPLAY
290
     0
  9
$INSUNITS
 70
     0
  9
$HYPERLINKBASE
  1

  9
$STYLESHEET
  1

  9
$XEDIT
290
     1
  9
$CEPSNTYPE
380
     0
  9
$PSTYLEMODE
290
     1
  9
$FINGERPRINTGUID
  2
{12426522-B208-11D3-A790-004026173390}
  9
$VERSIONGUID
  2
{45B3414D-09AF-11D5-8D55-0060949B1DAC}
  9
$EXTNAMES
290
     1
  9
$PSVPSCALE
 40
0.0
  9
$OLESTARTUP
290
     0
  0
ENDSEC
  0
SECTION
  2
CLASSES
  0
CLASS
  1
DICTIONARYVAR
  2
AcDbDictionaryVar
  3
AutoCAD 2000
 90
        0
280
     0
281
     0
  0
CLASS
  1
LWPOLYLINE
  2
AcDbPolyline
  3
AutoCAD 2000
 90
    32768
280
     0
281
     1
  0
CLASS
  1
OLE2FRAME
  2
AcDbOle2Frame
  3
AutoCAD 2000
 90
    32768
280
     0
281
     1
  0
CLASS
  1
HATCH
  2
AcDbHatch
  3
AutoCAD 2000
 90
    32768
280
     0
281
     1
  0
CLASS
  1
ACDBDICTIONARYWDFLT
  2
AcDbDictionaryWithDefault
  3
AutoCAD 2000
 90
        0
280
     0
281
     0
  0
CLASS
  1
ACDBPLACEHOLDER
  2
AcDbPlaceHolder
  3
AutoCAD 2000
 90
        0
280
     0
281
     0
  0
CLASS
  1
LAYOUT
  2
AcDbLayout
  3
AutoCAD 2000
 90
        0
280
     0
281
     0
  0
ENDSEC
  0
SECTION
  2
TABLES
  0
TABLE
  2
VPORT
  5
1A
330
0
100
AcDbSymbolTable
 70
     2
  0
VPORT
  5
9AE
330
1A
100
AcDbSymbolTableRecord
100
AcDbViewportTableRecord
  2
*Active
 70
     0
 10
0.0
 20
0.0
 11
1.0
 21
1.0
 12
392.5
 22
271.7526739549839
 13
0.0
 23
0.0
 14
1.0
 24
1.0
 15
2.0
 25
2.0
 16
0.0
 26
0.0
 36
1.0
 17
0.0
 27
0.0
 37
0.0
 40
590.4853479099679
 41
1.840236686390532
 42
50.0
 43
0.0
 44
0.0
 50
0.0
 51
0.0
 71
     0
 72
   100
 73
     1
 74
     1
 75
     0
 76
     0
 77
     0
 78
     0
281
     0
 65
     1
110
0.0
120
0.0
130
0.0
111
1.0
121
0.0
131
0.0
112
0.0
122
1.0
132
0.0
 79
     0
146
0.0
  0
ENDTAB
  0
TABLE
  2
LTYPE
  5
15
330
0
100
AcDbSymbolTable
 70
     4
  0
LTYPE
  5
16
330
15
100
AcDbSymbolTableRecord
100
AcDbLinetypeTableRecord
  2
BYBLOCK
 70
     0
  3

 72
    65
 73
     0
 40
0.0
  0
LTYPE
  5
17
330
15
100
AcDbSymbolTableRecord
100
AcDbLinetypeTableRecord
  2
BYLAYER
 70
     0
  3

 72
    65
 73
     0
 40
0.0
  0
LTYPE
  5
8
330
15
100
AcDbSymbolTableRecord
100
AcDbLinetypeTableRecord
  2
CONTINUOUS
 70
     0
  3
Solid line
 72
    65
 73
     0
 40
0.0
  0
LTYPE
  5
95
330
15
100
AcDbSymbolTableRecord
100
AcDbLinetypeTableRecord
  2
DASHED2
 70
     0
  3
Dashed (.5x) _ _ _ _ _ _ _ _ _ _ _ _ _ _ _ _ _
 72
    65
 73
     2
 40
9.519999999999999
 49
6.349999999999999
 74
     0
 49
-3.18
 74
     0
  0
LTYPE
  5
5B
330
15
100
AcDbSymbolTableRecord
100
AcDbLinetypeTableRecord
  2
CENTER
 70
     0
  3
Center ____ _ ____ _ ____ _ ____ _ ____ _ ____
 72
    65
 73
     4
 40
50.8
 49
31.75
 74
     0
 49
-6.349999999999999
 74
     0
 49
6.349999999999999
 74
     0
 49
-6.349999999999999
 74
     0
  0
LTYPE
  5
91
330
15
100
AcDbSymbolTableRecord
100
AcDbLinetypeTableRecord
  2
DIVIDE
 70
     0
  3
Divide ____ . . ____ . . ____ . . ____ . . ____
 72
    65
 73
     6
 40
31.75
 49
12.7
 74
     0
 49
-6.349999999999999
 74
     0
 49
0.0
 74
     0
 49
-6.349999999999999
 74
     0
 49
0.0
 74
     0
 49
-6.349999999999999
 74
     0
  0
ENDTAB
  0
TABLE
  2
LAYER
  5
10
330
0
100
AcDbSymbolTable
 70
     3
  0
LAYER
  5
4
330
10
100
AcDbSymbolTableRecord
100
AcDbLayerTableRecord
  2
0
 70
     0
 62
     7
  6
CONTINUOUS
370
    -3
390
5
  0
LAYER
  5
3B
330
10
100
AcDbSymbolTableRecord
100
AcDbLayerTableRecord
  2
DEFPOINTS
 70
     0
 62
     7
  6
CONTINUOUS
290
     0
370
    -3
390
5
  0
LAYER
  5
29
330
10
100
AcDbSymbolTableRecord
100
AcDbLayerTableRecord
  2
画層1
 70
     0
 62
     7
  6
CONTINUOUS
370
    -3
390
5
  0
ENDTAB
  0
TABLE
  2
STYLE
  5
11
330
0
100
AcDbSymbolTable
 70
     2
  0
STYLE
  5
12
330
11
100
AcDbSymbolTableRecord
100
AcDbTextStyleTableRecord
  2
STANDARD
 70
     0
 40
2.5
 41
1.0
 50
0.0
 71
     0
 42
1.5
  3
MS PMincho.ttf
  4

1001
ACAD
1000
MS PMincho
1071
    32786
  0
STYLE
  5
2A
330
11
100
AcDbSymbolTableRecord
100
AcDbTextStyleTableRecord
  2
STYLE1
 70
     0
 40
2.5
 41
1.0
 50
0.0
 71
     0
 42
2.5
  3
MS Gothic.ttf
  4

1001
ACAD
1000
MS Gothic
1071
    32817
  0
ENDTAB
  0
TABLE
  2
VIEW
  5
18
330
0
100
AcDbSymbolTable
 70
     0
  0
ENDTAB
  0
TABLE
  2
UCS
  5
19
330
0
100
AcDbSymbolTable
 70
     0
  0
ENDTAB
  0
TABLE
  2
APPID
  5
1C
330
0
100
AcDbSymbolTable
 70
     1
  0
APPID
  5
13
330
1C
100
AcDbSymbolTableRecord
100
AcDbRegAppTableRecord
  2
ACAD
 70
     0
  0
ENDTAB
  0
TABLE
  2
DIMSTYLE
  5
1D
330
0
100
AcDbSymbolTable
 70
     1
100
AcDbDimStyleTable
 71
     1
340
1E
  0
DIMSTYLE
105
1E
102
{ACAD_REACTORS
330
330
330
4D
330
A1
330
29A
330
40
330
1D3
330
31F
330
1C6
330
B4
330
83
330
75
330
185
330
68
330
175
330
32
330
377
330
4B9
330
4AC
330
4CB
330
3D8
330
3F7
330
3E8
330
3CB
330
3BE
330
158
102
}
330
1D
100
AcDbSymbolTableRecord
100
AcDbDimStyleTableRecord
  2
STANDARD_WS
 70
     0
 41
1.5
 42
0.63
 43
3.75
 44
1.25
 73
     0
 74
     0
 77
     1
 78
     8
140
2.5
141
2.5
143
0.04
147
0.63
171
     4
172
     1
173
     1
273
     8
274
     4
340
12
341
1F
343
1F
344
1F
  0
ENDTAB
  0
TABLE
  2
BLOCK_RECORD
  5
1
330
0
100
AcDbSymbolTable
 70
    53
  0
BLOCK_RECORD
  5
2
330
1
100
AcDbSymbolTableRecord
100
AcDbBlockTableRecord
  2
*MODEL_SPACE
340
A
  0
BLOCK_RECORD
  5
C
330
1
100
AcDbSymbolTableRecord
100
AcDbBlockTableRecord
  2
*PAPER_SPACE
340
F
  0
BLOCK_RECORD
  5
1F
330
1
100
AcDbSymbolTableRecord
100
AcDbBlockTableRecord
  2
_OPEN
340
0
  0
BLOCK_RECORD
  5
2B
330
1
100
AcDbSymbolTableRecord
100
AcDbBlockTableRecord
  2
_OPEN30
340
0
102
{BLKREFS
331
335
331
336
331
52
331
53
331
A6
331
A7
331
2A1
331
2A2
331
45
331
46
331
1D8
331
1D9
331
326
331
327
331
1CB
331
1CC
331
BB
331
BC
331
88
331
89
331
7A
331
7B
331
18A
331
18B
331
6D
331
6E
331
17C
331
17D
331
37
331
38
331
37E
331
37F
331
4BE
331
4BF
331
4B1
331
4B2
331
4D0
331
4D1
331
3DD
331
3DE
331
3FC
331
3FD
331
3EF
331
3F0
331
3D0
331
3D1
331
3C3
331
3C4
331
15F
331
160
331
5E3
331
5E4
331
5EF
331
5F0
331
5FB
331
5FC
331
607
331
608
331
613
331
614
331
61F
331
620
331
62B
331
62C
331
638
331
639
331
644
331
645
331
650
331
651
331
65C
331
65D
331
668
331
669
331
674
331
675
331
680
331
681
331
68C
331
68D
331
698
331
699
331
6A4
331
6A5
331
6B0
331
6B1
331
6BC
331
6BD
331
6C8
331
6C9
331
6D4
331
6D5
331
6E2
331
6E3
331
6EE
331
6EF
331
6FA
331
6FB
331
706
331
707
331
712
331
713
331
71B
331
71C
331
724
331
725
331
72D
331
72E
331
736
331
737
331
73F
331
740
331
748
331
749
331
751
331
752
331
75A
331
75B
331
763
331
764
331
76C
331
76D
331
775
331
776
331
77E
331
77F
331
787
331
788
331
791
331
792
331
79A
331
79B
331
7A3
331
7A4
331
7AC
331
7AD
331
7B5
331
7B6
331
7BE
331
7BF
331
7C7
331
7C8
331
7D0
331
7D1
331
7D9
331
7DA
331
7E2
331
7E3
331
7EB
331
7EC
331
7F4
331
7F5
331
7FD
331
7FE
331
806
331
807
331
80F
331
810
331
818
331
819
331
822
331
823
331
82B
331
82C
331
834
331
835
331
83D
331
83E
331
846
331
847
331
84F
331
850
331
858
331
859
331
863
331
864
331
86C
331
86D
331
875
331
876
331
87E
331
87F
331
88D
331
88E
331
896
331
897
331
89F
331
8A0
331
8A8
331
8A9
331
8CC
331
8CD
331
8D5
331
8D6
331
8DE
331
8DF
331
8E7
331
8E8
331
8F0
331
8F1
331
8F9
331
8FA
331
903
331
904
331
90C
331
90D
331
915
331
916
331
91E
331
91F
331
927
331
928
331
930
331
931
331
939
331
93A
331
942
331
943
331
94B
331
94C
331
954
331
955
331
95D
331
95E
331
966
331
967
331
96F
331
970
331
978
331
979
331
981
331
982
331
98C
331
98D
331
995
331
996
331
99E
331
99F
331
9A7
331
9A8
102
}
  0
BLOCK_RECORD
  5
9C
330
1
100
AcDbSymbolTableRecord
100
AcDbBlockTableRecord
  2
_DotSmall
340
0
  0
BLOCK_RECORD
  5
331
330
1
100
AcDbSymbolTableRecord
100
AcDbBlockTableRecord
  2
*D3
340
0
  0
BLOCK_RECORD
  5
4E
330
1
100
AcDbSymbolTableRecord
100
AcDbBlockTableRecord
  2
*D4
340
0
  0
BLOCK_RECORD
  5
A2
330
1
100
AcDbSymbolTableRecord
100
AcDbBlockTableRecord
  2
*D5
340
0
  0
BLOCK_RECORD
  5
29B
330
1
100
AcDbSymbolTableRecord
100
AcDbBlockTableRecord
  2
*D6
340
0
  0
BLOCK_RECORD
  5
41
330
1
100
AcDbSymbolTableRecord
100
AcDbBlockTableRecord
  2
*D7
340
0
  0
BLOCK_RECORD
  5
1D4
330
1
100
AcDbSymbolTableRecord
100
AcDbBlockTableRecord
  2
*D8
340
0
  0
BLOCK_RECORD
  5
320
330
1
100
AcDbSymbolTableRecord
100
AcDbBlockTableRecord
  2
*D9
340
0
  0
BLOCK_RECORD
  5
1C7
330
1
100
AcDbSymbolTableRecord
100
AcDbBlockTableRecord
  2
*D10
340
0
  0
BLOCK_RECORD
  5
B5
330
1
100
AcDbSymbolTableRecord
100
AcDbBlockTableRecord
  2
*D11
340
0
  0
BLOCK_RECORD
  5
84
330
1
100
AcDbSymbolTableRecord
100
AcDbBlockTableRecord
  2
*D12
340
0
  0
BLOCK_RECORD
  5
76
330
1
100
AcDbSymbolTableRecord
100
AcDbBlockTableRecord
  2
*D13
340
0
  0
BLOCK_RECORD
  5
186
330
1
100
AcDbSymbolTableRecord
100
AcDbBlockTableRecord
  2
*D14
340
0
  0
BLOCK_RECORD
  5
69
330
1
100
AcDbSymbolTableRecord
100
AcDbBlockTableRecord
  2
*D15
340
0
  0
BLOCK_RECORD
  5
176
330
1
100
AcDbSymbolTableRecord
100
AcDbBlockTableRecord
  2
*D16
340
0
  0
BLOCK_RECORD
  5
33
330
1
100
AcDbSymbolTableRecord
100
AcDbBlockTableRecord
  2
*D17
340
0
  0
BLOCK_RECORD
  5
378
330
1
100
AcDbSymbolTableRecord
100
AcDbBlockTableRecord
  2
*D18
340
0
  0
BLOCK_RECORD
  5
4BA
330
1
100
AcDbSymbolTableRecord
100
AcDbBlockTableRecord
  2
*D19
340
0
  0
BLOCK_RECORD
  5
4AD
330
1
100
AcDbSymbolTableRecord
100
AcDbBlockTableRecord
  2
*D20
340
0
  0
BLOCK_RECORD
  5
4CC
330
1
100
AcDbSymbolTableRecord
100
AcDbBlockTableRecord
  2
*D21
340
0
  0
BLOCK_RECORD
  5
3D9
330
1
100
AcDbSymbolTableRecord
100
AcDbBlockTableRecord
  2
*D22
340
0
  0
BLOCK_RECORD
  5
3F8
330
1
100
AcDbSymbolTableRecord
100
AcDbBlockTableRecord
  2
*D23
340
0
  0
BLOCK_RECORD
  5
3E9
330
1
100
AcDbSymbolTableRecord
100
AcDbBlockTableRecord
  2
*D24
340
0
  0
BLOCK_RECORD
  5
3CC
330
1
100
AcDbSymbolTableRecord
100
AcDbBlockTableRecord
  2
*D25
340
0
  0
BLOCK_RECORD
  5
3BF
330
1
100
AcDbSymbolTableRecord
100
AcDbBlockTableRecord
  2
*D26
340
0
  0
BLOCK_RECORD
  5
159
330
1
100
AcDbSymbolTableRecord
100
AcDbBlockTableRecord
  2
*D27
340
0
  0
BLOCK_RECORD
  5
5DF
330
1
100
AcDbSymbolTableRecord
100
AcDbBlockTableRecord
  2
*D28
340
0
  0
BLOCK_RECORD
  5
5EB
330
1
100
AcDbSymbolTableRecord
100
AcDbBlockTableRecord
  2
*D29
340
0
  0
BLOCK_RECORD
  5
5F7
330
1
100
AcDbSymbolTableRecord
100
AcDbBlockTableRecord
  2
*D30
340
0
  0
BLOCK_RECORD
  5
603
330
1
100
AcDbSymbolTableRecord
100
AcDbBlockTableRecord
  2
*D31
340
0
  0
BLOCK_RECORD
  5
60F
330
1
100
AcDbSymbolTableRecord
100
AcDbBlockTableRecord
  2
*D32
340
0
  0
BLOCK_RECORD
  5
61B
330
1
100
AcDbSymbolTableRecord
100
AcDbBlockTableRecord
  2
*D33
340
0
  0
BLOCK_RECORD
  5
627
330
1
100
AcDbSymbolTableRecord
100
AcDbBlockTableRecord
  2
*D34
340
0
  0
BLOCK_RECORD
  5
633
330
1
100
AcDbSymbolTableRecord
100
AcDbBlockTableRecord
  2
*D35
340
0
  0
BLOCK_RECORD
  5
640
330
1
100
AcDbSymbolTableRecord
100
AcDbBlockTableRecord
  2
*D36
340
0
  0
BLOCK_RECORD
  5
64C
330
1
100
AcDbSymbolTableRecord
100
AcDbBlockTableRecord
  2
*D37
340
0
  0
BLOCK_RECORD
  5
658
330
1
100
AcDbSymbolTableRecord
100
AcDbBlockTableRecord
  2
*D38
340
0
  0
BLOCK_RECORD
  5
664
330
1
100
AcDbSymbolTableRecord
100
AcDbBlockTableRecord
  2
*D39
340
0
  0
BLOCK_RECORD
  5
670
330
1
100
AcDbSymbolTableRecord
100
AcDbBlockTableRecord
  2
*D40
340
0
  0
BLOCK_RECORD
  5
67C
330
1
100
AcDbSymbolTableRecord
100
AcDbBlockTableRecord
  2
*D41
340
0
  0
BLOCK_RECORD
  5
688
330
1
100
AcDbSymbolTableRecord
100
AcDbBlockTableRecord
  2
*D42
340
0
  0
BLOCK_RECORD
  5
694
330
1
100
AcDbSymbolTableRecord
100
AcDbBlockTableRecord
  2
*D43
340
0
  0
BLOCK_RECORD
  5
6A0
330
1
100
AcDbSymbolTableRecord
100
AcDbBlockTableRecord
  2
*D44
340
0
  0
BLOCK_RECORD
  5
6AC
330
1
100
AcDbSymbolTableRecord
100
AcDbBlockTableRecord
  2
*D45
340
0
  0
BLOCK_RECORD
  5
6B8
330
1
100
AcDbSymbolTableRecord
100
AcDbBlockTableRecord
  2
*D46
340
0
  0
BLOCK_RECORD
  5
6C4
330
1
100
AcDbSymbolTableRecord
100
AcDbBlockTableRecord
  2
*D47
340
0
  0
BLOCK_RECORD
  5
6D0
330
1
100
AcDbSymbolTableRecord
100
AcDbBlockTableRecord
  2
*D48
340
0
  0
BLOCK_RECORD
  5
6DC
330
1
100
AcDbSymbolTableRecord
100
AcDbBlockTableRecord
  2
*D49
340
0
  0
BLOCK_RECORD
  5
6EA
330
1
100
AcDbSymbolTableRecord
100
AcDbBlockTableRecord
  2
*D50
340
0
  0
BLOCK_RECORD
  5
6F6
330
1
100
AcDbSymbolTableRecord
100
AcDbBlockTableRecord
  2
*D51
340
0
  0
BLOCK_RECORD
  5
702
330
1
100
AcDbSymbolTableRecord
100
AcDbBlockTableRecord
  2
*D52
340
0
  0
ENDTAB
  0
ENDSEC
  0
SECTION
  2
BLOCKS
  0
BLOCK
  5
3
330
2
100
AcDbEntity
  8
0
100
AcDbBlockBegin
  2
*MODEL_SPACE
 70
     0
 10
0.0
 20
0.0
 30
0.0
  3
*MODEL_SPACE
  1

  0
ENDBLK
  5
9
330
2
100
AcDbEntity
  8
0
100
AcDbBlockEnd
  0
BLOCK
  5
D
330
C
100
AcDbEntity
 67
     1
  8
0
100
AcDbBlockBegin
  2
*PAPER_SPACE
 70
     0
 10
0.0
 20
0.0
 30
0.0
  3
*PAPER_SPACE
  1

  0
ENDBLK
  5
E
330
C
100
AcDbEntity
 67
     1
  8
0
100
AcDbBlockEnd
  0
BLOCK
  5
23
330
1F
100
AcDbEntity
  8
0
100
AcDbBlockBegin
  2
_OPEN
 70
     0
 10
0.0
 20
0.0
 30
0.0
  3
_OPEN
  1

  0
LINE
  5
20
330
1F
100
AcDbEntity
  8
0
  6
ByBlock
 62
     0
100
AcDbLine
 10
-1.0
 20
0.17
 30
0.0
 11
0.0
 21
0.0
 31
0.0
  0
LINE
  5
21
330
1F
100
AcDbEntity
  8
0
  6
ByBlock
 62
     0
100
AcDbLine
 10
0.0
 20
0.0
 30
0.0
 11
-1.0
 21
-0.17
 31
0.0
  0
LINE
  5
22
330
1F
100
AcDbEntity
  8
0
  6
ByBlock
 62
     0
100
AcDbLine
 10
0.0
 20
0.0
 30
0.0
 11
-1.0
 21
0.0
 31
0.0
  0
ENDBLK
  5
24
330
1F
100
AcDbEntity
  8
0
100
AcDbBlockEnd
  0
BLOCK
  5
2F
330
2B
100
AcDbEntity
  8
0
100
AcDbBlockBegin
  2
_OPEN30
 70
     0
 10
0.0
 20
0.0
 30
0.0
  3
_OPEN30
  1

  0
LINE
  5
2C
330
2B
100
AcDbEntity
  8
0
  6
ByBlock
 62
     0
100
AcDbLine
 10
-1.0
 20
0.27
 30
0.0
 11
0.0
 21
0.0
 31
0.0
  0
LINE
  5
2D
330
2B
100
AcDbEntity
  8
0
  6
ByBlock
 62
     0
100
AcDbLine
 10
0.0
 20
0.0
 30
0.0
 11
-1.0
 21
-0.27
 31
0.0
  0
LINE
  5
2E
330
2B
100
AcDbEntity
  8
0
  6
ByBlock
 62
     0
100
AcDbLine
 10
0.0
 20
0.0
 30
0.0
 11
-1.0
 21
0.0
 31
0.0
  0
ENDBLK
  5
30
330
2B
100
AcDbEntity
  8
0
100
AcDbBlockEnd
  0
BLOCK
  5
9E
330
9C
100
AcDbEntity
  8
0
 62
     1
100
AcDbBlockBegin
  2
_DotSmall
 70
     0
 10
0.0
 20
0.0
 30
0.0
  3
_DotSmall
  1

  0
LWPOLYLINE
  5
9D
330
9C
100
AcDbEntity
  8
画層1
 62
     0
100
AcDbPolyline
 90
        2
 70
     1
 43
0.5
 10
-0.06
 20
0.0
 42
1.0
 10
0.06
 20
0.0
 42
1.0
  0
ENDBLK
  5
9F
330
9C
100
AcDbEntity
  8
0
 62
     1
100
AcDbBlockEnd
  0
BLOCK
  5
33B
330
331
100
AcDbEntity
  8
0
 62
     3
100
AcDbBlockBegin
  2
*D3
 70
     1
 10
0.0
 20
0.0
 30
0.0
  3
*D3
  1

  0
LINE
  5
332
330
331
100
AcDbEntity
  8
画層1
 62
     0
370
    -2
100
AcDbLine
 10
101.5
 20
210.48
 30
0.0
 11
83.04999999999999
 21
210.48
 31
0.0
  0
LINE
  5
333
330
331
100
AcDbEntity
  8
画層1
 62
     0
370
    -2
100
AcDbLine
 10
98.04999999999999
 20
205.4799999999999
 30
0.0
 11
83.04999999999999
 21
205.4799999999999
 31
0.0
  0
LINE
  5
334
330
331
100
AcDbEntity
  8
画層1
 62
     0
370
    -2
100
AcDbLine
 10
84.29999999999999
 20
208.9799999999999
 30
0.0
 11
84.29999999999999
 21
206.9799999999999
 31
0.0
  0
INSERT
  5
335
330
331
100
AcDbEntity
  8
画層1
 62
     0
370
    -2
100
AcDbBlockReference
  2
_OPEN30
 10
84.29999999999999
 20
210.48
 30
0.0
 41
1.5
 42
1.5
 43
1.5
 50
90.0
  0
INSERT
  5
336
330
331
100
AcDbEntity
  8
画層1
 62
     0
370
    -2
100
AcDbBlockReference
  2
_OPEN30
 10
84.29999999999999
 20
205.4799999999999
 30
0.0
 41
1.5
 42
1.5
 43
1.5
 50
270.0
  0
MTEXT
  5
337
330
331
100
AcDbEntity
  8
画層1
 62
     0
100
AcDbMText
 10
82.43
 20
207.98
 30
0.0
 40
2.5
 41
0.0
 71
     5
 72
     1
  1
\A1;10
  7
STYLE1
 11
0.0
 21
1.0
 31
0.0
 73
     1
 44
1.0
  0
POINT
  5
338
330
331
100
AcDbEntity
  8
DEFPOINTS
 62
     0
100
AcDbPoint
 10
102.12
 20
210.48
 30
0.0
  0
POINT
  5
339
330
331
100
AcDbEntity
  8
DEFPOINTS
 62
     0
100
AcDbPoint
 10
98.68000000000002
 20
205.4799999999999
 30
0.0
  0
POINT
  5
33A
330
331
100
AcDbEntity
  8
DEFPOINTS
 62
     0
100
AcDbPoint
 10
84.29999999999999
 20
205.4799999999999
 30
0.0
  0
ENDBLK
  5
33C
330
331
100
AcDbEntity
  8
0
 62
     3
100
AcDbBlockEnd
  0
BLOCK
  5
58
330
4E
100
AcDbEntity
  8
0
 62
     3
100
AcDbBlockBegin
  2
*D4
 70
     1
 10
0.0
 20
0.0
 30
0.0
  3
*D4
  1

  0
LINE
  5
4F
330
4E
100
AcDbEntity
  8
画層1
 62
     0
370
    -2
100
AcDbLine
 10
98.04999999999999
 20
205.4799999999999
 30
0.0
 11
83.04999999999999
 21
205.4799999999999
 31
0.0
  0
LINE
  5
50
330
4E
100
AcDbEntity
  8
画層1
 62
     0
370
    -2
100
AcDbLine
 10
98.04999999999999
 20
105.4799999999999
 30
0.0
 11
83.04999999999999
 21
105.4799999999999
 31
0.0
  0
LINE
  5
51
330
4E
100
AcDbEntity
  8
画層1
 62
     0
370
    -2
100
AcDbLine
 10
84.29999999999999
 20
203.98
 30
0.0
 11
84.29999999999999
 21
106.98
 31
0.0
  0
INSERT
  5
52
330
4E
100
AcDbEntity
  8
画層1
 62
     0
370
    -2
100
AcDbBlockReference
  2
_OPEN30
 10
84.29999999999999
 20
205.4799999999999
 30
0.0
 41
1.5
 42
1.5
 43
1.5
 50
90.0
  0
INSERT
  5
53
330
4E
100
AcDbEntity
  8
画層1
 62
     0
370
    -2
100
AcDbBlockReference
  2
_OPEN30
 10
84.29999999999999
 20
105.4799999999999
 30
0.0
 41
1.5
 42
1.5
 43
1.5
 50
270.0
  0
MTEXT
  5
54
330
4E
100
AcDbEntity
  8
画層1
 62
     0
100
AcDbMText
 10
82.43
 20
155.48
 30
0.0
 40
2.5
 41
0.0
 71
     5
 72
     1
  1
\A1;200
  7
STYLE1
 11
0.0
 21
1.0
 31
0.0
 73
     1
 44
1.0
  0
POINT
  5
55
330
4E
100
AcDbEntity
  8
DEFPOINTS
 62
     0
100
AcDbPoint
 10
98.68000000000002
 20
205.4799999999999
 30
0.0
  0
POINT
  5
56
330
4E
100
AcDbEntity
  8
DEFPOINTS
 62
     0
100
AcDbPoint
 10
98.68000000000002
 20
105.4799999999999
 30
0.0
  0
POINT
  5
57
330
4E
100
AcDbEntity
  8
DEFPOINTS
 62
     0
100
AcDbPoint
 10
84.29999999999999
 20
105.4799999999999
 30
0.0
  0
ENDBLK
  5
59
330
4E
100
AcDbEntity
  8
0
 62
     3
100
AcDbBlockEnd
  0
BLOCK
  5
AC
330
A2
100
AcDbEntity
  8
0
 62
     3
100
AcDbBlockBegin
  2
*D5
 70
     1
 10
0.0
 20
0.0
 30
0.0
  3
*D5
  1

  0
LINE
  5
A3
330
A2
100
AcDbEntity
  8
画層1
 62
     0
370
    -2
100
AcDbLine
 10
98.04999999999999
 20
105.4799999999999
 30
0.0
 11
83.04999999999999
 21
105.4799999999999
 31
0.0
  0
LINE
  5
A4
330
A2
100
AcDbEntity
  8
画層1
 62
     0
370
    -2
100
AcDbLine
 10
101.1299999999999
 20
100.48
 30
0.0
 11
83.04999999999999
 21
100.48
 31
0.0
  0
LINE
  5
A5
330
A2
100
AcDbEntity
  8
画層1
 62
     0
370
    -2
100
AcDbLine
 10
84.29999999999999
 20
103.98
 30
0.0
 11
84.29999999999999
 21
101.98
 31
0.0
  0
INSERT
  5
A6
330
A2
100
AcDbEntity
  8
画層1
 62
     0
370
    -2
100
AcDbBlockReference
  2
_OPEN30
 10
84.29999999999999
 20
105.4799999999999
 30
0.0
 41
1.5
 42
1.5
 43
1.5
 50
90.0
  0
INSERT
  5
A7
330
A2
100
AcDbEntity
  8
画層1
 62
     0
370
    -2
100
AcDbBlockReference
  2
_OPEN30
 10
84.29999999999999
 20
100.48
 30
0.0
 41
1.5
 42
1.5
 43
1.5
 50
270.0
  0
MTEXT
  5
A8
330
A2
100
AcDbEntity
  8
画層1
 62
     0
100
AcDbMText
 10
82.43
 20
102.98
 30
0.0
 40
2.5
 41
0.0
 71
     5
 72
     1
  1
\A1;10
  7
STYLE1
 11
0.0
 21
1.0
 31
0.0
 73
     1
 44
1.0
  0
POINT
  5
A9
330
A2
100
AcDbEntity
  8
DEFPOINTS
 62
     0
100
AcDbPoint
 10
98.68000000000002
 20
105.4799999999999
 30
0.0
  0
POINT
  5
AA
330
A2
100
AcDbEntity
  8
DEFPOINTS
 62
     0
100
AcDbPoint
 10
101.76
 20
100.48
 30
0.0
  0
POINT
  5
AB
330
A2
100
AcDbEntity
  8
DEFPOINTS
 62
     0
100
AcDbPoint
 10
84.29999999999999
 20
100.48
 30
0.0
  0
ENDBLK
  5
AD
330
A2
100
AcDbEntity
  8
0
 62
     3
100
AcDbBlockEnd
  0
BLOCK
  5
2A7
330
29B
100
AcDbEntity
  8
0
 62
     3
100
AcDbBlockBegin
  2
*D6
 70
     1
 10
0.0
 20
0.0
 30
0.0
  3
*D6
  1

  0
LINE
  5
29C
330
29B
100
AcDbEntity
  8
画層1
 62
     0
370
    -2
100
AcDbLine
 10
98.04999999999999
 20
183.5399999999999
 30
0.0
 11
90.05
 21
183.5399999999999
 31
0.0
  0
LINE
  5
29D
330
29B
100
AcDbEntity
  8
画層1
 62
     0
370
    -2
100
AcDbLine
 10
98.04999999999999
 20
179.5399999999999
 30
0.0
 11
90.05
 21
179.5399999999999
 31
0.0
  0
LINE
  5
29E
330
29B
100
AcDbEntity
  8
画層1
 62
     0
370
    -2
100
AcDbLine
 10
91.3
 20
185.04
 30
0.0
 11
91.3
 21
186.5399999999999
 31
0.0
  0
LINE
  5
29F
330
29B
100
AcDbEntity
  8
画層1
 62
     0
370
    -2
100
AcDbLine
 10
91.3
 20
178.04
 30
0.0
 11
91.3
 21
176.5399999999999
 31
0.0
  0
LINE
  5
2A0
330
29B
100
AcDbEntity
  8
画層1
 62
     0
370
    -2
100
AcDbLine
 10
91.3
 20
183.5399999999999
 30
0.0
 11
91.3
 21
179.5399999999999
 31
0.0
  0
INSERT
  5
2A1
330
29B
100
AcDbEntity
  8
画層1
 62
     0
370
    -2
100
AcDbBlockReference
  2
_OPEN30
 10
91.3
 20
183.5399999999999
 30
0.0
 41
1.5
 42
1.5
 43
1.5
 50
270.0
  0
INSERT
  5
2A2
330
29B
100
AcDbEntity
  8
画層1
 62
     0
370
    -2
100
AcDbBlockReference
  2
_OPEN30
 10
91.3
 20
179.5399999999999
 30
0.0
 41
1.5
 42
1.5
 43
1.5
 50
90.0
  0
MTEXT
  5
2A3
330
29B
100
AcDbEntity
  8
画層1
 62
     0
100
AcDbMText
 10
89.43000000000001
 20
181.5399999999999
 30
0.0
 40
2.5
 41
0.0
 71
     5
 72
     1
  1
\A1;8
  7
STYLE1
 11
0.0
 21
1.0
 31
0.0
 73
     1
 44
1.0
  0
POINT
  5
2A4
330
29B
100
AcDbEntity
  8
DEFPOINTS
 62
     0
100
AcDbPoint
 10
98.68000000000002
 20
183.5399999999999
 30
0.0
  0
POINT
  5
2A5
330
29B
100
AcDbEntity
  8
DEFPOINTS
 62
     0
100
AcDbPoint
 10
98.68000000000002
 20
179.5399999999999
 30
0.0
  0
POINT
  5
2A6
330
29B
100
AcDbEntity
  8
DEFPOINTS
 62
     0
100
AcDbPoint
 10
91.3
 20
179.5399999999999
 30
0.0
  0
ENDBLK
  5
2A8
330
29B
100
AcDbEntity
  8
0
 62
     3
100
AcDbBlockEnd
  0
BLOCK
  5
4B
330
41
100
AcDbEntity
  8
0
 62
     3
100
AcDbBlockBegin
  2
*D7
 70
     1
 10
0.0
 20
0.0
 30
0.0
  3
*D7
  1

  0
LINE
  5
42
330
41
100
AcDbEntity
  8
画層1
 62
     0
370
    -2
100
AcDbLine
 10
101.5
 20
210.48
 30
0.0
 11
76.05
 21
210.48
 31
0.0
  0
LINE
  5
43
330
41
100
AcDbEntity
  8
画層1
 62
     0
370
    -2
100
AcDbLine
 10
101.1299999999999
 20
100.48
 30
0.0
 11
76.05
 21
100.48
 31
0.0
  0
LINE
  5
44
330
41
100
AcDbEntity
  8
画層1
 62
     0
370
    -2
100
AcDbLine
 10
77.3
 20
208.9799999999999
 30
0.0
 11
77.3
 21
101.98
 31
0.0
  0
INSERT
  5
45
330
41
100
AcDbEntity
  8
画層1
 62
     0
370
    -2
100
AcDbBlockReference
  2
_OPEN30
 10
77.3
 20
210.48
 30
0.0
 41
1.5
 42
1.5
 43
1.5
 50
90.0
  0
INSERT
  5
46
330
41
100
AcDbEntity
  8
画層1
 62
     0
370
    -2
100
AcDbBlockReference
  2
_OPEN30
 10
77.3
 20
100.48
 30
0.0
 41
1.5
 42
1.5
 43
1.5
 50
270.0
  0
MTEXT
  5
47
330
41
100
AcDbEntity
  8
画層1
 62
     0
100
AcDbMText
 10
75.43000000000001
 20
155.48
 30
0.0
 40
2.5
 41
0.0
 71
     5
 72
     1
  1
\A1;220
  7
STYLE1
 11
0.0
 21
1.0
 31
0.0
 73
     1
 44
1.0
  0
POINT
  5
48
330
41
100
AcDbEntity
  8
DEFPOINTS
 62
     0
100
AcDbPoint
 10
102.12
 20
210.48
 30
0.0
  0
POINT
  5
49
330
41
100
AcDbEntity
  8
DEFPOINTS
 62
     0
100
AcDbPoint
 10
101.76
 20
100.48
 30
0.0
  0
POINT
  5
4A
330
41
100
AcDbEntity
  8
DEFPOINTS
 62
     0
100
AcDbPoint
 10
77.3
 20
100.48
 30
0.0
  0
ENDBLK
  5
4C
330
41
100
AcDbEntity
  8
0
 62
     3
100
AcDbBlockEnd
  0
BLOCK
  5
1DE
330
1D4
100
AcDbEntity
  8
0
 62
     3
100
AcDbBlockBegin
  2
*D8
 70
     1
 10
0.0
 20
0.0
 30
0.0
  3
*D8
  1

  0
LINE
  5
1D5
330
1D4
100
AcDbEntity
  8
画層1
 62
     0
370
    -2
100
AcDbLine
 10
105.5499999999999
 20
221.7299999999999
 30
0.0
 11
105.5499999999999
 21
226.2299999999999
 31
0.0
  0
LINE
  5
1D6
330
1D4
100
AcDbEntity
  8
画層1
 62
     0
370
    -2
100
AcDbLine
 10
155.55
 20
209.6
 30
0.0
 11
155.55
 21
226.2299999999999
 31
0.0
  0
LINE
  5
1D7
330
1D4
100
AcDbEntity
  8
画層1
 62
     0
370
    -2
100
AcDbLine
 10
107.05
 20
224.98
 30
0.0
 11
154.05
 21
224.98
 31
0.0
  0
INSERT
  5
1D8
330
1D4
100
AcDbEntity
  8
画層1
 62
     0
370
    -2
100
AcDbBlockReference
  2
_OPEN30
 10
105.5499999999999
 20
224.98
 30
0.0
 41
1.5
 42
1.5
 43
1.5
 50
180.0
  0
INSERT
  5
1D9
330
1D4
100
AcDbEntity
  8
画層1
 62
     0
370
    -2
100
AcDbBlockReference
  2
_OPEN30
 10
155.55
 20
224.98
 30
0.0
 41
1.5
 42
1.5
 43
1.5
  0
MTEXT
  5
1DA
330
1D4
100
AcDbEntity
  8
画層1
 62
     0
100
AcDbMText
 10
130.55
 20
226.8499999999999
 30
0.0
 40
2.5
 41
0.0
 71
     5
 72
     1
  1
\A1;100
  7
STYLE1
 73
     1
 44
1.0
  0
POINT
  5
1DB
330
1D4
100
AcDbEntity
  8
DEFPOINTS
 62
     0
100
AcDbPoint
 10
105.5499999999999
 20
221.0999999999999
 30
0.0
  0
POINT
  5
1DC
330
1D4
100
AcDbEntity
  8
DEFPOINTS
 62
     0
100
AcDbPoint
 10
155.55
 20
208.9799999999999
 30
0.0
  0
POINT
  5
1DD
330
1D4
100
AcDbEntity
  8
DEFPOINTS
 62
     0
100
AcDbPoint
 10
155.55
 20
224.98
 30
0.0
  0
ENDBLK
  5
1DF
330
1D4
100
AcDbEntity
  8
0
 62
     3
100
AcDbBlockEnd
  0
BLOCK
  5
32C
330
320
100
AcDbEntity
  8
0
 62
     3
100
AcDbBlockBegin
  2
*D9
 70
     1
 10
0.0
 20
0.0
 30
0.0
  3
*D9
  1

  0
LINE
  5
321
330
320
100
AcDbEntity
  8
画層1
 62
     0
370
    -2
100
AcDbLine
 10
104.0499999999999
 20
211.0999999999999
 30
0.0
 11
104.0499999999999
 21
219.2299999999999
 31
0.0
  0
LINE
  5
322
330
320
100
AcDbEntity
  8
画層1
 62
     0
370
    -2
100
AcDbLine
 10
107.05
 20
211.0999999999999
 30
0.0
 11
107.05
 21
219.2299999999999
 31
0.0
  0
LINE
  5
323
330
320
100
AcDbEntity
  8
画層1
 62
     0
370
    -2
100
AcDbLine
 10
102.55
 20
217.9799999999999
 30
0.0
 11
101.0499999999999
 21
217.9799999999999
 31
0.0
  0
LINE
  5
324
330
320
100
AcDbEntity
  8
画層1
 62
     0
370
    -2
100
AcDbLine
 10
108.5499999999999
 20
217.9799999999999
 30
0.0
 11
110.05
 21
217.9799999999999
 31
0.0
  0
LINE
  5
325
330
320
100
AcDbEntity
  8
画層1
 62
     0
370
    -2
100
AcDbLine
 10
104.0499999999999
 20
217.9799999999999
 30
0.0
 11
107.05
 21
217.9799999999999
 31
0.0
  0
INSERT
  5
326
330
320
100
AcDbEntity
  8
画層1
 62
     0
370
    -2
100
AcDbBlockReference
  2
_OPEN30
 10
104.0499999999999
 20
217.9799999999999
 30
0.0
 41
1.5
 42
1.5
 43
1.5
  0
INSERT
  5
327
330
320
100
AcDbEntity
  8
画層1
 62
     0
370
    -2
100
AcDbBlockReference
  2
_OPEN30
 10
107.05
 20
217.9799999999999
 30
0.0
 41
1.5
 42
1.5
 43
1.5
 50
180.0
  0
MTEXT
  5
328
330
320
100
AcDbEntity
  8
画層1
 62
     0
100
AcDbMText
 10
105.5499999999999
 20
219.85
 30
0.0
 40
2.5
 41
0.0
 71
     5
 72
     1
  1
\A1;6
  7
STYLE1
 73
     1
 44
1.0
  0
POINT
  5
329
330
320
100
AcDbEntity
  8
DEFPOINTS
 62
     0
100
AcDbPoint
 10
104.0499999999999
 20
210.48
 30
0.0
  0
POINT
  5
32A
330
320
100
AcDbEntity
  8
DEFPOINTS
 62
     0
100
AcDbPoint
 10
107.05
 20
210.48
 30
0.0
  0
POINT
  5
32B
330
320
100
AcDbEntity
  8
DEFPOINTS
 62
     0
100
AcDbPoint
 10
107.05
 20
217.9799999999999
 30
0.0
  0
ENDBLK
  5
32D
330
320
100
AcDbEntity
  8
0
 62
     3
100
AcDbBlockEnd
  0
BLOCK
  5
1D1
330
1C7
100
AcDbEntity
  8
0
 62
     3
100
AcDbBlockBegin
  2
*D10
 70
     1
 10
0.0
 20
0.0
 30
0.0
  3
*D10
  1

  0
LINE
  5
1C8
330
1C7
100
AcDbEntity
  8
画層1
 62
     0
370
    -2
100
AcDbLine
 10
98.3
 20
206.0999999999999
 30
0.0
 11
98.3
 21
233.25
 31
0.0
  0
LINE
  5
1C9
330
1C7
100
AcDbEntity
  8
画層1
 62
     0
370
    -2
100
AcDbLine
 10
162.8
 20
206.0999999999999
 30
0.0
 11
162.8
 21
233.25
 31
0.0
  0
LINE
  5
1CA
330
1C7
100
AcDbEntity
  8
画層1
 62
     0
370
    -2
100
AcDbLine
 10
99.8
 20
232.0
 30
0.0
 11
161.3
 21
232.0
 31
0.0
  0
INSERT
  5
1CB
330
1C7
100
AcDbEntity
  8
画層1
 62
     0
370
    -2
100
AcDbBlockReference
  2
_OPEN30
 10
98.3
 20
232.0
 30
0.0
 41
1.5
 42
1.5
 43
1.5
 50
180.0
  0
INSERT
  5
1CC
330
1C7
100
AcDbEntity
  8
画層1
 62
     0
370
    -2
100
AcDbBlockReference
  2
_OPEN30
 10
162.8
 20
232.0
 30
0.0
 41
1.5
 42
1.5
 43
1.5
  0
MTEXT
  5
1CD
330
1C7
100
AcDbEntity
  8
画層1
 62
     0
100
AcDbMText
 10
130.55
 20
233.8799999999999
 30
0.0
 40
2.5
 41
0.0
 71
     5
 72
     1
  1
\A1;129
  7
STYLE1
 73
     1
 44
1.0
  0
POINT
  5
1CE
330
1C7
100
AcDbEntity
  8
DEFPOINTS
 62
     0
100
AcDbPoint
 10
98.3
 20
205.4799999999999
 30
0.0
  0
POINT
  5
1CF
330
1C7
100
AcDbEntity
  8
DEFPOINTS
 62
     0
100
AcDbPoint
 10
162.8
 20
205.4799999999999
 30
0.0
  0
POINT
  5
1D0
330
1C7
100
AcDbEntity
  8
DEFPOINTS
 62
     0
100
AcDbPoint
 10
162.8
 20
232.0
 30
0.0
  0
ENDBLK
  5
1D2
330
1C7
100
AcDbEntity
  8
0
 62
     3
100
AcDbBlockEnd
  0
BLOCK
  5
C1
330
B5
100
AcDbEntity
  8
0
 62
     3
100
AcDbBlockBegin
  2
*D11
 70
     1
 10
0.0
 20
0.0
 30
0.0
  3
*D11
  1

  0
LINE
  5
B6
330
B5
100
AcDbEntity
  8
画層1
 62
     0
370
    -2
100
AcDbLine
 10
104.0
 20
99.84999999999999
 30
0.0
 11
104.0
 21
88.75
 31
0.0
  0
LINE
  5
B7
330
B5
100
AcDbEntity
  8
画層1
 62
     0
370
    -2
100
AcDbLine
 10
107.0
 20
99.84999999999999
 30
0.0
 11
107.0
 21
88.75
 31
0.0
  0
LINE
  5
B8
330
B5
100
AcDbEntity
  8
画層1
 62
     0
370
    -2
100
AcDbLine
 10
108.4999999999999
 20
90.0
 30
0.0
 11
110.0
 21
90.0
 31
0.0
  0
LINE
  5
B9
330
B5
100
AcDbEntity
  8
画層1
 62
     0
370
    -2
100
AcDbLine
 10
102.4999999999999
 20
90.0
 30
0.0
 11
82.18000000000001
 21
90.0
 31
0.0
  0
LINE
  5
BA
330
B5
100
AcDbEntity
  8
画層1
 62
     0
370
    -2
100
AcDbLine
 10
107.0
 20
90.0
 30
0.0
 11
104.0
 21
90.0
 31
0.0
  0
INSERT
  5
BB
330
B5
100
AcDbEntity
  8
画層1
 62
     0
370
    -2
100
AcDbBlockReference
  2
_OPEN30
 10
107.0
 20
90.0
 30
0.0
 41
1.5
 42
1.5
 43
1.5
 50
180.0
  0
INSERT
  5
BC
330
B5
100
AcDbEntity
  8
画層1
 62
     0
370
    -2
100
AcDbBlockReference
  2
_OPEN30
 10
104.0
 20
90.0
 30
0.0
 41
1.5
 42
1.5
 43
1.5
  0
MTEXT
  5
BD
330
B5
100
AcDbEntity
  8
画層1
 62
     0
100
AcDbMText
 10
91.59
 20
92.04
 30
0.0
 40
2.5
 41
0.0
 71
     5
 72
     1
  1
\A1;2-6キリカキ
  7
STYLE1
 73
     1
 44
1.0
  0
POINT
  5
BE
330
B5
100
AcDbEntity
  8
DEFPOINTS
 62
     0
100
AcDbPoint
 10
104.0
 20
100.48
 30
0.0
  0
POINT
  5
BF
330
B5
100
AcDbEntity
  8
DEFPOINTS
 62
     0
100
AcDbPoint
 10
107.0
 20
100.48
 30
0.0
  0
POINT
  5
C0
330
B5
100
AcDbEntity
  8
DEFPOINTS
 62
     0
100
AcDbPoint
 10
107.0
 20
90.0
 30
0.0
  0
ENDBLK
  5
C2
330
B5
100
AcDbEntity
  8
0
 62
     3
100
AcDbBlockEnd
  0
BLOCK
  5
8E
330
84
100
AcDbEntity
  8
0
 62
     3
100
AcDbBlockBegin
  2
*D12
 70
     1
 10
0.0
 20
0.0
 30
0.0
  3
*D12
  1

  0
LINE
  5
85
330
84
100
AcDbEntity
  8
画層1
 62
     0
370
    -2
100
AcDbLine
 10
118.7999999999999
 20
107.0999999999999
 30
0.0
 11
118.7999999999999
 21
81.75
 31
0.0
  0
LINE
  5
86
330
84
100
AcDbEntity
  8
画層1
 62
     0
370
    -2
100
AcDbLine
 10
145.3
 20
89.38
 30
0.0
 11
145.3
 21
81.75
 31
0.0
  0
LINE
  5
87
330
84
100
AcDbEntity
  8
画層1
 62
     0
370
    -2
100
AcDbLine
 10
120.3
 20
83.0
 30
0.0
 11
143.8
 21
83.0
 31
0.0
  0
INSERT
  5
88
330
84
100
AcDbEntity
  8
画層1
 62
     0
370
    -2
100
AcDbBlockReference
  2
_OPEN30
 10
118.7999999999999
 20
83.0
 30
0.0
 41
1.5
 42
1.5
 43
1.5
 50
180.0
  0
INSERT
  5
89
330
84
100
AcDbEntity
  8
画層1
 62
     0
370
    -2
100
AcDbBlockReference
  2
_OPEN30
 10
145.3
 20
83.0
 30
0.0
 41
1.5
 42
1.5
 43
1.5
  0
MTEXT
  5
8A
330
84
100
AcDbEntity
  8
画層1
 62
     0
100
AcDbMText
 10
132.05
 20
84.87999999999999
 30
0.0
 40
2.5
 41
0.0
 71
     5
 72
     1
  1
\A1;53
  7
STYLE1
 73
     1
 44
1.0
  0
POINT
  5
8B
330
84
100
AcDbEntity
  8
DEFPOINTS
 62
     0
100
AcDbPoint
 10
118.7999999999999
 20
107.73
 30
0.0
  0
POINT
  5
8C
330
84
100
AcDbEntity
  8
DEFPOINTS
 62
     0
100
AcDbPoint
 10
145.3
 20
90.0
 30
0.0
  0
POINT
  5
8D
330
84
100
AcDbEntity
  8
DEFPOINTS
 62
     0
100
AcDbPoint
 10
145.3
 20
83.0
 30
0.0
  0
ENDBLK
  5
8F
330
84
100
AcDbEntity
  8
0
 62
     3
100
AcDbBlockEnd
  0
BLOCK
  5
80
330
76
100
AcDbEntity
  8
0
 62
     1
100
AcDbBlockBegin
  2
*D13
 70
     1
 10
0.0
 20
0.0
 30
0.0
  3
*D13
  1

  0
LINE
  5
77
330
76
100
AcDbEntity
  8
画層1
 62
     0
370
    -2
100
AcDbLine
 10
140.3
 20
104.8499999999999
 30
0.0
 11
140.3
 21
88.75
 31
0.0
  0
LINE
  5
78
330
76
100
AcDbEntity
  8
画層1
 62
     0
370
    -2
100
AcDbLine
 10
150.3
 20
104.8499999999999
 30
0.0
 11
150.3
 21
88.75
 31
0.0
  0
LINE
  5
79
330
76
100
AcDbEntity
  8
画層1
 62
     0
370
    -2
100
AcDbLine
 10
141.8
 20
90.0
 30
0.0
 11
148.8
 21
90.0
 31
0.0
  0
INSERT
  5
7A
330
76
100
AcDbEntity
  8
画層1
 62
     0
370
    -2
100
AcDbBlockReference
  2
_OPEN30
 10
140.3
 20
90.0
 30
0.0
 41
1.5
 42
1.5
 43
1.5
 50
180.0
  0
INSERT
  5
7B
330
76
100
AcDbEntity
  8
画層1
 62
     0
370
    -2
100
AcDbBlockReference
  2
_OPEN30
 10
150.3
 20
90.0
 30
0.0
 41
1.5
 42
1.5
 43
1.5
  0
MTEXT
  5
7C
330
76
100
AcDbEntity
  8
画層1
 62
     0
100
AcDbMText
 10
145.3
 20
91.88
 30
0.0
 40
2.5
 41
0.0
 71
     5
 72
     1
  1
\A1;20
  7
STYLE1
 73
     1
 44
1.0
  0
POINT
  5
7D
330
76
100
AcDbEntity
  8
DEFPOINTS
 62
     0
100
AcDbPoint
 10
140.3
 20
105.4799999999999
 30
0.0
  0
POINT
  5
7E
330
76
100
AcDbEntity
  8
DEFPOINTS
 62
     0
100
AcDbPoint
 10
150.3
 20
105.4799999999999
 30
0.0
  0
POINT
  5
7F
330
76
100
AcDbEntity
  8
DEFPOINTS
 62
     0
100
AcDbPoint
 10
150.3
 20
90.0
 30
0.0
  0
ENDBLK
  5
81
330
76
100
AcDbEntity
  8
0
 62
     1
100
AcDbBlockEnd
  0
BLOCK
  5
190
330
186
100
AcDbEntity
  8
0
 62
     1
100
AcDbBlockBegin
  2
*D14
 70
     1
 10
0.0
 20
0.0
 30
0.0
  3
*D14
  1

  0
LINE
  5
187
330
186
100
AcDbEntity
  8
画層1
 62
     0
370
    -2
100
AcDbLine
 10
145.3
 20
83.62999999999999
 30
0.0
 11
145.3
 21
84.25
 31
0.0
  0
LINE
  5
188
330
186
100
AcDbEntity
  8
画層1
 62
     0
370
    -2
100
AcDbLine
 10
162.8
 20
104.8499999999999
 30
0.0
 11
162.8
 21
81.75
 31
0.0
  0
LINE
  5
189
330
186
100
AcDbEntity
  8
画層1
 62
     0
370
    -2
100
AcDbLine
 10
146.8
 20
83.0
 30
0.0
 11
161.3
 21
83.0
 31
0.0
  0
INSERT
  5
18A
330
186
100
AcDbEntity
  8
画層1
 62
     0
370
    -2
100
AcDbBlockReference
  2
_OPEN30
 10
145.3
 20
83.0
 30
0.0
 41
1.5
 42
1.5
 43
1.5
 50
180.0
  0
INSERT
  5
18B
330
186
100
AcDbEntity
  8
画層1
 62
     0
370
    -2
100
AcDbBlockReference
  2
_OPEN30
 10
162.8
 20
83.0
 30
0.0
 41
1.5
 42
1.5
 43
1.5
  0
MTEXT
  5
18C
330
186
100
AcDbEntity
  8
画層1
 62
     0
100
AcDbMText
 10
154.05
 20
85.08
 30
0.0
 40
2.5
 41
0.0
 71
     5
 72
     1
  1
\A1;(35)
  7
STYLE1
 73
     1
 44
1.0
  0
POINT
  5
18D
330
186
100
AcDbEntity
  8
DEFPOINTS
 62
     0
100
AcDbPoint
 10
145.3
 20
83.0
 30
0.0
  0
POINT
  5
18E
330
186
100
AcDbEntity
  8
DEFPOINTS
 62
     0
100
AcDbPoint
 10
162.8
 20
105.4799999999999
 30
0.0
  0
POINT
  5
18F
330
186
100
AcDbEntity
  8
DEFPOINTS
 62
     0
100
AcDbPoint
 10
162.8
 20
83.0
 30
0.0
  0
ENDBLK
  5
191
330
186
100
AcDbEntity
  8
0
 62
     1
100
AcDbBlockEnd
  0
BLOCK
  5
73
330
69
100
AcDbEntity
  8
0
 62
     1
100
AcDbBlockBegin
  2
*D15
 70
     1
 10
0.0
 20
0.0
 30
0.0
  3
*D15
  1

  0
LINE
  5
6A
330
69
100
AcDbEntity
  8
画層1
 62
     0
370
    -2
100
AcDbLine
 10
163.05
 20
105.4799999999999
 30
0.0
 11
171.55
 21
105.4799999999999
 31
0.0
  0
LINE
  5
6B
330
69
100
AcDbEntity
  8
画層1
 62
     0
370
    -2
100
AcDbLine
 10
133.93
 20
120.48
 30
0.0
 11
171.55
 21
120.48
 31
0.0
  0
LINE
  5
6C
330
69
100
AcDbEntity
  8
画層1
 62
     0
370
    -2
100
AcDbLine
 10
170.3
 20
106.98
 30
0.0
 11
170.3
 21
118.9799999999999
 31
0.0
  0
INSERT
  5
6D
330
69
100
AcDbEntity
  8
画層1
 62
     0
370
    -2
100
AcDbBlockReference
  2
_OPEN30
 10
170.3
 20
105.4799999999999
 30
0.0
 41
1.5
 42
1.5
 43
1.5
 50
270.0
  0
INSERT
  5
6E
330
69
100
AcDbEntity
  8
画層1
 62
     0
370
    -2
100
AcDbBlockReference
  2
_OPEN30
 10
170.3
 20
120.48
 30
0.0
 41
1.5
 42
1.5
 43
1.5
 50
90.0
  0
MTEXT
  5
6F
330
69
100
AcDbEntity
  8
画層1
 62
     0
100
AcDbMText
 10
168.43
 20
112.98
 30
0.0
 40
2.5
 41
0.0
 71
     5
 72
     1
  1
\A1;30
  7
STYLE1
 11
0.0
 21
1.0
 31
0.0
 73
     1
 44
1.0
  0
POINT
  5
70
330
69
100
AcDbEntity
  8
DEFPOINTS
 62
     0
100
AcDbPoint
 10
162.43
 20
105.4799999999999
 30
0.0
  0
POINT
  5
71
330
69
100
AcDbEntity
  8
DEFPOINTS
 62
     0
100
AcDbPoint
 10
133.3
 20
120.48
 30
0.0
  0
POINT
  5
72
330
69
100
AcDbEntity
  8
DEFPOINTS
 62
     0
100
AcDbPoint
 10
170.3
 20
120.48
 30
0.0
  0
ENDBLK
  5
74
330
69
100
AcDbEntity
  8
0
 62
     1
100
AcDbBlockEnd
  0
BLOCK
  5
182
330
176
100
AcDbEntity
  8
0
 62
     1
100
AcDbBlockBegin
  2
*D16
 70
     1
 10
0.0
 20
0.0
 30
0.0
  3
*D16
  1

  0
LINE
  5
177
330
176
100
AcDbEntity
  8
画層1
 62
     0
370
    -2
100
AcDbLine
 10
159.3899999999999
 20
100.48
 30
0.0
 11
178.55
 21
100.48
 31
0.0
  0
LINE
  5
178
330
176
100
AcDbEntity
  8
画層1
 62
     0
370
    -2
100
AcDbLine
 10
161.73
 20
103.48
 30
0.0
 11
178.55
 21
103.48
 31
0.0
  0
LINE
  5
179
330
176
100
AcDbEntity
  8
画層1
 62
     0
370
    -2
100
AcDbLine
 10
177.3
 20
98.98000000000001
 30
0.0
 11
177.3
 21
97.48000000000001
 31
0.0
  0
LINE
  5
17A
330
176
100
AcDbEntity
  8
画層1
 62
     0
370
    -2
100
AcDbLine
 10
177.3
 20
104.98
 30
0.0
 11
177.3
 21
106.4799999999999
 31
0.0
  0
LINE
  5
17B
330
176
100
AcDbEntity
  8
画層1
 62
     0
370
    -2
100
AcDbLine
 10
177.3
 20
100.48
 30
0.0
 11
177.3
 21
103.48
 31
0.0
  0
INSERT
  5
17C
330
176
100
AcDbEntity
  8
画層1
 62
     0
370
    -2
100
AcDbBlockReference
  2
_OPEN30
 10
177.3
 20
100.48
 30
0.0
 41
1.5
 42
1.5
 43
1.5
 50
90.0
  0
INSERT
  5
17D
330
176
100
AcDbEntity
  8
画層1
 62
     0
370
    -2
100
AcDbBlockReference
  2
_OPEN30
 10
177.3
 20
103.48
 30
0.0
 41
1.5
 42
1.5
 43
1.5
 50
270.0
  0
MTEXT
  5
17E
330
176
100
AcDbEntity
  8
画層1
 62
     0
100
AcDbMText
 10
175.43
 20
101.98
 30
0.0
 40
2.5
 41
0.0
 71
     5
 72
     1
  1
\A1;6
  7
STYLE1
 11
0.0
 21
1.0
 31
0.0
 73
     1
 44
1.0
  0
POINT
  5
17F
330
176
100
AcDbEntity
  8
DEFPOINTS
 62
     0
100
AcDbPoint
 10
158.77
 20
100.48
 30
0.0
  0
POINT
  5
180
330
176
100
AcDbEntity
  8
DEFPOINTS
 62
     0
100
AcDbPoint
 10
161.0999999999999
 20
103.48
 30
0.0
  0
POINT
  5
181
330
176
100
AcDbEntity
  8
DEFPOINTS
 62
     0
100
AcDbPoint
 10
177.3
 20
103.48
 30
0.0
  0
ENDBLK
  5
183
330
176
100
AcDbEntity
  8
0
 62
     1
100
AcDbBlockEnd
  0
BLOCK
  5
3E
330
33
100
AcDbEntity
  8
0
 62
     1
100
AcDbBlockBegin
  2
*D17
 70
     1
 10
0.0
 20
0.0
 30
0.0
  3
*D17
  1

  0
LINE
  5
34
330
33
100
AcDbEntity
  8
画層1
 62
     0
370
    -2
100
AcDbLine
 10
157.7299999999999
 20
103.48
 30
0.0
 11
178.55
 21
103.48
 31
0.0
  0
LINE
  5
35
330
33
100
AcDbEntity
  8
画層1
 62
     0
370
    -2
100
AcDbLine
 10
157.7299999999999
 20
207.4799999999999
 30
0.0
 11
178.55
 21
207.4799999999999
 31
0.0
  0
LINE
  5
36
330
33
100
AcDbEntity
  8
画層1
 62
     0
370
    -2
100
AcDbLine
 10
177.3
 20
104.98
 30
0.0
 11
177.3
 21
205.98
 31
0.0
  0
INSERT
  5
37
330
33
100
AcDbEntity
  8
画層1
 62
     0
370
    -2
100
AcDbBlockReference
  2
_OPEN30
 10
177.3
 20
103.48
 30
0.0
 41
1.5
 42
1.5
 43
1.5
 50
270.0
  0
INSERT
  5
38
330
33
100
AcDbEntity
  8
画層1
 62
     0
370
    -2
100
AcDbBlockReference
  2
_OPEN30
 10
177.3
 20
207.4799999999999
 30
0.0
 41
1.5
 42
1.5
 43
1.5
 50
90.0
  0
MTEXT
  5
39
330
33
100
AcDbEntity
  8
画層1
 62
     0
100
AcDbMText
 10
175.43
 20
155.48
 30
0.0
 40
2.5
 41
0.0
 71
     5
 72
     1
  1
\A1;208
  7
STYLE1
 11
0.0
 21
1.0
 31
0.0
 73
     1
 44
1.0
  0
POINT
  5
3A
330
33
100
AcDbEntity
  8
DEFPOINTS
 62
     0
100
AcDbPoint
 10
157.0999999999999
 20
103.48
 30
0.0
  0
POINT
  5
3C
330
33
100
AcDbEntity
  8
DEFPOINTS
 62
     0
100
AcDbPoint
 10
157.0999999999999
 20
207.4799999999999
 30
0.0
  0
POINT
  5
3D
330
33
100
AcDbEntity
  8
DEFPOINTS
 62
     0
100
AcDbPoint
 10
177.3
 20
207.4799999999999
 30
0.0
  0
ENDBLK
  5
3F
330
33
100
AcDbEntity
  8
0
 62
     1
100
AcDbBlockEnd
  0
BLOCK
  5
384
330
378
100
AcDbEntity
  8
0
 62
     1
100
AcDbBlockBegin
  2
*D18
 70
     1
 10
0.0
 20
0.0
 30
0.0
  3
*D18
  1

  0
LINE
  5
379
330
378
100
AcDbEntity
  8
画層1
 62
     0
370
    -2
100
AcDbLine
 10
157.7299999999999
 20
207.4799999999999
 30
0.0
 11
178.55
 21
207.4799999999999
 31
0.0
  0
LINE
  5
37A
330
378
100
AcDbEntity
  8
画層1
 62
     0
370
    -2
100
AcDbLine
 10
159.7199999999999
 20
210.48
 30
0.0
 11
178.55
 21
210.48
 31
0.0
  0
LINE
  5
37B
330
378
100
AcDbEntity
  8
画層1
 62
     0
370
    -2
100
AcDbLine
 10
177.3
 20
205.98
 30
0.0
 11
177.3
 21
204.4799999999999
 31
0.0
  0
LINE
  5
37C
330
378
100
AcDbEntity
  8
画層1
 62
     0
370
    -2
100
AcDbLine
 10
177.3
 20
211.98
 30
0.0
 11
177.3
 21
213.4799999999999
 31
0.0
  0
LINE
  5
37D
330
378
100
AcDbEntity
  8
画層1
 62
     0
370
    -2
100
AcDbLine
 10
177.3
 20
207.4799999999999
 30
0.0
 11
177.3
 21
210.48
 31
0.0
  0
INSERT
  5
37E
330
378
100
AcDbEntity
  8
画層1
 62
     0
370
    -2
100
AcDbBlockReference
  2
_OPEN30
 10
177.3
 20
207.4799999999999
 30
0.0
 41
1.5
 42
1.5
 43
1.5
 50
90.0
  0
INSERT
  5
37F
330
378
100
AcDbEntity
  8
画層1
 62
     0
370
    -2
100
AcDbBlockReference
  2
_OPEN30
 10
177.3
 20
210.48
 30
0.0
 41
1.5
 42
1.5
 43
1.5
 50
270.0
  0
MTEXT
  5
380
330
378
100
AcDbEntity
  8
画層1
 62
     0
100
AcDbMText
 10
175.43
 20
208.9799999999999
 30
0.0
 40
2.5
 41
0.0
 71
     5
 72
     1
  1
\A1;6
  7
STYLE1
 11
0.0
 21
1.0
 31
0.0
 73
     1
 44
1.0
  0
POINT
  5
381
330
378
100
AcDbEntity
  8
DEFPOINTS
 62
     0
100
AcDbPoint
 10
157.0999999999999
 20
207.4799999999999
 30
0.0
  0
POINT
  5
382
330
378
100
AcDbEntity
  8
DEFPOINTS
 62
     0
100
AcDbPoint
 10
159.1
 20
210.48
 30
0.0
  0
POINT
  5
383
330
378
100
AcDbEntity
  8
DEFPOINTS
 62
     0
100
AcDbPoint
 10
177.3
 20
210.48
 30
0.0
  0
ENDBLK
  5
385
330
378
100
AcDbEntity
  8
0
 62
     1
100
AcDbBlockEnd
  0
BLOCK
  5
4C4
330
4BA
100
AcDbEntity
  8
0
 62
     1
100
AcDbBlockBegin
  2
*D19
 70
     1
 10
0.0
 20
0.0
 30
0.0
  3
*D19
  1

  0
LINE
  5
4BB
330
4BA
100
AcDbEntity
  8
画層1
 62
     0
370
    -2
100
AcDbLine
 10
341.9
 20
211.0999999999999
 30
0.0
 11
341.9
 21
226.2299999999999
 31
0.0
  0
LINE
  5
4BC
330
4BA
100
AcDbEntity
  8
画層1
 62
     0
370
    -2
100
AcDbLine
 10
229.4
 20
203.9
 30
0.0
 11
229.4
 21
226.2299999999999
 31
0.0
  0
LINE
  5
4BD
330
4BA
100
AcDbEntity
  8
画層1
 62
     0
370
    -2
100
AcDbLine
 10
340.3999999999999
 20
224.98
 30
0.0
 11
230.9
 21
224.98
 31
0.0
  0
INSERT
  5
4BE
330
4BA
100
AcDbEntity
  8
画層1
 62
     0
370
    -2
100
AcDbBlockReference
  2
_OPEN30
 10
341.9
 20
224.98
 30
0.0
 41
1.5
 42
1.5
 43
1.5
  0
INSERT
  5
4BF
330
4BA
100
AcDbEntity
  8
画層1
 62
     0
370
    -2
100
AcDbBlockReference
  2
_OPEN30
 10
229.4
 20
224.98
 30
0.0
 41
1.5
 42
1.5
 43
1.5
 50
180.0
  0
MTEXT
  5
4C0
330
4BA
100
AcDbEntity
  8
画層1
 62
     0
100
AcDbMText
 10
285.65
 20
226.8499999999999
 30
0.0
 40
2.5
 41
0.0
 71
     5
 72
     1
  1
\A1;225
  7
STYLE1
 73
     1
 44
1.0
  0
POINT
  5
4C1
330
4BA
100
AcDbEntity
  8
DEFPOINTS
 62
     0
100
AcDbPoint
 10
341.9
 20
210.48
 30
0.0
  0
POINT
  5
4C2
330
4BA
100
AcDbEntity
  8
DEFPOINTS
 62
     0
100
AcDbPoint
 10
229.4
 20
203.2799999999999
 30
0.0
  0
POINT
  5
4C3
330
4BA
100
AcDbEntity
  8
DEFPOINTS
 62
     0
100
AcDbPoint
 10
229.4
 20
224.98
 30
0.0
  0
ENDBLK
  5
4C5
330
4BA
100
AcDbEntity
  8
0
 62
     1
100
AcDbBlockEnd
  0
BLOCK
  5
4B7
330
4AD
100
AcDbEntity
  8
0
 62
     1
100
AcDbBlockBegin
  2
*D20
 70
     1
 10
0.0
 20
0.0
 30
0.0
  3
*D20
  1

  0
LINE
  5
4AE
330
4AD
100
AcDbEntity
  8
画層1
 62
     0
370
    -2
100
AcDbLine
 10
341.9
 20
211.0999999999999
 30
0.0
 11
341.9
 21
219.2299999999999
 31
0.0
  0
LINE
  5
4AF
330
4AD
100
AcDbEntity
  8
画層1
 62
     0
370
    -2
100
AcDbLine
 10
241.4
 20
186.5399999999999
 30
0.0
 11
241.4
 21
219.2299999999999
 31
0.0
  0
LINE
  5
4B0
330
4AD
100
AcDbEntity
  8
画層1
 62
     0
370
    -2
100
AcDbLine
 10
340.3999999999999
 20
217.9799999999999
 30
0.0
 11
242.9
 21
217.9799999999999
 31
0.0
  0
INSERT
  5
4B1
330
4AD
100
AcDbEntity
  8
画層1
 62
     0
370
    -2
100
AcDbBlockReference
  2
_OPEN30
 10
341.9
 20
217.9799999999999
 30
0.0
 41
1.5
 42
1.5
 43
1.5
  0
INSERT
  5
4B2
330
4AD
100
AcDbEntity
  8
画層1
 62
     0
370
    -2
100
AcDbBlockReference
  2
_OPEN30
 10
241.4
 20
217.9799999999999
 30
0.0
 41
1.5
 42
1.5
 43
1.5
 50
180.0
  0
MTEXT
  5
4B3
330
4AD
100
AcDbEntity
  8
画層1
 62
     0
100
AcDbMText
 10
291.6499999999999
 20
220.06
 30
0.0
 40
2.5
 41
0.0
 71
     5
 72
     1
  1
\A1;(201)
  7
STYLE1
 73
     1
 44
1.0
  0
POINT
  5
4B4
330
4AD
100
AcDbEntity
  8
DEFPOINTS
 62
     0
100
AcDbPoint
 10
341.9
 20
210.48
 30
0.0
  0
POINT
  5
4B5
330
4AD
100
AcDbEntity
  8
DEFPOINTS
 62
     0
100
AcDbPoint
 10
241.4
 20
185.9199999999999
 30
0.0
  0
POINT
  5
4B6
330
4AD
100
AcDbEntity
  8
DEFPOINTS
 62
     0
100
AcDbPoint
 10
241.4
 20
217.9799999999999
 30
0.0
  0
ENDBLK
  5
4B8
330
4AD
100
AcDbEntity
  8
0
 62
     1
100
AcDbBlockEnd
  0
BLOCK
  5
4D6
330
4CC
100
AcDbEntity
  8
0
 62
     1
100
AcDbBlockBegin
  2
*D21
 70
     1
 10
0.0
 20
0.0
 30
0.0
  3
*D21
  1

  0
LINE
  5
4CD
330
4CC
100
AcDbEntity
  8
画層1
 62
     0
370
    -2
100
AcDbLine
 10
241.4
 20
186.5399999999999
 30
0.0
 11
241.4
 21
219.2299999999999
 31
0.0
  0
LINE
  5
4CE
330
4CC
100
AcDbEntity
  8
画層1
 62
     0
370
    -2
100
AcDbLine
 10
235.8999999999999
 20
186.5399999999999
 30
0.0
 11
235.8999999999999
 21
219.2299999999999
 31
0.0
  0
LINE
  5
4CF
330
4CC
100
AcDbEntity
  8
画層1
 62
     0
370
    -2
100
AcDbLine
 10
239.9
 20
217.9799999999999
 30
0.0
 11
237.4
 21
217.9799999999999
 31
0.0
  0
INSERT
  5
4D0
330
4CC
100
AcDbEntity
  8
画層1
 62
     0
370
    -2
100
AcDbBlockReference
  2
_OPEN30
 10
241.4
 20
217.9799999999999
 30
0.0
 41
1.5
 42
1.5
 43
1.5
  0
INSERT
  5
4D1
330
4CC
100
AcDbEntity
  8
画層1
 62
     0
370
    -2
100
AcDbBlockReference
  2
_OPEN30
 10
235.8999999999999
 20
217.9799999999999
 30
0.0
 41
1.5
 42
1.5
 43
1.5
 50
180.0
  0
MTEXT
  5
4D2
330
4CC
100
AcDbEntity
  8
画層1
 62
     0
100
AcDbMText
 10
238.65
 20
219.85
 30
0.0
 40
2.5
 41
0.0
 71
     5
 72
     1
  1
\A1;11
  7
STYLE1
 73
     1
 44
1.0
  0
POINT
  5
4D3
330
4CC
100
AcDbEntity
  8
DEFPOINTS
 62
     0
100
AcDbPoint
 10
241.4
 20
185.9199999999999
 30
0.0
  0
POINT
  5
4D4
330
4CC
100
AcDbEntity
  8
DEFPOINTS
 62
     0
100
AcDbPoint
 10
235.8999999999999
 20
185.9199999999999
 30
0.0
  0
POINT
  5
4D5
330
4CC
100
AcDbEntity
  8
DEFPOINTS
 62
     0
100
AcDbPoint
 10
235.8999999999999
 20
217.9799999999999
 30
0.0
  0
ENDBLK
  5
4D7
330
4CC
100
AcDbEntity
  8
0
 62
     1
100
AcDbBlockEnd
  0
BLOCK
  5
3E3
330
3D9
100
AcDbEntity
  8
0
 62
     1
100
AcDbBlockBegin
  2
*D22
 70
     1
 10
0.0
 20
0.0
 30
0.0
  3
*D22
  1

  0
LINE
  5
3DA
330
3D9
100
AcDbEntity
  8
画層1
 62
     0
370
    -2
100
AcDbLine
 10
341.9
 20
99.84999999999999
 30
0.0
 11
341.9
 21
88.75
 31
0.0
  0
LINE
  5
3DB
330
3D9
100
AcDbEntity
  8
画層1
 62
     0
370
    -2
100
AcDbLine
 10
267.6499999999999
 20
104.8499999999999
 30
0.0
 11
267.6499999999999
 21
88.75
 31
0.0
  0
LINE
  5
3DC
330
3D9
100
AcDbEntity
  8
画層1
 62
     0
370
    -2
100
AcDbLine
 10
340.3999999999999
 20
90.0
 30
0.0
 11
269.15
 21
90.0
 31
0.0
  0
INSERT
  5
3DD
330
3D9
100
AcDbEntity
  8
画層1
 62
     0
370
    -2
100
AcDbBlockReference
  2
_OPEN30
 10
341.9
 20
90.0
 30
0.0
 41
1.5
 42
1.5
 43
1.5
  0
INSERT
  5
3DE
330
3D9
100
AcDbEntity
  8
画層1
 62
     0
370
    -2
100
AcDbBlockReference
  2
_OPEN30
 10
267.6499999999999
 20
90.0
 30
0.0
 41
1.5
 42
1.5
 43
1.5
 50
180.0
  0
MTEXT
  5
3DF
330
3D9
100
AcDbEntity
  8
画層1
 62
     0
100
AcDbMText
 10
304.7799999999999
 20
92.08
 30
0.0
 40
2.5
 41
0.0
 71
     5
 72
     1
  1
\A1;(148.5)
  7
STYLE1
 73
     1
 44
1.0
  0
POINT
  5
3E0
330
3D9
100
AcDbEntity
  8
DEFPOINTS
 62
     0
100
AcDbPoint
 10
341.9
 20
100.48
 30
0.0
  0
POINT
  5
3E1
330
3D9
100
AcDbEntity
  8
DEFPOINTS
 62
     0
100
AcDbPoint
 10
267.6499999999999
 20
105.4799999999999
 30
0.0
  0
POINT
  5
3E2
330
3D9
100
AcDbEntity
  8
DEFPOINTS
 62
     0
100
AcDbPoint
 10
267.6499999999999
 20
90.0
 30
0.0
  0
ENDBLK
  5
3E4
330
3D9
100
AcDbEntity
  8
0
 62
     1
100
AcDbBlockEnd
  0
BLOCK
  5
402
330
3F8
100
AcDbEntity
  8
0
 62
     1
100
AcDbBlockBegin
  2
*D23
 70
     1
 10
0.0
 20
0.0
 30
0.0
  3
*D23
  1

  0
LINE
  5
3F9
330
3F8
100
AcDbEntity
  8
画層1
 62
     0
370
    -2
100
AcDbLine
 10
230.18
 20
105.4799999999999
 30
0.0
 11
221.75
 21
105.4799999999999
 31
0.0
  0
LINE
  5
3FA
330
3F8
100
AcDbEntity
  8
画層1
 62
     0
370
    -2
100
AcDbLine
 10
250.28
 20
97.48000000000001
 30
0.0
 11
221.75
 21
97.48000000000001
 31
0.0
  0
LINE
  5
3FB
330
3F8
100
AcDbEntity
  8
画層1
 62
     0
370
    -2
100
AcDbLine
 10
223.0
 20
103.98
 30
0.0
 11
223.0
 21
98.98000000000001
 31
0.0
  0
INSERT
  5
3FC
330
3F8
100
AcDbEntity
  8
画層1
 62
     0
370
    -2
100
AcDbBlockReference
  2
_OPEN30
 10
223.0
 20
105.4799999999999
 30
0.0
 41
1.5
 42
1.5
 43
1.5
 50
90.0
  0
INSERT
  5
3FD
330
3F8
100
AcDbEntity
  8
画層1
 62
     0
370
    -2
100
AcDbBlockReference
  2
_OPEN30
 10
223.0
 20
97.48000000000001
 30
0.0
 41
1.5
 42
1.5
 43
1.5
 50
270.0
  0
MTEXT
  5
3FE
330
3F8
100
AcDbEntity
  8
画層1
 62
     0
100
AcDbMText
 10
221.13
 20
101.48
 30
0.0
 40
2.5
 41
0.0
 71
     5
 72
     1
  1
\A1;16
  7
STYLE1
 11
0.0
 21
1.0
 31
0.0
 73
     1
 44
1.0
  0
POINT
  5
3FF
330
3F8
100
AcDbEntity
  8
DEFPOINTS
 62
     0
100
AcDbPoint
 10
230.8
 20
105.4799999999999
 30
0.0
  0
POINT
  5
400
330
3F8
100
AcDbEntity
  8
DEFPOINTS
 62
     0
100
AcDbPoint
 10
250.8999999999999
 20
97.48000000000001
 30
0.0
  0
POINT
  5
401
330
3F8
100
AcDbEntity
  8
DEFPOINTS
 62
     0
100
AcDbPoint
 10
223.0
 20
97.48000000000001
 30
0.0
  0
ENDBLK
  5
403
330
3F8
100
AcDbEntity
  8
0
 62
     1
100
AcDbBlockEnd
  0
BLOCK
  5
3F5
330
3E9
100
AcDbEntity
  8
0
 62
     1
100
AcDbBlockBegin
  2
*D24
 70
     1
 10
0.0
 20
0.0
 30
0.0
  3
*D24
  1

  0
LINE
  5
3EA
330
3E9
100
AcDbEntity
  8
画層1
 62
     0
370
    -2
100
AcDbLine
 10
267.6499999999999
 20
104.8499999999999
 30
0.0
 11
267.6499999999999
 21
95.75000000000001
 31
0.0
  0
LINE
  5
3EB
330
3E9
100
AcDbEntity
  8
画層1
 62
     0
370
    -2
100
AcDbLine
 10
268.6499999999999
 20
104.8499999999999
 30
0.0
 11
268.6499999999999
 21
95.75000000000001
 31
0.0
  0
LINE
  5
3EC
330
3E9
100
AcDbEntity
  8
画層1
 62
     0
370
    -2
100
AcDbLine
 10
266.1499999999999
 20
97.0
 30
0.0
 11
264.6499999999999
 21
97.0
 31
0.0
  0
LINE
  5
3ED
330
3E9
100
AcDbEntity
  8
画層1
 62
     0
370
    -2
100
AcDbLine
 10
270.1499999999999
 20
97.0
 30
0.0
 11
274.1999999999999
 21
97.0
 31
0.0
  0
LINE
  5
3EE
330
3E9
100
AcDbEntity
  8
画層1
 62
     0
370
    -2
100
AcDbLine
 10
267.6499999999999
 20
97.0
 30
0.0
 11
268.6499999999999
 21
97.0
 31
0.0
  0
INSERT
  5
3EF
330
3E9
100
AcDbEntity
  8
画層1
 62
     0
370
    -2
100
AcDbBlockReference
  2
_OPEN30
 10
267.6499999999999
 20
97.0
 30
0.0
 41
1.5
 42
1.5
 43
1.5
  0
INSERT
  5
3F0
330
3E9
100
AcDbEntity
  8
画層1
 62
     0
370
    -2
100
AcDbBlockReference
  2
_OPEN30
 10
268.6499999999999
 20
97.0
 30
0.0
 41
1.5
 42
1.5
 43
1.5
 50
180.0
  0
MTEXT
  5
3F1
330
3E9
100
AcDbEntity
  8
画層1
 62
     0
100
AcDbMText
 10
272.92
 20
98.87999999999999
 30
0.0
 40
2.5
 41
0.0
 71
     5
 72
     1
  1
\A1;2
  7
STYLE1
 73
     1
 44
1.0
  0
POINT
  5
3F2
330
3E9
100
AcDbEntity
  8
DEFPOINTS
 62
     0
100
AcDbPoint
 10
267.6499999999999
 20
105.4799999999999
 30
0.0
  0
POINT
  5
3F3
330
3E9
100
AcDbEntity
  8
DEFPOINTS
 62
     0
100
AcDbPoint
 10
268.6499999999999
 20
105.4799999999999
 30
0.0
  0
POINT
  5
3F4
330
3E9
100
AcDbEntity
  8
DEFPOINTS
 62
     0
100
AcDbPoint
 10
268.6499999999999
 20
97.0
 30
0.0
  0
ENDBLK
  5
3F6
330
3E9
100
AcDbEntity
  8
0
 62
     1
100
AcDbBlockEnd
  0
BLOCK
  5
3D6
330
3CC
100
AcDbEntity
  8
0
 62
     1
100
AcDbBlockBegin
  2
*D25
 70
     1
 10
0.0
 20
0.0
 30
0.0
  3
*D25
  1

  0
LINE
  5
3CD
330
3CC
100
AcDbEntity
  8
画層1
 62
     0
370
    -2
100
AcDbLine
 10
264.9
 20
117.8499999999999
 30
0.0
 11
264.9
 21
81.75
 31
0.0
  0
LINE
  5
3CE
330
3CC
100
AcDbEntity
  8
画層1
 62
     0
370
    -2
100
AcDbLine
 10
341.9
 20
99.84999999999999
 30
0.0
 11
341.9
 21
81.75
 31
0.0
  0
LINE
  5
3CF
330
3CC
100
AcDbEntity
  8
画層1
 62
     0
370
    -2
100
AcDbLine
 10
266.3999999999999
 20
83.0
 30
0.0
 11
340.3999999999999
 21
83.0
 31
0.0
  0
INSERT
  5
3D0
330
3CC
100
AcDbEntity
  8
画層1
 62
     0
370
    -2
100
AcDbBlockReference
  2
_OPEN30
 10
264.9
 20
83.0
 30
0.0
 41
1.5
 42
1.5
 43
1.5
 50
180.0
  0
INSERT
  5
3D1
330
3CC
100
AcDbEntity
  8
画層1
 62
     0
370
    -2
100
AcDbBlockReference
  2
_OPEN30
 10
341.9
 20
83.0
 30
0.0
 41
1.5
 42
1.5
 43
1.5
  0
MTEXT
  5
3D2
330
3CC
100
AcDbEntity
  8
画層1
 62
     0
100
AcDbMText
 10
303.3999999999999
 20
85.08
 30
0.0
 40
2.5
 41
0.0
 71
     5
 72
     1
  1
\A1;(154)
  7
STYLE1
 73
     1
 44
1.0
  0
POINT
  5
3D3
330
3CC
100
AcDbEntity
  8
DEFPOINTS
 62
     0
100
AcDbPoint
 10
264.9
 20
118.48
 30
0.0
  0
POINT
  5
3D4
330
3CC
100
AcDbEntity
  8
DEFPOINTS
 62
     0
100
AcDbPoint
 10
341.9
 20
100.48
 30
0.0
  0
POINT
  5
3D5
330
3CC
100
AcDbEntity
  8
DEFPOINTS
 62
     0
100
AcDbPoint
 10
341.9
 20
83.0
 30
0.0
  0
ENDBLK
  5
3D7
330
3CC
100
AcDbEntity
  8
0
 62
     1
100
AcDbBlockEnd
  0
BLOCK
  5
3C9
330
3BF
100
AcDbEntity
  8
0
 62
     1
100
AcDbBlockBegin
  2
*D26
 70
     1
 10
0.0
 20
0.0
 30
0.0
  3
*D26
  1

  0
LINE
  5
3C0
330
3BF
100
AcDbEntity
  8
画層1
 62
     0
370
    -2
100
AcDbLine
 10
250.8999999999999
 20
96.85
 30
0.0
 11
250.8999999999999
 21
74.75
 31
0.0
  0
LINE
  5
3C1
330
3BF
100
AcDbEntity
  8
画層1
 62
     0
370
    -2
100
AcDbLine
 10
341.9
 20
99.84999999999999
 30
0.0
 11
341.9
 21
74.75
 31
0.0
  0
LINE
  5
3C2
330
3BF
100
AcDbEntity
  8
画層1
 62
     0
370
    -2
100
AcDbLine
 10
252.4
 20
76.0
 30
0.0
 11
340.3999999999999
 21
76.0
 31
0.0
  0
INSERT
  5
3C3
330
3BF
100
AcDbEntity
  8
画層1
 62
     0
370
    -2
100
AcDbBlockReference
  2
_OPEN30
 10
250.8999999999999
 20
76.0
 30
0.0
 41
1.5
 42
1.5
 43
1.5
 50
180.0
  0
INSERT
  5
3C4
330
3BF
100
AcDbEntity
  8
画層1
 62
     0
370
    -2
100
AcDbBlockReference
  2
_OPEN30
 10
341.9
 20
76.0
 30
0.0
 41
1.5
 42
1.5
 43
1.5
  0
MTEXT
  5
3C5
330
3BF
100
AcDbEntity
  8
画層1
 62
     0
100
AcDbMText
 10
296.4
 20
78.07999999999999
 30
0.0
 40
2.5
 41
0.0
 71
     5
 72
     1
  1
\A1;(182)
  7
STYLE1
 73
     1
 44
1.0
  0
POINT
  5
3C6
330
3BF
100
AcDbEntity
  8
DEFPOINTS
 62
     0
100
AcDbPoint
 10
250.8999999999999
 20
97.48000000000001
 30
0.0
  0
POINT
  5
3C7
330
3BF
100
AcDbEntity
  8
DEFPOINTS
 62
     0
100
AcDbPoint
 10
341.9
 20
100.48
 30
0.0
  0
POINT
  5
3C8
330
3BF
100
AcDbEntity
  8
DEFPOINTS
 62
     0
100
AcDbPoint
 10
341.9
 20
76.0
 30
0.0
  0
ENDBLK
  5
3CA
330
3BF
100
AcDbEntity
  8
0
 62
     1
100
AcDbBlockEnd
  0
BLOCK
  5
165
330
159
100
AcDbEntity
  8
0
 62
     1
100
AcDbBlockBegin
  2
*D27
 70
     1
 10
0.0
 20
0.0
 30
0.0
  3
*D27
  1

  0
LINE
  5
15A
330
159
100
AcDbEntity
  8
画層1
 62
     0
370
    -2
100
AcDbLine
 10
129.9799999999999
 20
131.6
 30
0.0
 11
129.9799999999999
 21
139.25
 31
0.0
  0
LINE
  5
15B
330
159
100
AcDbEntity
  8
画層1
 62
     0
370
    -2
100
AcDbLine
 10
134.1299999999999
 20
131.6
 30
0.0
 11
134.1299999999999
 21
139.25
 31
0.0
  0
LINE
  5
15C
330
159
100
AcDbEntity
  8
画層1
 62
     0
370
    -2
100
AcDbLine
 10
128.4799999999999
 20
138.0
 30
0.0
 11
126.98
 21
138.0
 31
0.0
  0
LINE
  5
15D
330
159
100
AcDbEntity
  8
画層1
 62
     0
370
    -2
100
AcDbLine
 10
135.63
 20
138.0
 30
0.0
 11
142.9199999999999
 21
138.0
 31
0.0
  0
LINE
  5
15E
330
159
100
AcDbEntity
  8
画層1
 62
     0
370
    -2
100
AcDbLine
 10
129.9799999999999
 20
138.0
 30
0.0
 11
134.1299999999999
 21
138.0
 31
0.0
  0
INSERT
  5
15F
330
159
100
AcDbEntity
  8
画層1
 62
     0
370
    -2
100
AcDbBlockReference
  2
_OPEN30
 10
129.9799999999999
 20
138.0
 30
0.0
 41
1.5
 42
1.5
 43
1.5
  0
INSERT
  5
160
330
159
100
AcDbEntity
  8
画層1
 62
     0
370
    -2
100
AcDbBlockReference
  2
_OPEN30
 10
134.1299999999999
 20
138.0
 30
0.0
 41
1.5
 42
1.5
 43
1.5
 50
180.0
  0
MTEXT
  5
161
330
159
100
AcDbEntity
  8
画層1
 62
     0
100
AcDbMText
 10
140.02
 20
139.88
 30
0.0
 40
2.5
 41
0.0
 71
     5
 72
     1
  1
\A1;8.3
  7
STYLE1
 73
     1
 44
1.0
  0
POINT
  5
162
330
159
100
AcDbEntity
  8
DEFPOINTS
 62
     0
100
AcDbPoint
 10
129.9799999999999
 20
130.9799999999999
 30
0.0
  0
POINT
  5
163
330
159
100
AcDbEntity
  8
DEFPOINTS
 62
     0
100
AcDbPoint
 10
134.1299999999999
 20
130.9799999999999
 30
0.0
  0
POINT
  5
164
330
159
100
AcDbEntity
  8
DEFPOINTS
 62
     0
100
AcDbPoint
 10
134.1299999999999
 20
138.0
 30
0.0
  0
ENDBLK
  5
166
330
159
100
AcDbEntity
  8
0
 62
     1
100
AcDbBlockEnd
  0
BLOCK
  5
5E9
330
5DF
100
AcDbEntity
  8
0
 62
     1
100
AcDbBlockBegin
  2
*D28
 70
     1
 10
0.0
 20
0.0
 30
0.0
  3
*D28
  1

  0
LINE
  5
8D2
330
5DF
100
AcDbEntity
  8
画層1
 62
     0
370
    -2
100
AcDbLine
 10
147.61
 20
407.79
 30
0.0
 11
118.23
 21
407.79
 31
0.0
  0
LINE
  5
8D3
330
5DF
100
AcDbEntity
  8
画層1
 62
     0
370
    -2
100
AcDbLine
 10
147.61
 20
207.79
 30
0.0
 11
118.23
 21
207.79
 31
0.0
  0
LINE
  5
8D4
330
5DF
100
AcDbEntity
  8
画層1
 62
     0
370
    -2
100
AcDbLine
 10
119.48
 20
406.29
 30
0.0
 11
119.48
 21
209.2899999999999
 31
0.0
  0
INSERT
  5
8D5
330
5DF
100
AcDbEntity
  8
画層1
 62
     0
370
    -2
100
AcDbBlockReference
  2
_OPEN30
 10
119.48
 20
407.79
 30
0.0
 41
1.5
 42
1.5
 43
1.5
 50
90.0
  0
INSERT
  5
8D6
330
5DF
100
AcDbEntity
  8
画層1
 62
     0
370
    -2
100
AcDbBlockReference
  2
_OPEN30
 10
119.48
 20
207.79
 30
0.0
 41
1.5
 42
1.5
 43
1.5
 50
270.0
  0
MTEXT
  5
8D7
330
5DF
100
AcDbEntity
  8
画層1
 62
     0
100
AcDbMText
 10
117.5999999999999
 20
307.79
 30
0.0
 40
2.5
 41
0.0
 71
     5
 72
     1
  1
\A1;200
  7
STYLE1
 11
0.0000000000000001
 21
1.0
 31
0.0
 73
     1
 44
1.0
  0
POINT
  5
8D8
330
5DF
100
AcDbEntity
  8
DEFPOINTS
 62
     0
100
AcDbPoint
 10
148.24
 20
407.79
 30
0.0
  0
POINT
  5
8D9
330
5DF
100
AcDbEntity
  8
DEFPOINTS
 62
     0
100
AcDbPoint
 10
148.24
 20
207.79
 30
0.0
  0
POINT
  5
8DA
330
5DF
100
AcDbEntity
  8
DEFPOINTS
 62
     0
100
AcDbPoint
 10
119.48
 20
207.79
 30
0.0
  0
ENDBLK
  5
5EA
330
5DF
100
AcDbEntity
  8
0
 62
     1
100
AcDbBlockEnd
  0
BLOCK
  5
5F5
330
5EB
100
AcDbEntity
  8
0
 62
     1
100
AcDbBlockBegin
  2
*D29
 70
     1
 10
0.0
 20
0.0
 30
0.0
  3
*D29
  1

  0
LINE
  5
8DB
330
5EB
100
AcDbEntity
  8
画層1
 62
     0
370
    -2
100
AcDbLine
 10
154.49
 20
417.79
 30
0.0
 11
104.23
 21
417.7900000000001
 31
0.0
  0
LINE
  5
8DC
330
5EB
100
AcDbEntity
  8
画層1
 62
     0
370
    -2
100
AcDbLine
 10
153.77
 20
197.7899999999999
 30
0.0
 11
104.23
 21
197.7899999999999
 31
0.0
  0
LINE
  5
8DD
330
5EB
100
AcDbEntity
  8
画層1
 62
     0
370
    -2
100
AcDbLine
 10
105.48
 20
416.29
 30
0.0
 11
105.4799999999999
 21
199.2899999999999
 31
0.0
  0
INSERT
  5
8DE
330
5EB
100
AcDbEntity
  8
画層1
 62
     0
370
    -2
100
AcDbBlockReference
  2
_OPEN30
 10
105.48
 20
417.7900000000001
 30
0.0
 41
1.5
 42
1.5
 43
1.5
 50
90.0
  0
INSERT
  5
8DF
330
5EB
100
AcDbEntity
  8
画層1
 62
     0
370
    -2
100
AcDbBlockReference
  2
_OPEN30
 10
105.4799999999999
 20
197.7899999999999
 30
0.0
 41
1.5
 42
1.5
 43
1.5
 50
270.0
  0
MTEXT
  5
8E0
330
5EB
100
AcDbEntity
  8
画層1
 62
     0
100
AcDbMText
 10
103.5999999999999
 20
307.79
 30
0.0
 40
2.5
 41
0.0
 71
     5
 72
     1
  1
\A1;220
  7
STYLE1
 11
0.0000000000000001
 21
1.0
 31
0.0
 73
     1
 44
1.0
  0
POINT
  5
8E1
330
5EB
100
AcDbEntity
  8
DEFPOINTS
 62
     0
100
AcDbPoint
 10
155.12
 20
417.79
 30
0.0
  0
POINT
  5
8E2
330
5EB
100
AcDbEntity
  8
DEFPOINTS
 62
     0
100
AcDbPoint
 10
154.4
 20
197.7899999999999
 30
0.0
  0
POINT
  5
8E3
330
5EB
100
AcDbEntity
  8
DEFPOINTS
 62
     0
100
AcDbPoint
 10
105.4799999999999
 20
197.7899999999999
 30
0.0
  0
ENDBLK
  5
5F6
330
5EB
100
AcDbEntity
  8
0
 62
     1
100
AcDbBlockEnd
  0
BLOCK
  5
601
330
5F7
100
AcDbEntity
  8
0
 62
     1
100
AcDbBlockBegin
  2
*D30
 70
     1
 10
0.0
 20
0.0
 30
0.0
  3
*D30
  1

  0
LINE
  5
8E4
330
5F7
100
AcDbEntity
  8
画層1
 62
     0
370
    -2
100
AcDbLine
 10
265.7099999999999
 20
203.79
 30
0.0
 11
306.7299999999999
 21
203.79
 31
0.0
  0
LINE
  5
8E5
330
5F7
100
AcDbEntity
  8
画層1
 62
     0
370
    -2
100
AcDbLine
 10
265.7099999999999
 20
411.79
 30
0.0
 11
306.73
 21
411.79
 31
0.0
  0
LINE
  5
8E6
330
5F7
100
AcDbEntity
  8
画層1
 62
     0
370
    -2
100
AcDbLine
 10
305.4799999999999
 20
205.29
 30
0.0
 11
305.48
 21
410.2899999999999
 31
0.0
  0
INSERT
  5
8E7
330
5F7
100
AcDbEntity
  8
画層1
 62
     0
370
    -2
100
AcDbBlockReference
  2
_OPEN30
 10
305.4799999999999
 20
203.79
 30
0.0
 41
1.5
 42
1.5
 43
1.5
 50
270.0
  0
INSERT
  5
8E8
330
5F7
100
AcDbEntity
  8
画層1
 62
     0
370
    -2
100
AcDbBlockReference
  2
_OPEN30
 10
305.48
 20
411.79
 30
0.0
 41
1.5
 42
1.5
 43
1.5
 50
90.0
  0
MTEXT
  5
8E9
330
5F7
100
AcDbEntity
  8
画層1
 62
     0
100
AcDbMText
 10
303.5999999999999
 20
307.79
 30
0.0
 40
2.5
 41
0.0
 71
     5
 72
     1
  1
\A1;208
  7
STYLE1
 11
0.0000000000000001
 21
1.0
 31
0.0
 73
     1
 44
1.0
  0
POINT
  5
8EA
330
5F7
100
AcDbEntity
  8
DEFPOINTS
 62
     0
100
AcDbPoint
 10
265.0799999999999
 20
203.79
 30
0.0
  0
POINT
  5
8EB
330
5F7
100
AcDbEntity
  8
DEFPOINTS
 62
     0
100
AcDbPoint
 10
265.0799999999999
 20
411.79
 30
0.0
  0
POINT
  5
8EC
330
5F7
100
AcDbEntity
  8
DEFPOINTS
 62
     0
100
AcDbPoint
 10
305.48
 20
411.79
 30
0.0
  0
ENDBLK
  5
602
330
5F7
100
AcDbEntity
  8
0
 62
     1
100
AcDbBlockEnd
  0
BLOCK
  5
60D
330
603
100
AcDbEntity
  8
0
 62
     1
100
AcDbBlockBegin
  2
*D31
 70
     1
 10
0.0
 20
0.0
 30
0.0
  3
*D31
  1

  0
LINE
  5
8F6
330
603
100
AcDbEntity
  8
画層1
 62
     0
370
    -2
100
AcDbLine
 10
188.48
 20
211.66
 30
0.0
 11
188.48
 21
161.58
 31
0.0
  0
LINE
  5
8F7
330
603
100
AcDbEntity
  8
画層1
 62
     0
370
    -2
100
AcDbLine
 10
241.48
 20
176.2
 30
0.0
 11
241.48
 21
161.58
 31
0.0
  0
LINE
  5
8F8
330
603
100
AcDbEntity
  8
画層1
 62
     0
370
    -2
100
AcDbLine
 10
189.9799999999999
 20
162.83
 30
0.0
 11
239.9799999999999
 21
162.83
 31
0.0
  0
INSERT
  5
8F9
330
603
100
AcDbEntity
  8
画層1
 62
     0
370
    -2
100
AcDbBlockReference
  2
_OPEN30
 10
188.48
 20
162.83
 30
0.0
 41
1.5
 42
1.5
 43
1.5
 50
180.0
  0
INSERT
  5
8FA
330
603
100
AcDbEntity
  8
画層1
 62
     0
370
    -2
100
AcDbBlockReference
  2
_OPEN30
 10
241.48
 20
162.83
 30
0.0
 41
1.5
 42
1.5
 43
1.5
  0
MTEXT
  5
8FB
330
603
100
AcDbEntity
  8
画層1
 62
     0
100
AcDbMText
 10
214.9799999999999
 20
164.71
 30
0.0
 40
2.5
 41
0.0
 71
     5
 72
     1
  1
\A1;53
  7
STYLE1
 73
     1
 44
1.0
  0
POINT
  5
8FC
330
603
100
AcDbEntity
  8
DEFPOINTS
 62
     0
100
AcDbPoint
 10
188.48
 20
212.29
 30
0.0
  0
POINT
  5
8FD
330
603
100
AcDbEntity
  8
DEFPOINTS
 62
     0
100
AcDbPoint
 10
241.48
 20
176.83
 30
0.0
  0
POINT
  5
8FE
330
603
100
AcDbEntity
  8
DEFPOINTS
 62
     0
100
AcDbPoint
 10
241.48
 20
162.83
 30
0.0
  0
ENDBLK
  5
60E
330
603
100
AcDbEntity
  8
0
 62
     1
100
AcDbBlockEnd
  0
BLOCK
  5
619
330
60F
100
AcDbEntity
  8
0
 62
     1
100
AcDbBlockBegin
  2
*D32
 70
     1
 10
0.0
 20
0.0
 30
0.0
  3
*D32
  1

  0
LINE
  5
91B
330
60F
100
AcDbEntity
  8
画層1
 62
     0
370
    -2
100
AcDbLine
 10
231.4799999999999
 20
207.16
 30
0.0
 11
231.4799999999999
 21
175.58
 31
0.0
  0
LINE
  5
91C
330
60F
100
AcDbEntity
  8
画層1
 62
     0
370
    -2
100
AcDbLine
 10
251.48
 20
207.16
 30
0.0
 11
251.48
 21
175.58
 31
0.0
  0
LINE
  5
91D
330
60F
100
AcDbEntity
  8
画層1
 62
     0
370
    -2
100
AcDbLine
 10
232.98
 20
176.83
 30
0.0
 11
249.98
 21
176.83
 31
0.0
  0
INSERT
  5
91E
330
60F
100
AcDbEntity
  8
画層1
 62
     0
370
    -2
100
AcDbBlockReference
  2
_OPEN30
 10
231.4799999999999
 20
176.83
 30
0.0
 41
1.5
 42
1.5
 43
1.5
 50
180.0
  0
INSERT
  5
91F
330
60F
100
AcDbEntity
  8
画層1
 62
     0
370
    -2
100
AcDbBlockReference
  2
_OPEN30
 10
251.48
 20
176.83
 30
0.0
 41
1.5
 42
1.5
 43
1.5
  0
MTEXT
  5
920
330
60F
100
AcDbEntity
  8
画層1
 62
     0
100
AcDbMText
 10
241.48
 20
178.71
 30
0.0
 40
2.5
 41
0.0
 71
     5
 72
     1
  1
\A1;20
  7
STYLE1
 73
     1
 44
1.0
  0
POINT
  5
921
330
60F
100
AcDbEntity
  8
DEFPOINTS
 62
     0
100
AcDbPoint
 10
231.4799999999999
 20
207.79
 30
0.0
  0
POINT
  5
922
330
60F
100
AcDbEntity
  8
DEFPOINTS
 62
     0
100
AcDbPoint
 10
251.48
 20
207.79
 30
0.0
  0
POINT
  5
923
330
60F
100
AcDbEntity
  8
DEFPOINTS
 62
     0
100
AcDbPoint
 10
251.48
 20
176.83
 30
0.0
  0
ENDBLK
  5
61A
330
60F
100
AcDbEntity
  8
0
 62
     1
100
AcDbBlockEnd
  0
BLOCK
  5
625
330
61B
100
AcDbEntity
  8
0
 62
     1
100
AcDbBlockBegin
  2
*D33
 70
     1
 10
0.0
 20
0.0
 30
0.0
  3
*D33
  1

  0
LINE
  5
8C9
330
61B
100
AcDbEntity
  8
画層1
 62
     0
370
    -2
100
AcDbLine
 10
276.37
 20
207.79
 30
0.0
 11
292.73
 21
207.79
 31
0.0
  0
LINE
  5
8CA
330
61B
100
AcDbEntity
  8
画層1
 62
     0
370
    -2
100
AcDbLine
 10
218.1099999999999
 20
237.7899999999999
 30
0.0
 11
292.73
 21
237.7899999999999
 31
0.0
  0
LINE
  5
8CB
330
61B
100
AcDbEntity
  8
画層1
 62
     0
370
    -2
100
AcDbLine
 10
291.4799999999999
 20
209.2899999999999
 30
0.0
 11
291.4799999999999
 21
236.2899999999999
 31
0.0
  0
INSERT
  5
8CC
330
61B
100
AcDbEntity
  8
画層1
 62
     0
370
    -2
100
AcDbBlockReference
  2
_OPEN30
 10
291.4799999999999
 20
207.79
 30
0.0
 41
1.5
 42
1.5
 43
1.5
 50
270.0
  0
INSERT
  5
8CD
330
61B
100
AcDbEntity
  8
画層1
 62
     0
370
    -2
100
AcDbBlockReference
  2
_OPEN30
 10
291.4799999999999
 20
237.7899999999999
 30
0.0
 41
1.5
 42
1.5
 43
1.5
 50
90.0
  0
MTEXT
  5
8CE
330
61B
100
AcDbEntity
  8
画層1
 62
     0
100
AcDbMText
 10
289.5999999999999
 20
222.79
 30
0.0
 40
2.5
 41
0.0
 71
     5
 72
     1
  1
\A1;30
  7
STYLE1
 11
0.0000000000000001
 21
1.0
 31
0.0
 73
     1
 44
1.0
  0
POINT
  5
8CF
330
61B
100
AcDbEntity
  8
DEFPOINTS
 62
     0
100
AcDbPoint
 10
275.74
 20
207.79
 30
0.0
  0
POINT
  5
8D0
330
61B
100
AcDbEntity
  8
DEFPOINTS
 62
     0
100
AcDbPoint
 10
217.4799999999999
 20
237.7899999999999
 30
0.0
  0
POINT
  5
8D1
330
61B
100
AcDbEntity
  8
DEFPOINTS
 62
     0
100
AcDbPoint
 10
291.4799999999999
 20
237.7899999999999
 30
0.0
  0
ENDBLK
  5
626
330
61B
100
AcDbEntity
  8
0
 62
     1
100
AcDbBlockEnd
  0
BLOCK
  5
631
330
627
100
AcDbEntity
  8
0
 62
     1
100
AcDbBlockBegin
  2
*D34
 70
     1
 10
0.0
 20
0.0
 30
0.0
  3
*D34
  1

  0
LINE
  5
8ED
330
627
100
AcDbEntity
  8
画層1
 62
     0
370
    -2
100
AcDbLine
 10
147.61
 20
207.79
 30
0.0
 11
118.23
 21
207.79
 31
0.0
  0
LINE
  5
8EE
330
627
100
AcDbEntity
  8
画層1
 62
     0
370
    -2
100
AcDbLine
 10
153.77
 20
197.7899999999999
 30
0.0
 11
118.23
 21
197.7899999999999
 31
0.0
  0
LINE
  5
8EF
330
627
100
AcDbEntity
  8
画層1
 62
     0
370
    -2
100
AcDbLine
 10
119.48
 20
206.2899999999999
 30
0.0
 11
119.48
 21
199.2899999999999
 31
0.0
  0
INSERT
  5
8F0
330
627
100
AcDbEntity
  8
画層1
 62
     0
370
    -2
100
AcDbBlockReference
  2
_OPEN30
 10
119.48
 20
207.79
 30
0.0
 41
1.5
 42
1.5
 43
1.5
 50
90.0
  0
INSERT
  5
8F1
330
627
100
AcDbEntity
  8
画層1
 62
     0
370
    -2
100
AcDbBlockReference
  2
_OPEN30
 10
119.48
 20
197.7899999999999
 30
0.0
 41
1.5
 42
1.5
 43
1.5
 50
270.0
  0
MTEXT
  5
8F2
330
627
100
AcDbEntity
  8
画層1
 62
     0
100
AcDbMText
 10
117.5999999999999
 20
202.79
 30
0.0
 40
2.5
 41
0.0
 71
     5
 72
     1
  1
\A1;10
  7
STYLE1
 11
0.0000000000000001
 21
1.0
 31
0.0
 73
     1
 44
1.0
  0
POINT
  5
8F3
330
627
100
AcDbEntity
  8
DEFPOINTS
 62
     0
100
AcDbPoint
 10
148.24
 20
207.79
 30
0.0
  0
POINT
  5
8F4
330
627
100
AcDbEntity
  8
DEFPOINTS
 62
     0
100
AcDbPoint
 10
154.4
 20
197.7899999999999
 30
0.0
  0
POINT
  5
8F5
330
627
100
AcDbEntity
  8
DEFPOINTS
 62
     0
100
AcDbPoint
 10
119.48
 20
197.7899999999999
 30
0.0
  0
ENDBLK
  5
632
330
627
100
AcDbEntity
  8
0
 62
     1
100
AcDbBlockEnd
  0
BLOCK
  5
63E
330
633
100
AcDbEntity
  8
0
 62
     1
100
AcDbBlockBegin
  2
*D35
 70
     1
 10
0.0
 20
0.0
 30
0.0
  3
*D35
  1

  0
LINE
  5
8FF
330
633
100
AcDbEntity
  8
画層1
 62
     0
370
    -2
100
AcDbLine
 10
158.8799999999999
 20
197.16
 30
0.0
 11
158.8799999999999
 21
175.58
 31
0.0
  0
LINE
  5
900
330
633
100
AcDbEntity
  8
画層1
 62
     0
370
    -2
100
AcDbLine
 10
164.88
 20
197.16
 30
0.0
 11
164.88
 21
175.58
 31
0.0
  0
LINE
  5
901
330
633
100
AcDbEntity
  8
画層1
 62
     0
370
    -2
100
AcDbLine
 10
163.3799999999999
 20
176.83
 30
0.0
 11
160.3799999999999
 21
176.83
 31
0.0
  0
LINE
  5
902
330
633
100
AcDbEntity
  8
画層1
 62
     0
370
    -2
100
AcDbLine
 10
158.8799999999999
 20
176.83
 30
0.0
 11
124.6419289340101
 21
176.83
 31
0.0
  0
INSERT
  5
903
330
633
100
AcDbEntity
  8
画層1
 62
     0
370
    -2
100
AcDbBlockReference
  2
_OPEN30
 10
164.88
 20
176.83
 30
0.0
 41
1.5
 42
1.5
 43
1.5
  0
INSERT
  5
904
330
633
100
AcDbEntity
  8
画層1
 62
     0
370
    -2
100
AcDbBlockReference
  2
_OPEN30
 10
158.8799999999999
 20
176.83
 30
0.0
 41
1.5
 42
1.5
 43
1.5
 50
180.0
  0
MTEXT
  5
905
330
633
100
AcDbEntity
  8
画層1
 62
     0
100
AcDbMText
 10
134.06
 20
178.8749746192893
 30
0.0
 40
2.5
 41
0.0
 71
     5
 72
     1
  1
\A1;2-6キリカキ
  7
STYLE1
 73
     1
 44
1.0
  0
POINT
  5
906
330
633
100
AcDbEntity
  8
DEFPOINTS
 62
     0
100
AcDbPoint
 10
158.8799999999999
 20
197.7899999999999
 30
0.0
  0
POINT
  5
907
330
633
100
AcDbEntity
  8
DEFPOINTS
 62
     0
100
AcDbPoint
 10
164.88
 20
197.7899999999999
 30
0.0
  0
POINT
  5
908
330
633
100
AcDbEntity
  8
DEFPOINTS
 62
     0
100
AcDbPoint
 10
164.88
 20
176.83
 30
0.0
  0
ENDBLK
  5
63F
330
633
100
AcDbEntity
  8
0
 62
     1
100
AcDbBlockEnd
  0
BLOCK
  5
64A
330
640
100
AcDbEntity
  8
0
 62
     1
100
AcDbBlockBegin
  2
*D36
 70
     1
 10
0.0
 20
0.0
 30
0.0
  3
*D36
  1

  0
LINE
  5
92D
330
640
100
AcDbEntity
  8
画層1
 62
     0
370
    -2
100
AcDbLine
 10
210.84
 20
259.42
 30
0.0
 11
210.84
 21
274.0799999999999
 31
0.0
  0
LINE
  5
92E
330
640
100
AcDbEntity
  8
画層1
 62
     0
370
    -2
100
AcDbLine
 10
219.1399999999999
 20
259.42
 30
0.0
 11
219.1399999999999
 21
274.0799999999999
 31
0.0
  0
LINE
  5
92F
330
640
100
AcDbEntity
  8
画層1
 62
     0
370
    -2
100
AcDbLine
 10
212.34
 20
272.8299999999999
 30
0.0
 11
217.64
 21
272.8299999999999
 31
0.0
  0
INSERT
  5
930
330
640
100
AcDbEntity
  8
画層1
 62
     0
370
    -2
100
AcDbBlockReference
  2
_OPEN30
 10
210.84
 20
272.8299999999999
 30
0.0
 41
1.5
 42
1.5
 43
1.5
 50
180.0
  0
INSERT
  5
931
330
640
100
AcDbEntity
  8
画層1
 62
     0
370
    -2
100
AcDbBlockReference
  2
_OPEN30
 10
219.1399999999999
 20
272.8299999999999
 30
0.0
 41
1.5
 42
1.5
 43
1.5
  0
MTEXT
  5
932
330
640
100
AcDbEntity
  8
画層1
 62
     0
100
AcDbMText
 10
214.99
 20
274.7099999999999
 30
0.0
 40
2.5
 41
0.0
 71
     5
 72
     1
  1
\A1;8.3
  7
STYLE1
 73
     1
 44
1.0
  0
POINT
  5
933
330
640
100
AcDbEntity
  8
DEFPOINTS
 62
     0
100
AcDbPoint
 10
210.84
 20
258.79
 30
0.0
  0
POINT
  5
934
330
640
100
AcDbEntity
  8
DEFPOINTS
 62
     0
100
AcDbPoint
 10
219.1399999999999
 20
258.79
 30
0.0
  0
POINT
  5
935
330
640
100
AcDbEntity
  8
DEFPOINTS
 62
     0
100
AcDbPoint
 10
219.1399999999999
 20
272.8299999999999
 30
0.0
  0
ENDBLK
  5
64B
330
640
100
AcDbEntity
  8
0
 62
     1
100
AcDbBlockEnd
  0
BLOCK
  5
656
330
64C
100
AcDbEntity
  8
0
 62
     1
100
AcDbBlockBegin
  2
*D37
 70
     1
 10
0.0
 20
0.0
 30
0.0
  3
*D37
  1

  0
LINE
  5
909
330
64C
100
AcDbEntity
  8
画層1
 62
     0
370
    -2
100
AcDbLine
 10
241.48
 20
163.46
 30
0.0
 11
241.48
 21
164.08
 31
0.0
  0
LINE
  5
90A
330
64C
100
AcDbEntity
  8
画層1
 62
     0
370
    -2
100
AcDbLine
 10
276.48
 20
207.16
 30
0.0
 11
276.48
 21
161.58
 31
0.0
  0
LINE
  5
90B
330
64C
100
AcDbEntity
  8
画層1
 62
     0
370
    -2
100
AcDbLine
 10
242.9799999999999
 20
162.83
 30
0.0
 11
274.98
 21
162.83
 31
0.0
  0
INSERT
  5
90C
330
64C
100
AcDbEntity
  8
画層1
 62
     0
370
    -2
100
AcDbBlockReference
  2
_OPEN30
 10
241.48
 20
162.83
 30
0.0
 41
1.5
 42
1.5
 43
1.5
 50
180.0
  0
INSERT
  5
90D
330
64C
100
AcDbEntity
  8
画層1
 62
     0
370
    -2
100
AcDbBlockReference
  2
_OPEN30
 10
276.48
 20
162.83
 30
0.0
 41
1.5
 42
1.5
 43
1.5
  0
MTEXT
  5
90E
330
64C
100
AcDbEntity
  8
画層1
 62
     0
100
AcDbMText
 10
258.98
 20
164.9193908629441
 30
0.0
 40
2.5
 41
0.0
 71
     5
 72
     1
  1
\A1;(35)
  7
STYLE1
 73
     1
 44
1.0
  0
POINT
  5
90F
330
64C
100
AcDbEntity
  8
DEFPOINTS
 62
     0
100
AcDbPoint
 10
241.48
 20
162.83
 30
0.0
  0
POINT
  5
910
330
64C
100
AcDbEntity
  8
DEFPOINTS
 62
     0
100
AcDbPoint
 10
276.48
 20
207.79
 30
0.0
  0
POINT
  5
911
330
64C
100
AcDbEntity
  8
DEFPOINTS
 62
     0
100
AcDbPoint
 10
276.48
 20
162.83
 30
0.0
  0
ENDBLK
  5
657
330
64C
100
AcDbEntity
  8
0
 62
     1
100
AcDbBlockEnd
  0
BLOCK
  5
662
330
658
100
AcDbEntity
  8
0
 62
     1
100
AcDbBlockBegin
  2
*D38
 70
     1
 10
0.0
 20
0.0
 30
0.0
  3
*D38
  1

  0
LINE
  5
912
330
658
100
AcDbEntity
  8
画層1
 62
     0
370
    -2
100
AcDbLine
 10
269.05
 20
197.7899999999999
 30
0.0
 11
306.73
 21
197.7899999999999
 31
0.0
  0
LINE
  5
913
330
658
100
AcDbEntity
  8
画層1
 62
     0
370
    -2
100
AcDbLine
 10
273.7099999999999
 20
203.79
 30
0.0
 11
306.73
 21
203.79
 31
0.0
  0
LINE
  5
914
330
658
100
AcDbEntity
  8
画層1
 62
     0
370
    -2
100
AcDbLine
 10
305.48
 20
199.2899999999999
 30
0.0
 11
305.48
 21
202.2899999999999
 31
0.0
  0
INSERT
  5
915
330
658
100
AcDbEntity
  8
画層1
 62
     0
370
    -2
100
AcDbBlockReference
  2
_OPEN30
 10
305.48
 20
197.7899999999999
 30
0.0
 41
1.5
 42
1.5
 43
1.5
 50
270.0
  0
INSERT
  5
916
330
658
100
AcDbEntity
  8
画層1
 62
     0
370
    -2
100
AcDbBlockReference
  2
_OPEN30
 10
305.48
 20
203.79
 30
0.0
 41
1.5
 42
1.5
 43
1.5
 50
90.0
  0
MTEXT
  5
917
330
658
100
AcDbEntity
  8
画層1
 62
     0
100
AcDbMText
 10
303.5999999999999
 20
200.79
 30
0.0
 40
2.5
 41
0.0
 71
     5
 72
     1
  1
\A1;6
  7
STYLE1
 11
0.0000000000000001
 21
1.0
 31
0.0
 73
     1
 44
1.0
  0
POINT
  5
918
330
658
100
AcDbEntity
  8
DEFPOINTS
 62
     0
100
AcDbPoint
 10
268.42
 20
197.7899999999999
 30
0.0
  0
POINT
  5
919
330
658
100
AcDbEntity
  8
DEFPOINTS
 62
     0
100
AcDbPoint
 10
273.0799999999999
 20
203.79
 30
0.0
  0
POINT
  5
91A
330
658
100
AcDbEntity
  8
DEFPOINTS
 62
     0
100
AcDbPoint
 10
305.48
 20
203.79
 30
0.0
  0
ENDBLK
  5
663
330
658
100
AcDbEntity
  8
0
 62
     1
100
AcDbBlockEnd
  0
BLOCK
  5
66E
330
664
100
AcDbEntity
  8
0
 62
     1
100
AcDbBlockBegin
  2
*D39
 70
     1
 10
0.0
 20
0.0
 30
0.0
  3
*D39
  1

  0
LINE
  5
93F
330
664
100
AcDbEntity
  8
画層1
 62
     0
370
    -2
100
AcDbLine
 10
161.9799999999999
 20
439.6599999999999
 30
0.0
 11
161.9799999999999
 21
448.04
 31
0.0
  0
LINE
  5
940
330
664
100
AcDbEntity
  8
画層1
 62
     0
370
    -2
100
AcDbLine
 10
261.98
 20
415.42
 30
0.0
 11
261.98
 21
448.04
 31
0.0
  0
LINE
  5
941
330
664
100
AcDbEntity
  8
画層1
 62
     0
370
    -2
100
AcDbLine
 10
163.48
 20
446.79
 30
0.0
 11
260.48
 21
446.79
 31
0.0
  0
INSERT
  5
942
330
664
100
AcDbEntity
  8
画層1
 62
     0
370
    -2
100
AcDbBlockReference
  2
_OPEN30
 10
161.9799999999999
 20
446.79
 30
0.0
 41
1.5
 42
1.5
 43
1.5
 50
180.0
  0
INSERT
  5
943
330
664
100
AcDbEntity
  8
画層1
 62
     0
370
    -2
100
AcDbBlockReference
  2
_OPEN30
 10
261.98
 20
446.79
 30
0.0
 41
1.5
 42
1.5
 43
1.5
  0
MTEXT
  5
944
330
664
100
AcDbEntity
  8
画層1
 62
     0
100
AcDbMText
 10
211.98
 20
448.6699999999999
 30
0.0
 40
2.5
 41
0.0
 71
     5
 72
     1
  1
\A1;100
  7
STYLE1
 73
     1
 44
1.0
  0
POINT
  5
945
330
664
100
AcDbEntity
  8
DEFPOINTS
 62
     0
100
AcDbPoint
 10
161.9799999999999
 20
439.0299999999999
 30
0.0
  0
POINT
  5
946
330
664
100
AcDbEntity
  8
DEFPOINTS
 62
     0
100
AcDbPoint
 10
261.98
 20
414.7899999999999
 30
0.0
  0
POINT
  5
947
330
664
100
AcDbEntity
  8
DEFPOINTS
 62
     0
100
AcDbPoint
 10
261.98
 20
446.79
 30
0.0
  0
ENDBLK
  5
66F
330
664
100
AcDbEntity
  8
0
 62
     1
100
AcDbBlockEnd
  0
BLOCK
  5
67A
330
670
100
AcDbEntity
  8
0
 62
     1
100
AcDbBlockBegin
  2
*D40
 70
     1
 10
0.0
 20
0.0
 30
0.0
  3
*D40
  1

  0
LINE
  5
948
330
670
100
AcDbEntity
  8
画層1
 62
     0
370
    -2
100
AcDbLine
 10
147.4799999999999
 20
408.42
 30
0.0
 11
147.4799999999999
 21
462.08
 31
0.0
  0
LINE
  5
949
330
670
100
AcDbEntity
  8
画層1
 62
     0
370
    -2
100
AcDbLine
 10
276.48
 20
408.42
 30
0.0
 11
276.48
 21
462.08
 31
0.0
  0
LINE
  5
94A
330
670
100
AcDbEntity
  8
画層1
 62
     0
370
    -2
100
AcDbLine
 10
148.9799999999999
 20
460.8299999999999
 30
0.0
 11
274.98
 21
460.8299999999999
 31
0.0
  0
INSERT
  5
94B
330
670
100
AcDbEntity
  8
画層1
 62
     0
370
    -2
100
AcDbBlockReference
  2
_OPEN30
 10
147.4799999999999
 20
460.8299999999999
 30
0.0
 41
1.5
 42
1.5
 43
1.5
 50
180.0
  0
INSERT
  5
94C
330
670
100
AcDbEntity
  8
画層1
 62
     0
370
    -2
100
AcDbBlockReference
  2
_OPEN30
 10
276.48
 20
460.8299999999999
 30
0.0
 41
1.5
 42
1.5
 43
1.5
  0
MTEXT
  5
94D
330
670
100
AcDbEntity
  8
画層1
 62
     0
100
AcDbMText
 10
211.98
 20
462.7099999999999
 30
0.0
 40
2.5
 41
0.0
 71
     5
 72
     1
  1
\A1;129
  7
STYLE1
 73
     1
 44
1.0
  0
POINT
  5
94E
330
670
100
AcDbEntity
  8
DEFPOINTS
 62
     0
100
AcDbPoint
 10
147.4799999999999
 20
407.79
 30
0.0
  0
POINT
  5
94F
330
670
100
AcDbEntity
  8
DEFPOINTS
 62
     0
100
AcDbPoint
 10
276.48
 20
407.79
 30
0.0
  0
POINT
  5
950
330
670
100
AcDbEntity
  8
DEFPOINTS
 62
     0
100
AcDbPoint
 10
276.48
 20
460.8299999999999
 30
0.0
  0
ENDBLK
  5
67B
330
670
100
AcDbEntity
  8
0
 62
     1
100
AcDbBlockEnd
  0
BLOCK
  5
686
330
67C
100
AcDbEntity
  8
0
 62
     1
100
AcDbBlockBegin
  2
*D41
 70
     1
 10
0.0
 20
0.0
 30
0.0
  3
*D41
  1

  0
LINE
  5
936
330
67C
100
AcDbEntity
  8
画層1
 62
     0
370
    -2
100
AcDbLine
 10
147.61
 20
363.91
 30
0.0
 11
132.23
 21
363.91
 31
0.0
  0
LINE
  5
937
330
67C
100
AcDbEntity
  8
画層1
 62
     0
370
    -2
100
AcDbLine
 10
147.61
 20
355.91
 30
0.0
 11
132.23
 21
355.91
 31
0.0
  0
LINE
  5
938
330
67C
100
AcDbEntity
  8
画層1
 62
     0
370
    -2
100
AcDbLine
 10
133.4799999999999
 20
362.41
 30
0.0
 11
133.4799999999999
 21
357.41
 31
0.0
  0
INSERT
  5
939
330
67C
100
AcDbEntity
  8
画層1
 62
     0
370
    -2
100
AcDbBlockReference
  2
_OPEN30
 10
133.4799999999999
 20
363.91
 30
0.0
 41
1.5
 42
1.5
 43
1.5
 50
90.0
  0
INSERT
  5
93A
330
67C
100
AcDbEntity
  8
画層1
 62
     0
370
    -2
100
AcDbBlockReference
  2
_OPEN30
 10
133.4799999999999
 20
355.91
 30
0.0
 41
1.5
 42
1.5
 43
1.5
 50
270.0
  0
MTEXT
  5
93B
330
67C
100
AcDbEntity
  8
画層1
 62
     0
100
AcDbMText
 10
131.5999999999999
 20
359.91
 30
0.0
 40
2.5
 41
0.0
 71
     5
 72
     1
  1
\A1;8
  7
STYLE1
 11
0.0000000000000001
 21
1.0
 31
0.0
 73
     1
 44
1.0
  0
POINT
  5
93C
330
67C
100
AcDbEntity
  8
DEFPOINTS
 62
     0
100
AcDbPoint
 10
148.24
 20
363.91
 30
0.0
  0
POINT
  5
93D
330
67C
100
AcDbEntity
  8
DEFPOINTS
 62
     0
100
AcDbPoint
 10
148.24
 20
355.91
 30
0.0
  0
POINT
  5
93E
330
67C
100
AcDbEntity
  8
DEFPOINTS
 62
     0
100
AcDbPoint
 10
133.4799999999999
 20
355.91
 30
0.0
  0
ENDBLK
  5
687
330
67C
100
AcDbEntity
  8
0
 62
     1
100
AcDbBlockEnd
  0
BLOCK
  5
692
330
688
100
AcDbEntity
  8
0
 62
     1
100
AcDbBlockBegin
  2
*D42
 70
     1
 10
0.0
 20
0.0
 30
0.0
  3
*D42
  1

  0
LINE
  5
951
330
688
100
AcDbEntity
  8
画層1
 62
     0
370
    -2
100
AcDbLine
 10
158.9799999999999
 20
418.42
 30
0.0
 11
158.9799999999999
 21
434.04
 31
0.0
  0
LINE
  5
952
330
688
100
AcDbEntity
  8
画層1
 62
     0
370
    -2
100
AcDbLine
 10
164.9799999999999
 20
418.42
 30
0.0
 11
164.9799999999999
 21
434.04
 31
0.0
  0
LINE
  5
953
330
688
100
AcDbEntity
  8
画層1
 62
     0
370
    -2
100
AcDbLine
 10
160.48
 20
432.79
 30
0.0
 11
163.48
 21
432.79
 31
0.0
  0
INSERT
  5
954
330
688
100
AcDbEntity
  8
画層1
 62
     0
370
    -2
100
AcDbBlockReference
  2
_OPEN30
 10
158.9799999999999
 20
432.79
 30
0.0
 41
1.5
 42
1.5
 43
1.5
 50
180.0
  0
INSERT
  5
955
330
688
100
AcDbEntity
  8
画層1
 62
     0
370
    -2
100
AcDbBlockReference
  2
_OPEN30
 10
164.9799999999999
 20
432.79
 30
0.0
 41
1.5
 42
1.5
 43
1.5
  0
MTEXT
  5
956
330
688
100
AcDbEntity
  8
画層1
 62
     0
100
AcDbMText
 10
161.9799999999999
 20
434.67
 30
0.0
 40
2.5
 41
0.0
 71
     5
 72
     1
  1
\A1;6
  7
STYLE1
 73
     1
 44
1.0
  0
POINT
  5
957
330
688
100
AcDbEntity
  8
DEFPOINTS
 62
     0
100
AcDbPoint
 10
158.9799999999999
 20
417.79
 30
0.0
  0
POINT
  5
958
330
688
100
AcDbEntity
  8
DEFPOINTS
 62
     0
100
AcDbPoint
 10
164.9799999999999
 20
417.79
 30
0.0
  0
POINT
  5
959
330
688
100
AcDbEntity
  8
DEFPOINTS
 62
     0
100
AcDbPoint
 10
164.9799999999999
 20
432.79
 30
0.0
  0
ENDBLK
  5
693
330
688
100
AcDbEntity
  8
0
 62
     1
100
AcDbBlockEnd
  0
BLOCK
  5
69E
330
694
100
AcDbEntity
  8
0
 62
     1
100
AcDbBlockBegin
  2
*D43
 70
     1
 10
0.0
 20
0.0
 30
0.0
  3
*D43
  1

  0
LINE
  5
924
330
694
100
AcDbEntity
  8
画層1
 62
     0
370
    -2
100
AcDbLine
 10
154.49
 20
417.79
 30
0.0
 11
118.23
 21
417.7900000000001
 31
0.0
  0
LINE
  5
925
330
694
100
AcDbEntity
  8
画層1
 62
     0
370
    -2
100
AcDbLine
 10
147.61
 20
407.79
 30
0.0
 11
118.23
 21
407.79
 31
0.0
  0
LINE
  5
926
330
694
100
AcDbEntity
  8
画層1
 62
     0
370
    -2
100
AcDbLine
 10
119.48
 20
416.29
 30
0.0
 11
119.48
 21
409.2900000000001
 31
0.0
  0
INSERT
  5
927
330
694
100
AcDbEntity
  8
画層1
 62
     0
370
    -2
100
AcDbBlockReference
  2
_OPEN30
 10
119.48
 20
417.7900000000001
 30
0.0
 41
1.5
 42
1.5
 43
1.5
 50
90.0
  0
INSERT
  5
928
330
694
100
AcDbEntity
  8
画層1
 62
     0
370
    -2
100
AcDbBlockReference
  2
_OPEN30
 10
119.48
 20
407.79
 30
0.0
 41
1.5
 42
1.5
 43
1.5
 50
270.0
  0
MTEXT
  5
929
330
694
100
AcDbEntity
  8
画層1
 62
     0
100
AcDbMText
 10
117.5999999999999
 20
412.7900000000001
 30
0.0
 40
2.5
 41
0.0
 71
     5
 72
     1
  1
\A1;10
  7
STYLE1
 11
0.0000000000000001
 21
1.0
 31
0.0
 73
     1
 44
1.0
  0
POINT
  5
92A
330
694
100
AcDbEntity
  8
DEFPOINTS
 62
     0
100
AcDbPoint
 10
155.12
 20
417.79
 30
0.0
  0
POINT
  5
92B
330
694
100
AcDbEntity
  8
DEFPOINTS
 62
     0
100
AcDbPoint
 10
148.24
 20
407.79
 30
0.0
  0
POINT
  5
92C
330
694
100
AcDbEntity
  8
DEFPOINTS
 62
     0
100
AcDbPoint
 10
119.48
 20
407.79
 30
0.0
  0
ENDBLK
  5
69F
330
694
100
AcDbEntity
  8
0
 62
     1
100
AcDbBlockEnd
  0
BLOCK
  5
6AA
330
6A0
100
AcDbEntity
  8
0
 62
     1
100
AcDbBlockBegin
  2
*D44
 70
     1
 10
0.0
 20
0.0
 30
0.0
  3
*D44
  1

  0
LINE
  5
95A
330
6A0
100
AcDbEntity
  8
画層1
 62
     0
370
    -2
100
AcDbLine
 10
265.7099999999999
 20
411.79
 30
0.0
 11
306.73
 21
411.79
 31
0.0
  0
LINE
  5
95B
330
6A0
100
AcDbEntity
  8
画層1
 62
     0
370
    -2
100
AcDbLine
 10
269.7099999999999
 20
417.79
 30
0.0
 11
306.73
 21
417.79
 31
0.0
  0
LINE
  5
95C
330
6A0
100
AcDbEntity
  8
画層1
 62
     0
370
    -2
100
AcDbLine
 10
305.48
 20
413.29
 30
0.0
 11
305.48
 21
416.29
 31
0.0
  0
INSERT
  5
95D
330
6A0
100
AcDbEntity
  8
画層1
 62
     0
370
    -2
100
AcDbBlockReference
  2
_OPEN30
 10
305.48
 20
411.79
 30
0.0
 41
1.5
 42
1.5
 43
1.5
 50
270.0
  0
INSERT
  5
95E
330
6A0
100
AcDbEntity
  8
画層1
 62
     0
370
    -2
100
AcDbBlockReference
  2
_OPEN30
 10
305.48
 20
417.79
 30
0.0
 41
1.5
 42
1.5
 43
1.5
 50
90.0
  0
MTEXT
  5
95F
330
6A0
100
AcDbEntity
  8
画層1
 62
     0
100
AcDbMText
 10
303.5999999999999
 20
414.79
 30
0.0
 40
2.5
 41
0.0
 71
     5
 72
     1
  1
\A1;6
  7
STYLE1
 11
0.0000000000000001
 21
1.0
 31
0.0
 73
     1
 44
1.0
  0
POINT
  5
960
330
6A0
100
AcDbEntity
  8
DEFPOINTS
 62
     0
100
AcDbPoint
 10
265.0799999999999
 20
411.79
 30
0.0
  0
POINT
  5
961
330
6A0
100
AcDbEntity
  8
DEFPOINTS
 62
     0
100
AcDbPoint
 10
269.0799999999999
 20
417.79
 30
0.0
  0
POINT
  5
962
330
6A0
100
AcDbEntity
  8
DEFPOINTS
 62
     0
100
AcDbPoint
 10
305.48
 20
417.79
 30
0.0
  0
ENDBLK
  5
6AB
330
6A0
100
AcDbEntity
  8
0
 62
     1
100
AcDbBlockEnd
  0
BLOCK
  5
6B6
330
6AC
100
AcDbEntity
  8
0
 62
     1
100
AcDbBlockBegin
  2
*D45
 70
     1
 10
0.0
 20
0.0
 30
0.0
  3
*D45
  1

  0
LINE
  5
96C
330
6AC
100
AcDbEntity
  8
画層1
 62
     0
370
    -2
100
AcDbLine
 10
634.6799999999999
 20
197.16
 30
0.0
 11
634.6799999999999
 21
175.58
 31
0.0
  0
LINE
  5
96D
330
6AC
100
AcDbEntity
  8
画層1
 62
     0
370
    -2
100
AcDbLine
 10
486.18
 20
207.16
 30
0.0
 11
486.18
 21
175.58
 31
0.0
  0
LINE
  5
96E
330
6AC
100
AcDbEntity
  8
画層1
 62
     0
370
    -2
100
AcDbLine
 10
633.1799999999999
 20
176.83
 30
0.0
 11
487.68
 21
176.83
 31
0.0
  0
INSERT
  5
96F
330
6AC
100
AcDbEntity
  8
画層1
 62
     0
370
    -2
100
AcDbBlockReference
  2
_OPEN30
 10
634.6799999999999
 20
176.83
 30
0.0
 41
1.5
 42
1.5
 43
1.5
  0
INSERT
  5
970
330
6AC
100
AcDbEntity
  8
画層1
 62
     0
370
    -2
100
AcDbBlockReference
  2
_OPEN30
 10
486.18
 20
176.83
 30
0.0
 41
1.5
 42
1.5
 43
1.5
 50
180.0
  0
MTEXT
  5
971
330
6AC
100
AcDbEntity
  8
画層1
 62
     0
100
AcDbMText
 10
560.4299999999999
 20
178.9193908629441
 30
0.0
 40
2.5
 41
0.0
 71
     5
 72
     1
  1
\A1;(148.5)
  7
STYLE1
 73
     1
 44
1.0
  0
POINT
  5
972
330
6AC
100
AcDbEntity
  8
DEFPOINTS
 62
     0
100
AcDbPoint
 10
634.6799999999999
 20
197.7899999999999
 30
0.0
  0
POINT
  5
973
330
6AC
100
AcDbEntity
  8
DEFPOINTS
 62
     0
100
AcDbPoint
 10
486.18
 20
207.79
 30
0.0
  0
POINT
  5
974
330
6AC
100
AcDbEntity
  8
DEFPOINTS
 62
     0
100
AcDbPoint
 10
486.18
 20
176.83
 30
0.0
  0
ENDBLK
  5
6B7
330
6AC
100
AcDbEntity
  8
0
 62
     1
100
AcDbBlockEnd
  0
BLOCK
  5
6C2
330
6B8
100
AcDbEntity
  8
0
 62
     1
100
AcDbBlockBegin
  2
*D46
 70
     1
 10
0.0
 20
0.0
 30
0.0
  3
*D46
  1

  0
LINE
  5
963
330
6B8
100
AcDbEntity
  8
画層1
 62
     0
370
    -2
100
AcDbLine
 10
480.6799999999999
 20
233.1599999999999
 30
0.0
 11
480.6799999999999
 21
161.58
 31
0.0
  0
LINE
  5
964
330
6B8
100
AcDbEntity
  8
画層1
 62
     0
370
    -2
100
AcDbLine
 10
634.6799999999999
 20
197.16
 30
0.0
 11
634.6799999999999
 21
161.58
 31
0.0
  0
LINE
  5
965
330
6B8
100
AcDbEntity
  8
画層1
 62
     0
370
    -2
100
AcDbLine
 10
482.18
 20
162.83
 30
0.0
 11
633.1799999999999
 21
162.83
 31
0.0
  0
INSERT
  5
966
330
6B8
100
AcDbEntity
  8
画層1
 62
     0
370
    -2
100
AcDbBlockReference
  2
_OPEN30
 10
480.6799999999999
 20
162.83
 30
0.0
 41
1.5
 42
1.5
 43
1.5
 50
180.0
  0
INSERT
  5
967
330
6B8
100
AcDbEntity
  8
画層1
 62
     0
370
    -2
100
AcDbBlockReference
  2
_OPEN30
 10
634.6799999999999
 20
162.83
 30
0.0
 41
1.5
 42
1.5
 43
1.5
  0
MTEXT
  5
968
330
6B8
100
AcDbEntity
  8
画層1
 62
     0
100
AcDbMText
 10
557.6799999999999
 20
164.9193908629441
 30
0.0
 40
2.5
 41
0.0
 71
     5
 72
     1
  1
\A1;(154)
  7
STYLE1
 73
     1
 44
1.0
  0
POINT
  5
969
330
6B8
100
AcDbEntity
  8
DEFPOINTS
 62
     0
100
AcDbPoint
 10
480.6799999999999
 20
233.7899999999999
 30
0.0
  0
POINT
  5
96A
330
6B8
100
AcDbEntity
  8
DEFPOINTS
 62
     0
100
AcDbPoint
 10
634.6799999999999
 20
197.7899999999999
 30
0.0
  0
POINT
  5
96B
330
6B8
100
AcDbEntity
  8
DEFPOINTS
 62
     0
100
AcDbPoint
 10
634.6799999999999
 20
162.83
 30
0.0
  0
ENDBLK
  5
6C3
330
6B8
100
AcDbEntity
  8
0
 62
     1
100
AcDbBlockEnd
  0
BLOCK
  5
6CE
330
6C4
100
AcDbEntity
  8
0
 62
     1
100
AcDbBlockBegin
  2
*D47
 70
     1
 10
0.0
 20
0.0
 30
0.0
  3
*D47
  1

  0
LINE
  5
975
330
6C4
100
AcDbEntity
  8
画層1
 62
     0
370
    -2
100
AcDbLine
 10
452.68
 20
191.1599999999999
 30
0.0
 11
452.68
 21
147.58
 31
0.0
  0
LINE
  5
976
330
6C4
100
AcDbEntity
  8
画層1
 62
     0
370
    -2
100
AcDbLine
 10
634.6799999999999
 20
197.16
 30
0.0
 11
634.6799999999999
 21
147.58
 31
0.0
  0
LINE
  5
977
330
6C4
100
AcDbEntity
  8
画層1
 62
     0
370
    -2
100
AcDbLine
 10
454.18
 20
148.83
 30
0.0
 11
633.1799999999999
 21
148.83
 31
0.0
  0
INSERT
  5
978
330
6C4
100
AcDbEntity
  8
画層1
 62
     0
370
    -2
100
AcDbBlockReference
  2
_OPEN30
 10
452.68
 20
148.83
 30
0.0
 41
1.5
 42
1.5
 43
1.5
 50
180.0
  0
INSERT
  5
979
330
6C4
100
AcDbEntity
  8
画層1
 62
     0
370
    -2
100
AcDbBlockReference
  2
_OPEN30
 10
634.6799999999999
 20
148.83
 30
0.0
 41
1.5
 42
1.5
 43
1.5
  0
MTEXT
  5
97A
330
6C4
100
AcDbEntity
  8
画層1
 62
     0
100
AcDbMText
 10
543.6799999999999
 20
150.9193908629441
 30
0.0
 40
2.5
 41
0.0
 71
     5
 72
     1
  1
\A1;(182)
  7
STYLE1
 73
     1
 44
1.0
  0
POINT
  5
97B
330
6C4
100
AcDbEntity
  8
DEFPOINTS
 62
     0
100
AcDbPoint
 10
452.68
 20
191.7899999999999
 30
0.0
  0
POINT
  5
97C
330
6C4
100
AcDbEntity
  8
DEFPOINTS
 62
     0
100
AcDbPoint
 10
634.6799999999999
 20
197.7899999999999
 30
0.0
  0
POINT
  5
97D
330
6C4
100
AcDbEntity
  8
DEFPOINTS
 62
     0
100
AcDbPoint
 10
634.6799999999999
 20
148.83
 30
0.0
  0
ENDBLK
  5
6CF
330
6C4
100
AcDbEntity
  8
0
 62
     1
100
AcDbBlockEnd
  0
BLOCK
  5
6DA
330
6D0
100
AcDbEntity
  8
0
 62
     1
100
AcDbBlockBegin
  2
*D48
 70
     1
 10
0.0
 20
0.0
 30
0.0
  3
*D48
  1

  0
LINE
  5
97E
330
6D0
100
AcDbEntity
  8
画層1
 62
     0
370
    -2
100
AcDbLine
 10
411.85
 20
207.79
 30
0.0
 11
395.63
 21
207.79
 31
0.0
  0
LINE
  5
97F
330
6D0
100
AcDbEntity
  8
画層1
 62
     0
370
    -2
100
AcDbLine
 10
452.05
 20
191.7899999999999
 30
0.0
 11
395.63
 21
191.79
 31
0.0
  0
LINE
  5
980
330
6D0
100
AcDbEntity
  8
画層1
 62
     0
370
    -2
100
AcDbLine
 10
396.8799999999999
 20
206.2899999999999
 30
0.0
 11
396.8799999999999
 21
193.29
 31
0.0
  0
INSERT
  5
981
330
6D0
100
AcDbEntity
  8
画層1
 62
     0
370
    -2
100
AcDbBlockReference
  2
_OPEN30
 10
396.8799999999999
 20
207.79
 30
0.0
 41
1.5
 42
1.5
 43
1.5
 50
90.0
  0
INSERT
  5
982
330
6D0
100
AcDbEntity
  8
画層1
 62
     0
370
    -2
100
AcDbBlockReference
  2
_OPEN30
 10
396.8799999999999
 20
191.79
 30
0.0
 41
1.5
 42
1.5
 43
1.5
 50
270.0
  0
MTEXT
  5
983
330
6D0
100
AcDbEntity
  8
画層1
 62
     0
100
AcDbMText
 10
394.9999999999999
 20
199.79
 30
0.0
 40
2.5
 41
0.0
 71
     5
 72
     1
  1
\A1;16
  7
STYLE1
 11
0.0000000000000001
 21
1.0
 31
0.0
 73
     1
 44
1.0
  0
POINT
  5
984
330
6D0
100
AcDbEntity
  8
DEFPOINTS
 62
     0
100
AcDbPoint
 10
412.48
 20
207.79
 30
0.0
  0
POINT
  5
985
330
6D0
100
AcDbEntity
  8
DEFPOINTS
 62
     0
100
AcDbPoint
 10
452.68
 20
191.7899999999999
 30
0.0
  0
POINT
  5
986
330
6D0
100
AcDbEntity
  8
DEFPOINTS
 62
     0
100
AcDbPoint
 10
396.8799999999999
 20
191.79
 30
0.0
  0
ENDBLK
  5
6DB
330
6D0
100
AcDbEntity
  8
0
 62
     1
100
AcDbBlockEnd
  0
BLOCK
  5
6E8
330
6DC
100
AcDbEntity
  8
0
 62
     1
100
AcDbBlockBegin
  2
*D49
 70
     1
 10
0.0
 20
0.0
 30
0.0
  3
*D49
  1

  0
LINE
  5
987
330
6DC
100
AcDbEntity
  8
画層1
 62
     0
370
    -2
100
AcDbLine
 10
486.18
 20
207.16
 30
0.0
 11
486.18
 21
189.58
 31
0.0
  0
LINE
  5
988
330
6DC
100
AcDbEntity
  8
画層1
 62
     0
370
    -2
100
AcDbLine
 10
488.18
 20
207.16
 30
0.0
 11
488.18
 21
189.58
 31
0.0
  0
LINE
  5
989
330
6DC
100
AcDbEntity
  8
画層1
 62
     0
370
    -2
100
AcDbLine
 10
484.6799999999999
 20
190.83
 30
0.0
 11
483.18
 21
190.83
 31
0.0
  0
LINE
  5
98A
330
6DC
100
AcDbEntity
  8
画層1
 62
     0
370
    -2
100
AcDbLine
 10
489.6799999999999
 20
190.83
 30
0.0
 11
493.7344162436548
 21
190.83
 31
0.0
  0
LINE
  5
98B
330
6DC
100
AcDbEntity
  8
画層1
 62
     0
370
    -2
100
AcDbLine
 10
486.18
 20
190.83
 30
0.0
 11
488.18
 21
190.83
 31
0.0
  0
INSERT
  5
98C
330
6DC
100
AcDbEntity
  8
画層1
 62
     0
370
    -2
100
AcDbBlockReference
  2
_OPEN30
 10
486.18
 20
190.83
 30
0.0
 41
1.5
 42
1.5
 43
1.5
  0
INSERT
  5
98D
330
6DC
100
AcDbEntity
  8
画層1
 62
     0
370
    -2
100
AcDbBlockReference
  2
_OPEN30
 10
488.18
 20
190.83
 30
0.0
 41
1.5
 42
1.5
 43
1.5
 50
180.0
  0
MTEXT
  5
98E
330
6DC
100
AcDbEntity
  8
画層1
 62
     0
100
AcDbMText
 10
492.4572081218274
 20
192.71
 30
0.0
 40
2.5
 41
0.0
 71
     5
 72
     1
  1
\A1;2
  7
STYLE1
 73
     1
 44
1.0
  0
POINT
  5
98F
330
6DC
100
AcDbEntity
  8
DEFPOINTS
 62
     0
100
AcDbPoint
 10
486.18
 20
207.79
 30
0.0
  0
POINT
  5
990
330
6DC
100
AcDbEntity
  8
DEFPOINTS
 62
     0
100
AcDbPoint
 10
488.18
 20
207.79
 30
0.0
  0
POINT
  5
991
330
6DC
100
AcDbEntity
  8
DEFPOINTS
 62
     0
100
AcDbPoint
 10
488.18
 20
190.83
 30
0.0
  0
ENDBLK
  5
6E9
330
6DC
100
AcDbEntity
  8
0
 62
     1
100
AcDbBlockEnd
  0
BLOCK
  5
6F4
330
6EA
100
AcDbEntity
  8
0
 62
     1
100
AcDbBlockBegin
  2
*D50
 70
     1
 10
0.0
 20
0.0
 30
0.0
  3
*D50
  1

  0
LINE
  5
992
330
6EA
100
AcDbEntity
  8
画層1
 62
     0
370
    -2
100
AcDbLine
 10
634.6799999999999
 20
418.42
 30
0.0
 11
634.6799999999999
 21
448.04
 31
0.0
  0
LINE
  5
993
330
6EA
100
AcDbEntity
  8
画層1
 62
     0
370
    -2
100
AcDbLine
 10
409.6799999999999
 20
404.0199999999999
 30
0.0
 11
409.6799999999999
 21
448.04
 31
0.0
  0
LINE
  5
994
330
6EA
100
AcDbEntity
  8
画層1
 62
     0
370
    -2
100
AcDbLine
 10
633.1799999999999
 20
446.79
 30
0.0
 11
411.18
 21
446.79
 31
0.0
  0
INSERT
  5
995
330
6EA
100
AcDbEntity
  8
画層1
 62
     0
370
    -2
100
AcDbBlockReference
  2
_OPEN30
 10
634.6799999999999
 20
446.79
 30
0.0
 41
1.5
 42
1.5
 43
1.5
  0
INSERT
  5
996
330
6EA
100
AcDbEntity
  8
画層1
 62
     0
370
    -2
100
AcDbBlockReference
  2
_OPEN30
 10
409.6799999999999
 20
446.79
 30
0.0
 41
1.5
 42
1.5
 43
1.5
 50
180.0
  0
MTEXT
  5
997
330
6EA
100
AcDbEntity
  8
画層1
 62
     0
100
AcDbMText
 10
522.1799999999999
 20
448.6699999999999
 30
0.0
 40
2.5
 41
0.0
 71
     5
 72
     1
  1
\A1;225
  7
STYLE1
 73
     1
 44
1.0
  0
POINT
  5
998
330
6EA
100
AcDbEntity
  8
DEFPOINTS
 62
     0
100
AcDbPoint
 10
634.6799999999999
 20
417.79
 30
0.0
  0
POINT
  5
999
330
6EA
100
AcDbEntity
  8
DEFPOINTS
 62
     0
100
AcDbPoint
 10
409.6799999999999
 20
403.39
 30
0.0
  0
POINT
  5
99A
330
6EA
100
AcDbEntity
  8
DEFPOINTS
 62
     0
100
AcDbPoint
 10
409.6799999999999
 20
446.79
 30
0.0
  0
ENDBLK
  5
6F5
330
6EA
100
AcDbEntity
  8
0
 62
     1
100
AcDbBlockEnd
  0
BLOCK
  5
700
330
6F6
100
AcDbEntity
  8
0
 62
     1
100
AcDbBlockBegin
  2
*D51
 70
     1
 10
0.0
 20
0.0
 30
0.0
  3
*D51
  1

  0
LINE
  5
99B
330
6F6
100
AcDbEntity
  8
画層1
 62
     0
370
    -2
100
AcDbLine
 10
634.6799999999999
 20
418.42
 30
0.0
 11
634.6799999999999
 21
434.04
 31
0.0
  0
LINE
  5
99C
330
6F6
100
AcDbEntity
  8
画層1
 62
     0
370
    -2
100
AcDbLine
 10
433.68
 20
369.3
 30
0.0
 11
433.68
 21
434.04
 31
0.0
  0
LINE
  5
99D
330
6F6
100
AcDbEntity
  8
画層1
 62
     0
370
    -2
100
AcDbLine
 10
633.1799999999999
 20
432.79
 30
0.0
 11
435.1799999999999
 21
432.79
 31
0.0
  0
INSERT
  5
99E
330
6F6
100
AcDbEntity
  8
画層1
 62
     0
370
    -2
100
AcDbBlockReference
  2
_OPEN30
 10
634.6799999999999
 20
432.79
 30
0.0
 41
1.5
 42
1.5
 43
1.5
  0
INSERT
  5
99F
330
6F6
100
AcDbEntity
  8
画層1
 62
     0
370
    -2
100
AcDbBlockReference
  2
_OPEN30
 10
433.68
 20
432.79
 30
0.0
 41
1.5
 42
1.5
 43
1.5
 50
180.0
  0
MTEXT
  5
9A0
330
6F6
100
AcDbEntity
  8
画層1
 62
     0
100
AcDbMText
 10
534.1799999999999
 20
434.8793908629442
 30
0.0
 40
2.5
 41
0.0
 71
     5
 72
     1
  1
\A1;(201)
  7
STYLE1
 73
     1
 44
1.0
  0
POINT
  5
9A1
330
6F6
100
AcDbEntity
  8
DEFPOINTS
 62
     0
100
AcDbPoint
 10
634.6799999999999
 20
417.79
 30
0.0
  0
POINT
  5
9A2
330
6F6
100
AcDbEntity
  8
DEFPOINTS
 62
     0
100
AcDbPoint
 10
433.68
 20
368.67
 30
0.0
  0
POINT
  5
9A3
330
6F6
100
AcDbEntity
  8
DEFPOINTS
 62
     0
100
AcDbPoint
 10
433.68
 20
432.79
 30
0.0
  0
ENDBLK
  5
701
330
6F6
100
AcDbEntity
  8
0
 62
     1
100
AcDbBlockEnd
  0
BLOCK
  5
70C
330
702
100
AcDbEntity
  8
0
 62
     1
100
AcDbBlockBegin
  2
*D52
 70
     1
 10
0.0
 20
0.0
 30
0.0
  3
*D52
  1

  0
LINE
  5
9A4
330
702
100
AcDbEntity
  8
画層1
 62
     0
370
    -2
100
AcDbLine
 10
433.68
 20
369.3
 30
0.0
 11
433.68
 21
434.04
 31
0.0
  0
LINE
  5
9A5
330
702
100
AcDbEntity
  8
画層1
 62
     0
370
    -2
100
AcDbLine
 10
422.6799999999999
 20
369.3
 30
0.0
 11
422.6799999999999
 21
434.04
 31
0.0
  0
LINE
  5
9A6
330
702
100
AcDbEntity
  8
画層1
 62
     0
370
    -2
100
AcDbLine
 10
432.18
 20
432.79
 30
0.0
 11
424.18
 21
432.79
 31
0.0
  0
INSERT
  5
9A7
330
702
100
AcDbEntity
  8
画層1
 62
     0
370
    -2
100
AcDbBlockReference
  2
_OPEN30
 10
433.68
 20
432.79
 30
0.0
 41
1.5
 42
1.5
 43
1.5
  0
INSERT
  5
9A8
330
702
100
AcDbEntity
  8
画層1
 62
     0
370
    -2
100
AcDbBlockReference
  2
_OPEN30
 10
422.6799999999999
 20
432.79
 30
0.0
 41
1.5
 42
1.5
 43
1.5
 50
180.0
  0
MTEXT
  5
9A9
330
702
100
AcDbEntity
  8
画層1
 62
     0
100
AcDbMText
 10
428.18
 20
434.67
 30
0.0
 40
2.5
 41
0.0
 71
     5
 72
     1
  1
\A1;11
  7
STYLE1
 73
     1
 44
1.0
  0
POINT
  5
9AA
330
702
100
AcDbEntity
  8
DEFPOINTS
 62
     0
100
AcDbPoint
 10
433.68
 20
368.67
 30
0.0
  0
POINT
  5
9AB
330
702
100
AcDbEntity
  8
DEFPOINTS
 62
     0
100
AcDbPoint
 10
422.6799999999999
 20
368.67
 30
0.0
  0
POINT
  5
9AC
330
702
100
AcDbEntity
  8
DEFPOINTS
 62
     0
100
AcDbPoint
 10
422.6799999999999
 20
432.79
 30
0.0
  0
ENDBLK
  5
70D
330
702
100
AcDbEntity
  8
0
 62
     1
100
AcDbBlockEnd
  0
ENDSEC
  0
SECTION
  2
ENTITIES
  0
DIMENSION
  5
32
330
2
100
AcDbEntity
  8
画層1
 62
     0
100
AcDbDimension
  2
*D30
 10
305.48
 20
411.79
 30
0.0
 11
303.5999999999999
 21
307.79
 31
0.0
 70
    32
 71
     5
 42
208.0
  3
STANDARD_WS
100
AcDbAlignedDimension
 13
265.0799999999999
 23
203.79
 33
0.0
 14
265.0799999999999
 24
411.79
 34
0.0
 50
90.0
100
AcDbRotatedDimension
1001
ACAD
1000
DSTYLE
1002
{
1070
   279
1070
     1
1070
    47
1040
0.6
1070
   144
1040
1.0
1070
   146
1040
0.5
1070
   173
1070
     0
1070
   284
1070
     8
1070
   340
1005
2A
1070
   341
1005
2B
1070
   342
1005
2B
1070
   343
1005
2B
1002
}
  0
DIMENSION
  5
40
330
2
100
AcDbEntity
  8
画層1
 62
     0
100
AcDbDimension
  2
*D29
 10
105.4799999999999
 20
197.7899999999999
 30
0.0
 11
103.5999999999999
 21
307.79
 31
0.0
 70
    32
 71
     5
 42
220.0
  3
STANDARD_WS
100
AcDbAlignedDimension
 13
155.12
 23
417.79
 33
0.0
 14
154.4
 24
197.7899999999999
 34
0.0
 50
90.0
100
AcDbRotatedDimension
1001
ACAD
1000
DSTYLE
1002
{
1070
    47
1040
0.6
1070
   144
1040
1.0
1070
   146
1040
0.5
1070
   173
1070
     0
1070
   284
1070
     8
1070
   340
1005
2A
1070
   341
1005
2B
1070
   342
1005
2B
1070
   343
1005
2B
1002
}
  0
DIMENSION
  5
4D
330
2
100
AcDbEntity
  8
画層1
 62
     0
100
AcDbDimension
  2
*D28
 10
119.48
 20
207.79
 30
0.0
 11
117.5999999999999
 21
307.79
 31
0.0
 70
    32
 71
     5
 42
200.0
  3
STANDARD_WS
100
AcDbAlignedDimension
 13
148.24
 23
407.79
 33
0.0
 14
148.24
 24
207.79
 34
0.0
 50
90.0
100
AcDbRotatedDimension
1001
ACAD
1000
DSTYLE
1002
{
1070
   279
1070
     1
1070
    47
1040
0.6
1070
   144
1040
1.0
1070
   146
1040
0.5
1070
   173
1070
     0
1070
   284
1070
     8
1070
   340
1005
2A
1070
   341
1005
2B
1070
   342
1005
2B
1070
   343
1005
2B
1002
}
  0
LINE
  5
5A
330
2
100
AcDbEntity
  8
画層1
  6
CENTER
 62
     0
100
AcDbLine
 10
211.98
 20
413.79
 30
0.0
 11
211.98
 21
185.7899999999999
 31
0.0
  0
LINE
  5
5C
330
2
100
AcDbEntity
  8
画層1
 62
     0
100
AcDbLine
 10
147.8799999999999
 20
371.79
 30
0.0
 11
147.8799999999999
 21
276.79
 31
0.0
  0
LINE
  5
5D
330
2
100
AcDbEntity
  8
画層1
 62
     0
100
AcDbLine
 10
149.4799999999999
 20
371.79
 30
0.0
 11
149.4799999999999
 21
276.79
 31
0.0
  0
LINE
  5
5E
330
2
100
AcDbEntity
  8
画層1
 62
     0
100
AcDbLine
 10
276.18
 20
396.29
 30
0.0
 11
276.18
 21
219.2899999999999
 31
0.0
  0
ARC
  5
5F
330
2
100
AcDbEntity
  8
画層1
 62
     0
100
AcDbCircle
 10
154.78
 20
294.91
 30
0.0
 40
1.0
100
AcDbArc
 50
270.0
 51
0.0
  0
ARC
  5
60
330
2
100
AcDbEntity
  8
画層1
 62
     0
100
AcDbCircle
 10
157.78
 20
294.91
 30
0.0
 40
1.0
100
AcDbArc
 50
180.0
 51
270.0
  0
LINE
  5
61
330
2
100
AcDbEntity
  8
画層1
 62
     0
100
AcDbLine
 10
152.28
 20
297.41
 30
0.0
 11
152.28
 21
289.41
 31
0.0
  0
CIRCLE
  5
62
330
2
100
AcDbEntity
  8
画層1
 62
     0
100
AcDbCircle
 10
156.28
 20
293.41
 30
0.0
 40
3.0
  0
LINE
  5
63
330
2
100
AcDbEntity
  8
画層1
 62
     0
100
AcDbLine
 10
171.98
 20
371.79
 30
0.0
 11
171.98
 21
276.79
 31
0.0
  0
LINE
  5
64
330
2
100
AcDbEntity
  8
画層1
 62
     0
100
AcDbLine
 10
149.98
 20
371.79
 30
0.0
 11
149.98
 21
276.79
 31
0.0
  0
LINE
  5
65
330
2
100
AcDbEntity
  8
画層1
 62
     0
100
AcDbLine
 10
170.7799999999999
 20
370.79
 30
0.0
 11
170.7799999999999
 21
277.79
 31
0.0
  0
LINE
  5
66
330
2
100
AcDbEntity
  8
画層1
 62
     0
100
AcDbLine
 10
150.78
 20
277.79
 30
0.0
 11
150.78
 21
370.79
 31
0.0
  0
LINE
  5
67
330
2
100
AcDbEntity
  8
画層1
 62
     0
100
AcDbLine
 10
160.28
 20
368.67
 30
0.0
 11
160.28
 21
279.91
 31
0.0
  0
DIMENSION
  5
68
330
2
100
AcDbEntity
  8
画層1
 62
     0
100
AcDbDimension
  2
*D33
 10
291.4799999999999
 20
237.7899999999999
 30
0.0
 11
289.5999999999999
 21
222.79
 31
0.0
 70
    32
 71
     5
 42
30.0
  3
STANDARD_WS
100
AcDbAlignedDimension
 13
275.74
 23
207.79
 33
0.0
 14
217.4799999999999
 24
237.7899999999999
 34
0.0
 50
90.0
100
AcDbRotatedDimension
1001
ACAD
1000
DSTYLE
1002
{
1070
    47
1040
0.6
1070
   144
1040
1.0
1070
   146
1040
0.5
1070
   173
1070
     0
1070
   284
1070
     8
1070
   340
1005
2A
1070
   341
1005
2B
1070
   342
1005
2B
1070
   343
1005
2B
1002
}
  0
DIMENSION
  5
75
330
2
100
AcDbEntity
  8
画層1
 62
     0
100
AcDbDimension
  2
*D32
 10
251.48
 20
176.83
 30
0.0
 11
241.48
 21
178.71
 31
0.0
 70
    32
 71
     5
 42
20.0
  3
STANDARD_WS
100
AcDbAlignedDimension
 13
231.4799999999999
 23
207.79
 33
0.0
 14
251.48
 24
207.79
 34
0.0
100
AcDbRotatedDimension
1001
ACAD
1000
DSTYLE
1002
{
1070
    47
1040
0.6
1070
   144
1040
1.0
1070
   146
1040
0.5
1070
   173
1070
     0
1070
   284
1070
     8
1070
   340
1005
2A
1070
   341
1005
2B
1070
   342
1005
2B
1070
   343
1005
2B
1002
}
  0
LINE
  5
82
330
2
100
AcDbEntity
  8
画層1
  6
CENTER
 62
     0
100
AcDbLine
 10
232.98
 20
216.7899999999999
 30
0.0
 11
249.98
 21
216.7899999999999
 31
0.0
  0
DIMENSION
  5
83
330
2
100
AcDbEntity
  8
画層1
 62
     0
100
AcDbDimension
  2
*D31
 10
241.48
 20
162.83
 30
0.0
 11
214.9799999999999
 21
164.71
 31
0.0
 70
    32
 71
     5
 42
53.0
  3
STANDARD_WS
100
AcDbAlignedDimension
 13
188.48
 23
212.29
 33
0.0
 14
241.48
 24
176.83
 34
0.0
100
AcDbRotatedDimension
1001
ACAD
1000
DSTYLE
1002
{
1070
    47
1040
0.6
1070
   144
1040
1.0
1070
   146
1040
0.5
1070
   173
1070
     0
1070
   284
1070
     8
1070
   340
1005
2A
1070
   341
1005
2B
1070
   342
1005
2B
1070
   343
1005
2B
1002
}
  0
LINE
  5
90
330
2
100
AcDbEntity
  8
画層1
  6
DIVIDE
 62
     0
100
AcDbLine
 10
169.9799999999999
 20
191.7899999999999
 30
0.0
 11
253.98
 21
191.7899999999999
 31
0.0
  0
LINE
  5
92
330
2
100
AcDbEntity
  8
画層1
  6
CENTER
 62
     0
100
AcDbLine
 10
238.4799999999999
 20
252.7899999999999
 30
0.0
 11
244.4799999999999
 21
252.7899999999999
 31
0.0
  0
LINE
  5
93
330
2
100
AcDbEntity
  8
画層1
  6
CENTER
 62
     0
100
AcDbLine
 10
238.4799999999999
 20
236.79
 30
0.0
 11
244.4799999999999
 21
236.79
 31
0.0
  0
CIRCLE
  5
94
330
2
100
AcDbEntity
  8
画層1
  6
DASHED2
 62
     0
100
AcDbCircle
 10
241.48
 20
216.7899999999999
 30
0.0
 40
4.5
  0
LINE
  5
96
330
2
100
AcDbEntity
  8
画層1
  6
DASHED2
 62
     0
100
AcDbLine
 10
274.48
 20
230.79
 30
0.0
 11
149.4799999999999
 21
230.79
 31
0.0
  0
LINE
  5
97
330
2
100
AcDbEntity
  8
画層1
  6
DASHED2
 62
     0
100
AcDbLine
 10
149.4799999999999
 20
258.79
 30
0.0
 11
274.48
 21
258.79
 31
0.0
  0
LINE
  5
98
330
2
100
AcDbEntity
  8
画層1
 62
     0
100
AcDbLine
 10
168.4799999999999
 20
207.79
 30
0.0
 11
257.98
 21
207.79
 31
0.0
  0
LEADER
  5
99
330
2
100
AcDbEntity
  8
画層1
 62
     0
100
AcDbLeader
  3
STANDARD_WS
 73
     0
 75
     1
 40
5.809999999999999
 41
15.56
 76
     3
 10
239.38
 20
212.8099999999999
 30
0.0
 10
218.3499999999999
 20
177.4399999999999
 30
0.0
 10
216.8499999999999
 20
177.4399999999999
 30
0.0
340
9A
213
-1.0
223
0.4207616165015224
233
0.0
1001
ACAD
1000
DSTYLE
1002
{
1070
   341
1005
2B
1070
   147
1040
0.63
1070
    77
1070
     2
1070
    47
1040
0.6
1070
   144
1040
2.0
1070
   146
1040
0.5
1070
   284
1070
     8
1070
   340
1005
2A
1002
}
  0
MTEXT
  5
9A
102
{ACAD_REACTORS
330
99
102
}
330
2
100
AcDbEntity
  8
画層1
 62
     0
100
AcDbMText
 10
217.22
 20
177.65
 30
0.0
 40
5.0
 41
0.0
 71
     9
 72
     1
  1
2-φ9
  7
STYLE1
 73
     1
 44
1.0
  0
LEADER
  5
9B
330
2
100
AcDbEntity
  8
画層1
 62
     0
100
AcDbLeader
  3
STANDARD_WS
 73
     0
 75
     1
 40
5.0
 41
12.35999999999999
 76
     3
 10
213.4799999999999
 20
236.2899999999999
 30
0.0
 10
176.2299999999999
 20
163.44
 30
0.0
 10
174.7299999999999
 20
163.44
 30
0.0
340
A0
213
-1.0
223
0.4207616165015224
233
0.0
1001
ACAD
1000
DSTYLE
1002
{
1070
   341
1005
9C
1070
   147
1040
0.63
1070
    77
1070
     2
1070
    47
1040
0.6
1070
   144
1040
2.0
1070
   146
1040
0.5
1070
   284
1070
     8
1070
   340
1005
2A
1002
}
  0
MTEXT
  5
A0
102
{ACAD_REACTORS
330
9B
102
}
330
2
100
AcDbEntity
  8
画層1
 62
     0
100
AcDbMText
 10
175.0999999999999
 20
163.65
 30
0.0
 40
5.0
 41
0.0
 71
     9
 72
     1
  1
M3.5
  7
STYLE1
 73
     1
 44
1.0
  0
DIMENSION
  5
A1
330
2
100
AcDbEntity
  8
画層1
 62
     0
100
AcDbDimension
  2
*D34
 10
119.48
 20
197.7899999999999
 30
0.0
 11
117.5999999999999
 21
202.79
 31
0.0
 70
    32
 71
     5
 42
10.0
  3
STANDARD_WS
100
AcDbAlignedDimension
 13
148.24
 23
207.79
 33
0.0
 14
154.4
 24
197.7899999999999
 34
0.0
 50
90.0
100
AcDbRotatedDimension
1001
ACAD
1000
DSTYLE
1002
{
1070
   279
1070
     1
1070
    47
1040
0.6
1070
   144
1040
1.0
1070
   146
1040
0.5
1070
   173
1070
     0
1070
   284
1070
     8
1070
   340
1005
2A
1070
   341
1005
2B
1070
   342
1005
2B
1070
   343
1005
2B
1002
}
  0
LINE
  5
AE
330
2
100
AcDbEntity
  8
画層1
  6
DIVIDE
 62
     0
100
AcDbLine
 10
166.9799999999999
 20
209.2899999999999
 30
0.0
 11
166.9799999999999
 21
194.7899999999999
 31
0.0
  0
LINE
  5
AF
330
2
100
AcDbEntity
  8
画層1
  6
CENTER
 62
     0
100
AcDbLine
 10
161.88
 20
210.7899999999999
 30
0.0
 11
161.88
 21
193.7899999999999
 31
0.0
  0
LINE
  5
B0
330
2
100
AcDbEntity
  8
画層1
 62
     0
100
AcDbLine
 10
164.88
 20
203.79
 30
0.0
 11
164.88
 21
197.7899999999999
 31
0.0
  0
LINE
  5
B1
330
2
100
AcDbEntity
  8
画層1
 62
     0
100
AcDbLine
 10
158.8799999999999
 20
203.79
 30
0.0
 11
158.8799999999999
 21
197.7899999999999
 31
0.0
  0
ARC
  5
B2
330
2
100
AcDbEntity
  8
画層1
 62
     0
100
AcDbCircle
 10
168.88
 20
202.7899999999999
 30
0.0
 40
5.0
100
AcDbArc
 50
270.0
 51
0.0
  0
ARC
  5
B3
330
2
100
AcDbEntity
  8
画層1
 62
     0
100
AcDbCircle
 10
155.8799999999999
 20
202.7899999999999
 30
0.0
 40
5.0
100
AcDbArc
 50
180.0
 51
270.0
  0
DIMENSION
  5
B4
330
2
100
AcDbEntity
  8
画層1
 62
     0
100
AcDbDimension
  2
*D35
 10
164.88
 20
176.83
 30
0.0
 11
134.06
 21
176.83
 31
0.0
 70
   160
 71
     5
 42
6.0
  3
STANDARD_WS
100
AcDbAlignedDimension
 13
158.8799999999999
 23
197.7899999999999
 33
0.0
 14
164.88
 24
197.7899999999999
 34
0.0
100
AcDbRotatedDimension
1001
ACAD
1000
DSTYLE
1002
{
1070
     3
1000
2-<>キリカキ
1070
    47
1040
0.6
1070
   144
1040
1.0
1070
   146
1040
0.5
1070
   173
1070
     0
1070
   284
1070
     8
1070
   340
1005
2A
1070
   341
1005
2B
1070
   342
1005
2B
1070
   343
1005
2B
1002
}
  0
LINE
  5
C3
330
2
100
AcDbEntity
  8
画層1
 62
     0
100
AcDbLine
 10
155.8799999999999
 20
197.7899999999999
 30
0.0
 11
158.8799999999999
 21
197.7899999999999
 31
0.0
  0
LINE
  5
C4
330
2
100
AcDbEntity
  8
画層1
 62
     0
100
AcDbLine
 10
164.88
 20
197.7899999999999
 30
0.0
 11
168.88
 21
197.7899999999999
 31
0.0
  0
ARC
  5
C5
330
2
100
AcDbEntity
  8
画層1
  6
DIVIDE
 62
     0
100
AcDbCircle
 10
169.9799999999999
 20
194.7899999999999
 30
0.0
 40
3.0
100
AcDbArc
 50
180.0
 51
270.0
  0
LINE
  5
C6
330
2
100
AcDbEntity
  8
画層1
  6
DASHED2
 62
     0
100
AcDbLine
 10
149.4799999999999
 20
230.79
 30
0.0
 11
149.4799999999999
 21
258.79
 31
0.0
  0
LINE
  5
C7
330
2
100
AcDbEntity
  8
画層1
 62
     0
100
AcDbLine
 10
147.78
 20
219.2899999999999
 30
0.0
 11
147.78
 21
276.79
 31
0.0
  0
LINE
  5
C8
330
2
100
AcDbEntity
  8
画層1
  6
CENTER
 62
     0
100
AcDbLine
 10
168.88
 20
203.79
 30
0.0
 11
154.8799999999999
 21
203.79
 31
0.0
  0
LINE
  5
C9
330
2
100
AcDbEntity
  8
画層1
 62
     0
100
AcDbLine
 10
149.8799999999999
 20
218.7899999999999
 30
0.0
 11
165.3799999999999
 21
218.7899999999999
 31
0.0
  0
LINE
  5
CA
330
2
100
AcDbEntity
  8
画層1
 62
     0
100
AcDbLine
 10
165.3799999999999
 20
217.1899999999999
 30
0.0
 11
149.8799999999999
 21
217.1899999999999
 31
0.0
  0
LINE
  5
CB
330
2
100
AcDbEntity
  8
画層1
 62
     0
100
AcDbLine
 10
147.78
 20
219.2899999999999
 30
0.0
 11
164.9799999999999
 21
219.2899999999999
 31
0.0
  0
LINE
  5
CC
330
2
100
AcDbEntity
  8
画層1
 62
     0
100
AcDbLine
 10
147.8799999999999
 20
219.2899999999999
 30
0.0
 11
147.8799999999999
 21
207.79
 31
0.0
  0
LINE
  5
CD
330
2
100
AcDbEntity
  8
画層1
 62
     0
100
AcDbLine
 10
149.4799999999999
 20
216.7899999999999
 30
0.0
 11
149.4799999999999
 21
207.79
 31
0.0
  0
LINE
  5
CE
330
2
100
AcDbEntity
  8
画層1
 62
     0
100
AcDbLine
 10
147.8799999999999
 20
207.79
 30
0.0
 11
150.8799999999999
 21
207.79
 31
0.0
  0
LINE
  5
CF
330
2
100
AcDbEntity
  8
画層1
 62
     0
100
AcDbLine
 10
150.8799999999999
 20
207.79
 30
0.0
 11
150.8799999999999
 21
202.7899999999999
 31
0.0
  0
ARC
  5
D0
330
2
100
AcDbEntity
  8
画層1
 62
     0
100
AcDbCircle
 10
149.8799999999999
 20
216.7899999999999
 30
0.0
 40
2.0
100
AcDbArc
 50
90.0
 51
180.0
  0
LINE
  5
D1
330
2
100
AcDbEntity
  8
画層1
 62
     0
100
AcDbLine
 10
149.4799999999999
 20
219.2899999999999
 30
0.0
 11
149.4799999999999
 21
218.75
 31
0.0
  0
ARC
  5
D2
330
2
100
AcDbEntity
  8
画層1
 62
     0
100
AcDbCircle
 10
149.8799999999999
 20
216.7899999999999
 30
0.0
 40
0.4
100
AcDbArc
 50
90.0
 51
180.0
  0
LINE
  5
D3
330
2
100
AcDbEntity
  8
画層1
 62
     0
100
AcDbLine
 10
166.9799999999999
 20
217.2899999999999
 30
0.0
 11
166.9799999999999
 21
209.2899999999999
 31
0.0
  0
ARC
  5
D4
330
2
100
AcDbEntity
  8
画層1
 62
     0
100
AcDbCircle
 10
161.88
 20
203.79
 30
0.0
 40
3.0
100
AcDbArc
 50
0.0
 51
180.0
  0
LINE
  5
D5
330
2
100
AcDbEntity
  8
画層1
 62
     0
100
AcDbLine
 10
173.8799999999999
 20
202.7899999999999
 30
0.0
 11
173.8799999999999
 21
207.79
 31
0.0
  0
ARC
  5
D6
330
2
100
AcDbEntity
  8
画層1
 62
     0
100
AcDbCircle
 10
168.4799999999999
 20
209.2899999999999
 30
0.0
 40
1.5
100
AcDbArc
 50
180.0
 51
270.0
  0
ARC
  5
D7
330
2
100
AcDbEntity
  8
画層1
 62
     0
100
AcDbCircle
 10
164.9799999999999
 20
217.2899999999999
 30
0.0
 40
2.0
100
AcDbArc
 50
0.0
 51
90.0
  0
LINE
  5
D8
330
2
100
AcDbEntity
  8
画層1
 62
     0
100
AcDbLine
 10
163.8799999999999
 20
213.69
 30
0.0
 11
163.8799999999999
 21
216.19
 31
0.0
  0
ARC
  5
D9
330
2
100
AcDbEntity
  8
画層1
 62
     0
100
AcDbCircle
 10
163.3799999999999
 20
213.69
 30
0.0
 40
0.5
100
AcDbArc
 50
270.0
 51
0.0
  0
LINE
  5
DA
330
2
100
AcDbEntity
  8
画層1
 62
     0
100
AcDbLine
 10
158.8799999999999
 20
216.19
 30
0.0
 11
158.8799999999999
 21
213.69
 31
0.0
  0
LINE
  5
DB
330
2
100
AcDbEntity
  8
画層1
 62
     0
100
AcDbLine
 10
159.3799999999999
 20
213.1899999999999
 30
0.0
 11
163.3799999999999
 21
213.1899999999999
 31
0.0
  0
LINE
  5
DC
330
2
100
AcDbEntity
  8
画層1
 62
     0
100
AcDbLine
 10
163.8799999999999
 20
215.1899999999999
 30
0.0
 11
158.8799999999999
 21
215.1899999999999
 31
0.0
  0
LINE
  5
DD
330
2
100
AcDbEntity
  8
画層1
 62
     0
100
AcDbLine
 10
165.3799999999999
 20
218.7899999999999
 30
0.0
 11
165.3799999999999
 21
217.1899999999999
 31
0.0
  0
LINE
  5
DE
330
2
100
AcDbEntity
  8
画層1
 62
     0
100
AcDbLine
 10
164.3799999999999
 20
216.19
 30
0.0
 11
164.3799999999999
 21
217.1899999999999
 31
0.0
  0
LINE
  5
DF
330
2
100
AcDbEntity
  8
画層1
 62
     0
100
AcDbLine
 10
158.38
 20
217.1899999999999
 30
0.0
 11
158.38
 21
216.19
 31
0.0
  0
LINE
  5
E0
330
2
100
AcDbEntity
  8
画層1
 62
     0
100
AcDbLine
 10
158.38
 20
216.19
 30
0.0
 11
164.3799999999999
 21
216.19
 31
0.0
  0
ARC
  5
E1
330
2
100
AcDbEntity
  8
画層1
 62
     0
100
AcDbCircle
 10
159.3799999999999
 20
213.69
 30
0.0
 40
0.5
100
AcDbArc
 50
180.0
 51
270.0
  0
ARC
  5
E2
330
2
100
AcDbEntity
  8
画層1
 62
     0
100
AcDbCircle
 10
157.78
 20
291.91
 30
0.0
 40
1.0
100
AcDbArc
 50
90.0
 51
180.0
  0
LINE
  5
E3
330
2
100
AcDbEntity
  8
画層1
 62
     0
100
AcDbLine
 10
150.78
 20
289.41
 30
0.0
 11
160.28
 21
289.41
 31
0.0
  0
ARC
  5
E4
330
2
100
AcDbEntity
  8
画層1
 62
     0
100
AcDbCircle
 10
157.78
 20
285.41
 30
0.0
 40
1.0
100
AcDbArc
 50
180.0
 51
270.0
  0
ARC
  5
E5
330
2
100
AcDbEntity
  8
画層1
 62
     0
100
AcDbCircle
 10
157.78
 20
282.41
 30
0.0
 40
1.0
100
AcDbArc
 50
90.0
 51
180.0
  0
CIRCLE
  5
E6
330
2
100
AcDbEntity
  8
画層1
 62
     0
100
AcDbCircle
 10
156.28
 20
283.91
 30
0.0
 40
3.0
  0
LINE
  5
E7
330
2
100
AcDbEntity
  8
画層1
 62
     0
100
AcDbLine
 10
150.78
 20
287.91
 30
0.0
 11
160.28
 21
287.91
 31
0.0
  0
LINE
  5
E8
330
2
100
AcDbEntity
  8
画層1
 62
     0
100
AcDbLine
 10
171.98
 20
276.79
 30
0.0
 11
147.78
 21
276.79
 31
0.0
  0
LINE
  5
E9
330
2
100
AcDbEntity
  8
画層1
 62
     0
100
AcDbLine
 10
170.7799999999999
 20
277.79
 30
0.0
 11
150.78
 21
277.79
 31
0.0
  0
LINE
  5
EA
330
2
100
AcDbEntity
  8
画層1
 62
     0
100
AcDbLine
 10
150.78
 20
279.91
 30
0.0
 11
169.7799999999999
 21
279.91
 31
0.0
  0
LINE
  5
EB
330
2
100
AcDbEntity
  8
画層1
 62
     0
100
AcDbLine
 10
156.78
 20
282.41
 30
0.0
 11
156.78
 21
282.11
 31
0.0
  0
LINE
  5
EC
330
2
100
AcDbEntity
  8
画層1
 62
     0
100
AcDbLine
 10
155.78
 20
282.11
 30
0.0
 11
155.78
 21
282.41
 31
0.0
  0
LINE
  5
ED
330
2
100
AcDbEntity
  8
画層1
 62
     0
100
AcDbLine
 10
152.28
 20
287.91
 30
0.0
 11
152.28
 21
279.91
 31
0.0
  0
LINE
  5
EE
330
2
100
AcDbEntity
  8
画層1
 62
     0
100
AcDbLine
 10
155.78
 20
282.11
 30
0.0
 11
156.78
 21
282.11
 31
0.0
  0
LINE
  5
EF
330
2
100
AcDbEntity
  8
画層1
 62
     0
100
AcDbLine
 10
156.78
 20
291.91
 30
0.0
 11
156.78
 21
291.61
 31
0.0
  0
ARC
  5
F0
330
2
100
AcDbEntity
  8
画層1
 62
     0
100
AcDbCircle
 10
154.78
 20
291.91
 30
0.0
 40
1.0
100
AcDbArc
 50
0.0
 51
90.0
  0
LINE
  5
F1
330
2
100
AcDbEntity
  8
画層1
 62
     0
100
AcDbLine
 10
155.78
 20
291.61
 30
0.0
 11
155.78
 21
291.91
 31
0.0
  0
LINE
  5
F2
330
2
100
AcDbEntity
  8
画層1
 62
     0
100
AcDbLine
 10
155.78
 20
291.61
 30
0.0
 11
156.78
 21
291.61
 31
0.0
  0
LINE
  5
F3
330
2
100
AcDbEntity
  8
画層1
 62
     0
100
AcDbLine
 10
154.78
 20
292.91
 30
0.0
 11
153.3199999999999
 21
292.91
 31
0.0
  0
LINE
  5
F4
330
2
100
AcDbEntity
  8
画層1
 62
     0
100
AcDbLine
 10
156.78
 20
285.7099999999999
 30
0.0
 11
156.78
 21
285.41
 31
0.0
  0
LINE
  5
F5
330
2
100
AcDbEntity
  8
画層1
 62
     0
100
AcDbLine
 10
155.78
 20
285.41
 30
0.0
 11
155.78
 21
285.7099999999999
 31
0.0
  0
ARC
  5
F6
330
2
100
AcDbEntity
  8
画層1
 62
     0
100
AcDbCircle
 10
154.78
 20
285.41
 30
0.0
 40
1.0
100
AcDbArc
 50
270.0
 51
0.0
  0
LINE
  5
F7
330
2
100
AcDbEntity
  8
画層1
 62
     0
100
AcDbLine
 10
155.78
 20
285.7099999999999
 30
0.0
 11
156.78
 21
285.7099999999999
 31
0.0
  0
ARC
  5
F8
330
2
100
AcDbEntity
  8
画層1
 62
     0
100
AcDbCircle
 10
154.78
 20
282.41
 30
0.0
 40
1.0
100
AcDbArc
 50
0.0
 51
90.0
  0
LINE
  5
F9
330
2
100
AcDbEntity
  8
画層1
 62
     0
100
AcDbLine
 10
154.78
 20
283.41
 30
0.0
 11
153.3199999999999
 21
283.41
 31
0.0
  0
LINE
  5
FA
330
2
100
AcDbEntity
  8
画層1
 62
     0
100
AcDbLine
 10
153.3199999999999
 20
284.41
 30
0.0
 11
154.78
 21
284.41
 31
0.0
  0
LINE
  5
FB
330
2
100
AcDbEntity
  8
画層1
 62
     0
100
AcDbLine
 10
169.7799999999999
 20
283.17
 30
0.0
 11
169.7799999999999
 21
279.91
 31
0.0
  0
LINE
  5
FC
330
2
100
AcDbEntity
  8
画層1
 62
     0
100
AcDbLine
 10
161.28
 20
283.17
 30
0.0
 11
161.28
 21
279.91
 31
0.0
  0
LINE
  5
FD
330
2
100
AcDbEntity
  8
画層1
 62
     0
100
AcDbLine
 10
165.28
 20
290.47
 30
0.0
 11
166.28
 21
290.47
 31
0.0
  0
LINE
  5
FE
330
2
100
AcDbEntity
  8
画層1
 62
     0
100
AcDbLine
 10
165.28
 20
286.87
 30
0.0
 11
166.28
 21
286.87
 31
0.0
  0
CIRCLE
  5
FF
330
2
100
AcDbEntity
  8
画層1
 62
     0
100
AcDbCircle
 10
165.7799999999999
 20
288.67
 30
0.0
 40
3.0
  0
LINE
  5
100
330
2
100
AcDbEntity
  8
画層1
 62
     0
100
AcDbLine
 10
161.28
 20
283.17
 30
0.0
 11
169.7799999999999
 21
283.17
 31
0.0
  0
LINE
  5
101
330
2
100
AcDbEntity
  8
画層1
 62
     0
100
AcDbLine
 10
160.28
 20
284.67
 30
0.0
 11
169.7799999999999
 21
284.67
 31
0.0
  0
LINE
  5
102
330
2
100
AcDbEntity
  8
画層1
 62
     0
100
AcDbLine
 10
160.28
 20
292.67
 30
0.0
 11
169.7799999999999
 21
292.67
 31
0.0
  0
LINE
  5
103
330
2
100
AcDbEntity
  8
画層1
 62
     0
100
AcDbLine
 10
165.28
 20
290.17
 30
0.0
 11
165.28
 21
290.47
 31
0.0
  0
LINE
  5
104
330
2
100
AcDbEntity
  8
画層1
 62
     0
100
AcDbLine
 10
162.8199999999999
 20
289.17
 30
0.0
 11
164.28
 21
289.17
 31
0.0
  0
ARC
  5
105
330
2
100
AcDbEntity
  8
画層1
 62
     0
100
AcDbCircle
 10
164.28
 20
290.17
 30
0.0
 40
1.0
100
AcDbArc
 50
270.0
 51
0.0
  0
LINE
  5
106
330
2
100
AcDbEntity
  8
画層1
 62
     0
100
AcDbLine
 10
165.28
 20
286.87
 30
0.0
 11
165.28
 21
287.17
 31
0.0
  0
LINE
  5
107
330
2
100
AcDbEntity
  8
画層1
 62
     0
100
AcDbLine
 10
164.28
 20
288.17
 30
0.0
 11
162.8199999999999
 21
288.17
 31
0.0
  0
ARC
  5
108
330
2
100
AcDbEntity
  8
画層1
 62
     0
100
AcDbCircle
 10
164.28
 20
287.17
 30
0.0
 40
1.0
100
AcDbArc
 50
0.0
 51
90.0
  0
LINE
  5
109
330
2
100
AcDbEntity
  8
画層1
 62
     0
100
AcDbLine
 10
159.24
 20
292.91
 30
0.0
 11
157.78
 21
292.91
 31
0.0
  0
LINE
  5
10A
330
2
100
AcDbEntity
  8
画層1
 62
     0
100
AcDbLine
 10
157.78
 20
284.41
 30
0.0
 11
159.24
 21
284.41
 31
0.0
  0
LINE
  5
10B
330
2
100
AcDbEntity
  8
画層1
 62
     0
100
AcDbLine
 10
159.24
 20
283.41
 30
0.0
 11
157.78
 21
283.41
 31
0.0
  0
LINE
  5
10C
330
2
100
AcDbEntity
  8
画層1
 62
     0
100
AcDbLine
 10
161.78
 20
292.67
 30
0.0
 11
161.78
 21
284.67
 31
0.0
  0
LINE
  5
10D
330
2
100
AcDbEntity
  8
画層1
 62
     0
100
AcDbLine
 10
166.28
 20
290.47
 30
0.0
 11
166.28
 21
290.17
 31
0.0
  0
LINE
  5
10E
330
2
100
AcDbEntity
  8
画層1
 62
     0
100
AcDbLine
 10
167.28
 20
289.17
 30
0.0
 11
168.74
 21
289.17
 31
0.0
  0
ARC
  5
10F
330
2
100
AcDbEntity
  8
画層1
 62
     0
100
AcDbCircle
 10
167.28
 20
290.17
 30
0.0
 40
1.0
100
AcDbArc
 50
180.0
 51
270.0
  0
LINE
  5
110
330
2
100
AcDbEntity
  8
画層1
 62
     0
100
AcDbLine
 10
166.28
 20
287.17
 30
0.0
 11
166.28
 21
286.87
 31
0.0
  0
LINE
  5
111
330
2
100
AcDbEntity
  8
画層1
 62
     0
100
AcDbLine
 10
168.74
 20
288.17
 30
0.0
 11
167.28
 21
288.17
 31
0.0
  0
ARC
  5
112
330
2
100
AcDbEntity
  8
画層1
 62
     0
100
AcDbCircle
 10
167.28
 20
287.17
 30
0.0
 40
1.0
100
AcDbArc
 50
90.0
 51
180.0
  0
LINE
  5
113
330
2
100
AcDbEntity
  8
画層1
 62
     0
100
AcDbLine
 10
169.7799999999999
 20
292.67
 30
0.0
 11
169.7799999999999
 21
284.67
 31
0.0
  0
ARC
  5
114
330
2
100
AcDbEntity
  8
画層1
  6
DASHED2
 62
     0
100
AcDbCircle
 10
216.48
 20
246.2899999999999
 30
0.0
 40
1.0
100
AcDbArc
 50
90.0
 51
180.0
  0
LINE
  5
115
330
2
100
AcDbEntity
  8
画層1
  6
DASHED2
 62
     0
100
AcDbLine
 10
216.78
 20
247.29
 30
0.0
 11
216.78
 21
248.2899999999999
 31
0.0
  0
ARC
  5
116
330
2
100
AcDbEntity
  8
画層1
  6
DASHED2
 62
     0
100
AcDbCircle
 10
213.4799999999999
 20
246.2899999999999
 30
0.0
 40
1.0
100
AcDbArc
 50
0.0
 51
90.0
  0
LINE
  5
117
330
2
100
AcDbEntity
  8
画層1
  6
DASHED2
 62
     0
100
AcDbLine
 10
213.18
 20
247.29
 30
0.0
 11
213.18
 21
248.2899999999999
 31
0.0
  0
CIRCLE
  5
118
330
2
100
AcDbEntity
  8
画層1
  6
DASHED2
 62
     0
100
AcDbCircle
 10
214.9799999999999
 20
247.7899999999999
 30
0.0
 40
3.5
  0
LINE
  5
119
330
2
100
AcDbEntity
  8
画層1
  6
DASHED2
 62
     0
100
AcDbLine
 10
229.9799999999999
 20
232.79
 30
0.0
 11
229.9799999999999
 21
252.7899999999999
 31
0.0
  0
LINE
  5
11A
330
2
100
AcDbEntity
  8
画層1
  6
DASHED2
 62
     0
100
AcDbLine
 10
199.98
 20
252.7899999999999
 30
0.0
 11
199.98
 21
232.79
 31
0.0
  0
LINE
  5
11B
330
2
100
AcDbEntity
  8
画層1
  6
DASHED2
 62
     0
100
AcDbLine
 10
221.6399999999999
 20
253.5299999999999
 30
0.0
 11
221.6399999999999
 21
232.03
 31
0.0
  0
LINE
  5
11C
330
2
100
AcDbEntity
  8
画層1
  6
DASHED2
 62
     0
100
AcDbLine
 10
219.1399999999999
 20
253.5299999999999
 30
0.0
 11
219.1399999999999
 21
232.03
 31
0.0
  0
LINE
  5
11D
330
2
100
AcDbEntity
  8
画層1
  6
DASHED2
 62
     0
100
AcDbLine
 10
210.84
 20
253.5299999999999
 30
0.0
 11
210.84
 21
232.03
 31
0.0
  0
LINE
  5
11E
330
2
100
AcDbEntity
  8
画層1
  6
DASHED2
 62
     0
100
AcDbLine
 10
208.34
 20
253.5299999999999
 30
0.0
 11
208.34
 21
232.03
 31
0.0
  0
LINE
  5
11F
330
2
100
AcDbEntity
  8
画層1
  6
DASHED2
 62
     0
100
AcDbLine
 10
231.4799999999999
 20
268.79
 30
0.0
 11
231.4799999999999
 21
207.79
 31
0.0
  0
LINE
  5
120
330
2
100
AcDbEntity
  8
画層1
  6
DASHED2
 62
     0
100
AcDbLine
 10
198.4799999999999
 20
268.79
 30
0.0
 11
198.4799999999999
 21
207.79
 31
0.0
  0
LINE
  5
121
330
2
100
AcDbEntity
  8
画層1
  6
DASHED2
 62
     0
100
AcDbLine
 10
178.4799999999999
 20
268.79
 30
0.0
 11
178.4799999999999
 21
207.79
 31
0.0
  0
LINE
  5
122
330
2
100
AcDbEntity
  8
画層1
  6
CENTER
 62
     0
100
AcDbLine
 10
200.9799999999999
 20
237.7899999999999
 30
0.0
 11
206.9799999999999
 21
237.7899999999999
 31
0.0
  0
LINE
  5
123
330
2
100
AcDbEntity
  8
画層1
  6
DASHED2
 62
     0
100
AcDbLine
 10
199.98
 20
232.79
 30
0.0
 11
208.34
 21
232.79
 31
0.0
  0
LINE
  5
124
330
2
100
AcDbEntity
  8
画層1
  6
CENTER
 62
     0
100
AcDbLine
 10
188.48
 20
225.2899999999999
 30
0.0
 11
188.48
 21
208.2899999999999
 31
0.0
  0
LINE
  5
125
330
2
100
AcDbEntity
  8
画層1
  6
CENTER
 62
     0
100
AcDbLine
 10
179.9799999999999
 20
216.7899999999999
 30
0.0
 11
196.98
 21
216.7899999999999
 31
0.0
  0
CIRCLE
  5
126
330
2
100
AcDbEntity
  8
画層1
  6
DASHED2
 62
     0
100
AcDbCircle
 10
188.48
 20
216.7899999999999
 30
0.0
 40
4.5
  0
LINE
  5
127
330
2
100
AcDbEntity
  8
画層1
  6
CENTER
 62
     0
100
AcDbLine
 10
185.48
 20
236.79
 30
0.0
 11
191.4799999999999
 21
236.79
 31
0.0
  0
LINE
  5
128
330
2
100
AcDbEntity
  8
画層1
  6
CENTER
 62
     0
100
AcDbLine
 10
188.48
 20
239.7899999999999
 30
0.0
 11
188.48
 21
233.7899999999999
 31
0.0
  0
LINE
  5
129
330
2
100
AcDbEntity
  8
画層1
  6
CENTER
 62
     0
100
AcDbLine
 10
203.98
 20
240.79
 30
0.0
 11
203.98
 21
234.79
 31
0.0
  0
ARC
  5
12A
330
2
100
AcDbEntity
  8
画層1
 62
     0
100
AcDbCircle
 10
213.4799999999999
 20
212.29
 30
0.0
 40
1.0
100
AcDbArc
 50
90.0
 51
180.0
  0
CIRCLE
  5
12B
330
2
100
AcDbEntity
  8
画層1
 62
     0
100
AcDbCircle
 10
211.98
 20
213.79
 30
0.0
 40
3.799999999999998
  0
ARC
  5
12C
330
2
100
AcDbEntity
  8
画層1
 62
     0
100
AcDbCircle
 10
210.48
 20
212.29
 30
0.0
 40
1.0
100
AcDbArc
 50
0.0
 51
90.0
  0
CIRCLE
  5
12D
330
2
100
AcDbEntity
  8
画層1
 62
     0
100
AcDbCircle
 10
211.98
 20
213.79
 30
0.0
 40
2.6
  0
LINE
  5
12E
330
2
100
AcDbEntity
  8
画層1
 62
     0
100
AcDbLine
 10
212.48
 20
212.29
 30
0.0
 11
212.48
 21
211.99
 31
0.0
  0
LINE
  5
12F
330
2
100
AcDbEntity
  8
画層1
 62
     0
100
AcDbLine
 10
211.4799999999999
 20
211.99
 30
0.0
 11
211.4799999999999
 21
212.29
 31
0.0
  0
LINE
  5
130
330
2
100
AcDbEntity
  8
画層1
 62
     0
100
AcDbLine
 10
211.4799999999999
 20
211.99
 30
0.0
 11
212.48
 21
211.99
 31
0.0
  0
LINE
  5
131
330
2
100
AcDbEntity
  8
画層1
 62
     0
100
AcDbLine
 10
213.7799999999999
 20
213.2899999999999
 30
0.0
 11
213.7799999999999
 21
214.29
 31
0.0
  0
LINE
  5
132
330
2
100
AcDbEntity
  8
画層1
 62
     0
100
AcDbLine
 10
213.7799999999999
 20
213.2899999999999
 30
0.0
 11
213.4799999999999
 21
213.2899999999999
 31
0.0
  0
LINE
  5
133
330
2
100
AcDbEntity
  8
画層1
 62
     0
100
AcDbLine
 10
213.4799999999999
 20
214.29
 30
0.0
 11
213.7799999999999
 21
214.29
 31
0.0
  0
LINE
  5
134
330
2
100
AcDbEntity
  8
画層1
 62
     0
100
AcDbLine
 10
212.48
 20
215.5899999999999
 30
0.0
 11
212.48
 21
215.2899999999999
 31
0.0
  0
LINE
  5
135
330
2
100
AcDbEntity
  8
画層1
 62
     0
100
AcDbLine
 10
211.4799999999999
 20
215.2899999999999
 30
0.0
 11
211.4799999999999
 21
215.5899999999999
 31
0.0
  0
LINE
  5
136
330
2
100
AcDbEntity
  8
画層1
 62
     0
100
AcDbLine
 10
211.4799999999999
 20
215.5899999999999
 30
0.0
 11
212.48
 21
215.5899999999999
 31
0.0
  0
ARC
  5
137
330
2
100
AcDbEntity
  8
画層1
 62
     0
100
AcDbCircle
 10
213.4799999999999
 20
215.2899999999999
 30
0.0
 40
1.0
100
AcDbArc
 50
180.0
 51
270.0
  0
LINE
  5
138
330
2
100
AcDbEntity
  8
画層1
 62
     0
100
AcDbLine
 10
210.1799999999999
 20
213.2899999999999
 30
0.0
 11
210.1799999999999
 21
214.29
 31
0.0
  0
LINE
  5
139
330
2
100
AcDbEntity
  8
画層1
 62
     0
100
AcDbLine
 10
210.48
 20
213.2899999999999
 30
0.0
 11
210.1799999999999
 21
213.2899999999999
 31
0.0
  0
LINE
  5
13A
330
2
100
AcDbEntity
  8
画層1
 62
     0
100
AcDbLine
 10
210.1799999999999
 20
214.29
 30
0.0
 11
210.48
 21
214.29
 31
0.0
  0
ARC
  5
13B
330
2
100
AcDbEntity
  8
画層1
 62
     0
100
AcDbCircle
 10
210.48
 20
215.2899999999999
 30
0.0
 40
1.0
100
AcDbArc
 50
270.0
 51
0.0
  0
LINE
  5
13C
330
2
100
AcDbEntity
  8
画層1
  6
CENTER
 62
     0
100
AcDbLine
 10
222.98
 20
237.7899999999999
 30
0.0
 11
228.98
 21
237.7899999999999
 31
0.0
  0
LINE
  5
13D
330
2
100
AcDbEntity
  8
画層1
  6
DASHED2
 62
     0
100
AcDbLine
 10
221.6399999999999
 20
232.79
 30
0.0
 11
229.9799999999999
 21
232.79
 31
0.0
  0
CIRCLE
  5
13E
330
2
100
AcDbEntity
  8
画層1
  6
DASHED2
 62
     0
100
AcDbCircle
 10
214.9799999999999
 20
237.7899999999999
 30
0.0
 40
3.5
  0
LINE
  5
13F
330
2
100
AcDbEntity
  8
画層1
  6
DASHED2
 62
     0
100
AcDbLine
 10
210.84
 20
232.79
 30
0.0
 11
219.1399999999999
 21
232.79
 31
0.0
  0
ARC
  5
140
330
2
100
AcDbEntity
  8
画層1
  6
DASHED2
 62
     0
100
AcDbCircle
 10
209.58
 20
232.03
 30
0.0
 40
1.25
100
AcDbArc
 50
180.0
 51
0.0
  0
ARC
  5
141
330
2
100
AcDbEntity
  8
画層1
  6
DASHED2
 62
     0
100
AcDbCircle
 10
220.38
 20
232.03
 30
0.0
 40
1.25
100
AcDbArc
 50
180.0
 51
0.0
  0
LINE
  5
142
330
2
100
AcDbEntity
  8
画層1
  6
DASHED2
 62
     0
100
AcDbLine
 10
214.48
 20
245.99
 30
0.0
 11
215.4799999999999
 21
245.99
 31
0.0
  0
LINE
  5
143
330
2
100
AcDbEntity
  8
画層1
  6
DASHED2
 62
     0
100
AcDbLine
 10
214.48
 20
239.59
 30
0.0
 11
215.4799999999999
 21
239.59
 31
0.0
  0
LINE
  5
144
330
2
100
AcDbEntity
  8
画層1
  6
DASHED2
 62
     0
100
AcDbLine
 10
214.48
 20
235.99
 30
0.0
 11
215.4799999999999
 21
235.99
 31
0.0
  0
LINE
  5
145
330
2
100
AcDbEntity
  8
画層1
  6
DASHED2
 62
     0
100
AcDbLine
 10
214.48
 20
245.99
 30
0.0
 11
214.48
 21
246.2899999999999
 31
0.0
  0
LINE
  5
146
330
2
100
AcDbEntity
  8
画層1
  6
DASHED2
 62
     0
100
AcDbLine
 10
213.4799999999999
 20
247.29
 30
0.0
 11
213.18
 21
247.29
 31
0.0
  0
ARC
  5
147
330
2
100
AcDbEntity
  8
画層1
  6
DASHED2
 62
     0
100
AcDbCircle
 10
213.4799999999999
 20
239.29
 30
0.0
 40
1.0
100
AcDbArc
 50
270.0
 51
0.0
  0
LINE
  5
148
330
2
100
AcDbEntity
  8
画層1
  6
DASHED2
 62
     0
100
AcDbLine
 10
213.18
 20
238.2899999999999
 30
0.0
 11
213.4799999999999
 21
238.2899999999999
 31
0.0
  0
LINE
  5
149
330
2
100
AcDbEntity
  8
画層1
  6
DASHED2
 62
     0
100
AcDbLine
 10
213.4799999999999
 20
237.29
 30
0.0
 11
213.18
 21
237.29
 31
0.0
  0
LINE
  5
14A
330
2
100
AcDbEntity
  8
画層1
  6
DASHED2
 62
     0
100
AcDbLine
 10
213.18
 20
237.29
 30
0.0
 11
213.18
 21
238.2899999999999
 31
0.0
  0
LINE
  5
14B
330
2
100
AcDbEntity
  8
画層1
  6
DASHED2
 62
     0
100
AcDbLine
 10
214.48
 20
239.29
 30
0.0
 11
214.48
 21
239.59
 31
0.0
  0
LINE
  5
14C
330
2
100
AcDbEntity
  8
画層1
  6
DASHED2
 62
     0
100
AcDbLine
 10
214.48
 20
235.99
 30
0.0
 11
214.48
 21
236.2899999999999
 31
0.0
  0
ARC
  5
14D
330
2
100
AcDbEntity
  8
画層1
  6
DASHED2
 62
     0
100
AcDbCircle
 10
213.4799999999999
 20
236.2899999999999
 30
0.0
 40
1.0
100
AcDbArc
 50
0.0
 51
90.0
  0
LINE
  5
14E
330
2
100
AcDbEntity
  8
画層1
  6
DASHED2
 62
     0
100
AcDbLine
 10
215.4799999999999
 20
246.2899999999999
 30
0.0
 11
215.4799999999999
 21
245.99
 31
0.0
  0
LINE
  5
14F
330
2
100
AcDbEntity
  8
画層1
  6
DASHED2
 62
     0
100
AcDbLine
 10
216.78
 20
247.29
 30
0.0
 11
216.48
 21
247.29
 31
0.0
  0
ARC
  5
150
330
2
100
AcDbEntity
  8
画層1
  6
DASHED2
 62
     0
100
AcDbCircle
 10
216.48
 20
239.29
 30
0.0
 40
1.0
100
AcDbArc
 50
180.0
 51
270.0
  0
LINE
  5
151
330
2
100
AcDbEntity
  8
画層1
  6
DASHED2
 62
     0
100
AcDbLine
 10
215.4799999999999
 20
239.59
 30
0.0
 11
215.4799999999999
 21
239.29
 31
0.0
  0
LINE
  5
152
330
2
100
AcDbEntity
  8
画層1
  6
DASHED2
 62
     0
100
AcDbLine
 10
216.48
 20
238.2899999999999
 30
0.0
 11
216.78
 21
238.2899999999999
 31
0.0
  0
LINE
  5
153
330
2
100
AcDbEntity
  8
画層1
  6
DASHED2
 62
     0
100
AcDbLine
 10
216.78
 20
237.29
 30
0.0
 11
216.48
 21
237.29
 31
0.0
  0
LINE
  5
154
330
2
100
AcDbEntity
  8
画層1
  6
DASHED2
 62
     0
100
AcDbLine
 10
216.78
 20
237.29
 30
0.0
 11
216.78
 21
238.2899999999999
 31
0.0
  0
LINE
  5
155
330
2
100
AcDbEntity
  8
画層1
  6
DASHED2
 62
     0
100
AcDbLine
 10
215.4799999999999
 20
236.2899999999999
 30
0.0
 11
215.4799999999999
 21
235.99
 31
0.0
  0
ARC
  5
156
330
2
100
AcDbEntity
  8
画層1
  6
DASHED2
 62
     0
100
AcDbCircle
 10
216.48
 20
236.2899999999999
 30
0.0
 40
1.0
100
AcDbArc
 50
90.0
 51
180.0
  0
LINE
  5
157
330
2
100
AcDbEntity
  8
画層1
  6
CENTER
 62
     0
100
AcDbLine
 10
225.9799999999999
 20
240.79
 30
0.0
 11
225.9799999999999
 21
234.79
 31
0.0
  0
DIMENSION
  5
158
330
2
100
AcDbEntity
  8
画層1
 62
     0
100
AcDbDimension
  2
*D36
 10
219.1399999999999
 20
272.8299999999999
 30
0.0
 11
214.99
 21
274.7099999999999
 31
0.0
 70
    32
 71
     5
 42
8.299999999999982
  3
STANDARD_WS
100
AcDbAlignedDimension
 13
210.84
 23
258.79
 33
0.0
 14
219.1399999999999
 24
258.79
 34
0.0
100
AcDbRotatedDimension
1001
ACAD
1000
DSTYLE
1002
{
1070
    47
1040
0.6
1070
   144
1040
1.0
1070
   146
1040
0.5
1070
   173
1070
     0
1070
   284
1070
     8
1070
   340
1005
2A
1070
   341
1005
2B
1070
   342
1005
2B
1070
   343
1005
2B
1002
}
  0
LINE
  5
167
330
2
100
AcDbEntity
  8
画層1
  6
DASHED2
 62
     0
100
AcDbLine
 10
208.34
 20
252.7899999999999
 30
0.0
 11
199.98
 21
252.7899999999999
 31
0.0
  0
LINE
  5
168
330
2
100
AcDbEntity
  8
画層1
  6
CENTER
 62
     0
100
AcDbLine
 10
185.48
 20
252.7899999999999
 30
0.0
 11
191.4799999999999
 21
252.7899999999999
 31
0.0
  0
LINE
  5
169
330
2
100
AcDbEntity
  8
画層1
  6
CENTER
 62
     0
100
AcDbLine
 10
188.48
 20
255.79
 30
0.0
 11
188.48
 21
249.79
 31
0.0
  0
LINE
  5
16A
330
2
100
AcDbEntity
  8
画層1
  6
DASHED2
 62
     0
100
AcDbLine
 10
229.9799999999999
 20
252.7899999999999
 30
0.0
 11
221.6399999999999
 21
252.7899999999999
 31
0.0
  0
LINE
  5
16B
330
2
100
AcDbEntity
  8
画層1
  6
DASHED2
 62
     0
100
AcDbLine
 10
214.48
 20
249.59
 30
0.0
 11
215.4799999999999
 21
249.59
 31
0.0
  0
LINE
  5
16C
330
2
100
AcDbEntity
  8
画層1
  6
DASHED2
 62
     0
100
AcDbLine
 10
219.1399999999999
 20
252.7899999999999
 30
0.0
 11
210.84
 21
252.7899999999999
 31
0.0
  0
LINE
  5
16D
330
2
100
AcDbEntity
  8
画層1
  6
DASHED2
 62
     0
100
AcDbLine
 10
214.48
 20
249.29
 30
0.0
 11
214.48
 21
249.59
 31
0.0
  0
LINE
  5
16E
330
2
100
AcDbEntity
  8
画層1
  6
DASHED2
 62
     0
100
AcDbLine
 10
213.18
 20
248.2899999999999
 30
0.0
 11
213.4799999999999
 21
248.2899999999999
 31
0.0
  0
ARC
  5
16F
330
2
100
AcDbEntity
  8
画層1
  6
DASHED2
 62
     0
100
AcDbCircle
 10
213.4799999999999
 20
249.29
 30
0.0
 40
1.0
100
AcDbArc
 50
270.0
 51
0.0
  0
ARC
  5
170
330
2
100
AcDbEntity
  8
画層1
  6
DASHED2
 62
     0
100
AcDbCircle
 10
209.58
 20
253.5299999999999
 30
0.0
 40
1.25
100
AcDbArc
 50
0.0
 51
180.0
  0
LINE
  5
171
330
2
100
AcDbEntity
  8
画層1
  6
DASHED2
 62
     0
100
AcDbLine
 10
216.48
 20
248.2899999999999
 30
0.0
 11
216.78
 21
248.2899999999999
 31
0.0
  0
LINE
  5
172
330
2
100
AcDbEntity
  8
画層1
  6
DASHED2
 62
     0
100
AcDbLine
 10
215.4799999999999
 20
249.59
 30
0.0
 11
215.4799999999999
 21
249.29
 31
0.0
  0
ARC
  5
173
330
2
100
AcDbEntity
  8
画層1
  6
DASHED2
 62
     0
100
AcDbCircle
 10
216.48
 20
249.29
 30
0.0
 40
1.0
100
AcDbArc
 50
180.0
 51
270.0
  0
ARC
  5
174
330
2
100
AcDbEntity
  8
画層1
  6
DASHED2
 62
     0
100
AcDbCircle
 10
220.38
 20
253.5299999999999
 30
0.0
 40
1.25
100
AcDbArc
 50
0.0
 51
180.0
  0
DIMENSION
  5
175
330
2
100
AcDbEntity
  8
画層1
 62
     0
100
AcDbDimension
  2
*D38
 10
305.48
 20
203.79
 30
0.0
 11
303.5999999999999
 21
200.79
 31
0.0
 70
    32
 71
     5
 42
6.0
  3
STANDARD_WS
100
AcDbAlignedDimension
 13
268.42
 23
197.7899999999999
 33
0.0
 14
273.0799999999999
 24
203.79
 34
0.0
 50
90.0
100
AcDbRotatedDimension
1001
ACAD
1000
DSTYLE
1002
{
1070
    47
1040
0.6
1070
   144
1040
1.0
1070
   146
1040
0.5
1070
   173
1070
     0
1070
   284
1070
     8
1070
   340
1005
2A
1070
   341
1005
2B
1070
   342
1005
2B
1070
   343
1005
2B
1002
}
  0
LINE
  5
184
330
2
100
AcDbEntity
  8
画層1
 62
     0
100
AcDbLine
 10
241.48
 20
212.29
 30
0.0
 11
241.48
 21
184.0899999999999
 31
0.0
  0
DIMENSION
  5
185
330
2
100
AcDbEntity
  8
画層1
 62
     0
100
AcDbDimension
  2
*D37
 10
276.48
 20
162.83
 30
0.0
 11
258.98
 21
164.9193908629441
 31
0.0
 70
    32
 71
     5
 42
35.00000000000003
  3
STANDARD_WS
100
AcDbAlignedDimension
 13
241.48
 23
162.83
 33
0.0
 14
276.48
 24
207.79
 34
0.0
100
AcDbRotatedDimension
1001
ACAD
1000
DSTYLE
1002
{
1070
     3
1000
(<>)
1070
    47
1040
0.6
1070
   144
1040
1.0
1070
   146
1040
0.5
1070
   173
1070
     0
1070
   284
1070
     8
1070
   340
1005
2A
1070
   341
1005
2B
1070
   342
1005
2B
1070
   343
1005
2B
1002
}
  0
LINE
  5
192
330
2
100
AcDbEntity
  8
画層1
  6
DIVIDE
 62
     0
100
AcDbLine
 10
256.98
 20
194.7899999999999
 30
0.0
 11
256.98
 21
207.79
 31
0.0
  0
LINE
  5
193
330
2
100
AcDbEntity
  8
画層1
  6
CENTER
 62
     0
100
AcDbLine
 10
262.08
 20
210.7899999999999
 30
0.0
 11
262.08
 21
193.7899999999999
 31
0.0
  0
LINE
  5
194
330
2
100
AcDbEntity
  8
画層1
 62
     0
100
AcDbLine
 10
265.0799999999999
 20
203.79
 30
0.0
 11
265.0799999999999
 21
197.7899999999999
 31
0.0
  0
LINE
  5
195
330
2
100
AcDbEntity
  8
画層1
 62
     0
100
AcDbLine
 10
259.0799999999999
 20
203.79
 30
0.0
 11
259.0799999999999
 21
197.7899999999999
 31
0.0
  0
ARC
  5
196
330
2
100
AcDbEntity
  8
画層1
 62
     0
100
AcDbCircle
 10
255.08
 20
202.7899999999999
 30
0.0
 40
5.0
100
AcDbArc
 50
180.0
 51
270.0
  0
ARC
  5
197
330
2
100
AcDbEntity
  8
画層1
 62
     0
100
AcDbCircle
 10
268.08
 20
202.7899999999999
 30
0.0
 40
5.0
100
AcDbArc
 50
270.0
 51
0.0
  0
ARC
  5
198
330
2
100
AcDbEntity
  8
画層1
  6
DIVIDE
 62
     0
100
AcDbCircle
 10
253.98
 20
194.7899999999999
 30
0.0
 40
3.0
100
AcDbArc
 50
270.0
 51
0.0
  0
LINE
  5
199
330
2
100
AcDbEntity
  8
画層1
 62
     0
100
AcDbLine
 10
259.0799999999999
 20
197.7899999999999
 30
0.0
 11
255.08
 21
197.7899999999999
 31
0.0
  0
LINE
  5
19A
330
2
100
AcDbEntity
  8
画層1
 62
     0
100
AcDbLine
 10
268.08
 20
197.7899999999999
 30
0.0
 11
265.0799999999999
 21
197.7899999999999
 31
0.0
  0
LINE
  5
19B
330
2
100
AcDbEntity
  8
画層1
  6
DASHED2
 62
     0
100
AcDbLine
 10
251.48
 20
268.79
 30
0.0
 11
251.48
 21
207.79
 31
0.0
  0
LINE
  5
19C
330
2
100
AcDbEntity
  8
画層1
  6
DASHED2
 62
     0
100
AcDbLine
 10
274.48
 20
258.79
 30
0.0
 11
274.48
 21
230.79
 31
0.0
  0
LINE
  5
19D
330
2
100
AcDbEntity
  8
画層1
 62
     0
100
AcDbLine
 10
272.7799999999999
 20
208.2899999999999
 30
0.0
 11
259.1
 21
208.2899999999999
 31
0.0
  0
CIRCLE
  5
19E
330
2
100
AcDbEntity
  8
画層1
 62
     0
100
AcDbCircle
 10
270.5799999999999
 20
213.79
 30
0.0
 40
3.0
  0
LINE
  5
19F
330
2
100
AcDbEntity
  8
画層1
 62
     0
100
AcDbLine
 10
263.5799999999999
 20
207.79
 30
0.0
 11
276.0799999999999
 21
207.79
 31
0.0
  0
LINE
  5
1A0
330
2
100
AcDbEntity
  8
画層1
 62
     0
100
AcDbLine
 10
261.48
 20
219.2899999999999
 30
0.0
 11
276.18
 21
219.2899999999999
 31
0.0
  0
LINE
  5
1A1
330
2
100
AcDbEntity
  8
画層1
  6
CENTER
 62
     0
100
AcDbLine
 10
241.48
 20
225.2899999999999
 30
0.0
 11
241.48
 21
208.2899999999999
 31
0.0
  0
LINE
  5
1A2
330
2
100
AcDbEntity
  8
画層1
  6
CENTER
 62
     0
100
AcDbLine
 10
255.08
 20
203.79
 30
0.0
 11
269.0799999999999
 21
203.79
 31
0.0
  0
LINE
  5
1A3
330
2
100
AcDbEntity
  8
画層1
 62
     0
100
AcDbLine
 10
250.08
 20
202.7899999999999
 30
0.0
 11
250.08
 21
207.79
 31
0.0
  0
ARC
  5
1A4
330
2
100
AcDbEntity
  8
画層1
 62
     0
100
AcDbCircle
 10
272.08
 20
212.29
 30
0.0
 40
1.0
100
AcDbArc
 50
90.0
 51
180.0
  0
ARC
  5
1A5
330
2
100
AcDbEntity
  8
画層1
 62
     0
100
AcDbCircle
 10
269.0799999999999
 20
212.29
 30
0.0
 40
1.0
100
AcDbArc
 50
0.0
 51
90.0
  0
LINE
  5
1A6
330
2
100
AcDbEntity
  8
画層1
 62
     0
100
AcDbLine
 10
262.08
 20
209.9699999999999
 30
0.0
 11
262.08
 21
217.61
 31
0.0
  0
LINE
  5
1A7
330
2
100
AcDbEntity
  8
画層1
 62
     0
100
AcDbLine
 10
259.48
 20
209.2899999999999
 30
0.0
 11
259.48
 21
217.2899999999999
 31
0.0
  0
ARC
  5
1A8
330
2
100
AcDbEntity
  8
画層1
 62
     0
100
AcDbCircle
 10
262.08
 20
203.79
 30
0.0
 40
3.0
100
AcDbArc
 50
0.0
 51
180.0
  0
ARC
  5
1A9
330
2
100
AcDbEntity
  8
画層1
 62
     0
100
AcDbCircle
 10
263.2799999999999
 20
213.79
 30
0.0
 40
4.0
100
AcDbArc
 50
198.19
 51
330.0
  0
ARC
  5
1AA
330
2
100
AcDbEntity
  8
画層1
 62
     0
100
AcDbCircle
 10
263.5799999999999
 20
209.2899999999999
 30
0.0
 40
1.5
100
AcDbArc
 50
221.81
 51
270.0
  0
ARC
  5
1AB
330
2
100
AcDbEntity
  8
画層1
 62
     0
100
AcDbCircle
 10
257.98
 20
209.2899999999999
 30
0.0
 40
1.5
100
AcDbArc
 50
270.0
 51
0.0
  0
LINE
  5
1AC
330
2
100
AcDbEntity
  8
画層1
 62
     0
100
AcDbLine
 10
271.0799999999999
 20
211.99
 30
0.0
 11
271.0799999999999
 21
212.29
 31
0.0
  0
LINE
  5
1AD
330
2
100
AcDbEntity
  8
画層1
 62
     0
100
AcDbLine
 10
270.08
 20
212.29
 30
0.0
 11
270.08
 21
211.99
 31
0.0
  0
LINE
  5
1AE
330
2
100
AcDbEntity
  8
画層1
 62
     0
100
AcDbLine
 10
270.08
 20
211.99
 30
0.0
 11
271.0799999999999
 21
211.99
 31
0.0
  0
LINE
  5
1AF
330
2
100
AcDbEntity
  8
画層1
 62
     0
100
AcDbLine
 10
268.3399999999999
 20
211.79
 30
0.0
 11
266.74
 21
211.79
 31
0.0
  0
ARC
  5
1B0
330
2
100
AcDbEntity
  8
画層1
 62
     0
100
AcDbCircle
 10
263.2799999999999
 20
213.79
 30
0.0
 40
4.0
100
AcDbArc
 50
30.0
 51
161.81
  0
ARC
  5
1B1
330
2
100
AcDbEntity
  8
画層1
 62
     0
100
AcDbCircle
 10
261.48
 20
217.2899999999999
 30
0.0
 40
2.0
100
AcDbArc
 50
90.0
 51
180.0
  0
ARC
  5
1B2
330
2
100
AcDbEntity
  8
画層1
 62
     0
100
AcDbCircle
 10
272.08
 20
215.2899999999999
 30
0.0
 40
1.0
100
AcDbArc
 50
180.0
 51
270.0
  0
LINE
  5
1B3
330
2
100
AcDbEntity
  8
画層1
 62
     0
100
AcDbLine
 10
271.0799999999999
 20
215.2899999999999
 30
0.0
 11
271.0799999999999
 21
215.5899999999999
 31
0.0
  0
LINE
  5
1B4
330
2
100
AcDbEntity
  8
画層1
 62
     0
100
AcDbLine
 10
270.08
 20
215.5899999999999
 30
0.0
 11
270.08
 21
215.2899999999999
 31
0.0
  0
LINE
  5
1B5
330
2
100
AcDbEntity
  8
画層1
 62
     0
100
AcDbLine
 10
270.08
 20
215.5899999999999
 30
0.0
 11
271.0799999999999
 21
215.5899999999999
 31
0.0
  0
LINE
  5
1B6
330
2
100
AcDbEntity
  8
画層1
 62
     0
100
AcDbLine
 10
272.38
 20
214.29
 30
0.0
 11
272.38
 21
213.2899999999999
 31
0.0
  0
LINE
  5
1B7
330
2
100
AcDbEntity
  8
画層1
 62
     0
100
AcDbLine
 10
272.08
 20
213.2899999999999
 30
0.0
 11
272.38
 21
213.2899999999999
 31
0.0
  0
LINE
  5
1B8
330
2
100
AcDbEntity
  8
画層1
 62
     0
100
AcDbLine
 10
272.38
 20
214.29
 30
0.0
 11
272.08
 21
214.29
 31
0.0
  0
LINE
  5
1B9
330
2
100
AcDbEntity
  8
画層1
 62
     0
100
AcDbLine
 10
268.7799999999999
 20
213.2899999999999
 30
0.0
 11
269.0799999999999
 21
213.2899999999999
 31
0.0
  0
LINE
  5
1BA
330
2
100
AcDbEntity
  8
画層1
 62
     0
100
AcDbLine
 10
269.0799999999999
 20
214.29
 30
0.0
 11
268.7799999999999
 21
214.29
 31
0.0
  0
LINE
  5
1BB
330
2
100
AcDbEntity
  8
画層1
 62
     0
100
AcDbLine
 10
268.7799999999999
 20
214.29
 30
0.0
 11
268.7799999999999
 21
213.2899999999999
 31
0.0
  0
LINE
  5
1BC
330
2
100
AcDbEntity
  8
画層1
 62
     0
100
AcDbLine
 10
268.3399999999999
 20
215.79
 30
0.0
 11
266.74
 21
215.79
 31
0.0
  0
ARC
  5
1BD
330
2
100
AcDbEntity
  8
画層1
 62
     0
100
AcDbCircle
 10
269.0799999999999
 20
215.2899999999999
 30
0.0
 40
1.0
100
AcDbArc
 50
270.0
 51
0.0
  0
LINE
  5
1BE
330
2
100
AcDbEntity
  8
画層1
  6
CENTER
 62
     0
100
AcDbLine
 10
241.48
 20
239.7899999999999
 30
0.0
 11
241.48
 21
233.7899999999999
 31
0.0
  0
LINE
  5
1BF
330
2
100
AcDbEntity
  8
画層1
 62
     0
100
AcDbLine
 10
274.7799999999999
 20
219.2899999999999
 30
0.0
 11
274.7799999999999
 21
210.2899999999999
 31
0.0
  0
LINE
  5
1C0
330
2
100
AcDbEntity
  8
画層1
 62
     0
100
AcDbLine
 10
276.0799999999999
 20
207.79
 30
0.0
 11
276.0799999999999
 21
219.2899999999999
 31
0.0
  0
LINE
  5
1C1
330
2
100
AcDbEntity
  8
画層1
 62
     0
100
AcDbLine
 10
273.0799999999999
 20
207.79
 30
0.0
 11
273.0799999999999
 21
202.7899999999999
 31
0.0
  0
ARC
  5
1C2
330
2
100
AcDbEntity
  8
画層1
 62
     0
100
AcDbCircle
 10
272.7799999999999
 20
210.2899999999999
 30
0.0
 40
2.0
100
AcDbArc
 50
270.0
 51
0.0
  0
LINE
  5
1C3
330
2
100
AcDbEntity
  8
画層1
  6
CENTER
 62
     0
100
AcDbLine
 10
241.48
 20
255.79
 30
0.0
 11
241.48
 21
249.79
 31
0.0
  0
LEADER
  5
1C4
330
2
100
AcDbEntity
  8
画層1
 62
     0
100
AcDbLeader
  3
STANDARD_WS
 73
     0
 75
     1
 40
5.0
 41
21.73
 76
     3
 10
154.78
 20
361.41
 30
0.0
 10
94.45
 20
397.0199999999999
 30
0.0
 10
92.94999999999999
 20
397.0199999999999
 30
0.0
340
1C5
213
-1.0
223
0.4207616165015224
233
0.0
1001
ACAD
1000
DSTYLE
1002
{
1070
   341
1005
9C
1070
   147
1040
0.63
1070
    77
1070
     2
1070
    47
1040
0.6
1070
   144
1040
2.0
1070
   146
1040
0.5
1070
   284
1070
     8
1070
   340
1005
2A
1002
}
  0
MTEXT
  5
1C5
102
{ACAD_REACTORS
330
1C4
102
}
330
2
100
AcDbEntity
  8
画層1
 62
     0
100
AcDbMText
 10
93.31999999999998
 20
397.23
 30
0.0
 40
5.0
 41
0.0
 71
     9
 72
     1
  1
18-M3.5
  7
STYLE1
 73
     1
 44
1.0
  0
DIMENSION
  5
1C6
330
2
100
AcDbEntity
  8
画層1
 62
     0
100
AcDbDimension
  2
*D40
 10
276.48
 20
460.8299999999999
 30
0.0
 11
211.98
 21
462.7099999999999
 31
0.0
 70
    32
 71
     5
 42
129.0
  3
STANDARD_WS
100
AcDbAlignedDimension
 13
147.4799999999999
 23
407.79
 33
0.0
 14
276.48
 24
407.79
 34
0.0
100
AcDbRotatedDimension
1001
ACAD
1000
DSTYLE
1002
{
1070
    47
1040
0.6
1070
   144
1040
1.0
1070
   146
1040
0.5
1070
   173
1070
     0
1070
   284
1070
     8
1070
   340
1005
2A
1070
   341
1005
2B
1070
   342
1005
2B
1070
   343
1005
2B
1002
}
  0
DIMENSION
  5
1D3
330
2
100
AcDbEntity
  8
画層1
 62
     0
100
AcDbDimension
  2
*D39
 10
261.98
 20
446.79
 30
0.0
 11
211.98
 21
448.6699999999999
 31
0.0
 70
    32
 71
     5
 42
100.0
  3
STANDARD_WS
100
AcDbAlignedDimension
 13
161.9799999999999
 23
439.0299999999999
 33
0.0
 14
261.98
 24
414.7899999999999
 34
0.0
100
AcDbRotatedDimension
1001
ACAD
1000
DSTYLE
1002
{
1070
   140
1040
5.0
1070
    47
1040
0.6
1070
   144
1040
1.0
1070
   146
1040
0.5
1070
   173
1070
     0
1070
   284
1070
     8
1070
   340
1005
2A
1070
   341
1005
2B
1070
   342
1005
2B
1070
   343
1005
2B
1002
}
  0
LINE
  5
1E0
330
2
100
AcDbEntity
  8
画層1
 62
     0
100
AcDbLine
 10
257.48
 20
383.29
 30
0.0
 11
166.4799999999999
 21
383.29
 31
0.0
  0
LINE
  5
1E1
330
2
100
AcDbEntity
  8
画層1
 62
     0
100
AcDbLine
 10
166.4799999999999
 20
393.29
 30
0.0
 11
257.48
 21
393.29
 31
0.0
  0
LINE
  5
1E2
330
2
100
AcDbEntity
  8
画層1
 62
     0
100
AcDbLine
 10
168.4799999999999
 20
407.79
 30
0.0
 11
257.98
 21
407.79
 31
0.0
  0
LINE
  5
1E3
330
2
100
AcDbEntity
  8
画層1
 62
     0
100
AcDbLine
 10
164.9799999999999
 20
384.79
 30
0.0
 11
164.9799999999999
 21
391.79
 31
0.0
  0
LINE
  5
1E4
330
2
100
AcDbEntity
  8
画層1
 62
     0
100
AcDbLine
 10
147.78
 20
371.79
 30
0.0
 11
147.78
 21
396.29
 31
0.0
  0
ARC
  5
1E5
330
2
100
AcDbEntity
  8
画層1
 62
     0
100
AcDbCircle
 10
157.78
 20
339.41
 30
0.0
 40
1.0
100
AcDbArc
 50
90.0
 51
180.0
  0
ARC
  5
1E6
330
2
100
AcDbEntity
  8
画層1
 62
     0
100
AcDbCircle
 10
154.78
 20
339.41
 30
0.0
 40
1.0
100
AcDbArc
 50
0.0
 51
90.0
  0
LINE
  5
1E7
330
2
100
AcDbEntity
  8
画層1
 62
     0
100
AcDbLine
 10
152.28
 20
344.91
 30
0.0
 11
152.28
 21
336.91
 31
0.0
  0
CIRCLE
  5
1E8
330
2
100
AcDbEntity
  8
画層1
 62
     0
100
AcDbCircle
 10
156.28
 20
340.91
 30
0.0
 40
3.0
  0
CIRCLE
  5
1E9
330
2
100
AcDbEntity
  8
画層1
 62
     0
100
AcDbCircle
 10
165.7799999999999
 20
317.17
 30
0.0
 40
3.0
  0
LINE
  5
1EA
330
2
100
AcDbEntity
  8
画層1
 62
     0
100
AcDbLine
 10
169.7799999999999
 20
321.17
 30
0.0
 11
169.7799999999999
 21
313.17
 31
0.0
  0
LINE
  5
1EB
330
2
100
AcDbEntity
  8
画層1
 62
     0
100
AcDbLine
 10
161.78
 20
321.17
 30
0.0
 11
161.78
 21
313.17
 31
0.0
  0
ARC
  5
1EC
330
2
100
AcDbEntity
  8
画層1
 62
     0
100
AcDbCircle
 10
157.78
 20
313.91
 30
0.0
 40
1.0
100
AcDbArc
 50
180.0
 51
270.0
  0
LINE
  5
1ED
330
2
100
AcDbEntity
  8
画層1
 62
     0
100
AcDbLine
 10
150.78
 20
316.41
 30
0.0
 11
160.28
 21
316.41
 31
0.0
  0
ARC
  5
1EE
330
2
100
AcDbEntity
  8
画層1
 62
     0
100
AcDbCircle
 10
157.78
 20
304.41
 30
0.0
 40
1.0
100
AcDbArc
 50
180.0
 51
270.0
  0
ARC
  5
1EF
330
2
100
AcDbEntity
  8
画層1
 62
     0
100
AcDbCircle
 10
157.78
 20
301.41
 30
0.0
 40
1.0
100
AcDbArc
 50
90.0
 51
180.0
  0
LINE
  5
1F0
330
2
100
AcDbEntity
  8
画層1
 62
     0
100
AcDbLine
 10
150.78
 20
306.91
 30
0.0
 11
160.28
 21
306.91
 31
0.0
  0
LINE
  5
1F1
330
2
100
AcDbEntity
  8
画層1
 62
     0
100
AcDbLine
 10
150.78
 20
308.41
 30
0.0
 11
160.28
 21
308.41
 31
0.0
  0
CIRCLE
  5
1F2
330
2
100
AcDbEntity
  8
画層1
 62
     0
100
AcDbCircle
 10
156.28
 20
312.41
 30
0.0
 40
3.0
  0
ARC
  5
1F3
330
2
100
AcDbEntity
  8
画層1
 62
     0
100
AcDbCircle
 10
157.78
 20
310.91
 30
0.0
 40
1.0
100
AcDbArc
 50
90.0
 51
180.0
  0
LINE
  5
1F4
330
2
100
AcDbEntity
  8
画層1
 62
     0
100
AcDbLine
 10
150.78
 20
297.41
 30
0.0
 11
160.28
 21
297.41
 31
0.0
  0
LINE
  5
1F5
330
2
100
AcDbEntity
  8
画層1
 62
     0
100
AcDbLine
 10
150.78
 20
298.91
 30
0.0
 11
160.28
 21
298.91
 31
0.0
  0
CIRCLE
  5
1F6
330
2
100
AcDbEntity
  8
画層1
 62
     0
100
AcDbCircle
 10
156.28
 20
302.91
 30
0.0
 40
3.0
  0
LINE
  5
1F7
330
2
100
AcDbEntity
  8
画層1
 62
     0
100
AcDbLine
 10
152.28
 20
306.91
 30
0.0
 11
152.28
 21
298.91
 31
0.0
  0
LINE
  5
1F8
330
2
100
AcDbEntity
  8
画層1
 62
     0
100
AcDbLine
 10
156.78
 20
301.41
 30
0.0
 11
156.78
 21
301.11
 31
0.0
  0
LINE
  5
1F9
330
2
100
AcDbEntity
  8
画層1
 62
     0
100
AcDbLine
 10
156.78
 20
304.7099999999999
 30
0.0
 11
156.78
 21
304.41
 31
0.0
  0
ARC
  5
1FA
330
2
100
AcDbEntity
  8
画層1
 62
     0
100
AcDbCircle
 10
154.78
 20
304.41
 30
0.0
 40
1.0
100
AcDbArc
 50
270.0
 51
0.0
  0
LINE
  5
1FB
330
2
100
AcDbEntity
  8
画層1
 62
     0
100
AcDbLine
 10
155.78
 20
301.11
 30
0.0
 11
155.78
 21
301.41
 31
0.0
  0
ARC
  5
1FC
330
2
100
AcDbEntity
  8
画層1
 62
     0
100
AcDbCircle
 10
154.78
 20
301.41
 30
0.0
 40
1.0
100
AcDbArc
 50
0.0
 51
90.0
  0
LINE
  5
1FD
330
2
100
AcDbEntity
  8
画層1
 62
     0
100
AcDbLine
 10
155.78
 20
304.41
 30
0.0
 11
155.78
 21
304.7099999999999
 31
0.0
  0
LINE
  5
1FE
330
2
100
AcDbEntity
  8
画層1
 62
     0
100
AcDbLine
 10
155.78
 20
301.11
 30
0.0
 11
156.78
 21
301.11
 31
0.0
  0
LINE
  5
1FF
330
2
100
AcDbEntity
  8
画層1
 62
     0
100
AcDbLine
 10
155.78
 20
304.7099999999999
 30
0.0
 11
156.78
 21
304.7099999999999
 31
0.0
  0
LINE
  5
200
330
2
100
AcDbEntity
  8
画層1
 62
     0
100
AcDbLine
 10
154.78
 20
302.41
 30
0.0
 11
153.3199999999999
 21
302.41
 31
0.0
  0
LINE
  5
201
330
2
100
AcDbEntity
  8
画層1
 62
     0
100
AcDbLine
 10
153.3199999999999
 20
303.41
 30
0.0
 11
154.78
 21
303.41
 31
0.0
  0
LINE
  5
202
330
2
100
AcDbEntity
  8
画層1
 62
     0
100
AcDbLine
 10
156.78
 20
295.2099999999999
 30
0.0
 11
156.78
 21
294.91
 31
0.0
  0
LINE
  5
203
330
2
100
AcDbEntity
  8
画層1
 62
     0
100
AcDbLine
 10
155.78
 20
294.91
 30
0.0
 11
155.78
 21
295.2099999999999
 31
0.0
  0
LINE
  5
204
330
2
100
AcDbEntity
  8
画層1
 62
     0
100
AcDbLine
 10
155.78
 20
295.2099999999999
 30
0.0
 11
156.78
 21
295.2099999999999
 31
0.0
  0
LINE
  5
205
330
2
100
AcDbEntity
  8
画層1
 62
     0
100
AcDbLine
 10
153.3199999999999
 20
293.91
 30
0.0
 11
154.78
 21
293.91
 31
0.0
  0
LINE
  5
206
330
2
100
AcDbEntity
  8
画層1
 62
     0
100
AcDbLine
 10
156.78
 20
314.2099999999999
 30
0.0
 11
156.78
 21
313.91
 31
0.0
  0
LINE
  5
207
330
2
100
AcDbEntity
  8
画層1
 62
     0
100
AcDbLine
 10
155.78
 20
313.91
 30
0.0
 11
155.78
 21
314.2099999999999
 31
0.0
  0
ARC
  5
208
330
2
100
AcDbEntity
  8
画層1
 62
     0
100
AcDbCircle
 10
154.78
 20
313.91
 30
0.0
 40
1.0
100
AcDbArc
 50
270.0
 51
0.0
  0
LINE
  5
209
330
2
100
AcDbEntity
  8
画層1
 62
     0
100
AcDbLine
 10
155.78
 20
314.2099999999999
 30
0.0
 11
156.78
 21
314.2099999999999
 31
0.0
  0
LINE
  5
20A
330
2
100
AcDbEntity
  8
画層1
 62
     0
100
AcDbLine
 10
153.3199999999999
 20
312.91
 30
0.0
 11
154.78
 21
312.91
 31
0.0
  0
LINE
  5
20B
330
2
100
AcDbEntity
  8
画層1
 62
     0
100
AcDbLine
 10
154.78
 20
311.91
 30
0.0
 11
153.3199999999999
 21
311.91
 31
0.0
  0
LINE
  5
20C
330
2
100
AcDbEntity
  8
画層1
 62
     0
100
AcDbLine
 10
156.78
 20
310.91
 30
0.0
 11
156.78
 21
310.61
 31
0.0
  0
LINE
  5
20D
330
2
100
AcDbEntity
  8
画層1
 62
     0
100
AcDbLine
 10
155.78
 20
310.61
 30
0.0
 11
155.78
 21
310.91
 31
0.0
  0
LINE
  5
20E
330
2
100
AcDbEntity
  8
画層1
 62
     0
100
AcDbLine
 10
155.78
 20
310.61
 30
0.0
 11
156.78
 21
310.61
 31
0.0
  0
LINE
  5
20F
330
2
100
AcDbEntity
  8
画層1
 62
     0
100
AcDbLine
 10
152.28
 20
316.41
 30
0.0
 11
152.28
 21
308.41
 31
0.0
  0
ARC
  5
210
330
2
100
AcDbEntity
  8
画層1
 62
     0
100
AcDbCircle
 10
154.78
 20
310.91
 30
0.0
 40
1.0
100
AcDbArc
 50
0.0
 51
90.0
  0
CIRCLE
  5
211
330
2
100
AcDbEntity
  8
画層1
 62
     0
100
AcDbCircle
 10
165.7799999999999
 20
307.67
 30
0.0
 40
3.0
  0
LINE
  5
212
330
2
100
AcDbEntity
  8
画層1
 62
     0
100
AcDbLine
 10
169.7799999999999
 20
311.67
 30
0.0
 11
169.7799999999999
 21
303.67
 31
0.0
  0
LINE
  5
213
330
2
100
AcDbEntity
  8
画層1
 62
     0
100
AcDbLine
 10
161.78
 20
311.67
 30
0.0
 11
161.78
 21
303.67
 31
0.0
  0
LINE
  5
214
330
2
100
AcDbEntity
  8
画層1
 62
     0
100
AcDbLine
 10
160.28
 20
303.67
 30
0.0
 11
169.7799999999999
 21
303.67
 31
0.0
  0
LINE
  5
215
330
2
100
AcDbEntity
  8
画層1
 62
     0
100
AcDbLine
 10
160.28
 20
302.17
 30
0.0
 11
169.7799999999999
 21
302.17
 31
0.0
  0
LINE
  5
216
330
2
100
AcDbEntity
  8
画層1
 62
     0
100
AcDbLine
 10
165.28
 20
296.37
 30
0.0
 11
166.28
 21
296.37
 31
0.0
  0
LINE
  5
217
330
2
100
AcDbEntity
  8
画層1
 62
     0
100
AcDbLine
 10
165.28
 20
299.97
 30
0.0
 11
166.28
 21
299.97
 31
0.0
  0
LINE
  5
218
330
2
100
AcDbEntity
  8
画層1
 62
     0
100
AcDbLine
 10
160.28
 20
294.17
 30
0.0
 11
169.7799999999999
 21
294.17
 31
0.0
  0
CIRCLE
  5
219
330
2
100
AcDbEntity
  8
画層1
 62
     0
100
AcDbCircle
 10
165.7799999999999
 20
298.17
 30
0.0
 40
3.0
  0
LINE
  5
21A
330
2
100
AcDbEntity
  8
画層1
 62
     0
100
AcDbLine
 10
157.78
 20
303.41
 30
0.0
 11
159.24
 21
303.41
 31
0.0
  0
LINE
  5
21B
330
2
100
AcDbEntity
  8
画層1
 62
     0
100
AcDbLine
 10
159.24
 20
302.41
 30
0.0
 11
157.78
 21
302.41
 31
0.0
  0
LINE
  5
21C
330
2
100
AcDbEntity
  8
画層1
 62
     0
100
AcDbLine
 10
165.28
 20
296.37
 30
0.0
 11
165.28
 21
296.67
 31
0.0
  0
LINE
  5
21D
330
2
100
AcDbEntity
  8
画層1
 62
     0
100
AcDbLine
 10
165.28
 20
299.67
 30
0.0
 11
165.28
 21
299.97
 31
0.0
  0
LINE
  5
21E
330
2
100
AcDbEntity
  8
画層1
 62
     0
100
AcDbLine
 10
164.28
 20
297.67
 30
0.0
 11
162.8199999999999
 21
297.67
 31
0.0
  0
LINE
  5
21F
330
2
100
AcDbEntity
  8
画層1
 62
     0
100
AcDbLine
 10
162.8199999999999
 20
298.67
 30
0.0
 11
164.28
 21
298.67
 31
0.0
  0
ARC
  5
220
330
2
100
AcDbEntity
  8
画層1
 62
     0
100
AcDbCircle
 10
164.28
 20
296.67
 30
0.0
 40
1.0
100
AcDbArc
 50
0.0
 51
90.0
  0
ARC
  5
221
330
2
100
AcDbEntity
  8
画層1
 62
     0
100
AcDbCircle
 10
164.28
 20
299.67
 30
0.0
 40
1.0
100
AcDbArc
 50
270.0
 51
0.0
  0
LINE
  5
222
330
2
100
AcDbEntity
  8
画層1
 62
     0
100
AcDbLine
 10
157.78
 20
293.91
 30
0.0
 11
159.24
 21
293.91
 31
0.0
  0
LINE
  5
223
330
2
100
AcDbEntity
  8
画層1
 62
     0
100
AcDbLine
 10
161.78
 20
302.17
 30
0.0
 11
161.78
 21
294.17
 31
0.0
  0
LINE
  5
224
330
2
100
AcDbEntity
  8
画層1
 62
     0
100
AcDbLine
 10
166.28
 20
296.67
 30
0.0
 11
166.28
 21
296.37
 31
0.0
  0
LINE
  5
225
330
2
100
AcDbEntity
  8
画層1
 62
     0
100
AcDbLine
 10
166.28
 20
299.97
 30
0.0
 11
166.28
 21
299.67
 31
0.0
  0
LINE
  5
226
330
2
100
AcDbEntity
  8
画層1
 62
     0
100
AcDbLine
 10
168.74
 20
297.67
 30
0.0
 11
167.28
 21
297.67
 31
0.0
  0
LINE
  5
227
330
2
100
AcDbEntity
  8
画層1
 62
     0
100
AcDbLine
 10
167.28
 20
298.67
 30
0.0
 11
168.74
 21
298.67
 31
0.0
  0
ARC
  5
228
330
2
100
AcDbEntity
  8
画層1
 62
     0
100
AcDbCircle
 10
167.28
 20
296.67
 30
0.0
 40
1.0
100
AcDbArc
 50
90.0
 51
180.0
  0
ARC
  5
229
330
2
100
AcDbEntity
  8
画層1
 62
     0
100
AcDbCircle
 10
167.28
 20
299.67
 30
0.0
 40
1.0
100
AcDbArc
 50
180.0
 51
270.0
  0
LINE
  5
22A
330
2
100
AcDbEntity
  8
画層1
 62
     0
100
AcDbLine
 10
169.7799999999999
 20
302.17
 30
0.0
 11
169.7799999999999
 21
294.17
 31
0.0
  0
LINE
  5
22B
330
2
100
AcDbEntity
  8
画層1
 62
     0
100
AcDbLine
 10
165.28
 20
315.37
 30
0.0
 11
166.28
 21
315.37
 31
0.0
  0
LINE
  5
22C
330
2
100
AcDbEntity
  8
画層1
 62
     0
100
AcDbLine
 10
165.28
 20
305.8699999999999
 30
0.0
 11
166.28
 21
305.8699999999999
 31
0.0
  0
LINE
  5
22D
330
2
100
AcDbEntity
  8
画層1
 62
     0
100
AcDbLine
 10
165.28
 20
309.47
 30
0.0
 11
166.28
 21
309.47
 31
0.0
  0
LINE
  5
22E
330
2
100
AcDbEntity
  8
画層1
 62
     0
100
AcDbLine
 10
160.28
 20
313.17
 30
0.0
 11
169.7799999999999
 21
313.17
 31
0.0
  0
LINE
  5
22F
330
2
100
AcDbEntity
  8
画層1
 62
     0
100
AcDbLine
 10
160.28
 20
311.67
 30
0.0
 11
169.7799999999999
 21
311.67
 31
0.0
  0
LINE
  5
230
330
2
100
AcDbEntity
  8
画層1
 62
     0
100
AcDbLine
 10
165.28
 20
315.37
 30
0.0
 11
165.28
 21
315.67
 31
0.0
  0
LINE
  5
231
330
2
100
AcDbEntity
  8
画層1
 62
     0
100
AcDbLine
 10
164.28
 20
316.67
 30
0.0
 11
162.8199999999999
 21
316.67
 31
0.0
  0
ARC
  5
232
330
2
100
AcDbEntity
  8
画層1
 62
     0
100
AcDbCircle
 10
164.28
 20
315.67
 30
0.0
 40
1.0
100
AcDbArc
 50
0.0
 51
90.0
  0
LINE
  5
233
330
2
100
AcDbEntity
  8
画層1
 62
     0
100
AcDbLine
 10
165.28
 20
309.17
 30
0.0
 11
165.28
 21
309.47
 31
0.0
  0
LINE
  5
234
330
2
100
AcDbEntity
  8
画層1
 62
     0
100
AcDbLine
 10
165.28
 20
305.8699999999999
 30
0.0
 11
165.28
 21
306.17
 31
0.0
  0
LINE
  5
235
330
2
100
AcDbEntity
  8
画層1
 62
     0
100
AcDbLine
 10
162.8199999999999
 20
308.17
 30
0.0
 11
164.28
 21
308.17
 31
0.0
  0
LINE
  5
236
330
2
100
AcDbEntity
  8
画層1
 62
     0
100
AcDbLine
 10
164.28
 20
307.17
 30
0.0
 11
162.8199999999999
 21
307.17
 31
0.0
  0
ARC
  5
237
330
2
100
AcDbEntity
  8
画層1
 62
     0
100
AcDbCircle
 10
164.28
 20
306.17
 30
0.0
 40
1.0
100
AcDbArc
 50
0.0
 51
90.0
  0
ARC
  5
238
330
2
100
AcDbEntity
  8
画層1
 62
     0
100
AcDbCircle
 10
164.28
 20
309.17
 30
0.0
 40
1.0
100
AcDbArc
 50
270.0
 51
0.0
  0
LINE
  5
239
330
2
100
AcDbEntity
  8
画層1
 62
     0
100
AcDbLine
 10
157.78
 20
312.91
 30
0.0
 11
159.24
 21
312.91
 31
0.0
  0
LINE
  5
23A
330
2
100
AcDbEntity
  8
画層1
 62
     0
100
AcDbLine
 10
159.24
 20
311.91
 30
0.0
 11
157.78
 21
311.91
 31
0.0
  0
LINE
  5
23B
330
2
100
AcDbEntity
  8
画層1
 62
     0
100
AcDbLine
 10
166.28
 20
315.67
 30
0.0
 11
166.28
 21
315.37
 31
0.0
  0
LINE
  5
23C
330
2
100
AcDbEntity
  8
画層1
 62
     0
100
AcDbLine
 10
168.74
 20
316.67
 30
0.0
 11
167.28
 21
316.67
 31
0.0
  0
ARC
  5
23D
330
2
100
AcDbEntity
  8
画層1
 62
     0
100
AcDbCircle
 10
167.28
 20
315.67
 30
0.0
 40
1.0
100
AcDbArc
 50
90.0
 51
180.0
  0
LINE
  5
23E
330
2
100
AcDbEntity
  8
画層1
 62
     0
100
AcDbLine
 10
166.28
 20
309.47
 30
0.0
 11
166.28
 21
309.17
 31
0.0
  0
LINE
  5
23F
330
2
100
AcDbEntity
  8
画層1
 62
     0
100
AcDbLine
 10
166.28
 20
306.17
 30
0.0
 11
166.28
 21
305.8699999999999
 31
0.0
  0
LINE
  5
240
330
2
100
AcDbEntity
  8
画層1
 62
     0
100
AcDbLine
 10
168.74
 20
307.17
 30
0.0
 11
167.28
 21
307.17
 31
0.0
  0
LINE
  5
241
330
2
100
AcDbEntity
  8
画層1
 62
     0
100
AcDbLine
 10
167.28
 20
308.17
 30
0.0
 11
168.74
 21
308.17
 31
0.0
  0
ARC
  5
242
330
2
100
AcDbEntity
  8
画層1
 62
     0
100
AcDbCircle
 10
167.28
 20
306.17
 30
0.0
 40
1.0
100
AcDbArc
 50
90.0
 51
180.0
  0
ARC
  5
243
330
2
100
AcDbEntity
  8
画層1
 62
     0
100
AcDbCircle
 10
167.28
 20
309.17
 30
0.0
 40
1.0
100
AcDbArc
 50
180.0
 51
270.0
  0
LINE
  5
244
330
2
100
AcDbEntity
  8
画層1
 62
     0
100
AcDbLine
 10
150.78
 20
335.41
 30
0.0
 11
160.28
 21
335.41
 31
0.0
  0
LINE
  5
245
330
2
100
AcDbEntity
  8
画層1
 62
     0
100
AcDbLine
 10
150.78
 20
336.91
 30
0.0
 11
160.28
 21
336.91
 31
0.0
  0
ARC
  5
246
330
2
100
AcDbEntity
  8
画層1
 62
     0
100
AcDbCircle
 10
157.78
 20
332.91
 30
0.0
 40
1.0
100
AcDbArc
 50
180.0
 51
270.0
  0
ARC
  5
247
330
2
100
AcDbEntity
  8
画層1
 62
     0
100
AcDbCircle
 10
157.78
 20
329.91
 30
0.0
 40
1.0
100
AcDbArc
 50
90.0
 51
180.0
  0
CIRCLE
  5
248
330
2
100
AcDbEntity
  8
画層1
 62
     0
100
AcDbCircle
 10
156.28
 20
331.41
 30
0.0
 40
3.0
  0
LINE
  5
249
330
2
100
AcDbEntity
  8
画層1
 62
     0
100
AcDbLine
 10
150.78
 20
325.91
 30
0.0
 11
160.28
 21
325.91
 31
0.0
  0
LINE
  5
24A
330
2
100
AcDbEntity
  8
画層1
 62
     0
100
AcDbLine
 10
150.78
 20
327.41
 30
0.0
 11
160.28
 21
327.41
 31
0.0
  0
ARC
  5
24B
330
2
100
AcDbEntity
  8
画層1
 62
     0
100
AcDbCircle
 10
157.78
 20
320.41
 30
0.0
 40
1.0
100
AcDbArc
 50
90.0
 51
180.0
  0
LINE
  5
24C
330
2
100
AcDbEntity
  8
画層1
 62
     0
100
AcDbLine
 10
150.78
 20
317.91
 30
0.0
 11
160.28
 21
317.91
 31
0.0
  0
CIRCLE
  5
24D
330
2
100
AcDbEntity
  8
画層1
 62
     0
100
AcDbCircle
 10
156.28
 20
321.91
 30
0.0
 40
3.0
  0
ARC
  5
24E
330
2
100
AcDbEntity
  8
画層1
 62
     0
100
AcDbCircle
 10
157.78
 20
323.41
 30
0.0
 40
1.0
100
AcDbArc
 50
180.0
 51
270.0
  0
LINE
  5
24F
330
2
100
AcDbEntity
  8
画層1
 62
     0
100
AcDbLine
 10
152.28
 20
335.41
 30
0.0
 11
152.28
 21
327.41
 31
0.0
  0
LINE
  5
250
330
2
100
AcDbEntity
  8
画層1
 62
     0
100
AcDbLine
 10
156.78
 20
323.7099999999999
 30
0.0
 11
156.78
 21
323.41
 31
0.0
  0
LINE
  5
251
330
2
100
AcDbEntity
  8
画層1
 62
     0
100
AcDbLine
 10
155.78
 20
323.41
 30
0.0
 11
155.78
 21
323.7099999999999
 31
0.0
  0
LINE
  5
252
330
2
100
AcDbEntity
  8
画層1
 62
     0
100
AcDbLine
 10
155.78
 20
323.7099999999999
 30
0.0
 11
156.78
 21
323.7099999999999
 31
0.0
  0
LINE
  5
253
330
2
100
AcDbEntity
  8
画層1
 62
     0
100
AcDbLine
 10
156.78
 20
320.41
 30
0.0
 11
156.78
 21
320.11
 31
0.0
  0
ARC
  5
254
330
2
100
AcDbEntity
  8
画層1
 62
     0
100
AcDbCircle
 10
154.78
 20
320.41
 30
0.0
 40
1.0
100
AcDbArc
 50
0.0
 51
90.0
  0
LINE
  5
255
330
2
100
AcDbEntity
  8
画層1
 62
     0
100
AcDbLine
 10
155.78
 20
320.11
 30
0.0
 11
155.78
 21
320.41
 31
0.0
  0
LINE
  5
256
330
2
100
AcDbEntity
  8
画層1
 62
     0
100
AcDbLine
 10
155.78
 20
320.11
 30
0.0
 11
156.78
 21
320.11
 31
0.0
  0
LINE
  5
257
330
2
100
AcDbEntity
  8
画層1
 62
     0
100
AcDbLine
 10
153.3199999999999
 20
322.41
 30
0.0
 11
154.78
 21
322.41
 31
0.0
  0
LINE
  5
258
330
2
100
AcDbEntity
  8
画層1
 62
     0
100
AcDbLine
 10
154.78
 20
321.41
 30
0.0
 11
153.3199999999999
 21
321.41
 31
0.0
  0
LINE
  5
259
330
2
100
AcDbEntity
  8
画層1
 62
     0
100
AcDbLine
 10
152.28
 20
325.91
 30
0.0
 11
152.28
 21
317.91
 31
0.0
  0
ARC
  5
25A
330
2
100
AcDbEntity
  8
画層1
 62
     0
100
AcDbCircle
 10
154.78
 20
323.41
 30
0.0
 40
1.0
100
AcDbArc
 50
270.0
 51
0.0
  0
LINE
  5
25B
330
2
100
AcDbEntity
  8
画層1
 62
     0
100
AcDbLine
 10
156.78
 20
339.41
 30
0.0
 11
156.78
 21
339.11
 31
0.0
  0
LINE
  5
25C
330
2
100
AcDbEntity
  8
画層1
 62
     0
100
AcDbLine
 10
155.78
 20
339.11
 30
0.0
 11
155.78
 21
339.41
 31
0.0
  0
LINE
  5
25D
330
2
100
AcDbEntity
  8
画層1
 62
     0
100
AcDbLine
 10
155.78
 20
339.11
 30
0.0
 11
156.78
 21
339.11
 31
0.0
  0
LINE
  5
25E
330
2
100
AcDbEntity
  8
画層1
 62
     0
100
AcDbLine
 10
156.78
 20
329.91
 30
0.0
 11
156.78
 21
329.61
 31
0.0
  0
LINE
  5
25F
330
2
100
AcDbEntity
  8
画層1
 62
     0
100
AcDbLine
 10
156.78
 20
333.21
 30
0.0
 11
156.78
 21
332.91
 31
0.0
  0
ARC
  5
260
330
2
100
AcDbEntity
  8
画層1
 62
     0
100
AcDbCircle
 10
154.78
 20
332.91
 30
0.0
 40
1.0
100
AcDbArc
 50
270.0
 51
0.0
  0
LINE
  5
261
330
2
100
AcDbEntity
  8
画層1
 62
     0
100
AcDbLine
 10
155.78
 20
329.61
 30
0.0
 11
155.78
 21
329.91
 31
0.0
  0
ARC
  5
262
330
2
100
AcDbEntity
  8
画層1
 62
     0
100
AcDbCircle
 10
154.78
 20
329.91
 30
0.0
 40
1.0
100
AcDbArc
 50
0.0
 51
90.0
  0
LINE
  5
263
330
2
100
AcDbEntity
  8
画層1
 62
     0
100
AcDbLine
 10
155.78
 20
332.91
 30
0.0
 11
155.78
 21
333.21
 31
0.0
  0
LINE
  5
264
330
2
100
AcDbEntity
  8
画層1
 62
     0
100
AcDbLine
 10
155.78
 20
329.61
 30
0.0
 11
156.78
 21
329.61
 31
0.0
  0
LINE
  5
265
330
2
100
AcDbEntity
  8
画層1
 62
     0
100
AcDbLine
 10
155.78
 20
333.21
 30
0.0
 11
156.78
 21
333.21
 31
0.0
  0
LINE
  5
266
330
2
100
AcDbEntity
  8
画層1
 62
     0
100
AcDbLine
 10
153.3199999999999
 20
331.91
 30
0.0
 11
154.78
 21
331.91
 31
0.0
  0
LINE
  5
267
330
2
100
AcDbEntity
  8
画層1
 62
     0
100
AcDbLine
 10
154.78
 20
330.91
 30
0.0
 11
153.3199999999999
 21
330.91
 31
0.0
  0
CIRCLE
  5
268
330
2
100
AcDbEntity
  8
画層1
 62
     0
100
AcDbCircle
 10
165.7799999999999
 20
326.67
 30
0.0
 40
3.0
  0
LINE
  5
269
330
2
100
AcDbEntity
  8
画層1
 62
     0
100
AcDbLine
 10
169.7799999999999
 20
330.67
 30
0.0
 11
169.7799999999999
 21
322.67
 31
0.0
  0
LINE
  5
26A
330
2
100
AcDbEntity
  8
画層1
 62
     0
100
AcDbLine
 10
161.78
 20
330.67
 30
0.0
 11
161.78
 21
322.67
 31
0.0
  0
LINE
  5
26B
330
2
100
AcDbEntity
  8
画層1
 62
     0
100
AcDbLine
 10
165.28
 20
324.8699999999999
 30
0.0
 11
166.28
 21
324.8699999999999
 31
0.0
  0
LINE
  5
26C
330
2
100
AcDbEntity
  8
画層1
 62
     0
100
AcDbLine
 10
165.28
 20
328.47
 30
0.0
 11
166.28
 21
328.47
 31
0.0
  0
LINE
  5
26D
330
2
100
AcDbEntity
  8
画層1
 62
     0
100
AcDbLine
 10
165.28
 20
318.97
 30
0.0
 11
166.28
 21
318.97
 31
0.0
  0
LINE
  5
26E
330
2
100
AcDbEntity
  8
画層1
 62
     0
100
AcDbLine
 10
160.28
 20
321.17
 30
0.0
 11
169.7799999999999
 21
321.17
 31
0.0
  0
LINE
  5
26F
330
2
100
AcDbEntity
  8
画層1
 62
     0
100
AcDbLine
 10
160.28
 20
322.67
 30
0.0
 11
169.7799999999999
 21
322.67
 31
0.0
  0
LINE
  5
270
330
2
100
AcDbEntity
  8
画層1
 62
     0
100
AcDbLine
 10
165.28
 20
324.8699999999999
 30
0.0
 11
165.28
 21
325.17
 31
0.0
  0
LINE
  5
271
330
2
100
AcDbEntity
  8
画層1
 62
     0
100
AcDbLine
 10
165.28
 20
328.17
 30
0.0
 11
165.28
 21
328.47
 31
0.0
  0
LINE
  5
272
330
2
100
AcDbEntity
  8
画層1
 62
     0
100
AcDbLine
 10
164.28
 20
326.17
 30
0.0
 11
162.8199999999999
 21
326.17
 31
0.0
  0
LINE
  5
273
330
2
100
AcDbEntity
  8
画層1
 62
     0
100
AcDbLine
 10
162.8199999999999
 20
327.17
 30
0.0
 11
164.28
 21
327.17
 31
0.0
  0
ARC
  5
274
330
2
100
AcDbEntity
  8
画層1
 62
     0
100
AcDbCircle
 10
164.28
 20
325.17
 30
0.0
 40
1.0
100
AcDbArc
 50
0.0
 51
90.0
  0
ARC
  5
275
330
2
100
AcDbEntity
  8
画層1
 62
     0
100
AcDbCircle
 10
164.28
 20
328.17
 30
0.0
 40
1.0
100
AcDbArc
 50
270.0
 51
0.0
  0
LINE
  5
276
330
2
100
AcDbEntity
  8
画層1
 62
     0
100
AcDbLine
 10
165.28
 20
318.67
 30
0.0
 11
165.28
 21
318.97
 31
0.0
  0
LINE
  5
277
330
2
100
AcDbEntity
  8
画層1
 62
     0
100
AcDbLine
 10
162.8199999999999
 20
317.67
 30
0.0
 11
164.28
 21
317.67
 31
0.0
  0
ARC
  5
278
330
2
100
AcDbEntity
  8
画層1
 62
     0
100
AcDbCircle
 10
164.28
 20
318.67
 30
0.0
 40
1.0
100
AcDbArc
 50
270.0
 51
0.0
  0
LINE
  5
279
330
2
100
AcDbEntity
  8
画層1
 62
     0
100
AcDbLine
 10
159.24
 20
321.41
 30
0.0
 11
157.78
 21
321.41
 31
0.0
  0
LINE
  5
27A
330
2
100
AcDbEntity
  8
画層1
 62
     0
100
AcDbLine
 10
157.78
 20
322.41
 30
0.0
 11
159.24
 21
322.41
 31
0.0
  0
LINE
  5
27B
330
2
100
AcDbEntity
  8
画層1
 62
     0
100
AcDbLine
 10
166.28
 20
325.17
 30
0.0
 11
166.28
 21
324.8699999999999
 31
0.0
  0
LINE
  5
27C
330
2
100
AcDbEntity
  8
画層1
 62
     0
100
AcDbLine
 10
166.28
 20
328.47
 30
0.0
 11
166.28
 21
328.17
 31
0.0
  0
LINE
  5
27D
330
2
100
AcDbEntity
  8
画層1
 62
     0
100
AcDbLine
 10
168.74
 20
326.17
 30
0.0
 11
167.28
 21
326.17
 31
0.0
  0
LINE
  5
27E
330
2
100
AcDbEntity
  8
画層1
 62
     0
100
AcDbLine
 10
167.28
 20
327.17
 30
0.0
 11
168.74
 21
327.17
 31
0.0
  0
ARC
  5
27F
330
2
100
AcDbEntity
  8
画層1
 62
     0
100
AcDbCircle
 10
167.28
 20
328.17
 30
0.0
 40
1.0
100
AcDbArc
 50
180.0
 51
270.0
  0
ARC
  5
280
330
2
100
AcDbEntity
  8
画層1
 62
     0
100
AcDbCircle
 10
167.28
 20
325.17
 30
0.0
 40
1.0
100
AcDbArc
 50
90.0
 51
180.0
  0
LINE
  5
281
330
2
100
AcDbEntity
  8
画層1
 62
     0
100
AcDbLine
 10
166.28
 20
318.97
 30
0.0
 11
166.28
 21
318.67
 31
0.0
  0
LINE
  5
282
330
2
100
AcDbEntity
  8
画層1
 62
     0
100
AcDbLine
 10
167.28
 20
317.67
 30
0.0
 11
168.74
 21
317.67
 31
0.0
  0
ARC
  5
283
330
2
100
AcDbEntity
  8
画層1
 62
     0
100
AcDbCircle
 10
167.28
 20
318.67
 30
0.0
 40
1.0
100
AcDbArc
 50
180.0
 51
270.0
  0
LINE
  5
284
330
2
100
AcDbEntity
  8
画層1
 62
     0
100
AcDbLine
 10
165.28
 20
337.97
 30
0.0
 11
166.28
 21
337.97
 31
0.0
  0
LINE
  5
285
330
2
100
AcDbEntity
  8
画層1
 62
     0
100
AcDbLine
 10
165.28
 20
334.37
 30
0.0
 11
166.28
 21
334.37
 31
0.0
  0
CIRCLE
  5
286
330
2
100
AcDbEntity
  8
画層1
 62
     0
100
AcDbCircle
 10
165.7799999999999
 20
336.17
 30
0.0
 40
3.0
  0
LINE
  5
287
330
2
100
AcDbEntity
  8
画層1
 62
     0
100
AcDbLine
 10
160.28
 20
332.17
 30
0.0
 11
169.7799999999999
 21
332.17
 31
0.0
  0
LINE
  5
288
330
2
100
AcDbEntity
  8
画層1
 62
     0
100
AcDbLine
 10
160.28
 20
330.67
 30
0.0
 11
169.7799999999999
 21
330.67
 31
0.0
  0
LINE
  5
289
330
2
100
AcDbEntity
  8
画層1
 62
     0
100
AcDbLine
 10
160.28
 20
340.17
 30
0.0
 11
169.7799999999999
 21
340.17
 31
0.0
  0
LINE
  5
28A
330
2
100
AcDbEntity
  8
画層1
 62
     0
100
AcDbLine
 10
165.28
 20
337.67
 30
0.0
 11
165.28
 21
337.97
 31
0.0
  0
LINE
  5
28B
330
2
100
AcDbEntity
  8
画層1
 62
     0
100
AcDbLine
 10
162.8199999999999
 20
336.67
 30
0.0
 11
164.28
 21
336.67
 31
0.0
  0
LINE
  5
28C
330
2
100
AcDbEntity
  8
画層1
 62
     0
100
AcDbLine
 10
164.28
 20
335.67
 30
0.0
 11
162.8199999999999
 21
335.67
 31
0.0
  0
ARC
  5
28D
330
2
100
AcDbEntity
  8
画層1
 62
     0
100
AcDbCircle
 10
164.28
 20
337.67
 30
0.0
 40
1.0
100
AcDbArc
 50
270.0
 51
0.0
  0
LINE
  5
28E
330
2
100
AcDbEntity
  8
画層1
 62
     0
100
AcDbLine
 10
165.28
 20
334.37
 30
0.0
 11
165.28
 21
334.67
 31
0.0
  0
ARC
  5
28F
330
2
100
AcDbEntity
  8
画層1
 62
     0
100
AcDbCircle
 10
164.28
 20
334.67
 30
0.0
 40
1.0
100
AcDbArc
 50
0.0
 51
90.0
  0
LINE
  5
290
330
2
100
AcDbEntity
  8
画層1
 62
     0
100
AcDbLine
 10
157.78
 20
331.91
 30
0.0
 11
159.24
 21
331.91
 31
0.0
  0
LINE
  5
291
330
2
100
AcDbEntity
  8
画層1
 62
     0
100
AcDbLine
 10
159.24
 20
330.91
 30
0.0
 11
157.78
 21
330.91
 31
0.0
  0
LINE
  5
292
330
2
100
AcDbEntity
  8
画層1
 62
     0
100
AcDbLine
 10
161.78
 20
340.17
 30
0.0
 11
161.78
 21
332.17
 31
0.0
  0
LINE
  5
293
330
2
100
AcDbEntity
  8
画層1
 62
     0
100
AcDbLine
 10
166.28
 20
337.97
 30
0.0
 11
166.28
 21
337.67
 31
0.0
  0
LINE
  5
294
330
2
100
AcDbEntity
  8
画層1
 62
     0
100
AcDbLine
 10
168.74
 20
335.67
 30
0.0
 11
167.28
 21
335.67
 31
0.0
  0
LINE
  5
295
330
2
100
AcDbEntity
  8
画層1
 62
     0
100
AcDbLine
 10
167.28
 20
336.67
 30
0.0
 11
168.74
 21
336.67
 31
0.0
  0
ARC
  5
296
330
2
100
AcDbEntity
  8
画層1
 62
     0
100
AcDbCircle
 10
167.28
 20
337.67
 30
0.0
 40
1.0
100
AcDbArc
 50
180.0
 51
270.0
  0
LINE
  5
297
330
2
100
AcDbEntity
  8
画層1
 62
     0
100
AcDbLine
 10
166.28
 20
334.67
 30
0.0
 11
166.28
 21
334.37
 31
0.0
  0
ARC
  5
298
330
2
100
AcDbEntity
  8
画層1
 62
     0
100
AcDbCircle
 10
167.28
 20
334.67
 30
0.0
 40
1.0
100
AcDbArc
 50
90.0
 51
180.0
  0
LINE
  5
299
330
2
100
AcDbEntity
  8
画層1
 62
     0
100
AcDbLine
 10
169.7799999999999
 20
340.17
 30
0.0
 11
169.7799999999999
 21
332.17
 31
0.0
  0
DIMENSION
  5
29A
330
2
100
AcDbEntity
  8
画層1
 62
     0
100
AcDbDimension
  2
*D41
 10
133.4799999999999
 20
355.91
 30
0.0
 11
131.5999999999999
 21
359.91
 31
0.0
 70
    32
 71
     5
 42
8.0
  3
STANDARD_WS
100
AcDbAlignedDimension
 13
148.24
 23
363.91
 33
0.0
 14
148.24
 24
355.91
 34
0.0
 50
90.0
100
AcDbRotatedDimension
1001
ACAD
1000
DSTYLE
1002
{
1070
    47
1040
0.6
1070
   144
1040
1.0
1070
   146
1040
0.5
1070
   173
1070
     0
1070
   284
1070
     8
1070
   340
1005
2A
1070
   341
1005
2B
1070
   342
1005
2B
1070
   343
1005
2B
1002
}
  0
ARC
  5
2A9
330
2
100
AcDbEntity
  8
画層1
 62
     0
100
AcDbCircle
 10
167.28
 20
363.17
 30
0.0
 40
1.0
100
AcDbArc
 50
90.0
 51
180.0
  0
CIRCLE
  5
2AA
330
2
100
AcDbEntity
  8
画層1
 62
     0
100
AcDbCircle
 10
165.7799999999999
 20
364.67
 30
0.0
 40
3.0
  0
ARC
  5
2AB
330
2
100
AcDbEntity
  8
画層1
 62
     0
100
AcDbCircle
 10
164.28
 20
363.17
 30
0.0
 40
1.0
100
AcDbArc
 50
0.0
 51
90.0
  0
LINE
  5
2AC
330
2
100
AcDbEntity
  8
画層1
 62
     0
100
AcDbLine
 10
169.7799999999999
 20
368.67
 30
0.0
 11
169.7799999999999
 21
360.67
 31
0.0
  0
LINE
  5
2AD
330
2
100
AcDbEntity
  8
画層1
 62
     0
100
AcDbLine
 10
161.78
 20
368.67
 30
0.0
 11
161.78
 21
360.67
 31
0.0
  0
LINE
  5
2AE
330
2
100
AcDbEntity
  8
画層1
 62
     0
100
AcDbLine
 10
152.28
 20
363.91
 30
0.0
 11
152.28
 21
355.91
 31
0.0
  0
ARC
  5
2AF
330
2
100
AcDbEntity
  8
画層1
 62
     0
100
AcDbCircle
 10
157.78
 20
361.41
 30
0.0
 40
1.0
100
AcDbArc
 50
180.0
 51
270.0
  0
ARC
  5
2B0
330
2
100
AcDbEntity
  8
画層1
 62
     0
100
AcDbCircle
 10
157.78
 20
358.41
 30
0.0
 40
1.0
100
AcDbArc
 50
90.0
 51
180.0
  0
ARC
  5
2B1
330
2
100
AcDbEntity
  8
画層1
 62
     0
100
AcDbCircle
 10
157.78
 20
348.91
 30
0.0
 40
1.0
100
AcDbArc
 50
90.0
 51
180.0
  0
ARC
  5
2B2
330
2
100
AcDbEntity
  8
画層1
 62
     0
100
AcDbCircle
 10
157.78
 20
351.91
 30
0.0
 40
1.0
100
AcDbArc
 50
180.0
 51
270.0
  0
CIRCLE
  5
2B3
330
2
100
AcDbEntity
  8
画層1
 62
     0
100
AcDbCircle
 10
156.28
 20
350.41
 30
0.0
 40
3.0
  0
LINE
  5
2B4
330
2
100
AcDbEntity
  8
画層1
 62
     0
100
AcDbLine
 10
150.78
 20
346.41
 30
0.0
 11
160.28
 21
346.41
 31
0.0
  0
LINE
  5
2B5
330
2
100
AcDbEntity
  8
画層1
 62
     0
100
AcDbLine
 10
150.78
 20
354.41
 30
0.0
 11
160.28
 21
354.41
 31
0.0
  0
LINE
  5
2B6
330
2
100
AcDbEntity
  8
画層1
 62
     0
100
AcDbLine
 10
150.78
 20
355.91
 30
0.0
 11
160.28
 21
355.91
 31
0.0
  0
CIRCLE
  5
2B7
330
2
100
AcDbEntity
  8
画層1
 62
     0
100
AcDbCircle
 10
156.28
 20
359.91
 30
0.0
 40
3.0
  0
ARC
  5
2B8
330
2
100
AcDbEntity
  8
画層1
 62
     0
100
AcDbCircle
 10
157.78
 20
342.41
 30
0.0
 40
1.0
100
AcDbArc
 50
180.0
 51
270.0
  0
LINE
  5
2B9
330
2
100
AcDbEntity
  8
画層1
 62
     0
100
AcDbLine
 10
150.78
 20
344.91
 30
0.0
 11
160.28
 21
344.91
 31
0.0
  0
ARC
  5
2BA
330
2
100
AcDbEntity
  8
画層1
 62
     0
100
AcDbCircle
 10
154.78
 20
351.91
 30
0.0
 40
1.0
100
AcDbArc
 50
270.0
 51
0.0
  0
LINE
  5
2BB
330
2
100
AcDbEntity
  8
画層1
 62
     0
100
AcDbLine
 10
152.28
 20
354.41
 30
0.0
 11
152.28
 21
346.41
 31
0.0
  0
LINE
  5
2BC
330
2
100
AcDbEntity
  8
画層1
 62
     0
100
AcDbLine
 10
156.78
 20
348.91
 30
0.0
 11
156.78
 21
348.61
 31
0.0
  0
ARC
  5
2BD
330
2
100
AcDbEntity
  8
画層1
 62
     0
100
AcDbCircle
 10
154.78
 20
348.91
 30
0.0
 40
1.0
100
AcDbArc
 50
0.0
 51
90.0
  0
LINE
  5
2BE
330
2
100
AcDbEntity
  8
画層1
 62
     0
100
AcDbLine
 10
155.78
 20
348.61
 30
0.0
 11
155.78
 21
348.91
 31
0.0
  0
LINE
  5
2BF
330
2
100
AcDbEntity
  8
画層1
 62
     0
100
AcDbLine
 10
155.78
 20
348.61
 30
0.0
 11
156.78
 21
348.61
 31
0.0
  0
LINE
  5
2C0
330
2
100
AcDbEntity
  8
画層1
 62
     0
100
AcDbLine
 10
154.78
 20
349.91
 30
0.0
 11
153.3199999999999
 21
349.91
 31
0.0
  0
LINE
  5
2C1
330
2
100
AcDbEntity
  8
画層1
 62
     0
100
AcDbLine
 10
153.3199999999999
 20
350.91
 30
0.0
 11
154.78
 21
350.91
 31
0.0
  0
LINE
  5
2C2
330
2
100
AcDbEntity
  8
画層1
 62
     0
100
AcDbLine
 10
156.78
 20
342.7099999999999
 30
0.0
 11
156.78
 21
342.41
 31
0.0
  0
LINE
  5
2C3
330
2
100
AcDbEntity
  8
画層1
 62
     0
100
AcDbLine
 10
155.78
 20
342.41
 30
0.0
 11
155.78
 21
342.7099999999999
 31
0.0
  0
ARC
  5
2C4
330
2
100
AcDbEntity
  8
画層1
 62
     0
100
AcDbCircle
 10
154.78
 20
342.41
 30
0.0
 40
1.0
100
AcDbArc
 50
270.0
 51
0.0
  0
LINE
  5
2C5
330
2
100
AcDbEntity
  8
画層1
 62
     0
100
AcDbLine
 10
155.78
 20
342.7099999999999
 30
0.0
 11
156.78
 21
342.7099999999999
 31
0.0
  0
LINE
  5
2C6
330
2
100
AcDbEntity
  8
画層1
 62
     0
100
AcDbLine
 10
154.78
 20
340.41
 30
0.0
 11
153.3199999999999
 21
340.41
 31
0.0
  0
LINE
  5
2C7
330
2
100
AcDbEntity
  8
画層1
 62
     0
100
AcDbLine
 10
153.3199999999999
 20
341.41
 30
0.0
 11
154.78
 21
341.41
 31
0.0
  0
LINE
  5
2C8
330
2
100
AcDbEntity
  8
画層1
 62
     0
100
AcDbLine
 10
156.78
 20
361.7099999999999
 30
0.0
 11
156.78
 21
361.41
 31
0.0
  0
LINE
  5
2C9
330
2
100
AcDbEntity
  8
画層1
 62
     0
100
AcDbLine
 10
156.78
 20
358.41
 30
0.0
 11
156.78
 21
358.11
 31
0.0
  0
LINE
  5
2CA
330
2
100
AcDbEntity
  8
画層1
 62
     0
100
AcDbLine
 10
155.78
 20
361.41
 30
0.0
 11
155.78
 21
361.7099999999999
 31
0.0
  0
LINE
  5
2CB
330
2
100
AcDbEntity
  8
画層1
 62
     0
100
AcDbLine
 10
155.78
 20
358.11
 30
0.0
 11
155.78
 21
358.41
 31
0.0
  0
ARC
  5
2CC
330
2
100
AcDbEntity
  8
画層1
 62
     0
100
AcDbCircle
 10
154.78
 20
361.41
 30
0.0
 40
1.0
100
AcDbArc
 50
270.0
 51
0.0
  0
ARC
  5
2CD
330
2
100
AcDbEntity
  8
画層1
 62
     0
100
AcDbCircle
 10
154.78
 20
358.41
 30
0.0
 40
1.0
100
AcDbArc
 50
0.0
 51
90.0
  0
LINE
  5
2CE
330
2
100
AcDbEntity
  8
画層1
 62
     0
100
AcDbLine
 10
155.78
 20
358.11
 30
0.0
 11
156.78
 21
358.11
 31
0.0
  0
LINE
  5
2CF
330
2
100
AcDbEntity
  8
画層1
 62
     0
100
AcDbLine
 10
155.78
 20
361.7099999999999
 30
0.0
 11
156.78
 21
361.7099999999999
 31
0.0
  0
LINE
  5
2D0
330
2
100
AcDbEntity
  8
画層1
 62
     0
100
AcDbLine
 10
154.78
 20
359.41
 30
0.0
 11
153.3199999999999
 21
359.41
 31
0.0
  0
LINE
  5
2D1
330
2
100
AcDbEntity
  8
画層1
 62
     0
100
AcDbLine
 10
153.3199999999999
 20
360.41
 30
0.0
 11
154.78
 21
360.41
 31
0.0
  0
LINE
  5
2D2
330
2
100
AcDbEntity
  8
画層1
 62
     0
100
AcDbLine
 10
155.78
 20
352.21
 30
0.0
 11
156.78
 21
352.21
 31
0.0
  0
LINE
  5
2D3
330
2
100
AcDbEntity
  8
画層1
 62
     0
100
AcDbLine
 10
155.78
 20
351.91
 30
0.0
 11
155.78
 21
352.21
 31
0.0
  0
LINE
  5
2D4
330
2
100
AcDbEntity
  8
画層1
 62
     0
100
AcDbLine
 10
156.78
 20
352.21
 30
0.0
 11
156.78
 21
351.91
 31
0.0
  0
LINE
  5
2D5
330
2
100
AcDbEntity
  8
画層1
 62
     0
100
AcDbLine
 10
169.7799999999999
 20
359.17
 30
0.0
 11
169.7799999999999
 21
351.17
 31
0.0
  0
LINE
  5
2D6
330
2
100
AcDbEntity
  8
画層1
 62
     0
100
AcDbLine
 10
161.78
 20
359.17
 30
0.0
 11
161.78
 21
351.17
 31
0.0
  0
LINE
  5
2D7
330
2
100
AcDbEntity
  8
画層1
 62
     0
100
AcDbLine
 10
165.28
 20
347.47
 30
0.0
 11
166.28
 21
347.47
 31
0.0
  0
LINE
  5
2D8
330
2
100
AcDbEntity
  8
画層1
 62
     0
100
AcDbLine
 10
165.28
 20
343.87
 30
0.0
 11
166.28
 21
343.87
 31
0.0
  0
CIRCLE
  5
2D9
330
2
100
AcDbEntity
  8
画層1
 62
     0
100
AcDbCircle
 10
165.7799999999999
 20
345.67
 30
0.0
 40
3.0
  0
LINE
  5
2DA
330
2
100
AcDbEntity
  8
画層1
 62
     0
100
AcDbLine
 10
160.28
 20
341.67
 30
0.0
 11
169.7799999999999
 21
341.67
 31
0.0
  0
LINE
  5
2DB
330
2
100
AcDbEntity
  8
画層1
 62
     0
100
AcDbLine
 10
160.28
 20
351.17
 30
0.0
 11
169.7799999999999
 21
351.17
 31
0.0
  0
LINE
  5
2DC
330
2
100
AcDbEntity
  8
画層1
 62
     0
100
AcDbLine
 10
160.28
 20
349.67
 30
0.0
 11
169.7799999999999
 21
349.67
 31
0.0
  0
LINE
  5
2DD
330
2
100
AcDbEntity
  8
画層1
 62
     0
100
AcDbLine
 10
165.28
 20
347.17
 30
0.0
 11
165.28
 21
347.47
 31
0.0
  0
LINE
  5
2DE
330
2
100
AcDbEntity
  8
画層1
 62
     0
100
AcDbLine
 10
165.28
 20
343.87
 30
0.0
 11
165.28
 21
344.17
 31
0.0
  0
LINE
  5
2DF
330
2
100
AcDbEntity
  8
画層1
 62
     0
100
AcDbLine
 10
162.8199999999999
 20
346.17
 30
0.0
 11
164.28
 21
346.17
 31
0.0
  0
LINE
  5
2E0
330
2
100
AcDbEntity
  8
画層1
 62
     0
100
AcDbLine
 10
164.28
 20
345.17
 30
0.0
 11
162.8199999999999
 21
345.17
 31
0.0
  0
ARC
  5
2E1
330
2
100
AcDbEntity
  8
画層1
 62
     0
100
AcDbCircle
 10
164.28
 20
344.17
 30
0.0
 40
1.0
100
AcDbArc
 50
0.0
 51
90.0
  0
ARC
  5
2E2
330
2
100
AcDbEntity
  8
画層1
 62
     0
100
AcDbCircle
 10
164.28
 20
347.17
 30
0.0
 40
1.0
100
AcDbArc
 50
270.0
 51
0.0
  0
LINE
  5
2E3
330
2
100
AcDbEntity
  8
画層1
 62
     0
100
AcDbLine
 10
159.24
 20
349.91
 30
0.0
 11
157.78
 21
349.91
 31
0.0
  0
LINE
  5
2E4
330
2
100
AcDbEntity
  8
画層1
 62
     0
100
AcDbLine
 10
157.78
 20
350.91
 30
0.0
 11
159.24
 21
350.91
 31
0.0
  0
LINE
  5
2E5
330
2
100
AcDbEntity
  8
画層1
 62
     0
100
AcDbLine
 10
157.78
 20
341.41
 30
0.0
 11
159.24
 21
341.41
 31
0.0
  0
LINE
  5
2E6
330
2
100
AcDbEntity
  8
画層1
 62
     0
100
AcDbLine
 10
159.24
 20
340.41
 30
0.0
 11
157.78
 21
340.41
 31
0.0
  0
LINE
  5
2E7
330
2
100
AcDbEntity
  8
画層1
 62
     0
100
AcDbLine
 10
161.78
 20
349.67
 30
0.0
 11
161.78
 21
341.67
 31
0.0
  0
LINE
  5
2E8
330
2
100
AcDbEntity
  8
画層1
 62
     0
100
AcDbLine
 10
166.28
 20
347.47
 30
0.0
 11
166.28
 21
347.17
 31
0.0
  0
LINE
  5
2E9
330
2
100
AcDbEntity
  8
画層1
 62
     0
100
AcDbLine
 10
166.28
 20
344.17
 30
0.0
 11
166.28
 21
343.87
 31
0.0
  0
LINE
  5
2EA
330
2
100
AcDbEntity
  8
画層1
 62
     0
100
AcDbLine
 10
167.28
 20
346.17
 30
0.0
 11
168.74
 21
346.17
 31
0.0
  0
LINE
  5
2EB
330
2
100
AcDbEntity
  8
画層1
 62
     0
100
AcDbLine
 10
168.74
 20
345.17
 30
0.0
 11
167.28
 21
345.17
 31
0.0
  0
ARC
  5
2EC
330
2
100
AcDbEntity
  8
画層1
 62
     0
100
AcDbCircle
 10
167.28
 20
344.17
 30
0.0
 40
1.0
100
AcDbArc
 50
90.0
 51
180.0
  0
ARC
  5
2ED
330
2
100
AcDbEntity
  8
画層1
 62
     0
100
AcDbCircle
 10
167.28
 20
347.17
 30
0.0
 40
1.0
100
AcDbArc
 50
180.0
 51
270.0
  0
LINE
  5
2EE
330
2
100
AcDbEntity
  8
画層1
 62
     0
100
AcDbLine
 10
169.7799999999999
 20
349.67
 30
0.0
 11
169.7799999999999
 21
341.67
 31
0.0
  0
LINE
  5
2EF
330
2
100
AcDbEntity
  8
画層1
 62
     0
100
AcDbLine
 10
165.28
 20
362.87
 30
0.0
 11
166.28
 21
362.87
 31
0.0
  0
LINE
  5
2F0
330
2
100
AcDbEntity
  8
画層1
 62
     0
100
AcDbLine
 10
165.28
 20
353.37
 30
0.0
 11
166.28
 21
353.37
 31
0.0
  0
LINE
  5
2F1
330
2
100
AcDbEntity
  8
画層1
 62
     0
100
AcDbLine
 10
165.28
 20
356.97
 30
0.0
 11
166.28
 21
356.97
 31
0.0
  0
CIRCLE
  5
2F2
330
2
100
AcDbEntity
  8
画層1
 62
     0
100
AcDbCircle
 10
165.7799999999999
 20
355.17
 30
0.0
 40
3.0
  0
LINE
  5
2F3
330
2
100
AcDbEntity
  8
画層1
 62
     0
100
AcDbLine
 10
160.28
 20
359.17
 30
0.0
 11
169.7799999999999
 21
359.17
 31
0.0
  0
LINE
  5
2F4
330
2
100
AcDbEntity
  8
画層1
 62
     0
100
AcDbLine
 10
160.28
 20
360.67
 30
0.0
 11
169.7799999999999
 21
360.67
 31
0.0
  0
LINE
  5
2F5
330
2
100
AcDbEntity
  8
画層1
 62
     0
100
AcDbLine
 10
165.28
 20
362.87
 30
0.0
 11
165.28
 21
363.17
 31
0.0
  0
LINE
  5
2F6
330
2
100
AcDbEntity
  8
画層1
 62
     0
100
AcDbLine
 10
165.28
 20
353.37
 30
0.0
 11
165.28
 21
353.67
 31
0.0
  0
LINE
  5
2F7
330
2
100
AcDbEntity
  8
画層1
 62
     0
100
AcDbLine
 10
165.28
 20
356.67
 30
0.0
 11
165.28
 21
356.97
 31
0.0
  0
LINE
  5
2F8
330
2
100
AcDbEntity
  8
画層1
 62
     0
100
AcDbLine
 10
164.28
 20
354.67
 30
0.0
 11
162.8199999999999
 21
354.67
 31
0.0
  0
LINE
  5
2F9
330
2
100
AcDbEntity
  8
画層1
 62
     0
100
AcDbLine
 10
162.8199999999999
 20
355.67
 30
0.0
 11
164.28
 21
355.67
 31
0.0
  0
ARC
  5
2FA
330
2
100
AcDbEntity
  8
画層1
 62
     0
100
AcDbCircle
 10
164.28
 20
356.67
 30
0.0
 40
1.0
100
AcDbArc
 50
270.0
 51
0.0
  0
ARC
  5
2FB
330
2
100
AcDbEntity
  8
画層1
 62
     0
100
AcDbCircle
 10
164.28
 20
353.67
 30
0.0
 40
1.0
100
AcDbArc
 50
0.0
 51
90.0
  0
LINE
  5
2FC
330
2
100
AcDbEntity
  8
画層1
 62
     0
100
AcDbLine
 10
157.78
 20
360.41
 30
0.0
 11
159.24
 21
360.41
 31
0.0
  0
LINE
  5
2FD
330
2
100
AcDbEntity
  8
画層1
 62
     0
100
AcDbLine
 10
159.24
 20
359.41
 30
0.0
 11
157.78
 21
359.41
 31
0.0
  0
LINE
  5
2FE
330
2
100
AcDbEntity
  8
画層1
 62
     0
100
AcDbLine
 10
166.28
 20
363.17
 30
0.0
 11
166.28
 21
362.87
 31
0.0
  0
LINE
  5
2FF
330
2
100
AcDbEntity
  8
画層1
 62
     0
100
AcDbLine
 10
166.28
 20
353.67
 30
0.0
 11
166.28
 21
353.37
 31
0.0
  0
LINE
  5
300
330
2
100
AcDbEntity
  8
画層1
 62
     0
100
AcDbLine
 10
166.28
 20
356.97
 30
0.0
 11
166.28
 21
356.67
 31
0.0
  0
LINE
  5
301
330
2
100
AcDbEntity
  8
画層1
 62
     0
100
AcDbLine
 10
167.28
 20
355.67
 30
0.0
 11
168.74
 21
355.67
 31
0.0
  0
LINE
  5
302
330
2
100
AcDbEntity
  8
画層1
 62
     0
100
AcDbLine
 10
168.74
 20
354.67
 30
0.0
 11
167.28
 21
354.67
 31
0.0
  0
ARC
  5
303
330
2
100
AcDbEntity
  8
画層1
 62
     0
100
AcDbCircle
 10
167.28
 20
356.67
 30
0.0
 40
1.0
100
AcDbArc
 50
180.0
 51
270.0
  0
ARC
  5
304
330
2
100
AcDbEntity
  8
画層1
 62
     0
100
AcDbCircle
 10
167.28
 20
353.67
 30
0.0
 40
1.0
100
AcDbArc
 50
90.0
 51
180.0
  0
LINE
  5
305
330
2
100
AcDbEntity
  8
画層1
 62
     0
100
AcDbLine
 10
150.78
 20
363.91
 30
0.0
 11
160.28
 21
363.91
 31
0.0
  0
LINE
  5
306
330
2
100
AcDbEntity
  8
画層1
 62
     0
100
AcDbLine
 10
150.78
 20
365.41
 30
0.0
 11
160.28
 21
365.41
 31
0.0
  0
LINE
  5
307
330
2
100
AcDbEntity
  8
画層1
 62
     0
100
AcDbLine
 10
147.78
 20
371.79
 30
0.0
 11
171.98
 21
371.79
 31
0.0
  0
LINE
  5
308
330
2
100
AcDbEntity
  8
画層1
 62
     0
100
AcDbLine
 10
150.78
 20
368.67
 30
0.0
 11
169.7799999999999
 21
368.67
 31
0.0
  0
LINE
  5
309
330
2
100
AcDbEntity
  8
画層1
 62
     0
100
AcDbLine
 10
150.78
 20
370.79
 30
0.0
 11
170.7799999999999
 21
370.79
 31
0.0
  0
LINE
  5
30A
330
2
100
AcDbEntity
  8
画層1
 62
     0
100
AcDbLine
 10
165.28
 20
366.47
 30
0.0
 11
166.28
 21
366.47
 31
0.0
  0
LINE
  5
30B
330
2
100
AcDbEntity
  8
画層1
 62
     0
100
AcDbLine
 10
165.28
 20
366.17
 30
0.0
 11
165.28
 21
366.47
 31
0.0
  0
LINE
  5
30C
330
2
100
AcDbEntity
  8
画層1
 62
     0
100
AcDbLine
 10
164.28
 20
364.17
 30
0.0
 11
162.8199999999999
 21
364.17
 31
0.0
  0
LINE
  5
30D
330
2
100
AcDbEntity
  8
画層1
 62
     0
100
AcDbLine
 10
162.8199999999999
 20
365.17
 30
0.0
 11
164.28
 21
365.17
 31
0.0
  0
ARC
  5
30E
330
2
100
AcDbEntity
  8
画層1
 62
     0
100
AcDbCircle
 10
164.28
 20
366.17
 30
0.0
 40
1.0
100
AcDbArc
 50
270.0
 51
0.0
  0
LINE
  5
30F
330
2
100
AcDbEntity
  8
画層1
 62
     0
100
AcDbLine
 10
166.28
 20
366.47
 30
0.0
 11
166.28
 21
366.17
 31
0.0
  0
LINE
  5
310
330
2
100
AcDbEntity
  8
画層1
 62
     0
100
AcDbLine
 10
168.74
 20
364.17
 30
0.0
 11
167.28
 21
364.17
 31
0.0
  0
LINE
  5
311
330
2
100
AcDbEntity
  8
画層1
 62
     0
100
AcDbLine
 10
167.28
 20
365.17
 30
0.0
 11
168.74
 21
365.17
 31
0.0
  0
ARC
  5
312
330
2
100
AcDbEntity
  8
画層1
 62
     0
100
AcDbCircle
 10
167.28
 20
366.17
 30
0.0
 40
1.0
100
AcDbArc
 50
180.0
 51
270.0
  0
ARC
  5
313
330
2
100
AcDbEntity
  8
画層1
 62
     0
100
AcDbCircle
 10
166.4799999999999
 20
384.79
 30
0.0
 40
1.5
100
AcDbArc
 50
180.0
 51
270.0
  0
CIRCLE
  5
314
330
2
100
AcDbEntity
  8
画層1
 62
     0
100
AcDbCircle
 10
210.48
 20
338.79
 30
0.0
 40
2.5
  0
CIRCLE
  5
315
330
2
100
AcDbEntity
  8
画層1
 62
     0
100
AcDbCircle
 10
195.4799999999999
 20
338.79
 30
0.0
 40
2.5
  0
CIRCLE
  5
316
330
2
100
AcDbEntity
  8
画層1
 62
     0
100
AcDbCircle
 10
202.9799999999999
 20
364.79
 30
0.0
 40
2.0
  0
CIRCLE
  5
317
330
2
100
AcDbEntity
  8
画層1
 62
     0
100
AcDbCircle
 10
192.98
 20
364.79
 30
0.0
 40
2.0
  0
CIRCLE
  5
318
330
2
100
AcDbEntity
  8
画層1
 62
     0
100
AcDbCircle
 10
195.4799999999999
 20
352.79
 30
0.0
 40
2.5
  0
CIRCLE
  5
319
330
2
100
AcDbEntity
  8
画層1
 62
     0
100
AcDbCircle
 10
202.9799999999999
 20
374.79
 30
0.0
 40
2.0
  0
CIRCLE
  5
31A
330
2
100
AcDbEntity
  8
画層1
 62
     0
100
AcDbCircle
 10
192.98
 20
374.79
 30
0.0
 40
2.0
  0
CIRCLE
  5
31B
330
2
100
AcDbEntity
  8
画層1
 62
     0
100
AcDbCircle
 10
212.9799999999999
 20
364.79
 30
0.0
 40
2.0
  0
CIRCLE
  5
31C
330
2
100
AcDbEntity
  8
画層1
 62
     0
100
AcDbCircle
 10
210.48
 20
352.79
 30
0.0
 40
2.5
  0
CIRCLE
  5
31D
330
2
100
AcDbEntity
  8
画層1
 62
     0
100
AcDbCircle
 10
212.9799999999999
 20
374.79
 30
0.0
 40
2.0
  0
ARC
  5
31E
330
2
100
AcDbEntity
  8
画層1
 62
     0
100
AcDbCircle
 10
168.88
 20
412.79
 30
0.0
 40
5.0
100
AcDbArc
 50
0.0
 51
90.0
  0
DIMENSION
  5
31F
330
2
100
AcDbEntity
  8
画層1
 62
     0
100
AcDbDimension
  2
*D42
 10
164.9799999999999
 20
432.79
 30
0.0
 11
161.9799999999999
 21
434.67
 31
0.0
 70
    32
 71
     5
 42
6.0
  3
STANDARD_WS
100
AcDbAlignedDimension
 13
158.9799999999999
 23
417.79
 33
0.0
 14
164.9799999999999
 24
417.79
 34
0.0
100
AcDbRotatedDimension
1001
ACAD
1000
DSTYLE
1002
{
1070
    47
1040
0.6
1070
   144
1040
1.0
1070
   146
1040
0.5
1070
   173
1070
     0
1070
   284
1070
     8
1070
   340
1005
2A
1070
   341
1005
2B
1070
   342
1005
2B
1070
   343
1005
2B
1002
}
  0
MTEXT
  5
32E
102
{ACAD_REACTORS
330
32F
102
}
330
2
100
AcDbEntity
  8
画層1
 62
     0
100
AcDbMText
 10
136.6399999999999
 20
432.79
 30
0.0
 40
5.0
 41
0.0
 71
     9
 72
     1
  1
φ13
  7
STYLE1
 73
     1
 44
1.0
  0
LEADER
  5
32F
330
2
100
AcDbEntity
  8
画層1
 62
     0
100
AcDbLeader
  3
STANDARD_WS
 73
     0
 75
     1
 40
5.809999999999999
 41
11.29
 76
     3
 10
158.18
 20
409.05
 30
0.0
 10
138.77
 20
433.41
 30
0.0
 10
137.27
 20
433.41
 30
0.0
340
32E
213
0.0
223
1.25
233
0.0
1001
ACAD
1000
DSTYLE
1002
{
1070
   341
1005
2B
1070
   147
1040
0.63
1070
    77
1070
     2
1070
    47
1040
0.6
1070
   144
1040
2.0
1070
   146
1040
0.5
1070
   284
1070
     8
1070
   340
1005
2A
1002
}
  0
DIMENSION
  5
330
330
2
100
AcDbEntity
  8
画層1
 62
     0
100
AcDbDimension
  2
*D43
 10
119.48
 20
407.79
 30
0.0
 11
117.5999999999999
 21
412.7900000000001
 31
0.0
 70
    32
 71
     5
 42
10.0
  3
STANDARD_WS
100
AcDbAlignedDimension
 13
155.12
 23
417.79
 33
0.0
 14
148.24
 24
407.79
 34
0.0
 50
90.0
100
AcDbRotatedDimension
1001
ACAD
1000
DSTYLE
1002
{
1070
    47
1040
0.6
1070
   144
1040
1.0
1070
   146
1040
0.5
1070
   173
1070
     0
1070
   284
1070
     8
1070
   340
1005
2A
1070
   341
1005
2B
1070
   342
1005
2B
1070
   343
1005
2B
1002
}
  0
LINE
  5
33D
330
2
100
AcDbEntity
  8
画層1
  6
CENTER
 62
     0
100
AcDbLine
 10
161.9799999999999
 20
404.79
 30
0.0
 11
161.9799999999999
 21
421.79
 31
0.0
  0
ARC
  5
33E
330
2
100
AcDbEntity
  8
画層1
  6
DASHED2
 62
     0
100
AcDbCircle
 10
161.9799999999999
 20
403.79
 30
0.0
 40
6.499999999999986
100
AcDbArc
 50
147.4199999999999
 51
32.58
  0
LINE
  5
33F
330
2
100
AcDbEntity
  8
画層1
 62
     0
100
AcDbLine
 10
164.9799999999999
 20
411.79
 30
0.0
 11
164.9799999999999
 21
409.55
 31
0.0
  0
LINE
  5
340
330
2
100
AcDbEntity
  8
画層1
 62
     0
100
AcDbLine
 10
158.9799999999999
 20
411.79
 30
0.0
 11
158.9799999999999
 21
409.55
 31
0.0
  0
LINE
  5
341
330
2
100
AcDbEntity
  8
画層1
 62
     0
100
AcDbLine
 10
173.8799999999999
 20
412.79
 30
0.0
 11
173.8799999999999
 21
407.79
 31
0.0
  0
LINE
  5
342
330
2
100
AcDbEntity
  8
画層1
 62
     0
100
AcDbLine
 10
150.8799999999999
 20
407.79
 30
0.0
 11
150.8799999999999
 21
412.79
 31
0.0
  0
ARC
  5
343
330
2
100
AcDbEntity
  8
画層1
 62
     0
100
AcDbCircle
 10
161.9799999999999
 20
403.79
 30
0.0
 40
6.5
100
AcDbArc
 50
117.49
 51
147.4199999999999
  0
LINE
  5
344
330
2
100
AcDbEntity
  8
画層1
 62
     0
100
AcDbLine
 10
167.52
 20
407.29
 30
0.0
 11
149.4799999999999
 21
407.29
 31
0.0
  0
LINE
  5
345
330
2
100
AcDbEntity
  8
画層1
 62
     0
100
AcDbLine
 10
149.8799999999999
 20
396.79
 30
0.0
 11
165.3799999999999
 21
396.79
 31
0.0
  0
LINE
  5
346
330
2
100
AcDbEntity
  8
画層1
 62
     0
100
AcDbLine
 10
165.3799999999999
 20
398.3899999999999
 30
0.0
 11
149.8799999999999
 21
398.3899999999999
 31
0.0
  0
LINE
  5
347
330
2
100
AcDbEntity
  8
画層1
 62
     0
100
AcDbLine
 10
147.78
 20
396.29
 30
0.0
 11
164.9799999999999
 21
396.29
 31
0.0
  0
LINE
  5
348
330
2
100
AcDbEntity
  8
画層1
 62
     0
100
AcDbLine
 10
147.8799999999999
 20
396.29
 30
0.0
 11
147.8799999999999
 21
407.79
 31
0.0
  0
ARC
  5
349
330
2
100
AcDbEntity
  8
画層1
 62
     0
100
AcDbCircle
 10
149.8799999999999
 20
398.79
 30
0.0
 40
2.0
100
AcDbArc
 50
180.0
 51
270.0
  0
LINE
  5
34A
330
2
100
AcDbEntity
  8
画層1
 62
     0
100
AcDbLine
 10
149.4799999999999
 20
396.29
 30
0.0
 11
149.4799999999999
 21
396.8299999999999
 31
0.0
  0
LINE
  5
34B
330
2
100
AcDbEntity
  8
画層1
 62
     0
100
AcDbLine
 10
147.8799999999999
 20
407.79
 30
0.0
 11
150.8799999999999
 21
407.79
 31
0.0
  0
ARC
  5
34C
330
2
100
AcDbEntity
  8
画層1
 62
     0
100
AcDbCircle
 10
149.8799999999999
 20
398.79
 30
0.0
 40
0.4
100
AcDbArc
 50
180.0
 51
270.0
  0
LINE
  5
34D
330
2
100
AcDbEntity
  8
画層1
 62
     0
100
AcDbLine
 10
149.4799999999999
 20
398.79
 30
0.0
 11
149.4799999999999
 21
407.79
 31
0.0
  0
LINE
  5
34E
330
2
100
AcDbEntity
  8
画層1
 62
     0
100
AcDbLine
 10
165.3799999999999
 20
396.79
 30
0.0
 11
165.3799999999999
 21
398.3899999999999
 31
0.0
  0
ARC
  5
34F
330
2
100
AcDbEntity
  8
画層1
 62
     0
100
AcDbCircle
 10
164.9799999999999
 20
398.29
 30
0.0
 40
2.0
100
AcDbArc
 50
270.0
 51
0.0
  0
LINE
  5
350
330
2
100
AcDbEntity
  8
画層1
 62
     0
100
AcDbLine
 10
165.3799999999999
 20
397.29
 30
0.0
 11
166.72
 21
397.29
 31
0.0
  0
ARC
  5
351
330
2
100
AcDbEntity
  8
画層1
 62
     0
100
AcDbCircle
 10
166.4799999999999
 20
391.79
 30
0.0
 40
1.5
100
AcDbArc
 50
90.0
 51
180.0
  0
ARC
  5
352
330
2
100
AcDbEntity
  8
画層1
 62
     0
100
AcDbCircle
 10
161.9799999999999
 20
403.79
 30
0.0
 40
6.5
100
AcDbArc
 50
32.58
 51
62.51000000000001
  0
ARC
  5
353
330
2
100
AcDbEntity
  8
画層1
 62
     0
100
AcDbCircle
 10
163.3799999999999
 20
401.89
 30
0.0
 40
0.5
100
AcDbArc
 50
0.0
 51
90.0
  0
LINE
  5
354
330
2
100
AcDbEntity
  8
画層1
 62
     0
100
AcDbLine
 10
163.8799999999999
 20
401.89
 30
0.0
 11
163.8799999999999
 21
399.39
 31
0.0
  0
LINE
  5
355
330
2
100
AcDbEntity
  8
画層1
 62
     0
100
AcDbLine
 10
164.3799999999999
 20
399.39
 30
0.0
 11
164.3799999999999
 21
398.3899999999999
 31
0.0
  0
ARC
  5
356
330
2
100
AcDbEntity
  8
画層1
 62
     0
100
AcDbCircle
 10
159.3799999999999
 20
401.89
 30
0.0
 40
0.5
100
AcDbArc
 50
90.0
 51
180.0
  0
LINE
  5
357
330
2
100
AcDbEntity
  8
画層1
 62
     0
100
AcDbLine
 10
158.8799999999999
 20
399.39
 30
0.0
 11
158.8799999999999
 21
401.89
 31
0.0
  0
LINE
  5
358
330
2
100
AcDbEntity
  8
画層1
 62
     0
100
AcDbLine
 10
158.38
 20
398.3899999999999
 30
0.0
 11
158.38
 21
399.39
 31
0.0
  0
LINE
  5
359
330
2
100
AcDbEntity
  8
画層1
 62
     0
100
AcDbLine
 10
163.8799999999999
 20
400.3899999999999
 30
0.0
 11
158.8799999999999
 21
400.3899999999999
 31
0.0
  0
LINE
  5
35A
330
2
100
AcDbEntity
  8
画層1
 62
     0
100
AcDbLine
 10
158.38
 20
399.39
 30
0.0
 11
164.3799999999999
 21
399.39
 31
0.0
  0
LINE
  5
35B
330
2
100
AcDbEntity
  8
画層1
 62
     0
100
AcDbLine
 10
159.3799999999999
 20
402.39
 30
0.0
 11
163.3799999999999
 21
402.39
 31
0.0
  0
LINE
  5
35C
330
2
100
AcDbEntity
  8
画層1
 62
     0
100
AcDbLine
 10
166.9799999999999
 20
398.29
 30
0.0
 11
166.9799999999999
 21
406.2899999999999
 31
0.0
  0
ARC
  5
35D
330
2
100
AcDbEntity
  8
画層1
 62
     0
100
AcDbCircle
 10
168.4799999999999
 20
406.2899999999999
 30
0.0
 40
1.5
100
AcDbArc
 50
90.0
 51
180.0
  0
LINE
  5
35E
330
2
100
AcDbEntity
  8
画層1
  6
CENTER
 62
     0
100
AcDbLine
 10
168.9799999999999
 20
411.79
 30
0.0
 11
154.9799999999999
 21
411.79
 31
0.0
  0
LINE
  5
35F
330
2
100
AcDbEntity
  8
画層1
 62
     0
100
AcDbLine
 10
155.8799999999999
 20
417.79
 30
0.0
 11
168.88
 21
417.79
 31
0.0
  0
ARC
  5
360
330
2
100
AcDbEntity
  8
画層1
 62
     0
100
AcDbCircle
 10
155.8799999999999
 20
412.79
 30
0.0
 40
5.0
100
AcDbArc
 50
90.0
 51
180.0
  0
LINE
  5
361
330
2
100
AcDbEntity
  8
画層1
 62
     0
100
AcDbLine
 10
161.9799999999999
 20
417.79
 30
0.0
 11
161.9799999999999
 21
431.79
 31
0.0
  0
ARC
  5
362
330
2
100
AcDbEntity
  8
画層1
 62
     0
100
AcDbCircle
 10
161.9799999999999
 20
411.79
 30
0.0
 40
3.0
100
AcDbArc
 50
0.0
 51
180.0
  0
CIRCLE
  5
363
330
2
100
AcDbEntity
  8
画層1
 62
     0
100
AcDbCircle
 10
211.98
 20
401.79
 30
0.0
 40
3.799999999999998
  0
LINE
  5
364
330
2
100
AcDbEntity
  8
画層1
 62
     0
100
AcDbLine
 10
213.7799999999999
 20
401.29
 30
0.0
 11
213.7799999999999
 21
402.2899999999999
 31
0.0
  0
LINE
  5
365
330
2
100
AcDbEntity
  8
画層1
 62
     0
100
AcDbLine
 10
213.7799999999999
 20
401.29
 30
0.0
 11
213.4799999999999
 21
401.29
 31
0.0
  0
LINE
  5
366
330
2
100
AcDbEntity
  8
画層1
 62
     0
100
AcDbLine
 10
213.4799999999999
 20
402.2899999999999
 30
0.0
 11
213.7799999999999
 21
402.2899999999999
 31
0.0
  0
LINE
  5
367
330
2
100
AcDbEntity
  8
画層1
 62
     0
100
AcDbLine
 10
211.4799999999999
 20
399.99
 30
0.0
 11
212.48
 21
399.99
 31
0.0
  0
LINE
  5
368
330
2
100
AcDbEntity
  8
画層1
 62
     0
100
AcDbLine
 10
211.4799999999999
 20
399.99
 30
0.0
 11
211.4799999999999
 21
400.29
 31
0.0
  0
LINE
  5
369
330
2
100
AcDbEntity
  8
画層1
 62
     0
100
AcDbLine
 10
212.48
 20
400.29
 30
0.0
 11
212.48
 21
399.99
 31
0.0
  0
LINE
  5
36A
330
2
100
AcDbEntity
  8
画層1
 62
     0
100
AcDbLine
 10
211.4799999999999
 20
403.5899999999999
 30
0.0
 11
212.48
 21
403.5899999999999
 31
0.0
  0
LINE
  5
36B
330
2
100
AcDbEntity
  8
画層1
 62
     0
100
AcDbLine
 10
211.4799999999999
 20
403.29
 30
0.0
 11
211.4799999999999
 21
403.5899999999999
 31
0.0
  0
LINE
  5
36C
330
2
100
AcDbEntity
  8
画層1
 62
     0
100
AcDbLine
 10
212.48
 20
403.5899999999999
 30
0.0
 11
212.48
 21
403.29
 31
0.0
  0
ARC
  5
36D
330
2
100
AcDbEntity
  8
画層1
 62
     0
100
AcDbCircle
 10
213.4799999999999
 20
403.29
 30
0.0
 40
1.0
100
AcDbArc
 50
180.0
 51
270.0
  0
ARC
  5
36E
330
2
100
AcDbEntity
  8
画層1
 62
     0
100
AcDbCircle
 10
213.4799999999999
 20
400.29
 30
0.0
 40
1.0
100
AcDbArc
 50
90.0
 51
180.0
  0
LINE
  5
36F
330
2
100
AcDbEntity
  8
画層1
 62
     0
100
AcDbLine
 10
210.1799999999999
 20
401.29
 30
0.0
 11
210.1799999999999
 21
402.2899999999999
 31
0.0
  0
LINE
  5
370
330
2
100
AcDbEntity
  8
画層1
 62
     0
100
AcDbLine
 10
210.48
 20
401.29
 30
0.0
 11
210.1799999999999
 21
401.29
 31
0.0
  0
LINE
  5
371
330
2
100
AcDbEntity
  8
画層1
 62
     0
100
AcDbLine
 10
210.1799999999999
 20
402.2899999999999
 30
0.0
 11
210.48
 21
402.2899999999999
 31
0.0
  0
ARC
  5
372
330
2
100
AcDbEntity
  8
画層1
 62
     0
100
AcDbCircle
 10
210.48
 20
403.29
 30
0.0
 40
1.0
100
AcDbArc
 50
270.0
 51
0.0
  0
ARC
  5
373
330
2
100
AcDbEntity
  8
画層1
 62
     0
100
AcDbCircle
 10
210.48
 20
400.29
 30
0.0
 40
1.0
100
AcDbArc
 50
0.0
 51
90.0
  0
CIRCLE
  5
374
330
2
100
AcDbEntity
  8
画層1
 62
     0
100
AcDbCircle
 10
211.98
 20
401.79
 30
0.0
 40
2.6
  0
LINE
  5
375
330
2
100
AcDbEntity
  8
画層1
 62
     0
100
AcDbLine
 10
258.98
 20
391.79
 30
0.0
 11
258.98
 21
384.79
 31
0.0
  0
ARC
  5
376
330
2
100
AcDbEntity
  8
画層1
 62
     0
100
AcDbCircle
 10
257.48
 20
384.79
 30
0.0
 40
1.5
100
AcDbArc
 50
270.0
 51
0.0
  0
DIMENSION
  5
377
330
2
100
AcDbEntity
  8
画層1
 62
     0
100
AcDbDimension
  2
*D44
 10
305.48
 20
417.79
 30
0.0
 11
303.5999999999999
 21
414.79
 31
0.0
 70
    32
 71
     5
 42
6.0
  3
STANDARD_WS
100
AcDbAlignedDimension
 13
265.0799999999999
 23
411.79
 33
0.0
 14
269.0799999999999
 24
417.79
 34
0.0
 50
90.0
100
AcDbRotatedDimension
1001
ACAD
1000
DSTYLE
1002
{
1070
   279
1070
     1
1070
    47
1040
0.6
1070
   144
1040
1.0
1070
   146
1040
0.5
1070
   173
1070
     0
1070
   284
1070
     8
1070
   340
1005
2A
1070
   341
1005
2B
1070
   342
1005
2B
1070
   343
1005
2B
1002
}
  0
ARC
  5
386
330
2
100
AcDbEntity
  8
画層1
 62
     0
100
AcDbCircle
 10
268.08
 20
412.79
 30
0.0
 40
5.0
100
AcDbArc
 50
0.0
 51
90.0
  0
CIRCLE
  5
387
330
2
100
AcDbEntity
  8
画層1
 62
     0
100
AcDbCircle
 10
270.5799999999999
 20
401.79
 30
0.0
 40
3.0
  0
LINE
  5
388
330
2
100
AcDbEntity
  8
画層1
 62
     0
100
AcDbLine
 10
272.7799999999999
 20
407.29
 30
0.0
 11
259.1
 21
407.29
 31
0.0
  0
LINE
  5
389
330
2
100
AcDbEntity
  8
画層1
 62
     0
100
AcDbLine
 10
263.5799999999999
 20
407.79
 30
0.0
 11
276.0799999999999
 21
407.79
 31
0.0
  0
LINE
  5
38A
330
2
100
AcDbEntity
  8
画層1
 62
     0
100
AcDbLine
 10
261.48
 20
396.29
 30
0.0
 11
276.18
 21
396.29
 31
0.0
  0
LINE
  5
38B
330
2
100
AcDbEntity
  8
画層1
  6
CENTER
 62
     0
100
AcDbLine
 10
261.98
 20
404.79
 30
0.0
 11
261.98
 21
421.79
 31
0.0
  0
ARC
  5
38C
330
2
100
AcDbEntity
  8
画層1
  6
DASHED2
 62
     0
100
AcDbCircle
 10
261.98
 20
403.79
 30
0.0
 40
6.499999999999992
100
AcDbArc
 50
142.02
 51
37.98
  0
LINE
  5
38D
330
2
100
AcDbEntity
  8
画層1
 62
     0
100
AcDbLine
 10
264.98
 20
411.79
 30
0.0
 11
264.98
 21
409.55
 31
0.0
  0
LINE
  5
38E
330
2
100
AcDbEntity
  8
画層1
 62
     0
100
AcDbLine
 10
250.08
 20
412.79
 30
0.0
 11
250.08
 21
407.79
 31
0.0
  0
LINE
  5
38F
330
2
100
AcDbEntity
  8
画層1
 62
     0
100
AcDbLine
 10
258.98
 20
411.79
 30
0.0
 11
258.98
 21
409.55
 31
0.0
  0
ARC
  5
390
330
2
100
AcDbEntity
  8
画層1
 62
     0
100
AcDbCircle
 10
263.2799999999999
 20
401.79
 30
0.0
 40
4.0
100
AcDbArc
 50
198.19
 51
330.0
  0
LINE
  5
391
330
2
100
AcDbEntity
  8
画層1
 62
     0
100
AcDbLine
 10
262.08
 20
405.6099999999999
 30
0.0
 11
262.08
 21
397.97
 31
0.0
  0
ARC
  5
392
330
2
100
AcDbEntity
  8
画層1
 62
     0
100
AcDbCircle
 10
261.48
 20
398.29
 30
0.0
 40
2.0
100
AcDbArc
 50
180.0
 51
270.0
  0
ARC
  5
393
330
2
100
AcDbEntity
  8
画層1
 62
     0
100
AcDbCircle
 10
257.48
 20
391.79
 30
0.0
 40
1.5
100
AcDbArc
 50
0.0
 51
90.0
  0
ARC
  5
394
330
2
100
AcDbEntity
  8
画層1
 62
     0
100
AcDbCircle
 10
263.2799999999999
 20
401.79
 30
0.0
 40
4.0
100
AcDbArc
 50
30.0
 51
161.81
  0
ARC
  5
395
330
2
100
AcDbEntity
  8
画層1
 62
     0
100
AcDbCircle
 10
261.98
 20
403.79
 30
0.0
 40
6.5
100
AcDbArc
 50
117.49
 51
142.02
  0
ARC
  5
396
330
2
100
AcDbEntity
  8
画層1
 62
     0
100
AcDbCircle
 10
263.5799999999999
 20
406.2899999999999
 30
0.0
 40
1.5
100
AcDbArc
 50
90.0
 51
138.1899999999999
  0
LINE
  5
397
330
2
100
AcDbEntity
  8
画層1
 62
     0
100
AcDbLine
 10
259.48
 20
406.2899999999999
 30
0.0
 11
259.48
 21
398.29
 31
0.0
  0
ARC
  5
398
330
2
100
AcDbEntity
  8
画層1
 62
     0
100
AcDbCircle
 10
257.98
 20
406.2899999999999
 30
0.0
 40
1.5
100
AcDbArc
 50
0.0
 51
90.0
  0
ARC
  5
399
330
2
100
AcDbEntity
  8
画層1
 62
     0
100
AcDbCircle
 10
261.98
 20
403.79
 30
0.0
 40
6.5
100
AcDbArc
 50
37.98
 51
62.51000000000001
  0
LINE
  5
39A
330
2
100
AcDbEntity
  8
画層1
 62
     0
100
AcDbLine
 10
272.38
 20
401.29
 30
0.0
 11
272.08
 21
401.29
 31
0.0
  0
LINE
  5
39B
330
2
100
AcDbEntity
  8
画層1
 62
     0
100
AcDbLine
 10
272.08
 20
402.2899999999999
 30
0.0
 11
272.38
 21
402.2899999999999
 31
0.0
  0
LINE
  5
39C
330
2
100
AcDbEntity
  8
画層1
 62
     0
100
AcDbLine
 10
272.38
 20
401.29
 30
0.0
 11
272.38
 21
402.2899999999999
 31
0.0
  0
LINE
  5
39D
330
2
100
AcDbEntity
  8
画層1
 62
     0
100
AcDbLine
 10
271.0799999999999
 20
400.29
 30
0.0
 11
271.0799999999999
 21
399.99
 31
0.0
  0
LINE
  5
39E
330
2
100
AcDbEntity
  8
画層1
 62
     0
100
AcDbLine
 10
271.0799999999999
 20
403.5899999999999
 30
0.0
 11
271.0799999999999
 21
403.29
 31
0.0
  0
LINE
  5
39F
330
2
100
AcDbEntity
  8
画層1
 62
     0
100
AcDbLine
 10
268.7799999999999
 20
401.29
 30
0.0
 11
268.7799999999999
 21
402.2899999999999
 31
0.0
  0
LINE
  5
3A0
330
2
100
AcDbEntity
  8
画層1
 62
     0
100
AcDbLine
 10
270.08
 20
399.99
 30
0.0
 11
270.08
 21
400.29
 31
0.0
  0
LINE
  5
3A1
330
2
100
AcDbEntity
  8
画層1
 62
     0
100
AcDbLine
 10
269.0799999999999
 20
401.29
 30
0.0
 11
268.7799999999999
 21
401.29
 31
0.0
  0
LINE
  5
3A2
330
2
100
AcDbEntity
  8
画層1
 62
     0
100
AcDbLine
 10
270.08
 20
403.29
 30
0.0
 11
270.08
 21
403.5899999999999
 31
0.0
  0
LINE
  5
3A3
330
2
100
AcDbEntity
  8
画層1
 62
     0
100
AcDbLine
 10
268.7799999999999
 20
402.2899999999999
 30
0.0
 11
269.0799999999999
 21
402.2899999999999
 31
0.0
  0
ARC
  5
3A4
330
2
100
AcDbEntity
  8
画層1
 62
     0
100
AcDbCircle
 10
269.0799999999999
 20
403.29
 30
0.0
 40
1.0
100
AcDbArc
 50
270.0
 51
0.0
  0
ARC
  5
3A5
330
2
100
AcDbEntity
  8
画層1
 62
     0
100
AcDbCircle
 10
269.0799999999999
 20
400.29
 30
0.0
 40
1.0
100
AcDbArc
 50
0.0
 51
90.0
  0
LINE
  5
3A6
330
2
100
AcDbEntity
  8
画層1
 62
     0
100
AcDbLine
 10
270.08
 20
399.99
 30
0.0
 11
271.0799999999999
 21
399.99
 31
0.0
  0
LINE
  5
3A7
330
2
100
AcDbEntity
  8
画層1
 62
     0
100
AcDbLine
 10
270.08
 20
403.5899999999999
 30
0.0
 11
271.0799999999999
 21
403.5899999999999
 31
0.0
  0
ARC
  5
3A8
330
2
100
AcDbEntity
  8
画層1
 62
     0
100
AcDbCircle
 10
272.08
 20
403.29
 30
0.0
 40
1.0
100
AcDbArc
 50
180.0
 51
270.0
  0
ARC
  5
3A9
330
2
100
AcDbEntity
  8
画層1
 62
     0
100
AcDbCircle
 10
272.08
 20
400.29
 30
0.0
 40
1.0
100
AcDbArc
 50
90.0
 51
180.0
  0
LINE
  5
3AA
330
2
100
AcDbEntity
  8
画層1
 62
     0
100
AcDbLine
 10
268.3399999999999
 20
399.79
 30
0.0
 11
266.74
 21
399.79
 31
0.0
  0
LINE
  5
3AB
330
2
100
AcDbEntity
  8
画層1
 62
     0
100
AcDbLine
 10
268.3399999999999
 20
403.79
 30
0.0
 11
266.74
 21
403.79
 31
0.0
  0
LINE
  5
3AC
330
2
100
AcDbEntity
  8
画層1
  6
CENTER
 62
     0
100
AcDbLine
 10
254.9799999999999
 20
411.79
 30
0.0
 11
268.98
 21
411.79
 31
0.0
  0
LINE
  5
3AD
330
2
100
AcDbEntity
  8
画層1
 62
     0
100
AcDbLine
 10
268.08
 20
417.79
 30
0.0
 11
255.08
 21
417.79
 31
0.0
  0
ARC
  5
3AE
330
2
100
AcDbEntity
  8
画層1
 62
     0
100
AcDbCircle
 10
255.08
 20
412.79
 30
0.0
 40
5.0
100
AcDbArc
 50
90.0
 51
180.0
  0
ARC
  5
3AF
330
2
100
AcDbEntity
  8
画層1
 62
     0
100
AcDbCircle
 10
261.98
 20
411.79
 30
0.0
 40
3.0
100
AcDbArc
 50
0.0
 51
180.0
  0
LINE
  5
3B0
330
2
100
AcDbEntity
  8
画層1
 62
     0
100
AcDbLine
 10
273.0799999999999
 20
407.79
 30
0.0
 11
273.0799999999999
 21
412.79
 31
0.0
  0
LINE
  5
3B1
330
2
100
AcDbEntity
  8
画層1
 62
     0
100
AcDbLine
 10
276.0799999999999
 20
407.79
 30
0.0
 11
276.0799999999999
 21
396.29
 31
0.0
  0
LINE
  5
3B2
330
2
100
AcDbEntity
  8
画層1
 62
     0
100
AcDbLine
 10
274.7799999999999
 20
396.29
 30
0.0
 11
274.7799999999999
 21
405.29
 31
0.0
  0
ARC
  5
3B3
330
2
100
AcDbEntity
  8
画層1
 62
     0
100
AcDbCircle
 10
272.7799999999999
 20
405.29
 30
0.0
 40
2.0
100
AcDbArc
 50
0.0
 51
90.0
  0
LINE
  5
3B4
330
2
100
AcDbEntity
  8
画層1
 62
     0
100
AcDbLine
 10
452.68
 20
396.29
 30
0.0
 11
452.68
 21
219.2899999999999
 31
0.0
  0
LINE
  5
3B5
330
2
100
AcDbEntity
  8
画層1
 62
     0
100
AcDbLine
 10
412.48
 20
407.79
 30
0.0
 11
412.48
 21
207.79
 31
0.0
  0
LINE
  5
3B6
330
2
100
AcDbEntity
  8
画層1
 62
     0
100
AcDbLine
 10
456.6799999999999
 20
219.79
 30
0.0
 11
456.6799999999999
 21
395.79
 31
0.0
  0
LINE
  5
3B7
330
2
100
AcDbEntity
  8
画層1
 62
     0
100
AcDbLine
 10
634.6799999999999
 20
417.79
 30
0.0
 11
634.6799999999999
 21
197.7899999999999
 31
0.0
  0
LINE
  5
3B8
330
2
100
AcDbEntity
  8
画層1
  6
DASHED2
 62
     0
100
AcDbLine
 10
413.8799999999999
 20
368.67
 30
0.0
 11
413.8799999999999
 21
279.91
 31
0.0
  0
LINE
  5
3B9
330
2
100
AcDbEntity
  8
画層1
  6
DASHED2
 62
     0
100
AcDbLine
 10
439.88
 20
370.79
 30
0.0
 11
439.88
 21
277.79
 31
0.0
  0
LINE
  5
3BA
330
2
100
AcDbEntity
  8
画層1
  6
DASHED2
 62
     0
100
AcDbLine
 10
429.48
 20
295.41
 30
0.0
 11
429.48
 21
291.41
 31
0.0
  0
LINE
  5
3BB
330
2
100
AcDbEntity
  8
画層1
  6
DASHED2
 62
     0
100
AcDbLine
 10
432.48
 20
297.41
 30
0.0
 11
432.48
 21
289.41
 31
0.0
  0
LINE
  5
3BC
330
2
100
AcDbEntity
  8
画層1
  6
DASHED2
 62
     0
100
AcDbLine
 10
433.68
 20
297.41
 30
0.0
 11
433.68
 21
289.41
 31
0.0
  0
LINE
  5
3BD
330
2
100
AcDbEntity
  8
画層1
  6
DASHED2
 62
     0
100
AcDbLine
 10
431.6799999999999
 20
296.41
 30
0.0
 11
431.6799999999999
 21
290.41
 31
0.0
  0
DIMENSION
  5
3BE
330
2
100
AcDbEntity
  8
画層1
 62
     0
100
AcDbDimension
  2
*D47
 10
634.6799999999999
 20
148.83
 30
0.0
 11
543.6799999999999
 21
150.9193908629441
 31
0.0
 70
    32
 71
     5
 42
181.9999999999999
  3
STANDARD_WS
100
AcDbAlignedDimension
 13
452.68
 23
191.7899999999999
 33
0.0
 14
634.6799999999999
 24
197.7899999999999
 34
0.0
100
AcDbRotatedDimension
1001
ACAD
1000
DSTYLE
1002
{
1070
     3
1000
(<>)
1070
    47
1040
0.6
1070
   144
1040
1.0
1070
   146
1040
0.5
1070
   173
1070
     0
1070
   284
1070
     8
1070
   340
1005
2A
1070
   341
1005
2B
1070
   342
1005
2B
1070
   343
1005
2B
1002
}
  0
DIMENSION
  5
3CB
330
2
100
AcDbEntity
  8
画層1
 62
     0
100
AcDbDimension
  2
*D46
 10
634.6799999999999
 20
162.83
 30
0.0
 11
557.6799999999999
 21
164.9193908629441
 31
0.0
 70
    32
 71
     5
 42
153.9999999999999
  3
STANDARD_WS
100
AcDbAlignedDimension
 13
480.6799999999999
 23
233.7899999999999
 33
0.0
 14
634.6799999999999
 24
197.7899999999999
 34
0.0
100
AcDbRotatedDimension
1001
ACAD
1000
DSTYLE
1002
{
1070
     3
1000
(<>)
1070
    47
1040
0.6
1070
   144
1040
1.0
1070
   146
1040
0.5
1070
   173
1070
     0
1070
   284
1070
     8
1070
   340
1005
2A
1070
   341
1005
2B
1070
   342
1005
2B
1070
   343
1005
2B
1002
}
  0
DIMENSION
  5
3D8
330
2
100
AcDbEntity
  8
画層1
 62
     0
100
AcDbDimension
  2
*D45
 10
486.18
 20
176.83
 30
0.0
 11
560.4299999999999
 21
178.9193908629441
 31
0.0
 70
    32
 71
     5
 42
148.4999999999999
  3
STANDARD_WS
100
AcDbAlignedDimension
 13
634.6799999999999
 23
197.7899999999999
 33
0.0
 14
486.18
 24
207.79
 34
0.0
100
AcDbRotatedDimension
1001
ACAD
1000
DSTYLE
1002
{
1070
     3
1000
(<>)
1070
    47
1040
0.6
1070
   144
1040
1.0
1070
   146
1040
0.5
1070
   173
1070
     0
1070
   284
1070
     8
1070
   340
1005
2A
1070
   341
1005
2B
1070
   342
1005
2B
1070
   343
1005
2B
1002
}
  0
LINE
  5
3E5
330
2
100
AcDbEntity
  8
画層1
  6
CENTER
 62
     0
100
AcDbLine
 10
629.08
 20
203.79
 30
0.0
 11
638.68
 21
203.79
 31
0.0
  0
LINE
  5
3E6
330
2
100
AcDbEntity
  8
画層1
 62
     0
100
AcDbLine
 10
634.6799999999999
 20
197.7899999999999
 30
0.0
 11
633.08
 21
197.7899999999999
 31
0.0
  0
LINE
  5
3E7
330
2
100
AcDbEntity
  8
画層1
 62
     0
100
AcDbLine
 10
634.6799999999999
 20
207.79
 30
0.0
 11
452.68
 21
207.79
 31
0.0
  0
DIMENSION
  5
3E8
330
2
100
AcDbEntity
  8
画層1
 62
     0
100
AcDbDimension
  2
*D49
 10
488.18
 20
190.83
 30
0.0
 11
492.4572081218274
 21
192.71
 31
0.0
 70
    32
 71
     5
 42
2.0
  3
STANDARD_WS
100
AcDbAlignedDimension
 13
486.18
 23
207.79
 33
0.0
 14
488.18
 24
207.79
 34
0.0
100
AcDbRotatedDimension
1001
ACAD
1000
DSTYLE
1002
{
1070
    47
1040
0.6
1070
   144
1040
1.0
1070
   146
1040
0.5
1070
   173
1070
     0
1070
   284
1070
     8
1070
   340
1005
2A
1070
   341
1005
2B
1070
   342
1005
2B
1070
   343
1005
2B
1002
}
  0
DIMENSION
  5
3F7
330
2
100
AcDbEntity
  8
画層1
 62
     0
100
AcDbDimension
  2
*D48
 10
396.8799999999999
 20
191.79
 30
0.0
 11
394.9999999999999
 21
199.79
 31
0.0
 70
    32
 71
     5
 42
15.99999999999997
  3
STANDARD_WS
100
AcDbAlignedDimension
 13
412.48
 23
207.79
 33
0.0
 14
452.68
 24
191.7899999999999
 34
0.0
 50
90.0
100
AcDbRotatedDimension
1001
ACAD
1000
DSTYLE
1002
{
1070
    47
1040
0.6
1070
   144
1040
1.0
1070
   146
1040
0.5
1070
   173
1070
     0
1070
   284
1070
     8
1070
   340
1005
2A
1070
   341
1005
2B
1070
   342
1005
2B
1070
   343
1005
2B
1002
}
  0
LINE
  5
404
330
2
100
AcDbEntity
  8
画層1
  6
DIVIDE
 62
     0
100
AcDbLine
 10
454.68
 20
191.7899999999999
 30
0.0
 11
454.68
 21
223.7899999999999
 31
0.0
  0
LINE
  5
405
330
2
100
AcDbEntity
  8
画層1
  6
DIVIDE
 62
     0
100
AcDbLine
 10
452.68
 20
207.79
 30
0.0
 11
452.68
 21
191.7899999999999
 31
0.0
  0
MTEXT
  5
406
102
{ACAD_REACTORS
330
407
102
}
330
2
100
AcDbEntity
  8
画層1
 62
     0
100
AcDbMText
 10
438.22
 20
177.65
 30
0.0
 40
5.0
 41
0.0
 71
     9
 72
     1
  1
端子カバー
  7
STYLE1
 73
     1
 44
1.0
  0
LEADER
  5
407
330
2
100
AcDbEntity
  8
画層1
 62
     0
100
AcDbLeader
  3
STANDARD_WS
 73
     0
 75
     1
 40
5.809999999999999
 41
31.75
 76
     3
 10
453.6399999999999
 20
196.33
 30
0.0
 10
439.35
 20
177.4399999999999
 30
0.0
 10
437.85
 20
177.4399999999999
 30
0.0
340
406
213
-1.0
223
0.4207616165015224
233
0.0
1001
ACAD
1000
DSTYLE
1002
{
1070
   341
1005
9C
1070
   147
1040
0.63
1070
    77
1070
     2
1070
    47
1040
0.6
1070
   144
1040
2.0
1070
   146
1040
0.5
1070
   284
1070
     8
1070
   340
1005
2A
1002
}
  0
LINE
  5
408
330
2
100
AcDbEntity
  8
画層1
  6
DIVIDE
 62
     0
100
AcDbLine
 10
452.68
 20
191.7899999999999
 30
0.0
 11
454.68
 21
191.7899999999999
 31
0.0
  0
LINE
  5
409
330
2
100
AcDbEntity
  8
画層1
 62
     0
100
AcDbLine
 10
452.68
 20
208.2899999999999
 30
0.0
 11
413.68
 21
208.2899999999999
 31
0.0
  0
LINE
  5
40A
330
2
100
AcDbEntity
  8
画層1
 62
     0
100
AcDbLine
 10
452.68
 20
208.2899999999999
 30
0.0
 11
413.68
 21
208.2899999999999
 31
0.0
  0
LINE
  5
40B
330
2
100
AcDbEntity
  8
画層1
 62
     0
100
AcDbLine
 10
452.68
 20
219.2899999999999
 30
0.0
 11
412.48
 21
219.2899999999999
 31
0.0
  0
LINE
  5
40C
330
2
100
AcDbEntity
  8
画層1
  6
DASHED2
 62
     0
100
AcDbLine
 10
439.88
 20
277.79
 30
0.0
 11
412.48
 21
277.79
 31
0.0
  0
LINE
  5
40D
330
2
100
AcDbEntity
  8
画層1
 62
     0
100
AcDbLine
 10
411.68
 20
216.3899999999999
 30
0.0
 11
411.68
 21
211.1899999999999
 31
0.0
  0
LINE
  5
40E
330
2
100
AcDbEntity
  8
画層1
 62
     0
100
AcDbLine
 10
409.6799999999999
 20
215.3899999999999
 30
0.0
 11
409.6799999999999
 21
212.19
 31
0.0
  0
LINE
  5
40F
330
2
100
AcDbEntity
  8
画層1
 62
     0
100
AcDbLine
 10
413.68
 20
207.79
 30
0.0
 11
413.68
 21
219.2899999999999
 31
0.0
  0
LINE
  5
410
330
2
100
AcDbEntity
  8
画層1
 62
     0
100
AcDbLine
 10
411.68
 20
211.1899999999999
 30
0.0
 11
412.08
 21
209.99
 31
0.0
  0
ARC
  5
411
330
2
100
AcDbEntity
  8
画層1
 62
     0
100
AcDbCircle
 10
410.6799999999999
 20
212.19
 30
0.0
 40
1.0
100
AcDbArc
 50
180.0
 51
270.0
  0
LINE
  5
412
330
2
100
AcDbEntity
  8
画層1
 62
     0
100
AcDbLine
 10
410.6799999999999
 20
211.1899999999999
 30
0.0
 11
411.68
 21
211.1899999999999
 31
0.0
  0
LINE
  5
413
330
2
100
AcDbEntity
  8
画層1
 62
     0
100
AcDbLine
 10
412.08
 20
209.99
 30
0.0
 11
412.48
 21
209.99
 31
0.0
  0
LINE
  5
414
330
2
100
AcDbEntity
  8
画層1
 62
     0
100
AcDbLine
 10
412.48
 20
207.79
 30
0.0
 11
413.68
 21
207.79
 31
0.0
  0
LINE
  5
415
330
2
100
AcDbEntity
  8
画層1
 62
     0
100
AcDbLine
 10
412.08
 20
217.5899999999999
 30
0.0
 11
411.68
 21
216.3899999999999
 31
0.0
  0
LINE
  5
416
330
2
100
AcDbEntity
  8
画層1
 62
     0
100
AcDbLine
 10
410.28
 20
214.19
 30
0.0
 11
409.6799999999999
 21
214.19
 31
0.0
  0
LINE
  5
417
330
2
100
AcDbEntity
  8
画層1
 62
     0
100
AcDbLine
 10
409.6799999999999
 20
213.39
 30
0.0
 11
410.28
 21
213.39
 31
0.0
  0
ARC
  5
418
330
2
100
AcDbEntity
  8
画層1
 62
     0
100
AcDbCircle
 10
410.6799999999999
 20
215.3899999999999
 30
0.0
 40
1.0
100
AcDbArc
 50
90.0
 51
180.0
  0
LINE
  5
419
330
2
100
AcDbEntity
  8
画層1
 62
     0
100
AcDbLine
 10
410.28
 20
213.39
 30
0.0
 11
410.28
 21
214.19
 31
0.0
  0
LINE
  5
41A
330
2
100
AcDbEntity
  8
画層1
 62
     0
100
AcDbLine
 10
411.68
 20
216.3899999999999
 30
0.0
 11
410.6799999999999
 21
216.3899999999999
 31
0.0
  0
LINE
  5
41B
330
2
100
AcDbEntity
  8
画層1
 62
     0
100
AcDbLine
 10
412.48
 20
217.5899999999999
 30
0.0
 11
412.08
 21
217.5899999999999
 31
0.0
  0
LINE
  5
41C
330
2
100
AcDbEntity
  8
画層1
  6
DASHED2
 62
     0
100
AcDbLine
 10
412.48
 20
279.91
 30
0.0
 11
433.68
 21
279.91
 31
0.0
  0
LINE
  5
41D
330
2
100
AcDbEntity
  8
画層1
  6
DASHED2
 62
     0
100
AcDbLine
 10
413.8799999999999
 20
283.17
 30
0.0
 11
422.6799999999999
 21
283.17
 31
0.0
  0
LINE
  5
41E
330
2
100
AcDbEntity
  8
画層1
  6
DASHED2
 62
     0
100
AcDbLine
 10
422.6799999999999
 20
284.67
 30
0.0
 11
413.8799999999999
 21
284.67
 31
0.0
  0
LINE
  5
41F
330
2
100
AcDbEntity
  8
画層1
  6
DASHED2
 62
     0
100
AcDbLine
 10
413.8799999999999
 20
292.67
 30
0.0
 11
422.6799999999999
 21
292.67
 31
0.0
  0
LINE
  5
420
330
2
100
AcDbEntity
  8
画層1
  6
DASHED2
 62
     0
100
AcDbLine
 10
421.48
 20
285.67
 30
0.0
 11
419.4799999999999
 21
285.67
 31
0.0
  0
LINE
  5
421
330
2
100
AcDbEntity
  8
画層1
  6
DASHED2
 62
     0
100
AcDbLine
 10
421.48
 20
291.67
 30
0.0
 11
419.4799999999999
 21
291.67
 31
0.0
  0
LINE
  5
422
330
2
100
AcDbEntity
  8
画層1
 62
     0
100
AcDbLine
 10
411.38
 20
279.91
 30
0.0
 11
412.48
 21
279.91
 31
0.0
  0
LINE
  5
423
330
2
100
AcDbEntity
  8
画層1
 62
     0
100
AcDbLine
 10
411.38
 20
277.79
 30
0.0
 11
412.48
 21
277.79
 31
0.0
  0
LINE
  5
424
330
2
100
AcDbEntity
  8
画層1
 62
     0
100
AcDbLine
 10
411.38
 20
277.79
 30
0.0
 11
411.38
 21
279.91
 31
0.0
  0
ARC
  5
425
330
2
100
AcDbEntity
  8
画層1
  6
DASHED2
 62
     0
100
AcDbCircle
 10
419.4799999999999
 20
286.67
 30
0.0
 40
1.0
100
AcDbArc
 50
180.0
 51
270.0
  0
ARC
  5
426
330
2
100
AcDbEntity
  8
画層1
  6
DASHED2
 62
     0
100
AcDbCircle
 10
419.4799999999999
 20
290.67
 30
0.0
 40
1.0
100
AcDbArc
 50
90.0
 51
180.0
  0
LINE
  5
427
330
2
100
AcDbEntity
  8
画層1
  6
DASHED2
 62
     0
100
AcDbLine
 10
418.48
 20
290.67
 30
0.0
 11
418.48
 21
286.67
 31
0.0
  0
LINE
  5
428
330
2
100
AcDbEntity
  8
画層1
  6
DASHED2
 62
     0
100
AcDbLine
 10
431.6799999999999
 20
286.91
 30
0.0
 11
431.6799999999999
 21
280.91
 31
0.0
  0
LINE
  5
429
330
2
100
AcDbEntity
  8
画層1
  6
DASHED2
 62
     0
100
AcDbLine
 10
433.68
 20
287.91
 30
0.0
 11
433.68
 21
279.91
 31
0.0
  0
LINE
  5
42A
330
2
100
AcDbEntity
  8
画層1
  6
DASHED2
 62
     0
100
AcDbLine
 10
432.48
 20
287.91
 30
0.0
 11
432.48
 21
279.91
 31
0.0
  0
LINE
  5
42B
330
2
100
AcDbEntity
  8
画層1
  6
DASHED2
 62
     0
100
AcDbLine
 10
429.48
 20
285.91
 30
0.0
 11
429.48
 21
281.91
 31
0.0
  0
LINE
  5
42C
330
2
100
AcDbEntity
  8
画層1
  6
DASHED2
 62
     0
100
AcDbLine
 10
422.6799999999999
 20
283.17
 30
0.0
 11
422.6799999999999
 21
279.91
 31
0.0
  0
LINE
  5
42D
330
2
100
AcDbEntity
  8
画層1
  6
DASHED2
 62
     0
100
AcDbLine
 10
432.48
 20
280.91
 30
0.0
 11
430.48
 21
280.91
 31
0.0
  0
ARC
  5
42E
330
2
100
AcDbEntity
  8
画層1
  6
DASHED2
 62
     0
100
AcDbCircle
 10
430.48
 20
281.91
 30
0.0
 40
1.0
100
AcDbArc
 50
180.0
 51
270.0
  0
LINE
  5
42F
330
2
100
AcDbEntity
  8
画層1
  6
DASHED2
 62
     0
100
AcDbLine
 10
426.8799999999999
 20
287.91
 30
0.0
 11
433.68
 21
287.91
 31
0.0
  0
LINE
  5
430
330
2
100
AcDbEntity
  8
画層1
  6
DASHED2
 62
     0
100
AcDbLine
 10
433.68
 20
289.41
 30
0.0
 11
426.8799999999999
 21
289.41
 31
0.0
  0
LINE
  5
431
330
2
100
AcDbEntity
  8
画層1
  6
DASHED2
 62
     0
100
AcDbLine
 10
426.8799999999999
 20
289.41
 30
0.0
 11
426.8799999999999
 21
287.91
 31
0.0
  0
LINE
  5
432
330
2
100
AcDbEntity
  8
画層1
  6
DASHED2
 62
     0
100
AcDbLine
 10
421.48
 20
292.67
 30
0.0
 11
421.48
 21
284.67
 31
0.0
  0
LINE
  5
433
330
2
100
AcDbEntity
  8
画層1
  6
DASHED2
 62
     0
100
AcDbLine
 10
422.6799999999999
 20
292.67
 30
0.0
 11
422.6799999999999
 21
284.67
 31
0.0
  0
LINE
  5
434
330
2
100
AcDbEntity
  8
画層1
  6
DASHED2
 62
     0
100
AcDbLine
 10
420.68
 20
291.67
 30
0.0
 11
420.68
 21
285.67
 31
0.0
  0
ARC
  5
435
330
2
100
AcDbEntity
  8
画層1
  6
DASHED2
 62
     0
100
AcDbCircle
 10
430.48
 20
291.41
 30
0.0
 40
1.0
100
AcDbArc
 50
180.0
 51
270.0
  0
LINE
  5
436
330
2
100
AcDbEntity
  8
画層1
  6
DASHED2
 62
     0
100
AcDbLine
 10
432.48
 20
290.41
 30
0.0
 11
430.48
 21
290.41
 31
0.0
  0
LINE
  5
437
330
2
100
AcDbEntity
  8
画層1
  6
DASHED2
 62
     0
100
AcDbLine
 10
432.48
 20
286.91
 30
0.0
 11
430.48
 21
286.91
 31
0.0
  0
ARC
  5
438
330
2
100
AcDbEntity
  8
画層1
  6
DASHED2
 62
     0
100
AcDbCircle
 10
430.48
 20
285.91
 30
0.0
 40
1.0
100
AcDbArc
 50
90.0
 51
180.0
  0
ARC
  5
439
330
2
100
AcDbEntity
  8
画層1
  6
DASHED2
 62
     0
100
AcDbCircle
 10
491.18
 20
248.7899999999999
 30
0.0
 40
12.48853936998062
100
AcDbArc
 50
163.7199999999999
 51
196.28
  0
LINE
  5
43A
330
2
100
AcDbEntity
  8
画層1
  6
DASHED2
 62
     0
100
AcDbLine
 10
480.6799999999999
 20
233.7899999999999
 30
0.0
 11
480.6799999999999
 21
253.79
 31
0.0
  0
LINE
  5
43B
330
2
100
AcDbEntity
  8
画層1
  6
DASHED2
 62
     0
100
AcDbLine
 10
474.18
 20
255.79
 30
0.0
 11
474.18
 21
231.7899999999999
 31
0.0
  0
LINE
  5
43C
330
2
100
AcDbEntity
  8
画層1
  6
DASHED2
 62
     0
100
AcDbLine
 10
481.1799999999999
 20
233.7899999999999
 30
0.0
 11
481.1799999999999
 21
253.79
 31
0.0
  0
LINE
  5
43D
330
2
100
AcDbEntity
  8
画層1
  6
DASHED2
 62
     0
100
AcDbLine
 10
486.18
 20
268.79
 30
0.0
 11
486.18
 21
207.79
 31
0.0
  0
LINE
  5
43E
330
2
100
AcDbEntity
  8
画層1
  6
DASHED2
 62
     0
100
AcDbLine
 10
488.18
 20
207.79
 30
0.0
 11
488.18
 21
268.79
 31
0.0
  0
LINE
  5
43F
330
2
100
AcDbEntity
  8
画層1
  6
DASHED2
 62
     0
100
AcDbLine
 10
498.1799999999999
 20
258.79
 30
0.0
 11
498.1799999999999
 21
230.79
 31
0.0
  0
LINE
  5
440
330
2
100
AcDbEntity
  8
画層1
  6
DIVIDE
 62
     0
100
AcDbLine
 10
454.68
 20
223.7899999999999
 30
0.0
 11
452.68
 21
223.7899999999999
 31
0.0
  0
LINE
  5
441
330
2
100
AcDbEntity
  8
画層1
 62
     0
100
AcDbLine
 10
452.68
 20
219.79
 30
0.0
 11
456.6799999999999
 21
219.79
 31
0.0
  0
ARC
  5
442
330
2
100
AcDbEntity
  8
画層1
 62
     0
100
AcDbCircle
 10
453.1
 20
213.79
 30
0.0
 40
4.111538461538548
100
AcDbArc
 50
133.1399999999999
 51
226.86
  0
LINE
  5
443
330
2
100
AcDbEntity
  8
画層1
 62
     0
100
AcDbLine
 10
450.2799999999999
 20
210.7899999999999
 30
0.0
 11
450.2799999999999
 21
216.7899999999999
 31
0.0
  0
LINE
  5
444
330
2
100
AcDbEntity
  8
画層1
 62
     0
100
AcDbLine
 10
451.48
 20
208.2899999999999
 30
0.0
 11
451.48
 21
219.2899999999999
 31
0.0
  0
LINE
  5
445
330
2
100
AcDbEntity
  8
画層1
 62
     0
100
AcDbLine
 10
452.68
 20
207.79
 30
0.0
 11
452.68
 21
219.79
 31
0.0
  0
LINE
  5
446
330
2
100
AcDbEntity
  8
画層1
 62
     0
100
AcDbLine
 10
450.2799999999999
 20
210.7899999999999
 30
0.0
 11
451.48
 21
210.7899999999999
 31
0.0
  0
LINE
  5
447
330
2
100
AcDbEntity
  8
画層1
 62
     0
100
AcDbLine
 10
449.48
 20
208.2899999999999
 30
0.0
 11
449.48
 21
211.83
 31
0.0
  0
LINE
  5
448
330
2
100
AcDbEntity
  8
画層1
 62
     0
100
AcDbLine
 10
450.2799999999999
 20
216.7899999999999
 30
0.0
 11
451.48
 21
216.7899999999999
 31
0.0
  0
LINE
  5
449
330
2
100
AcDbEntity
  8
画層1
 62
     0
100
AcDbLine
 10
449.48
 20
215.75
 30
0.0
 11
449.48
 21
219.2899999999999
 31
0.0
  0
LINE
  5
44A
330
2
100
AcDbEntity
  8
画層1
  6
CENTER
 62
     0
100
AcDbLine
 10
482.18
 20
216.7899999999999
 30
0.0
 11
492.18
 21
216.7899999999999
 31
0.0
  0
LINE
  5
44B
330
2
100
AcDbEntity
  8
画層1
  6
DASHED2
 62
     0
100
AcDbLine
 10
474.18
 20
231.7899999999999
 30
0.0
 11
486.18
 21
231.7899999999999
 31
0.0
  0
LINE
  5
44C
330
2
100
AcDbEntity
  8
画層1
  6
DASHED2
 62
     0
100
AcDbLine
 10
486.18
 20
233.7899999999999
 30
0.0
 11
480.6799999999999
 21
233.7899999999999
 31
0.0
  0
ARC
  5
44D
330
2
100
AcDbEntity
  8
画層1
  6
DASHED2
 62
     0
100
AcDbCircle
 10
491.18
 20
238.79
 30
0.0
 40
12.48853936998062
100
AcDbArc
 50
163.7199999999999
 51
196.28
  0
LINE
  5
44E
330
2
100
AcDbEntity
  8
画層1
  6
DASHED2
 62
     0
100
AcDbLine
 10
480.6799999999999
 20
235.2899999999999
 30
0.0
 11
479.18
 21
235.2899999999999
 31
0.0
  0
LINE
  5
44F
330
2
100
AcDbEntity
  8
画層1
  6
DASHED2
 62
     0
100
AcDbLine
 10
480.6799999999999
 20
245.29
 30
0.0
 11
479.18
 21
245.29
 31
0.0
  0
LINE
  5
450
330
2
100
AcDbEntity
  8
画層1
  6
DASHED2
 62
     0
100
AcDbLine
 10
480.6799999999999
 20
242.2899999999999
 30
0.0
 11
479.18
 21
242.2899999999999
 31
0.0
  0
ARC
  5
451
330
2
100
AcDbEntity
  8
画層1
 62
     0
100
AcDbCircle
 10
491.68
 20
235.2899999999999
 30
0.0
 40
1.0
100
AcDbArc
 50
0.0
 51
90.0
  0
ARC
  5
452
330
2
100
AcDbEntity
  8
画層1
 62
     0
100
AcDbCircle
 10
494.68
 20
235.2899999999999
 30
0.0
 40
1.0
100
AcDbArc
 50
90.0
 51
180.0
  0
CIRCLE
  5
453
330
2
100
AcDbEntity
  8
画層1
 62
     0
100
AcDbCircle
 10
493.1799999999999
 20
236.79
 30
0.0
 40
3.0
  0
LINE
  5
454
330
2
100
AcDbEntity
  8
画層1
  6
DASHED2
 62
     0
100
AcDbLine
 10
498.1799999999999
 20
230.79
 30
0.0
 11
488.18
 21
230.79
 31
0.0
  0
LINE
  5
455
330
2
100
AcDbEntity
  8
画層1
 62
     0
100
AcDbLine
 10
493.6799999999999
 20
235.2899999999999
 30
0.0
 11
493.6799999999999
 21
234.99
 31
0.0
  0
LINE
  5
456
330
2
100
AcDbEntity
  8
画層1
 62
     0
100
AcDbLine
 10
492.68
 20
234.99
 30
0.0
 11
492.68
 21
235.2899999999999
 31
0.0
  0
LINE
  5
457
330
2
100
AcDbEntity
  8
画層1
 62
     0
100
AcDbLine
 10
492.68
 20
234.99
 30
0.0
 11
493.6799999999999
 21
234.99
 31
0.0
  0
ARC
  5
458
330
2
100
AcDbEntity
  8
画層1
 62
     0
100
AcDbCircle
 10
494.68
 20
238.2899999999999
 30
0.0
 40
1.0
100
AcDbArc
 50
180.0
 51
270.0
  0
LINE
  5
459
330
2
100
AcDbEntity
  8
画層1
 62
     0
100
AcDbLine
 10
493.6799999999999
 20
238.5899999999999
 30
0.0
 11
493.6799999999999
 21
238.2899999999999
 31
0.0
  0
LINE
  5
45A
330
2
100
AcDbEntity
  8
画層1
 62
     0
100
AcDbLine
 10
492.68
 20
238.2899999999999
 30
0.0
 11
492.68
 21
238.5899999999999
 31
0.0
  0
LINE
  5
45B
330
2
100
AcDbEntity
  8
画層1
 62
     0
100
AcDbLine
 10
491.38
 20
236.2899999999999
 30
0.0
 11
491.38
 21
237.29
 31
0.0
  0
LINE
  5
45C
330
2
100
AcDbEntity
  8
画層1
 62
     0
100
AcDbLine
 10
491.68
 20
236.2899999999999
 30
0.0
 11
491.38
 21
236.2899999999999
 31
0.0
  0
LINE
  5
45D
330
2
100
AcDbEntity
  8
画層1
 62
     0
100
AcDbLine
 10
491.38
 20
237.29
 30
0.0
 11
491.68
 21
237.29
 31
0.0
  0
ARC
  5
45E
330
2
100
AcDbEntity
  8
画層1
 62
     0
100
AcDbCircle
 10
491.68
 20
238.2899999999999
 30
0.0
 40
1.0
100
AcDbArc
 50
270.0
 51
0.0
  0
LINE
  5
45F
330
2
100
AcDbEntity
  8
画層1
 62
     0
100
AcDbLine
 10
492.68
 20
238.5899999999999
 30
0.0
 11
493.6799999999999
 21
238.5899999999999
 31
0.0
  0
LINE
  5
460
330
2
100
AcDbEntity
  8
画層1
 62
     0
100
AcDbLine
 10
494.98
 20
236.2899999999999
 30
0.0
 11
494.98
 21
237.29
 31
0.0
  0
LINE
  5
461
330
2
100
AcDbEntity
  8
画層1
 62
     0
100
AcDbLine
 10
494.68
 20
237.29
 30
0.0
 11
494.98
 21
237.29
 31
0.0
  0
LINE
  5
462
330
2
100
AcDbEntity
  8
画層1
 62
     0
100
AcDbLine
 10
494.98
 20
236.2899999999999
 30
0.0
 11
494.68
 21
236.2899999999999
 31
0.0
  0
LINE
  5
463
330
2
100
AcDbEntity
  8
画層1
  6
DASHED2
 62
     0
100
AcDbLine
 10
486.18
 20
255.79
 30
0.0
 11
474.18
 21
255.79
 31
0.0
  0
LINE
  5
464
330
2
100
AcDbEntity
  8
画層1
  6
DASHED2
 62
     0
100
AcDbLine
 10
480.6799999999999
 20
253.79
 30
0.0
 11
486.18
 21
253.79
 31
0.0
  0
LINE
  5
465
330
2
100
AcDbEntity
  8
画層1
  6
DASHED2
 62
     0
100
AcDbLine
 10
480.6799999999999
 20
252.2899999999999
 30
0.0
 11
479.18
 21
252.2899999999999
 31
0.0
  0
ARC
  5
466
330
2
100
AcDbEntity
  8
画層1
 62
     0
100
AcDbCircle
 10
494.68
 20
254.2899999999999
 30
0.0
 40
1.0
100
AcDbArc
 50
180.0
 51
270.0
  0
ARC
  5
467
330
2
100
AcDbEntity
  8
画層1
 62
     0
100
AcDbCircle
 10
494.68
 20
251.29
 30
0.0
 40
1.0
100
AcDbArc
 50
90.0
 51
180.0
  0
CIRCLE
  5
468
330
2
100
AcDbEntity
  8
画層1
 62
     0
100
AcDbCircle
 10
493.1799999999999
 20
252.7899999999999
 30
0.0
 40
3.0
  0
LINE
  5
469
330
2
100
AcDbEntity
  8
画層1
  6
DASHED2
 62
     0
100
AcDbLine
 10
488.18
 20
258.79
 30
0.0
 11
498.1799999999999
 21
258.79
 31
0.0
  0
LINE
  5
46A
330
2
100
AcDbEntity
  8
画層1
 62
     0
100
AcDbLine
 10
493.6799999999999
 20
254.59
 30
0.0
 11
493.6799999999999
 21
254.2899999999999
 31
0.0
  0
LINE
  5
46B
330
2
100
AcDbEntity
  8
画層1
 62
     0
100
AcDbLine
 10
493.6799999999999
 20
251.29
 30
0.0
 11
493.6799999999999
 21
250.99
 31
0.0
  0
LINE
  5
46C
330
2
100
AcDbEntity
  8
画層1
 62
     0
100
AcDbLine
 10
491.38
 20
253.29
 30
0.0
 11
491.68
 21
253.29
 31
0.0
  0
LINE
  5
46D
330
2
100
AcDbEntity
  8
画層1
 62
     0
100
AcDbLine
 10
491.68
 20
252.2899999999999
 30
0.0
 11
491.38
 21
252.2899999999999
 31
0.0
  0
LINE
  5
46E
330
2
100
AcDbEntity
  8
画層1
 62
     0
100
AcDbLine
 10
491.38
 20
252.2899999999999
 30
0.0
 11
491.38
 21
253.29
 31
0.0
  0
ARC
  5
46F
330
2
100
AcDbEntity
  8
画層1
 62
     0
100
AcDbCircle
 10
491.68
 20
254.2899999999999
 30
0.0
 40
1.0
100
AcDbArc
 50
270.0
 51
0.0
  0
LINE
  5
470
330
2
100
AcDbEntity
  8
画層1
 62
     0
100
AcDbLine
 10
492.68
 20
254.2899999999999
 30
0.0
 11
492.68
 21
254.59
 31
0.0
  0
LINE
  5
471
330
2
100
AcDbEntity
  8
画層1
 62
     0
100
AcDbLine
 10
492.68
 20
250.99
 30
0.0
 11
492.68
 21
251.29
 31
0.0
  0
ARC
  5
472
330
2
100
AcDbEntity
  8
画層1
 62
     0
100
AcDbCircle
 10
491.68
 20
251.29
 30
0.0
 40
1.0
100
AcDbArc
 50
0.0
 51
90.0
  0
LINE
  5
473
330
2
100
AcDbEntity
  8
画層1
 62
     0
100
AcDbLine
 10
492.68
 20
250.99
 30
0.0
 11
493.6799999999999
 21
250.99
 31
0.0
  0
LINE
  5
474
330
2
100
AcDbEntity
  8
画層1
 62
     0
100
AcDbLine
 10
492.68
 20
254.59
 30
0.0
 11
493.6799999999999
 21
254.59
 31
0.0
  0
LINE
  5
475
330
2
100
AcDbEntity
  8
画層1
 62
     0
100
AcDbLine
 10
494.98
 20
252.2899999999999
 30
0.0
 11
494.68
 21
252.2899999999999
 31
0.0
  0
LINE
  5
476
330
2
100
AcDbEntity
  8
画層1
 62
     0
100
AcDbLine
 10
494.68
 20
253.29
 30
0.0
 11
494.98
 21
253.29
 31
0.0
  0
LINE
  5
477
330
2
100
AcDbEntity
  8
画層1
 62
     0
100
AcDbLine
 10
494.98
 20
252.2899999999999
 30
0.0
 11
494.98
 21
253.29
 31
0.0
  0
LINE
  5
478
330
2
100
AcDbEntity
  8
画層1
 62
     0
100
AcDbLine
 10
490.18
 20
279.5899999999999
 30
0.0
 11
490.18
 21
279.29
 31
0.0
  0
LINE
  5
479
330
2
100
AcDbEntity
  8
画層1
 62
     0
100
AcDbLine
 10
489.1799999999999
 20
279.29
 30
0.0
 11
489.1799999999999
 21
279.5899999999999
 31
0.0
  0
LINE
  5
47A
330
2
100
AcDbEntity
  8
画層1
 62
     0
100
AcDbLine
 10
489.1799999999999
 20
279.5899999999999
 30
0.0
 11
490.18
 21
279.5899999999999
 31
0.0
  0
ARC
  5
47B
330
2
100
AcDbEntity
  8
画層1
 62
     0
100
AcDbCircle
 10
491.18
 20
276.29
 30
0.0
 40
1.0
100
AcDbArc
 50
90.0
 51
180.0
  0
LINE
  5
47C
330
2
100
AcDbEntity
  8
画層1
 62
     0
100
AcDbLine
 10
490.18
 20
276.29
 30
0.0
 11
490.18
 21
275.99
 31
0.0
  0
LINE
  5
47D
330
2
100
AcDbEntity
  8
画層1
 62
     0
100
AcDbLine
 10
491.48
 20
277.29
 30
0.0
 11
491.48
 21
278.29
 31
0.0
  0
LINE
  5
47E
330
2
100
AcDbEntity
  8
画層1
 62
     0
100
AcDbLine
 10
491.18
 20
278.29
 30
0.0
 11
491.48
 21
278.29
 31
0.0
  0
LINE
  5
47F
330
2
100
AcDbEntity
  8
画層1
 62
     0
100
AcDbLine
 10
491.48
 20
277.29
 30
0.0
 11
491.18
 21
277.29
 31
0.0
  0
ARC
  5
480
330
2
100
AcDbEntity
  8
画層1
 62
     0
100
AcDbCircle
 10
488.18
 20
276.29
 30
0.0
 40
1.0
100
AcDbArc
 50
0.0
 51
90.0
  0
LINE
  5
481
330
2
100
AcDbEntity
  8
画層1
 62
     0
100
AcDbLine
 10
489.1799999999999
 20
275.99
 30
0.0
 11
489.1799999999999
 21
276.29
 31
0.0
  0
LINE
  5
482
330
2
100
AcDbEntity
  8
画層1
 62
     0
100
AcDbLine
 10
487.88
 20
277.29
 30
0.0
 11
487.88
 21
278.29
 31
0.0
  0
LINE
  5
483
330
2
100
AcDbEntity
  8
画層1
 62
     0
100
AcDbLine
 10
488.18
 20
277.29
 30
0.0
 11
487.88
 21
277.29
 31
0.0
  0
LINE
  5
484
330
2
100
AcDbEntity
  8
画層1
 62
     0
100
AcDbLine
 10
487.88
 20
278.29
 30
0.0
 11
488.18
 21
278.29
 31
0.0
  0
LINE
  5
485
330
2
100
AcDbEntity
  8
画層1
 62
     0
100
AcDbLine
 10
489.1799999999999
 20
275.99
 30
0.0
 11
490.18
 21
275.99
 31
0.0
  0
CIRCLE
  5
486
330
2
100
AcDbEntity
  8
画層1
 62
     0
100
AcDbCircle
 10
489.6799999999999
 20
277.79
 30
0.0
 40
3.0
  0
ARC
  5
487
330
2
100
AcDbEntity
  8
画層1
 62
     0
100
AcDbCircle
 10
488.18
 20
279.29
 30
0.0
 40
1.0
100
AcDbArc
 50
270.0
 51
0.0
  0
ARC
  5
488
330
2
100
AcDbEntity
  8
画層1
 62
     0
100
AcDbCircle
 10
491.18
 20
279.29
 30
0.0
 40
1.0
100
AcDbArc
 50
180.0
 51
270.0
  0
LINE
  5
489
330
2
100
AcDbEntity
  8
画層1
 62
     0
100
AcDbLine
 10
633.08
 20
197.7899999999999
 30
0.0
 11
633.08
 21
207.79
 31
0.0
  0
LINE
  5
48A
330
2
100
AcDbEntity
  8
画層1
 62
     0
100
AcDbLine
 10
558.6799999999999
 20
235.7899999999999
 30
0.0
 11
558.6799999999999
 21
236.2899999999999
 31
0.0
  0
LINE
  5
48B
330
2
100
AcDbEntity
  8
画層1
 62
     0
100
AcDbLine
 10
559.6799999999999
 20
236.2899999999999
 30
0.0
 11
559.6799999999999
 21
235.7899999999999
 31
0.0
  0
CIRCLE
  5
48C
330
2
100
AcDbEntity
  8
画層1
 62
     0
100
AcDbCircle
 10
559.1799999999999
 20
237.7899999999999
 30
0.0
 40
4.0
  0
LINE
  5
48D
330
2
100
AcDbEntity
  8
画層1
 62
     0
100
AcDbLine
 10
559.6799999999999
 20
235.7899999999999
 30
0.0
 11
558.6799999999999
 21
235.7899999999999
 31
0.0
  0
ARC
  5
48E
330
2
100
AcDbEntity
  8
画層1
 62
     0
100
AcDbCircle
 10
560.6799999999999
 20
239.29
 30
0.0
 40
1.0
100
AcDbArc
 50
180.0
 51
270.0
  0
ARC
  5
48F
330
2
100
AcDbEntity
  8
画層1
 62
     0
100
AcDbCircle
 10
560.6799999999999
 20
236.2899999999999
 30
0.0
 40
1.0
100
AcDbArc
 50
90.0
 51
180.0
  0
LINE
  5
490
330
2
100
AcDbEntity
  8
画層1
 62
     0
100
AcDbLine
 10
558.6799999999999
 20
239.7899999999999
 30
0.0
 11
559.6799999999999
 21
239.7899999999999
 31
0.0
  0
ARC
  5
491
330
2
100
AcDbEntity
  8
画層1
 62
     0
100
AcDbCircle
 10
557.6799999999999
 20
236.2899999999999
 30
0.0
 40
1.0
100
AcDbArc
 50
0.0
 51
90.0
  0
ARC
  5
492
330
2
100
AcDbEntity
  8
画層1
 62
     0
100
AcDbCircle
 10
557.6799999999999
 20
239.29
 30
0.0
 40
1.0
100
AcDbArc
 50
270.0
 51
0.0
  0
LINE
  5
493
330
2
100
AcDbEntity
  8
画層1
 62
     0
100
AcDbLine
 10
557.1799999999999
 20
237.29
 30
0.0
 11
557.1799999999999
 21
238.2899999999999
 31
0.0
  0
LINE
  5
494
330
2
100
AcDbEntity
  8
画層1
 62
     0
100
AcDbLine
 10
557.6799999999999
 20
237.29
 30
0.0
 11
557.1799999999999
 21
237.29
 31
0.0
  0
LINE
  5
495
330
2
100
AcDbEntity
  8
画層1
 62
     0
100
AcDbLine
 10
558.6799999999999
 20
239.29
 30
0.0
 11
558.6799999999999
 21
239.7899999999999
 31
0.0
  0
LINE
  5
496
330
2
100
AcDbEntity
  8
画層1
 62
     0
100
AcDbLine
 10
557.1799999999999
 20
238.2899999999999
 30
0.0
 11
557.6799999999999
 21
238.2899999999999
 31
0.0
  0
LINE
  5
497
330
2
100
AcDbEntity
  8
画層1
 62
     0
100
AcDbLine
 10
561.1799999999999
 20
237.29
 30
0.0
 11
560.6799999999999
 21
237.29
 31
0.0
  0
LINE
  5
498
330
2
100
AcDbEntity
  8
画層1
 62
     0
100
AcDbLine
 10
561.1799999999999
 20
238.2899999999999
 30
0.0
 11
561.1799999999999
 21
237.29
 31
0.0
  0
LINE
  5
499
330
2
100
AcDbEntity
  8
画層1
 62
     0
100
AcDbLine
 10
560.6799999999999
 20
238.2899999999999
 30
0.0
 11
561.1799999999999
 21
238.2899999999999
 31
0.0
  0
LINE
  5
49A
330
2
100
AcDbEntity
  8
画層1
 62
     0
100
AcDbLine
 10
559.6799999999999
 20
239.7899999999999
 30
0.0
 11
559.6799999999999
 21
239.29
 31
0.0
  0
ARC
  5
49B
330
2
100
AcDbEntity
  8
画層1
 62
     0
100
AcDbCircle
 10
518.1799999999999
 20
279.29
 30
0.0
 40
1.0
100
AcDbArc
 50
270.0
 51
0.0
  0
CIRCLE
  5
49C
330
2
100
AcDbEntity
  8
画層1
 62
     0
100
AcDbCircle
 10
519.6799999999999
 20
277.79
 30
0.0
 40
3.0
  0
ARC
  5
49D
330
2
100
AcDbEntity
  8
画層1
 62
     0
100
AcDbCircle
 10
518.1799999999999
 20
276.29
 30
0.0
 40
1.0
100
AcDbArc
 50
0.0
 51
90.0
  0
LINE
  5
49E
330
2
100
AcDbEntity
  8
画層1
 62
     0
100
AcDbLine
 10
517.8799999999999
 20
278.29
 30
0.0
 11
518.1799999999999
 21
278.29
 31
0.0
  0
LINE
  5
49F
330
2
100
AcDbEntity
  8
画層1
 62
     0
100
AcDbLine
 10
518.1799999999999
 20
277.29
 30
0.0
 11
517.8799999999999
 21
277.29
 31
0.0
  0
LINE
  5
4A0
330
2
100
AcDbEntity
  8
画層1
 62
     0
100
AcDbLine
 10
517.8799999999999
 20
277.29
 30
0.0
 11
517.8799999999999
 21
278.29
 31
0.0
  0
ARC
  5
4A1
330
2
100
AcDbEntity
  8
画層1
 62
     0
100
AcDbCircle
 10
521.1799999999999
 20
279.29
 30
0.0
 40
1.0
100
AcDbArc
 50
180.0
 51
270.0
  0
LINE
  5
4A2
330
2
100
AcDbEntity
  8
画層1
 62
     0
100
AcDbLine
 10
521.48
 20
277.29
 30
0.0
 11
521.1799999999999
 21
277.29
 31
0.0
  0
LINE
  5
4A3
330
2
100
AcDbEntity
  8
画層1
 62
     0
100
AcDbLine
 10
521.1799999999999
 20
278.29
 30
0.0
 11
521.48
 21
278.29
 31
0.0
  0
LINE
  5
4A4
330
2
100
AcDbEntity
  8
画層1
 62
     0
100
AcDbLine
 10
521.48
 20
277.29
 30
0.0
 11
521.48
 21
278.29
 31
0.0
  0
LINE
  5
4A5
330
2
100
AcDbEntity
  8
画層1
 62
     0
100
AcDbLine
 10
520.1799999999999
 20
279.5899999999999
 30
0.0
 11
520.1799999999999
 21
279.29
 31
0.0
  0
LINE
  5
4A6
330
2
100
AcDbEntity
  8
画層1
 62
     0
100
AcDbLine
 10
519.1799999999999
 20
279.29
 30
0.0
 11
519.1799999999999
 21
279.5899999999999
 31
0.0
  0
LINE
  5
4A7
330
2
100
AcDbEntity
  8
画層1
 62
     0
100
AcDbLine
 10
519.1799999999999
 20
279.5899999999999
 30
0.0
 11
520.1799999999999
 21
279.5899999999999
 31
0.0
  0
LINE
  5
4A8
330
2
100
AcDbEntity
  8
画層1
 62
     0
100
AcDbLine
 10
520.1799999999999
 20
276.29
 30
0.0
 11
520.1799999999999
 21
275.99
 31
0.0
  0
LINE
  5
4A9
330
2
100
AcDbEntity
  8
画層1
 62
     0
100
AcDbLine
 10
519.1799999999999
 20
275.99
 30
0.0
 11
519.1799999999999
 21
276.29
 31
0.0
  0
LINE
  5
4AA
330
2
100
AcDbEntity
  8
画層1
 62
     0
100
AcDbLine
 10
519.1799999999999
 20
275.99
 30
0.0
 11
520.1799999999999
 21
275.99
 31
0.0
  0
ARC
  5
4AB
330
2
100
AcDbEntity
  8
画層1
 62
     0
100
AcDbCircle
 10
521.1799999999999
 20
276.29
 30
0.0
 40
1.0
100
AcDbArc
 50
90.0
 51
180.0
  0
DIMENSION
  5
4AC
330
2
100
AcDbEntity
  8
画層1
 62
     0
100
AcDbDimension
  2
*D51
 10
433.68
 20
432.79
 30
0.0
 11
534.1799999999999
 21
434.8793908629442
 31
0.0
 70
    32
 71
     5
 42
200.9999999999999
  3
STANDARD_WS
100
AcDbAlignedDimension
 13
634.6799999999999
 23
417.79
 33
0.0
 14
433.68
 24
368.67
 34
0.0
100
AcDbRotatedDimension
1001
ACAD
1000
DSTYLE
1002
{
1070
     3
1000
(<>)
1070
    47
1040
0.6
1070
   144
1040
1.0
1070
   146
1040
0.5
1070
   173
1070
     0
1070
   284
1070
     8
1070
   340
1005
2A
1070
   341
1005
2B
1070
   342
1005
2B
1070
   343
1005
2B
1002
}
  0
DIMENSION
  5
4B9
330
2
100
AcDbEntity
  8
画層1
 62
     0
100
AcDbDimension
  2
*D50
 10
409.6799999999999
 20
446.79
 30
0.0
 11
522.1799999999999
 21
448.6699999999999
 31
0.0
 70
    32
 71
     5
 42
224.9999999999999
  3
STANDARD_WS
100
AcDbAlignedDimension
 13
634.6799999999999
 23
417.79
 33
0.0
 14
409.6799999999999
 24
403.39
 34
0.0
100
AcDbRotatedDimension
1001
ACAD
1000
DSTYLE
1002
{
1070
    47
1040
0.6
1070
   144
1040
1.0
1070
   146
1040
0.5
1070
   173
1070
     0
1070
   284
1070
     8
1070
   340
1005
2A
1070
   341
1005
2B
1070
   342
1005
2B
1070
   343
1005
2B
1002
}
  0
LINE
  5
4C6
330
2
100
AcDbEntity
  8
画層1
 62
     0
100
AcDbLine
 10
633.08
 20
417.79
 30
0.0
 11
634.6799999999999
 21
417.79
 31
0.0
  0
LINE
  5
4C7
330
2
100
AcDbEntity
  8
画層1
  6
CENTER
 62
     0
100
AcDbLine
 10
629.08
 20
411.79
 30
0.0
 11
638.68
 21
411.79
 31
0.0
  0
LINE
  5
4C8
330
2
100
AcDbEntity
  8
画層1
 62
     0
100
AcDbLine
 10
634.6799999999999
 20
407.79
 30
0.0
 11
452.68
 21
407.79
 31
0.0
  0
ARC
  5
4C9
330
2
100
AcDbEntity
  8
画層1
 62
     0
100
AcDbCircle
 10
504.68
 20
316.79
 30
0.0
 40
5.0
100
AcDbArc
 50
0.0
 51
180.0
  0
ARC
  5
4CA
330
2
100
AcDbEntity
  8
画層1
 62
     0
100
AcDbCircle
 10
504.68
 20
306.79
 30
0.0
 40
5.0
100
AcDbArc
 50
180.0
 51
0.0
  0
DIMENSION
  5
4CB
330
2
100
AcDbEntity
  8
画層1
 62
     0
100
AcDbDimension
  2
*D52
 10
422.6799999999999
 20
432.79
 30
0.0
 11
428.18
 21
434.67
 31
0.0
 70
    32
 71
     5
 42
11.0
  3
STANDARD_WS
100
AcDbAlignedDimension
 13
433.68
 23
368.67
 33
0.0
 14
422.6799999999999
 24
368.67
 34
0.0
100
AcDbRotatedDimension
1001
ACAD
1000
DSTYLE
1002
{
1070
   279
1070
     1
1070
    47
1040
0.6
1070
   144
1040
1.0
1070
   146
1040
0.5
1070
   173
1070
     0
1070
   284
1070
     8
1070
   340
1005
2A
1070
   341
1005
2B
1070
   342
1005
2B
1070
   343
1005
2B
1002
}
  0
LINE
  5
4D8
330
2
100
AcDbEntity
  8
画層1
  6
DASHED2
 62
     0
100
AcDbLine
 10
412.48
 20
370.79
 30
0.0
 11
439.88
 21
370.79
 31
0.0
  0
LINE
  5
4D9
330
2
100
AcDbEntity
  8
画層1
  6
DASHED2
 62
     0
100
AcDbLine
 10
431.6799999999999
 20
343.91
 30
0.0
 11
431.6799999999999
 21
337.91
 31
0.0
  0
LINE
  5
4DA
330
2
100
AcDbEntity
  8
画層1
  6
DASHED2
 62
     0
100
AcDbLine
 10
433.68
 20
344.91
 30
0.0
 11
433.68
 21
336.91
 31
0.0
  0
LINE
  5
4DB
330
2
100
AcDbEntity
  8
画層1
  6
DASHED2
 62
     0
100
AcDbLine
 10
432.48
 20
344.91
 30
0.0
 11
432.48
 21
336.91
 31
0.0
  0
LINE
  5
4DC
330
2
100
AcDbEntity
  8
画層1
  6
DASHED2
 62
     0
100
AcDbLine
 10
429.48
 20
342.91
 30
0.0
 11
429.48
 21
338.91
 31
0.0
  0
LINE
  5
4DD
330
2
100
AcDbEntity
  8
画層1
  6
DASHED2
 62
     0
100
AcDbLine
 10
418.48
 20
319.17
 30
0.0
 11
418.48
 21
315.17
 31
0.0
  0
LINE
  5
4DE
330
2
100
AcDbEntity
  8
画層1
  6
DASHED2
 62
     0
100
AcDbLine
 10
426.8799999999999
 20
317.91
 30
0.0
 11
426.8799999999999
 21
316.41
 31
0.0
  0
LINE
  5
4DF
330
2
100
AcDbEntity
  8
画層1
  6
DASHED2
 62
     0
100
AcDbLine
 10
421.48
 20
321.17
 30
0.0
 11
421.48
 21
313.17
 31
0.0
  0
LINE
  5
4E0
330
2
100
AcDbEntity
  8
画層1
  6
DASHED2
 62
     0
100
AcDbLine
 10
422.6799999999999
 20
321.17
 30
0.0
 11
422.6799999999999
 21
313.17
 31
0.0
  0
LINE
  5
4E1
330
2
100
AcDbEntity
  8
画層1
  6
DASHED2
 62
     0
100
AcDbLine
 10
420.68
 20
320.17
 30
0.0
 11
420.68
 21
314.17
 31
0.0
  0
LINE
  5
4E2
330
2
100
AcDbEntity
  8
画層1
  6
DASHED2
 62
     0
100
AcDbLine
 10
422.6799999999999
 20
294.17
 30
0.0
 11
413.8799999999999
 21
294.17
 31
0.0
  0
LINE
  5
4E3
330
2
100
AcDbEntity
  8
画層1
  6
DASHED2
 62
     0
100
AcDbLine
 10
413.8799999999999
 20
311.67
 30
0.0
 11
422.6799999999999
 21
311.67
 31
0.0
  0
LINE
  5
4E4
330
2
100
AcDbEntity
  8
画層1
  6
DASHED2
 62
     0
100
AcDbLine
 10
422.6799999999999
 20
313.17
 30
0.0
 11
413.8799999999999
 21
313.17
 31
0.0
  0
LINE
  5
4E5
330
2
100
AcDbEntity
  8
画層1
  6
DASHED2
 62
     0
100
AcDbLine
 10
413.8799999999999
 20
302.17
 30
0.0
 11
422.6799999999999
 21
302.17
 31
0.0
  0
LINE
  5
4E6
330
2
100
AcDbEntity
  8
画層1
  6
DASHED2
 62
     0
100
AcDbLine
 10
422.6799999999999
 20
303.67
 30
0.0
 11
413.8799999999999
 21
303.67
 31
0.0
  0
LINE
  5
4E7
330
2
100
AcDbEntity
  8
画層1
  6
DASHED2
 62
     0
100
AcDbLine
 10
421.48
 20
301.17
 30
0.0
 11
419.4799999999999
 21
301.17
 31
0.0
  0
LINE
  5
4E8
330
2
100
AcDbEntity
  8
画層1
  6
DASHED2
 62
     0
100
AcDbLine
 10
421.48
 20
295.17
 30
0.0
 11
419.4799999999999
 21
295.17
 31
0.0
  0
LINE
  5
4E9
330
2
100
AcDbEntity
  8
画層1
  6
DASHED2
 62
     0
100
AcDbLine
 10
421.48
 20
304.67
 30
0.0
 11
419.4799999999999
 21
304.67
 31
0.0
  0
LINE
  5
4EA
330
2
100
AcDbEntity
  8
画層1
  6
DASHED2
 62
     0
100
AcDbLine
 10
421.48
 20
310.67
 30
0.0
 11
419.4799999999999
 21
310.67
 31
0.0
  0
LINE
  5
4EB
330
2
100
AcDbEntity
  8
画層1
  6
DASHED2
 62
     0
100
AcDbLine
 10
421.48
 20
314.17
 30
0.0
 11
419.4799999999999
 21
314.17
 31
0.0
  0
ARC
  5
4EC
330
2
100
AcDbEntity
  8
画層1
  6
DASHED2
 62
     0
100
AcDbCircle
 10
419.4799999999999
 20
305.67
 30
0.0
 40
1.0
100
AcDbArc
 50
180.0
 51
270.0
  0
ARC
  5
4ED
330
2
100
AcDbEntity
  8
画層1
  6
DASHED2
 62
     0
100
AcDbCircle
 10
419.4799999999999
 20
300.17
 30
0.0
 40
1.0
100
AcDbArc
 50
90.0
 51
180.0
  0
ARC
  5
4EE
330
2
100
AcDbEntity
  8
画層1
  6
DASHED2
 62
     0
100
AcDbCircle
 10
419.4799999999999
 20
296.17
 30
0.0
 40
1.0
100
AcDbArc
 50
180.0
 51
270.0
  0
LINE
  5
4EF
330
2
100
AcDbEntity
  8
画層1
  6
DASHED2
 62
     0
100
AcDbLine
 10
418.48
 20
300.17
 30
0.0
 11
418.48
 21
296.17
 31
0.0
  0
ARC
  5
4F0
330
2
100
AcDbEntity
  8
画層1
  6
DASHED2
 62
     0
100
AcDbCircle
 10
419.4799999999999
 20
315.17
 30
0.0
 40
1.0
100
AcDbArc
 50
180.0
 51
270.0
  0
ARC
  5
4F1
330
2
100
AcDbEntity
  8
画層1
  6
DASHED2
 62
     0
100
AcDbCircle
 10
419.4799999999999
 20
309.67
 30
0.0
 40
1.0
100
AcDbArc
 50
90.0
 51
180.0
  0
LINE
  5
4F2
330
2
100
AcDbEntity
  8
画層1
  6
DASHED2
 62
     0
100
AcDbLine
 10
418.48
 20
309.67
 30
0.0
 11
418.48
 21
305.67
 31
0.0
  0
LINE
  5
4F3
330
2
100
AcDbEntity
  8
画層1
  6
DASHED2
 62
     0
100
AcDbLine
 10
421.48
 20
311.67
 30
0.0
 11
421.48
 21
303.67
 31
0.0
  0
LINE
  5
4F4
330
2
100
AcDbEntity
  8
画層1
  6
DASHED2
 62
     0
100
AcDbLine
 10
422.6799999999999
 20
311.67
 30
0.0
 11
422.6799999999999
 21
303.67
 31
0.0
  0
LINE
  5
4F5
330
2
100
AcDbEntity
  8
画層1
  6
DASHED2
 62
     0
100
AcDbLine
 10
420.68
 20
310.67
 30
0.0
 11
420.68
 21
304.67
 31
0.0
  0
ARC
  5
4F6
330
2
100
AcDbEntity
  8
画層1
  6
DASHED2
 62
     0
100
AcDbCircle
 10
430.48
 20
304.91
 30
0.0
 40
1.0
100
AcDbArc
 50
90.0
 51
180.0
  0
LINE
  5
4F7
330
2
100
AcDbEntity
  8
画層1
  6
DASHED2
 62
     0
100
AcDbLine
 10
432.48
 20
306.91
 30
0.0
 11
432.48
 21
298.91
 31
0.0
  0
LINE
  5
4F8
330
2
100
AcDbEntity
  8
画層1
  6
DASHED2
 62
     0
100
AcDbLine
 10
433.68
 20
306.91
 30
0.0
 11
433.68
 21
298.91
 31
0.0
  0
LINE
  5
4F9
330
2
100
AcDbEntity
  8
画層1
  6
DASHED2
 62
     0
100
AcDbLine
 10
431.6799999999999
 20
305.91
 30
0.0
 11
431.6799999999999
 21
299.91
 31
0.0
  0
LINE
  5
4FA
330
2
100
AcDbEntity
  8
画層1
  6
DASHED2
 62
     0
100
AcDbLine
 10
433.68
 20
298.91
 30
0.0
 11
426.8799999999999
 21
298.91
 31
0.0
  0
LINE
  5
4FB
330
2
100
AcDbEntity
  8
画層1
  6
DASHED2
 62
     0
100
AcDbLine
 10
426.8799999999999
 20
297.41
 30
0.0
 11
433.68
 21
297.41
 31
0.0
  0
LINE
  5
4FC
330
2
100
AcDbEntity
  8
画層1
  6
DASHED2
 62
     0
100
AcDbLine
 10
422.6799999999999
 20
302.17
 30
0.0
 11
422.6799999999999
 21
294.17
 31
0.0
  0
LINE
  5
4FD
330
2
100
AcDbEntity
  8
画層1
  6
DASHED2
 62
     0
100
AcDbLine
 10
421.48
 20
302.17
 30
0.0
 11
421.48
 21
294.17
 31
0.0
  0
LINE
  5
4FE
330
2
100
AcDbEntity
  8
画層1
  6
DASHED2
 62
     0
100
AcDbLine
 10
426.8799999999999
 20
298.91
 30
0.0
 11
426.8799999999999
 21
297.41
 31
0.0
  0
LINE
  5
4FF
330
2
100
AcDbEntity
  8
画層1
  6
DASHED2
 62
     0
100
AcDbLine
 10
420.68
 20
301.17
 30
0.0
 11
420.68
 21
295.17
 31
0.0
  0
ARC
  5
500
330
2
100
AcDbEntity
  8
画層1
  6
DASHED2
 62
     0
100
AcDbCircle
 10
430.48
 20
300.91
 30
0.0
 40
1.0
100
AcDbArc
 50
180.0
 51
270.0
  0
LINE
  5
501
330
2
100
AcDbEntity
  8
画層1
  6
DASHED2
 62
     0
100
AcDbLine
 10
429.48
 20
304.91
 30
0.0
 11
429.48
 21
300.91
 31
0.0
  0
LINE
  5
502
330
2
100
AcDbEntity
  8
画層1
  6
DASHED2
 62
     0
100
AcDbLine
 10
432.48
 20
299.91
 30
0.0
 11
430.48
 21
299.91
 31
0.0
  0
ARC
  5
503
330
2
100
AcDbEntity
  8
画層1
  6
DASHED2
 62
     0
100
AcDbCircle
 10
430.48
 20
295.41
 30
0.0
 40
1.0
100
AcDbArc
 50
90.0
 51
180.0
  0
LINE
  5
504
330
2
100
AcDbEntity
  8
画層1
  6
DASHED2
 62
     0
100
AcDbLine
 10
432.48
 20
296.41
 30
0.0
 11
430.48
 21
296.41
 31
0.0
  0
LINE
  5
505
330
2
100
AcDbEntity
  8
画層1
  6
DASHED2
 62
     0
100
AcDbLine
 10
433.68
 20
308.41
 30
0.0
 11
426.8799999999999
 21
308.41
 31
0.0
  0
LINE
  5
506
330
2
100
AcDbEntity
  8
画層1
  6
DASHED2
 62
     0
100
AcDbLine
 10
426.8799999999999
 20
306.91
 30
0.0
 11
433.68
 21
306.91
 31
0.0
  0
LINE
  5
507
330
2
100
AcDbEntity
  8
画層1
  6
DASHED2
 62
     0
100
AcDbLine
 10
426.8799999999999
 20
316.41
 30
0.0
 11
433.68
 21
316.41
 31
0.0
  0
LINE
  5
508
330
2
100
AcDbEntity
  8
画層1
  6
DASHED2
 62
     0
100
AcDbLine
 10
426.8799999999999
 20
308.41
 30
0.0
 11
426.8799999999999
 21
306.91
 31
0.0
  0
LINE
  5
509
330
2
100
AcDbEntity
  8
画層1
  6
DASHED2
 62
     0
100
AcDbLine
 10
431.6799999999999
 20
315.41
 30
0.0
 11
431.6799999999999
 21
309.41
 31
0.0
  0
LINE
  5
50A
330
2
100
AcDbEntity
  8
画層1
  6
DASHED2
 62
     0
100
AcDbLine
 10
433.68
 20
316.41
 30
0.0
 11
433.68
 21
308.41
 31
0.0
  0
LINE
  5
50B
330
2
100
AcDbEntity
  8
画層1
  6
DASHED2
 62
     0
100
AcDbLine
 10
432.48
 20
316.41
 30
0.0
 11
432.48
 21
308.41
 31
0.0
  0
LINE
  5
50C
330
2
100
AcDbEntity
  8
画層1
  6
DASHED2
 62
     0
100
AcDbLine
 10
429.48
 20
314.41
 30
0.0
 11
429.48
 21
310.41
 31
0.0
  0
LINE
  5
50D
330
2
100
AcDbEntity
  8
画層1
  6
DASHED2
 62
     0
100
AcDbLine
 10
432.48
 20
305.91
 30
0.0
 11
430.48
 21
305.91
 31
0.0
  0
LINE
  5
50E
330
2
100
AcDbEntity
  8
画層1
  6
DASHED2
 62
     0
100
AcDbLine
 10
432.48
 20
309.41
 30
0.0
 11
430.48
 21
309.41
 31
0.0
  0
ARC
  5
50F
330
2
100
AcDbEntity
  8
画層1
  6
DASHED2
 62
     0
100
AcDbCircle
 10
430.48
 20
310.41
 30
0.0
 40
1.0
100
AcDbArc
 50
180.0
 51
270.0
  0
LINE
  5
510
330
2
100
AcDbEntity
  8
画層1
  6
DASHED2
 62
     0
100
AcDbLine
 10
432.48
 20
315.41
 30
0.0
 11
430.48
 21
315.41
 31
0.0
  0
ARC
  5
511
330
2
100
AcDbEntity
  8
画層1
  6
DASHED2
 62
     0
100
AcDbCircle
 10
430.48
 20
314.41
 30
0.0
 40
1.0
100
AcDbArc
 50
90.0
 51
180.0
  0
LINE
  5
512
330
2
100
AcDbEntity
  8
画層1
  6
DASHED2
 62
     0
100
AcDbLine
 10
422.6799999999999
 20
322.67
 30
0.0
 11
413.8799999999999
 21
322.67
 31
0.0
  0
LINE
  5
513
330
2
100
AcDbEntity
  8
画層1
  6
DASHED2
 62
     0
100
AcDbLine
 10
413.8799999999999
 20
321.17
 30
0.0
 11
422.6799999999999
 21
321.17
 31
0.0
  0
LINE
  5
514
330
2
100
AcDbEntity
  8
画層1
  6
DASHED2
 62
     0
100
AcDbLine
 10
413.8799999999999
 20
330.67
 30
0.0
 11
422.6799999999999
 21
330.67
 31
0.0
  0
LINE
  5
515
330
2
100
AcDbEntity
  8
画層1
  6
DASHED2
 62
     0
100
AcDbLine
 10
421.48
 20
329.67
 30
0.0
 11
419.4799999999999
 21
329.67
 31
0.0
  0
LINE
  5
516
330
2
100
AcDbEntity
  8
画層1
  6
DASHED2
 62
     0
100
AcDbLine
 10
421.48
 20
323.67
 30
0.0
 11
419.4799999999999
 21
323.67
 31
0.0
  0
LINE
  5
517
330
2
100
AcDbEntity
  8
画層1
  6
DASHED2
 62
     0
100
AcDbLine
 10
421.48
 20
320.17
 30
0.0
 11
419.4799999999999
 21
320.17
 31
0.0
  0
LINE
  5
518
330
2
100
AcDbEntity
  8
画層1
  6
DASHED2
 62
     0
100
AcDbLine
 10
413.8799999999999
 20
340.17
 30
0.0
 11
422.6799999999999
 21
340.17
 31
0.0
  0
LINE
  5
519
330
2
100
AcDbEntity
  8
画層1
  6
DASHED2
 62
     0
100
AcDbLine
 10
422.6799999999999
 20
332.17
 30
0.0
 11
413.8799999999999
 21
332.17
 31
0.0
  0
LINE
  5
51A
330
2
100
AcDbEntity
  8
画層1
  6
DASHED2
 62
     0
100
AcDbLine
 10
421.48
 20
333.17
 30
0.0
 11
419.4799999999999
 21
333.17
 31
0.0
  0
LINE
  5
51B
330
2
100
AcDbEntity
  8
画層1
  6
DASHED2
 62
     0
100
AcDbLine
 10
421.48
 20
339.17
 30
0.0
 11
419.4799999999999
 21
339.17
 31
0.0
  0
LINE
  5
51C
330
2
100
AcDbEntity
  8
画層1
  6
DASHED2
 62
     0
100
AcDbLine
 10
418.48
 20
328.67
 30
0.0
 11
418.48
 21
324.67
 31
0.0
  0
ARC
  5
51D
330
2
100
AcDbEntity
  8
画層1
  6
DASHED2
 62
     0
100
AcDbCircle
 10
419.4799999999999
 20
324.67
 30
0.0
 40
1.0
100
AcDbArc
 50
180.0
 51
270.0
  0
ARC
  5
51E
330
2
100
AcDbEntity
  8
画層1
  6
DASHED2
 62
     0
100
AcDbCircle
 10
419.4799999999999
 20
319.17
 30
0.0
 40
1.0
100
AcDbArc
 50
90.0
 51
180.0
  0
ARC
  5
51F
330
2
100
AcDbEntity
  8
画層1
  6
DASHED2
 62
     0
100
AcDbCircle
 10
419.4799999999999
 20
328.67
 30
0.0
 40
1.0
100
AcDbArc
 50
90.0
 51
180.0
  0
ARC
  5
520
330
2
100
AcDbEntity
  8
画層1
  6
DASHED2
 62
     0
100
AcDbCircle
 10
419.4799999999999
 20
334.17
 30
0.0
 40
1.0
100
AcDbArc
 50
180.0
 51
270.0
  0
ARC
  5
521
330
2
100
AcDbEntity
  8
画層1
  6
DASHED2
 62
     0
100
AcDbCircle
 10
419.4799999999999
 20
338.17
 30
0.0
 40
1.0
100
AcDbArc
 50
90.0
 51
180.0
  0
LINE
  5
522
330
2
100
AcDbEntity
  8
画層1
  6
DASHED2
 62
     0
100
AcDbLine
 10
418.48
 20
338.17
 30
0.0
 11
418.48
 21
334.17
 31
0.0
  0
LINE
  5
523
330
2
100
AcDbEntity
  8
画層1
  6
DASHED2
 62
     0
100
AcDbLine
 10
431.6799999999999
 20
334.41
 30
0.0
 11
431.6799999999999
 21
328.41
 31
0.0
  0
LINE
  5
524
330
2
100
AcDbEntity
  8
画層1
  6
DASHED2
 62
     0
100
AcDbLine
 10
433.68
 20
335.41
 30
0.0
 11
433.68
 21
327.41
 31
0.0
  0
LINE
  5
525
330
2
100
AcDbEntity
  8
画層1
  6
DASHED2
 62
     0
100
AcDbLine
 10
432.48
 20
335.41
 30
0.0
 11
432.48
 21
327.41
 31
0.0
  0
LINE
  5
526
330
2
100
AcDbEntity
  8
画層1
  6
DASHED2
 62
     0
100
AcDbLine
 10
422.6799999999999
 20
330.67
 30
0.0
 11
422.6799999999999
 21
322.67
 31
0.0
  0
LINE
  5
527
330
2
100
AcDbEntity
  8
画層1
  6
DASHED2
 62
     0
100
AcDbLine
 10
421.48
 20
330.67
 30
0.0
 11
421.48
 21
322.67
 31
0.0
  0
LINE
  5
528
330
2
100
AcDbEntity
  8
画層1
  6
DASHED2
 62
     0
100
AcDbLine
 10
420.68
 20
329.67
 30
0.0
 11
420.68
 21
323.67
 31
0.0
  0
ARC
  5
529
330
2
100
AcDbEntity
  8
画層1
  6
DASHED2
 62
     0
100
AcDbCircle
 10
430.48
 20
329.41
 30
0.0
 40
1.0
100
AcDbArc
 50
180.0
 51
270.0
  0
LINE
  5
52A
330
2
100
AcDbEntity
  8
画層1
  6
DASHED2
 62
     0
100
AcDbLine
 10
433.68
 20
317.91
 30
0.0
 11
426.8799999999999
 21
317.91
 31
0.0
  0
LINE
  5
52B
330
2
100
AcDbEntity
  8
画層1
  6
DASHED2
 62
     0
100
AcDbLine
 10
433.68
 20
327.41
 30
0.0
 11
426.8799999999999
 21
327.41
 31
0.0
  0
LINE
  5
52C
330
2
100
AcDbEntity
  8
画層1
  6
DASHED2
 62
     0
100
AcDbLine
 10
426.8799999999999
 20
325.91
 30
0.0
 11
433.68
 21
325.91
 31
0.0
  0
LINE
  5
52D
330
2
100
AcDbEntity
  8
画層1
  6
DASHED2
 62
     0
100
AcDbLine
 10
433.68
 20
317.91
 30
0.0
 11
426.8799999999999
 21
317.91
 31
0.0
  0
LINE
  5
52E
330
2
100
AcDbEntity
  8
画層1
  6
DASHED2
 62
     0
100
AcDbLine
 10
426.8799999999999
 20
327.41
 30
0.0
 11
426.8799999999999
 21
325.91
 31
0.0
  0
ARC
  5
52F
330
2
100
AcDbEntity
  8
画層1
  6
DASHED2
 62
     0
100
AcDbCircle
 10
430.48
 20
319.91
 30
0.0
 40
1.0
100
AcDbArc
 50
180.0
 51
270.0
  0
ARC
  5
530
330
2
100
AcDbEntity
  8
画層1
  6
DASHED2
 62
     0
100
AcDbCircle
 10
430.48
 20
323.91
 30
0.0
 40
1.0
100
AcDbArc
 50
90.0
 51
180.0
  0
LINE
  5
531
330
2
100
AcDbEntity
  8
画層1
  6
DASHED2
 62
     0
100
AcDbLine
 10
429.48
 20
323.91
 30
0.0
 11
429.48
 21
319.91
 31
0.0
  0
LINE
  5
532
330
2
100
AcDbEntity
  8
画層1
  6
DASHED2
 62
     0
100
AcDbLine
 10
432.48
 20
325.91
 30
0.0
 11
432.48
 21
317.91
 31
0.0
  0
LINE
  5
533
330
2
100
AcDbEntity
  8
画層1
  6
DASHED2
 62
     0
100
AcDbLine
 10
433.68
 20
325.91
 30
0.0
 11
433.68
 21
317.91
 31
0.0
  0
LINE
  5
534
330
2
100
AcDbEntity
  8
画層1
  6
DASHED2
 62
     0
100
AcDbLine
 10
432.48
 20
318.91
 30
0.0
 11
430.48
 21
318.91
 31
0.0
  0
LINE
  5
535
330
2
100
AcDbEntity
  8
画層1
  6
DASHED2
 62
     0
100
AcDbLine
 10
432.48
 20
324.91
 30
0.0
 11
430.48
 21
324.91
 31
0.0
  0
LINE
  5
536
330
2
100
AcDbEntity
  8
画層1
  6
DASHED2
 62
     0
100
AcDbLine
 10
431.6799999999999
 20
324.91
 30
0.0
 11
431.6799999999999
 21
318.91
 31
0.0
  0
LINE
  5
537
330
2
100
AcDbEntity
  8
画層1
  6
DASHED2
 62
     0
100
AcDbLine
 10
432.48
 20
328.41
 30
0.0
 11
430.48
 21
328.41
 31
0.0
  0
LINE
  5
538
330
2
100
AcDbEntity
  8
画層1
  6
DASHED2
 62
     0
100
AcDbLine
 10
426.8799999999999
 20
335.41
 30
0.0
 11
433.68
 21
335.41
 31
0.0
  0
LINE
  5
539
330
2
100
AcDbEntity
  8
画層1
  6
DASHED2
 62
     0
100
AcDbLine
 10
433.68
 20
336.91
 30
0.0
 11
426.8799999999999
 21
336.91
 31
0.0
  0
LINE
  5
53A
330
2
100
AcDbEntity
  8
画層1
  6
DASHED2
 62
     0
100
AcDbLine
 10
426.8799999999999
 20
336.91
 30
0.0
 11
426.8799999999999
 21
335.41
 31
0.0
  0
LINE
  5
53B
330
2
100
AcDbEntity
  8
画層1
  6
DASHED2
 62
     0
100
AcDbLine
 10
421.48
 20
340.17
 30
0.0
 11
421.48
 21
332.17
 31
0.0
  0
LINE
  5
53C
330
2
100
AcDbEntity
  8
画層1
  6
DASHED2
 62
     0
100
AcDbLine
 10
422.6799999999999
 20
340.17
 30
0.0
 11
422.6799999999999
 21
332.17
 31
0.0
  0
LINE
  5
53D
330
2
100
AcDbEntity
  8
画層1
  6
DASHED2
 62
     0
100
AcDbLine
 10
420.68
 20
339.17
 30
0.0
 11
420.68
 21
333.17
 31
0.0
  0
LINE
  5
53E
330
2
100
AcDbEntity
  8
画層1
  6
DASHED2
 62
     0
100
AcDbLine
 10
429.48
 20
333.41
 30
0.0
 11
429.48
 21
329.41
 31
0.0
  0
LINE
  5
53F
330
2
100
AcDbEntity
  8
画層1
  6
DASHED2
 62
     0
100
AcDbLine
 10
432.48
 20
334.41
 30
0.0
 11
430.48
 21
334.41
 31
0.0
  0
ARC
  5
540
330
2
100
AcDbEntity
  8
画層1
  6
DASHED2
 62
     0
100
AcDbCircle
 10
430.48
 20
333.41
 30
0.0
 40
1.0
100
AcDbArc
 50
90.0
 51
180.0
  0
LINE
  5
541
330
2
100
AcDbEntity
  8
画層1
  6
DASHED2
 62
     0
100
AcDbLine
 10
432.48
 20
337.91
 30
0.0
 11
430.48
 21
337.91
 31
0.0
  0
ARC
  5
542
330
2
100
AcDbEntity
  8
画層1
  6
DASHED2
 62
     0
100
AcDbCircle
 10
430.48
 20
338.91
 30
0.0
 40
1.0
100
AcDbArc
 50
180.0
 51
270.0
  0
LINE
  5
543
330
2
100
AcDbEntity
  8
画層1
  6
DASHED2
 62
     0
100
AcDbLine
 10
421.48
 20
368.67
 30
0.0
 11
421.48
 21
360.67
 31
0.0
  0
LINE
  5
544
330
2
100
AcDbEntity
  8
画層1
  6
DASHED2
 62
     0
100
AcDbLine
 10
422.6799999999999
 20
368.67
 30
0.0
 11
422.6799999999999
 21
360.67
 31
0.0
  0
LINE
  5
545
330
2
100
AcDbEntity
  8
画層1
  6
DASHED2
 62
     0
100
AcDbLine
 10
418.48
 20
366.67
 30
0.0
 11
418.48
 21
362.67
 31
0.0
  0
LINE
  5
546
330
2
100
AcDbEntity
  8
画層1
  6
DASHED2
 62
     0
100
AcDbLine
 10
420.68
 20
367.67
 30
0.0
 11
420.68
 21
361.67
 31
0.0
  0
LINE
  5
547
330
2
100
AcDbEntity
  8
画層1
  6
DASHED2
 62
     0
100
AcDbLine
 10
433.68
 20
363.91
 30
0.0
 11
433.68
 21
355.91
 31
0.0
  0
LINE
  5
548
330
2
100
AcDbEntity
  8
画層1
  6
DASHED2
 62
     0
100
AcDbLine
 10
432.48
 20
363.91
 30
0.0
 11
432.48
 21
355.91
 31
0.0
  0
LINE
  5
549
330
2
100
AcDbEntity
  8
画層1
  6
DASHED2
 62
     0
100
AcDbLine
 10
422.6799999999999
 20
341.67
 30
0.0
 11
413.8799999999999
 21
341.67
 31
0.0
  0
LINE
  5
54A
330
2
100
AcDbEntity
  8
画層1
  6
DASHED2
 62
     0
100
AcDbLine
 10
422.6799999999999
 20
351.17
 30
0.0
 11
413.8799999999999
 21
351.17
 31
0.0
  0
LINE
  5
54B
330
2
100
AcDbEntity
  8
画層1
  6
DASHED2
 62
     0
100
AcDbLine
 10
413.8799999999999
 20
349.67
 30
0.0
 11
422.6799999999999
 21
349.67
 31
0.0
  0
LINE
  5
54C
330
2
100
AcDbEntity
  8
画層1
  6
DASHED2
 62
     0
100
AcDbLine
 10
413.8799999999999
 20
359.17
 30
0.0
 11
422.6799999999999
 21
359.17
 31
0.0
  0
LINE
  5
54D
330
2
100
AcDbEntity
  8
画層1
  6
DASHED2
 62
     0
100
AcDbLine
 10
422.6799999999999
 20
360.67
 30
0.0
 11
413.8799999999999
 21
360.67
 31
0.0
  0
LINE
  5
54E
330
2
100
AcDbEntity
  8
画層1
  6
DASHED2
 62
     0
100
AcDbLine
 10
421.48
 20
348.67
 30
0.0
 11
419.4799999999999
 21
348.67
 31
0.0
  0
LINE
  5
54F
330
2
100
AcDbEntity
  8
画層1
  6
DASHED2
 62
     0
100
AcDbLine
 10
421.48
 20
342.67
 30
0.0
 11
419.4799999999999
 21
342.67
 31
0.0
  0
LINE
  5
550
330
2
100
AcDbEntity
  8
画層1
  6
DASHED2
 62
     0
100
AcDbLine
 10
421.48
 20
358.17
 30
0.0
 11
419.4799999999999
 21
358.17
 31
0.0
  0
LINE
  5
551
330
2
100
AcDbEntity
  8
画層1
  6
DASHED2
 62
     0
100
AcDbLine
 10
421.48
 20
352.17
 30
0.0
 11
419.4799999999999
 21
352.17
 31
0.0
  0
LINE
  5
552
330
2
100
AcDbEntity
  8
画層1
  6
DASHED2
 62
     0
100
AcDbLine
 10
421.48
 20
361.67
 30
0.0
 11
419.4799999999999
 21
361.67
 31
0.0
  0
ARC
  5
553
330
2
100
AcDbEntity
  8
画層1
  6
DASHED2
 62
     0
100
AcDbCircle
 10
419.4799999999999
 20
347.67
 30
0.0
 40
1.0
100
AcDbArc
 50
90.0
 51
180.0
  0
ARC
  5
554
330
2
100
AcDbEntity
  8
画層1
  6
DASHED2
 62
     0
100
AcDbCircle
 10
419.4799999999999
 20
343.67
 30
0.0
 40
1.0
100
AcDbArc
 50
180.0
 51
270.0
  0
LINE
  5
555
330
2
100
AcDbEntity
  8
画層1
  6
DASHED2
 62
     0
100
AcDbLine
 10
418.48
 20
347.67
 30
0.0
 11
418.48
 21
343.67
 31
0.0
  0
ARC
  5
556
330
2
100
AcDbEntity
  8
画層1
  6
DASHED2
 62
     0
100
AcDbCircle
 10
419.4799999999999
 20
357.17
 30
0.0
 40
1.0
100
AcDbArc
 50
90.0
 51
180.0
  0
ARC
  5
557
330
2
100
AcDbEntity
  8
画層1
  6
DASHED2
 62
     0
100
AcDbCircle
 10
419.4799999999999
 20
353.17
 30
0.0
 40
1.0
100
AcDbArc
 50
180.0
 51
270.0
  0
ARC
  5
558
330
2
100
AcDbEntity
  8
画層1
  6
DASHED2
 62
     0
100
AcDbCircle
 10
419.4799999999999
 20
362.67
 30
0.0
 40
1.0
100
AcDbArc
 50
180.0
 51
270.0
  0
LINE
  5
559
330
2
100
AcDbEntity
  8
画層1
  6
DASHED2
 62
     0
100
AcDbLine
 10
418.48
 20
357.17
 30
0.0
 11
418.48
 21
353.17
 31
0.0
  0
LINE
  5
55A
330
2
100
AcDbEntity
  8
画層1
  6
DASHED2
 62
     0
100
AcDbLine
 10
429.48
 20
352.41
 30
0.0
 11
429.48
 21
348.41
 31
0.0
  0
LINE
  5
55B
330
2
100
AcDbEntity
  8
画層1
  6
DASHED2
 62
     0
100
AcDbLine
 10
432.48
 20
354.41
 30
0.0
 11
432.48
 21
346.41
 31
0.0
  0
LINE
  5
55C
330
2
100
AcDbEntity
  8
画層1
  6
DASHED2
 62
     0
100
AcDbLine
 10
433.68
 20
354.41
 30
0.0
 11
433.68
 21
346.41
 31
0.0
  0
LINE
  5
55D
330
2
100
AcDbEntity
  8
画層1
  6
DASHED2
 62
     0
100
AcDbLine
 10
431.6799999999999
 20
353.41
 30
0.0
 11
431.6799999999999
 21
347.41
 31
0.0
  0
LINE
  5
55E
330
2
100
AcDbEntity
  8
画層1
  6
DASHED2
 62
     0
100
AcDbLine
 10
422.6799999999999
 20
359.17
 30
0.0
 11
422.6799999999999
 21
351.17
 31
0.0
  0
LINE
  5
55F
330
2
100
AcDbEntity
  8
画層1
  6
DASHED2
 62
     0
100
AcDbLine
 10
421.48
 20
359.17
 30
0.0
 11
421.48
 21
351.17
 31
0.0
  0
LINE
  5
560
330
2
100
AcDbEntity
  8
画層1
  6
DASHED2
 62
     0
100
AcDbLine
 10
426.8799999999999
 20
344.91
 30
0.0
 11
433.68
 21
344.91
 31
0.0
  0
LINE
  5
561
330
2
100
AcDbEntity
  8
画層1
  6
DASHED2
 62
     0
100
AcDbLine
 10
433.68
 20
346.41
 30
0.0
 11
426.8799999999999
 21
346.41
 31
0.0
  0
LINE
  5
562
330
2
100
AcDbEntity
  8
画層1
  6
DASHED2
 62
     0
100
AcDbLine
 10
426.8799999999999
 20
346.41
 30
0.0
 11
426.8799999999999
 21
344.91
 31
0.0
  0
LINE
  5
563
330
2
100
AcDbEntity
  8
画層1
  6
DASHED2
 62
     0
100
AcDbLine
 10
420.68
 20
348.67
 30
0.0
 11
420.68
 21
342.67
 31
0.0
  0
LINE
  5
564
330
2
100
AcDbEntity
  8
画層1
  6
DASHED2
 62
     0
100
AcDbLine
 10
422.6799999999999
 20
349.67
 30
0.0
 11
422.6799999999999
 21
341.67
 31
0.0
  0
LINE
  5
565
330
2
100
AcDbEntity
  8
画層1
  6
DASHED2
 62
     0
100
AcDbLine
 10
421.48
 20
349.67
 30
0.0
 11
421.48
 21
341.67
 31
0.0
  0
ARC
  5
566
330
2
100
AcDbEntity
  8
画層1
  6
DASHED2
 62
     0
100
AcDbCircle
 10
430.48
 20
348.41
 30
0.0
 40
1.0
100
AcDbArc
 50
180.0
 51
270.0
  0
LINE
  5
567
330
2
100
AcDbEntity
  8
画層1
  6
DASHED2
 62
     0
100
AcDbLine
 10
432.48
 20
347.41
 30
0.0
 11
430.48
 21
347.41
 31
0.0
  0
LINE
  5
568
330
2
100
AcDbEntity
  8
画層1
  6
DASHED2
 62
     0
100
AcDbLine
 10
432.48
 20
343.91
 30
0.0
 11
430.48
 21
343.91
 31
0.0
  0
ARC
  5
569
330
2
100
AcDbEntity
  8
画層1
  6
DASHED2
 62
     0
100
AcDbCircle
 10
430.48
 20
342.91
 30
0.0
 40
1.0
100
AcDbArc
 50
90.0
 51
180.0
  0
LINE
  5
56A
330
2
100
AcDbEntity
  8
画層1
  6
DASHED2
 62
     0
100
AcDbLine
 10
433.68
 20
355.91
 30
0.0
 11
426.8799999999999
 21
355.91
 31
0.0
  0
LINE
  5
56B
330
2
100
AcDbEntity
  8
画層1
  6
DASHED2
 62
     0
100
AcDbLine
 10
426.8799999999999
 20
354.41
 30
0.0
 11
433.68
 21
354.41
 31
0.0
  0
LINE
  5
56C
330
2
100
AcDbEntity
  8
画層1
  6
DASHED2
 62
     0
100
AcDbLine
 10
426.8799999999999
 20
355.91
 30
0.0
 11
426.8799999999999
 21
354.41
 31
0.0
  0
LINE
  5
56D
330
2
100
AcDbEntity
  8
画層1
  6
DASHED2
 62
     0
100
AcDbLine
 10
420.68
 20
358.17
 30
0.0
 11
420.68
 21
352.17
 31
0.0
  0
LINE
  5
56E
330
2
100
AcDbEntity
  8
画層1
  6
DASHED2
 62
     0
100
AcDbLine
 10
432.48
 20
362.91
 30
0.0
 11
430.48
 21
362.91
 31
0.0
  0
ARC
  5
56F
330
2
100
AcDbEntity
  8
画層1
  6
DASHED2
 62
     0
100
AcDbCircle
 10
430.48
 20
361.91
 30
0.0
 40
1.0
100
AcDbArc
 50
90.0
 51
180.0
  0
LINE
  5
570
330
2
100
AcDbEntity
  8
画層1
  6
DASHED2
 62
     0
100
AcDbLine
 10
432.48
 20
356.91
 30
0.0
 11
430.48
 21
356.91
 31
0.0
  0
ARC
  5
571
330
2
100
AcDbEntity
  8
画層1
  6
DASHED2
 62
     0
100
AcDbCircle
 10
430.48
 20
357.91
 30
0.0
 40
1.0
100
AcDbArc
 50
180.0
 51
270.0
  0
LINE
  5
572
330
2
100
AcDbEntity
  8
画層1
  6
DASHED2
 62
     0
100
AcDbLine
 10
431.6799999999999
 20
362.91
 30
0.0
 11
431.6799999999999
 21
356.91
 31
0.0
  0
LINE
  5
573
330
2
100
AcDbEntity
  8
画層1
  6
DASHED2
 62
     0
100
AcDbLine
 10
429.48
 20
361.91
 30
0.0
 11
429.48
 21
357.91
 31
0.0
  0
ARC
  5
574
330
2
100
AcDbEntity
  8
画層1
  6
DASHED2
 62
     0
100
AcDbCircle
 10
430.48
 20
352.41
 30
0.0
 40
1.0
100
AcDbArc
 50
90.0
 51
180.0
  0
LINE
  5
575
330
2
100
AcDbEntity
  8
画層1
  6
DASHED2
 62
     0
100
AcDbLine
 10
432.48
 20
353.41
 30
0.0
 11
430.48
 21
353.41
 31
0.0
  0
LINE
  5
576
330
2
100
AcDbEntity
  8
画層1
  6
DASHED2
 62
     0
100
AcDbLine
 10
421.48
 20
367.67
 30
0.0
 11
419.4799999999999
 21
367.67
 31
0.0
  0
LINE
  5
577
330
2
100
AcDbEntity
  8
画層1
  6
DASHED2
 62
     0
100
AcDbLine
 10
412.48
 20
368.67
 30
0.0
 11
433.68
 21
368.67
 31
0.0
  0
ARC
  5
578
330
2
100
AcDbEntity
  8
画層1
 62
     0
100
AcDbCircle
 10
412.7399999999999
 20
374.79
 30
0.0
 40
1.25
100
AcDbArc
 50
101.54
 51
258.46
  0
ARC
  5
579
330
2
100
AcDbEntity
  8
画層1
 62
     0
100
AcDbCircle
 10
412.7399999999999
 20
364.79
 30
0.0
 40
1.25
100
AcDbArc
 50
101.54
 51
258.46
  0
LINE
  5
57A
330
2
100
AcDbEntity
  8
画層1
 62
     0
100
AcDbLine
 10
411.38
 20
370.79
 30
0.0
 11
412.48
 21
370.79
 31
0.0
  0
LINE
  5
57B
330
2
100
AcDbEntity
  8
画層1
 62
     0
100
AcDbLine
 10
411.38
 20
368.67
 30
0.0
 11
412.48
 21
368.67
 31
0.0
  0
LINE
  5
57C
330
2
100
AcDbEntity
  8
画層1
 62
     0
100
AcDbLine
 10
411.38
 20
370.79
 30
0.0
 11
411.38
 21
368.67
 31
0.0
  0
ARC
  5
57D
330
2
100
AcDbEntity
  8
画層1
  6
DASHED2
 62
     0
100
AcDbCircle
 10
419.4799999999999
 20
366.67
 30
0.0
 40
1.0
100
AcDbArc
 50
90.0
 51
180.0
  0
LINE
  5
57E
330
2
100
AcDbEntity
  8
画層1
  6
DASHED2
 62
     0
100
AcDbLine
 10
426.8799999999999
 20
363.91
 30
0.0
 11
433.68
 21
363.91
 31
0.0
  0
LINE
  5
57F
330
2
100
AcDbEntity
  8
画層1
  6
DASHED2
 62
     0
100
AcDbLine
 10
433.68
 20
365.41
 30
0.0
 11
426.8799999999999
 21
365.41
 31
0.0
  0
LINE
  5
580
330
2
100
AcDbEntity
  8
画層1
  6
DASHED2
 62
     0
100
AcDbLine
 10
426.8799999999999
 20
368.67
 30
0.0
 11
426.8799999999999
 21
363.91
 31
0.0
  0
LINE
  5
581
330
2
100
AcDbEntity
  8
画層1
  6
DASHED2
 62
     0
100
AcDbLine
 10
433.68
 20
368.67
 30
0.0
 11
433.68
 21
365.41
 31
0.0
  0
LINE
  5
582
330
2
100
AcDbEntity
  8
画層1
 62
     0
100
AcDbLine
 10
499.68
 20
316.79
 30
0.0
 11
499.68
 21
306.79
 31
0.0
  0
LINE
  5
583
330
2
100
AcDbEntity
  8
画層1
 62
     0
100
AcDbLine
 10
452.68
 20
407.29
 30
0.0
 11
413.68
 21
407.29
 31
0.0
  0
LINE
  5
584
330
2
100
AcDbEntity
  8
画層1
 62
     0
100
AcDbLine
 10
452.68
 20
407.29
 30
0.0
 11
413.68
 21
407.29
 31
0.0
  0
LINE
  5
585
330
2
100
AcDbEntity
  8
画層1
 62
     0
100
AcDbLine
 10
412.48
 20
396.29
 30
0.0
 11
452.68
 21
396.29
 31
0.0
  0
LINE
  5
586
330
2
100
AcDbEntity
  8
画層1
 62
     0
100
AcDbLine
 10
413.68
 20
407.79
 30
0.0
 11
413.68
 21
396.29
 31
0.0
  0
LINE
  5
587
330
2
100
AcDbEntity
  8
画層1
 62
     0
100
AcDbLine
 10
412.08
 20
397.99
 30
0.0
 11
411.68
 21
399.19
 31
0.0
  0
LINE
  5
588
330
2
100
AcDbEntity
  8
画層1
 62
     0
100
AcDbLine
 10
412.48
 20
397.99
 30
0.0
 11
412.08
 21
397.99
 31
0.0
  0
LINE
  5
589
330
2
100
AcDbEntity
  8
画層1
 62
     0
100
AcDbLine
 10
411.68
 20
404.3899999999999
 30
0.0
 11
412.08
 21
405.5899999999999
 31
0.0
  0
LINE
  5
58A
330
2
100
AcDbEntity
  8
画層1
 62
     0
100
AcDbLine
 10
411.68
 20
399.19
 30
0.0
 11
410.6799999999999
 21
399.19
 31
0.0
  0
LINE
  5
58B
330
2
100
AcDbEntity
  8
画層1
 62
     0
100
AcDbLine
 10
410.6799999999999
 20
404.3899999999999
 30
0.0
 11
411.68
 21
404.3899999999999
 31
0.0
  0
LINE
  5
58C
330
2
100
AcDbEntity
  8
画層1
 62
     0
100
AcDbLine
 10
410.28
 20
402.19
 30
0.0
 11
410.28
 21
401.3899999999999
 31
0.0
  0
LINE
  5
58D
330
2
100
AcDbEntity
  8
画層1
 62
     0
100
AcDbLine
 10
409.6799999999999
 20
400.19
 30
0.0
 11
409.6799999999999
 21
403.39
 31
0.0
  0
ARC
  5
58E
330
2
100
AcDbEntity
  8
画層1
 62
     0
100
AcDbCircle
 10
410.6799999999999
 20
403.39
 30
0.0
 40
1.0
100
AcDbArc
 50
90.0
 51
180.0
  0
ARC
  5
58F
330
2
100
AcDbEntity
  8
画層1
 62
     0
100
AcDbCircle
 10
410.6799999999999
 20
400.19
 30
0.0
 40
1.0
100
AcDbArc
 50
180.0
 51
270.0
  0
LINE
  5
590
330
2
100
AcDbEntity
  8
画層1
 62
     0
100
AcDbLine
 10
409.6799999999999
 20
402.19
 30
0.0
 11
410.28
 21
402.19
 31
0.0
  0
LINE
  5
591
330
2
100
AcDbEntity
  8
画層1
 62
     0
100
AcDbLine
 10
410.28
 20
401.3899999999999
 30
0.0
 11
409.6799999999999
 21
401.3899999999999
 31
0.0
  0
LINE
  5
592
330
2
100
AcDbEntity
  8
画層1
 62
     0
100
AcDbLine
 10
411.68
 20
399.19
 30
0.0
 11
411.68
 21
404.3899999999999
 31
0.0
  0
LINE
  5
593
330
2
100
AcDbEntity
  8
画層1
 62
     0
100
AcDbLine
 10
412.08
 20
405.5899999999999
 30
0.0
 11
412.48
 21
405.5899999999999
 31
0.0
  0
LINE
  5
594
330
2
100
AcDbEntity
  8
画層1
 62
     0
100
AcDbLine
 10
412.48
 20
407.79
 30
0.0
 11
413.68
 21
407.79
 31
0.0
  0
LINE
  5
595
330
2
100
AcDbEntity
  8
画層1
 62
     0
100
AcDbLine
 10
452.68
 20
395.79
 30
0.0
 11
456.6799999999999
 21
395.79
 31
0.0
  0
LINE
  5
596
330
2
100
AcDbEntity
  8
画層1
 62
     0
100
AcDbLine
 10
451.48
 20
407.29
 30
0.0
 11
451.48
 21
396.29
 31
0.0
  0
LINE
  5
597
330
2
100
AcDbEntity
  8
画層1
 62
     0
100
AcDbLine
 10
452.68
 20
407.79
 30
0.0
 11
452.68
 21
395.79
 31
0.0
  0
LINE
  5
598
330
2
100
AcDbEntity
  8
画層1
 62
     0
100
AcDbLine
 10
449.48
 20
399.83
 30
0.0
 11
449.48
 21
396.29
 31
0.0
  0
LINE
  5
599
330
2
100
AcDbEntity
  8
画層1
 62
     0
100
AcDbLine
 10
449.48
 20
407.29
 30
0.0
 11
449.48
 21
403.7499999999999
 31
0.0
  0
LINE
  5
59A
330
2
100
AcDbEntity
  8
画層1
 62
     0
100
AcDbLine
 10
450.2799999999999
 20
404.79
 30
0.0
 11
450.2799999999999
 21
398.79
 31
0.0
  0
LINE
  5
59B
330
2
100
AcDbEntity
  8
画層1
 62
     0
100
AcDbLine
 10
450.2799999999999
 20
398.79
 30
0.0
 11
451.48
 21
398.79
 31
0.0
  0
LINE
  5
59C
330
2
100
AcDbEntity
  8
画層1
 62
     0
100
AcDbLine
 10
450.2799999999999
 20
404.79
 30
0.0
 11
451.48
 21
404.79
 31
0.0
  0
ARC
  5
59D
330
2
100
AcDbEntity
  8
画層1
 62
     0
100
AcDbCircle
 10
453.1
 20
401.79
 30
0.0
 40
4.111538461538548
100
AcDbArc
 50
133.1399999999999
 51
226.86
  0
LINE
  5
59E
330
2
100
AcDbEntity
  8
画層1
 62
     0
100
AcDbLine
 10
466.98
 20
401.29
 30
0.0
 11
466.68
 21
401.29
 31
0.0
  0
LINE
  5
59F
330
2
100
AcDbEntity
  8
画層1
 62
     0
100
AcDbLine
 10
466.68
 20
402.2899999999999
 30
0.0
 11
466.98
 21
402.2899999999999
 31
0.0
  0
LINE
  5
5A0
330
2
100
AcDbEntity
  8
画層1
 62
     0
100
AcDbLine
 10
466.98
 20
401.29
 30
0.0
 11
466.98
 21
402.2899999999999
 31
0.0
  0
LINE
  5
5A1
330
2
100
AcDbEntity
  8
画層1
 62
     0
100
AcDbLine
 10
463.3799999999999
 20
402.2899999999999
 30
0.0
 11
463.68
 21
402.2899999999999
 31
0.0
  0
LINE
  5
5A2
330
2
100
AcDbEntity
  8
画層1
 62
     0
100
AcDbLine
 10
463.68
 20
401.29
 30
0.0
 11
463.3799999999999
 21
401.29
 31
0.0
  0
LINE
  5
5A3
330
2
100
AcDbEntity
  8
画層1
 62
     0
100
AcDbLine
 10
463.3799999999999
 20
401.29
 30
0.0
 11
463.3799999999999
 21
402.2899999999999
 31
0.0
  0
ARC
  5
5A4
330
2
100
AcDbEntity
  8
画層1
 62
     0
100
AcDbCircle
 10
463.68
 20
400.29
 30
0.0
 40
1.0
100
AcDbArc
 50
0.0
 51
90.0
  0
LINE
  5
5A5
330
2
100
AcDbEntity
  8
画層1
 62
     0
100
AcDbLine
 10
465.68
 20
400.29
 30
0.0
 11
465.68
 21
399.99
 31
0.0
  0
LINE
  5
5A6
330
2
100
AcDbEntity
  8
画層1
 62
     0
100
AcDbLine
 10
464.6799999999999
 20
399.99
 30
0.0
 11
464.6799999999999
 21
400.29
 31
0.0
  0
LINE
  5
5A7
330
2
100
AcDbEntity
  8
画層1
 62
     0
100
AcDbLine
 10
464.6799999999999
 20
399.99
 30
0.0
 11
465.68
 21
399.99
 31
0.0
  0
LINE
  5
5A8
330
2
100
AcDbEntity
  8
画層1
 62
     0
100
AcDbLine
 10
465.68
 20
403.5899999999999
 30
0.0
 11
465.68
 21
403.29
 31
0.0
  0
LINE
  5
5A9
330
2
100
AcDbEntity
  8
画層1
 62
     0
100
AcDbLine
 10
464.6799999999999
 20
403.29
 30
0.0
 11
464.6799999999999
 21
403.5899999999999
 31
0.0
  0
ARC
  5
5AA
330
2
100
AcDbEntity
  8
画層1
 62
     0
100
AcDbCircle
 10
463.68
 20
403.29
 30
0.0
 40
1.0
100
AcDbArc
 50
270.0
 51
0.0
  0
LINE
  5
5AB
330
2
100
AcDbEntity
  8
画層1
 62
     0
100
AcDbLine
 10
464.6799999999999
 20
403.5899999999999
 30
0.0
 11
465.68
 21
403.5899999999999
 31
0.0
  0
ARC
  5
5AC
330
2
100
AcDbEntity
  8
画層1
 62
     0
100
AcDbCircle
 10
466.68
 20
400.29
 30
0.0
 40
1.0
100
AcDbArc
 50
90.0
 51
180.0
  0
ARC
  5
5AD
330
2
100
AcDbEntity
  8
画層1
 62
     0
100
AcDbCircle
 10
466.68
 20
403.29
 30
0.0
 40
1.0
100
AcDbArc
 50
180.0
 51
270.0
  0
CIRCLE
  5
5AE
330
2
100
AcDbEntity
  8
画層1
 62
     0
100
AcDbCircle
 10
465.18
 20
401.79
 30
0.0
 40
3.0
  0
LINE
  5
5AF
330
2
100
AcDbEntity
  8
画層1
 62
     0
100
AcDbLine
 10
509.6799999999999
 20
316.79
 30
0.0
 11
509.6799999999999
 21
306.79
 31
0.0
  0
CIRCLE
  5
5B0
330
2
100
AcDbEntity
  8
画層1
 62
     0
100
AcDbCircle
 10
559.1799999999999
 20
377.79
 30
0.0
 40
4.0
  0
ARC
  5
5B1
330
2
100
AcDbEntity
  8
画層1
 62
     0
100
AcDbCircle
 10
560.6799999999999
 20
379.29
 30
0.0
 40
1.0
100
AcDbArc
 50
180.0
 51
270.0
  0
ARC
  5
5B2
330
2
100
AcDbEntity
  8
画層1
 62
     0
100
AcDbCircle
 10
560.6799999999999
 20
376.29
 30
0.0
 40
1.0
100
AcDbArc
 50
90.0
 51
180.0
  0
LINE
  5
5B3
330
2
100
AcDbEntity
  8
画層1
 62
     0
100
AcDbLine
 10
559.6799999999999
 20
375.79
 30
0.0
 11
558.6799999999999
 21
375.79
 31
0.0
  0
LINE
  5
5B4
330
2
100
AcDbEntity
  8
画層1
 62
     0
100
AcDbLine
 10
558.6799999999999
 20
379.79
 30
0.0
 11
559.6799999999999
 21
379.79
 31
0.0
  0
ARC
  5
5B5
330
2
100
AcDbEntity
  8
画層1
 62
     0
100
AcDbCircle
 10
557.6799999999999
 20
376.29
 30
0.0
 40
1.0
100
AcDbArc
 50
0.0
 51
90.0
  0
ARC
  5
5B6
330
2
100
AcDbEntity
  8
画層1
 62
     0
100
AcDbCircle
 10
557.6799999999999
 20
379.29
 30
0.0
 40
1.0
100
AcDbArc
 50
270.0
 51
0.0
  0
LINE
  5
5B7
330
2
100
AcDbEntity
  8
画層1
 62
     0
100
AcDbLine
 10
557.6799999999999
 20
377.29
 30
0.0
 11
557.1799999999999
 21
377.29
 31
0.0
  0
LINE
  5
5B8
330
2
100
AcDbEntity
  8
画層1
 62
     0
100
AcDbLine
 10
557.1799999999999
 20
378.29
 30
0.0
 11
557.6799999999999
 21
378.29
 31
0.0
  0
LINE
  5
5B9
330
2
100
AcDbEntity
  8
画層1
 62
     0
100
AcDbLine
 10
557.1799999999999
 20
377.29
 30
0.0
 11
557.1799999999999
 21
378.29
 31
0.0
  0
LINE
  5
5BA
330
2
100
AcDbEntity
  8
画層1
 62
     0
100
AcDbLine
 10
558.6799999999999
 20
379.29
 30
0.0
 11
558.6799999999999
 21
379.79
 31
0.0
  0
LINE
  5
5BB
330
2
100
AcDbEntity
  8
画層1
 62
     0
100
AcDbLine
 10
558.6799999999999
 20
375.79
 30
0.0
 11
558.6799999999999
 21
376.29
 31
0.0
  0
LINE
  5
5BC
330
2
100
AcDbEntity
  8
画層1
 62
     0
100
AcDbLine
 10
560.6799999999999
 20
378.29
 30
0.0
 11
561.1799999999999
 21
378.29
 31
0.0
  0
LINE
  5
5BD
330
2
100
AcDbEntity
  8
画層1
 62
     0
100
AcDbLine
 10
559.6799999999999
 20
379.79
 30
0.0
 11
559.6799999999999
 21
379.29
 31
0.0
  0
LINE
  5
5BE
330
2
100
AcDbEntity
  8
画層1
 62
     0
100
AcDbLine
 10
561.1799999999999
 20
377.29
 30
0.0
 11
560.6799999999999
 21
377.29
 31
0.0
  0
LINE
  5
5BF
330
2
100
AcDbEntity
  8
画層1
 62
     0
100
AcDbLine
 10
561.1799999999999
 20
378.29
 30
0.0
 11
561.1799999999999
 21
377.29
 31
0.0
  0
LINE
  5
5C0
330
2
100
AcDbEntity
  8
画層1
 62
     0
100
AcDbLine
 10
559.6799999999999
 20
376.29
 30
0.0
 11
559.6799999999999
 21
375.79
 31
0.0
  0
LINE
  5
5C1
330
2
100
AcDbEntity
  8
画層1
 62
     0
100
AcDbLine
 10
504.68
 20
403.5899999999999
 30
0.0
 11
505.6799999999999
 21
403.5899999999999
 31
0.0
  0
ARC
  5
5C2
330
2
100
AcDbEntity
  8
画層1
 62
     0
100
AcDbCircle
 10
503.68
 20
403.29
 30
0.0
 40
1.0
100
AcDbArc
 50
270.0
 51
0.0
  0
LINE
  5
5C3
330
2
100
AcDbEntity
  8
画層1
 62
     0
100
AcDbLine
 10
504.68
 20
403.29
 30
0.0
 11
504.68
 21
403.5899999999999
 31
0.0
  0
LINE
  5
5C4
330
2
100
AcDbEntity
  8
画層1
 62
     0
100
AcDbLine
 10
505.6799999999999
 20
403.5899999999999
 30
0.0
 11
505.6799999999999
 21
403.29
 31
0.0
  0
LINE
  5
5C5
330
2
100
AcDbEntity
  8
画層1
 62
     0
100
AcDbLine
 10
506.9799999999999
 20
401.29
 30
0.0
 11
506.9799999999999
 21
402.2899999999999
 31
0.0
  0
LINE
  5
5C6
330
2
100
AcDbEntity
  8
画層1
 62
     0
100
AcDbLine
 10
506.6799999999999
 20
402.2899999999999
 30
0.0
 11
506.9799999999999
 21
402.2899999999999
 31
0.0
  0
LINE
  5
5C7
330
2
100
AcDbEntity
  8
画層1
 62
     0
100
AcDbLine
 10
506.9799999999999
 20
401.29
 30
0.0
 11
506.6799999999999
 21
401.29
 31
0.0
  0
ARC
  5
5C8
330
2
100
AcDbEntity
  8
画層1
 62
     0
100
AcDbCircle
 10
506.6799999999999
 20
403.29
 30
0.0
 40
1.0
100
AcDbArc
 50
180.0
 51
270.0
  0
LINE
  5
5C9
330
2
100
AcDbEntity
  8
画層1
 62
     0
100
AcDbLine
 10
504.68
 20
399.99
 30
0.0
 11
505.6799999999999
 21
399.99
 31
0.0
  0
LINE
  5
5CA
330
2
100
AcDbEntity
  8
画層1
 62
     0
100
AcDbLine
 10
504.68
 20
399.99
 30
0.0
 11
504.68
 21
400.29
 31
0.0
  0
LINE
  5
5CB
330
2
100
AcDbEntity
  8
画層1
 62
     0
100
AcDbLine
 10
505.6799999999999
 20
400.29
 30
0.0
 11
505.6799999999999
 21
399.99
 31
0.0
  0
ARC
  5
5CC
330
2
100
AcDbEntity
  8
画層1
 62
     0
100
AcDbCircle
 10
506.6799999999999
 20
400.29
 30
0.0
 40
1.0
100
AcDbArc
 50
90.0
 51
180.0
  0
ARC
  5
5CD
330
2
100
AcDbEntity
  8
画層1
 62
     0
100
AcDbCircle
 10
503.68
 20
400.29
 30
0.0
 40
1.0
100
AcDbArc
 50
0.0
 51
90.0
  0
LINE
  5
5CE
330
2
100
AcDbEntity
  8
画層1
 62
     0
100
AcDbLine
 10
503.38
 20
401.29
 30
0.0
 11
503.38
 21
402.2899999999999
 31
0.0
  0
CIRCLE
  5
5CF
330
2
100
AcDbEntity
  8
画層1
 62
     0
100
AcDbCircle
 10
505.18
 20
401.79
 30
0.0
 40
3.0
  0
LINE
  5
5D0
330
2
100
AcDbEntity
  8
画層1
 62
     0
100
AcDbLine
 10
503.68
 20
401.29
 30
0.0
 11
503.38
 21
401.29
 31
0.0
  0
LINE
  5
5D1
330
2
100
AcDbEntity
  8
画層1
 62
     0
100
AcDbLine
 10
503.38
 20
402.2899999999999
 30
0.0
 11
503.68
 21
402.2899999999999
 31
0.0
  0
LINE
  5
5D2
330
2
100
AcDbEntity
  8
画層1
 62
     0
100
AcDbLine
 10
633.08
 20
407.79
 30
0.0
 11
633.08
 21
417.79
 31
0.0
  0
MTEXT
  5
5D8
330
2
100
AcDbEntity
  8
画層1
 62
     0
100
AcDbMText
 10
253.27
 20
109.48
 30
0.0
 40
5.0
 41
198.5
 71
     1
 72
     5
  1
PAC27 80A,100A   質量　約4.4kg
  7
STYLE1
 73
     1
 44
1.0
  0
ENDSEC
  0
SECTION
  2
OBJECTS
  0
DICTIONARY
  5
7
330
0
100
AcDbDictionary
281
     1
  3
ACAD_GROUP
350
26
  3
ACAD_LAYOUT
350
B
  3
ACAD_MLINESTYLE
350
27
  3
ACAD_PLOTSETTINGS
350
28
  3
ACAD_PLOTSTYLENAME
350
6
  3
AcDbVariableDictionary
350
8B4
  3
DWGPROPS
350
9AD
  0
DICTIONARY
  5
26
102
{ACAD_REACTORS
330
7
102
}
330
7
100
AcDbDictionary
281
     1
  0
DICTIONARY
  5
B
102
{ACAD_REACTORS
330
7
102
}
330
7
100
AcDbDictionary
281
     1
  3
Model
350
A
  3
ﾚｲｱｳﾄ1
350
F
  0
DICTIONARY
  5
27
102
{ACAD_REACTORS
330
7
102
}
330
7
100
AcDbDictionary
281
     1
  3
STANDARD
350
31
  0
DICTIONARY
  5
28
102
{ACAD_REACTORS
330
7
102
}
330
7
100
AcDbDictionary
281
     1
  0
ACDBDICTIONARYWDFLT
  5
6
102
{ACAD_REACTORS
330
7
102
}
330
7
100
AcDbDictionary
281
     1
  3
Normal
350
5
100
AcDbDictionaryWithDefault
340
5
  0
DICTIONARY
  5
8B4
102
{ACAD_REACTORS
330
7
102
}
330
7
100
AcDbDictionary
281
     1
  3
INDEXCTL
350
8B5
  0
XRECORD
  5
9AD
102
{ACAD_REACTORS
330
7
102
}
330
7
100
AcDbXrecord
280
     1
  1
DWGPROPS COOKIE
  2

  3

  4

  6

  7

  8

  9

300
=
301
=
302
=
303
=
304
=
305
=
306
=
307
=
308
=
309
=
 40
4.330013194444444
 41
2450995.462150231
 42
2451964.721902778
  1

 90
        0
  0
LAYOUT
  5
A
102
{ACAD_REACTORS
330
B
102
}
330
B
100
AcDbPlotSettings
  1

  2
Canon LBP-740
  4
A3
  6

 40
5.87
 41
6.04
 42
5.87
 43
5.87
 44
296.93
 45
420.12
 46
0.0
 47
0.0
 48
0.0
 49
0.0
140
0.0
141
0.0
142
1.0
143
1.0
 70
 11952
 72
     1
 73
     1
 74
     1
  7
SHIMADEN.ctb
 75
    16
147
1.0
148
0.02
149
0.0
100
AcDbLayout
  1
Model
 70
     1
 71
     0
 10
0.0
 20
0.0
 11
12.0
 21
9.0
 12
0.0
 22
0.0
 32
0.0
 14
0.0
 24
0.0
 34
0.0
 15
0.0
 25
0.0
 35
0.0
146
0.0
 13
0.0
 23
0.0
 33
0.0
 16
1.0
 26
0.0
 36
0.0
 17
0.0
 27
1.0
 37
0.0
 76
     0
330
2
  0
LAYOUT
  5
F
102
{ACAD_REACTORS
330
B
102
}
330
B
100
AcDbPlotSettings
  1

  2
Canon LASER SHOT LBP-740
  4

  6

 40
0.0
 41
0.0
 42
0.0
 43
0.0
 44
0.0
 45
0.0
 46
0.0
 47
0.0
 48
0.0
 49
0.0
140
0.0
141
0.0
142
1.0
143
1.0
 70
   688
 72
     0
 73
     0
 74
     5
  7
SHIMADEN.ctb
 75
    16
147
1.0
148
0.0
149
0.0
100
AcDbLayout
  1
ﾚｲｱｳﾄ1
 70
     1
 71
     1
 10
0.0
 20
0.0
 11
420.0
 21
297.0
 12
0.0
 22
0.0
 32
0.0
 14
1.000000000000000E+20
 24
1.000000000000000E+20
 34
1.000000000000000E+20
 15
-1.000000000000000E+20
 25
-1.000000000000000E+20
 35
-1.000000000000000E+20
146
0.0
 13
0.0
 23
0.0
 33
0.0
 16
1.0
 26
0.0
 36
0.0
 17
0.0
 27
1.0
 37
0.0
 76
     0
330
C
  0
MLINESTYLE
  5
31
102
{ACAD_REACTORS
330
27
102
}
330
27
100
AcDbMlineStyle
  2
STANDARD
 70
     0
  3

 62
   256
 51
90.0
 52
90.0
 71
     2
 49
0.5
 62
   256
  6
BYLAYER
 49
-0.5
 62
   256
  6
BYLAYER
  0
ACDBPLACEHOLDER
  5
5
102
{ACAD_REACTORS
330
6
102
}
330
6
  0
DICTIONARYVAR
  5
8B5
102
{ACAD_REACTORS
330
8B4
102
}
330
8B4
100
DictionaryVariables
280
     0
  1
-1
  0
ENDSEC
  0
EOF
