  0
SECTION
  2
HEADER
  9
$ACADVER
  1
AC1015
  9
$ACADMAINTVER
 70
     6
  9
$DWGCODEPAGE
  3
ANSI_932
  9
$INSBASE
 10
0.0
 20
0.0
 30
0.0
  9
$EXTMIN
 10
60.26
 20
169.5271065989847
 30
0.0
  9
$EXTMAX
 10
539.35
 20
470.2418781725888
 30
0.0
  9
$LIMMIN
 10
0.0
 20
0.0
  9
$LIMMAX
 10
420.0
 20
297.0
  9
$ORTHOMODE
 70
     0
  9
$REGENMODE
 70
     1
  9
$FILLMODE
 70
     1
  9
$QTEXTMODE
 70
     0
  9
$MIRRTEXT
 70
     1
  9
$LTSCALE
 40
0.2
  9
$ATTMODE
 70
     1
  9
$TEXTSIZE
 40
2.5
  9
$TRACEWID
 40
1.0
  9
$TEXTSTYLE
  7
STYLE1
  9
$CLAYER
  8
画層1
  9
$CELTYPE
  6
BYLAYER
  9
$CECOLOR
 62
     3
  9
$CELTSCALE
 40
1.0
  9
$DISPSILH
 70
     0
  9
$DIMSCALE
 40
1.0
  9
$DIMASZ
 40
1.5
  9
$DIMEXO
 40
0.63
  9
$DIMDLI
 40
3.75
  9
$DIMRND
 40
0.0
  9
$DIMDLE
 40
0.0
  9
$DIMEXE
 40
1.25
  9
$DIMTP
 40
0.6
  9
$DIMTM
 40
0.0
  9
$DIMTXT
 40
2.5
  9
$DIMCEN
 40
2.5
  9
$DIMTSZ
 40
0.0
  9
$DIMTOL
 70
     0
  9
$DIMLIM
 70
     0
  9
$DIMTIH
 70
     0
  9
$DIMTOH
 70
     0
  9
$DIMSE1
 70
     0
  9
$DIMSE2
 70
     0
  9
$DIMTAD
 70
     1
  9
$DIMZIN
 70
     8
  9
$DIMBLK
  1
OPEN30
  9
$DIMASO
 70
     1
  9
$DIMSHO
 70
     1
  9
$DIMPOST
  1

  9
$DIMAPOST
  1

  9
$DIMALT
 70
     0
  9
$DIMALTD
 70
     4
  9
$DIMALTF
 40
0.04
  9
$DIMLFAC
 40
2.0
  9
$DIMTOFL
 70
     1
  9
$DIMTVP
 40
0.0
  9
$DIMTIX
 70
     0
  9
$DIMSOXD
 70
     0
  9
$DIMSAH
 70
     0
  9
$DIMBLK1
  1
OPEN30
  9
$DIMBLK2
  1
OPEN
  9
$DIMSTYLE
  2
STANDARD_WS
  9
$DIMCLRD
 70
     0
  9
$DIMCLRE
 70
     0
  9
$DIMCLRT
 70
     0
  9
$DIMTFAC
 40
0.5
  9
$DIMGAP
 40
0.63
  9
$DIMJUST
 70
     0
  9
$DIMSD1
 70
     0
  9
$DIMSD2
 70
     0
  9
$DIMTOLJ
 70
     1
  9
$DIMTZIN
 70
     8
  9
$DIMALTZ
 70
     0
  9
$DIMALTTZ
 70
     0
  9
$DIMUPT
 70
     0
  9
$DIMDEC
 70
     4
  9
$DIMTDEC
 70
     4
  9
$DIMALTU
 70
     8
  9
$DIMALTTD
 70
     4
  9
$DIMTXSTY
  7
STYLE1
  9
$DIMAUNIT
 70
     0
  9
$DIMADEC
 70
     0
  9
$DIMALTRND
 40
0.0
  9
$DIMAZIN
 70
     0
  9
$DIMDSEP
 70
    46
  9
$DIMATFIT
 70
     3
  9
$DIMFRAC
 70
     0
  9
$DIMLDRBLK
  1
OPEN30
  9
$DIMLUNIT
 70
     2
  9
$DIMLWD
 70
    -2
  9
$DIMLWE
 70
    -2
  9
$DIMTMOVE
 70
     0
  9
$LUNITS
 70
     2
  9
$LUPREC
 70
     4
  9
$SKETCHINC
 40
1.0
  9
$FILLETRAD
 40
1.0
  9
$AUNITS
 70
     0
  9
$AUPREC
 70
     0
  9
$MENU
  1
acad
  9
$ELEVATION
 40
0.0
  9
$PELEVATION
 40
0.0
  9
$THICKNESS
 40
0.0
  9
$LIMCHECK
 70
     0
  9
$CHAMFERA
 40
10.0
  9
$CHAMFERB
 40
10.0
  9
$CHAMFERC
 40
20.0
  9
$CHAMFERD
 40
0.0
  9
$SKPOLY
 70
     0
  9
$TDCREATE
 40
2450995.462150231
  9
$TDUCREATE
 40
2450995.087150231
  9
$TDUPDATE
 40
2451964.720784491
  9
$TDUUPDATE
 40
2451964.345784491
  9
$TDINDWG
 40
4.1604861111
  9
$TDUSRTIMER
 40
4.1604828704
  9
$USRTIMER
 70
     1
  9
$ANGBASE
 50
0.0
  9
$ANGDIR
 70
     0
  9
$PDMODE
 70
     0
  9
$PDSIZE
 40
0.0
  9
$PLINEWID
 40
0.6
  9
$SPLFRAME
 70
     0
  9
$SPLINETYPE
 70
     6
  9
$SPLINESEGS
 70
     8
  9
$HANDSEED
  5
796
  9
$SURFTAB1
 70
     6
  9
$SURFTAB2
 70
     6
  9
$SURFTYPE
 70
     6
  9
$SURFU
 70
     6
  9
$SURFV
 70
     6
  9
$UCSBASE
  2

  9
$UCSNAME
  2

  9
$UCSORG
 10
0.0
 20
0.0
 30
0.0
  9
$UCSXDIR
 10
1.0
 20
0.0
 30
0.0
  9
$UCSYDIR
 10
0.0
 20
1.0
 30
0.0
  9
$UCSORTHOREF
  2

  9
$UCSORTHOVIEW
 70
     0
  9
$UCSORGTOP
 10
0.0
 20
0.0
 30
0.0
  9
$UCSORGBOTTOM
 10
0.0
 20
0.0
 30
0.0
  9
$UCSORGLEFT
 10
0.0
 20
0.0
 30
0.0
  9
$UCSORGRIGHT
 10
0.0
 20
0.0
 30
0.0
  9
$UCSORGFRONT
 10
0.0
 20
0.0
 30
0.0
  9
$UCSORGBACK
 10
0.0
 20
0.0
 30
0.0
  9
$PUCSBASE
  2

  9
$PUCSNAME
  2

  9
$PUCSORG
 10
0.0
 20
0.0
 30
0.0
  9
$PUCSXDIR
 10
1.0
 20
0.0
 30
0.0
  9
$PUCSYDIR
 10
0.0
 20
1.0
 30
0.0
  9
$PUCSORTHOREF
  2

  9
$PUCSORTHOVIEW
 70
     0
  9
$PUCSORGTOP
 10
0.0
 20
0.0
 30
0.0
  9
$PUCSORGBOTTOM
 10
0.0
 20
0.0
 30
0.0
  9
$PUCSORGLEFT
 10
0.0
 20
0.0
 30
0.0
  9
$PUCSORGRIGHT
 10
0.0
 20
0.0
 30
0.0
  9
$PUCSORGFRONT
 10
0.0
 20
0.0
 30
0.0
  9
$PUCSORGBACK
 10
0.0
 20
0.0
 30
0.0
  9
$USERI1
 70
     0
  9
$USERI2
 70
     0
  9
$USERI3
 70
     0
  9
$USERI4
 70
     0
  9
$USERI5
 70
     0
  9
$USERR1
 40
0.0
  9
$USERR2
 40
0.0
  9
$USERR3
 40
0.0
  9
$USERR4
 40
0.0
  9
$USERR5
 40
0.0
  9
$WORLDVIEW
 70
     1
  9
$SHADEDGE
 70
     3
  9
$SHADEDIF
 70
    70
  9
$TILEMODE
 70
     1
  9
$MAXACTVP
 70
    48
  9
$PINSBASE
 10
0.0
 20
0.0
 30
0.0
  9
$PLIMCHECK
 70
     0
  9
$PEXTMIN
 10
1.000000000000000E+20
 20
1.000000000000000E+20
 30
1.000000000000000E+20
  9
$PEXTMAX
 10
-1.000000000000000E+20
 20
-1.000000000000000E+20
 30
-1.000000000000000E+20
  9
$PLIMMIN
 10
0.0
 20
0.0
  9
$PLIMMAX
 10
420.0
 20
297.0
  9
$UNITMODE
 70
     0
  9
$VISRETAIN
 70
     1
  9
$PLINEGEN
 70
     0
  9
$PSLTSCALE
 70
     1
  9
$TREEDEPTH
 70
  3020
  9
$CMLSTYLE
  2
STANDARD
  9
$CMLJUST
 70
     0
  9
$CMLSCALE
 40
20.0
  9
$PROXYGRAPHICS
 70
     1
  9
$MEASUREMENT
 70
     1
  9
$CELWEIGHT
370
    -1
  9
$ENDCAPS
280
     0
  9
$JOINSTYLE
280
     0
  9
$LWDISPLAY
290
     0
  9
$INSUNITS
 70
     0
  9
$HYPERLINKBASE
  1

  9
$STYLESHEET
  1

  9
$XEDIT
290
     1
  9
$CEPSNTYPE
380
     0
  9
$PSTYLEMODE
290
     1
  9
$FINGERPRINTGUID
  2
{12426522-B208-11D3-A790-004026173390}
  9
$VERSIONGUID
  2
{45B34147-09AF-11D5-8D55-0060949B1DAC}
  9
$EXTNAMES
290
     1
  9
$PSVPSCALE
 40
0.0
  9
$OLESTARTUP
290
     0
  0
ENDSEC
  0
SECTION
  2
CLASSES
  0
CLASS
  1
DICTIONARYVAR
  2
AcDbDictionaryVar
  3
AutoCAD 2000
 90
        0
280
     0
281
     0
  0
CLASS
  1
LWPOLYLINE
  2
AcDbPolyline
  3
AutoCAD 2000
 90
    32768
280
     0
281
     1
  0
CLASS
  1
OLE2FRAME
  2
AcDbOle2Frame
  3
AutoCAD 2000
 90
    32768
280
     0
281
     1
  0
CLASS
  1
HATCH
  2
AcDbHatch
  3
AutoCAD 2000
 90
    32768
280
     0
281
     1
  0
CLASS
  1
ACDBDICTIONARYWDFLT
  2
AcDbDictionaryWithDefault
  3
AutoCAD 2000
 90
        0
280
     0
281
     0
  0
CLASS
  1
ACDBPLACEHOLDER
  2
AcDbPlaceHolder
  3
AutoCAD 2000
 90
        0
280
     0
281
     0
  0
CLASS
  1
LAYOUT
  2
AcDbLayout
  3
AutoCAD 2000
 90
        0
280
     0
281
     0
  0
ENDSEC
  0
SECTION
  2
TABLES
  0
TABLE
  2
VPORT
  5
1A
330
0
100
AcDbSymbolTable
 70
     2
  0
VPORT
  5
795
330
1A
100
AcDbSymbolTableRecord
100
AcDbViewportTableRecord
  2
*Active
 70
     0
 10
0.0
 20
0.0
 11
1.0
 21
1.0
 12
283.2699999999999
 22
361.2147758842443
 13
0.0
 23
0.0
 14
1.0
 24
1.0
 15
2.0
 25
2.0
 16
0.0
 26
0.0
 36
1.0
 17
0.0
 27
0.0
 37
0.0
 40
333.8795517684886
 41
1.840236686390532
 42
50.0
 43
0.0
 44
0.0
 50
0.0
 51
0.0
 71
     0
 72
   100
 73
     1
 74
     1
 75
     0
 76
     0
 77
     0
 78
     0
281
     0
 65
     1
110
0.0
120
0.0
130
0.0
111
1.0
121
0.0
131
0.0
112
0.0
122
1.0
132
0.0
 79
     0
146
0.0
  0
ENDTAB
  0
TABLE
  2
LTYPE
  5
15
330
0
100
AcDbSymbolTable
 70
     3
  0
LTYPE
  5
16
330
15
100
AcDbSymbolTableRecord
100
AcDbLinetypeTableRecord
  2
BYBLOCK
 70
     0
  3

 72
    65
 73
     0
 40
0.0
  0
LTYPE
  5
17
330
15
100
AcDbSymbolTableRecord
100
AcDbLinetypeTableRecord
  2
BYLAYER
 70
     0
  3

 72
    65
 73
     0
 40
0.0
  0
LTYPE
  5
8
330
15
100
AcDbSymbolTableRecord
100
AcDbLinetypeTableRecord
  2
CONTINUOUS
 70
     0
  3
Solid line
 72
    65
 73
     0
 40
0.0
  0
LTYPE
  5
88
330
15
100
AcDbSymbolTableRecord
100
AcDbLinetypeTableRecord
  2
DASHED2
 70
     0
  3
Dashed (.5x) _ _ _ _ _ _ _ _ _ _ _ _ _ _ _ _ _
 72
    65
 73
     2
 40
9.519999999999999
 49
6.349999999999999
 74
     0
 49
-3.18
 74
     0
  0
LTYPE
  5
34
330
15
100
AcDbSymbolTableRecord
100
AcDbLinetypeTableRecord
  2
CENTER
 70
     0
  3
Center ____ _ ____ _ ____ _ ____ _ ____ _ ____
 72
    65
 73
     4
 40
50.8
 49
31.75
 74
     0
 49
-6.349999999999999
 74
     0
 49
6.349999999999999
 74
     0
 49
-6.349999999999999
 74
     0
  0
ENDTAB
  0
TABLE
  2
LAYER
  5
10
330
0
100
AcDbSymbolTable
 70
     3
  0
LAYER
  5
4
330
10
100
AcDbSymbolTableRecord
100
AcDbLayerTableRecord
  2
0
 70
     0
 62
     7
  6
CONTINUOUS
370
    -3
390
5
  0
LAYER
  5
3E
330
10
100
AcDbSymbolTableRecord
100
AcDbLayerTableRecord
  2
DEFPOINTS
 70
     0
 62
     7
  6
CONTINUOUS
290
     0
370
    -3
390
5
  0
LAYER
  5
29
330
10
100
AcDbSymbolTableRecord
100
AcDbLayerTableRecord
  2
画層1
 70
     0
 62
     7
  6
CONTINUOUS
370
    -3
390
5
  0
ENDTAB
  0
TABLE
  2
STYLE
  5
11
330
0
100
AcDbSymbolTable
 70
     2
  0
STYLE
  5
12
330
11
100
AcDbSymbolTableRecord
100
AcDbTextStyleTableRecord
  2
STANDARD
 70
     0
 40
2.5
 41
1.0
 50
0.0
 71
     0
 42
1.5
  3
MS PMincho.ttf
  4

1001
ACAD
1000
MS PMincho
1071
    32786
  0
STYLE
  5
2A
330
11
100
AcDbSymbolTableRecord
100
AcDbTextStyleTableRecord
  2
STYLE1
 70
     0
 40
2.5
 41
1.0
 50
0.0
 71
     0
 42
2.5
  3
MS Gothic.ttf
  4

1001
ACAD
1000
MS Gothic
1071
    32817
  0
ENDTAB
  0
TABLE
  2
VIEW
  5
18
330
0
100
AcDbSymbolTable
 70
     0
  0
ENDTAB
  0
TABLE
  2
UCS
  5
19
330
0
100
AcDbSymbolTable
 70
     0
  0
ENDTAB
  0
TABLE
  2
APPID
  5
1C
330
0
100
AcDbSymbolTable
 70
     1
  0
APPID
  5
13
330
1C
100
AcDbSymbolTableRecord
100
AcDbRegAppTableRecord
  2
ACAD
 70
     0
  0
ENDTAB
  0
TABLE
  2
DIMSTYLE
  5
1D
330
0
100
AcDbSymbolTable
 70
     1
100
AcDbDimStyleTable
 71
     1
340
1E
  0
DIMSTYLE
105
1E
102
{ACAD_REACTORS
330
1A8
330
30E
330
2F8
330
50
330
99
330
1C0
330
43
330
16F
330
78
330
35
330
199
330
69
330
15B
330
407
330
3FA
330
415
330
375
102
}
330
1D
100
AcDbSymbolTableRecord
100
AcDbDimStyleTableRecord
  2
STANDARD_WS
 70
     0
 41
1.5
 42
0.63
 43
3.75
 44
1.25
 73
     0
 74
     0
 77
     1
 78
     8
140
2.5
141
2.5
143
0.04
147
0.63
171
     4
172
     1
173
     1
273
     8
274
     4
340
12
341
1F
343
1F
344
1F
  0
ENDTAB
  0
TABLE
  2
BLOCK_RECORD
  5
1
330
0
100
AcDbSymbolTable
 70
    37
  0
BLOCK_RECORD
  5
2
330
1
100
AcDbSymbolTableRecord
100
AcDbBlockTableRecord
  2
*MODEL_SPACE
340
A
  0
BLOCK_RECORD
  5
C
330
1
100
AcDbSymbolTableRecord
100
AcDbBlockTableRecord
  2
*PAPER_SPACE
340
F
  0
BLOCK_RECORD
  5
1F
330
1
100
AcDbSymbolTableRecord
100
AcDbBlockTableRecord
  2
_OPEN
340
0
  0
BLOCK_RECORD
  5
2B
330
1
100
AcDbSymbolTableRecord
100
AcDbBlockTableRecord
  2
_OPEN30
340
0
102
{BLKREFS
331
1AD
331
1AE
331
315
331
316
331
2FD
331
2FE
331
55
331
56
331
9E
331
9F
331
1C7
331
1C8
331
48
331
49
331
174
331
175
331
7F
331
80
331
3A
331
3B
331
1A0
331
1A1
331
70
331
71
331
160
331
161
331
40C
331
40D
331
3FF
331
400
331
41A
331
41B
331
37A
331
37B
331
526
331
527
331
532
331
533
331
53E
331
53F
331
54A
331
54B
331
557
331
558
331
563
331
564
331
56F
331
570
331
57B
331
57C
331
587
331
588
331
593
331
594
331
59F
331
5A0
331
5AB
331
5AC
331
5B7
331
5B8
331
5C3
331
5C4
331
5CF
331
5D0
331
5DB
331
5DC
331
5E7
331
5E8
331
5F2
331
5F3
331
5FB
331
5FC
331
604
331
605
331
60D
331
60E
331
616
331
617
331
61F
331
620
331
628
331
629
331
631
331
632
331
63A
331
63B
331
643
331
644
331
64C
331
64D
331
655
331
656
331
65E
331
65F
331
667
331
668
331
670
331
671
331
679
331
67A
331
682
331
683
331
68C
331
68D
331
695
331
696
331
69E
331
69F
331
6A7
331
6A8
331
6B0
331
6B1
331
6B9
331
6BA
331
6C2
331
6C3
331
6D4
331
6D5
331
6DD
331
6DE
331
6E6
331
6E7
331
6FD
331
6FE
331
706
331
707
331
70F
331
710
331
718
331
719
331
721
331
722
331
72B
331
72C
331
734
331
735
331
73D
331
73E
331
746
331
747
331
74F
331
750
331
758
331
759
331
761
331
762
331
76A
331
76B
331
773
331
774
331
77C
331
77D
331
785
331
786
331
78E
331
78F
102
}
  0
BLOCK_RECORD
  5
94
330
1
100
AcDbSymbolTableRecord
100
AcDbBlockTableRecord
  2
_DotSmall
340
0
  0
BLOCK_RECORD
  5
1A9
330
1
100
AcDbSymbolTableRecord
100
AcDbBlockTableRecord
  2
*D3
340
0
  0
BLOCK_RECORD
  5
30F
330
1
100
AcDbSymbolTableRecord
100
AcDbBlockTableRecord
  2
*D4
340
0
  0
BLOCK_RECORD
  5
2F9
330
1
100
AcDbSymbolTableRecord
100
AcDbBlockTableRecord
  2
*D5
340
0
  0
BLOCK_RECORD
  5
51
330
1
100
AcDbSymbolTableRecord
100
AcDbBlockTableRecord
  2
*D6
340
0
  0
BLOCK_RECORD
  5
9A
330
1
100
AcDbSymbolTableRecord
100
AcDbBlockTableRecord
  2
*D7
340
0
  0
BLOCK_RECORD
  5
1C1
330
1
100
AcDbSymbolTableRecord
100
AcDbBlockTableRecord
  2
*D8
340
0
  0
BLOCK_RECORD
  5
44
330
1
100
AcDbSymbolTableRecord
100
AcDbBlockTableRecord
  2
*D9
340
0
  0
BLOCK_RECORD
  5
170
330
1
100
AcDbSymbolTableRecord
100
AcDbBlockTableRecord
  2
*D10
340
0
  0
BLOCK_RECORD
  5
79
330
1
100
AcDbSymbolTableRecord
100
AcDbBlockTableRecord
  2
*D11
340
0
  0
BLOCK_RECORD
  5
36
330
1
100
AcDbSymbolTableRecord
100
AcDbBlockTableRecord
  2
*D12
340
0
  0
BLOCK_RECORD
  5
19A
330
1
100
AcDbSymbolTableRecord
100
AcDbBlockTableRecord
  2
*D13
340
0
  0
BLOCK_RECORD
  5
6A
330
1
100
AcDbSymbolTableRecord
100
AcDbBlockTableRecord
  2
*D14
340
0
  0
BLOCK_RECORD
  5
15C
330
1
100
AcDbSymbolTableRecord
100
AcDbBlockTableRecord
  2
*D15
340
0
  0
BLOCK_RECORD
  5
408
330
1
100
AcDbSymbolTableRecord
100
AcDbBlockTableRecord
  2
*D16
340
0
  0
BLOCK_RECORD
  5
3FB
330
1
100
AcDbSymbolTableRecord
100
AcDbBlockTableRecord
  2
*D17
340
0
  0
BLOCK_RECORD
  5
416
330
1
100
AcDbSymbolTableRecord
100
AcDbBlockTableRecord
  2
*D18
340
0
  0
BLOCK_RECORD
  5
376
330
1
100
AcDbSymbolTableRecord
100
AcDbBlockTableRecord
  2
*D19
340
0
  0
BLOCK_RECORD
  5
522
330
1
100
AcDbSymbolTableRecord
100
AcDbBlockTableRecord
  2
*D20
340
0
  0
BLOCK_RECORD
  5
52E
330
1
100
AcDbSymbolTableRecord
100
AcDbBlockTableRecord
  2
*D21
340
0
  0
BLOCK_RECORD
  5
53A
330
1
100
AcDbSymbolTableRecord
100
AcDbBlockTableRecord
  2
*D22
340
0
  0
BLOCK_RECORD
  5
546
330
1
100
AcDbSymbolTableRecord
100
AcDbBlockTableRecord
  2
*D23
340
0
  0
BLOCK_RECORD
  5
552
330
1
100
AcDbSymbolTableRecord
100
AcDbBlockTableRecord
  2
*D24
340
0
  0
BLOCK_RECORD
  5
55F
330
1
100
AcDbSymbolTableRecord
100
AcDbBlockTableRecord
  2
*D25
340
0
  0
BLOCK_RECORD
  5
56B
330
1
100
AcDbSymbolTableRecord
100
AcDbBlockTableRecord
  2
*D26
340
0
  0
BLOCK_RECORD
  5
577
330
1
100
AcDbSymbolTableRecord
100
AcDbBlockTableRecord
  2
*D27
340
0
  0
BLOCK_RECORD
  5
583
330
1
100
AcDbSymbolTableRecord
100
AcDbBlockTableRecord
  2
*D28
340
0
  0
BLOCK_RECORD
  5
58F
330
1
100
AcDbSymbolTableRecord
100
AcDbBlockTableRecord
  2
*D29
340
0
  0
BLOCK_RECORD
  5
59B
330
1
100
AcDbSymbolTableRecord
100
AcDbBlockTableRecord
  2
*D30
340
0
  0
BLOCK_RECORD
  5
5A7
330
1
100
AcDbSymbolTableRecord
100
AcDbBlockTableRecord
  2
*D31
340
0
  0
BLOCK_RECORD
  5
5B3
330
1
100
AcDbSymbolTableRecord
100
AcDbBlockTableRecord
  2
*D32
340
0
  0
BLOCK_RECORD
  5
5BF
330
1
100
AcDbSymbolTableRecord
100
AcDbBlockTableRecord
  2
*D33
340
0
  0
BLOCK_RECORD
  5
5CB
330
1
100
AcDbSymbolTableRecord
100
AcDbBlockTableRecord
  2
*D34
340
0
  0
BLOCK_RECORD
  5
5D7
330
1
100
AcDbSymbolTableRecord
100
AcDbBlockTableRecord
  2
*D35
340
0
  0
BLOCK_RECORD
  5
5E3
330
1
100
AcDbSymbolTableRecord
100
AcDbBlockTableRecord
  2
*D36
340
0
  0
ENDTAB
  0
ENDSEC
  0
SECTION
  2
BLOCKS
  0
BLOCK
  5
3
330
2
100
AcDbEntity
  8
0
100
AcDbBlockBegin
  2
*MODEL_SPACE
 70
     0
 10
0.0
 20
0.0
 30
0.0
  3
*MODEL_SPACE
  1

  0
ENDBLK
  5
9
330
2
100
AcDbEntity
  8
0
100
AcDbBlockEnd
  0
BLOCK
  5
D
330
C
100
AcDbEntity
 67
     1
  8
0
100
AcDbBlockBegin
  2
*PAPER_SPACE
 70
     0
 10
0.0
 20
0.0
 30
0.0
  3
*PAPER_SPACE
  1

  0
ENDBLK
  5
E
330
C
100
AcDbEntity
 67
     1
  8
0
100
AcDbBlockEnd
  0
BLOCK
  5
23
330
1F
100
AcDbEntity
  8
0
100
AcDbBlockBegin
  2
_OPEN
 70
     0
 10
0.0
 20
0.0
 30
0.0
  3
_OPEN
  1

  0
LINE
  5
20
330
1F
100
AcDbEntity
  8
0
  6
ByBlock
 62
     0
100
AcDbLine
 10
-1.0
 20
0.17
 30
0.0
 11
0.0
 21
0.0
 31
0.0
  0
LINE
  5
21
330
1F
100
AcDbEntity
  8
0
  6
ByBlock
 62
     0
100
AcDbLine
 10
0.0
 20
0.0
 30
0.0
 11
-1.0
 21
-0.17
 31
0.0
  0
LINE
  5
22
330
1F
100
AcDbEntity
  8
0
  6
ByBlock
 62
     0
100
AcDbLine
 10
0.0
 20
0.0
 30
0.0
 11
-1.0
 21
0.0
 31
0.0
  0
ENDBLK
  5
24
330
1F
100
AcDbEntity
  8
0
100
AcDbBlockEnd
  0
BLOCK
  5
2F
330
2B
100
AcDbEntity
  8
0
100
AcDbBlockBegin
  2
_OPEN30
 70
     0
 10
0.0
 20
0.0
 30
0.0
  3
_OPEN30
  1

  0
LINE
  5
2C
330
2B
100
AcDbEntity
  8
0
  6
ByBlock
 62
     0
100
AcDbLine
 10
-1.0
 20
0.27
 30
0.0
 11
0.0
 21
0.0
 31
0.0
  0
LINE
  5
2D
330
2B
100
AcDbEntity
  8
0
  6
ByBlock
 62
     0
100
AcDbLine
 10
0.0
 20
0.0
 30
0.0
 11
-1.0
 21
-0.27
 31
0.0
  0
LINE
  5
2E
330
2B
100
AcDbEntity
  8
0
  6
ByBlock
 62
     0
100
AcDbLine
 10
0.0
 20
0.0
 30
0.0
 11
-1.0
 21
0.0
 31
0.0
  0
ENDBLK
  5
30
330
2B
100
AcDbEntity
  8
0
100
AcDbBlockEnd
  0
BLOCK
  5
96
330
94
100
AcDbEntity
  8
0
 62
     1
100
AcDbBlockBegin
  2
_DotSmall
 70
     0
 10
0.0
 20
0.0
 30
0.0
  3
_DotSmall
  1

  0
LWPOLYLINE
  5
95
330
94
100
AcDbEntity
  8
画層1
 62
     0
100
AcDbPolyline
 90
        2
 70
     1
 43
0.5
 10
-0.06
 20
0.0
 42
1.0
 10
0.06
 20
0.0
 42
1.0
  0
ENDBLK
  5
97
330
94
100
AcDbEntity
  8
0
 62
     1
100
AcDbBlockEnd
  0
BLOCK
  5
1B3
330
1A9
100
AcDbEntity
  8
0
 62
     1
100
AcDbBlockBegin
  2
*D3
 70
     1
 10
0.0
 20
0.0
 30
0.0
  3
*D3
  1

  0
LINE
  5
1AA
330
1A9
100
AcDbEntity
  8
画層1
 62
     0
370
    -2
100
AcDbLine
 10
110.2999999999999
 20
206.09
 30
0.0
 11
110.2999999999999
 21
226.2299999999999
 31
0.0
  0
LINE
  5
1AB
330
1A9
100
AcDbEntity
  8
画層1
 62
     0
370
    -2
100
AcDbLine
 10
150.8
 20
206.1599999999999
 30
0.0
 11
150.8
 21
226.2299999999999
 31
0.0
  0
LINE
  5
1AC
330
1A9
100
AcDbEntity
  8
画層1
 62
     0
370
    -2
100
AcDbLine
 10
111.8
 20
224.98
 30
0.0
 11
149.3
 21
224.98
 31
0.0
  0
INSERT
  5
1AD
330
1A9
100
AcDbEntity
  8
画層1
 62
     0
370
    -2
100
AcDbBlockReference
  2
_OPEN30
 10
110.2999999999999
 20
224.98
 30
0.0
 41
1.5
 42
1.5
 43
1.5
 50
180.0
  0
INSERT
  5
1AE
330
1A9
100
AcDbEntity
  8
画層1
 62
     0
370
    -2
100
AcDbBlockReference
  2
_OPEN30
 10
150.8
 20
224.98
 30
0.0
 41
1.5
 42
1.5
 43
1.5
  0
MTEXT
  5
1AF
330
1A9
100
AcDbEntity
  8
画層1
 62
     0
100
AcDbMText
 10
130.55
 20
226.8499999999999
 30
0.0
 40
2.5
 41
0.0
 71
     5
 72
     1
  1
\A1;81
  7
STYLE1
 73
     1
 44
1.0
  0
POINT
  5
1B0
330
1A9
100
AcDbEntity
  8
DEFPOINTS
 62
     0
100
AcDbPoint
 10
110.2999999999999
 20
205.46
 30
0.0
  0
POINT
  5
1B1
330
1A9
100
AcDbEntity
  8
DEFPOINTS
 62
     0
100
AcDbPoint
 10
150.8
 20
205.54
 30
0.0
  0
POINT
  5
1B2
330
1A9
100
AcDbEntity
  8
DEFPOINTS
 62
     0
100
AcDbPoint
 10
150.8
 20
224.98
 30
0.0
  0
ENDBLK
  5
1B4
330
1A9
100
AcDbEntity
  8
0
 62
     1
100
AcDbBlockEnd
  0
BLOCK
  5
31B
330
30F
100
AcDbEntity
  8
0
 62
     1
100
AcDbBlockBegin
  2
*D4
 70
     1
 10
0.0
 20
0.0
 30
0.0
  3
*D4
  1

  0
LINE
  5
310
330
30F
100
AcDbEntity
  8
画層1
 62
     0
370
    -2
100
AcDbLine
 10
129.05
 20
211.0999999999999
 30
0.0
 11
129.05
 21
219.2299999999999
 31
0.0
  0
LINE
  5
311
330
30F
100
AcDbEntity
  8
画層1
 62
     0
370
    -2
100
AcDbLine
 10
132.05
 20
211.0999999999999
 30
0.0
 11
132.05
 21
219.2299999999999
 31
0.0
  0
LINE
  5
312
330
30F
100
AcDbEntity
  8
画層1
 62
     0
370
    -2
100
AcDbLine
 10
127.55
 20
217.9799999999999
 30
0.0
 11
126.0499999999999
 21
217.9799999999999
 31
0.0
  0
LINE
  5
313
330
30F
100
AcDbEntity
  8
画層1
 62
     0
370
    -2
100
AcDbLine
 10
133.55
 20
217.9799999999999
 30
0.0
 11
135.05
 21
217.9799999999999
 31
0.0
  0
LINE
  5
314
330
30F
100
AcDbEntity
  8
画層1
 62
     0
370
    -2
100
AcDbLine
 10
129.05
 20
217.9799999999999
 30
0.0
 11
132.05
 21
217.9799999999999
 31
0.0
  0
INSERT
  5
315
330
30F
100
AcDbEntity
  8
画層1
 62
     0
370
    -2
100
AcDbBlockReference
  2
_OPEN30
 10
129.05
 20
217.9799999999999
 30
0.0
 41
1.5
 42
1.5
 43
1.5
  0
INSERT
  5
316
330
30F
100
AcDbEntity
  8
画層1
 62
     0
370
    -2
100
AcDbBlockReference
  2
_OPEN30
 10
132.05
 20
217.9799999999999
 30
0.0
 41
1.5
 42
1.5
 43
1.5
 50
180.0
  0
MTEXT
  5
317
330
30F
100
AcDbEntity
  8
画層1
 62
     0
100
AcDbMText
 10
130.55
 20
219.85
 30
0.0
 40
2.5
 41
0.0
 71
     5
 72
     1
  1
\A1;6
  7
STYLE1
 73
     1
 44
1.0
  0
POINT
  5
318
330
30F
100
AcDbEntity
  8
DEFPOINTS
 62
     0
100
AcDbPoint
 10
129.05
 20
210.48
 30
0.0
  0
POINT
  5
319
330
30F
100
AcDbEntity
  8
DEFPOINTS
 62
     0
100
AcDbPoint
 10
132.05
 20
210.48
 30
0.0
  0
POINT
  5
31A
330
30F
100
AcDbEntity
  8
DEFPOINTS
 62
     0
100
AcDbPoint
 10
132.05
 20
217.9799999999999
 30
0.0
  0
ENDBLK
  5
31C
330
30F
100
AcDbEntity
  8
0
 62
     1
100
AcDbBlockEnd
  0
BLOCK
  5
303
330
2F9
100
AcDbEntity
  8
0
 62
     1
100
AcDbBlockBegin
  2
*D5
 70
     1
 10
0.0
 20
0.0
 30
0.0
  3
*D5
  1

  0
LINE
  5
2FA
330
2F9
100
AcDbEntity
  8
画層1
 62
     0
370
    -2
100
AcDbLine
 10
113.5
 20
210.48
 30
0.0
 11
95.05
 21
210.48
 31
0.0
  0
LINE
  5
2FB
330
2F9
100
AcDbEntity
  8
画層1
 62
     0
370
    -2
100
AcDbLine
 10
110.05
 20
205.4799999999999
 30
0.0
 11
95.05
 21
205.4799999999999
 31
0.0
  0
LINE
  5
2FC
330
2F9
100
AcDbEntity
  8
画層1
 62
     0
370
    -2
100
AcDbLine
 10
96.3
 20
208.9799999999999
 30
0.0
 11
96.3
 21
206.9799999999999
 31
0.0
  0
INSERT
  5
2FD
330
2F9
100
AcDbEntity
  8
画層1
 62
     0
370
    -2
100
AcDbBlockReference
  2
_OPEN30
 10
96.3
 20
210.48
 30
0.0
 41
1.5
 42
1.5
 43
1.5
 50
90.0
  0
INSERT
  5
2FE
330
2F9
100
AcDbEntity
  8
画層1
 62
     0
370
    -2
100
AcDbBlockReference
  2
_OPEN30
 10
96.3
 20
205.4799999999999
 30
0.0
 41
1.5
 42
1.5
 43
1.5
 50
270.0
  0
MTEXT
  5
2FF
330
2F9
100
AcDbEntity
  8
画層1
 62
     0
100
AcDbMText
 10
94.43000000000001
 20
207.98
 30
0.0
 40
2.5
 41
0.0
 71
     5
 72
     1
  1
\A1;10
  7
STYLE1
 11
0.0
 21
1.0
 31
0.0
 73
     1
 44
1.0
  0
POINT
  5
300
330
2F9
100
AcDbEntity
  8
DEFPOINTS
 62
     0
100
AcDbPoint
 10
114.1199999999999
 20
210.48
 30
0.0
  0
POINT
  5
301
330
2F9
100
AcDbEntity
  8
DEFPOINTS
 62
     0
100
AcDbPoint
 10
110.68
 20
205.4799999999999
 30
0.0
  0
POINT
  5
302
330
2F9
100
AcDbEntity
  8
DEFPOINTS
 62
     0
100
AcDbPoint
 10
96.3
 20
205.4799999999999
 30
0.0
  0
ENDBLK
  5
304
330
2F9
100
AcDbEntity
  8
0
 62
     1
100
AcDbBlockEnd
  0
BLOCK
  5
5B
330
51
100
AcDbEntity
  8
0
 62
     1
100
AcDbBlockBegin
  2
*D6
 70
     1
 10
0.0
 20
0.0
 30
0.0
  3
*D6
  1

  0
LINE
  5
52
330
51
100
AcDbEntity
  8
画層1
 62
     0
370
    -2
100
AcDbLine
 10
110.05
 20
205.4799999999999
 30
0.0
 11
95.05
 21
205.4799999999999
 31
0.0
  0
LINE
  5
53
330
51
100
AcDbEntity
  8
画層1
 62
     0
370
    -2
100
AcDbLine
 10
110.05
 20
105.4799999999999
 30
0.0
 11
95.05
 21
105.4799999999999
 31
0.0
  0
LINE
  5
54
330
51
100
AcDbEntity
  8
画層1
 62
     0
370
    -2
100
AcDbLine
 10
96.3
 20
203.98
 30
0.0
 11
96.3
 21
106.98
 31
0.0
  0
INSERT
  5
55
330
51
100
AcDbEntity
  8
画層1
 62
     0
370
    -2
100
AcDbBlockReference
  2
_OPEN30
 10
96.3
 20
205.4799999999999
 30
0.0
 41
1.5
 42
1.5
 43
1.5
 50
90.0
  0
INSERT
  5
56
330
51
100
AcDbEntity
  8
画層1
 62
     0
370
    -2
100
AcDbBlockReference
  2
_OPEN30
 10
96.3
 20
105.4799999999999
 30
0.0
 41
1.5
 42
1.5
 43
1.5
 50
270.0
  0
MTEXT
  5
57
330
51
100
AcDbEntity
  8
画層1
 62
     0
100
AcDbMText
 10
94.43000000000001
 20
155.48
 30
0.0
 40
2.5
 41
0.0
 71
     5
 72
     1
  1
\A1;200
  7
STYLE1
 11
0.0
 21
1.0
 31
0.0
 73
     1
 44
1.0
  0
POINT
  5
58
330
51
100
AcDbEntity
  8
DEFPOINTS
 62
     0
100
AcDbPoint
 10
110.68
 20
205.4799999999999
 30
0.0
  0
POINT
  5
59
330
51
100
AcDbEntity
  8
DEFPOINTS
 62
     0
100
AcDbPoint
 10
110.68
 20
105.4799999999999
 30
0.0
  0
POINT
  5
5A
330
51
100
AcDbEntity
  8
DEFPOINTS
 62
     0
100
AcDbPoint
 10
96.3
 20
105.4799999999999
 30
0.0
  0
ENDBLK
  5
5C
330
51
100
AcDbEntity
  8
0
 62
     1
100
AcDbBlockEnd
  0
BLOCK
  5
A4
330
9A
100
AcDbEntity
  8
0
 62
     1
100
AcDbBlockBegin
  2
*D7
 70
     1
 10
0.0
 20
0.0
 30
0.0
  3
*D7
  1

  0
LINE
  5
9B
330
9A
100
AcDbEntity
  8
画層1
 62
     0
370
    -2
100
AcDbLine
 10
110.05
 20
105.4799999999999
 30
0.0
 11
95.05
 21
105.4799999999999
 31
0.0
  0
LINE
  5
9C
330
9A
100
AcDbEntity
  8
画層1
 62
     0
370
    -2
100
AcDbLine
 10
113.1299999999999
 20
100.48
 30
0.0
 11
95.05
 21
100.48
 31
0.0
  0
LINE
  5
9D
330
9A
100
AcDbEntity
  8
画層1
 62
     0
370
    -2
100
AcDbLine
 10
96.3
 20
103.98
 30
0.0
 11
96.3
 21
101.98
 31
0.0
  0
INSERT
  5
9E
330
9A
100
AcDbEntity
  8
画層1
 62
     0
370
    -2
100
AcDbBlockReference
  2
_OPEN30
 10
96.3
 20
105.4799999999999
 30
0.0
 41
1.5
 42
1.5
 43
1.5
 50
90.0
  0
INSERT
  5
9F
330
9A
100
AcDbEntity
  8
画層1
 62
     0
370
    -2
100
AcDbBlockReference
  2
_OPEN30
 10
96.3
 20
100.48
 30
0.0
 41
1.5
 42
1.5
 43
1.5
 50
270.0
  0
MTEXT
  5
A0
330
9A
100
AcDbEntity
  8
画層1
 62
     0
100
AcDbMText
 10
94.43000000000001
 20
102.98
 30
0.0
 40
2.5
 41
0.0
 71
     5
 72
     1
  1
\A1;10
  7
STYLE1
 11
0.0
 21
1.0
 31
0.0
 73
     1
 44
1.0
  0
POINT
  5
A1
330
9A
100
AcDbEntity
  8
DEFPOINTS
 62
     0
100
AcDbPoint
 10
110.68
 20
105.4799999999999
 30
0.0
  0
POINT
  5
A2
330
9A
100
AcDbEntity
  8
DEFPOINTS
 62
     0
100
AcDbPoint
 10
113.76
 20
100.48
 30
0.0
  0
POINT
  5
A3
330
9A
100
AcDbEntity
  8
DEFPOINTS
 62
     0
100
AcDbPoint
 10
96.3
 20
100.48
 30
0.0
  0
ENDBLK
  5
A5
330
9A
100
AcDbEntity
  8
0
 62
     1
100
AcDbBlockEnd
  0
BLOCK
  5
1CD
330
1C1
100
AcDbEntity
  8
0
 62
     1
100
AcDbBlockBegin
  2
*D8
 70
     1
 10
0.0
 20
0.0
 30
0.0
  3
*D8
  1

  0
LINE
  5
1C2
330
1C1
100
AcDbEntity
  8
画層1
 62
     0
370
    -2
100
AcDbLine
 10
110.05
 20
183.5399999999999
 30
0.0
 11
102.0499999999999
 21
183.5399999999999
 31
0.0
  0
LINE
  5
1C3
330
1C1
100
AcDbEntity
  8
画層1
 62
     0
370
    -2
100
AcDbLine
 10
110.05
 20
179.5399999999999
 30
0.0
 11
102.0499999999999
 21
179.5399999999999
 31
0.0
  0
LINE
  5
1C4
330
1C1
100
AcDbEntity
  8
画層1
 62
     0
370
    -2
100
AcDbLine
 10
103.2999999999999
 20
185.04
 30
0.0
 11
103.2999999999999
 21
186.5399999999999
 31
0.0
  0
LINE
  5
1C5
330
1C1
100
AcDbEntity
  8
画層1
 62
     0
370
    -2
100
AcDbLine
 10
103.2999999999999
 20
178.04
 30
0.0
 11
103.2999999999999
 21
176.5399999999999
 31
0.0
  0
LINE
  5
1C6
330
1C1
100
AcDbEntity
  8
画層1
 62
     0
370
    -2
100
AcDbLine
 10
103.2999999999999
 20
183.5399999999999
 30
0.0
 11
103.2999999999999
 21
179.5399999999999
 31
0.0
  0
INSERT
  5
1C7
330
1C1
100
AcDbEntity
  8
画層1
 62
     0
370
    -2
100
AcDbBlockReference
  2
_OPEN30
 10
103.2999999999999
 20
183.5399999999999
 30
0.0
 41
1.5
 42
1.5
 43
1.5
 50
270.0
  0
INSERT
  5
1C8
330
1C1
100
AcDbEntity
  8
画層1
 62
     0
370
    -2
100
AcDbBlockReference
  2
_OPEN30
 10
103.2999999999999
 20
179.5399999999999
 30
0.0
 41
1.5
 42
1.5
 43
1.5
 50
90.0
  0
MTEXT
  5
1C9
330
1C1
100
AcDbEntity
  8
画層1
 62
     0
100
AcDbMText
 10
101.4299999999999
 20
181.5399999999999
 30
0.0
 40
2.5
 41
0.0
 71
     5
 72
     1
  1
\A1;8
  7
STYLE1
 11
0.0
 21
1.0
 31
0.0
 73
     1
 44
1.0
  0
POINT
  5
1CA
330
1C1
100
AcDbEntity
  8
DEFPOINTS
 62
     0
100
AcDbPoint
 10
110.68
 20
183.5399999999999
 30
0.0
  0
POINT
  5
1CB
330
1C1
100
AcDbEntity
  8
DEFPOINTS
 62
     0
100
AcDbPoint
 10
110.68
 20
179.5399999999999
 30
0.0
  0
POINT
  5
1CC
330
1C1
100
AcDbEntity
  8
DEFPOINTS
 62
     0
100
AcDbPoint
 10
103.2999999999999
 20
179.5399999999999
 30
0.0
  0
ENDBLK
  5
1CE
330
1C1
100
AcDbEntity
  8
0
 62
     1
100
AcDbBlockEnd
  0
BLOCK
  5
4E
330
44
100
AcDbEntity
  8
0
 62
     1
100
AcDbBlockBegin
  2
*D9
 70
     1
 10
0.0
 20
0.0
 30
0.0
  3
*D9
  1

  0
LINE
  5
45
330
44
100
AcDbEntity
  8
画層1
 62
     0
370
    -2
100
AcDbLine
 10
113.5
 20
210.48
 30
0.0
 11
88.04999999999999
 21
210.48
 31
0.0
  0
LINE
  5
46
330
44
100
AcDbEntity
  8
画層1
 62
     0
370
    -2
100
AcDbLine
 10
113.1299999999999
 20
100.48
 30
0.0
 11
88.04999999999999
 21
100.48
 31
0.0
  0
LINE
  5
47
330
44
100
AcDbEntity
  8
画層1
 62
     0
370
    -2
100
AcDbLine
 10
89.29999999999999
 20
208.9799999999999
 30
0.0
 11
89.29999999999999
 21
101.98
 31
0.0
  0
INSERT
  5
48
330
44
100
AcDbEntity
  8
画層1
 62
     0
370
    -2
100
AcDbBlockReference
  2
_OPEN30
 10
89.29999999999999
 20
210.48
 30
0.0
 41
1.5
 42
1.5
 43
1.5
 50
90.0
  0
INSERT
  5
49
330
44
100
AcDbEntity
  8
画層1
 62
     0
370
    -2
100
AcDbBlockReference
  2
_OPEN30
 10
89.29999999999999
 20
100.48
 30
0.0
 41
1.5
 42
1.5
 43
1.5
 50
270.0
  0
MTEXT
  5
4A
330
44
100
AcDbEntity
  8
画層1
 62
     0
100
AcDbMText
 10
87.43
 20
155.48
 30
0.0
 40
2.5
 41
0.0
 71
     5
 72
     1
  1
\A1;220
  7
STYLE1
 11
0.0
 21
1.0
 31
0.0
 73
     1
 44
1.0
  0
POINT
  5
4B
330
44
100
AcDbEntity
  8
DEFPOINTS
 62
     0
100
AcDbPoint
 10
114.1199999999999
 20
210.48
 30
0.0
  0
POINT
  5
4C
330
44
100
AcDbEntity
  8
DEFPOINTS
 62
     0
100
AcDbPoint
 10
113.76
 20
100.48
 30
0.0
  0
POINT
  5
4D
330
44
100
AcDbEntity
  8
DEFPOINTS
 62
     0
100
AcDbPoint
 10
89.29999999999999
 20
100.48
 30
0.0
  0
ENDBLK
  5
4F
330
44
100
AcDbEntity
  8
0
 62
     1
100
AcDbBlockEnd
  0
BLOCK
  5
17A
330
170
100
AcDbEntity
  8
0
 62
     1
100
AcDbBlockBegin
  2
*D10
 70
     1
 10
0.0
 20
0.0
 30
0.0
  3
*D10
  1

  0
LINE
  5
171
330
170
100
AcDbEntity
  8
画層1
 62
     0
370
    -2
100
AcDbLine
 10
151.05
 20
105.4799999999999
 30
0.0
 11
159.55
 21
105.4799999999999
 31
0.0
  0
LINE
  5
172
330
170
100
AcDbEntity
  8
画層1
 62
     0
370
    -2
100
AcDbLine
 10
147.68
 20
121.48
 30
0.0
 11
159.55
 21
121.48
 31
0.0
  0
LINE
  5
173
330
170
100
AcDbEntity
  8
画層1
 62
     0
370
    -2
100
AcDbLine
 10
158.3
 20
106.98
 30
0.0
 11
158.3
 21
119.9799999999999
 31
0.0
  0
INSERT
  5
174
330
170
100
AcDbEntity
  8
画層1
 62
     0
370
    -2
100
AcDbBlockReference
  2
_OPEN30
 10
158.3
 20
105.4799999999999
 30
0.0
 41
1.5
 42
1.5
 43
1.5
 50
270.0
  0
INSERT
  5
175
330
170
100
AcDbEntity
  8
画層1
 62
     0
370
    -2
100
AcDbBlockReference
  2
_OPEN30
 10
158.3
 20
121.48
 30
0.0
 41
1.5
 42
1.5
 43
1.5
 50
90.0
  0
MTEXT
  5
176
330
170
100
AcDbEntity
  8
画層1
 62
     0
100
AcDbMText
 10
156.43
 20
113.48
 30
0.0
 40
2.5
 41
0.0
 71
     5
 72
     1
  1
\A1;32
  7
STYLE1
 11
0.0
 21
1.0
 31
0.0
 73
     1
 44
1.0
  0
POINT
  5
177
330
170
100
AcDbEntity
  8
DEFPOINTS
 62
     0
100
AcDbPoint
 10
150.43
 20
105.4799999999999
 30
0.0
  0
POINT
  5
178
330
170
100
AcDbEntity
  8
DEFPOINTS
 62
     0
100
AcDbPoint
 10
147.05
 20
121.48
 30
0.0
  0
POINT
  5
179
330
170
100
AcDbEntity
  8
DEFPOINTS
 62
     0
100
AcDbPoint
 10
158.3
 20
121.48
 30
0.0
  0
ENDBLK
  5
17B
330
170
100
AcDbEntity
  8
0
 62
     1
100
AcDbBlockEnd
  0
BLOCK
  5
85
330
79
100
AcDbEntity
  8
0
 62
     1
100
AcDbBlockBegin
  2
*D11
 70
     1
 10
0.0
 20
0.0
 30
0.0
  3
*D11
  1

  0
LINE
  5
7A
330
79
100
AcDbEntity
  8
画層1
 62
     0
370
    -2
100
AcDbLine
 10
147.3899999999999
 20
100.48
 30
0.0
 11
166.55
 21
100.48
 31
0.0
  0
LINE
  5
7B
330
79
100
AcDbEntity
  8
画層1
 62
     0
370
    -2
100
AcDbLine
 10
131.18
 20
103.48
 30
0.0
 11
166.55
 21
103.48
 31
0.0
  0
LINE
  5
7C
330
79
100
AcDbEntity
  8
画層1
 62
     0
370
    -2
100
AcDbLine
 10
165.3
 20
98.98000000000001
 30
0.0
 11
165.3
 21
97.48000000000001
 31
0.0
  0
LINE
  5
7D
330
79
100
AcDbEntity
  8
画層1
 62
     0
370
    -2
100
AcDbLine
 10
165.3
 20
104.98
 30
0.0
 11
165.3
 21
106.4799999999999
 31
0.0
  0
LINE
  5
7E
330
79
100
AcDbEntity
  8
画層1
 62
     0
370
    -2
100
AcDbLine
 10
165.3
 20
100.48
 30
0.0
 11
165.3
 21
103.48
 31
0.0
  0
INSERT
  5
7F
330
79
100
AcDbEntity
  8
画層1
 62
     0
370
    -2
100
AcDbBlockReference
  2
_OPEN30
 10
165.3
 20
100.48
 30
0.0
 41
1.5
 42
1.5
 43
1.5
 50
90.0
  0
INSERT
  5
80
330
79
100
AcDbEntity
  8
画層1
 62
     0
370
    -2
100
AcDbBlockReference
  2
_OPEN30
 10
165.3
 20
103.48
 30
0.0
 41
1.5
 42
1.5
 43
1.5
 50
270.0
  0
MTEXT
  5
81
330
79
100
AcDbEntity
  8
画層1
 62
     0
100
AcDbMText
 10
163.43
 20
101.98
 30
0.0
 40
2.5
 41
0.0
 71
     5
 72
     1
  1
\A1;6
  7
STYLE1
 11
0.0
 21
1.0
 31
0.0
 73
     1
 44
1.0
  0
POINT
  5
82
330
79
100
AcDbEntity
  8
DEFPOINTS
 62
     0
100
AcDbPoint
 10
146.77
 20
100.48
 30
0.0
  0
POINT
  5
83
330
79
100
AcDbEntity
  8
DEFPOINTS
 62
     0
100
AcDbPoint
 10
130.55
 20
103.48
 30
0.0
  0
POINT
  5
84
330
79
100
AcDbEntity
  8
DEFPOINTS
 62
     0
100
AcDbPoint
 10
165.3
 20
103.48
 30
0.0
  0
ENDBLK
  5
86
330
79
100
AcDbEntity
  8
0
 62
     1
100
AcDbBlockEnd
  0
BLOCK
  5
41
330
36
100
AcDbEntity
  8
0
 62
     1
100
AcDbBlockBegin
  2
*D12
 70
     1
 10
0.0
 20
0.0
 30
0.0
  3
*D12
  1

  0
LINE
  5
37
330
36
100
AcDbEntity
  8
画層1
 62
     0
370
    -2
100
AcDbLine
 10
131.18
 20
103.48
 30
0.0
 11
166.55
 21
103.48
 31
0.0
  0
LINE
  5
38
330
36
100
AcDbEntity
  8
画層1
 62
     0
370
    -2
100
AcDbLine
 10
131.18
 20
207.4799999999999
 30
0.0
 11
166.55
 21
207.4799999999999
 31
0.0
  0
LINE
  5
39
330
36
100
AcDbEntity
  8
画層1
 62
     0
370
    -2
100
AcDbLine
 10
165.3
 20
104.98
 30
0.0
 11
165.3
 21
205.98
 31
0.0
  0
INSERT
  5
3A
330
36
100
AcDbEntity
  8
画層1
 62
     0
370
    -2
100
AcDbBlockReference
  2
_OPEN30
 10
165.3
 20
103.48
 30
0.0
 41
1.5
 42
1.5
 43
1.5
 50
270.0
  0
INSERT
  5
3B
330
36
100
AcDbEntity
  8
画層1
 62
     0
370
    -2
100
AcDbBlockReference
  2
_OPEN30
 10
165.3
 20
207.4799999999999
 30
0.0
 41
1.5
 42
1.5
 43
1.5
 50
90.0
  0
MTEXT
  5
3C
330
36
100
AcDbEntity
  8
画層1
 62
     0
100
AcDbMText
 10
163.43
 20
155.48
 30
0.0
 40
2.5
 41
0.0
 71
     5
 72
     1
  1
\A1;208
  7
STYLE1
 11
0.0
 21
1.0
 31
0.0
 73
     1
 44
1.0
  0
POINT
  5
3D
330
36
100
AcDbEntity
  8
DEFPOINTS
 62
     0
100
AcDbPoint
 10
130.55
 20
103.48
 30
0.0
  0
POINT
  5
3F
330
36
100
AcDbEntity
  8
DEFPOINTS
 62
     0
100
AcDbPoint
 10
130.55
 20
207.4799999999999
 30
0.0
  0
POINT
  5
40
330
36
100
AcDbEntity
  8
DEFPOINTS
 62
     0
100
AcDbPoint
 10
165.3
 20
207.4799999999999
 30
0.0
  0
ENDBLK
  5
42
330
36
100
AcDbEntity
  8
0
 62
     1
100
AcDbBlockEnd
  0
BLOCK
  5
1A6
330
19A
100
AcDbEntity
  8
0
 62
     1
100
AcDbBlockBegin
  2
*D13
 70
     1
 10
0.0
 20
0.0
 30
0.0
  3
*D13
  1

  0
LINE
  5
19B
330
19A
100
AcDbEntity
  8
画層1
 62
     0
370
    -2
100
AcDbLine
 10
131.18
 20
207.4799999999999
 30
0.0
 11
166.55
 21
207.4799999999999
 31
0.0
  0
LINE
  5
19C
330
19A
100
AcDbEntity
  8
画層1
 62
     0
370
    -2
100
AcDbLine
 10
147.72
 20
210.48
 30
0.0
 11
166.55
 21
210.48
 31
0.0
  0
LINE
  5
19D
330
19A
100
AcDbEntity
  8
画層1
 62
     0
370
    -2
100
AcDbLine
 10
165.3
 20
205.98
 30
0.0
 11
165.3
 21
204.4799999999999
 31
0.0
  0
LINE
  5
19E
330
19A
100
AcDbEntity
  8
画層1
 62
     0
370
    -2
100
AcDbLine
 10
165.3
 20
211.98
 30
0.0
 11
165.3
 21
213.4799999999999
 31
0.0
  0
LINE
  5
19F
330
19A
100
AcDbEntity
  8
画層1
 62
     0
370
    -2
100
AcDbLine
 10
165.3
 20
207.4799999999999
 30
0.0
 11
165.3
 21
210.48
 31
0.0
  0
INSERT
  5
1A0
330
19A
100
AcDbEntity
  8
画層1
 62
     0
370
    -2
100
AcDbBlockReference
  2
_OPEN30
 10
165.3
 20
207.4799999999999
 30
0.0
 41
1.5
 42
1.5
 43
1.5
 50
90.0
  0
INSERT
  5
1A1
330
19A
100
AcDbEntity
  8
画層1
 62
     0
370
    -2
100
AcDbBlockReference
  2
_OPEN30
 10
165.3
 20
210.48
 30
0.0
 41
1.5
 42
1.5
 43
1.5
 50
270.0
  0
MTEXT
  5
1A2
330
19A
100
AcDbEntity
  8
画層1
 62
     0
100
AcDbMText
 10
163.43
 20
208.9799999999999
 30
0.0
 40
2.5
 41
0.0
 71
     5
 72
     1
  1
\A1;6
  7
STYLE1
 11
0.0
 21
1.0
 31
0.0
 73
     1
 44
1.0
  0
POINT
  5
1A3
330
19A
100
AcDbEntity
  8
DEFPOINTS
 62
     0
100
AcDbPoint
 10
130.55
 20
207.4799999999999
 30
0.0
  0
POINT
  5
1A4
330
19A
100
AcDbEntity
  8
DEFPOINTS
 62
     0
100
AcDbPoint
 10
147.0999999999999
 20
210.48
 30
0.0
  0
POINT
  5
1A5
330
19A
100
AcDbEntity
  8
DEFPOINTS
 62
     0
100
AcDbPoint
 10
165.3
 20
210.48
 30
0.0
  0
ENDBLK
  5
1A7
330
19A
100
AcDbEntity
  8
0
 62
     1
100
AcDbBlockEnd
  0
BLOCK
  5
76
330
6A
100
AcDbEntity
  8
0
 62
     1
100
AcDbBlockBegin
  2
*D14
 70
     1
 10
0.0
 20
0.0
 30
0.0
  3
*D14
  1

  0
LINE
  5
6B
330
6A
100
AcDbEntity
  8
画層1
 62
     0
370
    -2
100
AcDbLine
 10
129.05
 20
99.84999999999999
 30
0.0
 11
129.05
 21
91.73
 31
0.0
  0
LINE
  5
6C
330
6A
100
AcDbEntity
  8
画層1
 62
     0
370
    -2
100
AcDbLine
 10
132.05
 20
99.84999999999999
 30
0.0
 11
132.05
 21
91.73
 31
0.0
  0
LINE
  5
6D
330
6A
100
AcDbEntity
  8
画層1
 62
     0
370
    -2
100
AcDbLine
 10
127.55
 20
92.98
 30
0.0
 11
126.0499999999999
 21
92.98
 31
0.0
  0
LINE
  5
6E
330
6A
100
AcDbEntity
  8
画層1
 62
     0
370
    -2
100
AcDbLine
 10
133.55
 20
92.98
 30
0.0
 11
150.6
 21
92.98
 31
0.0
  0
LINE
  5
6F
330
6A
100
AcDbEntity
  8
画層1
 62
     0
370
    -2
100
AcDbLine
 10
129.05
 20
92.98
 30
0.0
 11
132.05
 21
92.98
 31
0.0
  0
INSERT
  5
70
330
6A
100
AcDbEntity
  8
画層1
 62
     0
370
    -2
100
AcDbBlockReference
  2
_OPEN30
 10
129.05
 20
92.98
 30
0.0
 41
1.5
 42
1.5
 43
1.5
  0
INSERT
  5
71
330
6A
100
AcDbEntity
  8
画層1
 62
     0
370
    -2
100
AcDbBlockReference
  2
_OPEN30
 10
132.05
 20
92.98
 30
0.0
 41
1.5
 42
1.5
 43
1.5
 50
180.0
  0
MTEXT
  5
72
330
6A
100
AcDbEntity
  8
画層1
 62
     0
100
AcDbMText
 10
142.83
 20
95.02
 30
0.0
 40
2.5
 41
0.0
 71
     5
 72
     1
  1
\A1;6キリカキ
  7
STYLE1
 73
     1
 44
1.0
  0
POINT
  5
73
330
6A
100
AcDbEntity
  8
DEFPOINTS
 62
     0
100
AcDbPoint
 10
129.05
 20
100.48
 30
0.0
  0
POINT
  5
74
330
6A
100
AcDbEntity
  8
DEFPOINTS
 62
     0
100
AcDbPoint
 10
132.05
 20
100.48
 30
0.0
  0
POINT
  5
75
330
6A
100
AcDbEntity
  8
DEFPOINTS
 62
     0
100
AcDbPoint
 10
132.05
 20
92.98
 30
0.0
  0
ENDBLK
  5
77
330
6A
100
AcDbEntity
  8
0
 62
     1
100
AcDbBlockEnd
  0
BLOCK
  5
166
330
15C
100
AcDbEntity
  8
0
 62
     1
100
AcDbBlockBegin
  2
*D15
 70
     1
 10
0.0
 20
0.0
 30
0.0
  3
*D15
  1

  0
LINE
  5
15D
330
15C
100
AcDbEntity
  8
画層1
 62
     0
370
    -2
100
AcDbLine
 10
131.55
 20
127.6
 30
0.0
 11
131.55
 21
136.25
 31
0.0
  0
LINE
  5
15E
330
15C
100
AcDbEntity
  8
画層1
 62
     0
370
    -2
100
AcDbLine
 10
136.55
 20
127.6
 30
0.0
 11
136.55
 21
136.25
 31
0.0
  0
LINE
  5
15F
330
15C
100
AcDbEntity
  8
画層1
 62
     0
370
    -2
100
AcDbLine
 10
133.05
 20
135.0
 30
0.0
 11
135.05
 21
135.0
 31
0.0
  0
INSERT
  5
160
330
15C
100
AcDbEntity
  8
画層1
 62
     0
370
    -2
100
AcDbBlockReference
  2
_OPEN30
 10
131.55
 20
135.0
 30
0.0
 41
1.5
 42
1.5
 43
1.5
 50
180.0
  0
INSERT
  5
161
330
15C
100
AcDbEntity
  8
画層1
 62
     0
370
    -2
100
AcDbBlockReference
  2
_OPEN30
 10
136.55
 20
135.0
 30
0.0
 41
1.5
 42
1.5
 43
1.5
  0
MTEXT
  5
162
330
15C
100
AcDbEntity
  8
画層1
 62
     0
100
AcDbMText
 10
134.05
 20
136.88
 30
0.0
 40
2.5
 41
0.0
 71
     5
 72
     1
  1
\A1;10
  7
STYLE1
 73
     1
 44
1.0
  0
POINT
  5
163
330
15C
100
AcDbEntity
  8
DEFPOINTS
 62
     0
100
AcDbPoint
 10
131.55
 20
126.98
 30
0.0
  0
POINT
  5
164
330
15C
100
AcDbEntity
  8
DEFPOINTS
 62
     0
100
AcDbPoint
 10
136.55
 20
126.98
 30
0.0
  0
POINT
  5
165
330
15C
100
AcDbEntity
  8
DEFPOINTS
 62
     0
100
AcDbPoint
 10
136.55
 20
135.0
 30
0.0
  0
ENDBLK
  5
167
330
15C
100
AcDbEntity
  8
0
 62
     1
100
AcDbBlockEnd
  0
BLOCK
  5
412
330
408
100
AcDbEntity
  8
0
 62
     1
100
AcDbBlockBegin
  2
*D16
 70
     1
 10
0.0
 20
0.0
 30
0.0
  3
*D16
  1

  0
LINE
  5
409
330
408
100
AcDbEntity
  8
画層1
 62
     0
370
    -2
100
AcDbLine
 10
309.3999999999999
 20
211.0999999999999
 30
0.0
 11
309.3999999999999
 21
226.2299999999999
 31
0.0
  0
LINE
  5
40A
330
408
100
AcDbEntity
  8
画層1
 62
     0
370
    -2
100
AcDbLine
 10
229.4
 20
203.9
 30
0.0
 11
229.4
 21
226.2299999999999
 31
0.0
  0
LINE
  5
40B
330
408
100
AcDbEntity
  8
画層1
 62
     0
370
    -2
100
AcDbLine
 10
307.8999999999999
 20
224.98
 30
0.0
 11
230.9
 21
224.98
 31
0.0
  0
INSERT
  5
40C
330
408
100
AcDbEntity
  8
画層1
 62
     0
370
    -2
100
AcDbBlockReference
  2
_OPEN30
 10
309.3999999999999
 20
224.98
 30
0.0
 41
1.5
 42
1.5
 43
1.5
  0
INSERT
  5
40D
330
408
100
AcDbEntity
  8
画層1
 62
     0
370
    -2
100
AcDbBlockReference
  2
_OPEN30
 10
229.4
 20
224.98
 30
0.0
 41
1.5
 42
1.5
 43
1.5
 50
180.0
  0
MTEXT
  5
40E
330
408
100
AcDbEntity
  8
画層1
 62
     0
100
AcDbMText
 10
269.3999999999999
 20
226.8499999999999
 30
0.0
 40
2.5
 41
0.0
 71
     5
 72
     1
  1
\A1;160
  7
STYLE1
 73
     1
 44
1.0
  0
POINT
  5
40F
330
408
100
AcDbEntity
  8
DEFPOINTS
 62
     0
100
AcDbPoint
 10
309.3999999999999
 20
210.48
 30
0.0
  0
POINT
  5
410
330
408
100
AcDbEntity
  8
DEFPOINTS
 62
     0
100
AcDbPoint
 10
229.4
 20
203.2799999999999
 30
0.0
  0
POINT
  5
411
330
408
100
AcDbEntity
  8
DEFPOINTS
 62
     0
100
AcDbPoint
 10
229.4
 20
224.98
 30
0.0
  0
ENDBLK
  5
413
330
408
100
AcDbEntity
  8
0
 62
     1
100
AcDbBlockEnd
  0
BLOCK
  5
405
330
3FB
100
AcDbEntity
  8
0
 62
     1
100
AcDbBlockBegin
  2
*D17
 70
     1
 10
0.0
 20
0.0
 30
0.0
  3
*D17
  1

  0
LINE
  5
3FC
330
3FB
100
AcDbEntity
  8
画層1
 62
     0
370
    -2
100
AcDbLine
 10
309.3999999999999
 20
211.0999999999999
 30
0.0
 11
309.3999999999999
 21
219.2299999999999
 31
0.0
  0
LINE
  5
3FD
330
3FB
100
AcDbEntity
  8
画層1
 62
     0
370
    -2
100
AcDbLine
 10
241.4
 20
187.5999999999999
 30
0.0
 11
241.4
 21
219.2299999999999
 31
0.0
  0
LINE
  5
3FE
330
3FB
100
AcDbEntity
  8
画層1
 62
     0
370
    -2
100
AcDbLine
 10
307.8999999999999
 20
217.9799999999999
 30
0.0
 11
242.9
 21
217.9799999999999
 31
0.0
  0
INSERT
  5
3FF
330
3FB
100
AcDbEntity
  8
画層1
 62
     0
370
    -2
100
AcDbBlockReference
  2
_OPEN30
 10
309.3999999999999
 20
217.9799999999999
 30
0.0
 41
1.5
 42
1.5
 43
1.5
  0
INSERT
  5
400
330
3FB
100
AcDbEntity
  8
画層1
 62
     0
370
    -2
100
AcDbBlockReference
  2
_OPEN30
 10
241.4
 20
217.9799999999999
 30
0.0
 41
1.5
 42
1.5
 43
1.5
 50
180.0
  0
MTEXT
  5
401
330
3FB
100
AcDbEntity
  8
画層1
 62
     0
100
AcDbMText
 10
275.4
 20
220.06
 30
0.0
 40
2.5
 41
0.0
 71
     5
 72
     1
  1
\A1;(136)
  7
STYLE1
 73
     1
 44
1.0
  0
POINT
  5
402
330
3FB
100
AcDbEntity
  8
DEFPOINTS
 62
     0
100
AcDbPoint
 10
309.3999999999999
 20
210.48
 30
0.0
  0
POINT
  5
403
330
3FB
100
AcDbEntity
  8
DEFPOINTS
 62
     0
100
AcDbPoint
 10
241.4
 20
186.9799999999999
 30
0.0
  0
POINT
  5
404
330
3FB
100
AcDbEntity
  8
DEFPOINTS
 62
     0
100
AcDbPoint
 10
241.4
 20
217.9799999999999
 30
0.0
  0
ENDBLK
  5
406
330
3FB
100
AcDbEntity
  8
0
 62
     1
100
AcDbBlockEnd
  0
BLOCK
  5
420
330
416
100
AcDbEntity
  8
0
 62
     1
100
AcDbBlockBegin
  2
*D18
 70
     1
 10
0.0
 20
0.0
 30
0.0
  3
*D18
  1

  0
LINE
  5
417
330
416
100
AcDbEntity
  8
画層1
 62
     0
370
    -2
100
AcDbLine
 10
241.4
 20
187.5999999999999
 30
0.0
 11
241.4
 21
219.2299999999999
 31
0.0
  0
LINE
  5
418
330
416
100
AcDbEntity
  8
画層1
 62
     0
370
    -2
100
AcDbLine
 10
235.8999999999999
 20
187.5999999999999
 30
0.0
 11
235.8999999999999
 21
219.2299999999999
 31
0.0
  0
LINE
  5
419
330
416
100
AcDbEntity
  8
画層1
 62
     0
370
    -2
100
AcDbLine
 10
239.9
 20
217.9799999999999
 30
0.0
 11
237.4
 21
217.9799999999999
 31
0.0
  0
INSERT
  5
41A
330
416
100
AcDbEntity
  8
画層1
 62
     0
370
    -2
100
AcDbBlockReference
  2
_OPEN30
 10
241.4
 20
217.9799999999999
 30
0.0
 41
1.5
 42
1.5
 43
1.5
  0
INSERT
  5
41B
330
416
100
AcDbEntity
  8
画層1
 62
     0
370
    -2
100
AcDbBlockReference
  2
_OPEN30
 10
235.8999999999999
 20
217.9799999999999
 30
0.0
 41
1.5
 42
1.5
 43
1.5
 50
180.0
  0
MTEXT
  5
41C
330
416
100
AcDbEntity
  8
画層1
 62
     0
100
AcDbMText
 10
238.65
 20
219.85
 30
0.0
 40
2.5
 41
0.0
 71
     5
 72
     1
  1
\A1;11
  7
STYLE1
 73
     1
 44
1.0
  0
POINT
  5
41D
330
416
100
AcDbEntity
  8
DEFPOINTS
 62
     0
100
AcDbPoint
 10
241.4
 20
186.9799999999999
 30
0.0
  0
POINT
  5
41E
330
416
100
AcDbEntity
  8
DEFPOINTS
 62
     0
100
AcDbPoint
 10
235.8999999999999
 20
186.9799999999999
 30
0.0
  0
POINT
  5
41F
330
416
100
AcDbEntity
  8
DEFPOINTS
 62
     0
100
AcDbPoint
 10
235.8999999999999
 20
217.9799999999999
 30
0.0
  0
ENDBLK
  5
421
330
416
100
AcDbEntity
  8
0
 62
     1
100
AcDbBlockEnd
  0
BLOCK
  5
380
330
376
100
AcDbEntity
  8
0
 62
     1
100
AcDbBlockBegin
  2
*D19
 70
     1
 10
0.0
 20
0.0
 30
0.0
  3
*D19
  1

  0
LINE
  5
377
330
376
100
AcDbEntity
  8
画層1
 62
     0
370
    -2
100
AcDbLine
 10
309.3999999999999
 20
99.84999999999999
 30
0.0
 11
309.3999999999999
 21
91.73
 31
0.0
  0
LINE
  5
378
330
376
100
AcDbEntity
  8
画層1
 62
     0
370
    -2
100
AcDbLine
 10
264.3999999999999
 20
119.1
 30
0.0
 11
264.3999999999999
 21
91.73
 31
0.0
  0
LINE
  5
379
330
376
100
AcDbEntity
  8
画層1
 62
     0
370
    -2
100
AcDbLine
 10
307.8999999999999
 20
92.98
 30
0.0
 11
265.8999999999999
 21
92.98
 31
0.0
  0
INSERT
  5
37A
330
376
100
AcDbEntity
  8
画層1
 62
     0
370
    -2
100
AcDbBlockReference
  2
_OPEN30
 10
309.3999999999999
 20
92.98
 30
0.0
 41
1.5
 42
1.5
 43
1.5
  0
INSERT
  5
37B
330
376
100
AcDbEntity
  8
画層1
 62
     0
370
    -2
100
AcDbBlockReference
  2
_OPEN30
 10
264.3999999999999
 20
92.98
 30
0.0
 41
1.5
 42
1.5
 43
1.5
 50
180.0
  0
MTEXT
  5
37C
330
376
100
AcDbEntity
  8
画層1
 62
     0
100
AcDbMText
 10
286.8999999999999
 20
95.06
 30
0.0
 40
2.5
 41
0.0
 71
     5
 72
     1
  1
\A1;(90)
  7
STYLE1
 73
     1
 44
1.0
  0
POINT
  5
37D
330
376
100
AcDbEntity
  8
DEFPOINTS
 62
     0
100
AcDbPoint
 10
309.3999999999999
 20
100.48
 30
0.0
  0
POINT
  5
37E
330
376
100
AcDbEntity
  8
DEFPOINTS
 62
     0
100
AcDbPoint
 10
264.3999999999999
 20
119.73
 30
0.0
  0
POINT
  5
37F
330
376
100
AcDbEntity
  8
DEFPOINTS
 62
     0
100
AcDbPoint
 10
264.3999999999999
 20
92.98
 30
0.0
  0
ENDBLK
  5
381
330
376
100
AcDbEntity
  8
0
 62
     1
100
AcDbBlockEnd
  0
BLOCK
  5
52C
330
522
100
AcDbEntity
  8
0
 62
     3
100
AcDbBlockBegin
  2
*D20
 70
     1
 10
0.0
 20
0.0
 30
0.0
  3
*D20
  1

  0
LINE
  5
703
330
522
100
AcDbEntity
  8
画層1
 62
     0
370
    -2
100
AcDbLine
 10
137.28
 20
427.82
 30
0.0
 11
107.9
 21
427.82
 31
0.0
  0
LINE
  5
704
330
522
100
AcDbEntity
  8
画層1
 62
     0
370
    -2
100
AcDbLine
 10
137.28
 20
227.82
 30
0.0
 11
107.9
 21
227.82
 31
0.0
  0
LINE
  5
705
330
522
100
AcDbEntity
  8
画層1
 62
     0
370
    -2
100
AcDbLine
 10
109.15
 20
426.32
 30
0.0
 11
109.15
 21
229.32
 31
0.0
  0
INSERT
  5
706
330
522
100
AcDbEntity
  8
画層1
 62
     0
370
    -2
100
AcDbBlockReference
  2
_OPEN30
 10
109.15
 20
427.82
 30
0.0
 41
1.5
 42
1.5
 43
1.5
 50
90.0
  0
INSERT
  5
707
330
522
100
AcDbEntity
  8
画層1
 62
     0
370
    -2
100
AcDbBlockReference
  2
_OPEN30
 10
109.15
 20
227.82
 30
0.0
 41
1.5
 42
1.5
 43
1.5
 50
270.0
  0
MTEXT
  5
708
330
522
100
AcDbEntity
  8
画層1
 62
     0
100
AcDbMText
 10
107.2699999999999
 20
327.82
 30
0.0
 40
2.5
 41
0.0
 71
     5
 72
     1
  1
\A1;200
  7
STYLE1
 11
0.0000000000000001
 21
1.0
 31
0.0
 73
     1
 44
1.0
  0
POINT
  5
709
330
522
100
AcDbEntity
  8
DEFPOINTS
 62
     0
100
AcDbPoint
 10
137.9099999999999
 20
427.82
 30
0.0
  0
POINT
  5
70A
330
522
100
AcDbEntity
  8
DEFPOINTS
 62
     0
100
AcDbPoint
 10
137.9099999999999
 20
227.82
 30
0.0
  0
POINT
  5
70B
330
522
100
AcDbEntity
  8
DEFPOINTS
 62
     0
100
AcDbPoint
 10
109.15
 20
227.82
 30
0.0
  0
ENDBLK
  5
52D
330
522
100
AcDbEntity
  8
0
 62
     3
100
AcDbBlockEnd
  0
BLOCK
  5
538
330
52E
100
AcDbEntity
  8
0
 62
     3
100
AcDbBlockBegin
  2
*D21
 70
     1
 10
0.0
 20
0.0
 30
0.0
  3
*D21
  1

  0
LINE
  5
70C
330
52E
100
AcDbEntity
  8
画層1
 62
     0
370
    -2
100
AcDbLine
 10
144.16
 20
437.8199999999999
 30
0.0
 11
93.90000000000005
 21
437.82
 31
0.0
  0
LINE
  5
70D
330
52E
100
AcDbEntity
  8
画層1
 62
     0
370
    -2
100
AcDbLine
 10
143.4399999999999
 20
217.8199999999999
 30
0.0
 11
93.9
 21
217.8199999999999
 31
0.0
  0
LINE
  5
70E
330
52E
100
AcDbEntity
  8
画層1
 62
     0
370
    -2
100
AcDbLine
 10
95.15000000000005
 20
436.32
 30
0.0
 11
95.15
 21
219.32
 31
0.0
  0
INSERT
  5
70F
330
52E
100
AcDbEntity
  8
画層1
 62
     0
370
    -2
100
AcDbBlockReference
  2
_OPEN30
 10
95.15000000000005
 20
437.82
 30
0.0
 41
1.5
 42
1.5
 43
1.5
 50
90.0
  0
INSERT
  5
710
330
52E
100
AcDbEntity
  8
画層1
 62
     0
370
    -2
100
AcDbBlockReference
  2
_OPEN30
 10
95.15
 20
217.8199999999999
 30
0.0
 41
1.5
 42
1.5
 43
1.5
 50
270.0
  0
MTEXT
  5
711
330
52E
100
AcDbEntity
  8
画層1
 62
     0
100
AcDbMText
 10
93.26999999999998
 20
327.82
 30
0.0
 40
2.5
 41
0.0
 71
     5
 72
     1
  1
\A1;220
  7
STYLE1
 11
0.0000000000000001
 21
1.0
 31
0.0
 73
     1
 44
1.0
  0
POINT
  5
712
330
52E
100
AcDbEntity
  8
DEFPOINTS
 62
     0
100
AcDbPoint
 10
144.7899999999999
 20
437.8199999999999
 30
0.0
  0
POINT
  5
713
330
52E
100
AcDbEntity
  8
DEFPOINTS
 62
     0
100
AcDbPoint
 10
144.0699999999999
 20
217.8199999999999
 30
0.0
  0
POINT
  5
714
330
52E
100
AcDbEntity
  8
DEFPOINTS
 62
     0
100
AcDbPoint
 10
95.15
 20
217.8199999999999
 30
0.0
  0
ENDBLK
  5
539
330
52E
100
AcDbEntity
  8
0
 62
     3
100
AcDbBlockEnd
  0
BLOCK
  5
544
330
53A
100
AcDbEntity
  8
0
 62
     3
100
AcDbBlockBegin
  2
*D22
 70
     1
 10
0.0
 20
0.0
 30
0.0
  3
*D22
  1

  0
LINE
  5
715
330
53A
100
AcDbEntity
  8
画層1
 62
     0
370
    -2
100
AcDbLine
 10
178.2799999999999
 20
223.8199999999999
 30
0.0
 11
248.3999999999999
 21
223.8199999999999
 31
0.0
  0
LINE
  5
716
330
53A
100
AcDbEntity
  8
画層1
 62
     0
370
    -2
100
AcDbLine
 10
178.2799999999999
 20
431.82
 30
0.0
 11
248.3999999999999
 21
431.82
 31
0.0
  0
LINE
  5
717
330
53A
100
AcDbEntity
  8
画層1
 62
     0
370
    -2
100
AcDbLine
 10
247.1499999999999
 20
225.3199999999999
 30
0.0
 11
247.15
 21
430.32
 31
0.0
  0
INSERT
  5
718
330
53A
100
AcDbEntity
  8
画層1
 62
     0
370
    -2
100
AcDbBlockReference
  2
_OPEN30
 10
247.1499999999999
 20
223.8199999999999
 30
0.0
 41
1.5
 42
1.5
 43
1.5
 50
270.0
  0
INSERT
  5
719
330
53A
100
AcDbEntity
  8
画層1
 62
     0
370
    -2
100
AcDbBlockReference
  2
_OPEN30
 10
247.15
 20
431.82
 30
0.0
 41
1.5
 42
1.5
 43
1.5
 50
90.0
  0
MTEXT
  5
71A
330
53A
100
AcDbEntity
  8
画層1
 62
     0
100
AcDbMText
 10
245.2699999999999
 20
327.82
 30
0.0
 40
2.5
 41
0.0
 71
     5
 72
     1
  1
\A1;208
  7
STYLE1
 11
0.0000000000000001
 21
1.0
 31
0.0
 73
     1
 44
1.0
  0
POINT
  5
71B
330
53A
100
AcDbEntity
  8
DEFPOINTS
 62
     0
100
AcDbPoint
 10
177.65
 20
223.8199999999999
 30
0.0
  0
POINT
  5
71C
330
53A
100
AcDbEntity
  8
DEFPOINTS
 62
     0
100
AcDbPoint
 10
177.65
 20
431.82
 30
0.0
  0
POINT
  5
71D
330
53A
100
AcDbEntity
  8
DEFPOINTS
 62
     0
100
AcDbPoint
 10
247.15
 20
431.82
 30
0.0
  0
ENDBLK
  5
545
330
53A
100
AcDbEntity
  8
0
 62
     3
100
AcDbBlockEnd
  0
BLOCK
  5
550
330
546
100
AcDbEntity
  8
0
 62
     3
100
AcDbBlockBegin
  2
*D23
 70
     1
 10
0.0
 20
0.0
 30
0.0
  3
*D23
  1

  0
LINE
  5
71E
330
546
100
AcDbEntity
  8
画層1
 62
     0
370
    -2
100
AcDbLine
 10
210.72
 20
217.8199999999999
 30
0.0
 11
248.3999999999999
 21
217.8199999999999
 31
0.0
  0
LINE
  5
71F
330
546
100
AcDbEntity
  8
画層1
 62
     0
370
    -2
100
AcDbLine
 10
178.2799999999999
 20
223.8199999999999
 30
0.0
 11
248.3999999999999
 21
223.8199999999999
 31
0.0
  0
LINE
  5
720
330
546
100
AcDbEntity
  8
画層1
 62
     0
370
    -2
100
AcDbLine
 10
247.15
 20
219.32
 30
0.0
 11
247.15
 21
222.3199999999999
 31
0.0
  0
INSERT
  5
721
330
546
100
AcDbEntity
  8
画層1
 62
     0
370
    -2
100
AcDbBlockReference
  2
_OPEN30
 10
247.15
 20
217.8199999999999
 30
0.0
 41
1.5
 42
1.5
 43
1.5
 50
270.0
  0
INSERT
  5
722
330
546
100
AcDbEntity
  8
画層1
 62
     0
370
    -2
100
AcDbBlockReference
  2
_OPEN30
 10
247.15
 20
223.8199999999999
 30
0.0
 41
1.5
 42
1.5
 43
1.5
 50
90.0
  0
MTEXT
  5
723
330
546
100
AcDbEntity
  8
画層1
 62
     0
100
AcDbMText
 10
245.2699999999999
 20
220.82
 30
0.0
 40
2.5
 41
0.0
 71
     5
 72
     1
  1
\A1;6
  7
STYLE1
 11
0.0000000000000001
 21
1.0
 31
0.0
 73
     1
 44
1.0
  0
POINT
  5
724
330
546
100
AcDbEntity
  8
DEFPOINTS
 62
     0
100
AcDbPoint
 10
210.09
 20
217.8199999999999
 30
0.0
  0
POINT
  5
725
330
546
100
AcDbEntity
  8
DEFPOINTS
 62
     0
100
AcDbPoint
 10
177.65
 20
223.8199999999999
 30
0.0
  0
POINT
  5
726
330
546
100
AcDbEntity
  8
DEFPOINTS
 62
     0
100
AcDbPoint
 10
247.15
 20
223.8199999999999
 30
0.0
  0
ENDBLK
  5
551
330
546
100
AcDbEntity
  8
0
 62
     3
100
AcDbBlockEnd
  0
BLOCK
  5
55D
330
552
100
AcDbEntity
  8
0
 62
     3
100
AcDbBlockBegin
  2
*D24
 70
     1
 10
0.0
 20
0.0
 30
0.0
  3
*D24
  1

  0
LINE
  5
727
330
552
100
AcDbEntity
  8
画層1
 62
     0
370
    -2
100
AcDbLine
 10
174.65
 20
217.1899999999999
 30
0.0
 11
174.65
 21
201.5699999999999
 31
0.0
  0
LINE
  5
728
330
552
100
AcDbEntity
  8
画層1
 62
     0
370
    -2
100
AcDbLine
 10
180.6499999999999
 20
217.1899999999999
 30
0.0
 11
180.6499999999999
 21
201.5699999999999
 31
0.0
  0
LINE
  5
729
330
552
100
AcDbEntity
  8
画層1
 62
     0
370
    -2
100
AcDbLine
 10
176.15
 20
202.82
 30
0.0
 11
179.15
 21
202.82
 31
0.0
  0
LINE
  5
72A
330
552
100
AcDbEntity
  8
画層1
 62
     0
370
    -2
100
AcDbLine
 10
180.6499999999999
 20
202.82
 30
0.0
 11
197.7120304568528
 21
202.82
 31
0.0
  0
INSERT
  5
72B
330
552
100
AcDbEntity
  8
画層1
 62
     0
370
    -2
100
AcDbBlockReference
  2
_OPEN30
 10
174.65
 20
202.82
 30
0.0
 41
1.5
 42
1.5
 43
1.5
 50
180.0
  0
INSERT
  5
72C
330
552
100
AcDbEntity
  8
画層1
 62
     0
370
    -2
100
AcDbBlockReference
  2
_OPEN30
 10
180.6499999999999
 20
202.82
 30
0.0
 41
1.5
 42
1.5
 43
1.5
  0
MTEXT
  5
72D
330
552
100
AcDbEntity
  8
画層1
 62
     0
100
AcDbMText
 10
189.9310152284263
 20
204.8649746192893
 30
0.0
 40
2.5
 41
0.0
 71
     5
 72
     1
  1
\A1;6キリカキ
  7
STYLE1
 73
     1
 44
1.0
  0
POINT
  5
72E
330
552
100
AcDbEntity
  8
DEFPOINTS
 62
     0
100
AcDbPoint
 10
174.65
 20
217.8199999999999
 30
0.0
  0
POINT
  5
72F
330
552
100
AcDbEntity
  8
DEFPOINTS
 62
     0
100
AcDbPoint
 10
180.6499999999999
 20
217.8199999999999
 30
0.0
  0
POINT
  5
730
330
552
100
AcDbEntity
  8
DEFPOINTS
 62
     0
100
AcDbPoint
 10
180.6499999999999
 20
202.82
 30
0.0
  0
ENDBLK
  5
55E
330
552
100
AcDbEntity
  8
0
 62
     3
100
AcDbBlockEnd
  0
BLOCK
  5
569
330
55F
100
AcDbEntity
  8
0
 62
     3
100
AcDbBlockBegin
  2
*D25
 70
     1
 10
0.0
 20
0.0
 30
0.0
  3
*D25
  1

  0
LINE
  5
731
330
55F
100
AcDbEntity
  8
画層1
 62
     0
370
    -2
100
AcDbLine
 10
137.28
 20
227.82
 30
0.0
 11
107.9
 21
227.82
 31
0.0
  0
LINE
  5
732
330
55F
100
AcDbEntity
  8
画層1
 62
     0
370
    -2
100
AcDbLine
 10
143.4399999999999
 20
217.8199999999999
 30
0.0
 11
107.9
 21
217.8199999999999
 31
0.0
  0
LINE
  5
733
330
55F
100
AcDbEntity
  8
画層1
 62
     0
370
    -2
100
AcDbLine
 10
109.15
 20
226.3199999999999
 30
0.0
 11
109.15
 21
219.32
 31
0.0
  0
INSERT
  5
734
330
55F
100
AcDbEntity
  8
画層1
 62
     0
370
    -2
100
AcDbBlockReference
  2
_OPEN30
 10
109.15
 20
227.82
 30
0.0
 41
1.5
 42
1.5
 43
1.5
 50
90.0
  0
INSERT
  5
735
330
55F
100
AcDbEntity
  8
画層1
 62
     0
370
    -2
100
AcDbBlockReference
  2
_OPEN30
 10
109.15
 20
217.8199999999999
 30
0.0
 41
1.5
 42
1.5
 43
1.5
 50
270.0
  0
MTEXT
  5
736
330
55F
100
AcDbEntity
  8
画層1
 62
     0
100
AcDbMText
 10
107.2699999999999
 20
222.82
 30
0.0
 40
2.5
 41
0.0
 71
     5
 72
     1
  1
\A1;10
  7
STYLE1
 11
0.0000000000000001
 21
1.0
 31
0.0
 73
     1
 44
1.0
  0
POINT
  5
737
330
55F
100
AcDbEntity
  8
DEFPOINTS
 62
     0
100
AcDbPoint
 10
137.9099999999999
 20
227.82
 30
0.0
  0
POINT
  5
738
330
55F
100
AcDbEntity
  8
DEFPOINTS
 62
     0
100
AcDbPoint
 10
144.0699999999999
 20
217.8199999999999
 30
0.0
  0
POINT
  5
739
330
55F
100
AcDbEntity
  8
DEFPOINTS
 62
     0
100
AcDbPoint
 10
109.15
 20
217.8199999999999
 30
0.0
  0
ENDBLK
  5
56A
330
55F
100
AcDbEntity
  8
0
 62
     3
100
AcDbBlockEnd
  0
BLOCK
  5
575
330
56B
100
AcDbEntity
  8
0
 62
     3
100
AcDbBlockBegin
  2
*D26
 70
     1
 10
0.0
 20
0.0
 30
0.0
  3
*D26
  1

  0
LINE
  5
743
330
56B
100
AcDbEntity
  8
画層1
 62
     0
370
    -2
100
AcDbLine
 10
179.6499999999999
 20
271.45
 30
0.0
 11
179.6499999999999
 21
288.1099999999999
 31
0.0
  0
LINE
  5
744
330
56B
100
AcDbEntity
  8
画層1
 62
     0
370
    -2
100
AcDbLine
 10
189.6499999999999
 20
271.45
 30
0.0
 11
189.6499999999999
 21
288.1099999999999
 31
0.0
  0
LINE
  5
745
330
56B
100
AcDbEntity
  8
画層1
 62
     0
370
    -2
100
AcDbLine
 10
181.15
 20
286.86
 30
0.0
 11
188.15
 21
286.86
 31
0.0
  0
INSERT
  5
746
330
56B
100
AcDbEntity
  8
画層1
 62
     0
370
    -2
100
AcDbBlockReference
  2
_OPEN30
 10
179.6499999999999
 20
286.86
 30
0.0
 41
1.5
 42
1.5
 43
1.5
 50
180.0
  0
INSERT
  5
747
330
56B
100
AcDbEntity
  8
画層1
 62
     0
370
    -2
100
AcDbBlockReference
  2
_OPEN30
 10
189.6499999999999
 20
286.86
 30
0.0
 41
1.5
 42
1.5
 43
1.5
  0
MTEXT
  5
748
330
56B
100
AcDbEntity
  8
画層1
 62
     0
100
AcDbMText
 10
184.6499999999999
 20
288.7399999999999
 30
0.0
 40
2.5
 41
0.0
 71
     5
 72
     1
  1
\A1;10
  7
STYLE1
 73
     1
 44
1.0
  0
POINT
  5
749
330
56B
100
AcDbEntity
  8
DEFPOINTS
 62
     0
100
AcDbPoint
 10
179.6499999999999
 20
270.82
 30
0.0
  0
POINT
  5
74A
330
56B
100
AcDbEntity
  8
DEFPOINTS
 62
     0
100
AcDbPoint
 10
189.6499999999999
 20
270.82
 30
0.0
  0
POINT
  5
74B
330
56B
100
AcDbEntity
  8
DEFPOINTS
 62
     0
100
AcDbPoint
 10
189.6499999999999
 20
286.86
 30
0.0
  0
ENDBLK
  5
576
330
56B
100
AcDbEntity
  8
0
 62
     3
100
AcDbBlockEnd
  0
BLOCK
  5
581
330
577
100
AcDbEntity
  8
0
 62
     3
100
AcDbBlockBegin
  2
*D27
 70
     1
 10
0.0
 20
0.0
 30
0.0
  3
*D27
  1

  0
LINE
  5
6FA
330
577
100
AcDbEntity
  8
画層1
 62
     0
370
    -2
100
AcDbLine
 10
218.04
 20
227.82
 30
0.0
 11
234.4
 21
227.82
 31
0.0
  0
LINE
  5
6FB
330
577
100
AcDbEntity
  8
画層1
 62
     0
370
    -2
100
AcDbLine
 10
211.28
 20
259.8199999999999
 30
0.0
 11
234.4
 21
259.8199999999999
 31
0.0
  0
LINE
  5
6FC
330
577
100
AcDbEntity
  8
画層1
 62
     0
370
    -2
100
AcDbLine
 10
233.15
 20
229.32
 30
0.0
 11
233.15
 21
258.32
 31
0.0
  0
INSERT
  5
6FD
330
577
100
AcDbEntity
  8
画層1
 62
     0
370
    -2
100
AcDbBlockReference
  2
_OPEN30
 10
233.15
 20
227.82
 30
0.0
 41
1.5
 42
1.5
 43
1.5
 50
270.0
  0
INSERT
  5
6FE
330
577
100
AcDbEntity
  8
画層1
 62
     0
370
    -2
100
AcDbBlockReference
  2
_OPEN30
 10
233.15
 20
259.8199999999999
 30
0.0
 41
1.5
 42
1.5
 43
1.5
 50
90.0
  0
MTEXT
  5
6FF
330
577
100
AcDbEntity
  8
画層1
 62
     0
100
AcDbMText
 10
231.2699999999999
 20
243.82
 30
0.0
 40
2.5
 41
0.0
 71
     5
 72
     1
  1
\A1;32
  7
STYLE1
 11
0.0000000000000001
 21
1.0
 31
0.0
 73
     1
 44
1.0
  0
POINT
  5
700
330
577
100
AcDbEntity
  8
DEFPOINTS
 62
     0
100
AcDbPoint
 10
217.41
 20
227.82
 30
0.0
  0
POINT
  5
701
330
577
100
AcDbEntity
  8
DEFPOINTS
 62
     0
100
AcDbPoint
 10
210.65
 20
259.8199999999999
 30
0.0
  0
POINT
  5
702
330
577
100
AcDbEntity
  8
DEFPOINTS
 62
     0
100
AcDbPoint
 10
233.15
 20
259.8199999999999
 30
0.0
  0
ENDBLK
  5
582
330
577
100
AcDbEntity
  8
0
 62
     3
100
AcDbBlockEnd
  0
BLOCK
  5
58D
330
583
100
AcDbEntity
  8
0
 62
     3
100
AcDbBlockBegin
  2
*D28
 70
     1
 10
0.0
 20
0.0
 30
0.0
  3
*D28
  1

  0
LINE
  5
74C
330
583
100
AcDbEntity
  8
画層1
 62
     0
370
    -2
100
AcDbLine
 10
137.15
 20
428.4099999999999
 30
0.0
 11
137.15
 21
468.0699999999999
 31
0.0
  0
LINE
  5
74D
330
583
100
AcDbEntity
  8
画層1
 62
     0
370
    -2
100
AcDbLine
 10
218.15
 20
428.57
 30
0.0
 11
218.15
 21
468.0699999999999
 31
0.0
  0
LINE
  5
74E
330
583
100
AcDbEntity
  8
画層1
 62
     0
370
    -2
100
AcDbLine
 10
138.65
 20
466.8199999999999
 30
0.0
 11
216.65
 21
466.8199999999999
 31
0.0
  0
INSERT
  5
74F
330
583
100
AcDbEntity
  8
画層1
 62
     0
370
    -2
100
AcDbBlockReference
  2
_OPEN30
 10
137.15
 20
466.8199999999999
 30
0.0
 41
1.5
 42
1.5
 43
1.5
 50
180.0
  0
INSERT
  5
750
330
583
100
AcDbEntity
  8
画層1
 62
     0
370
    -2
100
AcDbBlockReference
  2
_OPEN30
 10
218.15
 20
466.8199999999999
 30
0.0
 41
1.5
 42
1.5
 43
1.5
  0
MTEXT
  5
751
330
583
100
AcDbEntity
  8
画層1
 62
     0
100
AcDbMText
 10
177.65
 20
468.7
 30
0.0
 40
2.5
 41
0.0
 71
     5
 72
     1
  1
\A1;81
  7
STYLE1
 73
     1
 44
1.0
  0
POINT
  5
752
330
583
100
AcDbEntity
  8
DEFPOINTS
 62
     0
100
AcDbPoint
 10
137.15
 20
427.78
 30
0.0
  0
POINT
  5
753
330
583
100
AcDbEntity
  8
DEFPOINTS
 62
     0
100
AcDbPoint
 10
218.15
 20
427.9399999999999
 30
0.0
  0
POINT
  5
754
330
583
100
AcDbEntity
  8
DEFPOINTS
 62
     0
100
AcDbPoint
 10
218.15
 20
466.8199999999999
 30
0.0
  0
ENDBLK
  5
58E
330
583
100
AcDbEntity
  8
0
 62
     3
100
AcDbBlockEnd
  0
BLOCK
  5
599
330
58F
100
AcDbEntity
  8
0
 62
     3
100
AcDbBlockBegin
  2
*D29
 70
     1
 10
0.0
 20
0.0
 30
0.0
  3
*D29
  1

  0
LINE
  5
755
330
58F
100
AcDbEntity
  8
画層1
 62
     0
370
    -2
100
AcDbLine
 10
178.2799999999999
 20
431.82
 30
0.0
 11
248.3999999999999
 21
431.82
 31
0.0
  0
LINE
  5
756
330
58F
100
AcDbEntity
  8
画層1
 62
     0
370
    -2
100
AcDbLine
 10
211.3799999999999
 20
437.8199999999999
 30
0.0
 11
248.3999999999999
 21
437.8199999999999
 31
0.0
  0
LINE
  5
757
330
58F
100
AcDbEntity
  8
画層1
 62
     0
370
    -2
100
AcDbLine
 10
247.15
 20
433.3199999999999
 30
0.0
 11
247.15
 21
436.3199999999999
 31
0.0
  0
INSERT
  5
758
330
58F
100
AcDbEntity
  8
画層1
 62
     0
370
    -2
100
AcDbBlockReference
  2
_OPEN30
 10
247.15
 20
431.82
 30
0.0
 41
1.5
 42
1.5
 43
1.5
 50
270.0
  0
INSERT
  5
759
330
58F
100
AcDbEntity
  8
画層1
 62
     0
370
    -2
100
AcDbBlockReference
  2
_OPEN30
 10
247.15
 20
437.8199999999999
 30
0.0
 41
1.5
 42
1.5
 43
1.5
 50
90.0
  0
MTEXT
  5
75A
330
58F
100
AcDbEntity
  8
画層1
 62
     0
100
AcDbMText
 10
245.2699999999999
 20
434.82
 30
0.0
 40
2.5
 41
0.0
 71
     5
 72
     1
  1
\A1;6
  7
STYLE1
 11
0.0000000000000001
 21
1.0
 31
0.0
 73
     1
 44
1.0
  0
POINT
  5
75B
330
58F
100
AcDbEntity
  8
DEFPOINTS
 62
     0
100
AcDbPoint
 10
177.65
 20
431.82
 30
0.0
  0
POINT
  5
75C
330
58F
100
AcDbEntity
  8
DEFPOINTS
 62
     0
100
AcDbPoint
 10
210.7499999999999
 20
437.8199999999999
 30
0.0
  0
POINT
  5
75D
330
58F
100
AcDbEntity
  8
DEFPOINTS
 62
     0
100
AcDbPoint
 10
247.15
 20
437.8199999999999
 30
0.0
  0
ENDBLK
  5
59A
330
58F
100
AcDbEntity
  8
0
 62
     3
100
AcDbBlockEnd
  0
BLOCK
  5
5A5
330
59B
100
AcDbEntity
  8
0
 62
     3
100
AcDbBlockBegin
  2
*D30
 70
     1
 10
0.0
 20
0.0
 30
0.0
  3
*D30
  1

  0
LINE
  5
73A
330
59B
100
AcDbEntity
  8
画層1
 62
     0
370
    -2
100
AcDbLine
 10
137.28
 20
383.9399999999999
 30
0.0
 11
121.9
 21
383.94
 31
0.0
  0
LINE
  5
73B
330
59B
100
AcDbEntity
  8
画層1
 62
     0
370
    -2
100
AcDbLine
 10
137.28
 20
375.9399999999999
 30
0.0
 11
121.9
 21
375.94
 31
0.0
  0
LINE
  5
73C
330
59B
100
AcDbEntity
  8
画層1
 62
     0
370
    -2
100
AcDbLine
 10
123.15
 20
382.44
 30
0.0
 11
123.15
 21
377.44
 31
0.0
  0
INSERT
  5
73D
330
59B
100
AcDbEntity
  8
画層1
 62
     0
370
    -2
100
AcDbBlockReference
  2
_OPEN30
 10
123.15
 20
383.94
 30
0.0
 41
1.5
 42
1.5
 43
1.5
 50
90.0
  0
INSERT
  5
73E
330
59B
100
AcDbEntity
  8
画層1
 62
     0
370
    -2
100
AcDbBlockReference
  2
_OPEN30
 10
123.15
 20
375.94
 30
0.0
 41
1.5
 42
1.5
 43
1.5
 50
270.0
  0
MTEXT
  5
73F
330
59B
100
AcDbEntity
  8
画層1
 62
     0
100
AcDbMText
 10
121.2699999999999
 20
379.94
 30
0.0
 40
2.5
 41
0.0
 71
     5
 72
     1
  1
\A1;8
  7
STYLE1
 11
0.0000000000000001
 21
1.0
 31
0.0
 73
     1
 44
1.0
  0
POINT
  5
740
330
59B
100
AcDbEntity
  8
DEFPOINTS
 62
     0
100
AcDbPoint
 10
137.9099999999999
 20
383.9399999999999
 30
0.0
  0
POINT
  5
741
330
59B
100
AcDbEntity
  8
DEFPOINTS
 62
     0
100
AcDbPoint
 10
137.9099999999999
 20
375.9399999999999
 30
0.0
  0
POINT
  5
742
330
59B
100
AcDbEntity
  8
DEFPOINTS
 62
     0
100
AcDbPoint
 10
123.15
 20
375.94
 30
0.0
  0
ENDBLK
  5
5A6
330
59B
100
AcDbEntity
  8
0
 62
     3
100
AcDbBlockEnd
  0
BLOCK
  5
5B1
330
5A7
100
AcDbEntity
  8
0
 62
     3
100
AcDbBlockBegin
  2
*D31
 70
     1
 10
0.0
 20
0.0
 30
0.0
  3
*D31
  1

  0
LINE
  5
767
330
5A7
100
AcDbEntity
  8
画層1
 62
     0
370
    -2
100
AcDbLine
 10
144.16
 20
437.8199999999999
 30
0.0
 11
107.9
 21
437.82
 31
0.0
  0
LINE
  5
768
330
5A7
100
AcDbEntity
  8
画層1
 62
     0
370
    -2
100
AcDbLine
 10
137.28
 20
427.82
 30
0.0
 11
107.9
 21
427.82
 31
0.0
  0
LINE
  5
769
330
5A7
100
AcDbEntity
  8
画層1
 62
     0
370
    -2
100
AcDbLine
 10
109.15
 20
436.32
 30
0.0
 11
109.15
 21
429.32
 31
0.0
  0
INSERT
  5
76A
330
5A7
100
AcDbEntity
  8
画層1
 62
     0
370
    -2
100
AcDbBlockReference
  2
_OPEN30
 10
109.15
 20
437.82
 30
0.0
 41
1.5
 42
1.5
 43
1.5
 50
90.0
  0
INSERT
  5
76B
330
5A7
100
AcDbEntity
  8
画層1
 62
     0
370
    -2
100
AcDbBlockReference
  2
_OPEN30
 10
109.15
 20
427.82
 30
0.0
 41
1.5
 42
1.5
 43
1.5
 50
270.0
  0
MTEXT
  5
76C
330
5A7
100
AcDbEntity
  8
画層1
 62
     0
100
AcDbMText
 10
107.2699999999999
 20
432.82
 30
0.0
 40
2.5
 41
0.0
 71
     5
 72
     1
  1
\A1;10
  7
STYLE1
 11
0.0000000000000001
 21
1.0
 31
0.0
 73
     1
 44
1.0
  0
POINT
  5
76D
330
5A7
100
AcDbEntity
  8
DEFPOINTS
 62
     0
100
AcDbPoint
 10
144.7899999999999
 20
437.8199999999999
 30
0.0
  0
POINT
  5
76E
330
5A7
100
AcDbEntity
  8
DEFPOINTS
 62
     0
100
AcDbPoint
 10
137.9099999999999
 20
427.82
 30
0.0
  0
POINT
  5
76F
330
5A7
100
AcDbEntity
  8
DEFPOINTS
 62
     0
100
AcDbPoint
 10
109.15
 20
427.82
 30
0.0
  0
ENDBLK
  5
5B2
330
5A7
100
AcDbEntity
  8
0
 62
     3
100
AcDbBlockEnd
  0
BLOCK
  5
5BD
330
5B3
100
AcDbEntity
  8
0
 62
     3
100
AcDbBlockBegin
  2
*D32
 70
     1
 10
0.0
 20
0.0
 30
0.0
  3
*D32
  1

  0
LINE
  5
75E
330
5B3
100
AcDbEntity
  8
画層1
 62
     0
370
    -2
100
AcDbLine
 10
174.65
 20
438.45
 30
0.0
 11
174.65
 21
454.07
 31
0.0
  0
LINE
  5
75F
330
5B3
100
AcDbEntity
  8
画層1
 62
     0
370
    -2
100
AcDbLine
 10
180.6499999999999
 20
438.45
 30
0.0
 11
180.6499999999999
 21
454.07
 31
0.0
  0
LINE
  5
760
330
5B3
100
AcDbEntity
  8
画層1
 62
     0
370
    -2
100
AcDbLine
 10
176.15
 20
452.82
 30
0.0
 11
179.15
 21
452.82
 31
0.0
  0
INSERT
  5
761
330
5B3
100
AcDbEntity
  8
画層1
 62
     0
370
    -2
100
AcDbBlockReference
  2
_OPEN30
 10
174.65
 20
452.82
 30
0.0
 41
1.5
 42
1.5
 43
1.5
 50
180.0
  0
INSERT
  5
762
330
5B3
100
AcDbEntity
  8
画層1
 62
     0
370
    -2
100
AcDbBlockReference
  2
_OPEN30
 10
180.6499999999999
 20
452.82
 30
0.0
 41
1.5
 42
1.5
 43
1.5
  0
MTEXT
  5
763
330
5B3
100
AcDbEntity
  8
画層1
 62
     0
100
AcDbMText
 10
177.65
 20
454.6999999999999
 30
0.0
 40
2.5
 41
0.0
 71
     5
 72
     1
  1
\A1;6
  7
STYLE1
 73
     1
 44
1.0
  0
POINT
  5
764
330
5B3
100
AcDbEntity
  8
DEFPOINTS
 62
     0
100
AcDbPoint
 10
174.65
 20
437.8199999999999
 30
0.0
  0
POINT
  5
765
330
5B3
100
AcDbEntity
  8
DEFPOINTS
 62
     0
100
AcDbPoint
 10
180.6499999999999
 20
437.8199999999999
 30
0.0
  0
POINT
  5
766
330
5B3
100
AcDbEntity
  8
DEFPOINTS
 62
     0
100
AcDbPoint
 10
180.6499999999999
 20
452.82
 30
0.0
  0
ENDBLK
  5
5BE
330
5B3
100
AcDbEntity
  8
0
 62
     3
100
AcDbBlockEnd
  0
BLOCK
  5
5C9
330
5BF
100
AcDbEntity
  8
0
 62
     3
100
AcDbBlockBegin
  2
*D33
 70
     1
 10
0.0
 20
0.0
 30
0.0
  3
*D33
  1

  0
LINE
  5
770
330
5BF
100
AcDbEntity
  8
画層1
 62
     0
370
    -2
100
AcDbLine
 10
535.35
 20
217.1899999999999
 30
0.0
 11
535.35
 21
201.5699999999999
 31
0.0
  0
LINE
  5
771
330
5BF
100
AcDbEntity
  8
画層1
 62
     0
370
    -2
100
AcDbLine
 10
445.35
 20
255.69
 30
0.0
 11
445.35
 21
201.5699999999999
 31
0.0
  0
LINE
  5
772
330
5BF
100
AcDbEntity
  8
画層1
 62
     0
370
    -2
100
AcDbLine
 10
533.85
 20
202.82
 30
0.0
 11
446.85
 21
202.82
 31
0.0
  0
INSERT
  5
773
330
5BF
100
AcDbEntity
  8
画層1
 62
     0
370
    -2
100
AcDbBlockReference
  2
_OPEN30
 10
535.35
 20
202.82
 30
0.0
 41
1.5
 42
1.5
 43
1.5
  0
INSERT
  5
774
330
5BF
100
AcDbEntity
  8
画層1
 62
     0
370
    -2
100
AcDbBlockReference
  2
_OPEN30
 10
445.35
 20
202.82
 30
0.0
 41
1.5
 42
1.5
 43
1.5
 50
180.0
  0
MTEXT
  5
775
330
5BF
100
AcDbEntity
  8
画層1
 62
     0
100
AcDbMText
 10
490.35
 20
204.9093908629441
 30
0.0
 40
2.5
 41
0.0
 71
     5
 72
     1
  1
\A1;(90)
  7
STYLE1
 73
     1
 44
1.0
  0
POINT
  5
776
330
5BF
100
AcDbEntity
  8
DEFPOINTS
 62
     0
100
AcDbPoint
 10
535.35
 20
217.8199999999999
 30
0.0
  0
POINT
  5
777
330
5BF
100
AcDbEntity
  8
DEFPOINTS
 62
     0
100
AcDbPoint
 10
445.35
 20
256.32
 30
0.0
  0
POINT
  5
778
330
5BF
100
AcDbEntity
  8
DEFPOINTS
 62
     0
100
AcDbPoint
 10
445.35
 20
202.82
 30
0.0
  0
ENDBLK
  5
5CA
330
5BF
100
AcDbEntity
  8
0
 62
     3
100
AcDbBlockEnd
  0
BLOCK
  5
5D5
330
5CB
100
AcDbEntity
  8
0
 62
     3
100
AcDbBlockBegin
  2
*D34
 70
     1
 10
0.0
 20
0.0
 30
0.0
  3
*D34
  1

  0
LINE
  5
779
330
5CB
100
AcDbEntity
  8
画層1
 62
     0
370
    -2
100
AcDbLine
 10
535.35
 20
438.45
 30
0.0
 11
535.35
 21
468.0699999999999
 31
0.0
  0
LINE
  5
77A
330
5CB
100
AcDbEntity
  8
画層1
 62
     0
370
    -2
100
AcDbLine
 10
375.35
 20
424.0499999999999
 30
0.0
 11
375.35
 21
468.0699999999999
 31
0.0
  0
LINE
  5
77B
330
5CB
100
AcDbEntity
  8
画層1
 62
     0
370
    -2
100
AcDbLine
 10
533.85
 20
466.8199999999999
 30
0.0
 11
376.85
 21
466.8199999999999
 31
0.0
  0
INSERT
  5
77C
330
5CB
100
AcDbEntity
  8
画層1
 62
     0
370
    -2
100
AcDbBlockReference
  2
_OPEN30
 10
535.35
 20
466.8199999999999
 30
0.0
 41
1.5
 42
1.5
 43
1.5
  0
INSERT
  5
77D
330
5CB
100
AcDbEntity
  8
画層1
 62
     0
370
    -2
100
AcDbBlockReference
  2
_OPEN30
 10
375.35
 20
466.8199999999999
 30
0.0
 41
1.5
 42
1.5
 43
1.5
 50
180.0
  0
MTEXT
  5
77E
330
5CB
100
AcDbEntity
  8
画層1
 62
     0
100
AcDbMText
 10
455.35
 20
468.7
 30
0.0
 40
2.5
 41
0.0
 71
     5
 72
     1
  1
\A1;160
  7
STYLE1
 73
     1
 44
1.0
  0
POINT
  5
77F
330
5CB
100
AcDbEntity
  8
DEFPOINTS
 62
     0
100
AcDbPoint
 10
535.35
 20
437.8199999999999
 30
0.0
  0
POINT
  5
780
330
5CB
100
AcDbEntity
  8
DEFPOINTS
 62
     0
100
AcDbPoint
 10
375.35
 20
423.42
 30
0.0
  0
POINT
  5
781
330
5CB
100
AcDbEntity
  8
DEFPOINTS
 62
     0
100
AcDbPoint
 10
375.35
 20
466.8199999999999
 30
0.0
  0
ENDBLK
  5
5D6
330
5CB
100
AcDbEntity
  8
0
 62
     3
100
AcDbBlockEnd
  0
BLOCK
  5
5E1
330
5D7
100
AcDbEntity
  8
0
 62
     3
100
AcDbBlockBegin
  2
*D35
 70
     1
 10
0.0
 20
0.0
 30
0.0
  3
*D35
  1

  0
LINE
  5
782
330
5D7
100
AcDbEntity
  8
画層1
 62
     0
370
    -2
100
AcDbLine
 10
535.35
 20
438.45
 30
0.0
 11
535.35
 21
454.07
 31
0.0
  0
LINE
  5
783
330
5D7
100
AcDbEntity
  8
画層1
 62
     0
370
    -2
100
AcDbLine
 10
399.35
 20
391.4499999999999
 30
0.0
 11
399.35
 21
454.07
 31
0.0
  0
LINE
  5
784
330
5D7
100
AcDbEntity
  8
画層1
 62
     0
370
    -2
100
AcDbLine
 10
533.85
 20
452.82
 30
0.0
 11
400.85
 21
452.82
 31
0.0
  0
INSERT
  5
785
330
5D7
100
AcDbEntity
  8
画層1
 62
     0
370
    -2
100
AcDbBlockReference
  2
_OPEN30
 10
535.35
 20
452.82
 30
0.0
 41
1.5
 42
1.5
 43
1.5
  0
INSERT
  5
786
330
5D7
100
AcDbEntity
  8
画層1
 62
     0
370
    -2
100
AcDbBlockReference
  2
_OPEN30
 10
399.35
 20
452.82
 30
0.0
 41
1.5
 42
1.5
 43
1.5
 50
180.0
  0
MTEXT
  5
787
330
5D7
100
AcDbEntity
  8
画層1
 62
     0
100
AcDbMText
 10
467.35
 20
454.9093908629441
 30
0.0
 40
2.5
 41
0.0
 71
     5
 72
     1
  1
\A1;(136)
  7
STYLE1
 73
     1
 44
1.0
  0
POINT
  5
788
330
5D7
100
AcDbEntity
  8
DEFPOINTS
 62
     0
100
AcDbPoint
 10
535.35
 20
437.8199999999999
 30
0.0
  0
POINT
  5
789
330
5D7
100
AcDbEntity
  8
DEFPOINTS
 62
     0
100
AcDbPoint
 10
399.35
 20
390.8199999999999
 30
0.0
  0
POINT
  5
78A
330
5D7
100
AcDbEntity
  8
DEFPOINTS
 62
     0
100
AcDbPoint
 10
399.35
 20
452.82
 30
0.0
  0
ENDBLK
  5
5E2
330
5D7
100
AcDbEntity
  8
0
 62
     3
100
AcDbBlockEnd
  0
BLOCK
  5
5ED
330
5E3
100
AcDbEntity
  8
0
 62
     3
100
AcDbBlockBegin
  2
*D36
 70
     1
 10
0.0
 20
0.0
 30
0.0
  3
*D36
  1

  0
LINE
  5
78B
330
5E3
100
AcDbEntity
  8
画層1
 62
     0
370
    -2
100
AcDbLine
 10
399.35
 20
391.4499999999999
 30
0.0
 11
399.35
 21
454.07
 31
0.0
  0
LINE
  5
78C
330
5E3
100
AcDbEntity
  8
画層1
 62
     0
370
    -2
100
AcDbLine
 10
388.35
 20
391.4499999999999
 30
0.0
 11
388.35
 21
454.07
 31
0.0
  0
LINE
  5
78D
330
5E3
100
AcDbEntity
  8
画層1
 62
     0
370
    -2
100
AcDbLine
 10
397.85
 20
452.82
 30
0.0
 11
389.85
 21
452.82
 31
0.0
  0
INSERT
  5
78E
330
5E3
100
AcDbEntity
  8
画層1
 62
     0
370
    -2
100
AcDbBlockReference
  2
_OPEN30
 10
399.35
 20
452.82
 30
0.0
 41
1.5
 42
1.5
 43
1.5
  0
INSERT
  5
78F
330
5E3
100
AcDbEntity
  8
画層1
 62
     0
370
    -2
100
AcDbBlockReference
  2
_OPEN30
 10
388.35
 20
452.82
 30
0.0
 41
1.5
 42
1.5
 43
1.5
 50
180.0
  0
MTEXT
  5
790
330
5E3
100
AcDbEntity
  8
画層1
 62
     0
100
AcDbMText
 10
393.85
 20
454.6999999999999
 30
0.0
 40
2.5
 41
0.0
 71
     5
 72
     1
  1
\A1;11
  7
STYLE1
 73
     1
 44
1.0
  0
POINT
  5
791
330
5E3
100
AcDbEntity
  8
DEFPOINTS
 62
     0
100
AcDbPoint
 10
399.35
 20
390.8199999999999
 30
0.0
  0
POINT
  5
792
330
5E3
100
AcDbEntity
  8
DEFPOINTS
 62
     0
100
AcDbPoint
 10
388.35
 20
390.8199999999999
 30
0.0
  0
POINT
  5
793
330
5E3
100
AcDbEntity
  8
DEFPOINTS
 62
     0
100
AcDbPoint
 10
388.35
 20
452.82
 30
0.0
  0
ENDBLK
  5
5EE
330
5E3
100
AcDbEntity
  8
0
 62
     3
100
AcDbBlockEnd
  0
ENDSEC
  0
SECTION
  2
ENTITIES
  0
MTEXT
  5
32
330
2
100
AcDbEntity
  8
画層1
 62
     3
100
AcDbMText
 10
259.29
 20
175.72
 30
0.0
 40
5.0
 41
288.1
 71
     1
 72
     5
  1
{\C1;PAC27 20A,30A    質量　約2.2kg}
  7
STYLE1
 73
     1
 44
1.0
  0
LINE
  5
33
330
2
100
AcDbEntity
  8
画層1
  6
CENTER
 62
     0
100
AcDbLine
 10
177.65
 20
443.82
 30
0.0
 11
177.65
 21
211.8199999999999
 31
0.0
  0
DIMENSION
  5
35
330
2
100
AcDbEntity
  8
画層1
 62
     0
100
AcDbDimension
  2
*D22
 10
247.15
 20
431.82
 30
0.0
 11
245.2699999999999
 21
327.82
 31
0.0
 70
    32
 71
     5
 42
208.0
  3
STANDARD_WS
100
AcDbAlignedDimension
 13
177.65
 23
223.8199999999999
 33
0.0
 14
177.65
 24
431.82
 34
0.0
 50
90.0
100
AcDbRotatedDimension
1001
ACAD
1000
DSTYLE
1002
{
1070
   279
1070
     1
1070
    47
1040
0.6
1070
   144
1040
1.0
1070
   146
1040
0.5
1070
   173
1070
     0
1070
   284
1070
     8
1070
   340
1005
2A
1070
   341
1005
2B
1070
   342
1005
2B
1070
   343
1005
2B
1002
}
  0
DIMENSION
  5
43
330
2
100
AcDbEntity
  8
画層1
 62
     0
100
AcDbDimension
  2
*D21
 10
95.15
 20
217.8199999999999
 30
0.0
 11
93.26999999999998
 21
327.82
 31
0.0
 70
    32
 71
     5
 42
220.0
  3
STANDARD_WS
100
AcDbAlignedDimension
 13
144.7899999999999
 23
437.8199999999999
 33
0.0
 14
144.0699999999999
 24
217.8199999999999
 34
0.0
 50
90.0
100
AcDbRotatedDimension
1001
ACAD
1000
DSTYLE
1002
{
1070
    47
1040
0.6
1070
   144
1040
1.0
1070
   146
1040
0.5
1070
   173
1070
     0
1070
   284
1070
     8
1070
   340
1005
2A
1070
   341
1005
2B
1070
   342
1005
2B
1070
   343
1005
2B
1002
}
  0
DIMENSION
  5
50
330
2
100
AcDbEntity
  8
画層1
 62
     0
100
AcDbDimension
  2
*D20
 10
109.15
 20
227.82
 30
0.0
 11
107.2699999999999
 21
327.82
 31
0.0
 70
    32
 71
     5
 42
200.0
  3
STANDARD_WS
100
AcDbAlignedDimension
 13
137.9099999999999
 23
427.82
 33
0.0
 14
137.9099999999999
 24
227.82
 34
0.0
 50
90.0
100
AcDbRotatedDimension
1001
ACAD
1000
DSTYLE
1002
{
1070
   279
1070
     1
1070
    47
1040
0.6
1070
   144
1040
1.0
1070
   146
1040
0.5
1070
   173
1070
     0
1070
   284
1070
     8
1070
   340
1005
2A
1070
   341
1005
2B
1070
   342
1005
2B
1070
   343
1005
2B
1002
}
  0
LINE
  5
5D
330
2
100
AcDbEntity
  8
画層1
 62
     0
100
AcDbLine
 10
141.95
 20
317.4399999999999
 30
0.0
 11
141.95
 21
309.44
 31
0.0
  0
ARC
  5
5E
330
2
100
AcDbEntity
  8
画層1
 62
     0
100
AcDbCircle
 10
144.4499999999999
 20
314.9399999999999
 30
0.0
 40
1.0
100
AcDbArc
 50
270.0
 51
0.0
  0
CIRCLE
  5
5F
330
2
100
AcDbEntity
  8
画層1
 62
     0
100
AcDbCircle
 10
145.95
 20
313.4399999999999
 30
0.0
 40
3.0
  0
ARC
  5
60
330
2
100
AcDbEntity
  8
画層1
 62
     0
100
AcDbCircle
 10
147.4499999999999
 20
314.9399999999999
 30
0.0
 40
1.0
100
AcDbArc
 50
180.0
 51
270.0
  0
LINE
  5
61
330
2
100
AcDbEntity
  8
画層1
 62
     0
100
AcDbLine
 10
161.65
 20
391.82
 30
0.0
 11
161.65
 21
296.8199999999999
 31
0.0
  0
LINE
  5
62
330
2
100
AcDbEntity
  8
画層1
 62
     0
100
AcDbLine
 10
139.65
 20
391.82
 30
0.0
 11
139.65
 21
296.8199999999999
 31
0.0
  0
LINE
  5
63
330
2
100
AcDbEntity
  8
画層1
 62
     0
100
AcDbLine
 10
138.85
 20
391.82
 30
0.0
 11
138.85
 21
296.8199999999999
 31
0.0
  0
LINE
  5
64
330
2
100
AcDbEntity
  8
画層1
 62
     0
100
AcDbLine
 10
137.9099999999999
 20
391.82
 30
0.0
 11
137.9099999999999
 21
296.8199999999999
 31
0.0
  0
LINE
  5
65
330
2
100
AcDbEntity
  8
画層1
 62
     0
100
AcDbLine
 10
160.4499999999999
 20
390.8199999999999
 30
0.0
 11
160.4499999999999
 21
297.82
 31
0.0
  0
LINE
  5
66
330
2
100
AcDbEntity
  8
画層1
 62
     0
100
AcDbLine
 10
140.4499999999999
 20
297.82
 30
0.0
 11
140.4499999999999
 21
390.8199999999999
 31
0.0
  0
LINE
  5
67
330
2
100
AcDbEntity
  8
画層1
 62
     0
100
AcDbLine
 10
149.9499999999999
 20
388.7
 30
0.0
 11
149.9499999999999
 21
299.9399999999999
 31
0.0
  0
LINE
  5
68
330
2
100
AcDbEntity
  8
画層1
 62
     0
100
AcDbLine
 10
217.85
 20
416.3199999999999
 30
0.0
 11
217.85
 21
239.3199999999999
 31
0.0
  0
DIMENSION
  5
69
330
2
100
AcDbEntity
  8
画層1
 62
     0
100
AcDbDimension
  2
*D24
 10
180.6499999999999
 20
202.82
 30
0.0
 11
189.9310152284263
 21
204.8649746192893
 31
0.0
 70
    32
 71
     5
 42
6.0
  3
STANDARD_WS
100
AcDbAlignedDimension
 13
174.65
 23
217.8199999999999
 33
0.0
 14
180.6499999999999
 24
217.8199999999999
 34
0.0
100
AcDbRotatedDimension
1001
ACAD
1000
DSTYLE
1002
{
1070
     3
1000
キリカキ
1070
    47
1040
0.6
1070
   144
1040
1.0
1070
   146
1040
0.5
1070
   173
1070
     0
1070
   284
1070
     8
1070
   340
1005
2A
1070
   341
1005
2B
1070
   342
1005
2B
1070
   343
1005
2B
1002
}
  0
DIMENSION
  5
78
330
2
100
AcDbEntity
  8
画層1
 62
     0
100
AcDbDimension
  2
*D23
 10
247.15
 20
223.8199999999999
 30
0.0
 11
245.2699999999999
 21
220.82
 31
0.0
 70
    32
 71
     5
 42
5.999999999999971
  3
STANDARD_WS
100
AcDbAlignedDimension
 13
210.09
 23
217.8199999999999
 33
0.0
 14
177.65
 24
223.8199999999999
 34
0.0
 50
90.0
100
AcDbRotatedDimension
1001
ACAD
1000
DSTYLE
1002
{
1070
    47
1040
0.6
1070
   144
1040
1.0
1070
   146
1040
0.5
1070
   173
1070
     0
1070
   284
1070
     8
1070
   340
1005
2A
1070
   341
1005
2B
1070
   342
1005
2B
1070
   343
1005
2B
1002
}
  0
ARC
  5
87
330
2
100
AcDbEntity
  8
画層1
  6
DASHED2
 62
     0
100
AcDbCircle
 10
204.15
 20
270.3199999999999
 30
0.0
 40
1.5
100
AcDbArc
 50
0.0
 51
180.0
  0
ARC
  5
89
330
2
100
AcDbEntity
  8
画層1
  6
DASHED2
 62
     0
100
AcDbCircle
 10
204.15
 20
249.3199999999999
 30
0.0
 40
1.5
100
AcDbArc
 50
180.0
 51
0.0
  0
LINE
  5
8A
330
2
100
AcDbEntity
  8
画層1
  6
DASHED2
 62
     0
100
AcDbLine
 10
215.65
 20
271.8199999999999
 30
0.0
 11
139.65
 21
271.8199999999999
 31
0.0
  0
LINE
  5
8B
330
2
100
AcDbEntity
  8
画層1
  6
DASHED2
 62
     0
100
AcDbLine
 10
153.65
 20
247.82
 30
0.0
 11
215.65
 21
247.82
 31
0.0
  0
ARC
  5
8C
330
2
100
AcDbEntity
  8
画層1
 62
     0
100
AcDbCircle
 10
204.95
 20
233.82
 30
0.0
 40
4.0
100
AcDbArc
 50
198.19
 51
330.0
  0
ARC
  5
8D
330
2
100
AcDbEntity
  8
画層1
 62
     0
100
AcDbCircle
 10
204.95
 20
233.82
 30
0.0
 40
4.0
100
AcDbArc
 50
30.0
 51
161.81
  0
LINE
  5
8E
330
2
100
AcDbEntity
  8
画層1
 62
     0
100
AcDbLine
 10
217.85
 20
239.3199999999999
 30
0.0
 11
203.15
 21
239.3199999999999
 31
0.0
  0
LINE
  5
8F
330
2
100
AcDbEntity
  8
画層1
 62
     0
100
AcDbLine
 10
214.4499999999999
 20
228.3199999999999
 30
0.0
 11
200.77
 21
228.3199999999999
 31
0.0
  0
LINE
  5
90
330
2
100
AcDbEntity
  8
画層1
 62
     0
100
AcDbLine
 10
204.91
 20
227.82
 30
0.0
 11
217.41
 21
227.82
 31
0.0
  0
LINE
  5
91
330
2
100
AcDbEntity
  8
画層1
  6
DASHED2
 62
     0
100
AcDbLine
 10
203.41
 20
237.32
 30
0.0
 11
215.65
 21
237.32
 31
0.0
  0
LINE
  5
92
330
2
100
AcDbEntity
  8
画層1
 62
     0
100
AcDbLine
 10
180.6499999999999
 20
217.8199999999999
 30
0.0
 11
207.65
 21
217.8199999999999
 31
0.0
  0
LEADER
  5
93
330
2
100
AcDbEntity
  8
画層1
 62
     0
100
AcDbLeader
  3
STANDARD_WS
 73
     0
 75
     1
 40
5.0
 41
12.49
 76
     3
 10
170.21
 20
257.58
 30
0.0
 10
156.5399999999999
 20
203.4299999999999
 30
0.0
 10
155.0399999999999
 20
203.4299999999999
 30
0.0
340
98
213
-1.0
223
0.4207616165015224
233
0.0
1001
ACAD
1000
DSTYLE
1002
{
1070
   341
1005
94
1070
   147
1040
0.63
1070
    77
1070
     2
1070
    47
1040
0.6
1070
   144
1040
2.0
1070
   146
1040
0.5
1070
   284
1070
     8
1070
   340
1005
2A
1002
}
  0
MTEXT
  5
98
102
{ACAD_REACTORS
330
93
102
}
330
2
100
AcDbEntity
  8
画層1
 62
     0
100
AcDbMText
 10
155.41
 20
203.6399999999999
 30
0.0
 40
5.0
 41
0.0
 71
     9
 72
     1
  1
3-M4
  7
STYLE1
 73
     1
 44
1.0
  0
DIMENSION
  5
99
330
2
100
AcDbEntity
  8
画層1
 62
     0
100
AcDbDimension
  2
*D25
 10
109.15
 20
217.8199999999999
 30
0.0
 11
107.2699999999999
 21
222.82
 31
0.0
 70
    32
 71
     5
 42
10.0
  3
STANDARD_WS
100
AcDbAlignedDimension
 13
137.9099999999999
 23
227.82
 33
0.0
 14
144.0699999999999
 24
217.8199999999999
 34
0.0
 50
90.0
100
AcDbRotatedDimension
1001
ACAD
1000
DSTYLE
1002
{
1070
   279
1070
     1
1070
    47
1040
0.6
1070
   144
1040
1.0
1070
   146
1040
0.5
1070
   173
1070
     0
1070
   284
1070
     8
1070
   340
1005
2A
1070
   341
1005
2B
1070
   342
1005
2B
1070
   343
1005
2B
1002
}
  0
LINE
  5
A6
330
2
100
AcDbEntity
  8
画層1
 62
     0
100
AcDbLine
 10
174.65
 20
223.8199999999999
 30
0.0
 11
174.65
 21
217.8199999999999
 31
0.0
  0
LINE
  5
A7
330
2
100
AcDbEntity
  8
画層1
 62
     0
100
AcDbLine
 10
180.6499999999999
 20
223.8199999999999
 30
0.0
 11
180.6499999999999
 21
217.8199999999999
 31
0.0
  0
ARC
  5
A8
330
2
100
AcDbEntity
  8
画層1
 62
     0
100
AcDbCircle
 10
147.65
 20
222.82
 30
0.0
 40
5.0
100
AcDbArc
 50
180.0
 51
270.0
  0
LINE
  5
A9
330
2
100
AcDbEntity
  8
画層1
 62
     0
100
AcDbLine
 10
147.65
 20
217.8199999999999
 30
0.0
 11
174.65
 21
217.8199999999999
 31
0.0
  0
LINE
  5
AA
330
2
100
AcDbEntity
  8
画層1
 62
     0
100
AcDbLine
 10
161.65
 20
296.8199999999999
 30
0.0
 11
137.4499999999999
 21
296.8199999999999
 31
0.0
  0
LINE
  5
AB
330
2
100
AcDbEntity
  8
画層1
 62
     0
100
AcDbLine
 10
137.9099999999999
 20
227.82
 30
0.0
 11
142.65
 21
227.82
 31
0.0
  0
ARC
  5
AC
330
2
100
AcDbEntity
  8
画層1
 62
     0
100
AcDbCircle
 10
139.91
 20
236.8199999999999
 30
0.0
 40
0.4
100
AcDbArc
 50
90.0
 51
180.0
  0
ARC
  5
AD
330
2
100
AcDbEntity
  8
画層1
 62
     0
100
AcDbCircle
 10
139.91
 20
236.8199999999999
 30
0.0
 40
2.0
100
AcDbArc
 50
90.0
 51
180.0
  0
LINE
  5
AE
330
2
100
AcDbEntity
  8
画層1
 62
     0
100
AcDbLine
 10
155.15
 20
239.3199999999999
 30
0.0
 11
137.4499999999999
 21
239.3199999999999
 31
0.0
  0
LINE
  5
AF
330
2
100
AcDbEntity
  8
画層1
  6
DASHED2
 62
     0
100
AcDbLine
 10
139.65
 20
237.32
 30
0.0
 11
155.41
 21
237.32
 31
0.0
  0
LINE
  5
B0
330
2
100
AcDbEntity
  8
画層1
 62
     0
100
AcDbLine
 10
137.4499999999999
 20
239.3199999999999
 30
0.0
 11
137.4499999999999
 21
296.8199999999999
 31
0.0
  0
LINE
  5
B1
330
2
100
AcDbEntity
  8
画層1
  6
DASHED2
 62
     0
100
AcDbLine
 10
139.65
 20
271.8199999999999
 30
0.0
 11
139.65
 21
237.32
 31
0.0
  0
LINE
  5
B2
330
2
100
AcDbEntity
  8
画層1
 62
     0
100
AcDbLine
 10
139.51
 20
236.8199999999999
 30
0.0
 11
139.51
 21
227.82
 31
0.0
  0
LINE
  5
B3
330
2
100
AcDbEntity
  8
画層1
 62
     0
100
AcDbLine
 10
137.9099999999999
 20
239.3199999999999
 30
0.0
 11
137.9099999999999
 21
227.82
 31
0.0
  0
LINE
  5
B4
330
2
100
AcDbEntity
  8
画層1
 62
     0
100
AcDbLine
 10
139.51
 20
239.3199999999999
 30
0.0
 11
139.51
 21
238.7799999999999
 31
0.0
  0
LINE
  5
B5
330
2
100
AcDbEntity
  8
画層1
  6
DASHED2
 62
     0
100
AcDbLine
 10
192.65
 20
270.3199999999999
 30
0.0
 11
192.65
 21
249.3199999999999
 31
0.0
  0
LINE
  5
B6
330
2
100
AcDbEntity
  8
画層1
  6
DASHED2
 62
     0
100
AcDbLine
 10
202.6499999999999
 20
270.3199999999999
 30
0.0
 11
202.6499999999999
 21
249.3199999999999
 31
0.0
  0
LINE
  5
B7
330
2
100
AcDbEntity
  8
画層1
  6
DASHED2
 62
     0
100
AcDbLine
 10
176.65
 20
270.3199999999999
 30
0.0
 11
176.65
 21
249.3199999999999
 31
0.0
  0
LINE
  5
B8
330
2
100
AcDbEntity
  8
画層1
  6
DASHED2
 62
     0
100
AcDbLine
 10
179.6499999999999
 20
270.3199999999999
 30
0.0
 11
179.6499999999999
 21
249.3199999999999
 31
0.0
  0
LINE
  5
B9
330
2
100
AcDbEntity
  8
画層1
  6
DASHED2
 62
     0
100
AcDbLine
 10
189.6499999999999
 20
270.3199999999999
 30
0.0
 11
189.6499999999999
 21
249.3199999999999
 31
0.0
  0
LINE
  5
BA
330
2
100
AcDbEntity
  8
画層1
  6
DASHED2
 62
     0
100
AcDbLine
 10
166.65
 20
270.3199999999999
 30
0.0
 11
166.65
 21
249.3199999999999
 31
0.0
  0
LINE
  5
BB
330
2
100
AcDbEntity
  8
画層1
  6
DASHED2
 62
     0
100
AcDbLine
 10
163.65
 20
270.3199999999999
 30
0.0
 11
163.65
 21
249.3199999999999
 31
0.0
  0
LINE
  5
BC
330
2
100
AcDbEntity
  8
画層1
  6
DASHED2
 62
     0
100
AcDbLine
 10
153.65
 20
271.8199999999999
 30
0.0
 11
153.65
 21
247.82
 31
0.0
  0
LINE
  5
BD
330
2
100
AcDbEntity
  8
画層1
  6
CENTER
 62
     0
100
AcDbLine
 10
184.6499999999999
 20
223.8199999999999
 30
0.0
 11
170.65
 21
223.8199999999999
 31
0.0
  0
ARC
  5
BE
330
2
100
AcDbEntity
  8
画層1
  6
DASHED2
 62
     0
100
AcDbCircle
 10
172.65
 20
258.82
 30
0.0
 40
0.5
100
AcDbArc
 50
90.0
 51
180.0
  0
ARC
  5
BF
330
2
100
AcDbEntity
  8
画層1
  6
DASHED2
 62
     0
100
AcDbCircle
 10
172.65
 20
260.82
 30
0.0
 40
0.5
100
AcDbArc
 50
180.0
 51
270.0
  0
CIRCLE
  5
C0
330
2
100
AcDbEntity
  8
画層1
  6
DASHED2
 62
     0
100
AcDbCircle
 10
171.65
 20
259.8199999999999
 30
0.0
 40
4.0
  0
LINE
  5
C1
330
2
100
AcDbEntity
  8
画層1
  6
DASHED2
 62
     0
100
AcDbLine
 10
176.65
 20
249.82
 30
0.0
 11
166.65
 21
249.82
 31
0.0
  0
LINE
  5
C2
330
2
100
AcDbEntity
  8
画層1
 62
     0
100
AcDbLine
 10
199.65
 20
227.82
 30
0.0
 11
158.65
 21
227.82
 31
0.0
  0
LINE
  5
C3
330
2
100
AcDbEntity
  8
画層1
  6
DASHED2
 62
     0
100
AcDbLine
 10
157.15
 20
237.32
 30
0.0
 11
203.01
 21
237.32
 31
0.0
  0
ARC
  5
C4
330
2
100
AcDbEntity
  8
画層1
 62
     0
100
AcDbCircle
 10
155.15
 20
237.32
 30
0.0
 40
2.0
100
AcDbArc
 50
0.0
 51
90.0
  0
LINE
  5
C5
330
2
100
AcDbEntity
  8
画層1
 62
     0
100
AcDbLine
 10
155.41
 20
237.32
 30
0.0
 11
157.15
 21
237.32
 31
0.0
  0
LINE
  5
C6
330
2
100
AcDbEntity
  8
画層1
 62
     0
100
AcDbLine
 10
155.41
 20
237.32
 30
0.0
 11
157.15
 21
237.32
 31
0.0
  0
LINE
  5
C7
330
2
100
AcDbEntity
  8
画層1
 62
     0
100
AcDbLine
 10
142.65
 20
227.82
 30
0.0
 11
142.65
 21
222.82
 31
0.0
  0
LINE
  5
C8
330
2
100
AcDbEntity
  8
画層1
 62
     0
100
AcDbLine
 10
155.41
 20
237.2199999999999
 30
0.0
 11
139.91
 21
237.2199999999999
 31
0.0
  0
LINE
  5
C9
330
2
100
AcDbEntity
  8
画層1
 62
     0
100
AcDbLine
 10
139.91
 20
238.8199999999999
 30
0.0
 11
155.41
 21
238.8199999999999
 31
0.0
  0
LINE
  5
CA
330
2
100
AcDbEntity
  8
画層1
 62
     0
100
AcDbLine
 10
154.41
 20
236.22
 30
0.0
 11
154.41
 21
237.2199999999999
 31
0.0
  0
LINE
  5
CB
330
2
100
AcDbEntity
  8
画層1
 62
     0
100
AcDbLine
 10
155.41
 20
238.8199999999999
 30
0.0
 11
155.41
 21
237.2199999999999
 31
0.0
  0
LINE
  5
CC
330
2
100
AcDbEntity
  8
画層1
 62
     0
100
AcDbLine
 10
153.9099999999999
 20
233.72
 30
0.0
 11
153.9099999999999
 21
236.22
 31
0.0
  0
LINE
  5
CD
330
2
100
AcDbEntity
  8
画層1
 62
     0
100
AcDbLine
 10
149.4099999999999
 20
233.2199999999999
 30
0.0
 11
153.41
 21
233.2199999999999
 31
0.0
  0
ARC
  5
CE
330
2
100
AcDbEntity
  8
画層1
 62
     0
100
AcDbCircle
 10
153.41
 20
233.72
 30
0.0
 40
0.5
100
AcDbArc
 50
270.0
 51
0.0
  0
LINE
  5
CF
330
2
100
AcDbEntity
  8
画層1
 62
     0
100
AcDbLine
 10
148.91
 20
236.22
 30
0.0
 11
148.91
 21
233.72
 31
0.0
  0
ARC
  5
D0
330
2
100
AcDbEntity
  8
画層1
 62
     0
100
AcDbCircle
 10
149.4099999999999
 20
233.72
 30
0.0
 40
0.5
100
AcDbArc
 50
180.0
 51
270.0
  0
LINE
  5
D1
330
2
100
AcDbEntity
  8
画層1
 62
     0
100
AcDbLine
 10
153.9099999999999
 20
235.2199999999999
 30
0.0
 11
148.91
 21
235.2199999999999
 31
0.0
  0
LINE
  5
D2
330
2
100
AcDbEntity
  8
画層1
 62
     0
100
AcDbLine
 10
148.4099999999999
 20
237.2199999999999
 30
0.0
 11
148.4099999999999
 21
236.22
 31
0.0
  0
LINE
  5
D3
330
2
100
AcDbEntity
  8
画層1
 62
     0
100
AcDbLine
 10
148.4099999999999
 20
236.22
 30
0.0
 11
154.41
 21
236.22
 31
0.0
  0
LINE
  5
D4
330
2
100
AcDbEntity
  8
画層1
 62
     0
100
AcDbLine
 10
157.15
 20
229.32
 30
0.0
 11
157.15
 21
237.32
 31
0.0
  0
ARC
  5
D5
330
2
100
AcDbEntity
  8
画層1
 62
     0
100
AcDbCircle
 10
158.65
 20
229.32
 30
0.0
 40
1.5
100
AcDbArc
 50
180.0
 51
270.0
  0
LINE
  5
D6
330
2
100
AcDbEntity
  8
画層1
  6
CENTER
 62
     0
100
AcDbLine
 10
155.6499999999999
 20
259.8199999999999
 30
0.0
 11
161.65
 21
259.8199999999999
 31
0.0
  0
LINE
  5
D7
330
2
100
AcDbEntity
  8
画層1
  6
DASHED2
 62
     0
100
AcDbLine
 10
163.65
 20
249.82
 30
0.0
 11
153.65
 21
249.82
 31
0.0
  0
ARC
  5
D8
330
2
100
AcDbEntity
  8
画層1
  6
DASHED2
 62
     0
100
AcDbCircle
 10
165.15
 20
249.3199999999999
 30
0.0
 40
1.5
100
AcDbArc
 50
180.0
 51
0.0
  0
LINE
  5
D9
330
2
100
AcDbEntity
  8
画層1
  6
CENTER
 62
     0
100
AcDbLine
 10
158.65
 20
262.82
 30
0.0
 11
158.65
 21
256.82
 31
0.0
  0
LINE
  5
DA
330
2
100
AcDbEntity
  8
画層1
  6
DASHED2
 62
     0
100
AcDbLine
 10
170.65
 20
259.3199999999999
 30
0.0
 11
170.15
 21
259.3199999999999
 31
0.0
  0
ARC
  5
DB
330
2
100
AcDbEntity
  8
画層1
  6
DASHED2
 62
     0
100
AcDbCircle
 10
170.65
 20
258.82
 30
0.0
 40
0.5
100
AcDbArc
 50
0.0
 51
90.0
  0
LINE
  5
DC
330
2
100
AcDbEntity
  8
画層1
  6
DASHED2
 62
     0
100
AcDbLine
 10
172.1499999999999
 20
261.3199999999999
 30
0.0
 11
172.1499999999999
 21
260.82
 31
0.0
  0
LINE
  5
DD
330
2
100
AcDbEntity
  8
画層1
  6
DASHED2
 62
     0
100
AcDbLine
 10
171.15
 20
260.82
 30
0.0
 11
171.15
 21
261.3199999999999
 31
0.0
  0
LINE
  5
DE
330
2
100
AcDbEntity
  8
画層1
  6
DASHED2
 62
     0
100
AcDbLine
 10
170.15
 20
260.32
 30
0.0
 11
170.65
 21
260.32
 31
0.0
  0
ARC
  5
DF
330
2
100
AcDbEntity
  8
画層1
  6
DASHED2
 62
     0
100
AcDbCircle
 10
170.65
 20
260.82
 30
0.0
 40
0.5
100
AcDbArc
 50
270.0
 51
0.0
  0
LINE
  5
E0
330
2
100
AcDbEntity
  8
画層1
  6
DASHED2
 62
     0
100
AcDbLine
 10
170.15
 20
259.3199999999999
 30
0.0
 11
170.15
 21
260.32
 31
0.0
  0
LINE
  5
E1
330
2
100
AcDbEntity
  8
画層1
  6
DASHED2
 62
     0
100
AcDbLine
 10
171.15
 20
261.3199999999999
 30
0.0
 11
172.1499999999999
 21
261.3199999999999
 31
0.0
  0
LINE
  5
E2
330
2
100
AcDbEntity
  8
画層1
  6
DASHED2
 62
     0
100
AcDbLine
 10
172.1499999999999
 20
258.32
 30
0.0
 11
171.15
 21
258.32
 31
0.0
  0
LINE
  5
E3
330
2
100
AcDbEntity
  8
画層1
  6
DASHED2
 62
     0
100
AcDbLine
 10
171.15
 20
258.32
 30
0.0
 11
171.15
 21
258.82
 31
0.0
  0
LINE
  5
E4
330
2
100
AcDbEntity
  8
画層1
  6
DASHED2
 62
     0
100
AcDbLine
 10
172.1499999999999
 20
258.82
 30
0.0
 11
172.1499999999999
 21
258.32
 31
0.0
  0
ARC
  5
E5
330
2
100
AcDbEntity
  8
画層1
 62
     0
100
AcDbCircle
 10
179.15
 20
232.3199999999999
 30
0.0
 40
1.0
100
AcDbArc
 50
90.0
 51
180.0
  0
CIRCLE
  5
E6
330
2
100
AcDbEntity
  8
画層1
 62
     0
100
AcDbCircle
 10
177.65
 20
233.82
 30
0.0
 40
3.799999999999998
  0
CIRCLE
  5
E7
330
2
100
AcDbEntity
  8
画層1
 62
     0
100
AcDbCircle
 10
177.65
 20
233.82
 30
0.0
 40
2.6
  0
ARC
  5
E8
330
2
100
AcDbEntity
  8
画層1
 62
     0
100
AcDbCircle
 10
176.15
 20
232.3199999999999
 30
0.0
 40
1.0
100
AcDbArc
 50
0.0
 51
90.0
  0
LINE
  5
E9
330
2
100
AcDbEntity
  8
画層1
 62
     0
100
AcDbLine
 10
178.15
 20
232.3199999999999
 30
0.0
 11
178.15
 21
232.02
 31
0.0
  0
LINE
  5
EA
330
2
100
AcDbEntity
  8
画層1
 62
     0
100
AcDbLine
 10
177.15
 20
232.02
 30
0.0
 11
177.15
 21
232.3199999999999
 31
0.0
  0
LINE
  5
EB
330
2
100
AcDbEntity
  8
画層1
 62
     0
100
AcDbLine
 10
177.15
 20
232.02
 30
0.0
 11
178.15
 21
232.02
 31
0.0
  0
ARC
  5
EC
330
2
100
AcDbEntity
  8
画層1
 62
     0
100
AcDbCircle
 10
177.65
 20
223.8199999999999
 30
0.0
 40
3.0
100
AcDbArc
 50
0.0
 51
180.0
  0
ARC
  5
ED
330
2
100
AcDbEntity
  8
画層1
 62
     0
100
AcDbCircle
 10
179.15
 20
235.32
 30
0.0
 40
1.0
100
AcDbArc
 50
180.0
 51
270.0
  0
LINE
  5
EE
330
2
100
AcDbEntity
  8
画層1
 62
     0
100
AcDbLine
 10
175.8499999999999
 20
233.32
 30
0.0
 11
175.8499999999999
 21
234.3199999999999
 31
0.0
  0
LINE
  5
EF
330
2
100
AcDbEntity
  8
画層1
 62
     0
100
AcDbLine
 10
176.15
 20
233.32
 30
0.0
 11
175.8499999999999
 21
233.32
 31
0.0
  0
LINE
  5
F0
330
2
100
AcDbEntity
  8
画層1
 62
     0
100
AcDbLine
 10
178.15
 20
235.62
 30
0.0
 11
178.15
 21
235.32
 31
0.0
  0
LINE
  5
F1
330
2
100
AcDbEntity
  8
画層1
 62
     0
100
AcDbLine
 10
177.15
 20
235.32
 30
0.0
 11
177.15
 21
235.62
 31
0.0
  0
ARC
  5
F2
330
2
100
AcDbEntity
  8
画層1
 62
     0
100
AcDbCircle
 10
176.15
 20
235.32
 30
0.0
 40
1.0
100
AcDbArc
 50
270.0
 51
0.0
  0
LINE
  5
F3
330
2
100
AcDbEntity
  8
画層1
 62
     0
100
AcDbLine
 10
175.8499999999999
 20
234.3199999999999
 30
0.0
 11
176.15
 21
234.3199999999999
 31
0.0
  0
LINE
  5
F4
330
2
100
AcDbEntity
  8
画層1
 62
     0
100
AcDbLine
 10
177.15
 20
235.62
 30
0.0
 11
178.15
 21
235.62
 31
0.0
  0
LINE
  5
F5
330
2
100
AcDbEntity
  8
画層1
 62
     0
100
AcDbLine
 10
179.45
 20
233.32
 30
0.0
 11
179.45
 21
234.3199999999999
 31
0.0
  0
LINE
  5
F6
330
2
100
AcDbEntity
  8
画層1
 62
     0
100
AcDbLine
 10
179.45
 20
233.32
 30
0.0
 11
179.15
 21
233.32
 31
0.0
  0
LINE
  5
F7
330
2
100
AcDbEntity
  8
画層1
 62
     0
100
AcDbLine
 10
179.15
 20
234.3199999999999
 30
0.0
 11
179.45
 21
234.3199999999999
 31
0.0
  0
LINE
  5
F8
330
2
100
AcDbEntity
  8
画層1
 62
     0
100
AcDbLine
 10
201.15
 20
237.32
 30
0.0
 11
201.15
 21
229.32
 31
0.0
  0
LINE
  5
F9
330
2
100
AcDbEntity
  8
画層1
 62
     0
100
AcDbLine
 10
203.41
 20
230.12
 30
0.0
 11
203.41
 21
237.5
 31
0.0
  0
ARC
  5
FA
330
2
100
AcDbEntity
  8
画層1
 62
     0
100
AcDbCircle
 10
204.91
 20
229.32
 30
0.0
 40
1.5
100
AcDbArc
 50
221.81
 51
270.0
  0
ARC
  5
FB
330
2
100
AcDbEntity
  8
画層1
 62
     0
100
AcDbCircle
 10
199.65
 20
229.32
 30
0.0
 40
1.5
100
AcDbArc
 50
270.0
 51
0.0
  0
ARC
  5
FC
330
2
100
AcDbEntity
  8
画層1
 62
     0
100
AcDbCircle
 10
203.15
 20
237.32
 30
0.0
 40
2.0
100
AcDbArc
 50
90.0
 51
180.0
  0
LINE
  5
FD
330
2
100
AcDbEntity
  8
画層1
 62
     0
100
AcDbLine
 10
203.01
 20
237.32
 30
0.0
 11
203.41
 21
237.32
 31
0.0
  0
LINE
  5
FE
330
2
100
AcDbEntity
  8
画層1
  6
DASHED2
 62
     0
100
AcDbLine
 10
189.6499999999999
 20
249.82
 30
0.0
 11
179.6499999999999
 21
249.82
 31
0.0
  0
CIRCLE
  5
FF
330
2
100
AcDbEntity
  8
画層1
  6
DASHED2
 62
     0
100
AcDbCircle
 10
184.6499999999999
 20
259.8199999999999
 30
0.0
 40
4.0
  0
ARC
  5
100
330
2
100
AcDbEntity
  8
画層1
  6
DASHED2
 62
     0
100
AcDbCircle
 10
178.15
 20
249.3199999999999
 30
0.0
 40
1.5
100
AcDbArc
 50
180.0
 51
0.0
  0
LINE
  5
101
330
2
100
AcDbEntity
  8
画層1
  6
DASHED2
 62
     0
100
AcDbLine
 10
173.15
 20
260.32
 30
0.0
 11
173.15
 21
259.3199999999999
 31
0.0
  0
LINE
  5
102
330
2
100
AcDbEntity
  8
画層1
  6
DASHED2
 62
     0
100
AcDbLine
 10
173.15
 20
259.3199999999999
 30
0.0
 11
172.65
 21
259.3199999999999
 31
0.0
  0
LINE
  5
103
330
2
100
AcDbEntity
  8
画層1
  6
DASHED2
 62
     0
100
AcDbLine
 10
172.65
 20
260.32
 30
0.0
 11
173.15
 21
260.32
 31
0.0
  0
LINE
  5
104
330
2
100
AcDbEntity
  8
画層1
  6
DASHED2
 62
     0
100
AcDbLine
 10
184.15
 20
261.3199999999999
 30
0.0
 11
185.15
 21
261.3199999999999
 31
0.0
  0
LINE
  5
105
330
2
100
AcDbEntity
  8
画層1
  6
DASHED2
 62
     0
100
AcDbLine
 10
186.15
 20
260.32
 30
0.0
 11
186.15
 21
259.3199999999999
 31
0.0
  0
LINE
  5
106
330
2
100
AcDbEntity
  8
画層1
  6
DASHED2
 62
     0
100
AcDbLine
 10
183.15
 20
259.3199999999999
 30
0.0
 11
183.15
 21
260.32
 31
0.0
  0
ARC
  5
107
330
2
100
AcDbEntity
  8
画層1
  6
DASHED2
 62
     0
100
AcDbCircle
 10
183.65
 20
260.82
 30
0.0
 40
0.5
100
AcDbArc
 50
270.0
 51
0.0
  0
LINE
  5
108
330
2
100
AcDbEntity
  8
画層1
  6
DASHED2
 62
     0
100
AcDbLine
 10
183.15
 20
260.32
 30
0.0
 11
183.65
 21
260.32
 31
0.0
  0
LINE
  5
109
330
2
100
AcDbEntity
  8
画層1
  6
DASHED2
 62
     0
100
AcDbLine
 10
184.15
 20
260.82
 30
0.0
 11
184.15
 21
261.3199999999999
 31
0.0
  0
ARC
  5
10A
330
2
100
AcDbEntity
  8
画層1
  6
DASHED2
 62
     0
100
AcDbCircle
 10
185.65
 20
260.82
 30
0.0
 40
0.5
100
AcDbArc
 50
180.0
 51
270.0
  0
LINE
  5
10B
330
2
100
AcDbEntity
  8
画層1
  6
DASHED2
 62
     0
100
AcDbLine
 10
185.15
 20
261.3199999999999
 30
0.0
 11
185.15
 21
260.82
 31
0.0
  0
LINE
  5
10C
330
2
100
AcDbEntity
  8
画層1
  6
DASHED2
 62
     0
100
AcDbLine
 10
185.65
 20
260.32
 30
0.0
 11
186.15
 21
260.32
 31
0.0
  0
ARC
  5
10D
330
2
100
AcDbEntity
  8
画層1
  6
DASHED2
 62
     0
100
AcDbCircle
 10
185.65
 20
258.82
 30
0.0
 40
0.5
100
AcDbArc
 50
90.0
 51
180.0
  0
LINE
  5
10E
330
2
100
AcDbEntity
  8
画層1
  6
DASHED2
 62
     0
100
AcDbLine
 10
186.15
 20
259.3199999999999
 30
0.0
 11
185.65
 21
259.3199999999999
 31
0.0
  0
ARC
  5
10F
330
2
100
AcDbEntity
  8
画層1
  6
DASHED2
 62
     0
100
AcDbCircle
 10
183.65
 20
258.82
 30
0.0
 40
0.5
100
AcDbArc
 50
0.0
 51
90.0
  0
LINE
  5
110
330
2
100
AcDbEntity
  8
画層1
  6
DASHED2
 62
     0
100
AcDbLine
 10
183.65
 20
259.3199999999999
 30
0.0
 11
183.15
 21
259.3199999999999
 31
0.0
  0
LINE
  5
111
330
2
100
AcDbEntity
  8
画層1
  6
DASHED2
 62
     0
100
AcDbLine
 10
185.15
 20
258.32
 30
0.0
 11
184.15
 21
258.32
 31
0.0
  0
LINE
  5
112
330
2
100
AcDbEntity
  8
画層1
  6
DASHED2
 62
     0
100
AcDbLine
 10
185.15
 20
258.82
 30
0.0
 11
185.15
 21
258.32
 31
0.0
  0
LINE
  5
113
330
2
100
AcDbEntity
  8
画層1
  6
DASHED2
 62
     0
100
AcDbLine
 10
184.15
 20
258.32
 30
0.0
 11
184.15
 21
258.82
 31
0.0
  0
CIRCLE
  5
114
330
2
100
AcDbEntity
  8
画層1
  6
DASHED2
 62
     0
100
AcDbCircle
 10
197.65
 20
259.8199999999999
 30
0.0
 40
4.0
  0
LINE
  5
115
330
2
100
AcDbEntity
  8
画層1
  6
DASHED2
 62
     0
100
AcDbLine
 10
202.6499999999999
 20
249.82
 30
0.0
 11
192.65
 21
249.82
 31
0.0
  0
ARC
  5
116
330
2
100
AcDbEntity
  8
画層1
  6
DASHED2
 62
     0
100
AcDbCircle
 10
191.15
 20
249.3199999999999
 30
0.0
 40
1.5
100
AcDbArc
 50
180.0
 51
0.0
  0
ARC
  5
117
330
2
100
AcDbEntity
  8
画層1
  6
DASHED2
 62
     0
100
AcDbCircle
 10
196.65
 20
258.82
 30
0.0
 40
0.5
100
AcDbArc
 50
0.0
 51
90.0
  0
ARC
  5
118
330
2
100
AcDbEntity
  8
画層1
  6
DASHED2
 62
     0
100
AcDbCircle
 10
196.65
 20
260.82
 30
0.0
 40
0.5
100
AcDbArc
 50
270.0
 51
0.0
  0
LINE
  5
119
330
2
100
AcDbEntity
  8
画層1
  6
DASHED2
 62
     0
100
AcDbLine
 10
196.65
 20
259.3199999999999
 30
0.0
 11
196.15
 21
259.3199999999999
 31
0.0
  0
LINE
  5
11A
330
2
100
AcDbEntity
  8
画層1
  6
DASHED2
 62
     0
100
AcDbLine
 10
196.15
 20
260.32
 30
0.0
 11
196.65
 21
260.32
 31
0.0
  0
LINE
  5
11B
330
2
100
AcDbEntity
  8
画層1
  6
DASHED2
 62
     0
100
AcDbLine
 10
196.15
 20
259.3199999999999
 30
0.0
 11
196.15
 21
260.32
 31
0.0
  0
LINE
  5
11C
330
2
100
AcDbEntity
  8
画層1
  6
DASHED2
 62
     0
100
AcDbLine
 10
199.15
 20
259.3199999999999
 30
0.0
 11
198.65
 21
259.3199999999999
 31
0.0
  0
ARC
  5
11D
330
2
100
AcDbEntity
  8
画層1
  6
DASHED2
 62
     0
100
AcDbCircle
 10
198.65
 20
258.82
 30
0.0
 40
0.5
100
AcDbArc
 50
90.0
 51
180.0
  0
LINE
  5
11E
330
2
100
AcDbEntity
  8
画層1
  6
DASHED2
 62
     0
100
AcDbLine
 10
198.65
 20
260.32
 30
0.0
 11
199.15
 21
260.32
 31
0.0
  0
LINE
  5
11F
330
2
100
AcDbEntity
  8
画層1
  6
DASHED2
 62
     0
100
AcDbLine
 10
198.15
 20
261.3199999999999
 30
0.0
 11
198.15
 21
260.82
 31
0.0
  0
ARC
  5
120
330
2
100
AcDbEntity
  8
画層1
  6
DASHED2
 62
     0
100
AcDbCircle
 10
198.65
 20
260.82
 30
0.0
 40
0.5
100
AcDbArc
 50
180.0
 51
270.0
  0
LINE
  5
121
330
2
100
AcDbEntity
  8
画層1
  6
DASHED2
 62
     0
100
AcDbLine
 10
197.1499999999999
 20
260.82
 30
0.0
 11
197.1499999999999
 21
261.3199999999999
 31
0.0
  0
LINE
  5
122
330
2
100
AcDbEntity
  8
画層1
  6
DASHED2
 62
     0
100
AcDbLine
 10
199.15
 20
260.32
 30
0.0
 11
199.15
 21
259.3199999999999
 31
0.0
  0
LINE
  5
123
330
2
100
AcDbEntity
  8
画層1
  6
DASHED2
 62
     0
100
AcDbLine
 10
197.1499999999999
 20
261.3199999999999
 30
0.0
 11
198.15
 21
261.3199999999999
 31
0.0
  0
LINE
  5
124
330
2
100
AcDbEntity
  8
画層1
  6
DASHED2
 62
     0
100
AcDbLine
 10
198.15
 20
258.32
 30
0.0
 11
197.1499999999999
 21
258.32
 31
0.0
  0
LINE
  5
125
330
2
100
AcDbEntity
  8
画層1
  6
DASHED2
 62
     0
100
AcDbLine
 10
197.1499999999999
 20
258.32
 30
0.0
 11
197.1499999999999
 21
258.82
 31
0.0
  0
LINE
  5
126
330
2
100
AcDbEntity
  8
画層1
  6
DASHED2
 62
     0
100
AcDbLine
 10
198.15
 20
258.82
 30
0.0
 11
198.15
 21
258.32
 31
0.0
  0
LINE
  5
127
330
2
100
AcDbEntity
  8
画層1
  6
DASHED2
 62
     0
100
AcDbLine
 10
166.65
 20
269.8199999999999
 30
0.0
 11
176.65
 21
269.8199999999999
 31
0.0
  0
LINE
  5
128
330
2
100
AcDbEntity
  8
画層1
  6
DASHED2
 62
     0
100
AcDbLine
 10
153.65
 20
269.8199999999999
 30
0.0
 11
163.65
 21
269.8199999999999
 31
0.0
  0
ARC
  5
129
330
2
100
AcDbEntity
  8
画層1
  6
DASHED2
 62
     0
100
AcDbCircle
 10
165.15
 20
270.3199999999999
 30
0.0
 40
1.5
100
AcDbArc
 50
0.0
 51
180.0
  0
ARC
  5
12A
330
2
100
AcDbEntity
  8
画層1
 62
     0
100
AcDbCircle
 10
156.9499999999999
 20
307.2
 30
0.0
 40
1.0
100
AcDbArc
 50
90.0
 51
180.0
  0
ARC
  5
12B
330
2
100
AcDbEntity
  8
画層1
 62
     0
100
AcDbCircle
 10
156.9499999999999
 20
310.1999999999999
 30
0.0
 40
1.0
100
AcDbArc
 50
180.0
 51
270.0
  0
LINE
  5
12C
330
2
100
AcDbEntity
  8
画層1
 62
     0
100
AcDbLine
 10
160.4499999999999
 20
297.82
 30
0.0
 11
140.4499999999999
 21
297.82
 31
0.0
  0
LINE
  5
12D
330
2
100
AcDbEntity
  8
画層1
 62
     0
100
AcDbLine
 10
140.4499999999999
 20
299.9399999999999
 30
0.0
 11
159.45
 21
299.9399999999999
 31
0.0
  0
LINE
  5
12E
330
2
100
AcDbEntity
  8
画層1
 62
     0
100
AcDbLine
 10
149.9499999999999
 20
312.6999999999999
 30
0.0
 11
159.45
 21
312.6999999999999
 31
0.0
  0
LINE
  5
12F
330
2
100
AcDbEntity
  8
画層1
 62
     0
100
AcDbLine
 10
149.9499999999999
 20
304.7
 30
0.0
 11
159.45
 21
304.7
 31
0.0
  0
LINE
  5
130
330
2
100
AcDbEntity
  8
画層1
 62
     0
100
AcDbLine
 10
150.9499999999999
 20
303.2
 30
0.0
 11
159.45
 21
303.2
 31
0.0
  0
CIRCLE
  5
131
330
2
100
AcDbEntity
  8
画層1
 62
     0
100
AcDbCircle
 10
155.4499999999999
 20
308.6999999999999
 30
0.0
 40
3.0
  0
LINE
  5
132
330
2
100
AcDbEntity
  8
画層1
 62
     0
100
AcDbLine
 10
150.9499999999999
 20
303.2
 30
0.0
 11
150.9499999999999
 21
299.9399999999999
 31
0.0
  0
LINE
  5
133
330
2
100
AcDbEntity
  8
画層1
 62
     0
100
AcDbLine
 10
145.4499999999999
 20
302.1399999999999
 30
0.0
 11
145.4499999999999
 21
302.4399999999999
 31
0.0
  0
LINE
  5
134
330
2
100
AcDbEntity
  8
画層1
 62
     0
100
AcDbLine
 10
146.4499999999999
 20
302.4399999999999
 30
0.0
 11
146.4499999999999
 21
302.1399999999999
 31
0.0
  0
LINE
  5
135
330
2
100
AcDbEntity
  8
画層1
 62
     0
100
AcDbLine
 10
141.95
 20
307.94
 30
0.0
 11
141.95
 21
299.9399999999999
 31
0.0
  0
CIRCLE
  5
136
330
2
100
AcDbEntity
  8
画層1
 62
     0
100
AcDbCircle
 10
145.95
 20
303.94
 30
0.0
 40
3.0
  0
LINE
  5
137
330
2
100
AcDbEntity
  8
画層1
 62
     0
100
AcDbLine
 10
145.4499999999999
 20
302.1399999999999
 30
0.0
 11
146.4499999999999
 21
302.1399999999999
 31
0.0
  0
LINE
  5
138
330
2
100
AcDbEntity
  8
画層1
 62
     0
100
AcDbLine
 10
148.91
 20
312.9399999999999
 30
0.0
 11
147.4499999999999
 21
312.9399999999999
 31
0.0
  0
LINE
  5
139
330
2
100
AcDbEntity
  8
画層1
 62
     0
100
AcDbLine
 10
147.4499999999999
 20
304.4399999999999
 30
0.0
 11
148.91
 21
304.4399999999999
 31
0.0
  0
LINE
  5
13A
330
2
100
AcDbEntity
  8
画層1
 62
     0
100
AcDbLine
 10
148.91
 20
303.44
 30
0.0
 11
147.4499999999999
 21
303.44
 31
0.0
  0
LINE
  5
13B
330
2
100
AcDbEntity
  8
画層1
 62
     0
100
AcDbLine
 10
140.4499999999999
 20
309.44
 30
0.0
 11
149.9499999999999
 21
309.44
 31
0.0
  0
LINE
  5
13C
330
2
100
AcDbEntity
  8
画層1
 62
     0
100
AcDbLine
 10
140.4499999999999
 20
307.94
 30
0.0
 11
149.9499999999999
 21
307.94
 31
0.0
  0
LINE
  5
13D
330
2
100
AcDbEntity
  8
画層1
 62
     0
100
AcDbLine
 10
145.4499999999999
 20
311.64
 30
0.0
 11
146.4499999999999
 21
311.64
 31
0.0
  0
LINE
  5
13E
330
2
100
AcDbEntity
  8
画層1
 62
     0
100
AcDbLine
 10
145.4499999999999
 20
311.64
 30
0.0
 11
145.4499999999999
 21
311.94
 31
0.0
  0
LINE
  5
13F
330
2
100
AcDbEntity
  8
画層1
 62
     0
100
AcDbLine
 10
146.4499999999999
 20
311.94
 30
0.0
 11
146.4499999999999
 21
311.64
 31
0.0
  0
ARC
  5
140
330
2
100
AcDbEntity
  8
画層1
 62
     0
100
AcDbCircle
 10
147.4499999999999
 20
311.94
 30
0.0
 40
1.0
100
AcDbArc
 50
90.0
 51
180.0
  0
LINE
  5
141
330
2
100
AcDbEntity
  8
画層1
 62
     0
100
AcDbLine
 10
145.4499999999999
 20
305.74
 30
0.0
 11
146.4499999999999
 21
305.74
 31
0.0
  0
LINE
  5
142
330
2
100
AcDbEntity
  8
画層1
 62
     0
100
AcDbLine
 10
145.4499999999999
 20
305.44
 30
0.0
 11
145.4499999999999
 21
305.74
 31
0.0
  0
LINE
  5
143
330
2
100
AcDbEntity
  8
画層1
 62
     0
100
AcDbLine
 10
146.4499999999999
 20
305.74
 30
0.0
 11
146.4499999999999
 21
305.44
 31
0.0
  0
ARC
  5
144
330
2
100
AcDbEntity
  8
画層1
 62
     0
100
AcDbCircle
 10
147.4499999999999
 20
302.4399999999999
 30
0.0
 40
1.0
100
AcDbArc
 50
90.0
 51
180.0
  0
ARC
  5
145
330
2
100
AcDbEntity
  8
画層1
 62
     0
100
AcDbCircle
 10
147.4499999999999
 20
305.44
 30
0.0
 40
1.0
100
AcDbArc
 50
180.0
 51
270.0
  0
LINE
  5
146
330
2
100
AcDbEntity
  8
画層1
 62
     0
100
AcDbLine
 10
144.4499999999999
 20
312.9399999999999
 30
0.0
 11
142.99
 21
312.9399999999999
 31
0.0
  0
LINE
  5
147
330
2
100
AcDbEntity
  8
画層1
 62
     0
100
AcDbLine
 10
144.4499999999999
 20
303.44
 30
0.0
 11
142.99
 21
303.44
 31
0.0
  0
LINE
  5
148
330
2
100
AcDbEntity
  8
画層1
 62
     0
100
AcDbLine
 10
142.99
 20
304.4399999999999
 30
0.0
 11
144.4499999999999
 21
304.4399999999999
 31
0.0
  0
ARC
  5
149
330
2
100
AcDbEntity
  8
画層1
 62
     0
100
AcDbCircle
 10
144.4499999999999
 20
311.94
 30
0.0
 40
1.0
100
AcDbArc
 50
0.0
 51
90.0
  0
ARC
  5
14A
330
2
100
AcDbEntity
  8
画層1
 62
     0
100
AcDbCircle
 10
144.4499999999999
 20
302.4399999999999
 30
0.0
 40
1.0
100
AcDbArc
 50
0.0
 51
90.0
  0
ARC
  5
14B
330
2
100
AcDbEntity
  8
画層1
 62
     0
100
AcDbCircle
 10
144.4499999999999
 20
305.44
 30
0.0
 40
1.0
100
AcDbArc
 50
270.0
 51
0.0
  0
LINE
  5
14C
330
2
100
AcDbEntity
  8
画層1
 62
     0
100
AcDbLine
 10
155.9499999999999
 20
307.2
 30
0.0
 11
155.9499999999999
 21
306.8999999999999
 31
0.0
  0
LINE
  5
14D
330
2
100
AcDbEntity
  8
画層1
 62
     0
100
AcDbLine
 10
154.9499999999999
 20
306.8999999999999
 30
0.0
 11
154.9499999999999
 21
307.2
 31
0.0
  0
LINE
  5
14E
330
2
100
AcDbEntity
  8
画層1
 62
     0
100
AcDbLine
 10
154.9499999999999
 20
306.8999999999999
 30
0.0
 11
155.9499999999999
 21
306.8999999999999
 31
0.0
  0
LINE
  5
14F
330
2
100
AcDbEntity
  8
画層1
 62
     0
100
AcDbLine
 10
154.9499999999999
 20
310.4999999999999
 30
0.0
 11
155.9499999999999
 21
310.4999999999999
 31
0.0
  0
LINE
  5
150
330
2
100
AcDbEntity
  8
画層1
 62
     0
100
AcDbLine
 10
154.9499999999999
 20
310.1999999999999
 30
0.0
 11
154.9499999999999
 21
310.4999999999999
 31
0.0
  0
LINE
  5
151
330
2
100
AcDbEntity
  8
画層1
 62
     0
100
AcDbLine
 10
155.9499999999999
 20
310.4999999999999
 30
0.0
 11
155.9499999999999
 21
310.1999999999999
 31
0.0
  0
LINE
  5
152
330
2
100
AcDbEntity
  8
画層1
 62
     0
100
AcDbLine
 10
151.4499999999999
 20
312.6999999999999
 30
0.0
 11
151.4499999999999
 21
304.7
 31
0.0
  0
LINE
  5
153
330
2
100
AcDbEntity
  8
画層1
 62
     0
100
AcDbLine
 10
152.49
 20
309.2
 30
0.0
 11
153.9499999999999
 21
309.2
 31
0.0
  0
LINE
  5
154
330
2
100
AcDbEntity
  8
画層1
 62
     0
100
AcDbLine
 10
153.9499999999999
 20
308.1999999999999
 30
0.0
 11
152.49
 21
308.1999999999999
 31
0.0
  0
ARC
  5
155
330
2
100
AcDbEntity
  8
画層1
 62
     0
100
AcDbCircle
 10
153.9499999999999
 20
307.2
 30
0.0
 40
1.0
100
AcDbArc
 50
0.0
 51
90.0
  0
ARC
  5
156
330
2
100
AcDbEntity
  8
画層1
 62
     0
100
AcDbCircle
 10
153.9499999999999
 20
310.1999999999999
 30
0.0
 40
1.0
100
AcDbArc
 50
270.0
 51
0.0
  0
LINE
  5
157
330
2
100
AcDbEntity
  8
画層1
 62
     0
100
AcDbLine
 10
159.45
 20
303.2
 30
0.0
 11
159.45
 21
299.9399999999999
 31
0.0
  0
LINE
  5
158
330
2
100
AcDbEntity
  8
画層1
 62
     0
100
AcDbLine
 10
159.45
 20
312.6999999999999
 30
0.0
 11
159.45
 21
304.7
 31
0.0
  0
LINE
  5
159
330
2
100
AcDbEntity
  8
画層1
 62
     0
100
AcDbLine
 10
158.41
 20
308.1999999999999
 30
0.0
 11
156.9499999999999
 21
308.1999999999999
 31
0.0
  0
LINE
  5
15A
330
2
100
AcDbEntity
  8
画層1
 62
     0
100
AcDbLine
 10
156.9499999999999
 20
309.2
 30
0.0
 11
158.41
 21
309.2
 31
0.0
  0
DIMENSION
  5
15B
330
2
100
AcDbEntity
  8
画層1
 62
     0
100
AcDbDimension
  2
*D26
 10
189.6499999999999
 20
286.86
 30
0.0
 11
184.6499999999999
 21
288.7399999999999
 31
0.0
 70
    32
 71
     5
 42
10.0
  3
STANDARD_WS
100
AcDbAlignedDimension
 13
179.6499999999999
 23
270.82
 33
0.0
 14
189.6499999999999
 24
270.82
 34
0.0
100
AcDbRotatedDimension
1001
ACAD
1000
DSTYLE
1002
{
1070
    47
1040
0.6
1070
   144
1040
1.0
1070
   146
1040
0.5
1070
   173
1070
     0
1070
   284
1070
     8
1070
   340
1005
2A
1070
   341
1005
2B
1070
   342
1005
2B
1070
   343
1005
2B
1002
}
  0
LINE
  5
168
330
2
100
AcDbEntity
  8
画層1
  6
DASHED2
 62
     0
100
AcDbLine
 10
179.6499999999999
 20
269.8199999999999
 30
0.0
 11
189.6499999999999
 21
269.8199999999999
 31
0.0
  0
ARC
  5
169
330
2
100
AcDbEntity
  8
画層1
  6
DASHED2
 62
     0
100
AcDbCircle
 10
178.15
 20
270.3199999999999
 30
0.0
 40
1.5
100
AcDbArc
 50
0.0
 51
180.0
  0
LINE
  5
16A
330
2
100
AcDbEntity
  8
画層1
  6
DASHED2
 62
     0
100
AcDbLine
 10
192.65
 20
269.8199999999999
 30
0.0
 11
202.6499999999999
 21
269.8199999999999
 31
0.0
  0
ARC
  5
16B
330
2
100
AcDbEntity
  8
画層1
  6
DASHED2
 62
     0
100
AcDbCircle
 10
191.15
 20
270.3199999999999
 30
0.0
 40
1.5
100
AcDbArc
 50
0.0
 51
180.0
  0
ARC
  5
16C
330
2
100
AcDbEntity
  8
画層1
 62
     0
100
AcDbCircle
 10
207.65
 20
222.82
 30
0.0
 40
5.0
100
AcDbArc
 50
270.0
 51
0.0
  0
LINE
  5
16D
330
2
100
AcDbEntity
  8
画層1
  6
DASHED2
 62
     0
100
AcDbLine
 10
205.65
 20
270.3199999999999
 30
0.0
 11
205.65
 21
249.3199999999999
 31
0.0
  0
LINE
  5
16E
330
2
100
AcDbEntity
  8
画層1
  6
DASHED2
 62
     0
100
AcDbLine
 10
215.65
 20
237.32
 30
0.0
 11
215.65
 21
271.8199999999999
 31
0.0
  0
DIMENSION
  5
16F
330
2
100
AcDbEntity
  8
画層1
 62
     0
100
AcDbDimension
  2
*D27
 10
233.15
 20
259.8199999999999
 30
0.0
 11
231.2699999999999
 21
243.82
 31
0.0
 70
    32
 71
     5
 42
32.0
  3
STANDARD_WS
100
AcDbAlignedDimension
 13
217.41
 23
227.82
 33
0.0
 14
210.65
 24
259.8199999999999
 34
0.0
 50
90.0
100
AcDbRotatedDimension
1001
ACAD
1000
DSTYLE
1002
{
1070
    47
1040
0.6
1070
   144
1040
1.0
1070
   146
1040
0.5
1070
   173
1070
     0
1070
   284
1070
     8
1070
   340
1005
2A
1070
   341
1005
2B
1070
   342
1005
2B
1070
   343
1005
2B
1002
}
  0
LINE
  5
17C
330
2
100
AcDbEntity
  8
画層1
 62
     0
100
AcDbLine
 10
216.4499999999999
 20
239.3199999999999
 30
0.0
 11
216.4499999999999
 21
230.3199999999999
 31
0.0
  0
LINE
  5
17D
330
2
100
AcDbEntity
  8
画層1
 62
     0
100
AcDbLine
 10
217.41
 20
227.82
 30
0.0
 11
217.41
 21
239.3199999999999
 31
0.0
  0
ARC
  5
17E
330
2
100
AcDbEntity
  8
画層1
 62
     0
100
AcDbCircle
 10
210.4499999999999
 20
232.3199999999999
 30
0.0
 40
1.0
100
AcDbArc
 50
0.0
 51
90.0
  0
ARC
  5
17F
330
2
100
AcDbEntity
  8
画層1
 62
     0
100
AcDbCircle
 10
213.45
 20
232.3199999999999
 30
0.0
 40
1.0
100
AcDbArc
 50
90.0
 51
180.0
  0
CIRCLE
  5
180
330
2
100
AcDbEntity
  8
画層1
 62
     0
100
AcDbCircle
 10
211.9499999999999
 20
233.82
 30
0.0
 40
3.0
  0
LINE
  5
181
330
2
100
AcDbEntity
  8
画層1
 62
     0
100
AcDbLine
 10
211.45
 20
232.02
 30
0.0
 11
212.4499999999999
 21
232.02
 31
0.0
  0
LINE
  5
182
330
2
100
AcDbEntity
  8
画層1
 62
     0
100
AcDbLine
 10
211.45
 20
232.3199999999999
 30
0.0
 11
211.45
 21
232.02
 31
0.0
  0
LINE
  5
183
330
2
100
AcDbEntity
  8
画層1
 62
     0
100
AcDbLine
 10
212.4499999999999
 20
232.02
 30
0.0
 11
212.4499999999999
 21
232.3199999999999
 31
0.0
  0
LINE
  5
184
330
2
100
AcDbEntity
  8
画層1
 62
     0
100
AcDbLine
 10
212.65
 20
222.82
 30
0.0
 11
212.65
 21
227.82
 31
0.0
  0
LINE
  5
185
330
2
100
AcDbEntity
  8
画層1
 62
     0
100
AcDbLine
 10
209.71
 20
231.82
 30
0.0
 11
208.4099999999999
 21
231.82
 31
0.0
  0
ARC
  5
186
330
2
100
AcDbEntity
  8
画層1
 62
     0
100
AcDbCircle
 10
214.4499999999999
 20
230.3199999999999
 30
0.0
 40
2.0
100
AcDbArc
 50
270.0
 51
0.0
  0
LINE
  5
187
330
2
100
AcDbEntity
  8
画層1
 62
     0
100
AcDbLine
 10
213.75
 20
234.3199999999999
 30
0.0
 11
213.45
 21
234.3199999999999
 31
0.0
  0
LINE
  5
188
330
2
100
AcDbEntity
  8
画層1
 62
     0
100
AcDbLine
 10
213.45
 20
233.32
 30
0.0
 11
213.75
 21
233.32
 31
0.0
  0
LINE
  5
189
330
2
100
AcDbEntity
  8
画層1
 62
     0
100
AcDbLine
 10
211.45
 20
235.62
 30
0.0
 11
212.4499999999999
 21
235.62
 31
0.0
  0
LINE
  5
18A
330
2
100
AcDbEntity
  8
画層1
 62
     0
100
AcDbLine
 10
210.15
 20
233.32
 30
0.0
 11
210.4499999999999
 21
233.32
 31
0.0
  0
LINE
  5
18B
330
2
100
AcDbEntity
  8
画層1
 62
     0
100
AcDbLine
 10
210.4499999999999
 20
234.3199999999999
 30
0.0
 11
210.15
 21
234.3199999999999
 31
0.0
  0
LINE
  5
18C
330
2
100
AcDbEntity
  8
画層1
 62
     0
100
AcDbLine
 10
210.15
 20
234.3199999999999
 30
0.0
 11
210.15
 21
233.32
 31
0.0
  0
ARC
  5
18D
330
2
100
AcDbEntity
  8
画層1
 62
     0
100
AcDbCircle
 10
210.4499999999999
 20
235.32
 30
0.0
 40
1.0
100
AcDbArc
 50
270.0
 51
0.0
  0
LINE
  5
18E
330
2
100
AcDbEntity
  8
画層1
 62
     0
100
AcDbLine
 10
211.45
 20
235.62
 30
0.0
 11
211.45
 21
235.32
 31
0.0
  0
ARC
  5
18F
330
2
100
AcDbEntity
  8
画層1
 62
     0
100
AcDbCircle
 10
213.45
 20
235.32
 30
0.0
 40
1.0
100
AcDbArc
 50
180.0
 51
270.0
  0
LINE
  5
190
330
2
100
AcDbEntity
  8
画層1
 62
     0
100
AcDbLine
 10
212.4499999999999
 20
235.32
 30
0.0
 11
212.4499999999999
 21
235.62
 31
0.0
  0
LINE
  5
191
330
2
100
AcDbEntity
  8
画層1
 62
     0
100
AcDbLine
 10
209.71
 20
235.82
 30
0.0
 11
208.4099999999999
 21
235.82
 31
0.0
  0
LINE
  5
192
330
2
100
AcDbEntity
  8
画層1
 62
     0
100
AcDbLine
 10
213.75
 20
234.3199999999999
 30
0.0
 11
213.75
 21
233.32
 31
0.0
  0
LINE
  5
193
330
2
100
AcDbEntity
  8
画層1
  6
DASHED2
 62
     0
100
AcDbLine
 10
215.65
 20
249.82
 30
0.0
 11
205.65
 21
249.82
 31
0.0
  0
LINE
  5
194
330
2
100
AcDbEntity
  8
画層1
  6
CENTER
 62
     0
100
AcDbLine
 10
207.65
 20
259.8199999999999
 30
0.0
 11
213.65
 21
259.8199999999999
 31
0.0
  0
LINE
  5
195
330
2
100
AcDbEntity
  8
画層1
  6
CENTER
 62
     0
100
AcDbLine
 10
210.65
 20
262.82
 30
0.0
 11
210.65
 21
256.82
 31
0.0
  0
LINE
  5
196
330
2
100
AcDbEntity
  8
画層1
  6
DASHED2
 62
     0
100
AcDbLine
 10
205.65
 20
269.8199999999999
 30
0.0
 11
215.65
 21
269.8199999999999
 31
0.0
  0
MTEXT
  5
197
102
{ACAD_REACTORS
330
198
102
}
330
2
100
AcDbEntity
  8
画層1
 62
     0
100
AcDbMText
 10
82.98999999999999
 20
417.26
 30
0.0
 40
5.0
 41
0.0
 71
     9
 72
     1
  1
18-M3.5
  7
STYLE1
 73
     1
 44
1.0
  0
LEADER
  5
198
330
2
100
AcDbEntity
  8
画層1
 62
     0
100
AcDbLeader
  3
STANDARD_WS
 73
     0
 75
     1
 40
5.0
 41
21.73
 76
     3
 10
144.4499999999999
 20
381.44
 30
0.0
 10
84.12
 20
417.05
 30
0.0
 10
82.62
 20
417.05
 30
0.0
340
197
213
-1.0
223
0.4207616165015224
233
0.0
1001
ACAD
1000
DSTYLE
1002
{
1070
   341
1005
94
1070
   147
1040
0.63
1070
    77
1070
     2
1070
    47
1040
0.6
1070
   144
1040
2.0
1070
   146
1040
0.5
1070
   284
1070
     8
1070
   340
1005
2A
1002
}
  0
DIMENSION
  5
199
330
2
100
AcDbEntity
  8
画層1
 62
     0
100
AcDbDimension
  2
*D29
 10
247.15
 20
437.8199999999999
 30
0.0
 11
245.2699999999999
 21
434.82
 31
0.0
 70
    32
 71
     5
 42
6.0
  3
STANDARD_WS
100
AcDbAlignedDimension
 13
177.65
 23
431.82
 33
0.0
 14
210.7499999999999
 24
437.8199999999999
 34
0.0
 50
90.0
100
AcDbRotatedDimension
1001
ACAD
1000
DSTYLE
1002
{
1070
   279
1070
     1
1070
    47
1040
0.6
1070
   144
1040
1.0
1070
   146
1040
0.5
1070
   173
1070
     0
1070
   284
1070
     8
1070
   340
1005
2A
1070
   341
1005
2B
1070
   342
1005
2B
1070
   343
1005
2B
1002
}
  0
DIMENSION
  5
1A8
330
2
100
AcDbEntity
  8
画層1
 62
     0
100
AcDbDimension
  2
*D28
 10
218.15
 20
466.8199999999999
 30
0.0
 11
177.65
 21
468.7
 31
0.0
 70
    32
 71
     5
 42
81.0
  3
STANDARD_WS
100
AcDbAlignedDimension
 13
137.15
 23
427.78
 33
0.0
 14
218.15
 24
427.9399999999999
 34
0.0
100
AcDbRotatedDimension
1001
ACAD
1000
DSTYLE
1002
{
1070
    47
1040
0.6
1070
   144
1040
1.0
1070
   146
1040
0.5
1070
   173
1070
     0
1070
   284
1070
     8
1070
   340
1005
2A
1070
   341
1005
2B
1070
   342
1005
2B
1070
   343
1005
2B
1002
}
  0
LINE
  5
1B5
330
2
100
AcDbEntity
  8
画層1
 62
     0
100
AcDbLine
 10
204.91
 20
427.82
 30
0.0
 11
217.41
 21
427.82
 31
0.0
  0
LINE
  5
1B6
330
2
100
AcDbEntity
  8
画層1
 62
     0
100
AcDbLine
 10
214.4499999999999
 20
427.32
 30
0.0
 11
200.77
 21
427.32
 31
0.0
  0
ARC
  5
1B7
330
2
100
AcDbEntity
  8
画層1
 62
     0
100
AcDbCircle
 10
204.95
 20
421.82
 30
0.0
 40
4.0
100
AcDbArc
 50
198.19
 51
330.0
  0
LINE
  5
1B8
330
2
100
AcDbEntity
  8
画層1
 62
     0
100
AcDbLine
 10
203.15
 20
416.3199999999999
 30
0.0
 11
217.85
 21
416.3199999999999
 31
0.0
  0
ARC
  5
1B9
330
2
100
AcDbEntity
  8
画層1
 62
     0
100
AcDbCircle
 10
204.95
 20
421.82
 30
0.0
 40
4.0
100
AcDbArc
 50
30.0
 51
161.81
  0
LINE
  5
1BA
330
2
100
AcDbEntity
  8
画層1
 62
     0
100
AcDbLine
 10
145.15
 20
413.32
 30
0.0
 11
210.15
 21
413.32
 31
0.0
  0
LINE
  5
1BB
330
2
100
AcDbEntity
  8
画層1
 62
     0
100
AcDbLine
 10
210.15
 20
403.3199999999999
 30
0.0
 11
145.15
 21
403.3199999999999
 31
0.0
  0
LINE
  5
1BC
330
2
100
AcDbEntity
  8
画層1
 62
     0
100
AcDbLine
 10
147.65
 20
437.8199999999999
 30
0.0
 11
207.65
 21
437.8199999999999
 31
0.0
  0
LINE
  5
1BD
330
2
100
AcDbEntity
  8
画層1
 62
     0
100
AcDbLine
 10
137.4499999999999
 20
391.82
 30
0.0
 11
137.4499999999999
 21
416.3199999999999
 31
0.0
  0
LINE
  5
1BE
330
2
100
AcDbEntity
  8
画層1
 62
     0
100
AcDbLine
 10
143.65
 20
404.8199999999999
 30
0.0
 11
143.65
 21
411.8199999999999
 31
0.0
  0
LINE
  5
1BF
330
2
100
AcDbEntity
  8
画層1
 62
     0
100
AcDbLine
 10
137.4499999999999
 20
391.82
 30
0.0
 11
161.65
 21
391.82
 31
0.0
  0
DIMENSION
  5
1C0
330
2
100
AcDbEntity
  8
画層1
 62
     0
100
AcDbDimension
  2
*D30
 10
123.15
 20
375.94
 30
0.0
 11
121.2699999999999
 21
379.94
 31
0.0
 70
    32
 71
     5
 42
8.0
  3
STANDARD_WS
100
AcDbAlignedDimension
 13
137.9099999999999
 23
383.9399999999999
 33
0.0
 14
137.9099999999999
 24
375.9399999999999
 34
0.0
 50
90.0
100
AcDbRotatedDimension
1001
ACAD
1000
DSTYLE
1002
{
1070
    47
1040
0.6
1070
   144
1040
1.0
1070
   146
1040
0.5
1070
   173
1070
     0
1070
   284
1070
     8
1070
   340
1005
2A
1070
   341
1005
2B
1070
   342
1005
2B
1070
   343
1005
2B
1002
}
  0
CIRCLE
  5
1CF
330
2
100
AcDbEntity
  8
画層1
 62
     0
100
AcDbCircle
 10
200.15
 20
358.82
 30
0.0
 40
2.5
  0
CIRCLE
  5
1D0
330
2
100
AcDbEntity
  8
画層1
 62
     0
100
AcDbCircle
 10
185.15
 20
358.82
 30
0.0
 40
2.5
  0
ARC
  5
1D1
330
2
100
AcDbEntity
  8
画層1
 62
     0
100
AcDbCircle
 10
147.4499999999999
 20
359.44
 30
0.0
 40
1.0
100
AcDbArc
 50
90.0
 51
180.0
  0
LINE
  5
1D2
330
2
100
AcDbEntity
  8
画層1
 62
     0
100
AcDbLine
 10
141.95
 20
364.9399999999999
 30
0.0
 11
141.95
 21
356.9399999999999
 31
0.0
  0
CIRCLE
  5
1D3
330
2
100
AcDbEntity
  8
画層1
 62
     0
100
AcDbCircle
 10
145.95
 20
360.9399999999999
 30
0.0
 40
3.0
  0
ARC
  5
1D4
330
2
100
AcDbEntity
  8
画層1
 62
     0
100
AcDbCircle
 10
144.4499999999999
 20
359.44
 30
0.0
 40
1.0
100
AcDbArc
 50
0.0
 51
90.0
  0
LINE
  5
1D5
330
2
100
AcDbEntity
  8
画層1
 62
     0
100
AcDbLine
 10
159.45
 20
341.1999999999999
 30
0.0
 11
159.45
 21
333.1999999999999
 31
0.0
  0
LINE
  5
1D6
330
2
100
AcDbEntity
  8
画層1
 62
     0
100
AcDbLine
 10
151.4499999999999
 20
341.1999999999999
 30
0.0
 11
151.4499999999999
 21
333.1999999999999
 31
0.0
  0
CIRCLE
  5
1D7
330
2
100
AcDbEntity
  8
画層1
 62
     0
100
AcDbCircle
 10
155.4499999999999
 20
337.1999999999999
 30
0.0
 40
3.0
  0
ARC
  5
1D8
330
2
100
AcDbEntity
  8
画層1
 62
     0
100
AcDbCircle
 10
156.9499999999999
 20
335.6999999999999
 30
0.0
 40
1.0
100
AcDbArc
 50
90.0
 51
180.0
  0
ARC
  5
1D9
330
2
100
AcDbEntity
  8
画層1
 62
     0
100
AcDbCircle
 10
156.9499999999999
 20
326.2
 30
0.0
 40
1.0
100
AcDbArc
 50
90.0
 51
180.0
  0
ARC
  5
1DA
330
2
100
AcDbEntity
  8
画層1
 62
     0
100
AcDbCircle
 10
156.9499999999999
 20
329.1999999999999
 30
0.0
 40
1.0
100
AcDbArc
 50
180.0
 51
270.0
  0
ARC
  5
1DB
330
2
100
AcDbEntity
  8
画層1
 62
     0
100
AcDbCircle
 10
156.9499999999999
 20
319.7
 30
0.0
 40
1.0
100
AcDbArc
 50
180.0
 51
270.0
  0
ARC
  5
1DC
330
2
100
AcDbEntity
  8
画層1
 62
     0
100
AcDbCircle
 10
156.9499999999999
 20
316.6999999999999
 30
0.0
 40
1.0
100
AcDbArc
 50
90.0
 51
180.0
  0
LINE
  5
1DD
330
2
100
AcDbEntity
  8
画層1
 62
     0
100
AcDbLine
 10
149.9499999999999
 20
333.1999999999999
 30
0.0
 11
159.45
 21
333.1999999999999
 31
0.0
  0
LINE
  5
1DE
330
2
100
AcDbEntity
  8
画層1
 62
     0
100
AcDbLine
 10
149.9499999999999
 20
331.7
 30
0.0
 11
159.45
 21
331.7
 31
0.0
  0
LINE
  5
1DF
330
2
100
AcDbEntity
  8
画層1
 62
     0
100
AcDbLine
 10
149.9499999999999
 20
323.7
 30
0.0
 11
159.45
 21
323.7
 31
0.0
  0
LINE
  5
1E0
330
2
100
AcDbEntity
  8
画層1
 62
     0
100
AcDbLine
 10
149.9499999999999
 20
314.1999999999999
 30
0.0
 11
159.45
 21
314.1999999999999
 31
0.0
  0
LINE
  5
1E1
330
2
100
AcDbEntity
  8
画層1
 62
     0
100
AcDbLine
 10
149.9499999999999
 20
322.1999999999999
 30
0.0
 11
159.45
 21
322.1999999999999
 31
0.0
  0
CIRCLE
  5
1E2
330
2
100
AcDbEntity
  8
画層1
 62
     0
100
AcDbCircle
 10
155.4499999999999
 20
327.7
 30
0.0
 40
3.0
  0
CIRCLE
  5
1E3
330
2
100
AcDbEntity
  8
画層1
 62
     0
100
AcDbCircle
 10
155.4499999999999
 20
318.1999999999999
 30
0.0
 40
3.0
  0
LINE
  5
1E4
330
2
100
AcDbEntity
  8
画層1
 62
     0
100
AcDbLine
 10
151.4499999999999
 20
331.7
 30
0.0
 11
151.4499999999999
 21
323.7
 31
0.0
  0
LINE
  5
1E5
330
2
100
AcDbEntity
  8
画層1
 62
     0
100
AcDbLine
 10
141.95
 20
326.94
 30
0.0
 11
141.95
 21
318.94
 31
0.0
  0
CIRCLE
  5
1E6
330
2
100
AcDbEntity
  8
画層1
 62
     0
100
AcDbCircle
 10
145.95
 20
322.94
 30
0.0
 40
3.0
  0
LINE
  5
1E7
330
2
100
AcDbEntity
  8
画層1
 62
     0
100
AcDbLine
 10
147.4499999999999
 20
323.4399999999999
 30
0.0
 11
148.91
 21
323.4399999999999
 31
0.0
  0
LINE
  5
1E8
330
2
100
AcDbEntity
  8
画層1
 62
     0
100
AcDbLine
 10
148.91
 20
322.44
 30
0.0
 11
147.4499999999999
 21
322.44
 31
0.0
  0
LINE
  5
1E9
330
2
100
AcDbEntity
  8
画層1
 62
     0
100
AcDbLine
 10
140.4499999999999
 20
317.4399999999999
 30
0.0
 11
149.9499999999999
 21
317.4399999999999
 31
0.0
  0
LINE
  5
1EA
330
2
100
AcDbEntity
  8
画層1
 62
     0
100
AcDbLine
 10
140.4499999999999
 20
318.94
 30
0.0
 11
149.9499999999999
 21
318.94
 31
0.0
  0
LINE
  5
1EB
330
2
100
AcDbEntity
  8
画層1
 62
     0
100
AcDbLine
 10
147.4499999999999
 20
313.94
 30
0.0
 11
148.91
 21
313.94
 31
0.0
  0
LINE
  5
1EC
330
2
100
AcDbEntity
  8
画層1
 62
     0
100
AcDbLine
 10
145.4499999999999
 20
324.74
 30
0.0
 11
146.4499999999999
 21
324.74
 31
0.0
  0
LINE
  5
1ED
330
2
100
AcDbEntity
  8
画層1
 62
     0
100
AcDbLine
 10
145.4499999999999
 20
321.1399999999999
 30
0.0
 11
146.4499999999999
 21
321.1399999999999
 31
0.0
  0
LINE
  5
1EE
330
2
100
AcDbEntity
  8
画層1
 62
     0
100
AcDbLine
 10
145.4499999999999
 20
324.44
 30
0.0
 11
145.4499999999999
 21
324.74
 31
0.0
  0
LINE
  5
1EF
330
2
100
AcDbEntity
  8
画層1
 62
     0
100
AcDbLine
 10
145.4499999999999
 20
321.1399999999999
 30
0.0
 11
145.4499999999999
 21
321.4399999999999
 31
0.0
  0
LINE
  5
1F0
330
2
100
AcDbEntity
  8
画層1
 62
     0
100
AcDbLine
 10
146.4499999999999
 20
324.74
 30
0.0
 11
146.4499999999999
 21
324.44
 31
0.0
  0
ARC
  5
1F1
330
2
100
AcDbEntity
  8
画層1
 62
     0
100
AcDbCircle
 10
147.4499999999999
 20
321.4399999999999
 30
0.0
 40
1.0
100
AcDbArc
 50
90.0
 51
180.0
  0
LINE
  5
1F2
330
2
100
AcDbEntity
  8
画層1
 62
     0
100
AcDbLine
 10
146.4499999999999
 20
321.4399999999999
 30
0.0
 11
146.4499999999999
 21
321.1399999999999
 31
0.0
  0
ARC
  5
1F3
330
2
100
AcDbEntity
  8
画層1
 62
     0
100
AcDbCircle
 10
147.4499999999999
 20
324.44
 30
0.0
 40
1.0
100
AcDbArc
 50
180.0
 51
270.0
  0
LINE
  5
1F4
330
2
100
AcDbEntity
  8
画層1
 62
     0
100
AcDbLine
 10
145.4499999999999
 20
315.24
 30
0.0
 11
146.4499999999999
 21
315.24
 31
0.0
  0
LINE
  5
1F5
330
2
100
AcDbEntity
  8
画層1
 62
     0
100
AcDbLine
 10
145.4499999999999
 20
314.9399999999999
 30
0.0
 11
145.4499999999999
 21
315.24
 31
0.0
  0
LINE
  5
1F6
330
2
100
AcDbEntity
  8
画層1
 62
     0
100
AcDbLine
 10
146.4499999999999
 20
315.24
 30
0.0
 11
146.4499999999999
 21
314.9399999999999
 31
0.0
  0
LINE
  5
1F7
330
2
100
AcDbEntity
  8
画層1
 62
     0
100
AcDbLine
 10
144.4499999999999
 20
322.44
 30
0.0
 11
142.99
 21
322.44
 31
0.0
  0
LINE
  5
1F8
330
2
100
AcDbEntity
  8
画層1
 62
     0
100
AcDbLine
 10
142.99
 20
323.4399999999999
 30
0.0
 11
144.4499999999999
 21
323.4399999999999
 31
0.0
  0
ARC
  5
1F9
330
2
100
AcDbEntity
  8
画層1
 62
     0
100
AcDbCircle
 10
144.4499999999999
 20
321.4399999999999
 30
0.0
 40
1.0
100
AcDbArc
 50
0.0
 51
90.0
  0
ARC
  5
1FA
330
2
100
AcDbEntity
  8
画層1
 62
     0
100
AcDbCircle
 10
144.4499999999999
 20
324.44
 30
0.0
 40
1.0
100
AcDbArc
 50
270.0
 51
0.0
  0
LINE
  5
1FB
330
2
100
AcDbEntity
  8
画層1
 62
     0
100
AcDbLine
 10
142.99
 20
313.94
 30
0.0
 11
144.4499999999999
 21
313.94
 31
0.0
  0
LINE
  5
1FC
330
2
100
AcDbEntity
  8
画層1
 62
     0
100
AcDbLine
 10
155.9499999999999
 20
320.0
 30
0.0
 11
155.9499999999999
 21
319.7
 31
0.0
  0
LINE
  5
1FD
330
2
100
AcDbEntity
  8
画層1
 62
     0
100
AcDbLine
 10
154.9499999999999
 20
319.7
 30
0.0
 11
154.9499999999999
 21
320.0
 31
0.0
  0
LINE
  5
1FE
330
2
100
AcDbEntity
  8
画層1
 62
     0
100
AcDbLine
 10
154.9499999999999
 20
316.3999999999999
 30
0.0
 11
155.9499999999999
 21
316.3999999999999
 31
0.0
  0
LINE
  5
1FF
330
2
100
AcDbEntity
  8
画層1
 62
     0
100
AcDbLine
 10
154.9499999999999
 20
316.3999999999999
 30
0.0
 11
154.9499999999999
 21
316.6999999999999
 31
0.0
  0
LINE
  5
200
330
2
100
AcDbEntity
  8
画層1
 62
     0
100
AcDbLine
 10
155.9499999999999
 20
316.6999999999999
 30
0.0
 11
155.9499999999999
 21
316.3999999999999
 31
0.0
  0
LINE
  5
201
330
2
100
AcDbEntity
  8
画層1
 62
     0
100
AcDbLine
 10
154.9499999999999
 20
320.0
 30
0.0
 11
155.9499999999999
 21
320.0
 31
0.0
  0
LINE
  5
202
330
2
100
AcDbEntity
  8
画層1
 62
     0
100
AcDbLine
 10
153.9499999999999
 20
317.7
 30
0.0
 11
152.49
 21
317.7
 31
0.0
  0
LINE
  5
203
330
2
100
AcDbEntity
  8
画層1
 62
     0
100
AcDbLine
 10
152.49
 20
318.6999999999999
 30
0.0
 11
153.9499999999999
 21
318.6999999999999
 31
0.0
  0
LINE
  5
204
330
2
100
AcDbEntity
  8
画層1
 62
     0
100
AcDbLine
 10
151.4499999999999
 20
322.1999999999999
 30
0.0
 11
151.4499999999999
 21
314.1999999999999
 31
0.0
  0
ARC
  5
205
330
2
100
AcDbEntity
  8
画層1
 62
     0
100
AcDbCircle
 10
153.9499999999999
 20
319.7
 30
0.0
 40
1.0
100
AcDbArc
 50
270.0
 51
0.0
  0
ARC
  5
206
330
2
100
AcDbEntity
  8
画層1
 62
     0
100
AcDbCircle
 10
153.9499999999999
 20
316.6999999999999
 30
0.0
 40
1.0
100
AcDbArc
 50
0.0
 51
90.0
  0
LINE
  5
207
330
2
100
AcDbEntity
  8
画層1
 62
     0
100
AcDbLine
 10
147.4499999999999
 20
332.94
 30
0.0
 11
148.91
 21
332.94
 31
0.0
  0
LINE
  5
208
330
2
100
AcDbEntity
  8
画層1
 62
     0
100
AcDbLine
 10
140.4499999999999
 20
336.4399999999999
 30
0.0
 11
149.9499999999999
 21
336.4399999999999
 31
0.0
  0
LINE
  5
209
330
2
100
AcDbEntity
  8
画層1
 62
     0
100
AcDbLine
 10
148.91
 20
331.9399999999999
 30
0.0
 11
147.4499999999999
 21
331.9399999999999
 31
0.0
  0
LINE
  5
20A
330
2
100
AcDbEntity
  8
画層1
 62
     0
100
AcDbLine
 10
140.4499999999999
 20
326.94
 30
0.0
 11
149.9499999999999
 21
326.94
 31
0.0
  0
LINE
  5
20B
330
2
100
AcDbEntity
  8
画層1
 62
     0
100
AcDbLine
 10
140.4499999999999
 20
328.44
 30
0.0
 11
149.9499999999999
 21
328.44
 31
0.0
  0
CIRCLE
  5
20C
330
2
100
AcDbEntity
  8
画層1
 62
     0
100
AcDbCircle
 10
145.95
 20
332.44
 30
0.0
 40
3.0
  0
LINE
  5
20D
330
2
100
AcDbEntity
  8
画層1
 62
     0
100
AcDbLine
 10
145.4499999999999
 20
334.24
 30
0.0
 11
146.4499999999999
 21
334.24
 31
0.0
  0
LINE
  5
20E
330
2
100
AcDbEntity
  8
画層1
 62
     0
100
AcDbLine
 10
145.4499999999999
 20
333.9399999999999
 30
0.0
 11
145.4499999999999
 21
334.24
 31
0.0
  0
LINE
  5
20F
330
2
100
AcDbEntity
  8
画層1
 62
     0
100
AcDbLine
 10
146.4499999999999
 20
334.24
 30
0.0
 11
146.4499999999999
 21
333.9399999999999
 31
0.0
  0
LINE
  5
210
330
2
100
AcDbEntity
  8
画層1
 62
     0
100
AcDbLine
 10
142.99
 20
332.94
 30
0.0
 11
144.4499999999999
 21
332.94
 31
0.0
  0
LINE
  5
211
330
2
100
AcDbEntity
  8
画層1
 62
     0
100
AcDbLine
 10
145.4499999999999
 20
330.64
 30
0.0
 11
146.4499999999999
 21
330.64
 31
0.0
  0
LINE
  5
212
330
2
100
AcDbEntity
  8
画層1
 62
     0
100
AcDbLine
 10
145.4499999999999
 20
330.64
 30
0.0
 11
145.4499999999999
 21
330.94
 31
0.0
  0
ARC
  5
213
330
2
100
AcDbEntity
  8
画層1
 62
     0
100
AcDbCircle
 10
147.4499999999999
 20
330.94
 30
0.0
 40
1.0
100
AcDbArc
 50
90.0
 51
180.0
  0
LINE
  5
214
330
2
100
AcDbEntity
  8
画層1
 62
     0
100
AcDbLine
 10
146.4499999999999
 20
330.94
 30
0.0
 11
146.4499999999999
 21
330.64
 31
0.0
  0
LINE
  5
215
330
2
100
AcDbEntity
  8
画層1
 62
     0
100
AcDbLine
 10
144.4499999999999
 20
331.9399999999999
 30
0.0
 11
142.99
 21
331.9399999999999
 31
0.0
  0
ARC
  5
216
330
2
100
AcDbEntity
  8
画層1
 62
     0
100
AcDbCircle
 10
144.4499999999999
 20
330.94
 30
0.0
 40
1.0
100
AcDbArc
 50
0.0
 51
90.0
  0
LINE
  5
217
330
2
100
AcDbEntity
  8
画層1
 62
     0
100
AcDbLine
 10
141.95
 20
336.4399999999999
 30
0.0
 11
141.95
 21
328.44
 31
0.0
  0
ARC
  5
218
330
2
100
AcDbEntity
  8
画層1
 62
     0
100
AcDbCircle
 10
144.4499999999999
 20
333.9399999999999
 30
0.0
 40
1.0
100
AcDbArc
 50
270.0
 51
0.0
  0
ARC
  5
219
330
2
100
AcDbEntity
  8
画層1
 62
     0
100
AcDbCircle
 10
147.4499999999999
 20
333.9399999999999
 30
0.0
 40
1.0
100
AcDbArc
 50
180.0
 51
270.0
  0
LINE
  5
21A
330
2
100
AcDbEntity
  8
画層1
 62
     0
100
AcDbLine
 10
155.9499999999999
 20
335.6999999999999
 30
0.0
 11
155.9499999999999
 21
335.3999999999999
 31
0.0
  0
LINE
  5
21B
330
2
100
AcDbEntity
  8
画層1
 62
     0
100
AcDbLine
 10
154.9499999999999
 20
335.3999999999999
 30
0.0
 11
154.9499999999999
 21
335.6999999999999
 31
0.0
  0
LINE
  5
21C
330
2
100
AcDbEntity
  8
画層1
 62
     0
100
AcDbLine
 10
154.9499999999999
 20
335.3999999999999
 30
0.0
 11
155.9499999999999
 21
335.3999999999999
 31
0.0
  0
LINE
  5
21D
330
2
100
AcDbEntity
  8
画層1
 62
     0
100
AcDbLine
 10
154.9499999999999
 20
329.1999999999999
 30
0.0
 11
154.9499999999999
 21
329.4999999999999
 31
0.0
  0
LINE
  5
21E
330
2
100
AcDbEntity
  8
画層1
 62
     0
100
AcDbLine
 10
154.9499999999999
 20
329.4999999999999
 30
0.0
 11
155.9499999999999
 21
329.4999999999999
 31
0.0
  0
LINE
  5
21F
330
2
100
AcDbEntity
  8
画層1
 62
     0
100
AcDbLine
 10
155.9499999999999
 20
329.4999999999999
 30
0.0
 11
155.9499999999999
 21
329.1999999999999
 31
0.0
  0
LINE
  5
220
330
2
100
AcDbEntity
  8
画層1
 62
     0
100
AcDbLine
 10
155.9499999999999
 20
326.2
 30
0.0
 11
155.9499999999999
 21
325.8999999999999
 31
0.0
  0
LINE
  5
221
330
2
100
AcDbEntity
  8
画層1
 62
     0
100
AcDbLine
 10
154.9499999999999
 20
325.8999999999999
 30
0.0
 11
154.9499999999999
 21
326.2
 31
0.0
  0
LINE
  5
222
330
2
100
AcDbEntity
  8
画層1
 62
     0
100
AcDbLine
 10
154.9499999999999
 20
325.8999999999999
 30
0.0
 11
155.9499999999999
 21
325.8999999999999
 31
0.0
  0
LINE
  5
223
330
2
100
AcDbEntity
  8
画層1
 62
     0
100
AcDbLine
 10
153.9499999999999
 20
336.6999999999999
 30
0.0
 11
152.49
 21
336.6999999999999
 31
0.0
  0
LINE
  5
224
330
2
100
AcDbEntity
  8
画層1
 62
     0
100
AcDbLine
 10
152.49
 20
328.2
 30
0.0
 11
153.9499999999999
 21
328.2
 31
0.0
  0
LINE
  5
225
330
2
100
AcDbEntity
  8
画層1
 62
     0
100
AcDbLine
 10
153.9499999999999
 20
327.1999999999999
 30
0.0
 11
152.49
 21
327.1999999999999
 31
0.0
  0
ARC
  5
226
330
2
100
AcDbEntity
  8
画層1
 62
     0
100
AcDbCircle
 10
153.9499999999999
 20
335.6999999999999
 30
0.0
 40
1.0
100
AcDbArc
 50
0.0
 51
90.0
  0
ARC
  5
227
330
2
100
AcDbEntity
  8
画層1
 62
     0
100
AcDbCircle
 10
153.9499999999999
 20
326.2
 30
0.0
 40
1.0
100
AcDbArc
 50
0.0
 51
90.0
  0
ARC
  5
228
330
2
100
AcDbEntity
  8
画層1
 62
     0
100
AcDbCircle
 10
153.9499999999999
 20
329.1999999999999
 30
0.0
 40
1.0
100
AcDbArc
 50
270.0
 51
0.0
  0
LINE
  5
229
330
2
100
AcDbEntity
  8
画層1
 62
     0
100
AcDbLine
 10
159.45
 20
331.7
 30
0.0
 11
159.45
 21
323.7
 31
0.0
  0
LINE
  5
22A
330
2
100
AcDbEntity
  8
画層1
 62
     0
100
AcDbLine
 10
156.9499999999999
 20
318.6999999999999
 30
0.0
 11
158.41
 21
318.6999999999999
 31
0.0
  0
LINE
  5
22B
330
2
100
AcDbEntity
  8
画層1
 62
     0
100
AcDbLine
 10
158.41
 20
317.7
 30
0.0
 11
156.9499999999999
 21
317.7
 31
0.0
  0
LINE
  5
22C
330
2
100
AcDbEntity
  8
画層1
 62
     0
100
AcDbLine
 10
159.45
 20
322.1999999999999
 30
0.0
 11
159.45
 21
314.1999999999999
 31
0.0
  0
LINE
  5
22D
330
2
100
AcDbEntity
  8
画層1
 62
     0
100
AcDbLine
 10
158.41
 20
336.6999999999999
 30
0.0
 11
156.9499999999999
 21
336.6999999999999
 31
0.0
  0
LINE
  5
22E
330
2
100
AcDbEntity
  8
画層1
 62
     0
100
AcDbLine
 10
158.41
 20
327.1999999999999
 30
0.0
 11
156.9499999999999
 21
327.1999999999999
 31
0.0
  0
LINE
  5
22F
330
2
100
AcDbEntity
  8
画層1
 62
     0
100
AcDbLine
 10
156.9499999999999
 20
328.2
 30
0.0
 11
158.41
 21
328.2
 31
0.0
  0
ARC
  5
230
330
2
100
AcDbEntity
  8
画層1
 62
     0
100
AcDbCircle
 10
156.9499999999999
 20
354.7
 30
0.0
 40
1.0
100
AcDbArc
 50
90.0
 51
180.0
  0
ARC
  5
231
330
2
100
AcDbEntity
  8
画層1
 62
     0
100
AcDbCircle
 10
156.9499999999999
 20
357.6999999999999
 30
0.0
 40
1.0
100
AcDbArc
 50
180.0
 51
270.0
  0
ARC
  5
232
330
2
100
AcDbEntity
  8
画層1
 62
     0
100
AcDbCircle
 10
156.9499999999999
 20
348.1999999999999
 30
0.0
 40
1.0
100
AcDbArc
 50
180.0
 51
270.0
  0
ARC
  5
233
330
2
100
AcDbEntity
  8
画層1
 62
     0
100
AcDbCircle
 10
156.9499999999999
 20
345.1999999999999
 30
0.0
 40
1.0
100
AcDbArc
 50
90.0
 51
180.0
  0
ARC
  5
234
330
2
100
AcDbEntity
  8
画層1
 62
     0
100
AcDbCircle
 10
156.9499999999999
 20
338.7
 30
0.0
 40
1.0
100
AcDbArc
 50
180.0
 51
270.0
  0
LINE
  5
235
330
2
100
AcDbEntity
  8
画層1
 62
     0
100
AcDbLine
 10
149.9499999999999
 20
352.1999999999999
 30
0.0
 11
159.45
 21
352.1999999999999
 31
0.0
  0
LINE
  5
236
330
2
100
AcDbEntity
  8
画層1
 62
     0
100
AcDbLine
 10
149.9499999999999
 20
360.1999999999999
 30
0.0
 11
159.45
 21
360.1999999999999
 31
0.0
  0
LINE
  5
237
330
2
100
AcDbEntity
  8
画層1
 62
     0
100
AcDbLine
 10
149.9499999999999
 20
341.1999999999999
 30
0.0
 11
159.45
 21
341.1999999999999
 31
0.0
  0
LINE
  5
238
330
2
100
AcDbEntity
  8
画層1
 62
     0
100
AcDbLine
 10
149.9499999999999
 20
342.7
 30
0.0
 11
159.45
 21
342.7
 31
0.0
  0
LINE
  5
239
330
2
100
AcDbEntity
  8
画層1
 62
     0
100
AcDbLine
 10
149.9499999999999
 20
350.7
 30
0.0
 11
159.45
 21
350.7
 31
0.0
  0
CIRCLE
  5
23A
330
2
100
AcDbEntity
  8
画層1
 62
     0
100
AcDbCircle
 10
155.4499999999999
 20
356.1999999999999
 30
0.0
 40
3.0
  0
CIRCLE
  5
23B
330
2
100
AcDbEntity
  8
画層1
 62
     0
100
AcDbCircle
 10
155.4499999999999
 20
346.7
 30
0.0
 40
3.0
  0
LINE
  5
23C
330
2
100
AcDbEntity
  8
画層1
 62
     0
100
AcDbLine
 10
151.4499999999999
 20
350.7
 30
0.0
 11
151.4499999999999
 21
342.7
 31
0.0
  0
LINE
  5
23D
330
2
100
AcDbEntity
  8
画層1
 62
     0
100
AcDbLine
 10
141.95
 20
355.44
 30
0.0
 11
141.95
 21
347.44
 31
0.0
  0
CIRCLE
  5
23E
330
2
100
AcDbEntity
  8
画層1
 62
     0
100
AcDbCircle
 10
145.95
 20
351.44
 30
0.0
 40
3.0
  0
LINE
  5
23F
330
2
100
AcDbEntity
  8
画層1
 62
     0
100
AcDbLine
 10
148.91
 20
341.44
 30
0.0
 11
147.4499999999999
 21
341.44
 31
0.0
  0
LINE
  5
240
330
2
100
AcDbEntity
  8
画層1
 62
     0
100
AcDbLine
 10
147.4499999999999
 20
342.4399999999999
 30
0.0
 11
148.91
 21
342.4399999999999
 31
0.0
  0
LINE
  5
241
330
2
100
AcDbEntity
  8
画層1
 62
     0
100
AcDbLine
 10
140.4499999999999
 20
345.94
 30
0.0
 11
149.9499999999999
 21
345.94
 31
0.0
  0
LINE
  5
242
330
2
100
AcDbEntity
  8
画層1
 62
     0
100
AcDbLine
 10
140.4499999999999
 20
337.9399999999999
 30
0.0
 11
149.9499999999999
 21
337.9399999999999
 31
0.0
  0
LINE
  5
243
330
2
100
AcDbEntity
  8
画層1
 62
     0
100
AcDbLine
 10
140.4499999999999
 20
347.44
 30
0.0
 11
149.9499999999999
 21
347.44
 31
0.0
  0
CIRCLE
  5
244
330
2
100
AcDbEntity
  8
画層1
 62
     0
100
AcDbCircle
 10
145.95
 20
341.9399999999999
 30
0.0
 40
3.0
  0
ARC
  5
245
330
2
100
AcDbEntity
  8
画層1
 62
     0
100
AcDbCircle
 10
147.4499999999999
 20
343.44
 30
0.0
 40
1.0
100
AcDbArc
 50
180.0
 51
270.0
  0
LINE
  5
246
330
2
100
AcDbEntity
  8
画層1
 62
     0
100
AcDbLine
 10
145.4499999999999
 20
340.1399999999999
 30
0.0
 11
146.4499999999999
 21
340.1399999999999
 31
0.0
  0
LINE
  5
247
330
2
100
AcDbEntity
  8
画層1
 62
     0
100
AcDbLine
 10
145.4499999999999
 20
340.1399999999999
 30
0.0
 11
145.4499999999999
 21
340.4399999999999
 31
0.0
  0
LINE
  5
248
330
2
100
AcDbEntity
  8
画層1
 62
     0
100
AcDbLine
 10
146.4499999999999
 20
340.4399999999999
 30
0.0
 11
146.4499999999999
 21
340.1399999999999
 31
0.0
  0
ARC
  5
249
330
2
100
AcDbEntity
  8
画層1
 62
     0
100
AcDbCircle
 10
147.4499999999999
 20
340.4399999999999
 30
0.0
 40
1.0
100
AcDbArc
 50
90.0
 51
180.0
  0
LINE
  5
24A
330
2
100
AcDbEntity
  8
画層1
 62
     0
100
AcDbLine
 10
145.4499999999999
 20
343.74
 30
0.0
 11
146.4499999999999
 21
343.74
 31
0.0
  0
LINE
  5
24B
330
2
100
AcDbEntity
  8
画層1
 62
     0
100
AcDbLine
 10
145.4499999999999
 20
343.44
 30
0.0
 11
145.4499999999999
 21
343.74
 31
0.0
  0
LINE
  5
24C
330
2
100
AcDbEntity
  8
画層1
 62
     0
100
AcDbLine
 10
146.4499999999999
 20
343.74
 30
0.0
 11
146.4499999999999
 21
343.44
 31
0.0
  0
LINE
  5
24D
330
2
100
AcDbEntity
  8
画層1
 62
     0
100
AcDbLine
 10
141.95
 20
345.94
 30
0.0
 11
141.95
 21
337.9399999999999
 31
0.0
  0
LINE
  5
24E
330
2
100
AcDbEntity
  8
画層1
 62
     0
100
AcDbLine
 10
142.99
 20
342.4399999999999
 30
0.0
 11
144.4499999999999
 21
342.4399999999999
 31
0.0
  0
LINE
  5
24F
330
2
100
AcDbEntity
  8
画層1
 62
     0
100
AcDbLine
 10
144.4499999999999
 20
341.44
 30
0.0
 11
142.99
 21
341.44
 31
0.0
  0
ARC
  5
250
330
2
100
AcDbEntity
  8
画層1
 62
     0
100
AcDbCircle
 10
144.4499999999999
 20
343.44
 30
0.0
 40
1.0
100
AcDbArc
 50
270.0
 51
0.0
  0
ARC
  5
251
330
2
100
AcDbEntity
  8
画層1
 62
     0
100
AcDbCircle
 10
144.4499999999999
 20
340.4399999999999
 30
0.0
 40
1.0
100
AcDbArc
 50
0.0
 51
90.0
  0
LINE
  5
252
330
2
100
AcDbEntity
  8
画層1
 62
     0
100
AcDbLine
 10
154.9499999999999
 20
344.8999999999999
 30
0.0
 11
155.9499999999999
 21
344.8999999999999
 31
0.0
  0
LINE
  5
253
330
2
100
AcDbEntity
  8
画層1
 62
     0
100
AcDbLine
 10
154.9499999999999
 20
344.8999999999999
 30
0.0
 11
154.9499999999999
 21
345.1999999999999
 31
0.0
  0
LINE
  5
254
330
2
100
AcDbEntity
  8
画層1
 62
     0
100
AcDbLine
 10
155.9499999999999
 20
345.1999999999999
 30
0.0
 11
155.9499999999999
 21
344.8999999999999
 31
0.0
  0
LINE
  5
255
330
2
100
AcDbEntity
  8
画層1
 62
     0
100
AcDbLine
 10
155.9499999999999
 20
348.4999999999999
 30
0.0
 11
155.9499999999999
 21
348.1999999999999
 31
0.0
  0
LINE
  5
256
330
2
100
AcDbEntity
  8
画層1
 62
     0
100
AcDbLine
 10
154.9499999999999
 20
348.4999999999999
 30
0.0
 11
155.9499999999999
 21
348.4999999999999
 31
0.0
  0
LINE
  5
257
330
2
100
AcDbEntity
  8
画層1
 62
     0
100
AcDbLine
 10
154.9499999999999
 20
348.1999999999999
 30
0.0
 11
154.9499999999999
 21
348.4999999999999
 31
0.0
  0
LINE
  5
258
330
2
100
AcDbEntity
  8
画層1
 62
     0
100
AcDbLine
 10
154.9499999999999
 20
338.7
 30
0.0
 11
154.9499999999999
 21
339.0
 31
0.0
  0
LINE
  5
259
330
2
100
AcDbEntity
  8
画層1
 62
     0
100
AcDbLine
 10
154.9499999999999
 20
339.0
 30
0.0
 11
155.9499999999999
 21
339.0
 31
0.0
  0
LINE
  5
25A
330
2
100
AcDbEntity
  8
画層1
 62
     0
100
AcDbLine
 10
155.9499999999999
 20
339.0
 30
0.0
 11
155.9499999999999
 21
338.7
 31
0.0
  0
LINE
  5
25B
330
2
100
AcDbEntity
  8
画層1
 62
     0
100
AcDbLine
 10
153.9499999999999
 20
346.1999999999999
 30
0.0
 11
152.49
 21
346.1999999999999
 31
0.0
  0
LINE
  5
25C
330
2
100
AcDbEntity
  8
画層1
 62
     0
100
AcDbLine
 10
152.49
 20
347.1999999999999
 30
0.0
 11
153.9499999999999
 21
347.1999999999999
 31
0.0
  0
LINE
  5
25D
330
2
100
AcDbEntity
  8
画層1
 62
     0
100
AcDbLine
 10
152.49
 20
337.6999999999999
 30
0.0
 11
153.9499999999999
 21
337.6999999999999
 31
0.0
  0
ARC
  5
25E
330
2
100
AcDbEntity
  8
画層1
 62
     0
100
AcDbCircle
 10
153.9499999999999
 20
348.1999999999999
 30
0.0
 40
1.0
100
AcDbArc
 50
270.0
 51
0.0
  0
ARC
  5
25F
330
2
100
AcDbEntity
  8
画層1
 62
     0
100
AcDbCircle
 10
153.9499999999999
 20
345.1999999999999
 30
0.0
 40
1.0
100
AcDbArc
 50
0.0
 51
90.0
  0
ARC
  5
260
330
2
100
AcDbEntity
  8
画層1
 62
     0
100
AcDbCircle
 10
153.9499999999999
 20
338.7
 30
0.0
 40
1.0
100
AcDbArc
 50
270.0
 51
0.0
  0
LINE
  5
261
330
2
100
AcDbEntity
  8
画層1
 62
     0
100
AcDbLine
 10
147.4499999999999
 20
351.94
 30
0.0
 11
148.91
 21
351.94
 31
0.0
  0
LINE
  5
262
330
2
100
AcDbEntity
  8
画層1
 62
     0
100
AcDbLine
 10
140.4499999999999
 20
355.44
 30
0.0
 11
149.9499999999999
 21
355.44
 31
0.0
  0
LINE
  5
263
330
2
100
AcDbEntity
  8
画層1
 62
     0
100
AcDbLine
 10
140.4499999999999
 20
356.9399999999999
 30
0.0
 11
149.9499999999999
 21
356.9399999999999
 31
0.0
  0
LINE
  5
264
330
2
100
AcDbEntity
  8
画層1
 62
     0
100
AcDbLine
 10
148.91
 20
350.9399999999999
 30
0.0
 11
147.4499999999999
 21
350.9399999999999
 31
0.0
  0
LINE
  5
265
330
2
100
AcDbEntity
  8
画層1
 62
     0
100
AcDbLine
 10
145.4499999999999
 20
359.14
 30
0.0
 11
146.4499999999999
 21
359.14
 31
0.0
  0
LINE
  5
266
330
2
100
AcDbEntity
  8
画層1
 62
     0
100
AcDbLine
 10
145.4499999999999
 20
359.14
 30
0.0
 11
145.4499999999999
 21
359.44
 31
0.0
  0
LINE
  5
267
330
2
100
AcDbEntity
  8
画層1
 62
     0
100
AcDbLine
 10
146.4499999999999
 20
359.44
 30
0.0
 11
146.4499999999999
 21
359.14
 31
0.0
  0
LINE
  5
268
330
2
100
AcDbEntity
  8
画層1
 62
     0
100
AcDbLine
 10
145.4499999999999
 20
353.2399999999999
 30
0.0
 11
146.4499999999999
 21
353.2399999999999
 31
0.0
  0
LINE
  5
269
330
2
100
AcDbEntity
  8
画層1
 62
     0
100
AcDbLine
 10
145.4499999999999
 20
352.9399999999999
 30
0.0
 11
145.4499999999999
 21
353.2399999999999
 31
0.0
  0
LINE
  5
26A
330
2
100
AcDbEntity
  8
画層1
 62
     0
100
AcDbLine
 10
146.4499999999999
 20
353.2399999999999
 30
0.0
 11
146.4499999999999
 21
352.9399999999999
 31
0.0
  0
ARC
  5
26B
330
2
100
AcDbEntity
  8
画層1
 62
     0
100
AcDbCircle
 10
147.4499999999999
 20
352.9399999999999
 30
0.0
 40
1.0
100
AcDbArc
 50
180.0
 51
270.0
  0
LINE
  5
26C
330
2
100
AcDbEntity
  8
画層1
 62
     0
100
AcDbLine
 10
142.99
 20
351.94
 30
0.0
 11
144.4499999999999
 21
351.94
 31
0.0
  0
ARC
  5
26D
330
2
100
AcDbEntity
  8
画層1
 62
     0
100
AcDbCircle
 10
144.4499999999999
 20
352.9399999999999
 30
0.0
 40
1.0
100
AcDbArc
 50
270.0
 51
0.0
  0
LINE
  5
26E
330
2
100
AcDbEntity
  8
画層1
 62
     0
100
AcDbLine
 10
145.4499999999999
 20
349.6399999999999
 30
0.0
 11
146.4499999999999
 21
349.6399999999999
 31
0.0
  0
LINE
  5
26F
330
2
100
AcDbEntity
  8
画層1
 62
     0
100
AcDbLine
 10
145.4499999999999
 20
349.6399999999999
 30
0.0
 11
145.4499999999999
 21
349.94
 31
0.0
  0
ARC
  5
270
330
2
100
AcDbEntity
  8
画層1
 62
     0
100
AcDbCircle
 10
147.4499999999999
 20
349.94
 30
0.0
 40
1.0
100
AcDbArc
 50
90.0
 51
180.0
  0
LINE
  5
271
330
2
100
AcDbEntity
  8
画層1
 62
     0
100
AcDbLine
 10
146.4499999999999
 20
349.94
 30
0.0
 11
146.4499999999999
 21
349.6399999999999
 31
0.0
  0
LINE
  5
272
330
2
100
AcDbEntity
  8
画層1
 62
     0
100
AcDbLine
 10
144.4499999999999
 20
350.9399999999999
 30
0.0
 11
142.99
 21
350.9399999999999
 31
0.0
  0
ARC
  5
273
330
2
100
AcDbEntity
  8
画層1
 62
     0
100
AcDbCircle
 10
144.4499999999999
 20
349.94
 30
0.0
 40
1.0
100
AcDbArc
 50
0.0
 51
90.0
  0
LINE
  5
274
330
2
100
AcDbEntity
  8
画層1
 62
     0
100
AcDbLine
 10
155.9499999999999
 20
354.7
 30
0.0
 11
155.9499999999999
 21
354.4
 31
0.0
  0
LINE
  5
275
330
2
100
AcDbEntity
  8
画層1
 62
     0
100
AcDbLine
 10
154.9499999999999
 20
354.4
 30
0.0
 11
154.9499999999999
 21
354.7
 31
0.0
  0
LINE
  5
276
330
2
100
AcDbEntity
  8
画層1
 62
     0
100
AcDbLine
 10
154.9499999999999
 20
354.4
 30
0.0
 11
155.9499999999999
 21
354.4
 31
0.0
  0
LINE
  5
277
330
2
100
AcDbEntity
  8
画層1
 62
     0
100
AcDbLine
 10
154.9499999999999
 20
357.6999999999999
 30
0.0
 11
154.9499999999999
 21
358.0
 31
0.0
  0
LINE
  5
278
330
2
100
AcDbEntity
  8
画層1
 62
     0
100
AcDbLine
 10
154.9499999999999
 20
358.0
 30
0.0
 11
155.9499999999999
 21
358.0
 31
0.0
  0
LINE
  5
279
330
2
100
AcDbEntity
  8
画層1
 62
     0
100
AcDbLine
 10
155.9499999999999
 20
358.0
 30
0.0
 11
155.9499999999999
 21
357.6999999999999
 31
0.0
  0
LINE
  5
27A
330
2
100
AcDbEntity
  8
画層1
 62
     0
100
AcDbLine
 10
151.4499999999999
 20
360.1999999999999
 30
0.0
 11
151.4499999999999
 21
352.1999999999999
 31
0.0
  0
LINE
  5
27B
330
2
100
AcDbEntity
  8
画層1
 62
     0
100
AcDbLine
 10
152.49
 20
356.7
 30
0.0
 11
153.9499999999999
 21
356.7
 31
0.0
  0
LINE
  5
27C
330
2
100
AcDbEntity
  8
画層1
 62
     0
100
AcDbLine
 10
153.9499999999999
 20
355.6999999999999
 30
0.0
 11
152.49
 21
355.6999999999999
 31
0.0
  0
ARC
  5
27D
330
2
100
AcDbEntity
  8
画層1
 62
     0
100
AcDbCircle
 10
153.9499999999999
 20
354.7
 30
0.0
 40
1.0
100
AcDbArc
 50
0.0
 51
90.0
  0
ARC
  5
27E
330
2
100
AcDbEntity
  8
画層1
 62
     0
100
AcDbCircle
 10
153.9499999999999
 20
357.6999999999999
 30
0.0
 40
1.0
100
AcDbArc
 50
270.0
 51
0.0
  0
LINE
  5
27F
330
2
100
AcDbEntity
  8
画層1
 62
     0
100
AcDbLine
 10
159.45
 20
350.7
 30
0.0
 11
159.45
 21
342.7
 31
0.0
  0
LINE
  5
280
330
2
100
AcDbEntity
  8
画層1
 62
     0
100
AcDbLine
 10
156.9499999999999
 20
347.1999999999999
 30
0.0
 11
158.41
 21
347.1999999999999
 31
0.0
  0
LINE
  5
281
330
2
100
AcDbEntity
  8
画層1
 62
     0
100
AcDbLine
 10
158.41
 20
346.1999999999999
 30
0.0
 11
156.9499999999999
 21
346.1999999999999
 31
0.0
  0
LINE
  5
282
330
2
100
AcDbEntity
  8
画層1
 62
     0
100
AcDbLine
 10
156.9499999999999
 20
337.6999999999999
 30
0.0
 11
158.41
 21
337.6999999999999
 31
0.0
  0
LINE
  5
283
330
2
100
AcDbEntity
  8
画層1
 62
     0
100
AcDbLine
 10
159.45
 20
360.1999999999999
 30
0.0
 11
159.45
 21
352.1999999999999
 31
0.0
  0
LINE
  5
284
330
2
100
AcDbEntity
  8
画層1
 62
     0
100
AcDbLine
 10
158.41
 20
355.6999999999999
 30
0.0
 11
156.9499999999999
 21
355.6999999999999
 31
0.0
  0
LINE
  5
285
330
2
100
AcDbEntity
  8
画層1
 62
     0
100
AcDbLine
 10
156.9499999999999
 20
356.7
 30
0.0
 11
158.41
 21
356.7
 31
0.0
  0
ARC
  5
286
330
2
100
AcDbEntity
  8
画層1
 62
     0
100
AcDbCircle
 10
156.9499999999999
 20
383.1999999999999
 30
0.0
 40
1.0
100
AcDbArc
 50
90.0
 51
180.0
  0
LINE
  5
287
330
2
100
AcDbEntity
  8
画層1
 62
     0
100
AcDbLine
 10
141.95
 20
383.9399999999999
 30
0.0
 11
141.95
 21
375.9399999999999
 31
0.0
  0
CIRCLE
  5
288
330
2
100
AcDbEntity
  8
画層1
 62
     0
100
AcDbCircle
 10
155.4499999999999
 20
384.6999999999999
 30
0.0
 40
3.0
  0
ARC
  5
289
330
2
100
AcDbEntity
  8
画層1
 62
     0
100
AcDbCircle
 10
153.9499999999999
 20
383.1999999999999
 30
0.0
 40
1.0
100
AcDbArc
 50
0.0
 51
90.0
  0
LINE
  5
28A
330
2
100
AcDbEntity
  8
画層1
 62
     0
100
AcDbLine
 10
159.45
 20
388.7
 30
0.0
 11
159.45
 21
380.7
 31
0.0
  0
LINE
  5
28B
330
2
100
AcDbEntity
  8
画層1
 62
     0
100
AcDbLine
 10
151.4499999999999
 20
388.7
 30
0.0
 11
151.4499999999999
 21
380.7
 31
0.0
  0
ARC
  5
28C
330
2
100
AcDbEntity
  8
画層1
 62
     0
100
AcDbCircle
 10
156.9499999999999
 20
376.6999999999999
 30
0.0
 40
1.0
100
AcDbArc
 50
180.0
 51
270.0
  0
ARC
  5
28D
330
2
100
AcDbEntity
  8
画層1
 62
     0
100
AcDbCircle
 10
156.9499999999999
 20
373.7
 30
0.0
 40
1.0
100
AcDbArc
 50
90.0
 51
180.0
  0
ARC
  5
28E
330
2
100
AcDbEntity
  8
画層1
 62
     0
100
AcDbCircle
 10
156.9499999999999
 20
367.2
 30
0.0
 40
1.0
100
AcDbArc
 50
180.0
 51
270.0
  0
ARC
  5
28F
330
2
100
AcDbEntity
  8
画層1
 62
     0
100
AcDbCircle
 10
156.9499999999999
 20
364.1999999999999
 30
0.0
 40
1.0
100
AcDbArc
 50
90.0
 51
180.0
  0
LINE
  5
290
330
2
100
AcDbEntity
  8
画層1
 62
     0
100
AcDbLine
 10
149.9499999999999
 20
379.1999999999999
 30
0.0
 11
159.45
 21
379.1999999999999
 31
0.0
  0
LINE
  5
291
330
2
100
AcDbEntity
  8
画層1
 62
     0
100
AcDbLine
 10
149.9499999999999
 20
371.1999999999999
 30
0.0
 11
159.45
 21
371.1999999999999
 31
0.0
  0
LINE
  5
292
330
2
100
AcDbEntity
  8
画層1
 62
     0
100
AcDbLine
 10
149.9499999999999
 20
380.7
 30
0.0
 11
159.45
 21
380.7
 31
0.0
  0
LINE
  5
293
330
2
100
AcDbEntity
  8
画層1
 62
     0
100
AcDbLine
 10
149.9499999999999
 20
369.7
 30
0.0
 11
159.45
 21
369.7
 31
0.0
  0
LINE
  5
294
330
2
100
AcDbEntity
  8
画層1
 62
     0
100
AcDbLine
 10
149.9499999999999
 20
361.6999999999999
 30
0.0
 11
159.45
 21
361.6999999999999
 31
0.0
  0
CIRCLE
  5
295
330
2
100
AcDbEntity
  8
画層1
 62
     0
100
AcDbCircle
 10
155.4499999999999
 20
375.1999999999999
 30
0.0
 40
3.0
  0
CIRCLE
  5
296
330
2
100
AcDbEntity
  8
画層1
 62
     0
100
AcDbCircle
 10
155.4499999999999
 20
365.7
 30
0.0
 40
3.0
  0
LINE
  5
297
330
2
100
AcDbEntity
  8
画層1
 62
     0
100
AcDbLine
 10
151.4499999999999
 20
379.1999999999999
 30
0.0
 11
151.4499999999999
 21
371.1999999999999
 31
0.0
  0
ARC
  5
298
330
2
100
AcDbEntity
  8
画層1
 62
     0
100
AcDbCircle
 10
147.4499999999999
 20
371.94
 30
0.0
 40
1.0
100
AcDbArc
 50
180.0
 51
270.0
  0
ARC
  5
299
330
2
100
AcDbEntity
  8
画層1
 62
     0
100
AcDbCircle
 10
144.4499999999999
 20
371.94
 30
0.0
 40
1.0
100
AcDbArc
 50
270.0
 51
0.0
  0
LINE
  5
29A
330
2
100
AcDbEntity
  8
画層1
 62
     0
100
AcDbLine
 10
141.95
 20
374.44
 30
0.0
 11
141.95
 21
366.44
 31
0.0
  0
CIRCLE
  5
29B
330
2
100
AcDbEntity
  8
画層1
 62
     0
100
AcDbCircle
 10
145.95
 20
370.44
 30
0.0
 40
3.0
  0
LINE
  5
29C
330
2
100
AcDbEntity
  8
画層1
 62
     0
100
AcDbLine
 10
148.91
 20
369.94
 30
0.0
 11
147.4499999999999
 21
369.94
 31
0.0
  0
LINE
  5
29D
330
2
100
AcDbEntity
  8
画層1
 62
     0
100
AcDbLine
 10
147.4499999999999
 20
370.94
 30
0.0
 11
148.91
 21
370.94
 31
0.0
  0
LINE
  5
29E
330
2
100
AcDbEntity
  8
画層1
 62
     0
100
AcDbLine
 10
148.91
 20
360.44
 30
0.0
 11
147.4499999999999
 21
360.44
 31
0.0
  0
LINE
  5
29F
330
2
100
AcDbEntity
  8
画層1
 62
     0
100
AcDbLine
 10
147.4499999999999
 20
361.4399999999999
 30
0.0
 11
148.91
 21
361.4399999999999
 31
0.0
  0
LINE
  5
2A0
330
2
100
AcDbEntity
  8
画層1
 62
     0
100
AcDbLine
 10
140.4499999999999
 20
364.9399999999999
 30
0.0
 11
149.9499999999999
 21
364.9399999999999
 31
0.0
  0
LINE
  5
2A1
330
2
100
AcDbEntity
  8
画層1
 62
     0
100
AcDbLine
 10
140.4499999999999
 20
366.44
 30
0.0
 11
149.9499999999999
 21
366.44
 31
0.0
  0
LINE
  5
2A2
330
2
100
AcDbEntity
  8
画層1
 62
     0
100
AcDbLine
 10
142.99
 20
370.94
 30
0.0
 11
144.4499999999999
 21
370.94
 31
0.0
  0
LINE
  5
2A3
330
2
100
AcDbEntity
  8
画層1
 62
     0
100
AcDbLine
 10
144.4499999999999
 20
369.94
 30
0.0
 11
142.99
 21
369.94
 31
0.0
  0
LINE
  5
2A4
330
2
100
AcDbEntity
  8
画層1
 62
     0
100
AcDbLine
 10
145.4499999999999
 20
368.6399999999999
 30
0.0
 11
146.4499999999999
 21
368.6399999999999
 31
0.0
  0
LINE
  5
2A5
330
2
100
AcDbEntity
  8
画層1
 62
     0
100
AcDbLine
 10
145.4499999999999
 20
368.6399999999999
 30
0.0
 11
145.4499999999999
 21
368.94
 31
0.0
  0
LINE
  5
2A6
330
2
100
AcDbEntity
  8
画層1
 62
     0
100
AcDbLine
 10
146.4499999999999
 20
368.94
 30
0.0
 11
146.4499999999999
 21
368.6399999999999
 31
0.0
  0
ARC
  5
2A7
330
2
100
AcDbEntity
  8
画層1
 62
     0
100
AcDbCircle
 10
147.4499999999999
 20
362.44
 30
0.0
 40
1.0
100
AcDbArc
 50
180.0
 51
270.0
  0
LINE
  5
2A8
330
2
100
AcDbEntity
  8
画層1
 62
     0
100
AcDbLine
 10
145.4499999999999
 20
362.74
 30
0.0
 11
146.4499999999999
 21
362.74
 31
0.0
  0
LINE
  5
2A9
330
2
100
AcDbEntity
  8
画層1
 62
     0
100
AcDbLine
 10
145.4499999999999
 20
362.44
 30
0.0
 11
145.4499999999999
 21
362.74
 31
0.0
  0
LINE
  5
2AA
330
2
100
AcDbEntity
  8
画層1
 62
     0
100
AcDbLine
 10
146.4499999999999
 20
362.74
 30
0.0
 11
146.4499999999999
 21
362.44
 31
0.0
  0
LINE
  5
2AB
330
2
100
AcDbEntity
  8
画層1
 62
     0
100
AcDbLine
 10
142.99
 20
361.4399999999999
 30
0.0
 11
144.4499999999999
 21
361.4399999999999
 31
0.0
  0
LINE
  5
2AC
330
2
100
AcDbEntity
  8
画層1
 62
     0
100
AcDbLine
 10
144.4499999999999
 20
360.44
 30
0.0
 11
142.99
 21
360.44
 31
0.0
  0
ARC
  5
2AD
330
2
100
AcDbEntity
  8
画層1
 62
     0
100
AcDbCircle
 10
144.4499999999999
 20
362.44
 30
0.0
 40
1.0
100
AcDbArc
 50
270.0
 51
0.0
  0
ARC
  5
2AE
330
2
100
AcDbEntity
  8
画層1
 62
     0
100
AcDbCircle
 10
144.4499999999999
 20
368.94
 30
0.0
 40
1.0
100
AcDbArc
 50
0.0
 51
90.0
  0
ARC
  5
2AF
330
2
100
AcDbEntity
  8
画層1
 62
     0
100
AcDbCircle
 10
147.4499999999999
 20
368.94
 30
0.0
 40
1.0
100
AcDbArc
 50
90.0
 51
180.0
  0
LINE
  5
2B0
330
2
100
AcDbEntity
  8
画層1
 62
     0
100
AcDbLine
 10
154.9499999999999
 20
363.8999999999999
 30
0.0
 11
155.9499999999999
 21
363.8999999999999
 31
0.0
  0
LINE
  5
2B1
330
2
100
AcDbEntity
  8
画層1
 62
     0
100
AcDbLine
 10
154.9499999999999
 20
363.8999999999999
 30
0.0
 11
154.9499999999999
 21
364.1999999999999
 31
0.0
  0
LINE
  5
2B2
330
2
100
AcDbEntity
  8
画層1
 62
     0
100
AcDbLine
 10
155.9499999999999
 20
364.1999999999999
 30
0.0
 11
155.9499999999999
 21
363.8999999999999
 31
0.0
  0
LINE
  5
2B3
330
2
100
AcDbEntity
  8
画層1
 62
     0
100
AcDbLine
 10
155.9499999999999
 20
367.5
 30
0.0
 11
155.9499999999999
 21
367.2
 31
0.0
  0
LINE
  5
2B4
330
2
100
AcDbEntity
  8
画層1
 62
     0
100
AcDbLine
 10
154.9499999999999
 20
367.5
 30
0.0
 11
155.9499999999999
 21
367.5
 31
0.0
  0
LINE
  5
2B5
330
2
100
AcDbEntity
  8
画層1
 62
     0
100
AcDbLine
 10
154.9499999999999
 20
367.2
 30
0.0
 11
154.9499999999999
 21
367.5
 31
0.0
  0
LINE
  5
2B6
330
2
100
AcDbEntity
  8
画層1
 62
     0
100
AcDbLine
 10
151.4499999999999
 20
369.7
 30
0.0
 11
151.4499999999999
 21
361.6999999999999
 31
0.0
  0
LINE
  5
2B7
330
2
100
AcDbEntity
  8
画層1
 62
     0
100
AcDbLine
 10
153.9499999999999
 20
365.2
 30
0.0
 11
152.49
 21
365.2
 31
0.0
  0
LINE
  5
2B8
330
2
100
AcDbEntity
  8
画層1
 62
     0
100
AcDbLine
 10
152.49
 20
366.1999999999999
 30
0.0
 11
153.9499999999999
 21
366.1999999999999
 31
0.0
  0
ARC
  5
2B9
330
2
100
AcDbEntity
  8
画層1
 62
     0
100
AcDbCircle
 10
153.9499999999999
 20
367.2
 30
0.0
 40
1.0
100
AcDbArc
 50
270.0
 51
0.0
  0
ARC
  5
2BA
330
2
100
AcDbEntity
  8
画層1
 62
     0
100
AcDbCircle
 10
153.9499999999999
 20
364.1999999999999
 30
0.0
 40
1.0
100
AcDbArc
 50
0.0
 51
90.0
  0
LINE
  5
2BB
330
2
100
AcDbEntity
  8
画層1
 62
     0
100
AcDbLine
 10
147.4499999999999
 20
380.44
 30
0.0
 11
148.91
 21
380.44
 31
0.0
  0
LINE
  5
2BC
330
2
100
AcDbEntity
  8
画層1
 62
     0
100
AcDbLine
 10
148.91
 20
379.4399999999999
 30
0.0
 11
147.4499999999999
 21
379.4399999999999
 31
0.0
  0
LINE
  5
2BD
330
2
100
AcDbEntity
  8
画層1
 62
     0
100
AcDbLine
 10
140.4499999999999
 20
375.9399999999999
 30
0.0
 11
149.9499999999999
 21
375.9399999999999
 31
0.0
  0
LINE
  5
2BE
330
2
100
AcDbEntity
  8
画層1
 62
     0
100
AcDbLine
 10
140.4499999999999
 20
374.44
 30
0.0
 11
149.9499999999999
 21
374.44
 31
0.0
  0
CIRCLE
  5
2BF
330
2
100
AcDbEntity
  8
画層1
 62
     0
100
AcDbCircle
 10
145.95
 20
379.9399999999999
 30
0.0
 40
3.0
  0
ARC
  5
2C0
330
2
100
AcDbEntity
  8
画層1
 62
     0
100
AcDbCircle
 10
147.4499999999999
 20
381.44
 30
0.0
 40
1.0
100
AcDbArc
 50
180.0
 51
270.0
  0
ARC
  5
2C1
330
2
100
AcDbEntity
  8
画層1
 62
     0
100
AcDbCircle
 10
147.4499999999999
 20
378.44
 30
0.0
 40
1.0
100
AcDbArc
 50
90.0
 51
180.0
  0
LINE
  5
2C2
330
2
100
AcDbEntity
  8
画層1
 62
     0
100
AcDbLine
 10
145.4499999999999
 20
378.14
 30
0.0
 11
146.4499999999999
 21
378.14
 31
0.0
  0
LINE
  5
2C3
330
2
100
AcDbEntity
  8
画層1
 62
     0
100
AcDbLine
 10
145.4499999999999
 20
378.14
 30
0.0
 11
145.4499999999999
 21
378.44
 31
0.0
  0
LINE
  5
2C4
330
2
100
AcDbEntity
  8
画層1
 62
     0
100
AcDbLine
 10
146.4499999999999
 20
378.44
 30
0.0
 11
146.4499999999999
 21
378.14
 31
0.0
  0
LINE
  5
2C5
330
2
100
AcDbEntity
  8
画層1
 62
     0
100
AcDbLine
 10
146.4499999999999
 20
381.74
 30
0.0
 11
146.4499999999999
 21
381.44
 31
0.0
  0
LINE
  5
2C6
330
2
100
AcDbEntity
  8
画層1
 62
     0
100
AcDbLine
 10
145.4499999999999
 20
381.74
 30
0.0
 11
146.4499999999999
 21
381.74
 31
0.0
  0
LINE
  5
2C7
330
2
100
AcDbEntity
  8
画層1
 62
     0
100
AcDbLine
 10
145.4499999999999
 20
381.44
 30
0.0
 11
145.4499999999999
 21
381.74
 31
0.0
  0
LINE
  5
2C8
330
2
100
AcDbEntity
  8
画層1
 62
     0
100
AcDbLine
 10
145.4499999999999
 20
372.24
 30
0.0
 11
146.4499999999999
 21
372.24
 31
0.0
  0
LINE
  5
2C9
330
2
100
AcDbEntity
  8
画層1
 62
     0
100
AcDbLine
 10
145.4499999999999
 20
371.94
 30
0.0
 11
145.4499999999999
 21
372.24
 31
0.0
  0
LINE
  5
2CA
330
2
100
AcDbEntity
  8
画層1
 62
     0
100
AcDbLine
 10
146.4499999999999
 20
372.24
 30
0.0
 11
146.4499999999999
 21
371.94
 31
0.0
  0
LINE
  5
2CB
330
2
100
AcDbEntity
  8
画層1
 62
     0
100
AcDbLine
 10
144.4499999999999
 20
379.4399999999999
 30
0.0
 11
142.99
 21
379.4399999999999
 31
0.0
  0
LINE
  5
2CC
330
2
100
AcDbEntity
  8
画層1
 62
     0
100
AcDbLine
 10
142.99
 20
380.44
 30
0.0
 11
144.4499999999999
 21
380.44
 31
0.0
  0
ARC
  5
2CD
330
2
100
AcDbEntity
  8
画層1
 62
     0
100
AcDbCircle
 10
144.4499999999999
 20
381.44
 30
0.0
 40
1.0
100
AcDbArc
 50
270.0
 51
0.0
  0
ARC
  5
2CE
330
2
100
AcDbEntity
  8
画層1
 62
     0
100
AcDbCircle
 10
144.4499999999999
 20
378.44
 30
0.0
 40
1.0
100
AcDbArc
 50
0.0
 51
90.0
  0
LINE
  5
2CF
330
2
100
AcDbEntity
  8
画層1
 62
     0
100
AcDbLine
 10
154.9499999999999
 20
382.8999999999999
 30
0.0
 11
155.9499999999999
 21
382.8999999999999
 31
0.0
  0
LINE
  5
2D0
330
2
100
AcDbEntity
  8
画層1
 62
     0
100
AcDbLine
 10
154.9499999999999
 20
382.8999999999999
 30
0.0
 11
154.9499999999999
 21
383.1999999999999
 31
0.0
  0
LINE
  5
2D1
330
2
100
AcDbEntity
  8
画層1
 62
     0
100
AcDbLine
 10
155.9499999999999
 20
383.1999999999999
 30
0.0
 11
155.9499999999999
 21
382.8999999999999
 31
0.0
  0
LINE
  5
2D2
330
2
100
AcDbEntity
  8
画層1
 62
     0
100
AcDbLine
 10
154.9499999999999
 20
373.3999999999999
 30
0.0
 11
155.9499999999999
 21
373.3999999999999
 31
0.0
  0
LINE
  5
2D3
330
2
100
AcDbEntity
  8
画層1
 62
     0
100
AcDbLine
 10
154.9499999999999
 20
373.3999999999999
 30
0.0
 11
154.9499999999999
 21
373.7
 31
0.0
  0
LINE
  5
2D4
330
2
100
AcDbEntity
  8
画層1
 62
     0
100
AcDbLine
 10
155.9499999999999
 20
373.7
 30
0.0
 11
155.9499999999999
 21
373.3999999999999
 31
0.0
  0
LINE
  5
2D5
330
2
100
AcDbEntity
  8
画層1
 62
     0
100
AcDbLine
 10
155.9499999999999
 20
377.0
 30
0.0
 11
155.9499999999999
 21
376.6999999999999
 31
0.0
  0
LINE
  5
2D6
330
2
100
AcDbEntity
  8
画層1
 62
     0
100
AcDbLine
 10
154.9499999999999
 20
377.0
 30
0.0
 11
155.9499999999999
 21
377.0
 31
0.0
  0
LINE
  5
2D7
330
2
100
AcDbEntity
  8
画層1
 62
     0
100
AcDbLine
 10
154.9499999999999
 20
376.6999999999999
 30
0.0
 11
154.9499999999999
 21
377.0
 31
0.0
  0
LINE
  5
2D8
330
2
100
AcDbEntity
  8
画層1
 62
     0
100
AcDbLine
 10
153.9499999999999
 20
374.6999999999999
 30
0.0
 11
152.49
 21
374.6999999999999
 31
0.0
  0
LINE
  5
2D9
330
2
100
AcDbEntity
  8
画層1
 62
     0
100
AcDbLine
 10
152.49
 20
375.7
 30
0.0
 11
153.9499999999999
 21
375.7
 31
0.0
  0
ARC
  5
2DA
330
2
100
AcDbEntity
  8
画層1
 62
     0
100
AcDbCircle
 10
153.9499999999999
 20
376.6999999999999
 30
0.0
 40
1.0
100
AcDbArc
 50
270.0
 51
0.0
  0
ARC
  5
2DB
330
2
100
AcDbEntity
  8
画層1
 62
     0
100
AcDbCircle
 10
153.9499999999999
 20
373.7
 30
0.0
 40
1.0
100
AcDbArc
 50
0.0
 51
90.0
  0
LINE
  5
2DC
330
2
100
AcDbEntity
  8
画層1
 62
     0
100
AcDbLine
 10
159.45
 20
379.1999999999999
 30
0.0
 11
159.45
 21
371.1999999999999
 31
0.0
  0
LINE
  5
2DD
330
2
100
AcDbEntity
  8
画層1
 62
     0
100
AcDbLine
 10
159.45
 20
369.7
 30
0.0
 11
159.45
 21
361.6999999999999
 31
0.0
  0
LINE
  5
2DE
330
2
100
AcDbEntity
  8
画層1
 62
     0
100
AcDbLine
 10
156.9499999999999
 20
366.1999999999999
 30
0.0
 11
158.41
 21
366.1999999999999
 31
0.0
  0
LINE
  5
2DF
330
2
100
AcDbEntity
  8
画層1
 62
     0
100
AcDbLine
 10
158.41
 20
365.2
 30
0.0
 11
156.9499999999999
 21
365.2
 31
0.0
  0
LINE
  5
2E0
330
2
100
AcDbEntity
  8
画層1
 62
     0
100
AcDbLine
 10
156.9499999999999
 20
375.7
 30
0.0
 11
158.41
 21
375.7
 31
0.0
  0
LINE
  5
2E1
330
2
100
AcDbEntity
  8
画層1
 62
     0
100
AcDbLine
 10
158.41
 20
374.6999999999999
 30
0.0
 11
156.9499999999999
 21
374.6999999999999
 31
0.0
  0
LINE
  5
2E2
330
2
100
AcDbEntity
  8
画層1
 62
     0
100
AcDbLine
 10
140.4499999999999
 20
390.8199999999999
 30
0.0
 11
160.4499999999999
 21
390.8199999999999
 31
0.0
  0
LINE
  5
2E3
330
2
100
AcDbEntity
  8
画層1
 62
     0
100
AcDbLine
 10
140.4499999999999
 20
388.7
 30
0.0
 11
159.45
 21
388.7
 31
0.0
  0
ARC
  5
2E4
330
2
100
AcDbEntity
  8
画層1
 62
     0
100
AcDbCircle
 10
156.9499999999999
 20
386.2
 30
0.0
 40
1.0
100
AcDbArc
 50
180.0
 51
270.0
  0
LINE
  5
2E5
330
2
100
AcDbEntity
  8
画層1
 62
     0
100
AcDbLine
 10
140.4499999999999
 20
383.9399999999999
 30
0.0
 11
149.9499999999999
 21
383.9399999999999
 31
0.0
  0
LINE
  5
2E6
330
2
100
AcDbEntity
  8
画層1
 62
     0
100
AcDbLine
 10
140.4499999999999
 20
385.44
 30
0.0
 11
149.9499999999999
 21
385.44
 31
0.0
  0
LINE
  5
2E7
330
2
100
AcDbEntity
  8
画層1
 62
     0
100
AcDbLine
 10
155.9499999999999
 20
386.5
 30
0.0
 11
155.9499999999999
 21
386.2
 31
0.0
  0
LINE
  5
2E8
330
2
100
AcDbEntity
  8
画層1
 62
     0
100
AcDbLine
 10
154.9499999999999
 20
386.5
 30
0.0
 11
155.9499999999999
 21
386.5
 31
0.0
  0
LINE
  5
2E9
330
2
100
AcDbEntity
  8
画層1
 62
     0
100
AcDbLine
 10
154.9499999999999
 20
386.2
 30
0.0
 11
154.9499999999999
 21
386.5
 31
0.0
  0
LINE
  5
2EA
330
2
100
AcDbEntity
  8
画層1
 62
     0
100
AcDbLine
 10
153.9499999999999
 20
384.2
 30
0.0
 11
152.49
 21
384.2
 31
0.0
  0
LINE
  5
2EB
330
2
100
AcDbEntity
  8
画層1
 62
     0
100
AcDbLine
 10
152.49
 20
385.1999999999999
 30
0.0
 11
153.9499999999999
 21
385.1999999999999
 31
0.0
  0
ARC
  5
2EC
330
2
100
AcDbEntity
  8
画層1
 62
     0
100
AcDbCircle
 10
153.9499999999999
 20
386.2
 30
0.0
 40
1.0
100
AcDbArc
 50
270.0
 51
0.0
  0
ARC
  5
2ED
330
2
100
AcDbEntity
  8
画層1
 62
     0
100
AcDbCircle
 10
145.15
 20
404.8199999999999
 30
0.0
 40
1.5
100
AcDbArc
 50
180.0
 51
270.0
  0
LINE
  5
2EE
330
2
100
AcDbEntity
  8
画層1
 62
     0
100
AcDbLine
 10
158.41
 20
384.2
 30
0.0
 11
156.9499999999999
 21
384.2
 31
0.0
  0
LINE
  5
2EF
330
2
100
AcDbEntity
  8
画層1
 62
     0
100
AcDbLine
 10
156.9499999999999
 20
385.1999999999999
 30
0.0
 11
158.41
 21
385.1999999999999
 31
0.0
  0
CIRCLE
  5
2F0
330
2
100
AcDbEntity
  8
画層1
 62
     0
100
AcDbCircle
 10
202.6499999999999
 20
384.8199999999999
 30
0.0
 40
2.0
  0
CIRCLE
  5
2F1
330
2
100
AcDbEntity
  8
画層1
 62
     0
100
AcDbCircle
 10
182.65
 20
384.8199999999999
 30
0.0
 40
2.0
  0
CIRCLE
  5
2F2
330
2
100
AcDbEntity
  8
画層1
 62
     0
100
AcDbCircle
 10
192.65
 20
384.8199999999999
 30
0.0
 40
2.0
  0
CIRCLE
  5
2F3
330
2
100
AcDbEntity
  8
画層1
 62
     0
100
AcDbCircle
 10
185.15
 20
372.82
 30
0.0
 40
2.5
  0
CIRCLE
  5
2F4
330
2
100
AcDbEntity
  8
画層1
 62
     0
100
AcDbCircle
 10
200.15
 20
372.82
 30
0.0
 40
2.5
  0
CIRCLE
  5
2F5
330
2
100
AcDbEntity
  8
画層1
 62
     0
100
AcDbCircle
 10
182.65
 20
394.8199999999999
 30
0.0
 40
2.0
  0
CIRCLE
  5
2F6
330
2
100
AcDbEntity
  8
画層1
 62
     0
100
AcDbCircle
 10
202.6499999999999
 20
394.8199999999999
 30
0.0
 40
2.0
  0
CIRCLE
  5
2F7
330
2
100
AcDbEntity
  8
画層1
 62
     0
100
AcDbCircle
 10
192.65
 20
394.8199999999999
 30
0.0
 40
2.0
  0
DIMENSION
  5
2F8
330
2
100
AcDbEntity
  8
画層1
 62
     0
100
AcDbDimension
  2
*D31
 10
109.15
 20
427.82
 30
0.0
 11
107.2699999999999
 21
432.82
 31
0.0
 70
    32
 71
     5
 42
10.0
  3
STANDARD_WS
100
AcDbAlignedDimension
 13
144.7899999999999
 23
437.8199999999999
 33
0.0
 14
137.9099999999999
 24
427.82
 34
0.0
 50
90.0
100
AcDbRotatedDimension
1001
ACAD
1000
DSTYLE
1002
{
1070
    47
1040
0.6
1070
   144
1040
1.0
1070
   146
1040
0.5
1070
   173
1070
     0
1070
   284
1070
     8
1070
   340
1005
2A
1070
   341
1005
2B
1070
   342
1005
2B
1070
   343
1005
2B
1002
}
  0
LINE
  5
305
330
2
100
AcDbEntity
  8
画層1
 62
     0
100
AcDbLine
 10
137.9099999999999
 20
427.82
 30
0.0
 11
142.65
 21
427.82
 31
0.0
  0
ARC
  5
306
330
2
100
AcDbEntity
  8
画層1
 62
     0
100
AcDbCircle
 10
139.91
 20
418.82
 30
0.0
 40
2.0
100
AcDbArc
 50
180.0
 51
270.0
  0
ARC
  5
307
330
2
100
AcDbEntity
  8
画層1
 62
     0
100
AcDbCircle
 10
139.91
 20
418.82
 30
0.0
 40
0.4
100
AcDbArc
 50
180.0
 51
270.0
  0
LINE
  5
308
330
2
100
AcDbEntity
  8
画層1
 62
     0
100
AcDbLine
 10
137.4499999999999
 20
416.3199999999999
 30
0.0
 11
155.15
 21
416.3199999999999
 31
0.0
  0
LINE
  5
309
330
2
100
AcDbEntity
  8
画層1
 62
     0
100
AcDbLine
 10
157.53
 20
427.32
 30
0.0
 11
139.51
 21
427.32
 31
0.0
  0
LINE
  5
30A
330
2
100
AcDbEntity
  8
画層1
 62
     0
100
AcDbLine
 10
137.9099999999999
 20
416.3199999999999
 30
0.0
 11
137.9099999999999
 21
427.82
 31
0.0
  0
LINE
  5
30B
330
2
100
AcDbEntity
  8
画層1
 62
     0
100
AcDbLine
 10
139.51
 20
416.3199999999999
 30
0.0
 11
139.51
 21
416.86
 31
0.0
  0
LINE
  5
30C
330
2
100
AcDbEntity
  8
画層1
 62
     0
100
AcDbLine
 10
139.51
 20
418.82
 30
0.0
 11
139.51
 21
427.82
 31
0.0
  0
MTEXT
  5
30D
102
{ACAD_REACTORS
330
31D
102
}
330
2
100
AcDbEntity
  8
画層1
 62
     0
100
AcDbMText
 10
152.4099999999999
 20
452.82
 30
0.0
 40
5.0
 41
0.0
 71
     9
 72
     1
  1
φ13
  7
STYLE1
 73
     1
 44
1.0
  0
DIMENSION
  5
30E
330
2
100
AcDbEntity
  8
画層1
 62
     0
100
AcDbDimension
  2
*D32
 10
180.6499999999999
 20
452.82
 30
0.0
 11
177.65
 21
454.6999999999999
 31
0.0
 70
    32
 71
     5
 42
6.0
  3
STANDARD_WS
100
AcDbAlignedDimension
 13
174.65
 23
437.8199999999999
 33
0.0
 14
180.6499999999999
 24
437.8199999999999
 34
0.0
100
AcDbRotatedDimension
1001
ACAD
1000
DSTYLE
1002
{
1070
    47
1040
0.6
1070
   144
1040
1.0
1070
   146
1040
0.5
1070
   173
1070
     0
1070
   284
1070
     8
1070
   340
1005
2A
1070
   341
1005
2B
1070
   342
1005
2B
1070
   343
1005
2B
1002
}
  0
LEADER
  5
31D
330
2
100
AcDbEntity
  8
画層1
 62
     0
100
AcDbLeader
  3
STANDARD_WS
 73
     0
 75
     1
 40
5.809999999999999
 41
11.29
 76
     3
 10
173.8499999999999
 20
429.0799999999999
 30
0.0
 10
154.5399999999999
 20
453.4399999999999
 30
0.0
 10
153.04
 20
453.4399999999999
 30
0.0
340
30D
213
0.0
223
1.25
233
0.0
1001
ACAD
1000
DSTYLE
1002
{
1070
   341
1005
2B
1070
   147
1040
0.63
1070
    77
1070
     2
1070
    47
1040
0.6
1070
   144
1040
2.0
1070
   146
1040
0.5
1070
   284
1070
     8
1070
   340
1005
2A
1002
}
  0
LINE
  5
31E
330
2
100
AcDbEntity
  8
画層1
  6
CENTER
 62
     0
100
AcDbLine
 10
184.6499999999999
 20
431.82
 30
0.0
 11
170.65
 21
431.82
 31
0.0
  0
ARC
  5
31F
330
2
100
AcDbEntity
  8
画層1
 62
     0
100
AcDbCircle
 10
177.65
 20
423.8199999999999
 30
0.0
 40
6.5
100
AcDbArc
 50
117.49
 51
142.02
  0
ARC
  5
320
330
2
100
AcDbEntity
  8
画層1
  6
DASHED2
 62
     0
100
AcDbCircle
 10
177.65
 20
423.8199999999999
 30
0.0
 40
6.499999999999992
100
AcDbArc
 50
142.02
 51
37.98
  0
LINE
  5
321
330
2
100
AcDbEntity
  8
画層1
 62
     0
100
AcDbLine
 10
158.65
 20
427.82
 30
0.0
 11
199.65
 21
427.82
 31
0.0
  0
LINE
  5
322
330
2
100
AcDbEntity
  8
画層1
 62
     0
100
AcDbLine
 10
142.65
 20
427.82
 30
0.0
 11
142.65
 21
432.8199999999999
 31
0.0
  0
ARC
  5
323
330
2
100
AcDbEntity
  8
画層1
 62
     0
100
AcDbCircle
 10
155.15
 20
418.32
 30
0.0
 40
2.0
100
AcDbArc
 50
270.0
 51
0.0
  0
LINE
  5
324
330
2
100
AcDbEntity
  8
画層1
 62
     0
100
AcDbLine
 10
155.41
 20
417.3199999999999
 30
0.0
 11
156.89
 21
417.3199999999999
 31
0.0
  0
LINE
  5
325
330
2
100
AcDbEntity
  8
画層1
 62
     0
100
AcDbLine
 10
155.41
 20
416.8199999999999
 30
0.0
 11
155.41
 21
418.42
 31
0.0
  0
LINE
  5
326
330
2
100
AcDbEntity
  8
画層1
 62
     0
100
AcDbLine
 10
139.91
 20
416.8199999999999
 30
0.0
 11
155.41
 21
416.8199999999999
 31
0.0
  0
ARC
  5
327
330
2
100
AcDbEntity
  8
画層1
 62
     0
100
AcDbCircle
 10
145.15
 20
411.8199999999999
 30
0.0
 40
1.5
100
AcDbArc
 50
90.0
 51
180.0
  0
LINE
  5
328
330
2
100
AcDbEntity
  8
画層1
 62
     0
100
AcDbLine
 10
155.41
 20
418.42
 30
0.0
 11
139.91
 21
418.42
 31
0.0
  0
LINE
  5
329
330
2
100
AcDbEntity
  8
画層1
 62
     0
100
AcDbLine
 10
154.41
 20
419.42
 30
0.0
 11
154.41
 21
418.42
 31
0.0
  0
LINE
  5
32A
330
2
100
AcDbEntity
  8
画層1
 62
     0
100
AcDbLine
 10
148.4099999999999
 20
418.42
 30
0.0
 11
148.4099999999999
 21
419.42
 31
0.0
  0
LINE
  5
32B
330
2
100
AcDbEntity
  8
画層1
 62
     0
100
AcDbLine
 10
148.91
 20
419.42
 30
0.0
 11
148.91
 21
421.9199999999999
 31
0.0
  0
LINE
  5
32C
330
2
100
AcDbEntity
  8
画層1
 62
     0
100
AcDbLine
 10
149.4099999999999
 20
422.42
 30
0.0
 11
153.41
 21
422.42
 31
0.0
  0
LINE
  5
32D
330
2
100
AcDbEntity
  8
画層1
 62
     0
100
AcDbLine
 10
153.9099999999999
 20
421.9199999999999
 30
0.0
 11
153.9099999999999
 21
419.42
 31
0.0
  0
LINE
  5
32E
330
2
100
AcDbEntity
  8
画層1
 62
     0
100
AcDbLine
 10
153.9099999999999
 20
420.42
 30
0.0
 11
148.91
 21
420.42
 31
0.0
  0
ARC
  5
32F
330
2
100
AcDbEntity
  8
画層1
 62
     0
100
AcDbCircle
 10
149.4099999999999
 20
421.9199999999999
 30
0.0
 40
0.5
100
AcDbArc
 50
90.0
 51
180.0
  0
ARC
  5
330
330
2
100
AcDbEntity
  8
画層1
 62
     0
100
AcDbCircle
 10
153.41
 20
421.9199999999999
 30
0.0
 40
0.5
100
AcDbArc
 50
0.0
 51
90.0
  0
LINE
  5
331
330
2
100
AcDbEntity
  8
画層1
 62
     0
100
AcDbLine
 10
148.4099999999999
 20
419.42
 30
0.0
 11
154.41
 21
419.42
 31
0.0
  0
ARC
  5
332
330
2
100
AcDbEntity
  8
画層1
 62
     0
100
AcDbCircle
 10
158.65
 20
426.32
 30
0.0
 40
1.5
100
AcDbArc
 50
90.0
 51
180.0
  0
LINE
  5
333
330
2
100
AcDbEntity
  8
画層1
 62
     0
100
AcDbLine
 10
157.15
 20
418.32
 30
0.0
 11
157.15
 21
426.32
 31
0.0
  0
ARC
  5
334
330
2
100
AcDbEntity
  8
画層1
 62
     0
100
AcDbCircle
 10
147.65
 20
432.8199999999999
 30
0.0
 40
5.0
100
AcDbArc
 50
90.0
 51
180.0
  0
LINE
  5
335
330
2
100
AcDbEntity
  8
画層1
 62
     0
100
AcDbLine
 10
174.65
 20
431.82
 30
0.0
 11
174.65
 21
429.5799999999999
 31
0.0
  0
LINE
  5
336
330
2
100
AcDbEntity
  8
画層1
 62
     0
100
AcDbLine
 10
180.6499999999999
 20
431.82
 30
0.0
 11
180.6499999999999
 21
429.5799999999999
 31
0.0
  0
CIRCLE
  5
337
330
2
100
AcDbEntity
  8
画層1
 62
     0
100
AcDbCircle
 10
177.65
 20
421.82
 30
0.0
 40
3.799999999999998
  0
ARC
  5
338
330
2
100
AcDbEntity
  8
画層1
 62
     0
100
AcDbCircle
 10
177.65
 20
423.8199999999999
 30
0.0
 40
6.5
100
AcDbArc
 50
37.98
 51
62.51000000000001
  0
CIRCLE
  5
339
330
2
100
AcDbEntity
  8
画層1
 62
     0
100
AcDbCircle
 10
177.65
 20
421.82
 30
0.0
 40
2.6
  0
LINE
  5
33A
330
2
100
AcDbEntity
  8
画層1
 62
     0
100
AcDbLine
 10
177.15
 20
423.62
 30
0.0
 11
178.15
 21
423.62
 31
0.0
  0
LINE
  5
33B
330
2
100
AcDbEntity
  8
画層1
 62
     0
100
AcDbLine
 10
177.15
 20
420.0199999999999
 30
0.0
 11
178.15
 21
420.0199999999999
 31
0.0
  0
LINE
  5
33C
330
2
100
AcDbEntity
  8
画層1
 62
     0
100
AcDbLine
 10
175.8499999999999
 20
422.32
 30
0.0
 11
176.15
 21
422.32
 31
0.0
  0
LINE
  5
33D
330
2
100
AcDbEntity
  8
画層1
 62
     0
100
AcDbLine
 10
176.15
 20
421.3199999999999
 30
0.0
 11
175.8499999999999
 21
421.3199999999999
 31
0.0
  0
LINE
  5
33E
330
2
100
AcDbEntity
  8
画層1
 62
     0
100
AcDbLine
 10
175.8499999999999
 20
421.3199999999999
 30
0.0
 11
175.8499999999999
 21
422.32
 31
0.0
  0
ARC
  5
33F
330
2
100
AcDbEntity
  8
画層1
 62
     0
100
AcDbCircle
 10
176.15
 20
423.32
 30
0.0
 40
1.0
100
AcDbArc
 50
270.0
 51
0.0
  0
LINE
  5
340
330
2
100
AcDbEntity
  8
画層1
 62
     0
100
AcDbLine
 10
177.15
 20
423.32
 30
0.0
 11
177.15
 21
423.62
 31
0.0
  0
ARC
  5
341
330
2
100
AcDbEntity
  8
画層1
 62
     0
100
AcDbCircle
 10
176.15
 20
420.3199999999999
 30
0.0
 40
1.0
100
AcDbArc
 50
0.0
 51
90.0
  0
LINE
  5
342
330
2
100
AcDbEntity
  8
画層1
 62
     0
100
AcDbLine
 10
177.15
 20
420.0199999999999
 30
0.0
 11
177.15
 21
420.3199999999999
 31
0.0
  0
LINE
  5
343
330
2
100
AcDbEntity
  8
画層1
 62
     0
100
AcDbLine
 10
179.45
 20
421.3199999999999
 30
0.0
 11
179.15
 21
421.3199999999999
 31
0.0
  0
LINE
  5
344
330
2
100
AcDbEntity
  8
画層1
 62
     0
100
AcDbLine
 10
179.15
 20
422.32
 30
0.0
 11
179.45
 21
422.32
 31
0.0
  0
LINE
  5
345
330
2
100
AcDbEntity
  8
画層1
 62
     0
100
AcDbLine
 10
179.45
 20
421.3199999999999
 30
0.0
 11
179.45
 21
422.32
 31
0.0
  0
ARC
  5
346
330
2
100
AcDbEntity
  8
画層1
 62
     0
100
AcDbCircle
 10
179.15
 20
423.32
 30
0.0
 40
1.0
100
AcDbArc
 50
180.0
 51
270.0
  0
LINE
  5
347
330
2
100
AcDbEntity
  8
画層1
 62
     0
100
AcDbLine
 10
178.15
 20
423.62
 30
0.0
 11
178.15
 21
423.32
 31
0.0
  0
ARC
  5
348
330
2
100
AcDbEntity
  8
画層1
 62
     0
100
AcDbCircle
 10
179.15
 20
420.3199999999999
 30
0.0
 40
1.0
100
AcDbArc
 50
90.0
 51
180.0
  0
LINE
  5
349
330
2
100
AcDbEntity
  8
画層1
 62
     0
100
AcDbLine
 10
178.15
 20
420.3199999999999
 30
0.0
 11
178.15
 21
420.0199999999999
 31
0.0
  0
ARC
  5
34A
330
2
100
AcDbEntity
  8
画層1
 62
     0
100
AcDbCircle
 10
203.15
 20
418.32
 30
0.0
 40
2.0
100
AcDbArc
 50
180.0
 51
270.0
  0
LINE
  5
34B
330
2
100
AcDbEntity
  8
画層1
 62
     0
100
AcDbLine
 10
203.41
 20
425.4999999999999
 30
0.0
 11
203.41
 21
418.12
 31
0.0
  0
ARC
  5
34C
330
2
100
AcDbEntity
  8
画層1
 62
     0
100
AcDbCircle
 10
204.91
 20
426.32
 30
0.0
 40
1.5
100
AcDbArc
 50
90.0
 51
138.1899999999999
  0
ARC
  5
34D
330
2
100
AcDbEntity
  8
画層1
 62
     0
100
AcDbCircle
 10
199.65
 20
426.32
 30
0.0
 40
1.5
100
AcDbArc
 50
0.0
 51
90.0
  0
LINE
  5
34E
330
2
100
AcDbEntity
  8
画層1
 62
     0
100
AcDbLine
 10
201.15
 20
426.32
 30
0.0
 11
201.15
 21
418.32
 31
0.0
  0
ARC
  5
34F
330
2
100
AcDbEntity
  8
画層1
 62
     0
100
AcDbCircle
 10
177.65
 20
431.82
 30
0.0
 40
3.0
100
AcDbArc
 50
0.0
 51
180.0
  0
LINE
  5
350
330
2
100
AcDbEntity
  8
画層1
 62
     0
100
AcDbLine
 10
211.65
 20
411.8199999999999
 30
0.0
 11
211.65
 21
404.8199999999999
 31
0.0
  0
ARC
  5
351
330
2
100
AcDbEntity
  8
画層1
 62
     0
100
AcDbCircle
 10
210.15
 20
404.8199999999999
 30
0.0
 40
1.5
100
AcDbArc
 50
270.0
 51
0.0
  0
LINE
  5
352
330
2
100
AcDbEntity
  8
画層1
 62
     0
100
AcDbLine
 10
212.65
 20
432.8199999999999
 30
0.0
 11
212.65
 21
427.82
 31
0.0
  0
LINE
  5
353
330
2
100
AcDbEntity
  8
画層1
 62
     0
100
AcDbLine
 10
217.41
 20
427.82
 30
0.0
 11
217.41
 21
416.3199999999999
 31
0.0
  0
LINE
  5
354
330
2
100
AcDbEntity
  8
画層1
 62
     0
100
AcDbLine
 10
216.4499999999999
 20
416.3199999999999
 30
0.0
 11
216.4499999999999
 21
425.3199999999999
 31
0.0
  0
ARC
  5
355
330
2
100
AcDbEntity
  8
画層1
 62
     0
100
AcDbCircle
 10
210.15
 20
411.8199999999999
 30
0.0
 40
1.5
100
AcDbArc
 50
0.0
 51
90.0
  0
LINE
  5
356
330
2
100
AcDbEntity
  8
画層1
 62
     0
100
AcDbLine
 10
213.45
 20
422.32
 30
0.0
 11
213.75
 21
422.32
 31
0.0
  0
LINE
  5
357
330
2
100
AcDbEntity
  8
画層1
 62
     0
100
AcDbLine
 10
213.75
 20
421.3199999999999
 30
0.0
 11
213.45
 21
421.3199999999999
 31
0.0
  0
CIRCLE
  5
358
330
2
100
AcDbEntity
  8
画層1
 62
     0
100
AcDbCircle
 10
211.9499999999999
 20
421.82
 30
0.0
 40
3.0
  0
LINE
  5
359
330
2
100
AcDbEntity
  8
画層1
 62
     0
100
AcDbLine
 10
212.4499999999999
 20
420.3199999999999
 30
0.0
 11
212.4499999999999
 21
420.0199999999999
 31
0.0
  0
ARC
  5
35A
330
2
100
AcDbEntity
  8
画層1
 62
     0
100
AcDbCircle
 10
213.45
 20
420.3199999999999
 30
0.0
 40
1.0
100
AcDbArc
 50
90.0
 51
180.0
  0
LINE
  5
35B
330
2
100
AcDbEntity
  8
画層1
 62
     0
100
AcDbLine
 10
212.4499999999999
 20
423.62
 30
0.0
 11
212.4499999999999
 21
423.32
 31
0.0
  0
ARC
  5
35C
330
2
100
AcDbEntity
  8
画層1
 62
     0
100
AcDbCircle
 10
213.45
 20
423.32
 30
0.0
 40
1.0
100
AcDbArc
 50
180.0
 51
270.0
  0
LINE
  5
35D
330
2
100
AcDbEntity
  8
画層1
 62
     0
100
AcDbLine
 10
211.45
 20
420.0199999999999
 30
0.0
 11
211.45
 21
420.3199999999999
 31
0.0
  0
ARC
  5
35E
330
2
100
AcDbEntity
  8
画層1
 62
     0
100
AcDbCircle
 10
210.4499999999999
 20
420.3199999999999
 30
0.0
 40
1.0
100
AcDbArc
 50
0.0
 51
90.0
  0
LINE
  5
35F
330
2
100
AcDbEntity
  8
画層1
 62
     0
100
AcDbLine
 10
211.45
 20
423.32
 30
0.0
 11
211.45
 21
423.62
 31
0.0
  0
ARC
  5
360
330
2
100
AcDbEntity
  8
画層1
 62
     0
100
AcDbCircle
 10
210.4499999999999
 20
423.32
 30
0.0
 40
1.0
100
AcDbArc
 50
270.0
 51
0.0
  0
LINE
  5
361
330
2
100
AcDbEntity
  8
画層1
 62
     0
100
AcDbLine
 10
210.15
 20
421.3199999999999
 30
0.0
 11
210.15
 21
422.32
 31
0.0
  0
LINE
  5
362
330
2
100
AcDbEntity
  8
画層1
 62
     0
100
AcDbLine
 10
210.4499999999999
 20
421.3199999999999
 30
0.0
 11
210.15
 21
421.3199999999999
 31
0.0
  0
LINE
  5
363
330
2
100
AcDbEntity
  8
画層1
 62
     0
100
AcDbLine
 10
210.15
 20
422.32
 30
0.0
 11
210.4499999999999
 21
422.32
 31
0.0
  0
LINE
  5
364
330
2
100
AcDbEntity
  8
画層1
 62
     0
100
AcDbLine
 10
211.45
 20
420.0199999999999
 30
0.0
 11
212.4499999999999
 21
420.0199999999999
 31
0.0
  0
LINE
  5
365
330
2
100
AcDbEntity
  8
画層1
 62
     0
100
AcDbLine
 10
211.45
 20
423.62
 30
0.0
 11
212.4499999999999
 21
423.62
 31
0.0
  0
LINE
  5
366
330
2
100
AcDbEntity
  8
画層1
 62
     0
100
AcDbLine
 10
209.71
 20
423.8199999999999
 30
0.0
 11
208.4099999999999
 21
423.8199999999999
 31
0.0
  0
LINE
  5
367
330
2
100
AcDbEntity
  8
画層1
 62
     0
100
AcDbLine
 10
209.71
 20
419.8199999999999
 30
0.0
 11
208.4099999999999
 21
419.8199999999999
 31
0.0
  0
ARC
  5
368
330
2
100
AcDbEntity
  8
画層1
 62
     0
100
AcDbCircle
 10
214.4499999999999
 20
425.3199999999999
 30
0.0
 40
2.0
100
AcDbArc
 50
0.0
 51
90.0
  0
LINE
  5
369
330
2
100
AcDbEntity
  8
画層1
 62
     0
100
AcDbLine
 10
213.75
 20
421.3199999999999
 30
0.0
 11
213.75
 21
422.32
 31
0.0
  0
ARC
  5
36A
330
2
100
AcDbEntity
  8
画層1
 62
     0
100
AcDbCircle
 10
207.65
 20
432.8199999999999
 30
0.0
 40
5.0
100
AcDbArc
 50
0.0
 51
90.0
  0
LINE
  5
36B
330
2
100
AcDbEntity
  8
画層1
  6
DASHED2
 62
     0
100
AcDbLine
 10
397.35
 20
316.44
 30
0.0
 11
397.35
 21
310.44
 31
0.0
  0
LINE
  5
36C
330
2
100
AcDbEntity
  8
画層1
  6
DASHED2
 62
     0
100
AcDbLine
 10
399.35
 20
317.4399999999999
 30
0.0
 11
399.35
 21
309.44
 31
0.0
  0
LINE
  5
36D
330
2
100
AcDbEntity
  8
画層1
  6
DASHED2
 62
     0
100
AcDbLine
 10
398.15
 20
317.4399999999999
 30
0.0
 11
398.15
 21
309.44
 31
0.0
  0
LINE
  5
36E
330
2
100
AcDbEntity
  8
画層1
  6
DASHED2
 62
     0
100
AcDbLine
 10
395.1499999999999
 20
315.4399999999999
 30
0.0
 11
395.1499999999999
 21
311.4399999999999
 31
0.0
  0
LINE
  5
36F
330
2
100
AcDbEntity
  8
画層1
  6
DASHED2
 62
     0
100
AcDbLine
 10
405.55
 20
390.8199999999999
 30
0.0
 11
405.55
 21
297.82
 31
0.0
  0
LINE
  5
370
330
2
100
AcDbEntity
  8
画層1
  6
DASHED2
 62
     0
100
AcDbLine
 10
379.55
 20
388.7
 30
0.0
 11
379.55
 21
299.9399999999999
 31
0.0
  0
LINE
  5
371
330
2
100
AcDbEntity
  8
画層1
 62
     0
100
AcDbLine
 10
535.35
 20
437.8199999999999
 30
0.0
 11
535.35
 21
217.8199999999999
 31
0.0
  0
LINE
  5
372
330
2
100
AcDbEntity
  8
画層1
 62
     0
100
AcDbLine
 10
422.35
 20
239.82
 30
0.0
 11
422.35
 21
415.8199999999999
 31
0.0
  0
LINE
  5
373
330
2
100
AcDbEntity
  8
画層1
 62
     0
100
AcDbLine
 10
378.1499999999999
 20
427.82
 30
0.0
 11
378.1499999999999
 21
227.82
 31
0.0
  0
LINE
  5
374
330
2
100
AcDbEntity
  8
画層1
 62
     0
100
AcDbLine
 10
418.35
 20
416.3199999999999
 30
0.0
 11
418.35
 21
239.3199999999999
 31
0.0
  0
DIMENSION
  5
375
330
2
100
AcDbEntity
  8
画層1
 62
     0
100
AcDbDimension
  2
*D33
 10
445.35
 20
202.82
 30
0.0
 11
490.35
 21
204.9093908629441
 31
0.0
 70
    32
 71
     5
 42
90.0
  3
STANDARD_WS
100
AcDbAlignedDimension
 13
535.35
 23
217.8199999999999
 33
0.0
 14
445.35
 24
256.32
 34
0.0
100
AcDbRotatedDimension
1001
ACAD
1000
DSTYLE
1002
{
1070
     3
1000
(<>)
1070
    47
1040
0.6
1070
   144
1040
1.0
1070
   146
1040
0.5
1070
   173
1070
     0
1070
   284
1070
     8
1070
   340
1005
2A
1070
   341
1005
2B
1070
   342
1005
2B
1070
   343
1005
2B
1002
}
  0
LINE
  5
382
330
2
100
AcDbEntity
  8
画層1
  6
DASHED2
 62
     0
100
AcDbLine
 10
476.35
 20
249.82
 30
0.0
 11
457.35
 21
249.82
 31
0.0
  0
LINE
  5
383
330
2
100
AcDbEntity
  8
画層1
  6
DASHED2
 62
     0
100
AcDbLine
 10
457.35
 20
269.8199999999999
 30
0.0
 11
476.35
 21
269.8199999999999
 31
0.0
  0
LINE
  5
384
330
2
100
AcDbEntity
  8
画層1
 62
     0
100
AcDbLine
 10
535.35
 20
227.82
 30
0.0
 11
418.35
 21
227.82
 31
0.0
  0
LINE
  5
385
330
2
100
AcDbEntity
  8
画層1
  6
DASHED2
 62
     0
100
AcDbLine
 10
405.55
 20
297.82
 30
0.0
 11
378.1499999999999
 21
297.82
 31
0.0
  0
LINE
  5
386
330
2
100
AcDbEntity
  8
画層1
 62
     0
100
AcDbLine
 10
418.35
 20
239.3199999999999
 30
0.0
 11
378.1499999999999
 21
239.3199999999999
 31
0.0
  0
LINE
  5
387
330
2
100
AcDbEntity
  8
画層1
 62
     0
100
AcDbLine
 10
418.35
 20
228.3199999999999
 30
0.0
 11
379.35
 21
228.3199999999999
 31
0.0
  0
LINE
  5
388
330
2
100
AcDbEntity
  8
画層1
 62
     0
100
AcDbLine
 10
418.35
 20
228.3199999999999
 30
0.0
 11
379.35
 21
228.3199999999999
 31
0.0
  0
LINE
  5
389
330
2
100
AcDbEntity
  8
画層1
 62
     0
100
AcDbLine
 10
379.35
 20
227.82
 30
0.0
 11
379.35
 21
239.3199999999999
 31
0.0
  0
LINE
  5
38A
330
2
100
AcDbEntity
  8
画層1
 62
     0
100
AcDbLine
 10
375.35
 20
235.42
 30
0.0
 11
375.35
 21
232.22
 31
0.0
  0
LINE
  5
38B
330
2
100
AcDbEntity
  8
画層1
 62
     0
100
AcDbLine
 10
377.35
 20
236.4199999999999
 30
0.0
 11
377.35
 21
231.22
 31
0.0
  0
LINE
  5
38C
330
2
100
AcDbEntity
  8
画層1
 62
     0
100
AcDbLine
 10
377.35
 20
231.22
 30
0.0
 11
377.7499999999999
 21
230.02
 31
0.0
  0
LINE
  5
38D
330
2
100
AcDbEntity
  8
画層1
 62
     0
100
AcDbLine
 10
376.35
 20
231.22
 30
0.0
 11
377.35
 21
231.22
 31
0.0
  0
ARC
  5
38E
330
2
100
AcDbEntity
  8
画層1
 62
     0
100
AcDbCircle
 10
376.35
 20
232.22
 30
0.0
 40
1.0
100
AcDbArc
 50
180.0
 51
270.0
  0
LINE
  5
38F
330
2
100
AcDbEntity
  8
画層1
 62
     0
100
AcDbLine
 10
378.1499999999999
 20
227.82
 30
0.0
 11
379.35
 21
227.82
 31
0.0
  0
LINE
  5
390
330
2
100
AcDbEntity
  8
画層1
 62
     0
100
AcDbLine
 10
377.7499999999999
 20
230.02
 30
0.0
 11
378.1499999999999
 21
230.02
 31
0.0
  0
LINE
  5
391
330
2
100
AcDbEntity
  8
画層1
 62
     0
100
AcDbLine
 10
377.7499999999999
 20
237.62
 30
0.0
 11
377.35
 21
236.4199999999999
 31
0.0
  0
LINE
  5
392
330
2
100
AcDbEntity
  8
画層1
 62
     0
100
AcDbLine
 10
377.35
 20
236.4199999999999
 30
0.0
 11
376.35
 21
236.4199999999999
 31
0.0
  0
LINE
  5
393
330
2
100
AcDbEntity
  8
画層1
 62
     0
100
AcDbLine
 10
375.95
 20
233.42
 30
0.0
 11
375.95
 21
234.22
 31
0.0
  0
ARC
  5
394
330
2
100
AcDbEntity
  8
画層1
 62
     0
100
AcDbCircle
 10
376.35
 20
235.42
 30
0.0
 40
1.0
100
AcDbArc
 50
90.0
 51
180.0
  0
LINE
  5
395
330
2
100
AcDbEntity
  8
画層1
 62
     0
100
AcDbLine
 10
375.35
 20
233.42
 30
0.0
 11
375.95
 21
233.42
 31
0.0
  0
LINE
  5
396
330
2
100
AcDbEntity
  8
画層1
 62
     0
100
AcDbLine
 10
375.95
 20
234.22
 30
0.0
 11
375.35
 21
234.22
 31
0.0
  0
LINE
  5
397
330
2
100
AcDbEntity
  8
画層1
 62
     0
100
AcDbLine
 10
378.1499999999999
 20
237.62
 30
0.0
 11
377.7499999999999
 21
237.62
 31
0.0
  0
LINE
  5
398
330
2
100
AcDbEntity
  8
画層1
  6
DASHED2
 62
     0
100
AcDbLine
 10
387.1499999999999
 20
311.6999999999999
 30
0.0
 11
385.1499999999999
 21
311.6999999999999
 31
0.0
  0
LINE
  5
399
330
2
100
AcDbEntity
  8
画層1
  6
DASHED2
 62
     0
100
AcDbLine
 10
387.1499999999999
 20
305.6999999999999
 30
0.0
 11
385.1499999999999
 21
305.6999999999999
 31
0.0
  0
LINE
  5
39A
330
2
100
AcDbEntity
  8
画層1
  6
DASHED2
 62
     0
100
AcDbLine
 10
379.55
 20
312.6999999999999
 30
0.0
 11
388.35
 21
312.6999999999999
 31
0.0
  0
LINE
  5
39B
330
2
100
AcDbEntity
  8
画層1
  6
DASHED2
 62
     0
100
AcDbLine
 10
388.35
 20
304.7
 30
0.0
 11
379.55
 21
304.7
 31
0.0
  0
LINE
  5
39C
330
2
100
AcDbEntity
  8
画層1
  6
DASHED2
 62
     0
100
AcDbLine
 10
379.55
 20
303.2
 30
0.0
 11
388.35
 21
303.2
 31
0.0
  0
LINE
  5
39D
330
2
100
AcDbEntity
  8
画層1
  6
DASHED2
 62
     0
100
AcDbLine
 10
378.1499999999999
 20
299.9399999999999
 30
0.0
 11
399.35
 21
299.9399999999999
 31
0.0
  0
LINE
  5
39E
330
2
100
AcDbEntity
  8
画層1
 62
     0
100
AcDbLine
 10
377.05
 20
297.82
 30
0.0
 11
378.1499999999999
 21
297.82
 31
0.0
  0
LINE
  5
39F
330
2
100
AcDbEntity
  8
画層1
 62
     0
100
AcDbLine
 10
377.05
 20
299.9399999999999
 30
0.0
 11
378.1499999999999
 21
299.9399999999999
 31
0.0
  0
LINE
  5
3A0
330
2
100
AcDbEntity
  8
画層1
 62
     0
100
AcDbLine
 10
377.05
 20
297.82
 30
0.0
 11
377.05
 21
299.9399999999999
 31
0.0
  0
LINE
  5
3A1
330
2
100
AcDbEntity
  8
画層1
  6
DASHED2
 62
     0
100
AcDbLine
 10
384.1499999999999
 20
310.6999999999999
 30
0.0
 11
384.1499999999999
 21
306.7
 31
0.0
  0
ARC
  5
3A2
330
2
100
AcDbEntity
  8
画層1
  6
DASHED2
 62
     0
100
AcDbCircle
 10
385.1499999999999
 20
310.6999999999999
 30
0.0
 40
1.0
100
AcDbArc
 50
90.0
 51
180.0
  0
ARC
  5
3A3
330
2
100
AcDbEntity
  8
画層1
  6
DASHED2
 62
     0
100
AcDbCircle
 10
385.1499999999999
 20
306.7
 30
0.0
 40
1.0
100
AcDbArc
 50
180.0
 51
270.0
  0
LINE
  5
3A4
330
2
100
AcDbEntity
  8
画層1
  6
DASHED2
 62
     0
100
AcDbLine
 10
388.35
 20
303.2
 30
0.0
 11
388.35
 21
299.9399999999999
 31
0.0
  0
LINE
  5
3A5
330
2
100
AcDbEntity
  8
画層1
  6
DASHED2
 62
     0
100
AcDbLine
 10
395.1499999999999
 20
305.94
 30
0.0
 11
395.1499999999999
 21
301.94
 31
0.0
  0
LINE
  5
3A6
330
2
100
AcDbEntity
  8
画層1
  6
DASHED2
 62
     0
100
AcDbLine
 10
398.15
 20
307.94
 30
0.0
 11
398.15
 21
299.9399999999999
 31
0.0
  0
LINE
  5
3A7
330
2
100
AcDbEntity
  8
画層1
  6
DASHED2
 62
     0
100
AcDbLine
 10
399.35
 20
307.94
 30
0.0
 11
399.35
 21
299.9399999999999
 31
0.0
  0
LINE
  5
3A8
330
2
100
AcDbEntity
  8
画層1
  6
DASHED2
 62
     0
100
AcDbLine
 10
397.35
 20
306.9399999999999
 30
0.0
 11
397.35
 21
300.9399999999999
 31
0.0
  0
ARC
  5
3A9
330
2
100
AcDbEntity
  8
画層1
  6
DASHED2
 62
     0
100
AcDbCircle
 10
396.15
 20
301.94
 30
0.0
 40
1.0
100
AcDbArc
 50
180.0
 51
270.0
  0
LINE
  5
3AA
330
2
100
AcDbEntity
  8
画層1
  6
DASHED2
 62
     0
100
AcDbLine
 10
398.15
 20
300.9399999999999
 30
0.0
 11
396.15
 21
300.9399999999999
 31
0.0
  0
LINE
  5
3AB
330
2
100
AcDbEntity
  8
画層1
  6
DASHED2
 62
     0
100
AcDbLine
 10
399.35
 20
309.44
 30
0.0
 11
392.5499999999999
 21
309.44
 31
0.0
  0
LINE
  5
3AC
330
2
100
AcDbEntity
  8
画層1
  6
DASHED2
 62
     0
100
AcDbLine
 10
392.5499999999999
 20
307.94
 30
0.0
 11
399.35
 21
307.94
 31
0.0
  0
LINE
  5
3AD
330
2
100
AcDbEntity
  8
画層1
  6
DASHED2
 62
     0
100
AcDbLine
 10
386.35
 20
311.6999999999999
 30
0.0
 11
386.35
 21
305.6999999999999
 31
0.0
  0
LINE
  5
3AE
330
2
100
AcDbEntity
  8
画層1
  6
DASHED2
 62
     0
100
AcDbLine
 10
388.35
 20
312.6999999999999
 30
0.0
 11
388.35
 21
304.7
 31
0.0
  0
LINE
  5
3AF
330
2
100
AcDbEntity
  8
画層1
  6
DASHED2
 62
     0
100
AcDbLine
 10
387.1499999999999
 20
312.6999999999999
 30
0.0
 11
387.1499999999999
 21
304.7
 31
0.0
  0
LINE
  5
3B0
330
2
100
AcDbEntity
  8
画層1
  6
DASHED2
 62
     0
100
AcDbLine
 10
392.5499999999999
 20
309.44
 30
0.0
 11
392.5499999999999
 21
307.94
 31
0.0
  0
ARC
  5
3B1
330
2
100
AcDbEntity
  8
画層1
  6
DASHED2
 62
     0
100
AcDbCircle
 10
396.15
 20
305.94
 30
0.0
 40
1.0
100
AcDbArc
 50
90.0
 51
180.0
  0
LINE
  5
3B2
330
2
100
AcDbEntity
  8
画層1
  6
DASHED2
 62
     0
100
AcDbLine
 10
398.15
 20
306.9399999999999
 30
0.0
 11
396.15
 21
306.9399999999999
 31
0.0
  0
LINE
  5
3B3
330
2
100
AcDbEntity
  8
画層1
  6
DASHED2
 62
     0
100
AcDbLine
 10
398.15
 20
310.44
 30
0.0
 11
396.15
 21
310.44
 31
0.0
  0
ARC
  5
3B4
330
2
100
AcDbEntity
  8
画層1
  6
DASHED2
 62
     0
100
AcDbCircle
 10
396.15
 20
311.4399999999999
 30
0.0
 40
1.0
100
AcDbArc
 50
180.0
 51
270.0
  0
LINE
  5
3B5
330
2
100
AcDbEntity
  8
画層1
  6
DASHED2
 62
     0
100
AcDbLine
 10
446.35
 20
249.82
 30
0.0
 11
446.35
 21
269.8199999999999
 31
0.0
  0
LINE
  5
3B6
330
2
100
AcDbEntity
  8
画層1
  6
DASHED2
 62
     0
100
AcDbLine
 10
437.3499999999999
 20
270.1999999999999
 30
0.0
 11
437.3499999999999
 21
249.44
 31
0.0
  0
LINE
  5
3B7
330
2
100
AcDbEntity
  8
画層1
  6
DASHED2
 62
     0
100
AcDbLine
 10
457.35
 20
271.8199999999999
 30
0.0
 11
457.35
 21
237.32
 31
0.0
  0
LINE
  5
3B8
330
2
100
AcDbEntity
  8
画層1
  6
DASHED2
 62
     0
100
AcDbLine
 10
456.35
 20
237.32
 30
0.0
 11
456.35
 21
271.8199999999999
 31
0.0
  0
LINE
  5
3B9
330
2
100
AcDbEntity
  8
画層1
  6
DASHED2
 62
     0
100
AcDbLine
 10
467.35
 20
271.8199999999999
 30
0.0
 11
467.35
 21
237.32
 31
0.0
  0
LINE
  5
3BA
330
2
100
AcDbEntity
  8
画層1
 62
     0
100
AcDbLine
 10
418.35
 20
239.82
 30
0.0
 11
422.35
 21
239.82
 31
0.0
  0
LINE
  5
3BB
330
2
100
AcDbEntity
  8
画層1
 62
     0
100
AcDbLine
 10
418.35
 20
227.82
 30
0.0
 11
418.35
 21
239.82
 31
0.0
  0
LINE
  5
3BC
330
2
100
AcDbEntity
  8
画層1
 62
     0
100
AcDbLine
 10
417.1499999999999
 20
228.3199999999999
 30
0.0
 11
417.1499999999999
 21
239.3199999999999
 31
0.0
  0
LINE
  5
3BD
330
2
100
AcDbEntity
  8
画層1
 62
     0
100
AcDbLine
 10
415.9499999999999
 20
230.8199999999999
 30
0.0
 11
415.9499999999999
 21
236.8199999999999
 31
0.0
  0
ARC
  5
3BE
330
2
100
AcDbEntity
  8
画層1
 62
     0
100
AcDbCircle
 10
418.7699999999999
 20
233.82
 30
0.0
 40
4.111538461538548
100
AcDbArc
 50
133.1399999999999
 51
226.86
  0
LINE
  5
3BF
330
2
100
AcDbEntity
  8
画層1
 62
     0
100
AcDbLine
 10
415.1499999999999
 20
228.3199999999999
 30
0.0
 11
415.1499999999999
 21
231.8599999999999
 31
0.0
  0
LINE
  5
3C0
330
2
100
AcDbEntity
  8
画層1
 62
     0
100
AcDbLine
 10
415.9499999999999
 20
230.8199999999999
 30
0.0
 11
417.1499999999999
 21
230.8199999999999
 31
0.0
  0
LINE
  5
3C1
330
2
100
AcDbEntity
  8
画層1
 62
     0
100
AcDbLine
 10
415.1499999999999
 20
235.78
 30
0.0
 11
415.1499999999999
 21
239.3199999999999
 31
0.0
  0
LINE
  5
3C2
330
2
100
AcDbEntity
  8
画層1
 62
     0
100
AcDbLine
 10
415.9499999999999
 20
236.8199999999999
 30
0.0
 11
417.1499999999999
 21
236.8199999999999
 31
0.0
  0
LINE
  5
3C3
330
2
100
AcDbEntity
  8
画層1
  6
DASHED2
 62
     0
100
AcDbLine
 10
467.35
 20
237.32
 30
0.0
 11
456.35
 21
237.32
 31
0.0
  0
LINE
  5
3C4
330
2
100
AcDbEntity
  8
画層1
  6
DASHED2
 62
     0
100
AcDbLine
 10
439.59
 20
247.82
 30
0.0
 11
456.35
 21
247.82
 31
0.0
  0
LINE
  5
3C5
330
2
100
AcDbEntity
  8
画層1
  6
DASHED2
 62
     0
100
AcDbLine
 10
454.35
 20
247.82
 30
0.0
 11
446.35
 21
249.82
 31
0.0
  0
LINE
  5
3C6
330
2
100
AcDbEntity
  8
画層1
  6
DASHED2
 62
     0
100
AcDbLine
 10
445.35
 20
255.8199999999999
 30
0.0
 11
445.35
 21
263.8199999999999
 31
0.0
  0
LINE
  5
3C7
330
2
100
AcDbEntity
  8
画層1
  6
DASHED2
 62
     0
100
AcDbLine
 10
444.35
 20
255.8199999999999
 30
0.0
 11
444.35
 21
263.8199999999999
 31
0.0
  0
LINE
  5
3C8
330
2
100
AcDbEntity
  8
画層1
  6
DASHED2
 62
     0
100
AcDbLine
 10
442.35
 20
255.8199999999999
 30
0.0
 11
442.35
 21
263.8199999999999
 31
0.0
  0
ARC
  5
3C9
330
2
100
AcDbEntity
  8
画層1
  6
DASHED2
 62
     0
100
AcDbCircle
 10
449.8499999999999
 20
259.8199999999999
 30
0.0
 40
8.500000000000097
100
AcDbArc
 50
151.93
 51
208.07
  0
LINE
  5
3CA
330
2
100
AcDbEntity
  8
画層1
  6
DASHED2
 62
     0
100
AcDbLine
 10
446.35
 20
255.8199999999999
 30
0.0
 11
442.35
 21
255.8199999999999
 31
0.0
  0
LINE
  5
3CB
330
2
100
AcDbEntity
  8
画層1
  6
DASHED2
 62
     0
100
AcDbLine
 10
439.1499999999999
 20
247.92
 30
0.0
 11
437.91
 21
248.5399999999999
 31
0.0
  0
ARC
  5
3CC
330
2
100
AcDbEntity
  8
画層1
  6
DASHED2
 62
     0
100
AcDbCircle
 10
438.35
 20
249.44
 30
0.0
 40
1.0
100
AcDbArc
 50
180.0
 51
243.43
  0
ARC
  5
3CD
330
2
100
AcDbEntity
  8
画層1
  6
DASHED2
 62
     0
100
AcDbCircle
 10
439.59
 20
248.8199999999999
 30
0.0
 40
1.0
100
AcDbArc
 50
243.43
 51
270.0
  0
LINE
  5
3CE
330
2
100
AcDbEntity
  8
画層1
  6
DASHED2
 62
     0
100
AcDbLine
 10
446.35
 20
263.8199999999999
 30
0.0
 11
442.35
 21
263.8199999999999
 31
0.0
  0
CIRCLE
  5
3CF
330
2
100
AcDbEntity
  8
画層1
 62
     0
100
AcDbCircle
 10
462.3499999999999
 20
254.82
 30
0.0
 40
3.0
  0
ARC
  5
3D0
330
2
100
AcDbEntity
  8
画層1
 62
     0
100
AcDbCircle
 10
463.85
 20
256.32
 30
0.0
 40
1.0
100
AcDbArc
 50
180.0
 51
270.0
  0
ARC
  5
3D1
330
2
100
AcDbEntity
  8
画層1
 62
     0
100
AcDbCircle
 10
460.85
 20
256.32
 30
0.0
 40
1.0
100
AcDbArc
 50
270.0
 51
0.0
  0
LINE
  5
3D2
330
2
100
AcDbEntity
  8
画層1
 62
     0
100
AcDbLine
 10
462.85
 20
253.3199999999999
 30
0.0
 11
462.85
 21
253.02
 31
0.0
  0
ARC
  5
3D3
330
2
100
AcDbEntity
  8
画層1
 62
     0
100
AcDbCircle
 10
463.85
 20
253.3199999999999
 30
0.0
 40
1.0
100
AcDbArc
 50
90.0
 51
180.0
  0
LINE
  5
3D4
330
2
100
AcDbEntity
  8
画層1
 62
     0
100
AcDbLine
 10
464.1499999999999
 20
254.32
 30
0.0
 11
464.1499999999999
 21
255.3199999999999
 31
0.0
  0
LINE
  5
3D5
330
2
100
AcDbEntity
  8
画層1
 62
     0
100
AcDbLine
 10
463.85
 20
255.3199999999999
 30
0.0
 11
464.1499999999999
 21
255.3199999999999
 31
0.0
  0
LINE
  5
3D6
330
2
100
AcDbEntity
  8
画層1
 62
     0
100
AcDbLine
 10
464.1499999999999
 20
254.32
 30
0.0
 11
463.85
 21
254.32
 31
0.0
  0
LINE
  5
3D7
330
2
100
AcDbEntity
  8
画層1
 62
     0
100
AcDbLine
 10
461.85
 20
253.02
 30
0.0
 11
461.85
 21
253.3199999999999
 31
0.0
  0
LINE
  5
3D8
330
2
100
AcDbEntity
  8
画層1
 62
     0
100
AcDbLine
 10
461.85
 20
253.02
 30
0.0
 11
462.85
 21
253.02
 31
0.0
  0
LINE
  5
3D9
330
2
100
AcDbEntity
  8
画層1
 62
     0
100
AcDbLine
 10
460.55
 20
254.32
 30
0.0
 11
460.55
 21
255.3199999999999
 31
0.0
  0
LINE
  5
3DA
330
2
100
AcDbEntity
  8
画層1
 62
     0
100
AcDbLine
 10
460.85
 20
254.32
 30
0.0
 11
460.55
 21
254.32
 31
0.0
  0
LINE
  5
3DB
330
2
100
AcDbEntity
  8
画層1
 62
     0
100
AcDbLine
 10
460.55
 20
255.3199999999999
 30
0.0
 11
460.85
 21
255.3199999999999
 31
0.0
  0
ARC
  5
3DC
330
2
100
AcDbEntity
  8
画層1
 62
     0
100
AcDbCircle
 10
460.85
 20
253.3199999999999
 30
0.0
 40
1.0
100
AcDbArc
 50
0.0
 51
90.0
  0
LINE
  5
3DD
330
2
100
AcDbEntity
  8
画層1
 62
     0
100
AcDbLine
 10
462.85
 20
256.62
 30
0.0
 11
462.85
 21
256.32
 31
0.0
  0
LINE
  5
3DE
330
2
100
AcDbEntity
  8
画層1
 62
     0
100
AcDbLine
 10
461.85
 20
256.32
 30
0.0
 11
461.85
 21
256.62
 31
0.0
  0
LINE
  5
3DF
330
2
100
AcDbEntity
  8
画層1
 62
     0
100
AcDbLine
 10
461.85
 20
256.62
 30
0.0
 11
462.85
 21
256.62
 31
0.0
  0
LINE
  5
3E0
330
2
100
AcDbEntity
  8
画層1
  6
DASHED2
 62
     0
100
AcDbLine
 10
446.35
 20
269.8199999999999
 30
0.0
 11
454.35
 21
271.8199999999999
 31
0.0
  0
LINE
  5
3E1
330
2
100
AcDbEntity
  8
画層1
  6
DASHED2
 62
     0
100
AcDbLine
 10
439.59
 20
271.8199999999999
 30
0.0
 11
467.35
 21
271.8199999999999
 31
0.0
  0
LINE
  5
3E2
330
2
100
AcDbEntity
  8
画層1
  6
DASHED2
 62
     0
100
AcDbLine
 10
439.1499999999999
 20
271.72
 30
0.0
 11
437.91
 21
271.1
 31
0.0
  0
ARC
  5
3E3
330
2
100
AcDbEntity
  8
画層1
  6
DASHED2
 62
     0
100
AcDbCircle
 10
438.35
 20
270.1999999999999
 30
0.0
 40
1.0
100
AcDbArc
 50
116.57
 51
180.0
  0
ARC
  5
3E4
330
2
100
AcDbEntity
  8
画層1
  6
DASHED2
 62
     0
100
AcDbCircle
 10
439.59
 20
270.82
 30
0.0
 40
1.0
100
AcDbArc
 50
90.0
 51
116.57
  0
LINE
  5
3E5
330
2
100
AcDbEntity
  8
画層1
 62
     0
100
AcDbLine
 10
533.75
 20
217.8199999999999
 30
0.0
 11
533.75
 21
227.82
 31
0.0
  0
LINE
  5
3E6
330
2
100
AcDbEntity
  8
画層1
 62
     0
100
AcDbLine
 10
535.35
 20
217.8199999999999
 30
0.0
 11
533.75
 21
217.8199999999999
 31
0.0
  0
LINE
  5
3E7
330
2
100
AcDbEntity
  8
画層1
  6
CENTER
 62
     0
100
AcDbLine
 10
529.75
 20
223.8199999999999
 30
0.0
 11
539.35
 21
223.8199999999999
 31
0.0
  0
LINE
  5
3E8
330
2
100
AcDbEntity
  8
画層1
  6
DASHED2
 62
     0
100
AcDbLine
 10
476.35
 20
269.8199999999999
 30
0.0
 11
476.35
 21
249.82
 31
0.0
  0
CIRCLE
  5
3E9
330
2
100
AcDbEntity
  8
画層1
 62
     0
100
AcDbCircle
 10
508.3499999999999
 20
252.82
 30
0.0
 40
3.0
  0
LINE
  5
3EA
330
2
100
AcDbEntity
  8
画層1
 62
     0
100
AcDbLine
 10
507.85
 20
254.62
 30
0.0
 11
508.85
 21
254.62
 31
0.0
  0
LINE
  5
3EB
330
2
100
AcDbEntity
  8
画層1
 62
     0
100
AcDbLine
 10
507.85
 20
251.02
 30
0.0
 11
508.85
 21
251.02
 31
0.0
  0
ARC
  5
3EC
330
2
100
AcDbEntity
  8
画層1
 62
     0
100
AcDbCircle
 10
509.85
 20
254.32
 30
0.0
 40
1.0
100
AcDbArc
 50
180.0
 51
270.0
  0
ARC
  5
3ED
330
2
100
AcDbEntity
  8
画層1
 62
     0
100
AcDbCircle
 10
509.85
 20
251.3199999999999
 30
0.0
 40
1.0
100
AcDbArc
 50
90.0
 51
180.0
  0
ARC
  5
3EE
330
2
100
AcDbEntity
  8
画層1
 62
     0
100
AcDbCircle
 10
506.85
 20
254.32
 30
0.0
 40
1.0
100
AcDbArc
 50
270.0
 51
0.0
  0
ARC
  5
3EF
330
2
100
AcDbEntity
  8
画層1
 62
     0
100
AcDbCircle
 10
506.85
 20
251.3199999999999
 30
0.0
 40
1.0
100
AcDbArc
 50
0.0
 51
90.0
  0
LINE
  5
3F0
330
2
100
AcDbEntity
  8
画層1
 62
     0
100
AcDbLine
 10
506.55
 20
253.3199999999999
 30
0.0
 11
506.85
 21
253.3199999999999
 31
0.0
  0
LINE
  5
3F1
330
2
100
AcDbEntity
  8
画層1
 62
     0
100
AcDbLine
 10
506.85
 20
252.32
 30
0.0
 11
506.55
 21
252.32
 31
0.0
  0
LINE
  5
3F2
330
2
100
AcDbEntity
  8
画層1
 62
     0
100
AcDbLine
 10
506.55
 20
252.32
 30
0.0
 11
506.55
 21
253.3199999999999
 31
0.0
  0
LINE
  5
3F3
330
2
100
AcDbEntity
  8
画層1
 62
     0
100
AcDbLine
 10
507.85
 20
254.32
 30
0.0
 11
507.85
 21
254.62
 31
0.0
  0
LINE
  5
3F4
330
2
100
AcDbEntity
  8
画層1
 62
     0
100
AcDbLine
 10
507.85
 20
251.02
 30
0.0
 11
507.85
 21
251.3199999999999
 31
0.0
  0
LINE
  5
3F5
330
2
100
AcDbEntity
  8
画層1
 62
     0
100
AcDbLine
 10
510.1499999999999
 20
252.32
 30
0.0
 11
509.85
 21
252.32
 31
0.0
  0
LINE
  5
3F6
330
2
100
AcDbEntity
  8
画層1
 62
     0
100
AcDbLine
 10
509.85
 20
253.3199999999999
 30
0.0
 11
510.1499999999999
 21
253.3199999999999
 31
0.0
  0
LINE
  5
3F7
330
2
100
AcDbEntity
  8
画層1
 62
     0
100
AcDbLine
 10
510.1499999999999
 20
252.32
 30
0.0
 11
510.1499999999999
 21
253.3199999999999
 31
0.0
  0
LINE
  5
3F8
330
2
100
AcDbEntity
  8
画層1
 62
     0
100
AcDbLine
 10
508.85
 20
254.62
 30
0.0
 11
508.85
 21
254.32
 31
0.0
  0
LINE
  5
3F9
330
2
100
AcDbEntity
  8
画層1
 62
     0
100
AcDbLine
 10
508.85
 20
251.3199999999999
 30
0.0
 11
508.85
 21
251.02
 31
0.0
  0
DIMENSION
  5
3FA
330
2
100
AcDbEntity
  8
画層1
 62
     0
100
AcDbDimension
  2
*D35
 10
399.35
 20
452.82
 30
0.0
 11
467.35
 21
454.9093908629441
 31
0.0
 70
    32
 71
     5
 42
136.0
  3
STANDARD_WS
100
AcDbAlignedDimension
 13
535.35
 23
437.8199999999999
 33
0.0
 14
399.35
 24
390.8199999999999
 34
0.0
100
AcDbRotatedDimension
1001
ACAD
1000
DSTYLE
1002
{
1070
     3
1000
(<>)
1070
    47
1040
0.6
1070
   144
1040
1.0
1070
   146
1040
0.5
1070
   173
1070
     0
1070
   284
1070
     8
1070
   340
1005
2A
1070
   341
1005
2B
1070
   342
1005
2B
1070
   343
1005
2B
1002
}
  0
DIMENSION
  5
407
330
2
100
AcDbEntity
  8
画層1
 62
     0
100
AcDbDimension
  2
*D34
 10
375.35
 20
466.8199999999999
 30
0.0
 11
455.35
 21
468.7
 31
0.0
 70
    32
 71
     5
 42
160.0
  3
STANDARD_WS
100
AcDbAlignedDimension
 13
535.35
 23
437.8199999999999
 33
0.0
 14
375.35
 24
423.42
 34
0.0
100
AcDbRotatedDimension
1001
ACAD
1000
DSTYLE
1002
{
1070
    47
1040
0.6
1070
   144
1040
1.0
1070
   146
1040
0.5
1070
   173
1070
     0
1070
   284
1070
     8
1070
   340
1005
2A
1070
   341
1005
2B
1070
   342
1005
2B
1070
   343
1005
2B
1002
}
  0
LINE
  5
414
330
2
100
AcDbEntity
  8
画層1
 62
     0
100
AcDbLine
 10
535.35
 20
427.82
 30
0.0
 11
418.35
 21
427.82
 31
0.0
  0
DIMENSION
  5
415
330
2
100
AcDbEntity
  8
画層1
 62
     0
100
AcDbDimension
  2
*D36
 10
388.35
 20
452.82
 30
0.0
 11
393.85
 21
454.6999999999999
 31
0.0
 70
    32
 71
     5
 42
11.0
  3
STANDARD_WS
100
AcDbAlignedDimension
 13
399.35
 23
390.8199999999999
 33
0.0
 14
388.35
 24
390.8199999999999
 34
0.0
100
AcDbRotatedDimension
1001
ACAD
1000
DSTYLE
1002
{
1070
   279
1070
     1
1070
    47
1040
0.6
1070
   144
1040
1.0
1070
   146
1040
0.5
1070
   173
1070
     0
1070
   284
1070
     8
1070
   340
1005
2A
1070
   341
1005
2B
1070
   342
1005
2B
1070
   343
1005
2B
1002
}
  0
LINE
  5
422
330
2
100
AcDbEntity
  8
画層1
  6
DASHED2
 62
     0
100
AcDbLine
 10
378.1499999999999
 20
390.8199999999999
 30
0.0
 11
405.55
 21
390.8199999999999
 31
0.0
  0
LINE
  5
423
330
2
100
AcDbEntity
  8
画層1
  6
DASHED2
 62
     0
100
AcDbLine
 10
395.1499999999999
 20
362.9399999999999
 30
0.0
 11
395.1499999999999
 21
358.9399999999999
 31
0.0
  0
LINE
  5
424
330
2
100
AcDbEntity
  8
画層1
  6
DASHED2
 62
     0
100
AcDbLine
 10
398.15
 20
364.9399999999999
 30
0.0
 11
398.15
 21
356.9399999999999
 31
0.0
  0
LINE
  5
425
330
2
100
AcDbEntity
  8
画層1
  6
DASHED2
 62
     0
100
AcDbLine
 10
399.35
 20
364.9399999999999
 30
0.0
 11
399.35
 21
356.9399999999999
 31
0.0
  0
LINE
  5
426
330
2
100
AcDbEntity
  8
画層1
  6
DASHED2
 62
     0
100
AcDbLine
 10
397.35
 20
363.94
 30
0.0
 11
397.35
 21
357.94
 31
0.0
  0
LINE
  5
427
330
2
100
AcDbEntity
  8
画層1
  6
DASHED2
 62
     0
100
AcDbLine
 10
386.35
 20
340.2
 30
0.0
 11
386.35
 21
334.2
 31
0.0
  0
LINE
  5
428
330
2
100
AcDbEntity
  8
画層1
  6
DASHED2
 62
     0
100
AcDbLine
 10
388.35
 20
341.1999999999999
 30
0.0
 11
388.35
 21
333.1999999999999
 31
0.0
  0
LINE
  5
429
330
2
100
AcDbEntity
  8
画層1
  6
DASHED2
 62
     0
100
AcDbLine
 10
387.1499999999999
 20
341.1999999999999
 30
0.0
 11
387.1499999999999
 21
333.1999999999999
 31
0.0
  0
LINE
  5
42A
330
2
100
AcDbEntity
  8
画層1
  6
DASHED2
 62
     0
100
AcDbLine
 10
392.5499999999999
 20
337.9399999999999
 30
0.0
 11
392.5499999999999
 21
336.4399999999999
 31
0.0
  0
LINE
  5
42B
330
2
100
AcDbEntity
  8
画層1
  6
DASHED2
 62
     0
100
AcDbLine
 10
384.1499999999999
 20
339.1999999999999
 30
0.0
 11
384.1499999999999
 21
335.1999999999999
 31
0.0
  0
LINE
  5
42C
330
2
100
AcDbEntity
  8
画層1
  6
DASHED2
 62
     0
100
AcDbLine
 10
387.1499999999999
 20
334.2
 30
0.0
 11
385.1499999999999
 21
334.2
 31
0.0
  0
LINE
  5
42D
330
2
100
AcDbEntity
  8
画層1
  6
DASHED2
 62
     0
100
AcDbLine
 10
387.1499999999999
 20
330.6999999999999
 30
0.0
 11
385.1499999999999
 21
330.6999999999999
 31
0.0
  0
LINE
  5
42E
330
2
100
AcDbEntity
  8
画層1
  6
DASHED2
 62
     0
100
AcDbLine
 10
387.1499999999999
 20
324.6999999999999
 30
0.0
 11
385.1499999999999
 21
324.6999999999999
 31
0.0
  0
LINE
  5
42F
330
2
100
AcDbEntity
  8
画層1
  6
DASHED2
 62
     0
100
AcDbLine
 10
387.1499999999999
 20
315.2
 30
0.0
 11
385.1499999999999
 21
315.2
 31
0.0
  0
LINE
  5
430
330
2
100
AcDbEntity
  8
画層1
  6
DASHED2
 62
     0
100
AcDbLine
 10
387.1499999999999
 20
321.1999999999999
 30
0.0
 11
385.1499999999999
 21
321.1999999999999
 31
0.0
  0
LINE
  5
431
330
2
100
AcDbEntity
  8
画層1
  6
DASHED2
 62
     0
100
AcDbLine
 10
388.35
 20
323.7
 30
0.0
 11
379.55
 21
323.7
 31
0.0
  0
LINE
  5
432
330
2
100
AcDbEntity
  8
画層1
  6
DASHED2
 62
     0
100
AcDbLine
 10
379.55
 20
322.1999999999999
 30
0.0
 11
388.35
 21
322.1999999999999
 31
0.0
  0
LINE
  5
433
330
2
100
AcDbEntity
  8
画層1
  6
DASHED2
 62
     0
100
AcDbLine
 10
388.35
 20
333.1999999999999
 30
0.0
 11
379.55
 21
333.1999999999999
 31
0.0
  0
LINE
  5
434
330
2
100
AcDbEntity
  8
画層1
  6
DASHED2
 62
     0
100
AcDbLine
 10
379.55
 20
331.7
 30
0.0
 11
388.35
 21
331.7
 31
0.0
  0
LINE
  5
435
330
2
100
AcDbEntity
  8
画層1
  6
DASHED2
 62
     0
100
AcDbLine
 10
388.35
 20
314.1999999999999
 30
0.0
 11
379.55
 21
314.1999999999999
 31
0.0
  0
ARC
  5
436
330
2
100
AcDbEntity
  8
画層1
  6
DASHED2
 62
     0
100
AcDbCircle
 10
385.1499999999999
 20
325.7
 30
0.0
 40
1.0
100
AcDbArc
 50
180.0
 51
270.0
  0
LINE
  5
437
330
2
100
AcDbEntity
  8
画層1
  6
DASHED2
 62
     0
100
AcDbLine
 10
384.1499999999999
 20
320.1999999999999
 30
0.0
 11
384.1499999999999
 21
316.1999999999999
 31
0.0
  0
ARC
  5
438
330
2
100
AcDbEntity
  8
画層1
  6
DASHED2
 62
     0
100
AcDbCircle
 10
385.1499999999999
 20
316.1999999999999
 30
0.0
 40
1.0
100
AcDbArc
 50
180.0
 51
270.0
  0
ARC
  5
439
330
2
100
AcDbEntity
  8
画層1
  6
DASHED2
 62
     0
100
AcDbCircle
 10
385.1499999999999
 20
320.1999999999999
 30
0.0
 40
1.0
100
AcDbArc
 50
90.0
 51
180.0
  0
LINE
  5
43A
330
2
100
AcDbEntity
  8
画層1
  6
DASHED2
 62
     0
100
AcDbLine
 10
384.1499999999999
 20
329.7
 30
0.0
 11
384.1499999999999
 21
325.7
 31
0.0
  0
ARC
  5
43B
330
2
100
AcDbEntity
  8
画層1
  6
DASHED2
 62
     0
100
AcDbCircle
 10
385.1499999999999
 20
329.7
 30
0.0
 40
1.0
100
AcDbArc
 50
90.0
 51
180.0
  0
ARC
  5
43C
330
2
100
AcDbEntity
  8
画層1
  6
DASHED2
 62
     0
100
AcDbCircle
 10
385.1499999999999
 20
335.1999999999999
 30
0.0
 40
1.0
100
AcDbArc
 50
180.0
 51
270.0
  0
LINE
  5
43D
330
2
100
AcDbEntity
  8
画層1
  6
DASHED2
 62
     0
100
AcDbLine
 10
397.35
 20
325.9399999999999
 30
0.0
 11
397.35
 21
319.94
 31
0.0
  0
LINE
  5
43E
330
2
100
AcDbEntity
  8
画層1
  6
DASHED2
 62
     0
100
AcDbLine
 10
399.35
 20
326.94
 30
0.0
 11
399.35
 21
318.94
 31
0.0
  0
LINE
  5
43F
330
2
100
AcDbEntity
  8
画層1
  6
DASHED2
 62
     0
100
AcDbLine
 10
398.15
 20
326.94
 30
0.0
 11
398.15
 21
318.94
 31
0.0
  0
ARC
  5
440
330
2
100
AcDbEntity
  8
画層1
  6
DASHED2
 62
     0
100
AcDbCircle
 10
396.15
 20
324.94
 30
0.0
 40
1.0
100
AcDbArc
 50
90.0
 51
180.0
  0
LINE
  5
441
330
2
100
AcDbEntity
  8
画層1
  6
DASHED2
 62
     0
100
AcDbLine
 10
386.35
 20
330.6999999999999
 30
0.0
 11
386.35
 21
324.6999999999999
 31
0.0
  0
LINE
  5
442
330
2
100
AcDbEntity
  8
画層1
  6
DASHED2
 62
     0
100
AcDbLine
 10
388.35
 20
331.7
 30
0.0
 11
388.35
 21
323.7
 31
0.0
  0
LINE
  5
443
330
2
100
AcDbEntity
  8
画層1
  6
DASHED2
 62
     0
100
AcDbLine
 10
387.1499999999999
 20
331.7
 30
0.0
 11
387.1499999999999
 21
323.7
 31
0.0
  0
LINE
  5
444
330
2
100
AcDbEntity
  8
画層1
  6
DASHED2
 62
     0
100
AcDbLine
 10
392.5499999999999
 20
317.4399999999999
 30
0.0
 11
399.35
 21
317.4399999999999
 31
0.0
  0
LINE
  5
445
330
2
100
AcDbEntity
  8
画層1
  6
DASHED2
 62
     0
100
AcDbLine
 10
399.35
 20
318.94
 30
0.0
 11
392.5499999999999
 21
318.94
 31
0.0
  0
LINE
  5
446
330
2
100
AcDbEntity
  8
画層1
  6
DASHED2
 62
     0
100
AcDbLine
 10
386.35
 20
321.1999999999999
 30
0.0
 11
386.35
 21
315.2
 31
0.0
  0
LINE
  5
447
330
2
100
AcDbEntity
  8
画層1
  6
DASHED2
 62
     0
100
AcDbLine
 10
392.5499999999999
 20
318.94
 30
0.0
 11
392.5499999999999
 21
317.4399999999999
 31
0.0
  0
LINE
  5
448
330
2
100
AcDbEntity
  8
画層1
  6
DASHED2
 62
     0
100
AcDbLine
 10
387.1499999999999
 20
322.1999999999999
 30
0.0
 11
387.1499999999999
 21
314.1999999999999
 31
0.0
  0
LINE
  5
449
330
2
100
AcDbEntity
  8
画層1
  6
DASHED2
 62
     0
100
AcDbLine
 10
388.35
 20
322.1999999999999
 30
0.0
 11
388.35
 21
314.1999999999999
 31
0.0
  0
LINE
  5
44A
330
2
100
AcDbEntity
  8
画層1
  6
DASHED2
 62
     0
100
AcDbLine
 10
398.15
 20
316.44
 30
0.0
 11
396.15
 21
316.44
 31
0.0
  0
ARC
  5
44B
330
2
100
AcDbEntity
  8
画層1
  6
DASHED2
 62
     0
100
AcDbCircle
 10
396.15
 20
315.4399999999999
 30
0.0
 40
1.0
100
AcDbArc
 50
90.0
 51
180.0
  0
LINE
  5
44C
330
2
100
AcDbEntity
  8
画層1
  6
DASHED2
 62
     0
100
AcDbLine
 10
398.15
 20
319.94
 30
0.0
 11
396.15
 21
319.94
 31
0.0
  0
LINE
  5
44D
330
2
100
AcDbEntity
  8
画層1
  6
DASHED2
 62
     0
100
AcDbLine
 10
395.1499999999999
 20
324.94
 30
0.0
 11
395.1499999999999
 21
320.94
 31
0.0
  0
ARC
  5
44E
330
2
100
AcDbEntity
  8
画層1
  6
DASHED2
 62
     0
100
AcDbCircle
 10
396.15
 20
320.94
 30
0.0
 40
1.0
100
AcDbArc
 50
180.0
 51
270.0
  0
LINE
  5
44F
330
2
100
AcDbEntity
  8
画層1
  6
DASHED2
 62
     0
100
AcDbLine
 10
392.5499999999999
 20
336.4399999999999
 30
0.0
 11
399.35
 21
336.4399999999999
 31
0.0
  0
LINE
  5
450
330
2
100
AcDbEntity
  8
画層1
  6
DASHED2
 62
     0
100
AcDbLine
 10
392.5499999999999
 20
326.94
 30
0.0
 11
399.35
 21
326.94
 31
0.0
  0
LINE
  5
451
330
2
100
AcDbEntity
  8
画層1
  6
DASHED2
 62
     0
100
AcDbLine
 10
399.35
 20
328.44
 30
0.0
 11
392.5499999999999
 21
328.44
 31
0.0
  0
LINE
  5
452
330
2
100
AcDbEntity
  8
画層1
  6
DASHED2
 62
     0
100
AcDbLine
 10
392.5499999999999
 20
328.44
 30
0.0
 11
392.5499999999999
 21
326.94
 31
0.0
  0
ARC
  5
453
330
2
100
AcDbEntity
  8
画層1
  6
DASHED2
 62
     0
100
AcDbCircle
 10
396.15
 20
334.44
 30
0.0
 40
1.0
100
AcDbArc
 50
90.0
 51
180.0
  0
LINE
  5
454
330
2
100
AcDbEntity
  8
画層1
  6
DASHED2
 62
     0
100
AcDbLine
 10
398.15
 20
335.44
 30
0.0
 11
396.15
 21
335.44
 31
0.0
  0
ARC
  5
455
330
2
100
AcDbEntity
  8
画層1
  6
DASHED2
 62
     0
100
AcDbCircle
 10
396.15
 20
330.44
 30
0.0
 40
1.0
100
AcDbArc
 50
180.0
 51
270.0
  0
LINE
  5
456
330
2
100
AcDbEntity
  8
画層1
  6
DASHED2
 62
     0
100
AcDbLine
 10
398.15
 20
329.4399999999999
 30
0.0
 11
396.15
 21
329.4399999999999
 31
0.0
  0
LINE
  5
457
330
2
100
AcDbEntity
  8
画層1
  6
DASHED2
 62
     0
100
AcDbLine
 10
398.15
 20
325.9399999999999
 30
0.0
 11
396.15
 21
325.9399999999999
 31
0.0
  0
LINE
  5
458
330
2
100
AcDbEntity
  8
画層1
  6
DASHED2
 62
     0
100
AcDbLine
 10
395.1499999999999
 20
334.44
 30
0.0
 11
395.1499999999999
 21
330.44
 31
0.0
  0
LINE
  5
459
330
2
100
AcDbEntity
  8
画層1
  6
DASHED2
 62
     0
100
AcDbLine
 10
398.15
 20
336.4399999999999
 30
0.0
 11
398.15
 21
328.44
 31
0.0
  0
LINE
  5
45A
330
2
100
AcDbEntity
  8
画層1
  6
DASHED2
 62
     0
100
AcDbLine
 10
399.35
 20
336.4399999999999
 30
0.0
 11
399.35
 21
328.44
 31
0.0
  0
LINE
  5
45B
330
2
100
AcDbEntity
  8
画層1
  6
DASHED2
 62
     0
100
AcDbLine
 10
397.35
 20
335.44
 30
0.0
 11
397.35
 21
329.4399999999999
 31
0.0
  0
LINE
  5
45C
330
2
100
AcDbEntity
  8
画層1
  6
DASHED2
 62
     0
100
AcDbLine
 10
387.1499999999999
 20
359.2
 30
0.0
 11
385.1499999999999
 21
359.2
 31
0.0
  0
LINE
  5
45D
330
2
100
AcDbEntity
  8
画層1
  6
DASHED2
 62
     0
100
AcDbLine
 10
387.1499999999999
 20
353.2
 30
0.0
 11
385.1499999999999
 21
353.2
 31
0.0
  0
LINE
  5
45E
330
2
100
AcDbEntity
  8
画層1
  6
DASHED2
 62
     0
100
AcDbLine
 10
388.35
 20
352.1999999999999
 30
0.0
 11
379.55
 21
352.1999999999999
 31
0.0
  0
LINE
  5
45F
330
2
100
AcDbEntity
  8
画層1
  6
DASHED2
 62
     0
100
AcDbLine
 10
379.55
 20
360.1999999999999
 30
0.0
 11
388.35
 21
360.1999999999999
 31
0.0
  0
LINE
  5
460
330
2
100
AcDbEntity
  8
画層1
  6
DASHED2
 62
     0
100
AcDbLine
 10
387.1499999999999
 20
340.2
 30
0.0
 11
385.1499999999999
 21
340.2
 31
0.0
  0
LINE
  5
461
330
2
100
AcDbEntity
  8
画層1
  6
DASHED2
 62
     0
100
AcDbLine
 10
387.1499999999999
 20
343.6999999999999
 30
0.0
 11
385.1499999999999
 21
343.6999999999999
 31
0.0
  0
LINE
  5
462
330
2
100
AcDbEntity
  8
画層1
  6
DASHED2
 62
     0
100
AcDbLine
 10
387.1499999999999
 20
349.6999999999999
 30
0.0
 11
385.1499999999999
 21
349.6999999999999
 31
0.0
  0
LINE
  5
463
330
2
100
AcDbEntity
  8
画層1
  6
DASHED2
 62
     0
100
AcDbLine
 10
379.55
 20
350.7
 30
0.0
 11
388.35
 21
350.7
 31
0.0
  0
LINE
  5
464
330
2
100
AcDbEntity
  8
画層1
  6
DASHED2
 62
     0
100
AcDbLine
 10
379.55
 20
341.1999999999999
 30
0.0
 11
388.35
 21
341.1999999999999
 31
0.0
  0
LINE
  5
465
330
2
100
AcDbEntity
  8
画層1
  6
DASHED2
 62
     0
100
AcDbLine
 10
388.35
 20
342.7
 30
0.0
 11
379.55
 21
342.7
 31
0.0
  0
LINE
  5
466
330
2
100
AcDbEntity
  8
画層1
  6
DASHED2
 62
     0
100
AcDbLine
 10
384.1499999999999
 20
348.7
 30
0.0
 11
384.1499999999999
 21
344.7
 31
0.0
  0
ARC
  5
467
330
2
100
AcDbEntity
  8
画層1
  6
DASHED2
 62
     0
100
AcDbCircle
 10
385.1499999999999
 20
339.1999999999999
 30
0.0
 40
1.0
100
AcDbArc
 50
90.0
 51
180.0
  0
ARC
  5
468
330
2
100
AcDbEntity
  8
画層1
  6
DASHED2
 62
     0
100
AcDbCircle
 10
385.1499999999999
 20
344.7
 30
0.0
 40
1.0
100
AcDbArc
 50
180.0
 51
270.0
  0
LINE
  5
469
330
2
100
AcDbEntity
  8
画層1
  6
DASHED2
 62
     0
100
AcDbLine
 10
384.1499999999999
 20
358.1999999999999
 30
0.0
 11
384.1499999999999
 21
354.1999999999999
 31
0.0
  0
ARC
  5
46A
330
2
100
AcDbEntity
  8
画層1
  6
DASHED2
 62
     0
100
AcDbCircle
 10
385.1499999999999
 20
358.1999999999999
 30
0.0
 40
1.0
100
AcDbArc
 50
90.0
 51
180.0
  0
ARC
  5
46B
330
2
100
AcDbEntity
  8
画層1
  6
DASHED2
 62
     0
100
AcDbCircle
 10
385.1499999999999
 20
354.1999999999999
 30
0.0
 40
1.0
100
AcDbArc
 50
180.0
 51
270.0
  0
ARC
  5
46C
330
2
100
AcDbEntity
  8
画層1
  6
DASHED2
 62
     0
100
AcDbCircle
 10
385.1499999999999
 20
348.7
 30
0.0
 40
1.0
100
AcDbArc
 50
90.0
 51
180.0
  0
ARC
  5
46D
330
2
100
AcDbEntity
  8
画層1
  6
DASHED2
 62
     0
100
AcDbCircle
 10
396.15
 20
349.44
 30
0.0
 40
1.0
100
AcDbArc
 50
180.0
 51
270.0
  0
LINE
  5
46E
330
2
100
AcDbEntity
  8
画層1
  6
DASHED2
 62
     0
100
AcDbLine
 10
386.35
 20
349.6999999999999
 30
0.0
 11
386.35
 21
343.6999999999999
 31
0.0
  0
LINE
  5
46F
330
2
100
AcDbEntity
  8
画層1
  6
DASHED2
 62
     0
100
AcDbLine
 10
387.1499999999999
 20
350.7
 30
0.0
 11
387.1499999999999
 21
342.7
 31
0.0
  0
LINE
  5
470
330
2
100
AcDbEntity
  8
画層1
  6
DASHED2
 62
     0
100
AcDbLine
 10
388.35
 20
350.7
 30
0.0
 11
388.35
 21
342.7
 31
0.0
  0
LINE
  5
471
330
2
100
AcDbEntity
  8
画層1
  6
DASHED2
 62
     0
100
AcDbLine
 10
398.15
 20
355.44
 30
0.0
 11
398.15
 21
347.44
 31
0.0
  0
LINE
  5
472
330
2
100
AcDbEntity
  8
画層1
  6
DASHED2
 62
     0
100
AcDbLine
 10
399.35
 20
355.44
 30
0.0
 11
399.35
 21
347.44
 31
0.0
  0
LINE
  5
473
330
2
100
AcDbEntity
  8
画層1
  6
DASHED2
 62
     0
100
AcDbLine
 10
397.35
 20
354.4399999999999
 30
0.0
 11
397.35
 21
348.4399999999999
 31
0.0
  0
LINE
  5
474
330
2
100
AcDbEntity
  8
画層1
  6
DASHED2
 62
     0
100
AcDbLine
 10
399.35
 20
337.9399999999999
 30
0.0
 11
392.5499999999999
 21
337.9399999999999
 31
0.0
  0
LINE
  5
475
330
2
100
AcDbEntity
  8
画層1
  6
DASHED2
 62
     0
100
AcDbLine
 10
392.5499999999999
 20
345.94
 30
0.0
 11
399.35
 21
345.94
 31
0.0
  0
LINE
  5
476
330
2
100
AcDbEntity
  8
画層1
  6
DASHED2
 62
     0
100
AcDbLine
 10
399.35
 20
347.44
 30
0.0
 11
392.5499999999999
 21
347.44
 31
0.0
  0
LINE
  5
477
330
2
100
AcDbEntity
  8
画層1
  6
DASHED2
 62
     0
100
AcDbLine
 10
399.35
 20
337.9399999999999
 30
0.0
 11
392.5499999999999
 21
337.9399999999999
 31
0.0
  0
LINE
  5
478
330
2
100
AcDbEntity
  8
画層1
  6
DASHED2
 62
     0
100
AcDbLine
 10
392.5499999999999
 20
347.44
 30
0.0
 11
392.5499999999999
 21
345.94
 31
0.0
  0
LINE
  5
479
330
2
100
AcDbEntity
  8
画層1
  6
DASHED2
 62
     0
100
AcDbLine
 10
398.15
 20
348.4399999999999
 30
0.0
 11
396.15
 21
348.4399999999999
 31
0.0
  0
LINE
  5
47A
330
2
100
AcDbEntity
  8
画層1
  6
DASHED2
 62
     0
100
AcDbLine
 10
397.35
 20
344.94
 30
0.0
 11
397.35
 21
338.94
 31
0.0
  0
LINE
  5
47B
330
2
100
AcDbEntity
  8
画層1
  6
DASHED2
 62
     0
100
AcDbLine
 10
398.15
 20
344.94
 30
0.0
 11
396.15
 21
344.94
 31
0.0
  0
LINE
  5
47C
330
2
100
AcDbEntity
  8
画層1
  6
DASHED2
 62
     0
100
AcDbLine
 10
398.15
 20
338.94
 30
0.0
 11
396.15
 21
338.94
 31
0.0
  0
LINE
  5
47D
330
2
100
AcDbEntity
  8
画層1
  6
DASHED2
 62
     0
100
AcDbLine
 10
399.35
 20
345.94
 30
0.0
 11
399.35
 21
337.9399999999999
 31
0.0
  0
LINE
  5
47E
330
2
100
AcDbEntity
  8
画層1
  6
DASHED2
 62
     0
100
AcDbLine
 10
398.15
 20
345.94
 30
0.0
 11
398.15
 21
337.9399999999999
 31
0.0
  0
LINE
  5
47F
330
2
100
AcDbEntity
  8
画層1
  6
DASHED2
 62
     0
100
AcDbLine
 10
395.1499999999999
 20
343.94
 30
0.0
 11
395.1499999999999
 21
339.9399999999999
 31
0.0
  0
ARC
  5
480
330
2
100
AcDbEntity
  8
画層1
  6
DASHED2
 62
     0
100
AcDbCircle
 10
396.15
 20
343.94
 30
0.0
 40
1.0
100
AcDbArc
 50
90.0
 51
180.0
  0
ARC
  5
481
330
2
100
AcDbEntity
  8
画層1
  6
DASHED2
 62
     0
100
AcDbCircle
 10
396.15
 20
339.9399999999999
 30
0.0
 40
1.0
100
AcDbArc
 50
180.0
 51
270.0
  0
LINE
  5
482
330
2
100
AcDbEntity
  8
画層1
  6
DASHED2
 62
     0
100
AcDbLine
 10
399.35
 20
356.9399999999999
 30
0.0
 11
392.5499999999999
 21
356.9399999999999
 31
0.0
  0
LINE
  5
483
330
2
100
AcDbEntity
  8
画層1
  6
DASHED2
 62
     0
100
AcDbLine
 10
392.5499999999999
 20
355.44
 30
0.0
 11
399.35
 21
355.44
 31
0.0
  0
LINE
  5
484
330
2
100
AcDbEntity
  8
画層1
  6
DASHED2
 62
     0
100
AcDbLine
 10
386.35
 20
359.2
 30
0.0
 11
386.35
 21
353.2
 31
0.0
  0
LINE
  5
485
330
2
100
AcDbEntity
  8
画層1
  6
DASHED2
 62
     0
100
AcDbLine
 10
388.35
 20
360.1999999999999
 30
0.0
 11
388.35
 21
352.1999999999999
 31
0.0
  0
LINE
  5
486
330
2
100
AcDbEntity
  8
画層1
  6
DASHED2
 62
     0
100
AcDbLine
 10
387.1499999999999
 20
360.1999999999999
 30
0.0
 11
387.1499999999999
 21
352.1999999999999
 31
0.0
  0
LINE
  5
487
330
2
100
AcDbEntity
  8
画層1
  6
DASHED2
 62
     0
100
AcDbLine
 10
392.5499999999999
 20
356.9399999999999
 30
0.0
 11
392.5499999999999
 21
355.44
 31
0.0
  0
ARC
  5
488
330
2
100
AcDbEntity
  8
画層1
  6
DASHED2
 62
     0
100
AcDbCircle
 10
396.15
 20
358.9399999999999
 30
0.0
 40
1.0
100
AcDbArc
 50
180.0
 51
270.0
  0
LINE
  5
489
330
2
100
AcDbEntity
  8
画層1
  6
DASHED2
 62
     0
100
AcDbLine
 10
398.15
 20
357.94
 30
0.0
 11
396.15
 21
357.94
 31
0.0
  0
ARC
  5
48A
330
2
100
AcDbEntity
  8
画層1
  6
DASHED2
 62
     0
100
AcDbCircle
 10
396.15
 20
353.44
 30
0.0
 40
1.0
100
AcDbArc
 50
90.0
 51
180.0
  0
LINE
  5
48B
330
2
100
AcDbEntity
  8
画層1
  6
DASHED2
 62
     0
100
AcDbLine
 10
398.15
 20
354.4399999999999
 30
0.0
 11
396.15
 21
354.4399999999999
 31
0.0
  0
LINE
  5
48C
330
2
100
AcDbEntity
  8
画層1
  6
DASHED2
 62
     0
100
AcDbLine
 10
395.1499999999999
 20
353.44
 30
0.0
 11
395.1499999999999
 21
349.44
 31
0.0
  0
LINE
  5
48D
330
2
100
AcDbEntity
  8
画層1
  6
DASHED2
 62
     0
100
AcDbLine
 10
398.15
 20
383.9399999999999
 30
0.0
 11
398.15
 21
375.9399999999999
 31
0.0
  0
LINE
  5
48E
330
2
100
AcDbEntity
  8
画層1
  6
DASHED2
 62
     0
100
AcDbLine
 10
399.35
 20
383.9399999999999
 30
0.0
 11
399.35
 21
375.9399999999999
 31
0.0
  0
LINE
  5
48F
330
2
100
AcDbEntity
  8
画層1
  6
DASHED2
 62
     0
100
AcDbLine
 10
386.35
 20
387.6999999999999
 30
0.0
 11
386.35
 21
381.7
 31
0.0
  0
LINE
  5
490
330
2
100
AcDbEntity
  8
画層1
  6
DASHED2
 62
     0
100
AcDbLine
 10
384.1499999999999
 20
386.6999999999999
 30
0.0
 11
384.1499999999999
 21
382.6999999999999
 31
0.0
  0
LINE
  5
491
330
2
100
AcDbEntity
  8
画層1
  6
DASHED2
 62
     0
100
AcDbLine
 10
388.35
 20
388.7
 30
0.0
 11
388.35
 21
380.7
 31
0.0
  0
LINE
  5
492
330
2
100
AcDbEntity
  8
画層1
  6
DASHED2
 62
     0
100
AcDbLine
 10
387.1499999999999
 20
388.7
 30
0.0
 11
387.1499999999999
 21
380.7
 31
0.0
  0
LINE
  5
493
330
2
100
AcDbEntity
  8
画層1
  6
DASHED2
 62
     0
100
AcDbLine
 10
387.1499999999999
 20
381.7
 30
0.0
 11
385.1499999999999
 21
381.7
 31
0.0
  0
LINE
  5
494
330
2
100
AcDbEntity
  8
画層1
  6
DASHED2
 62
     0
100
AcDbLine
 10
387.1499999999999
 20
372.1999999999999
 30
0.0
 11
385.1499999999999
 21
372.1999999999999
 31
0.0
  0
LINE
  5
495
330
2
100
AcDbEntity
  8
画層1
  6
DASHED2
 62
     0
100
AcDbLine
 10
387.1499999999999
 20
378.2
 30
0.0
 11
385.1499999999999
 21
378.2
 31
0.0
  0
LINE
  5
496
330
2
100
AcDbEntity
  8
画層1
  6
DASHED2
 62
     0
100
AcDbLine
 10
387.1499999999999
 20
362.6999999999999
 30
0.0
 11
385.1499999999999
 21
362.6999999999999
 31
0.0
  0
LINE
  5
497
330
2
100
AcDbEntity
  8
画層1
  6
DASHED2
 62
     0
100
AcDbLine
 10
387.1499999999999
 20
368.6999999999999
 30
0.0
 11
385.1499999999999
 21
368.6999999999999
 31
0.0
  0
LINE
  5
498
330
2
100
AcDbEntity
  8
画層1
  6
DASHED2
 62
     0
100
AcDbLine
 10
388.35
 20
380.7
 30
0.0
 11
379.55
 21
380.7
 31
0.0
  0
LINE
  5
499
330
2
100
AcDbEntity
  8
画層1
  6
DASHED2
 62
     0
100
AcDbLine
 10
379.55
 20
379.1999999999999
 30
0.0
 11
388.35
 21
379.1999999999999
 31
0.0
  0
LINE
  5
49A
330
2
100
AcDbEntity
  8
画層1
  6
DASHED2
 62
     0
100
AcDbLine
 10
379.55
 20
369.7
 30
0.0
 11
388.35
 21
369.7
 31
0.0
  0
LINE
  5
49B
330
2
100
AcDbEntity
  8
画層1
  6
DASHED2
 62
     0
100
AcDbLine
 10
388.35
 20
371.1999999999999
 30
0.0
 11
379.55
 21
371.1999999999999
 31
0.0
  0
LINE
  5
49C
330
2
100
AcDbEntity
  8
画層1
  6
DASHED2
 62
     0
100
AcDbLine
 10
388.35
 20
361.6999999999999
 30
0.0
 11
379.55
 21
361.6999999999999
 31
0.0
  0
LINE
  5
49D
330
2
100
AcDbEntity
  8
画層1
  6
DASHED2
 62
     0
100
AcDbLine
 10
384.1499999999999
 20
367.7
 30
0.0
 11
384.1499999999999
 21
363.7
 31
0.0
  0
ARC
  5
49E
330
2
100
AcDbEntity
  8
画層1
  6
DASHED2
 62
     0
100
AcDbCircle
 10
385.1499999999999
 20
363.7
 30
0.0
 40
1.0
100
AcDbArc
 50
180.0
 51
270.0
  0
ARC
  5
49F
330
2
100
AcDbEntity
  8
画層1
  6
DASHED2
 62
     0
100
AcDbCircle
 10
385.1499999999999
 20
367.7
 30
0.0
 40
1.0
100
AcDbArc
 50
90.0
 51
180.0
  0
LINE
  5
4A0
330
2
100
AcDbEntity
  8
画層1
  6
DASHED2
 62
     0
100
AcDbLine
 10
384.1499999999999
 20
377.1999999999999
 30
0.0
 11
384.1499999999999
 21
373.1999999999999
 31
0.0
  0
ARC
  5
4A1
330
2
100
AcDbEntity
  8
画層1
  6
DASHED2
 62
     0
100
AcDbCircle
 10
385.1499999999999
 20
382.6999999999999
 30
0.0
 40
1.0
100
AcDbArc
 50
180.0
 51
270.0
  0
ARC
  5
4A2
330
2
100
AcDbEntity
  8
画層1
  6
DASHED2
 62
     0
100
AcDbCircle
 10
385.1499999999999
 20
373.1999999999999
 30
0.0
 40
1.0
100
AcDbArc
 50
180.0
 51
270.0
  0
ARC
  5
4A3
330
2
100
AcDbEntity
  8
画層1
  6
DASHED2
 62
     0
100
AcDbCircle
 10
385.1499999999999
 20
377.1999999999999
 30
0.0
 40
1.0
100
AcDbArc
 50
90.0
 51
180.0
  0
LINE
  5
4A4
330
2
100
AcDbEntity
  8
画層1
  6
DASHED2
 62
     0
100
AcDbLine
 10
387.1499999999999
 20
379.1999999999999
 30
0.0
 11
387.1499999999999
 21
371.1999999999999
 31
0.0
  0
LINE
  5
4A5
330
2
100
AcDbEntity
  8
画層1
  6
DASHED2
 62
     0
100
AcDbLine
 10
388.35
 20
379.1999999999999
 30
0.0
 11
388.35
 21
371.1999999999999
 31
0.0
  0
LINE
  5
4A6
330
2
100
AcDbEntity
  8
画層1
  6
DASHED2
 62
     0
100
AcDbLine
 10
397.35
 20
373.4399999999999
 30
0.0
 11
397.35
 21
367.4399999999999
 31
0.0
  0
LINE
  5
4A7
330
2
100
AcDbEntity
  8
画層1
  6
DASHED2
 62
     0
100
AcDbLine
 10
399.35
 20
374.44
 30
0.0
 11
399.35
 21
366.44
 31
0.0
  0
LINE
  5
4A8
330
2
100
AcDbEntity
  8
画層1
  6
DASHED2
 62
     0
100
AcDbLine
 10
398.15
 20
374.44
 30
0.0
 11
398.15
 21
366.44
 31
0.0
  0
LINE
  5
4A9
330
2
100
AcDbEntity
  8
画層1
  6
DASHED2
 62
     0
100
AcDbLine
 10
395.1499999999999
 20
372.44
 30
0.0
 11
395.1499999999999
 21
368.44
 31
0.0
  0
LINE
  5
4AA
330
2
100
AcDbEntity
  8
画層1
  6
DASHED2
 62
     0
100
AcDbLine
 10
399.35
 20
366.44
 30
0.0
 11
392.5499999999999
 21
366.44
 31
0.0
  0
LINE
  5
4AB
330
2
100
AcDbEntity
  8
画層1
  6
DASHED2
 62
     0
100
AcDbLine
 10
392.5499999999999
 20
364.9399999999999
 30
0.0
 11
399.35
 21
364.9399999999999
 31
0.0
  0
LINE
  5
4AC
330
2
100
AcDbEntity
  8
画層1
  6
DASHED2
 62
     0
100
AcDbLine
 10
387.1499999999999
 20
369.7
 30
0.0
 11
387.1499999999999
 21
361.6999999999999
 31
0.0
  0
LINE
  5
4AD
330
2
100
AcDbEntity
  8
画層1
  6
DASHED2
 62
     0
100
AcDbLine
 10
388.35
 20
369.7
 30
0.0
 11
388.35
 21
361.6999999999999
 31
0.0
  0
LINE
  5
4AE
330
2
100
AcDbEntity
  8
画層1
  6
DASHED2
 62
     0
100
AcDbLine
 10
386.35
 20
368.6999999999999
 30
0.0
 11
386.35
 21
362.6999999999999
 31
0.0
  0
LINE
  5
4AF
330
2
100
AcDbEntity
  8
画層1
  6
DASHED2
 62
     0
100
AcDbLine
 10
392.5499999999999
 20
366.44
 30
0.0
 11
392.5499999999999
 21
364.9399999999999
 31
0.0
  0
ARC
  5
4B0
330
2
100
AcDbEntity
  8
画層1
  6
DASHED2
 62
     0
100
AcDbCircle
 10
396.15
 20
362.9399999999999
 30
0.0
 40
1.0
100
AcDbArc
 50
90.0
 51
180.0
  0
LINE
  5
4B1
330
2
100
AcDbEntity
  8
画層1
  6
DASHED2
 62
     0
100
AcDbLine
 10
398.15
 20
363.94
 30
0.0
 11
396.15
 21
363.94
 31
0.0
  0
LINE
  5
4B2
330
2
100
AcDbEntity
  8
画層1
  6
DASHED2
 62
     0
100
AcDbLine
 10
398.15
 20
367.4399999999999
 30
0.0
 11
396.15
 21
367.4399999999999
 31
0.0
  0
ARC
  5
4B3
330
2
100
AcDbEntity
  8
画層1
  6
DASHED2
 62
     0
100
AcDbCircle
 10
396.15
 20
368.44
 30
0.0
 40
1.0
100
AcDbArc
 50
180.0
 51
270.0
  0
LINE
  5
4B4
330
2
100
AcDbEntity
  8
画層1
  6
DASHED2
 62
     0
100
AcDbLine
 10
392.5499999999999
 20
374.44
 30
0.0
 11
399.35
 21
374.44
 31
0.0
  0
LINE
  5
4B5
330
2
100
AcDbEntity
  8
画層1
  6
DASHED2
 62
     0
100
AcDbLine
 10
399.35
 20
375.9399999999999
 30
0.0
 11
392.5499999999999
 21
375.9399999999999
 31
0.0
  0
LINE
  5
4B6
330
2
100
AcDbEntity
  8
画層1
  6
DASHED2
 62
     0
100
AcDbLine
 10
386.35
 20
378.2
 30
0.0
 11
386.35
 21
372.1999999999999
 31
0.0
  0
LINE
  5
4B7
330
2
100
AcDbEntity
  8
画層1
  6
DASHED2
 62
     0
100
AcDbLine
 10
392.5499999999999
 20
375.9399999999999
 30
0.0
 11
392.5499999999999
 21
374.44
 31
0.0
  0
LINE
  5
4B8
330
2
100
AcDbEntity
  8
画層1
  6
DASHED2
 62
     0
100
AcDbLine
 10
398.15
 20
373.4399999999999
 30
0.0
 11
396.15
 21
373.4399999999999
 31
0.0
  0
ARC
  5
4B9
330
2
100
AcDbEntity
  8
画層1
  6
DASHED2
 62
     0
100
AcDbCircle
 10
396.15
 20
372.44
 30
0.0
 40
1.0
100
AcDbArc
 50
90.0
 51
180.0
  0
LINE
  5
4BA
330
2
100
AcDbEntity
  8
画層1
  6
DASHED2
 62
     0
100
AcDbLine
 10
395.1499999999999
 20
381.9399999999999
 30
0.0
 11
395.1499999999999
 21
377.9399999999999
 31
0.0
  0
LINE
  5
4BB
330
2
100
AcDbEntity
  8
画層1
  6
DASHED2
 62
     0
100
AcDbLine
 10
397.35
 20
382.94
 30
0.0
 11
397.35
 21
376.94
 31
0.0
  0
ARC
  5
4BC
330
2
100
AcDbEntity
  8
画層1
  6
DASHED2
 62
     0
100
AcDbCircle
 10
396.15
 20
377.9399999999999
 30
0.0
 40
1.0
100
AcDbArc
 50
180.0
 51
270.0
  0
LINE
  5
4BD
330
2
100
AcDbEntity
  8
画層1
  6
DASHED2
 62
     0
100
AcDbLine
 10
398.15
 20
376.94
 30
0.0
 11
396.15
 21
376.94
 31
0.0
  0
ARC
  5
4BE
330
2
100
AcDbEntity
  8
画層1
  6
DASHED2
 62
     0
100
AcDbCircle
 10
396.15
 20
381.9399999999999
 30
0.0
 40
1.0
100
AcDbArc
 50
90.0
 51
180.0
  0
LINE
  5
4BF
330
2
100
AcDbEntity
  8
画層1
  6
DASHED2
 62
     0
100
AcDbLine
 10
398.15
 20
382.94
 30
0.0
 11
396.15
 21
382.94
 31
0.0
  0
LINE
  5
4C0
330
2
100
AcDbEntity
  8
画層1
  6
DASHED2
 62
     0
100
AcDbLine
 10
378.1499999999999
 20
388.7
 30
0.0
 11
399.35
 21
388.7
 31
0.0
  0
LINE
  5
4C1
330
2
100
AcDbEntity
  8
画層1
  6
DASHED2
 62
     0
100
AcDbLine
 10
387.1499999999999
 20
387.6999999999999
 30
0.0
 11
385.1499999999999
 21
387.6999999999999
 31
0.0
  0
ARC
  5
4C2
330
2
100
AcDbEntity
  8
画層1
 62
     0
100
AcDbCircle
 10
378.41
 20
394.8199999999999
 30
0.0
 40
1.25
100
AcDbArc
 50
101.54
 51
258.46
  0
LINE
  5
4C3
330
2
100
AcDbEntity
  8
画層1
 62
     0
100
AcDbLine
 10
377.05
 20
388.7
 30
0.0
 11
378.1499999999999
 21
388.7
 31
0.0
  0
LINE
  5
4C4
330
2
100
AcDbEntity
  8
画層1
 62
     0
100
AcDbLine
 10
377.05
 20
390.8199999999999
 30
0.0
 11
378.1499999999999
 21
390.8199999999999
 31
0.0
  0
ARC
  5
4C5
330
2
100
AcDbEntity
  8
画層1
 62
     0
100
AcDbCircle
 10
378.41
 20
384.8199999999999
 30
0.0
 40
1.25
100
AcDbArc
 50
101.54
 51
258.46
  0
LINE
  5
4C6
330
2
100
AcDbEntity
  8
画層1
 62
     0
100
AcDbLine
 10
377.05
 20
390.8199999999999
 30
0.0
 11
377.05
 21
388.7
 31
0.0
  0
ARC
  5
4C7
330
2
100
AcDbEntity
  8
画層1
  6
DASHED2
 62
     0
100
AcDbCircle
 10
385.1499999999999
 20
386.6999999999999
 30
0.0
 40
1.0
100
AcDbArc
 50
90.0
 51
180.0
  0
LINE
  5
4C8
330
2
100
AcDbEntity
  8
画層1
  6
DASHED2
 62
     0
100
AcDbLine
 10
399.35
 20
385.44
 30
0.0
 11
392.5499999999999
 21
385.44
 31
0.0
  0
LINE
  5
4C9
330
2
100
AcDbEntity
  8
画層1
  6
DASHED2
 62
     0
100
AcDbLine
 10
392.5499999999999
 20
383.9399999999999
 30
0.0
 11
399.35
 21
383.9399999999999
 31
0.0
  0
LINE
  5
4CA
330
2
100
AcDbEntity
  8
画層1
  6
DASHED2
 62
     0
100
AcDbLine
 10
392.5499999999999
 20
388.7
 30
0.0
 11
392.5499999999999
 21
383.9399999999999
 31
0.0
  0
LINE
  5
4CB
330
2
100
AcDbEntity
  8
画層1
  6
DASHED2
 62
     0
100
AcDbLine
 10
399.35
 20
388.7
 30
0.0
 11
399.35
 21
385.44
 31
0.0
  0
LINE
  5
4CC
330
2
100
AcDbEntity
  8
画層1
 62
     0
100
AcDbLine
 10
378.1499999999999
 20
416.3199999999999
 30
0.0
 11
418.35
 21
416.3199999999999
 31
0.0
  0
LINE
  5
4CD
330
2
100
AcDbEntity
  8
画層1
 62
     0
100
AcDbLine
 10
418.35
 20
427.32
 30
0.0
 11
379.35
 21
427.32
 31
0.0
  0
LINE
  5
4CE
330
2
100
AcDbEntity
  8
画層1
 62
     0
100
AcDbLine
 10
418.35
 20
427.32
 30
0.0
 11
379.35
 21
427.32
 31
0.0
  0
LINE
  5
4CF
330
2
100
AcDbEntity
  8
画層1
 62
     0
100
AcDbLine
 10
377.7499999999999
 20
418.02
 30
0.0
 11
377.35
 21
419.22
 31
0.0
  0
LINE
  5
4D0
330
2
100
AcDbEntity
  8
画層1
 62
     0
100
AcDbLine
 10
379.35
 20
427.82
 30
0.0
 11
379.35
 21
416.3199999999999
 31
0.0
  0
LINE
  5
4D1
330
2
100
AcDbEntity
  8
画層1
 62
     0
100
AcDbLine
 10
378.1499999999999
 20
418.02
 30
0.0
 11
377.7499999999999
 21
418.02
 31
0.0
  0
LINE
  5
4D2
330
2
100
AcDbEntity
  8
画層1
 62
     0
100
AcDbLine
 10
377.35
 20
424.42
 30
0.0
 11
377.7499999999999
 21
425.6199999999999
 31
0.0
  0
LINE
  5
4D3
330
2
100
AcDbEntity
  8
画層1
 62
     0
100
AcDbLine
 10
377.35
 20
419.22
 30
0.0
 11
377.35
 21
424.42
 31
0.0
  0
LINE
  5
4D4
330
2
100
AcDbEntity
  8
画層1
 62
     0
100
AcDbLine
 10
375.95
 20
421.4199999999999
 30
0.0
 11
375.35
 21
421.4199999999999
 31
0.0
  0
LINE
  5
4D5
330
2
100
AcDbEntity
  8
画層1
 62
     0
100
AcDbLine
 10
375.35
 20
422.2199999999999
 30
0.0
 11
375.95
 21
422.2199999999999
 31
0.0
  0
ARC
  5
4D6
330
2
100
AcDbEntity
  8
画層1
 62
     0
100
AcDbCircle
 10
376.35
 20
420.22
 30
0.0
 40
1.0
100
AcDbArc
 50
180.0
 51
270.0
  0
ARC
  5
4D7
330
2
100
AcDbEntity
  8
画層1
 62
     0
100
AcDbCircle
 10
376.35
 20
423.42
 30
0.0
 40
1.0
100
AcDbArc
 50
90.0
 51
180.0
  0
LINE
  5
4D8
330
2
100
AcDbEntity
  8
画層1
 62
     0
100
AcDbLine
 10
375.35
 20
420.22
 30
0.0
 11
375.35
 21
423.42
 31
0.0
  0
LINE
  5
4D9
330
2
100
AcDbEntity
  8
画層1
 62
     0
100
AcDbLine
 10
375.95
 20
422.2199999999999
 30
0.0
 11
375.95
 21
421.4199999999999
 31
0.0
  0
LINE
  5
4DA
330
2
100
AcDbEntity
  8
画層1
 62
     0
100
AcDbLine
 10
376.35
 20
424.42
 30
0.0
 11
377.35
 21
424.42
 31
0.0
  0
LINE
  5
4DB
330
2
100
AcDbEntity
  8
画層1
 62
     0
100
AcDbLine
 10
377.35
 20
419.22
 30
0.0
 11
376.35
 21
419.22
 31
0.0
  0
LINE
  5
4DC
330
2
100
AcDbEntity
  8
画層1
 62
     0
100
AcDbLine
 10
378.1499999999999
 20
427.82
 30
0.0
 11
379.35
 21
427.82
 31
0.0
  0
LINE
  5
4DD
330
2
100
AcDbEntity
  8
画層1
 62
     0
100
AcDbLine
 10
377.7499999999999
 20
425.6199999999999
 30
0.0
 11
378.1499999999999
 21
425.6199999999999
 31
0.0
  0
LINE
  5
4DE
330
2
100
AcDbEntity
  8
画層1
 62
     0
100
AcDbLine
 10
418.35
 20
415.8199999999999
 30
0.0
 11
422.35
 21
415.8199999999999
 31
0.0
  0
LINE
  5
4DF
330
2
100
AcDbEntity
  8
画層1
 62
     0
100
AcDbLine
 10
415.1499999999999
 20
419.8599999999999
 30
0.0
 11
415.1499999999999
 21
416.3199999999999
 31
0.0
  0
LINE
  5
4E0
330
2
100
AcDbEntity
  8
画層1
 62
     0
100
AcDbLine
 10
418.35
 20
427.82
 30
0.0
 11
418.35
 21
415.8199999999999
 31
0.0
  0
LINE
  5
4E1
330
2
100
AcDbEntity
  8
画層1
 62
     0
100
AcDbLine
 10
417.1499999999999
 20
427.32
 30
0.0
 11
417.1499999999999
 21
416.3199999999999
 31
0.0
  0
ARC
  5
4E2
330
2
100
AcDbEntity
  8
画層1
 62
     0
100
AcDbCircle
 10
418.7699999999999
 20
421.82
 30
0.0
 40
4.111538461538548
100
AcDbArc
 50
133.1399999999999
 51
226.86
  0
LINE
  5
4E3
330
2
100
AcDbEntity
  8
画層1
 62
     0
100
AcDbLine
 10
415.9499999999999
 20
424.8199999999999
 30
0.0
 11
417.1499999999999
 21
424.8199999999999
 31
0.0
  0
LINE
  5
4E4
330
2
100
AcDbEntity
  8
画層1
 62
     0
100
AcDbLine
 10
415.9499999999999
 20
418.82
 30
0.0
 11
417.1499999999999
 21
418.82
 31
0.0
  0
LINE
  5
4E5
330
2
100
AcDbEntity
  8
画層1
 62
     0
100
AcDbLine
 10
415.9499999999999
 20
424.8199999999999
 30
0.0
 11
415.9499999999999
 21
418.82
 31
0.0
  0
LINE
  5
4E6
330
2
100
AcDbEntity
  8
画層1
 62
     0
100
AcDbLine
 10
415.1499999999999
 20
427.32
 30
0.0
 11
415.1499999999999
 21
423.78
 31
0.0
  0
LINE
  5
4E7
330
2
100
AcDbEntity
  8
画層1
 62
     0
100
AcDbLine
 10
431.35
 20
420.3199999999999
 30
0.0
 11
431.35
 21
420.0199999999999
 31
0.0
  0
ARC
  5
4E8
330
2
100
AcDbEntity
  8
画層1
 62
     0
100
AcDbCircle
 10
432.35
 20
420.3199999999999
 30
0.0
 40
1.0
100
AcDbArc
 50
90.0
 51
180.0
  0
LINE
  5
4E9
330
2
100
AcDbEntity
  8
画層1
 62
     0
100
AcDbLine
 10
431.35
 20
423.62
 30
0.0
 11
431.35
 21
423.32
 31
0.0
  0
ARC
  5
4EA
330
2
100
AcDbEntity
  8
画層1
 62
     0
100
AcDbCircle
 10
432.35
 20
423.32
 30
0.0
 40
1.0
100
AcDbArc
 50
180.0
 51
270.0
  0
LINE
  5
4EB
330
2
100
AcDbEntity
  8
画層1
 62
     0
100
AcDbLine
 10
432.65
 20
421.3199999999999
 30
0.0
 11
432.65
 21
422.32
 31
0.0
  0
LINE
  5
4EC
330
2
100
AcDbEntity
  8
画層1
 62
     0
100
AcDbLine
 10
432.35
 20
422.32
 30
0.0
 11
432.65
 21
422.32
 31
0.0
  0
LINE
  5
4ED
330
2
100
AcDbEntity
  8
画層1
 62
     0
100
AcDbLine
 10
432.65
 20
421.3199999999999
 30
0.0
 11
432.35
 21
421.3199999999999
 31
0.0
  0
LINE
  5
4EE
330
2
100
AcDbEntity
  8
画層1
 62
     0
100
AcDbLine
 10
430.35
 20
420.0199999999999
 30
0.0
 11
430.35
 21
420.3199999999999
 31
0.0
  0
LINE
  5
4EF
330
2
100
AcDbEntity
  8
画層1
 62
     0
100
AcDbLine
 10
430.35
 20
423.32
 30
0.0
 11
430.35
 21
423.62
 31
0.0
  0
LINE
  5
4F0
330
2
100
AcDbEntity
  8
画層1
 62
     0
100
AcDbLine
 10
430.35
 20
420.0199999999999
 30
0.0
 11
431.35
 21
420.0199999999999
 31
0.0
  0
LINE
  5
4F1
330
2
100
AcDbEntity
  8
画層1
 62
     0
100
AcDbLine
 10
430.35
 20
423.62
 30
0.0
 11
431.35
 21
423.62
 31
0.0
  0
LINE
  5
4F2
330
2
100
AcDbEntity
  8
画層1
 62
     0
100
AcDbLine
 10
429.05
 20
421.3199999999999
 30
0.0
 11
429.05
 21
422.32
 31
0.0
  0
LINE
  5
4F3
330
2
100
AcDbEntity
  8
画層1
 62
     0
100
AcDbLine
 10
429.35
 20
421.3199999999999
 30
0.0
 11
429.05
 21
421.3199999999999
 31
0.0
  0
LINE
  5
4F4
330
2
100
AcDbEntity
  8
画層1
 62
     0
100
AcDbLine
 10
429.05
 20
422.32
 30
0.0
 11
429.35
 21
422.32
 31
0.0
  0
CIRCLE
  5
4F5
330
2
100
AcDbEntity
  8
画層1
 62
     0
100
AcDbCircle
 10
430.85
 20
421.82
 30
0.0
 40
3.0
  0
ARC
  5
4F6
330
2
100
AcDbEntity
  8
画層1
 62
     0
100
AcDbCircle
 10
429.35
 20
420.3199999999999
 30
0.0
 40
1.0
100
AcDbArc
 50
0.0
 51
90.0
  0
ARC
  5
4F7
330
2
100
AcDbEntity
  8
画層1
 62
     0
100
AcDbCircle
 10
429.35
 20
423.32
 30
0.0
 40
1.0
100
AcDbArc
 50
270.0
 51
0.0
  0
CIRCLE
  5
4F8
330
2
100
AcDbEntity
  8
画層1
 62
     0
100
AcDbCircle
 10
508.3499999999999
 20
402.82
 30
0.0
 40
3.0
  0
ARC
  5
4F9
330
2
100
AcDbEntity
  8
画層1
 62
     0
100
AcDbCircle
 10
509.85
 20
401.32
 30
0.0
 40
1.0
100
AcDbArc
 50
90.0
 51
180.0
  0
ARC
  5
4FA
330
2
100
AcDbEntity
  8
画層1
 62
     0
100
AcDbCircle
 10
509.85
 20
404.3199999999999
 30
0.0
 40
1.0
100
AcDbArc
 50
180.0
 51
270.0
  0
LINE
  5
4FB
330
2
100
AcDbEntity
  8
画層1
 62
     0
100
AcDbLine
 10
507.85
 20
401.02
 30
0.0
 11
508.85
 21
401.02
 31
0.0
  0
LINE
  5
4FC
330
2
100
AcDbEntity
  8
画層1
 62
     0
100
AcDbLine
 10
507.85
 20
404.6199999999999
 30
0.0
 11
508.85
 21
404.6199999999999
 31
0.0
  0
LINE
  5
4FD
330
2
100
AcDbEntity
  8
画層1
 62
     0
100
AcDbLine
 10
507.85
 20
401.02
 30
0.0
 11
507.85
 21
401.32
 31
0.0
  0
LINE
  5
4FE
330
2
100
AcDbEntity
  8
画層1
 62
     0
100
AcDbLine
 10
507.85
 20
404.3199999999999
 30
0.0
 11
507.85
 21
404.6199999999999
 31
0.0
  0
LINE
  5
4FF
330
2
100
AcDbEntity
  8
画層1
 62
     0
100
AcDbLine
 10
506.55
 20
402.32
 30
0.0
 11
506.55
 21
403.3199999999999
 31
0.0
  0
LINE
  5
500
330
2
100
AcDbEntity
  8
画層1
 62
     0
100
AcDbLine
 10
506.85
 20
402.32
 30
0.0
 11
506.55
 21
402.32
 31
0.0
  0
LINE
  5
501
330
2
100
AcDbEntity
  8
画層1
 62
     0
100
AcDbLine
 10
506.55
 20
403.3199999999999
 30
0.0
 11
506.85
 21
403.3199999999999
 31
0.0
  0
ARC
  5
502
330
2
100
AcDbEntity
  8
画層1
 62
     0
100
AcDbCircle
 10
506.85
 20
401.32
 30
0.0
 40
1.0
100
AcDbArc
 50
0.0
 51
90.0
  0
ARC
  5
503
330
2
100
AcDbEntity
  8
画層1
 62
     0
100
AcDbCircle
 10
506.85
 20
404.3199999999999
 30
0.0
 40
1.0
100
AcDbArc
 50
270.0
 51
0.0
  0
LINE
  5
504
330
2
100
AcDbEntity
  8
画層1
 62
     0
100
AcDbLine
 10
508.85
 20
401.32
 30
0.0
 11
508.85
 21
401.02
 31
0.0
  0
LINE
  5
505
330
2
100
AcDbEntity
  8
画層1
 62
     0
100
AcDbLine
 10
508.85
 20
404.6199999999999
 30
0.0
 11
508.85
 21
404.3199999999999
 31
0.0
  0
LINE
  5
506
330
2
100
AcDbEntity
  8
画層1
 62
     0
100
AcDbLine
 10
510.1499999999999
 20
402.32
 30
0.0
 11
510.1499999999999
 21
403.3199999999999
 31
0.0
  0
LINE
  5
507
330
2
100
AcDbEntity
  8
画層1
 62
     0
100
AcDbLine
 10
509.85
 20
403.3199999999999
 30
0.0
 11
510.1499999999999
 21
403.3199999999999
 31
0.0
  0
LINE
  5
508
330
2
100
AcDbEntity
  8
画層1
 62
     0
100
AcDbLine
 10
510.1499999999999
 20
402.32
 30
0.0
 11
509.85
 21
402.32
 31
0.0
  0
LINE
  5
509
330
2
100
AcDbEntity
  8
画層1
  6
CENTER
 62
     0
100
AcDbLine
 10
529.75
 20
431.82
 30
0.0
 11
539.35
 21
431.82
 31
0.0
  0
CIRCLE
  5
50A
330
2
100
AcDbEntity
  8
画層1
 62
     0
100
AcDbCircle
 10
470.8499999999999
 20
421.82
 30
0.0
 40
3.0
  0
ARC
  5
50B
330
2
100
AcDbEntity
  8
画層1
 62
     0
100
AcDbCircle
 10
469.35
 20
423.32
 30
0.0
 40
1.0
100
AcDbArc
 50
270.0
 51
0.0
  0
ARC
  5
50C
330
2
100
AcDbEntity
  8
画層1
 62
     0
100
AcDbCircle
 10
469.35
 20
420.3199999999999
 30
0.0
 40
1.0
100
AcDbArc
 50
0.0
 51
90.0
  0
LINE
  5
50D
330
2
100
AcDbEntity
  8
画層1
 62
     0
100
AcDbLine
 10
469.05
 20
422.32
 30
0.0
 11
469.35
 21
422.32
 31
0.0
  0
LINE
  5
50E
330
2
100
AcDbEntity
  8
画層1
 62
     0
100
AcDbLine
 10
469.35
 20
421.3199999999999
 30
0.0
 11
469.05
 21
421.3199999999999
 31
0.0
  0
LINE
  5
50F
330
2
100
AcDbEntity
  8
画層1
 62
     0
100
AcDbLine
 10
469.05
 20
421.3199999999999
 30
0.0
 11
469.05
 21
422.32
 31
0.0
  0
LINE
  5
510
330
2
100
AcDbEntity
  8
画層1
 62
     0
100
AcDbLine
 10
470.35
 20
423.62
 30
0.0
 11
471.35
 21
423.62
 31
0.0
  0
LINE
  5
511
330
2
100
AcDbEntity
  8
画層1
 62
     0
100
AcDbLine
 10
470.35
 20
420.0199999999999
 30
0.0
 11
471.35
 21
420.0199999999999
 31
0.0
  0
LINE
  5
512
330
2
100
AcDbEntity
  8
画層1
 62
     0
100
AcDbLine
 10
470.35
 20
423.32
 30
0.0
 11
470.35
 21
423.62
 31
0.0
  0
LINE
  5
513
330
2
100
AcDbEntity
  8
画層1
 62
     0
100
AcDbLine
 10
470.35
 20
420.0199999999999
 30
0.0
 11
470.35
 21
420.3199999999999
 31
0.0
  0
LINE
  5
514
330
2
100
AcDbEntity
  8
画層1
 62
     0
100
AcDbLine
 10
472.6499999999999
 20
421.3199999999999
 30
0.0
 11
472.35
 21
421.3199999999999
 31
0.0
  0
LINE
  5
515
330
2
100
AcDbEntity
  8
画層1
 62
     0
100
AcDbLine
 10
472.35
 20
422.32
 30
0.0
 11
472.6499999999999
 21
422.32
 31
0.0
  0
LINE
  5
516
330
2
100
AcDbEntity
  8
画層1
 62
     0
100
AcDbLine
 10
472.6499999999999
 20
421.3199999999999
 30
0.0
 11
472.6499999999999
 21
422.32
 31
0.0
  0
ARC
  5
517
330
2
100
AcDbEntity
  8
画層1
 62
     0
100
AcDbCircle
 10
472.35
 20
423.32
 30
0.0
 40
1.0
100
AcDbArc
 50
180.0
 51
270.0
  0
LINE
  5
518
330
2
100
AcDbEntity
  8
画層1
 62
     0
100
AcDbLine
 10
471.35
 20
423.62
 30
0.0
 11
471.35
 21
423.32
 31
0.0
  0
ARC
  5
519
330
2
100
AcDbEntity
  8
画層1
 62
     0
100
AcDbCircle
 10
472.35
 20
420.3199999999999
 30
0.0
 40
1.0
100
AcDbArc
 50
90.0
 51
180.0
  0
LINE
  5
51A
330
2
100
AcDbEntity
  8
画層1
 62
     0
100
AcDbLine
 10
471.35
 20
420.3199999999999
 30
0.0
 11
471.35
 21
420.0199999999999
 31
0.0
  0
LINE
  5
51B
330
2
100
AcDbEntity
  8
画層1
 62
     0
100
AcDbLine
 10
533.75
 20
427.82
 30
0.0
 11
533.75
 21
437.8199999999999
 31
0.0
  0
LINE
  5
51C
330
2
100
AcDbEntity
  8
画層1
 62
     0
100
AcDbLine
 10
533.75
 20
437.8199999999999
 30
0.0
 11
535.35
 21
437.8199999999999
 31
0.0
  0
ENDSEC
  0
SECTION
  2
OBJECTS
  0
DICTIONARY
  5
7
330
0
100
AcDbDictionary
281
     1
  3
ACAD_GROUP
350
26
  3
ACAD_LAYOUT
350
B
  3
ACAD_MLINESTYLE
350
27
  3
ACAD_PLOTSETTINGS
350
28
  3
ACAD_PLOTSTYLENAME
350
6
  3
AcDbVariableDictionary
350
6F2
  3
DWGPROPS
350
794
  0
DICTIONARY
  5
26
102
{ACAD_REACTORS
330
7
102
}
330
7
100
AcDbDictionary
281
     1
  0
DICTIONARY
  5
B
102
{ACAD_REACTORS
330
7
102
}
330
7
100
AcDbDictionary
281
     1
  3
Model
350
A
  3
ﾚｲｱｳﾄ1
350
F
  0
DICTIONARY
  5
27
102
{ACAD_REACTORS
330
7
102
}
330
7
100
AcDbDictionary
281
     1
  3
STANDARD
350
31
  0
DICTIONARY
  5
28
102
{ACAD_REACTORS
330
7
102
}
330
7
100
AcDbDictionary
281
     1
  0
ACDBDICTIONARYWDFLT
  5
6
102
{ACAD_REACTORS
330
7
102
}
330
7
100
AcDbDictionary
281
     1
  3
Normal
350
5
100
AcDbDictionaryWithDefault
340
5
  0
DICTIONARY
  5
6F2
102
{ACAD_REACTORS
330
7
102
}
330
7
100
AcDbDictionary
281
     1
  3
INDEXCTL
350
6F3
  0
XRECORD
  5
794
102
{ACAD_REACTORS
330
7
102
}
330
7
100
AcDbXrecord
280
     1
  1
DWGPROPS COOKIE
  2

  3

  4

  6

  7

  8

  9

300
=
301
=
302
=
303
=
304
=
305
=
306
=
307
=
308
=
309
=
 40
4.160485416666666
 41
2450995.462150231
 42
2451964.720784491
  1

 90
        0
  0
LAYOUT
  5
A
102
{ACAD_REACTORS
330
B
102
}
330
B
100
AcDbPlotSettings
  1

  2
Canon LBP-740
  4
A3
  6

 40
5.87
 41
6.04
 42
5.87
 43
5.87
 44
296.93
 45
420.12
 46
0.0
 47
0.0
 48
0.0
 49
0.0
140
0.0
141
0.0
142
1.0
143
1.0
 70
 11952
 72
     1
 73
     1
 74
     1
  7
SHIMADEN.ctb
 75
    16
147
1.0
148
0.02
149
0.0
100
AcDbLayout
  1
Model
 70
     1
 71
     0
 10
0.0
 20
0.0
 11
12.0
 21
9.0
 12
0.0
 22
0.0
 32
0.0
 14
0.0
 24
0.0
 34
0.0
 15
0.0
 25
0.0
 35
0.0
146
0.0
 13
0.0
 23
0.0
 33
0.0
 16
1.0
 26
0.0
 36
0.0
 17
0.0
 27
1.0
 37
0.0
 76
     0
330
2
  0
LAYOUT
  5
F
102
{ACAD_REACTORS
330
B
102
}
330
B
100
AcDbPlotSettings
  1

  2
Canon LASER SHOT LBP-740
  4

  6

 40
0.0
 41
0.0
 42
0.0
 43
0.0
 44
0.0
 45
0.0
 46
0.0
 47
0.0
 48
0.0
 49
0.0
140
0.0
141
0.0
142
1.0
143
1.0
 70
   688
 72
     0
 73
     0
 74
     5
  7
SHIMADEN.ctb
 75
    16
147
1.0
148
0.0
149
0.0
100
AcDbLayout
  1
ﾚｲｱｳﾄ1
 70
     1
 71
     1
 10
0.0
 20
0.0
 11
420.0
 21
297.0
 12
0.0
 22
0.0
 32
0.0
 14
1.000000000000000E+20
 24
1.000000000000000E+20
 34
1.000000000000000E+20
 15
-1.000000000000000E+20
 25
-1.000000000000000E+20
 35
-1.000000000000000E+20
146
0.0
 13
0.0
 23
0.0
 33
0.0
 16
1.0
 26
0.0
 36
0.0
 17
0.0
 27
1.0
 37
0.0
 76
     0
330
C
  0
MLINESTYLE
  5
31
102
{ACAD_REACTORS
330
27
102
}
330
27
100
AcDbMlineStyle
  2
STANDARD
 70
     0
  3

 62
   256
 51
90.0
 52
90.0
 71
     2
 49
0.5
 62
   256
  6
BYLAYER
 49
-0.5
 62
   256
  6
BYLAYER
  0
ACDBPLACEHOLDER
  5
5
102
{ACAD_REACTORS
330
6
102
}
330
6
  0
DICTIONARYVAR
  5
6F3
102
{ACAD_REACTORS
330
6F2
102
}
330
6F2
100
DictionaryVariables
280
     0
  1
-1
  0
ENDSEC
  0
EOF
