  0
SECTION
  2
HEADER
  9
$ACADVER
  1
AC1015
  9
$ACADMAINTVER
 70
     6
  9
$DWGCODEPAGE
  3
ANSI_932
  9
$INSBASE
 10
0.0
 20
0.0
 30
0.0
  9
$EXTMIN
 10
45.64999999999999
 20
120.49
 30
0.0
  9
$EXTMAX
 10
522.09
 20
431.1618781725888
 30
0.0
  9
$LIMMIN
 10
0.0
 20
0.0
  9
$LIMMAX
 10
420.0
 20
297.0
  9
$ORTHOMODE
 70
     0
  9
$REGENMODE
 70
     1
  9
$FILLMODE
 70
     1
  9
$QTEXTMODE
 70
     0
  9
$MIRRTEXT
 70
     1
  9
$LTSCALE
 40
0.2
  9
$ATTMODE
 70
     1
  9
$TEXTSIZE
 40
2.5
  9
$TRACEWID
 40
1.0
  9
$TEXTSTYLE
  7
STYLE1
  9
$CLAYER
  8
画層1
  9
$CELTYPE
  6
BYLAYER
  9
$CECOLOR
 62
     0
  9
$CELTSCALE
 40
1.0
  9
$DISPSILH
 70
     0
  9
$DIMSCALE
 40
1.0
  9
$DIMASZ
 40
1.5
  9
$DIMEXO
 40
0.63
  9
$DIMDLI
 40
3.75
  9
$DIMRND
 40
0.0
  9
$DIMDLE
 40
0.0
  9
$DIMEXE
 40
1.25
  9
$DIMTP
 40
0.6
  9
$DIMTM
 40
0.0
  9
$DIMTXT
 40
2.5
  9
$DIMCEN
 40
2.5
  9
$DIMTSZ
 40
0.0
  9
$DIMTOL
 70
     0
  9
$DIMLIM
 70
     0
  9
$DIMTIH
 70
     0
  9
$DIMTOH
 70
     0
  9
$DIMSE1
 70
     0
  9
$DIMSE2
 70
     0
  9
$DIMTAD
 70
     1
  9
$DIMZIN
 70
     8
  9
$DIMBLK
  1
OPEN30
  9
$DIMASO
 70
     1
  9
$DIMSHO
 70
     1
  9
$DIMPOST
  1

  9
$DIMAPOST
  1

  9
$DIMALT
 70
     0
  9
$DIMALTD
 70
     4
  9
$DIMALTF
 40
0.04
  9
$DIMLFAC
 40
2.0
  9
$DIMTOFL
 70
     1
  9
$DIMTVP
 40
0.0
  9
$DIMTIX
 70
     0
  9
$DIMSOXD
 70
     0
  9
$DIMSAH
 70
     0
  9
$DIMBLK1
  1
OPEN30
  9
$DIMBLK2
  1
OPEN
  9
$DIMSTYLE
  2
STANDARD_WS
  9
$DIMCLRD
 70
     0
  9
$DIMCLRE
 70
     0
  9
$DIMCLRT
 70
     0
  9
$DIMTFAC
 40
0.5
  9
$DIMGAP
 40
0.63
  9
$DIMJUST
 70
     0
  9
$DIMSD1
 70
     0
  9
$DIMSD2
 70
     0
  9
$DIMTOLJ
 70
     1
  9
$DIMTZIN
 70
     8
  9
$DIMALTZ
 70
     0
  9
$DIMALTTZ
 70
     0
  9
$DIMUPT
 70
     0
  9
$DIMDEC
 70
     4
  9
$DIMTDEC
 70
     4
  9
$DIMALTU
 70
     8
  9
$DIMALTTD
 70
     4
  9
$DIMTXSTY
  7
STYLE1
  9
$DIMAUNIT
 70
     0
  9
$DIMADEC
 70
     0
  9
$DIMALTRND
 40
0.0
  9
$DIMAZIN
 70
     0
  9
$DIMDSEP
 70
    46
  9
$DIMATFIT
 70
     3
  9
$DIMFRAC
 70
     0
  9
$DIMLDRBLK
  1
OPEN30
  9
$DIMLUNIT
 70
     2
  9
$DIMLWD
 70
    -2
  9
$DIMLWE
 70
    -2
  9
$DIMTMOVE
 70
     0
  9
$LUNITS
 70
     2
  9
$LUPREC
 70
     4
  9
$SKETCHINC
 40
1.0
  9
$FILLETRAD
 40
0.8
  9
$AUNITS
 70
     0
  9
$AUPREC
 70
     0
  9
$MENU
  1
acad
  9
$ELEVATION
 40
0.0
  9
$PELEVATION
 40
0.0
  9
$THICKNESS
 40
0.0
  9
$LIMCHECK
 70
     0
  9
$CHAMFERA
 40
10.0
  9
$CHAMFERB
 40
10.0
  9
$CHAMFERC
 40
20.0
  9
$CHAMFERD
 40
0.0
  9
$SKPOLY
 70
     0
  9
$TDCREATE
 40
2450995.462150231
  9
$TDUCREATE
 40
2450995.087150231
  9
$TDUPDATE
 40
2451964.719684722
  9
$TDUUPDATE
 40
2451964.344684722
  9
$TDINDWG
 40
3.5232457176
  9
$TDUSRTIMER
 40
3.5232418981
  9
$USRTIMER
 70
     1
  9
$ANGBASE
 50
0.0
  9
$ANGDIR
 70
     0
  9
$PDMODE
 70
     0
  9
$PDSIZE
 40
0.0
  9
$PLINEWID
 40
10.0
  9
$SPLFRAME
 70
     0
  9
$SPLINETYPE
 70
     6
  9
$SPLINESEGS
 70
     8
  9
$HANDSEED
  5
61A
  9
$SURFTAB1
 70
     6
  9
$SURFTAB2
 70
     6
  9
$SURFTYPE
 70
     6
  9
$SURFU
 70
     6
  9
$SURFV
 70
     6
  9
$UCSBASE
  2

  9
$UCSNAME
  2

  9
$UCSORG
 10
0.0
 20
0.0
 30
0.0
  9
$UCSXDIR
 10
1.0
 20
0.0
 30
0.0
  9
$UCSYDIR
 10
0.0
 20
1.0
 30
0.0
  9
$UCSORTHOREF
  2

  9
$UCSORTHOVIEW
 70
     0
  9
$UCSORGTOP
 10
0.0
 20
0.0
 30
0.0
  9
$UCSORGBOTTOM
 10
0.0
 20
0.0
 30
0.0
  9
$UCSORGLEFT
 10
0.0
 20
0.0
 30
0.0
  9
$UCSORGRIGHT
 10
0.0
 20
0.0
 30
0.0
  9
$UCSORGFRONT
 10
0.0
 20
0.0
 30
0.0
  9
$UCSORGBACK
 10
0.0
 20
0.0
 30
0.0
  9
$PUCSBASE
  2

  9
$PUCSNAME
  2

  9
$PUCSORG
 10
0.0
 20
0.0
 30
0.0
  9
$PUCSXDIR
 10
1.0
 20
0.0
 30
0.0
  9
$PUCSYDIR
 10
0.0
 20
1.0
 30
0.0
  9
$PUCSORTHOREF
  2

  9
$PUCSORTHOVIEW
 70
     0
  9
$PUCSORGTOP
 10
0.0
 20
0.0
 30
0.0
  9
$PUCSORGBOTTOM
 10
0.0
 20
0.0
 30
0.0
  9
$PUCSORGLEFT
 10
0.0
 20
0.0
 30
0.0
  9
$PUCSORGRIGHT
 10
0.0
 20
0.0
 30
0.0
  9
$PUCSORGFRONT
 10
0.0
 20
0.0
 30
0.0
  9
$PUCSORGBACK
 10
0.0
 20
0.0
 30
0.0
  9
$USERI1
 70
     0
  9
$USERI2
 70
     0
  9
$USERI3
 70
     0
  9
$USERI4
 70
     0
  9
$USERI5
 70
     0
  9
$USERR1
 40
0.0
  9
$USERR2
 40
0.0
  9
$USERR3
 40
0.0
  9
$USERR4
 40
0.0
  9
$USERR5
 40
0.0
  9
$WORLDVIEW
 70
     1
  9
$SHADEDGE
 70
     3
  9
$SHADEDIF
 70
    70
  9
$TILEMODE
 70
     1
  9
$MAXACTVP
 70
    48
  9
$PINSBASE
 10
0.0
 20
0.0
 30
0.0
  9
$PLIMCHECK
 70
     0
  9
$PEXTMIN
 10
1.000000000000000E+20
 20
1.000000000000000E+20
 30
1.000000000000000E+20
  9
$PEXTMAX
 10
-1.000000000000000E+20
 20
-1.000000000000000E+20
 30
-1.000000000000000E+20
  9
$PLIMMIN
 10
0.0
 20
0.0
  9
$PLIMMAX
 10
420.0
 20
297.0
  9
$UNITMODE
 70
     0
  9
$VISRETAIN
 70
     1
  9
$PLINEGEN
 70
     0
  9
$PSLTSCALE
 70
     1
  9
$TREEDEPTH
 70
  3020
  9
$CMLSTYLE
  2
STANDARD
  9
$CMLJUST
 70
     0
  9
$CMLSCALE
 40
20.0
  9
$PROXYGRAPHICS
 70
     1
  9
$MEASUREMENT
 70
     1
  9
$CELWEIGHT
370
    -1
  9
$ENDCAPS
280
     0
  9
$JOINSTYLE
280
     0
  9
$LWDISPLAY
290
     0
  9
$INSUNITS
 70
     0
  9
$HYPERLINKBASE
  1

  9
$STYLESHEET
  1

  9
$XEDIT
290
     1
  9
$CEPSNTYPE
380
     0
  9
$PSTYLEMODE
290
     1
  9
$FINGERPRINTGUID
  2
{12426522-B208-11D3-A790-004026173390}
  9
$VERSIONGUID
  2
{45B34142-09AF-11D5-8D55-0060949B1DAC}
  9
$EXTNAMES
290
     1
  9
$PSVPSCALE
 40
0.0
  9
$OLESTARTUP
290
     0
  0
ENDSEC
  0
SECTION
  2
CLASSES
  0
CLASS
  1
DICTIONARYVAR
  2
AcDbDictionaryVar
  3
AutoCAD 2000
 90
    32768
280
     0
281
     0
  0
CLASS
  1
LWPOLYLINE
  2
AcDbPolyline
  3
AutoCAD 2000
 90
    32768
280
     0
281
     1
  0
CLASS
  1
OLE2FRAME
  2
AcDbOle2Frame
  3
AutoCAD 2000
 90
    32768
280
     0
281
     1
  0
CLASS
  1
HATCH
  2
AcDbHatch
  3
AutoCAD 2000
 90
    32768
280
     0
281
     1
  0
CLASS
  1
ACDBDICTIONARYWDFLT
  2
AcDbDictionaryWithDefault
  3
AutoCAD 2000
 90
        0
280
     0
281
     0
  0
CLASS
  1
ACDBPLACEHOLDER
  2
AcDbPlaceHolder
  3
AutoCAD 2000
 90
        0
280
     0
281
     0
  0
CLASS
  1
LAYOUT
  2
AcDbLayout
  3
AutoCAD 2000
 90
        0
280
     0
281
     0
  0
CLASS
  1
LONG_TRANSACTION
  2
AcDbLongTransaction
  3
AutoCAD 2000
 90
    32768
280
     0
281
     0
  0
CLASS
  1
LWPOLYLINE
  2
AcDbPolyline
  3
AutoCAD 2000
 90
    32768
280
     0
281
     1
  0
CLASS
  1
HATCH
  2
AcDbHatch
  3
AutoCAD 2000
 90
    32768
280
     0
281
     1
  0
CLASS
  1
XRECORD
  2
AcDbXrecord
  3
AutoCAD 2000
 90
    32768
280
     0
281
     0
  0
CLASS
  1
LONG_TRANSACTION
  2
AcDbLongTransaction
  3
AutoCAD 2000
 90
    32768
280
     0
281
     0
  0
CLASS
  1
LWPOLYLINE
  2
AcDbPolyline
  3
AutoCAD 2000
 90
    32768
280
     0
281
     1
  0
CLASS
  1
HATCH
  2
AcDbHatch
  3
AutoCAD 2000
 90
    32768
280
     0
281
     1
  0
CLASS
  1
XRECORD
  2
AcDbXrecord
  3
AutoCAD 2000
 90
    32768
280
     0
281
     0
  0
CLASS
  1
LONG_TRANSACTION
  2
AcDbLongTransaction
  3
AutoCAD 2000
 90
    32768
280
     0
281
     0
  0
CLASS
  1
LWPOLYLINE
  2
AcDbPolyline
  3
AutoCAD 2000
 90
    32768
280
     0
281
     1
  0
CLASS
  1
HATCH
  2
AcDbHatch
  3
AutoCAD 2000
 90
    32768
280
     0
281
     1
  0
CLASS
  1
XRECORD
  2
AcDbXrecord
  3
AutoCAD 2000
 90
    32768
280
     0
281
     0
  0
ENDSEC
  0
SECTION
  2
TABLES
  0
TABLE
  2
VPORT
  5
1E
330
0
100
AcDbSymbolTable
 70
     2
  0
VPORT
  5
619
330
1E
100
AcDbSymbolTableRecord
100
AcDbViewportTableRecord
  2
*Active
 70
     0
 10
0.0
 20
0.0
 11
1.0
 21
1.0
 12
275.9250665960905
 22
305.3057818834876
 13
0.0
 23
0.0
 14
1.0
 24
1.0
 15
2.0
 25
2.0
 16
0.0
 26
0.0
 36
1.0
 17
0.0
 27
0.0
 37
0.0
 40
494.3481489659445
 41
1.840236686390532
 42
50.0
 43
0.0
 44
0.0
 50
0.0
 51
0.0
 71
     0
 72
   100
 73
     1
 74
     1
 75
     0
 76
     0
 77
     0
 78
     0
281
     0
 65
     1
110
0.0
120
0.0
130
0.0
111
1.0
121
0.0
131
0.0
112
0.0
122
1.0
132
0.0
 79
     0
146
0.0
  0
ENDTAB
  0
TABLE
  2
LTYPE
  5
19
330
0
100
AcDbSymbolTable
 70
     3
  0
LTYPE
  5
1A
330
19
100
AcDbSymbolTableRecord
100
AcDbLinetypeTableRecord
  2
BYBLOCK
 70
     0
  3

 72
    65
 73
     0
 40
0.0
  0
LTYPE
  5
1B
330
19
100
AcDbSymbolTableRecord
100
AcDbLinetypeTableRecord
  2
BYLAYER
 70
     0
  3

 72
    65
 73
     0
 40
0.0
  0
LTYPE
  5
A
330
19
100
AcDbSymbolTableRecord
100
AcDbLinetypeTableRecord
  2
CONTINUOUS
 70
     0
  3
Solid line
 72
    65
 73
     0
 40
0.0
  0
LTYPE
  5
68
330
19
100
AcDbSymbolTableRecord
100
AcDbLinetypeTableRecord
  2
DASHED2
 70
     0
  3
Dashed (.5x) _ _ _ _ _ _ _ _ _ _ _ _ _ _ _ _ _
 72
    65
 73
     2
 40
9.529999999999999
 49
6.349999999999999
 74
     0
 49
-3.18
 74
     0
  0
LTYPE
  5
76
330
19
100
AcDbSymbolTableRecord
100
AcDbLinetypeTableRecord
  2
CENTER
 70
     0
  3
Center ____ _ ____ _ ____ _ ____ _ ____ _ ____
 72
    65
 73
     4
 40
50.8
 49
31.75
 74
     0
 49
-6.349999999999999
 74
     0
 49
6.349999999999999
 74
     0
 49
-6.349999999999999
 74
     0
  0
ENDTAB
  0
TABLE
  2
LAYER
  5
14
330
0
100
AcDbSymbolTable
 70
     3
  0
LAYER
  5
6
330
14
100
AcDbSymbolTableRecord
100
AcDbLayerTableRecord
  2
0
 70
     0
 62
     7
  6
CONTINUOUS
370
    -3
390
7
  0
LAYER
  5
3F
330
14
100
AcDbSymbolTableRecord
100
AcDbLayerTableRecord
  2
DEFPOINTS
 70
     0
 62
     7
  6
CONTINUOUS
290
     0
370
    -3
390
7
  0
LAYER
  5
26
330
14
100
AcDbSymbolTableRecord
100
AcDbLayerTableRecord
  2
画層1
 70
     0
 62
     7
  6
CONTINUOUS
370
    -3
390
7
  0
ENDTAB
  0
TABLE
  2
STYLE
  5
15
330
0
100
AcDbSymbolTable
 70
     2
  0
STYLE
  5
16
330
15
100
AcDbSymbolTableRecord
100
AcDbTextStyleTableRecord
  2
STANDARD
 70
     0
 40
2.5
 41
1.0
 50
0.0
 71
     0
 42
1.5
  3
MS PMincho.ttf
  4

1001
ACAD
1000
MS PMincho
1071
    32786
  0
STYLE
  5
27
330
15
100
AcDbSymbolTableRecord
100
AcDbTextStyleTableRecord
  2
STYLE1
 70
     0
 40
2.5
 41
1.0
 50
0.0
 71
     0
 42
2.5
  3
MS Gothic.ttf
  4

1001
ACAD
1000
MS Gothic
1071
    32817
  0
ENDTAB
  0
TABLE
  2
VIEW
  5
1C
330
0
100
AcDbSymbolTable
 70
     0
  0
ENDTAB
  0
TABLE
  2
UCS
  5
1D
330
0
100
AcDbSymbolTable
 70
     0
  0
ENDTAB
  0
TABLE
  2
APPID
  5
20
330
0
100
AcDbSymbolTable
 70
     1
  0
APPID
  5
17
330
20
100
AcDbSymbolTableRecord
100
AcDbRegAppTableRecord
  2
ACAD
 70
     0
  0
ENDTAB
  0
TABLE
  2
DIMSTYLE
  5
21
330
0
100
AcDbSymbolTable
 70
     1
100
AcDbDimStyleTable
 71
     0
  0
DIMSTYLE
105
35
102
{ACAD_REACTORS
330
2CB
330
2D8
330
311
330
2E5
330
36
330
113
330
CA
330
57
330
D8
330
44
330
3D2
330
3B7
330
3C4
330
388
330
2F2
102
}
330
21
100
AcDbSymbolTableRecord
100
AcDbDimStyleTableRecord
  2
STANDARD_WS
 70
     0
 41
1.5
 42
0.63
 43
3.75
 44
1.25
 73
     0
 74
     0
 77
     1
 78
     8
140
2.5
141
2.5
143
0.04
147
0.63
171
     4
172
     1
173
     1
273
     8
274
     4
340
16
341
2E
343
2E
344
2E
  0
ENDTAB
  0
TABLE
  2
BLOCK_RECORD
  5
1
330
0
100
AcDbSymbolTable
 70
    33
  0
BLOCK_RECORD
  5
2
102
{ACAD_XDICTIONARY
360
3
102
}
330
1
100
AcDbSymbolTableRecord
100
AcDbBlockTableRecord
  2
*MODEL_SPACE
340
560
  0
BLOCK_RECORD
  5
E
102
{ACAD_XDICTIONARY
360
F
102
}
330
1
100
AcDbSymbolTableRecord
100
AcDbBlockTableRecord
  2
*PAPER_SPACE
340
561
  0
BLOCK_RECORD
  5
2E
330
1
100
AcDbSymbolTableRecord
100
AcDbBlockTableRecord
  2
_OPEN
340
0
  0
BLOCK_RECORD
  5
28
330
1
100
AcDbSymbolTableRecord
100
AcDbBlockTableRecord
  2
_OPEN30
340
0
102
{BLKREFS
331
2D0
331
2D1
331
2DD
331
2DE
331
317
331
318
331
2EA
331
2EB
331
3B
331
3C
331
118
331
119
331
CF
331
D0
331
5D
331
5E
331
DD
331
DE
331
49
331
4A
331
3D7
331
3D8
331
3C9
331
3CA
331
38D
331
38E
331
2F7
331
2F8
331
3BC
331
3BD
331
556
331
557
331
569
331
56A
331
575
331
576
331
582
331
583
331
58E
331
58F
331
59A
331
59B
331
5A6
331
5A7
331
5B2
331
5B3
331
5BE
331
5BF
331
5CA
331
5CB
331
5D6
331
5D7
331
5E3
331
5E4
331
5EF
331
5F0
331
5FB
331
5FC
331
606
331
607
331
610
331
611
102
}
  0
BLOCK_RECORD
  5
121
330
1
100
AcDbSymbolTableRecord
100
AcDbBlockTableRecord
  2
_DOTSMALL
340
0
  0
BLOCK_RECORD
  5
2CC
330
1
100
AcDbSymbolTableRecord
100
AcDbBlockTableRecord
  2
*D3
340
0
  0
BLOCK_RECORD
  5
2D9
330
1
100
AcDbSymbolTableRecord
100
AcDbBlockTableRecord
  2
*D4
340
0
  0
BLOCK_RECORD
  5
312
330
1
100
AcDbSymbolTableRecord
100
AcDbBlockTableRecord
  2
*D5
340
0
  0
BLOCK_RECORD
  5
2E6
330
1
100
AcDbSymbolTableRecord
100
AcDbBlockTableRecord
  2
*D6
340
0
  0
BLOCK_RECORD
  5
37
330
1
100
AcDbSymbolTableRecord
100
AcDbBlockTableRecord
  2
*D7
340
0
  0
BLOCK_RECORD
  5
114
330
1
100
AcDbSymbolTableRecord
100
AcDbBlockTableRecord
  2
*D8
340
0
  0
BLOCK_RECORD
  5
CB
330
1
100
AcDbSymbolTableRecord
100
AcDbBlockTableRecord
  2
*D9
340
0
  0
BLOCK_RECORD
  5
58
330
1
100
AcDbSymbolTableRecord
100
AcDbBlockTableRecord
  2
*D10
340
0
  0
BLOCK_RECORD
  5
D9
330
1
100
AcDbSymbolTableRecord
100
AcDbBlockTableRecord
  2
*D11
340
0
  0
BLOCK_RECORD
  5
45
330
1
100
AcDbSymbolTableRecord
100
AcDbBlockTableRecord
  2
*D12
340
0
  0
BLOCK_RECORD
  5
3D3
330
1
100
AcDbSymbolTableRecord
100
AcDbBlockTableRecord
  2
*D13
340
0
  0
BLOCK_RECORD
  5
3C5
330
1
100
AcDbSymbolTableRecord
100
AcDbBlockTableRecord
  2
*D14
340
0
  0
BLOCK_RECORD
  5
389
330
1
100
AcDbSymbolTableRecord
100
AcDbBlockTableRecord
  2
*D15
340
0
  0
BLOCK_RECORD
  5
2F3
330
1
100
AcDbSymbolTableRecord
100
AcDbBlockTableRecord
  2
*D16
340
0
  0
BLOCK_RECORD
  5
3B8
330
1
100
AcDbSymbolTableRecord
100
AcDbBlockTableRecord
  2
*D17
340
0
  0
BLOCK_RECORD
  5
552
330
1
100
AcDbSymbolTableRecord
100
AcDbBlockTableRecord
  2
*D18
340
0
  0
BLOCK_RECORD
  5
565
330
1
100
AcDbSymbolTableRecord
100
AcDbBlockTableRecord
  2
*D19
340
0
  0
BLOCK_RECORD
  5
571
330
1
100
AcDbSymbolTableRecord
100
AcDbBlockTableRecord
  2
*D20
340
0
  0
BLOCK_RECORD
  5
57D
330
1
100
AcDbSymbolTableRecord
100
AcDbBlockTableRecord
  2
*D21
340
0
  0
BLOCK_RECORD
  5
58A
330
1
100
AcDbSymbolTableRecord
100
AcDbBlockTableRecord
  2
*D22
340
0
  0
BLOCK_RECORD
  5
596
330
1
100
AcDbSymbolTableRecord
100
AcDbBlockTableRecord
  2
*D23
340
0
  0
BLOCK_RECORD
  5
5A2
330
1
100
AcDbSymbolTableRecord
100
AcDbBlockTableRecord
  2
*D24
340
0
  0
BLOCK_RECORD
  5
5AE
330
1
100
AcDbSymbolTableRecord
100
AcDbBlockTableRecord
  2
*D25
340
0
  0
BLOCK_RECORD
  5
5BA
330
1
100
AcDbSymbolTableRecord
100
AcDbBlockTableRecord
  2
*D26
340
0
  0
BLOCK_RECORD
  5
5C6
330
1
100
AcDbSymbolTableRecord
100
AcDbBlockTableRecord
  2
*D27
340
0
  0
BLOCK_RECORD
  5
5D2
330
1
100
AcDbSymbolTableRecord
100
AcDbBlockTableRecord
  2
*D28
340
0
  0
BLOCK_RECORD
  5
5DE
330
1
100
AcDbSymbolTableRecord
100
AcDbBlockTableRecord
  2
*D29
340
0
  0
BLOCK_RECORD
  5
5EB
330
1
100
AcDbSymbolTableRecord
100
AcDbBlockTableRecord
  2
*D30
340
0
  0
BLOCK_RECORD
  5
5F7
330
1
100
AcDbSymbolTableRecord
100
AcDbBlockTableRecord
  2
*D31
340
0
  0
BLOCK_RECORD
  5
60C
330
1
100
AcDbSymbolTableRecord
100
AcDbBlockTableRecord
  2
*D32
340
0
  0
ENDTAB
  0
ENDSEC
  0
SECTION
  2
BLOCKS
  0
BLOCK
  5
5
330
2
100
AcDbEntity
  8
0
100
AcDbBlockBegin
  2
*MODEL_SPACE
 70
     0
 10
0.0
 20
0.0
 30
0.0
  3
*MODEL_SPACE
  1

  0
ENDBLK
  5
B
330
2
100
AcDbEntity
  8
0
100
AcDbBlockEnd
  0
BLOCK
  5
11
330
E
100
AcDbEntity
 67
     1
  8
0
100
AcDbBlockBegin
  2
*PAPER_SPACE
 70
     0
 10
0.0
 20
0.0
 30
0.0
  3
*PAPER_SPACE
  1

  0
ENDBLK
  5
12
330
E
100
AcDbEntity
 67
     1
  8
0
100
AcDbBlockEnd
  0
BLOCK
  5
32
330
2E
100
AcDbEntity
  8
0
100
AcDbBlockBegin
  2
_OPEN
 70
     0
 10
0.0
 20
0.0
 30
0.0
  3
_OPEN
  1

  0
LINE
  5
2F
330
2E
100
AcDbEntity
  8
0
  6
ByBlock
 62
     0
100
AcDbLine
 10
-1.0
 20
0.17
 30
0.0
 11
0.0
 21
0.0
 31
0.0
  0
LINE
  5
30
330
2E
100
AcDbEntity
  8
0
  6
ByBlock
 62
     0
100
AcDbLine
 10
0.0
 20
0.0
 30
0.0
 11
-1.0
 21
-0.17
 31
0.0
  0
LINE
  5
31
330
2E
100
AcDbEntity
  8
0
  6
ByBlock
 62
     0
100
AcDbLine
 10
0.0
 20
0.0
 30
0.0
 11
-1.0
 21
0.0
 31
0.0
  0
ENDBLK
  5
33
330
2E
100
AcDbEntity
  8
0
100
AcDbBlockEnd
  0
BLOCK
  5
2C
330
28
100
AcDbEntity
  8
0
100
AcDbBlockBegin
  2
_OPEN30
 70
     0
 10
0.0
 20
0.0
 30
0.0
  3
_OPEN30
  1

  0
LINE
  5
29
330
28
100
AcDbEntity
  8
0
  6
ByBlock
 62
     0
100
AcDbLine
 10
-1.0
 20
0.27
 30
0.0
 11
0.0
 21
0.0
 31
0.0
  0
LINE
  5
2A
330
28
100
AcDbEntity
  8
0
  6
ByBlock
 62
     0
100
AcDbLine
 10
0.0
 20
0.0
 30
0.0
 11
-1.0
 21
-0.27
 31
0.0
  0
LINE
  5
2B
330
28
100
AcDbEntity
  8
0
  6
ByBlock
 62
     0
100
AcDbLine
 10
0.0
 20
0.0
 30
0.0
 11
-1.0
 21
0.0
 31
0.0
  0
ENDBLK
  5
2D
330
28
100
AcDbEntity
  8
0
100
AcDbBlockEnd
  0
BLOCK
  5
123
330
121
100
AcDbEntity
  8
0
 62
     1
100
AcDbBlockBegin
  2
_DOTSMALL
 70
     0
 10
0.0
 20
0.0
 30
0.0
  3
_DOTSMALL
  1

  0
LWPOLYLINE
  5
122
330
121
100
AcDbEntity
  8
画層1
 62
     0
100
AcDbPolyline
 90
        2
 70
     1
 43
0.5
 10
-0.06
 20
0.0
 42
1.0
 10
0.06
 20
0.0
 42
1.0
  0
ENDBLK
  5
124
330
121
100
AcDbEntity
  8
0
 62
     1
100
AcDbBlockEnd
  0
BLOCK
  5
2D6
330
2CC
100
AcDbEntity
  8
0
 62
     1
100
AcDbBlockBegin
  2
*D3
 70
     1
 10
0.0
 20
0.0
 30
0.0
  3
*D3
  1

  0
LINE
  5
2CD
330
2CC
100
AcDbEntity
  8
画層1
 62
     0
100
AcDbLine
 10
195.09
 20
386.37
 30
0.0
 11
195.09
 21
400.99
 31
0.0
  0
LINE
  5
2CE
330
2CC
100
AcDbEntity
  8
画層1
 62
     0
100
AcDbLine
 10
155.59
 20
386.37
 30
0.0
 11
155.59
 21
400.99
 31
0.0
  0
LINE
  5
2CF
330
2CC
100
AcDbEntity
  8
画層1
 62
     0
100
AcDbLine
 10
193.59
 20
399.74
 30
0.0
 11
157.0899999999999
 21
399.74
 31
0.0
  0
INSERT
  5
2D0
330
2CC
100
AcDbEntity
  8
画層1
 62
     0
100
AcDbBlockReference
  2
_OPEN30
 10
195.09
 20
399.74
 30
0.0
 41
1.5
 42
1.5
 43
1.5
  0
INSERT
  5
2D1
330
2CC
100
AcDbEntity
  8
画層1
 62
     0
100
AcDbBlockReference
  2
_OPEN30
 10
155.59
 20
399.74
 30
0.0
 41
1.5
 42
1.5
 43
1.5
 50
180.0
  0
MTEXT
  5
2D2
330
2CC
100
AcDbEntity
  8
画層1
 62
     0
100
AcDbMText
 10
175.34
 20
401.92
 30
0.0
 40
2.5
 41
0.0
 71
     5
 72
     1
  1
\A1;(39.5)
  7
STYLE1
 73
     1
 44
1.0
1001
ACAD
1000
MTEXTBEGIN
1070
    73
1070
     1
1070
    44
1040
1.0
1070
    74
1070
     0
1000
MTEXTEND
1000
MTEXTBEGIN
1070
    73
1070
     1
1070
    44
1040
1.0
1070
    74
1070
     0
1000
MTEXTEND
  0
POINT
  5
2D3
330
2CC
100
AcDbEntity
  8
DEFPOINTS
 62
     0
100
AcDbPoint
 10
195.09
 20
385.74
 30
0.0
  0
POINT
  5
2D4
330
2CC
100
AcDbEntity
  8
DEFPOINTS
 62
     0
100
AcDbPoint
 10
155.59
 20
385.74
 30
0.0
  0
POINT
  5
2D5
330
2CC
100
AcDbEntity
  8
DEFPOINTS
 62
     0
100
AcDbPoint
 10
155.59
 20
399.74
 30
0.0
  0
ENDBLK
  5
2D7
330
2CC
100
AcDbEntity
  8
0
 62
     1
100
AcDbBlockEnd
  0
BLOCK
  5
2E3
330
2D9
100
AcDbEntity
  8
0
 62
     1
100
AcDbBlockBegin
  2
*D4
 70
     1
 10
0.0
 20
0.0
 30
0.0
  3
*D4
  1

  0
LINE
  5
2DA
330
2D9
100
AcDbEntity
  8
画層1
 62
     0
100
AcDbLine
 10
195.09
 20
386.37
 30
0.0
 11
195.09
 21
414.99
 31
0.0
  0
LINE
  5
2DB
330
2D9
100
AcDbEntity
  8
画層1
 62
     0
100
AcDbLine
 10
115.09
 20
386.37
 30
0.0
 11
115.09
 21
414.99
 31
0.0
  0
LINE
  5
2DC
330
2D9
100
AcDbEntity
  8
画層1
 62
     0
100
AcDbLine
 10
193.59
 20
413.74
 30
0.0
 11
116.59
 21
413.74
 31
0.0
  0
INSERT
  5
2DD
330
2D9
100
AcDbEntity
  8
画層1
 62
     0
100
AcDbBlockReference
  2
_OPEN30
 10
195.09
 20
413.74
 30
0.0
 41
1.5
 42
1.5
 43
1.5
  0
INSERT
  5
2DE
330
2D9
100
AcDbEntity
  8
画層1
 62
     0
100
AcDbBlockReference
  2
_OPEN30
 10
115.09
 20
413.74
 30
0.0
 41
1.5
 42
1.5
 43
1.5
 50
180.0
  0
MTEXT
  5
2DF
330
2D9
100
AcDbEntity
  8
画層1
 62
     0
100
AcDbMText
 10
155.09
 20
415.62
 30
0.0
 40
2.5
 41
0.0
 71
     5
 72
     1
  1
\A1;80
  7
STYLE1
 73
     1
 44
1.0
1001
ACAD
1000
MTEXTBEGIN
1070
    73
1070
     1
1070
    44
1040
1.0
1070
    74
1070
     0
1000
MTEXTEND
1000
MTEXTBEGIN
1070
    73
1070
     1
1070
    44
1040
1.0
1070
    74
1070
     0
1000
MTEXTEND
  0
POINT
  5
2E0
330
2D9
100
AcDbEntity
  8
DEFPOINTS
 62
     0
100
AcDbPoint
 10
195.09
 20
385.74
 30
0.0
  0
POINT
  5
2E1
330
2D9
100
AcDbEntity
  8
DEFPOINTS
 62
     0
100
AcDbPoint
 10
115.09
 20
385.74
 30
0.0
  0
POINT
  5
2E2
330
2D9
100
AcDbEntity
  8
DEFPOINTS
 62
     0
100
AcDbPoint
 10
115.09
 20
413.74
 30
0.0
  0
ENDBLK
  5
2E4
330
2D9
100
AcDbEntity
  8
0
 62
     1
100
AcDbBlockEnd
  0
BLOCK
  5
31D
330
312
100
AcDbEntity
  8
0
 62
     1
100
AcDbBlockBegin
  2
*D5
 70
     1
 10
0.0
 20
0.0
 30
0.0
  3
*D5
  1

  0
LINE
  5
313
330
312
100
AcDbEntity
  8
画層1
 62
     0
100
AcDbLine
 10
199.5899999999999
 20
367.97
 30
0.0
 11
199.5899999999999
 21
414.99
 31
0.0
  0
LINE
  5
314
330
312
100
AcDbEntity
  8
画層1
 62
     0
100
AcDbLine
 10
195.09
 20
386.37
 30
0.0
 11
195.09
 21
414.99
 31
0.0
  0
LINE
  5
315
330
312
100
AcDbEntity
  8
画層1
 62
     0
100
AcDbLine
 10
196.5899999999999
 20
413.74
 30
0.0
 11
198.09
 21
413.74
 31
0.0
  0
LINE
  5
316
330
312
100
AcDbEntity
  8
画層1
 62
     0
100
AcDbLine
 10
199.5899999999999
 20
413.74
 30
0.0
 11
214.59
 21
413.74
 31
0.0
  0
INSERT
  5
317
330
312
100
AcDbEntity
  8
画層1
 62
     0
100
AcDbBlockReference
  2
_OPEN30
 10
195.09
 20
413.74
 30
0.0
 41
1.5
 42
1.5
 43
1.5
 50
180.0
  0
INSERT
  5
318
330
312
100
AcDbEntity
  8
画層1
 62
     0
100
AcDbBlockReference
  2
_OPEN30
 10
199.5899999999999
 20
413.74
 30
0.0
 41
1.5
 42
1.5
 43
1.5
  0
MTEXT
  5
319
330
312
100
AcDbEntity
  8
画層1
 62
     0
100
AcDbMText
 10
211.4199999999999
 20
415.62
 30
0.0
 40
2.5
 41
0.0
 71
     5
 72
     1
  1
\A1;4.5
  7
STYLE1
 73
     1
 44
1.0
1001
ACAD
1000
MTEXTBEGIN
1070
    73
1070
     1
1070
    44
1040
1.0
1070
    74
1070
     0
1000
MTEXTEND
1000
MTEXTBEGIN
1070
    73
1070
     1
1070
    44
1040
1.0
1070
    74
1070
     0
1000
MTEXTEND
  0
POINT
  5
31A
330
312
100
AcDbEntity
  8
DEFPOINTS
 62
     0
100
AcDbPoint
 10
199.5899999999999
 20
367.3399999999999
 30
0.0
  0
POINT
  5
31B
330
312
100
AcDbEntity
  8
DEFPOINTS
 62
     0
100
AcDbPoint
 10
195.09
 20
385.74
 30
0.0
  0
POINT
  5
31C
330
312
100
AcDbEntity
  8
DEFPOINTS
 62
     0
100
AcDbPoint
 10
195.09
 20
413.74
 30
0.0
  0
ENDBLK
  5
31E
330
312
100
AcDbEntity
  8
0
 62
     1
100
AcDbBlockEnd
  0
BLOCK
  5
2F0
330
2E6
100
AcDbEntity
  8
0
 62
     1
100
AcDbBlockBegin
  2
*D6
 70
     1
 10
0.0
 20
0.0
 30
0.0
  3
*D6
  1

  0
LINE
  5
2E7
330
2E6
100
AcDbEntity
  8
画層1
 62
     0
100
AcDbLine
 10
112.59
 20
367.97
 30
0.0
 11
112.59
 21
428.99
 31
0.0
  0
LINE
  5
2E8
330
2E6
100
AcDbEntity
  8
画層1
 62
     0
100
AcDbLine
 10
199.5899999999999
 20
367.97
 30
0.0
 11
199.5899999999999
 21
428.99
 31
0.0
  0
LINE
  5
2E9
330
2E6
100
AcDbEntity
  8
画層1
 62
     0
100
AcDbLine
 10
114.09
 20
427.74
 30
0.0
 11
198.09
 21
427.74
 31
0.0
  0
INSERT
  5
2EA
330
2E6
100
AcDbEntity
  8
画層1
 62
     0
100
AcDbBlockReference
  2
_OPEN30
 10
112.59
 20
427.74
 30
0.0
 41
1.5
 42
1.5
 43
1.5
 50
180.0
  0
INSERT
  5
2EB
330
2E6
100
AcDbEntity
  8
画層1
 62
     0
100
AcDbBlockReference
  2
_OPEN30
 10
199.5899999999999
 20
427.74
 30
0.0
 41
1.5
 42
1.5
 43
1.5
  0
MTEXT
  5
2EC
330
2E6
100
AcDbEntity
  8
画層1
 62
     0
100
AcDbMText
 10
156.09
 20
429.6199999999999
 30
0.0
 40
2.5
 41
0.0
 71
     5
 72
     1
  1
\A1;87
  7
STYLE1
 73
     1
 44
1.0
1001
ACAD
1000
MTEXTBEGIN
1070
    73
1070
     1
1070
    44
1040
1.0
1070
    74
1070
     0
1000
MTEXTEND
1000
MTEXTBEGIN
1070
    73
1070
     1
1070
    44
1040
1.0
1070
    74
1070
     0
1000
MTEXTEND
  0
POINT
  5
2ED
330
2E6
100
AcDbEntity
  8
DEFPOINTS
 62
     0
100
AcDbPoint
 10
112.59
 20
367.3399999999999
 30
0.0
  0
POINT
  5
2EE
330
2E6
100
AcDbEntity
  8
DEFPOINTS
 62
     0
100
AcDbPoint
 10
199.5899999999999
 20
367.3399999999999
 30
0.0
  0
POINT
  5
2EF
330
2E6
100
AcDbEntity
  8
DEFPOINTS
 62
     0
100
AcDbPoint
 10
199.5899999999999
 20
427.74
 30
0.0
  0
ENDBLK
  5
2F1
330
2E6
100
AcDbEntity
  8
0
 62
     1
100
AcDbBlockEnd
  0
BLOCK
  5
42
330
37
100
AcDbEntity
  8
0
 62
     1
100
AcDbBlockBegin
  2
*D7
 70
     1
 10
0.0
 20
0.0
 30
0.0
  3
*D7
  1

  0
LINE
  5
38
330
37
100
AcDbEntity
  8
画層1
 62
     0
100
AcDbLine
 10
151.96
 20
379.74
 30
0.0
 11
83.84
 21
379.74
 31
0.0
  0
LINE
  5
39
330
37
100
AcDbEntity
  8
画層1
 62
     0
100
AcDbLine
 10
151.96
 20
141.74
 30
0.0
 11
83.84
 21
141.74
 31
0.0
  0
LINE
  5
3A
330
37
100
AcDbEntity
  8
画層1
 62
     0
100
AcDbLine
 10
85.09
 20
378.2399999999999
 30
0.0
 11
85.09
 21
143.24
 31
0.0
  0
INSERT
  5
3B
330
37
100
AcDbEntity
  8
画層1
 62
     0
100
AcDbBlockReference
  2
_OPEN30
 10
85.09
 20
379.74
 30
0.0
 41
1.5
 42
1.5
 43
1.5
 50
90.0
  0
INSERT
  5
3C
330
37
100
AcDbEntity
  8
画層1
 62
     0
100
AcDbBlockReference
  2
_OPEN30
 10
85.09
 20
141.74
 30
0.0
 41
1.5
 42
1.5
 43
1.5
 50
270.0
  0
MTEXT
  5
3D
330
37
100
AcDbEntity
  8
画層1
 62
     0
100
AcDbMText
 10
83.20999999999999
 20
260.74
 30
0.0
 40
2.5
 41
0.0
 71
     5
 72
     1
  1
\A1;238
  7
STYLE1
 11
0.0
 21
1.0
 31
0.0
 73
     1
 44
1.0
1001
ACAD
1000
MTEXTBEGIN
1070
    73
1070
     1
1070
    44
1040
1.0
1070
    74
1070
     0
1000
MTEXTEND
1000
MTEXTBEGIN
1070
    73
1070
     1
1070
    44
1040
1.0
1070
    74
1070
     0
1000
MTEXTEND
  0
POINT
  5
3E
330
37
100
AcDbEntity
  8
DEFPOINTS
 62
     0
100
AcDbPoint
 10
152.59
 20
379.74
 30
0.0
  0
POINT
  5
40
330
37
100
AcDbEntity
  8
DEFPOINTS
 62
     0
100
AcDbPoint
 10
152.59
 20
141.74
 30
0.0
  0
POINT
  5
41
330
37
100
AcDbEntity
  8
DEFPOINTS
 62
     0
100
AcDbPoint
 10
85.09
 20
141.74
 30
0.0
  0
ENDBLK
  5
43
330
37
100
AcDbEntity
  8
0
 62
     1
100
AcDbBlockEnd
  0
BLOCK
  5
11E
330
114
100
AcDbEntity
  8
0
 62
     1
100
AcDbBlockBegin
  2
*D8
 70
     1
 10
0.0
 20
0.0
 30
0.0
  3
*D8
  1

  0
LINE
  5
115
330
114
100
AcDbEntity
  8
画層1
 62
     0
100
AcDbLine
 10
118.66
 20
328.94
 30
0.0
 11
97.84
 21
328.94
 31
0.0
  0
LINE
  5
116
330
114
100
AcDbEntity
  8
画層1
 62
     0
100
AcDbLine
 10
118.66
 20
336.94
 30
0.0
 11
97.84
 21
336.94
 31
0.0
  0
LINE
  5
117
330
114
100
AcDbEntity
  8
画層1
 62
     0
100
AcDbLine
 10
99.09
 20
330.44
 30
0.0
 11
99.09
 21
335.44
 31
0.0
  0
INSERT
  5
118
330
114
100
AcDbEntity
  8
画層1
 62
     0
100
AcDbBlockReference
  2
_OPEN30
 10
99.09
 20
328.94
 30
0.0
 41
1.5
 42
1.5
 43
1.5
 50
270.0
  0
INSERT
  5
119
330
114
100
AcDbEntity
  8
画層1
 62
     0
100
AcDbBlockReference
  2
_OPEN30
 10
99.09
 20
336.94
 30
0.0
 41
1.5
 42
1.5
 43
1.5
 50
90.0
  0
MTEXT
  5
11A
330
114
100
AcDbEntity
  8
画層1
 62
     0
100
AcDbMText
 10
97.21
 20
332.94
 30
0.0
 40
2.5
 41
0.0
 71
     5
 72
     1
  1
\A1;8
  7
STYLE1
 11
0.0
 21
1.0
 31
0.0
 73
     1
 44
1.0
1001
ACAD
1000
MTEXTBEGIN
1070
    73
1070
     1
1070
    44
1040
1.0
1070
    74
1070
     0
1000
MTEXTEND
1000
MTEXTBEGIN
1070
    73
1070
     1
1070
    44
1040
1.0
1070
    74
1070
     0
1000
MTEXTEND
  0
POINT
  5
11B
330
114
100
AcDbEntity
  8
DEFPOINTS
 62
     0
100
AcDbPoint
 10
119.29
 20
328.94
 30
0.0
  0
POINT
  5
11C
330
114
100
AcDbEntity
  8
DEFPOINTS
 62
     0
100
AcDbPoint
 10
119.29
 20
336.94
 30
0.0
  0
POINT
  5
11D
330
114
100
AcDbEntity
  8
DEFPOINTS
 62
     0
100
AcDbPoint
 10
99.09
 20
336.94
 30
0.0
  0
ENDBLK
  5
11F
330
114
100
AcDbEntity
  8
0
 62
     1
100
AcDbBlockEnd
  0
BLOCK
  5
D5
330
CB
100
AcDbEntity
  8
0
 62
     1
100
AcDbBlockBegin
  2
*D9
 70
     1
 10
0.0
 20
0.0
 30
0.0
  3
*D9
  1

  0
LINE
  5
CC
330
CB
100
AcDbEntity
  8
画層1
 62
     0
100
AcDbLine
 10
144.09
 20
186.37
 30
0.0
 11
144.09
 21
200.99
 31
0.0
  0
LINE
  5
CD
330
CB
100
AcDbEntity
  8
画層1
 62
     0
100
AcDbLine
 10
154.09
 20
186.37
 30
0.0
 11
154.09
 21
200.99
 31
0.0
  0
LINE
  5
CE
330
CB
100
AcDbEntity
  8
画層1
 62
     0
100
AcDbLine
 10
145.5899999999999
 20
199.74
 30
0.0
 11
152.59
 21
199.74
 31
0.0
  0
INSERT
  5
CF
330
CB
100
AcDbEntity
  8
画層1
 62
     0
100
AcDbBlockReference
  2
_OPEN30
 10
144.09
 20
199.74
 30
0.0
 41
1.5
 42
1.5
 43
1.5
 50
180.0
  0
INSERT
  5
D0
330
CB
100
AcDbEntity
  8
画層1
 62
     0
100
AcDbBlockReference
  2
_OPEN30
 10
154.09
 20
199.74
 30
0.0
 41
1.5
 42
1.5
 43
1.5
  0
MTEXT
  5
D1
330
CB
100
AcDbEntity
  8
画層1
 62
     0
100
AcDbMText
 10
149.09
 20
201.6199999999999
 30
0.0
 40
2.5
 41
0.0
 71
     5
 72
     1
  1
\A1;10
  7
STYLE1
 73
     1
 44
1.0
1001
ACAD
1000
MTEXTBEGIN
1070
    73
1070
     1
1070
    44
1040
1.0
1070
    74
1070
     0
1000
MTEXTEND
1000
MTEXTBEGIN
1070
    73
1070
     1
1070
    44
1040
1.0
1070
    74
1070
     0
1000
MTEXTEND
  0
POINT
  5
D2
330
CB
100
AcDbEntity
  8
DEFPOINTS
 62
     0
100
AcDbPoint
 10
144.09
 20
185.74
 30
0.0
  0
POINT
  5
D3
330
CB
100
AcDbEntity
  8
DEFPOINTS
 62
     0
100
AcDbPoint
 10
154.09
 20
185.74
 30
0.0
  0
POINT
  5
D4
330
CB
100
AcDbEntity
  8
DEFPOINTS
 62
     0
100
AcDbPoint
 10
154.09
 20
199.74
 30
0.0
  0
ENDBLK
  5
D6
330
CB
100
AcDbEntity
  8
0
 62
     1
100
AcDbBlockEnd
  0
BLOCK
  5
63
330
58
100
AcDbEntity
  8
0
 62
     1
100
AcDbBlockBegin
  2
*D10
 70
     1
 10
0.0
 20
0.0
 30
0.0
  3
*D10
  1

  0
LINE
  5
59
330
58
100
AcDbEntity
  8
画層1
 62
     0
100
AcDbLine
 10
152.59
 20
135.12
 30
0.0
 11
152.59
 21
120.49
 31
0.0
  0
LINE
  5
5A
330
58
100
AcDbEntity
  8
画層1
 62
     0
100
AcDbLine
 10
158.59
 20
135.12
 30
0.0
 11
158.59
 21
120.49
 31
0.0
  0
LINE
  5
5B
330
58
100
AcDbEntity
  8
画層1
 62
     0
100
AcDbLine
 10
154.09
 20
121.74
 30
0.0
 11
157.0899999999999
 21
121.74
 31
0.0
  0
LINE
  5
5C
330
58
100
AcDbEntity
  8
画層1
 62
     0
100
AcDbLine
 10
158.59
 20
121.74
 30
0.0
 11
180.2899999999999
 21
121.74
 31
0.0
  0
INSERT
  5
5D
330
58
100
AcDbEntity
  8
画層1
 62
     0
100
AcDbBlockReference
  2
_OPEN30
 10
152.59
 20
121.74
 30
0.0
 41
1.5
 42
1.5
 43
1.5
 50
180.0
  0
INSERT
  5
5E
330
58
100
AcDbEntity
  8
画層1
 62
     0
100
AcDbBlockReference
  2
_OPEN30
 10
158.59
 20
121.74
 30
0.0
 41
1.5
 42
1.5
 43
1.5
  0
MTEXT
  5
5F
330
58
100
AcDbEntity
  8
画層1
 62
     0
100
AcDbMText
 10
170.19
 20
124.0299999999999
 30
0.0
 40
2.5
 41
0.0
 71
     5
 72
     1
  1
\A1;φ6キリカキ
  7
STYLE1
 73
     1
 44
1.0
1001
ACAD
1000
MTEXTBEGIN
1070
    73
1070
     1
1070
    44
1040
1.0
1070
    74
1070
     0
1000
MTEXTEND
1000
MTEXTBEGIN
1070
    73
1070
     1
1070
    44
1040
1.0
1070
    74
1070
     0
1000
MTEXTEND
  0
POINT
  5
60
330
58
100
AcDbEntity
  8
DEFPOINTS
 62
     0
100
AcDbPoint
 10
152.59
 20
135.74
 30
0.0
  0
POINT
  5
61
330
58
100
AcDbEntity
  8
DEFPOINTS
 62
     0
100
AcDbPoint
 10
158.59
 20
135.74
 30
0.0
  0
POINT
  5
62
330
58
100
AcDbEntity
  8
DEFPOINTS
 62
     0
100
AcDbPoint
 10
158.59
 20
121.74
 30
0.0
  0
ENDBLK
  5
64
330
58
100
AcDbEntity
  8
0
 62
     1
100
AcDbBlockEnd
  0
BLOCK
  5
E3
330
D9
100
AcDbEntity
  8
0
 62
     1
100
AcDbBlockBegin
  2
*D11
 70
     1
 10
0.0
 20
0.0
 30
0.0
  3
*D11
  1

  0
LINE
  5
DA
330
D9
100
AcDbEntity
  8
画層1
 62
     0
100
AcDbLine
 10
195.71
 20
135.74
 30
0.0
 11
214.34
 21
135.74
 31
0.0
  0
LINE
  5
DB
330
D9
100
AcDbEntity
  8
画層1
 62
     0
100
AcDbLine
 10
191.7099999999999
 20
173.74
 30
0.0
 11
214.34
 21
173.74
 31
0.0
  0
LINE
  5
DC
330
D9
100
AcDbEntity
  8
画層1
 62
     0
100
AcDbLine
 10
213.09
 20
137.24
 30
0.0
 11
213.09
 21
172.24
 31
0.0
  0
INSERT
  5
DD
330
D9
100
AcDbEntity
  8
画層1
 62
     0
100
AcDbBlockReference
  2
_OPEN30
 10
213.09
 20
135.74
 30
0.0
 41
1.5
 42
1.5
 43
1.5
 50
270.0
  0
INSERT
  5
DE
330
D9
100
AcDbEntity
  8
画層1
 62
     0
100
AcDbBlockReference
  2
_OPEN30
 10
213.09
 20
173.74
 30
0.0
 41
1.5
 42
1.5
 43
1.5
 50
90.0
  0
MTEXT
  5
DF
330
D9
100
AcDbEntity
  8
画層1
 62
     0
100
AcDbMText
 10
211.21
 20
154.74
 30
0.0
 40
2.5
 41
0.0
 71
     5
 72
     1
  1
\A1;38
  7
STYLE1
 11
0.0
 21
1.0
 31
0.0
 73
     1
 44
1.0
1001
ACAD
1000
MTEXTBEGIN
1070
    73
1070
     1
1070
    44
1040
1.0
1070
    74
1070
     0
1000
MTEXTEND
1000
MTEXTBEGIN
1070
    73
1070
     1
1070
    44
1040
1.0
1070
    74
1070
     0
1000
MTEXTEND
  0
POINT
  5
E0
330
D9
100
AcDbEntity
  8
DEFPOINTS
 62
     0
100
AcDbPoint
 10
195.09
 20
135.74
 30
0.0
  0
POINT
  5
E1
330
D9
100
AcDbEntity
  8
DEFPOINTS
 62
     0
100
AcDbPoint
 10
191.0899999999999
 20
173.74
 30
0.0
  0
POINT
  5
E2
330
D9
100
AcDbEntity
  8
DEFPOINTS
 62
     0
100
AcDbPoint
 10
213.09
 20
173.74
 30
0.0
  0
ENDBLK
  5
E4
330
D9
100
AcDbEntity
  8
0
 62
     1
100
AcDbBlockEnd
  0
BLOCK
  5
4F
330
45
100
AcDbEntity
  8
0
 62
     1
100
AcDbBlockBegin
  2
*D12
 70
     1
 10
0.0
 20
0.0
 30
0.0
  3
*D12
  1

  0
LINE
  5
46
330
45
100
AcDbEntity
  8
画層1
 62
     0
100
AcDbLine
 10
195.71
 20
135.74
 30
0.0
 11
228.3399999999999
 21
135.74
 31
0.0
  0
LINE
  5
47
330
45
100
AcDbEntity
  8
画層1
 62
     0
100
AcDbLine
 10
195.71
 20
385.74
 30
0.0
 11
228.3399999999999
 21
385.74
 31
0.0
  0
LINE
  5
48
330
45
100
AcDbEntity
  8
画層1
 62
     0
100
AcDbLine
 10
227.09
 20
137.24
 30
0.0
 11
227.09
 21
384.2399999999999
 31
0.0
  0
INSERT
  5
49
330
45
100
AcDbEntity
  8
画層1
 62
     0
100
AcDbBlockReference
  2
_OPEN30
 10
227.09
 20
135.74
 30
0.0
 41
1.5
 42
1.5
 43
1.5
 50
270.0
  0
INSERT
  5
4A
330
45
100
AcDbEntity
  8
画層1
 62
     0
100
AcDbBlockReference
  2
_OPEN30
 10
227.09
 20
385.74
 30
0.0
 41
1.5
 42
1.5
 43
1.5
 50
90.0
  0
MTEXT
  5
4B
330
45
100
AcDbEntity
  8
画層1
 62
     0
100
AcDbMText
 10
225.2099999999999
 20
260.74
 30
0.0
 40
2.5
 41
0.0
 71
     5
 72
     1
  1
\A1;250
  7
STYLE1
 11
0.0
 21
1.0
 31
0.0
 73
     1
 44
1.0
1001
ACAD
1000
MTEXTBEGIN
1070
    73
1070
     1
1070
    44
1040
1.0
1070
    74
1070
     0
1000
MTEXTEND
1000
MTEXTBEGIN
1070
    73
1070
     1
1070
    44
1040
1.0
1070
    74
1070
     0
1000
MTEXTEND
  0
POINT
  5
4C
330
45
100
AcDbEntity
  8
DEFPOINTS
 62
     0
100
AcDbPoint
 10
195.09
 20
135.74
 30
0.0
  0
POINT
  5
4D
330
45
100
AcDbEntity
  8
DEFPOINTS
 62
     0
100
AcDbPoint
 10
195.09
 20
385.74
 30
0.0
  0
POINT
  5
4E
330
45
100
AcDbEntity
  8
DEFPOINTS
 62
     0
100
AcDbPoint
 10
227.09
 20
385.74
 30
0.0
  0
ENDBLK
  5
50
330
45
100
AcDbEntity
  8
0
 62
     1
100
AcDbBlockEnd
  0
BLOCK
  5
3DD
330
3D3
100
AcDbEntity
  8
0
 62
     1
100
AcDbBlockBegin
  2
*D13
 70
     1
 10
0.0
 20
0.0
 30
0.0
  3
*D13
  1

  0
LINE
  5
3D4
330
3D3
100
AcDbEntity
  8
画層1
 62
     0
100
AcDbLine
 10
368.5899999999999
 20
345.3699999999999
 30
0.0
 11
368.5899999999999
 21
400.99
 31
0.0
  0
LINE
  5
3D5
330
3D3
100
AcDbEntity
  8
画層1
 62
     0
100
AcDbLine
 10
381.0899999999999
 20
343.3699999999999
 30
0.0
 11
381.0899999999999
 21
400.99
 31
0.0
  0
LINE
  5
3D6
330
3D3
100
AcDbEntity
  8
画層1
 62
     0
100
AcDbLine
 10
370.0899999999999
 20
399.74
 30
0.0
 11
379.5899999999999
 21
399.74
 31
0.0
  0
INSERT
  5
3D7
330
3D3
100
AcDbEntity
  8
画層1
 62
     0
100
AcDbBlockReference
  2
_OPEN30
 10
368.5899999999999
 20
399.74
 30
0.0
 41
1.5
 42
1.5
 43
1.5
 50
180.0
  0
INSERT
  5
3D8
330
3D3
100
AcDbEntity
  8
画層1
 62
     0
100
AcDbBlockReference
  2
_OPEN30
 10
381.0899999999999
 20
399.74
 30
0.0
 41
1.5
 42
1.5
 43
1.5
  0
MTEXT
  5
3D9
330
3D3
100
AcDbEntity
  8
画層1
 62
     0
100
AcDbMText
 10
374.8399999999999
 20
401.62
 30
0.0
 40
2.5
 41
0.0
 71
     5
 72
     1
  1
\A1;12.5
  7
STYLE1
 73
     1
 44
1.0
1001
ACAD
1000
MTEXTBEGIN
1070
    73
1070
     1
1070
    44
1040
1.0
1070
    74
1070
     0
1000
MTEXTEND
1000
MTEXTBEGIN
1070
    73
1070
     1
1070
    44
1040
1.0
1070
    74
1070
     0
1000
MTEXTEND
  0
POINT
  5
3DA
330
3D3
100
AcDbEntity
  8
DEFPOINTS
 62
     0
100
AcDbPoint
 10
368.5899999999999
 20
344.74
 30
0.0
  0
POINT
  5
3DB
330
3D3
100
AcDbEntity
  8
DEFPOINTS
 62
     0
100
AcDbPoint
 10
381.0899999999999
 20
342.74
 30
0.0
  0
POINT
  5
3DC
330
3D3
100
AcDbEntity
  8
DEFPOINTS
 62
     0
100
AcDbPoint
 10
381.0899999999999
 20
399.74
 30
0.0
  0
ENDBLK
  5
3DE
330
3D3
100
AcDbEntity
  8
0
 62
     1
100
AcDbBlockEnd
  0
BLOCK
  5
3CF
330
3C5
100
AcDbEntity
  8
0
 62
     1
100
AcDbBlockBegin
  2
*D14
 70
     1
 10
0.0
 20
0.0
 30
0.0
  3
*D14
  1

  0
LINE
  5
3C6
330
3C5
100
AcDbEntity
  8
画層1
 62
     0
100
AcDbLine
 10
352.0899999999999
 20
382.97
 30
0.0
 11
352.0899999999999
 21
414.99
 31
0.0
  0
LINE
  5
3C7
330
3C5
100
AcDbEntity
  8
画層1
 62
     0
100
AcDbLine
 10
518.09
 20
387.62
 30
0.0
 11
518.09
 21
414.99
 31
0.0
  0
LINE
  5
3C8
330
3C5
100
AcDbEntity
  8
画層1
 62
     0
100
AcDbLine
 10
353.5899999999999
 20
413.74
 30
0.0
 11
516.59
 21
413.74
 31
0.0
  0
INSERT
  5
3C9
330
3C5
100
AcDbEntity
  8
画層1
 62
     0
100
AcDbBlockReference
  2
_OPEN30
 10
352.0899999999999
 20
413.74
 30
0.0
 41
1.5
 42
1.5
 43
1.5
 50
180.0
  0
INSERT
  5
3CA
330
3C5
100
AcDbEntity
  8
画層1
 62
     0
100
AcDbBlockReference
  2
_OPEN30
 10
518.09
 20
413.74
 30
0.0
 41
1.5
 42
1.5
 43
1.5
  0
MTEXT
  5
3CB
330
3C5
100
AcDbEntity
  8
画層1
 62
     0
100
AcDbMText
 10
435.09
 20
415.62
 30
0.0
 40
2.5
 41
0.0
 71
     5
 72
     1
  1
\A1;166
  7
STYLE1
 73
     1
 44
1.0
1001
ACAD
1000
MTEXTBEGIN
1070
    73
1070
     1
1070
    44
1040
1.0
1070
    74
1070
     0
1000
MTEXTEND
1000
MTEXTBEGIN
1070
    73
1070
     1
1070
    44
1040
1.0
1070
    74
1070
     0
1000
MTEXTEND
  0
POINT
  5
3CC
330
3C5
100
AcDbEntity
  8
DEFPOINTS
 62
     0
100
AcDbPoint
 10
352.0899999999999
 20
382.3399999999999
 30
0.0
  0
POINT
  5
3CD
330
3C5
100
AcDbEntity
  8
DEFPOINTS
 62
     0
100
AcDbPoint
 10
518.09
 20
386.99
 30
0.0
  0
POINT
  5
3CE
330
3C5
100
AcDbEntity
  8
DEFPOINTS
 62
     0
100
AcDbPoint
 10
518.09
 20
413.74
 30
0.0
  0
ENDBLK
  5
3D0
330
3C5
100
AcDbEntity
  8
0
 62
     1
100
AcDbBlockEnd
  0
BLOCK
  5
393
330
389
100
AcDbEntity
  8
0
 62
     1
100
AcDbBlockBegin
  2
*D15
 70
     1
 10
0.0
 20
0.0
 30
0.0
  3
*D15
  1

  0
LINE
  5
38A
330
389
100
AcDbEntity
  8
画層1
 62
     0
100
AcDbLine
 10
518.09
 20
135.12
 30
0.0
 11
518.09
 21
120.49
 31
0.0
  0
LINE
  5
38B
330
389
100
AcDbEntity
  8
画層1
 62
     0
100
AcDbLine
 10
428.0899999999999
 20
163.1199999999999
 30
0.0
 11
428.0899999999999
 21
120.49
 31
0.0
  0
LINE
  5
38C
330
389
100
AcDbEntity
  8
画層1
 62
     0
100
AcDbLine
 10
516.59
 20
121.74
 30
0.0
 11
429.5899999999999
 21
121.74
 31
0.0
  0
INSERT
  5
38D
330
389
100
AcDbEntity
  8
画層1
 62
     0
100
AcDbBlockReference
  2
_OPEN30
 10
518.09
 20
121.74
 30
0.0
 41
1.5
 42
1.5
 43
1.5
  0
INSERT
  5
38E
330
389
100
AcDbEntity
  8
画層1
 62
     0
100
AcDbBlockReference
  2
_OPEN30
 10
428.0899999999999
 20
121.74
 30
0.0
 41
1.5
 42
1.5
 43
1.5
 50
180.0
  0
MTEXT
  5
38F
330
389
100
AcDbEntity
  8
画層1
 62
     0
100
AcDbMText
 10
473.09
 20
123.92
 30
0.0
 40
2.5
 41
0.0
 71
     5
 72
     1
  1
\A1;(90)
  7
STYLE1
 73
     1
 44
1.0
1001
ACAD
1000
MTEXTBEGIN
1070
    73
1070
     1
1070
    44
1040
1.0
1070
    74
1070
     0
1000
MTEXTEND
1000
MTEXTBEGIN
1070
    73
1070
     1
1070
    44
1040
1.0
1070
    74
1070
     0
1000
MTEXTEND
  0
POINT
  5
390
330
389
100
AcDbEntity
  8
DEFPOINTS
 62
     0
100
AcDbPoint
 10
518.09
 20
135.74
 30
0.0
  0
POINT
  5
391
330
389
100
AcDbEntity
  8
DEFPOINTS
 62
     0
100
AcDbPoint
 10
428.0899999999999
 20
163.74
 30
0.0
  0
POINT
  5
392
330
389
100
AcDbEntity
  8
DEFPOINTS
 62
     0
100
AcDbPoint
 10
428.0899999999999
 20
121.74
 30
0.0
  0
ENDBLK
  5
394
330
389
100
AcDbEntity
  8
0
 62
     1
100
AcDbBlockEnd
  0
BLOCK
  5
2FD
330
2F3
100
AcDbEntity
  8
0
 62
     1
100
AcDbBlockBegin
  2
*D16
 70
     1
 10
0.0
 20
0.0
 30
0.0
  3
*D16
  1

  0
LINE
  5
2F4
330
2F3
100
AcDbEntity
  8
画層1
 62
     0
100
AcDbLine
 10
115.09
 20
386.37
 30
0.0
 11
115.09
 21
422.9
 31
0.0
  0
LINE
  5
2F5
330
2F3
100
AcDbEntity
  8
画層1
 62
     0
100
AcDbLine
 10
195.09
 20
386.37
 30
0.0
 11
195.09
 21
422.9
 31
0.0
  0
LINE
  5
2F6
330
2F3
100
AcDbEntity
  8
画層1
 62
     0
100
AcDbLine
 10
116.59
 20
421.6499999999999
 30
0.0
 11
193.59
 21
421.6499999999999
 31
0.0
  0
INSERT
  5
2F7
330
2F3
100
AcDbEntity
  8
画層1
 62
     0
100
AcDbBlockReference
  2
_OPEN30
 10
115.09
 20
421.6499999999999
 30
0.0
 41
1.5
 42
1.5
 43
1.5
 50
180.0
  0
INSERT
  5
2F8
330
2F3
100
AcDbEntity
  8
画層1
 62
     0
100
AcDbBlockReference
  2
_OPEN30
 10
195.09
 20
421.6499999999999
 30
0.0
 41
1.5
 42
1.5
 43
1.5
  0
MTEXT
  5
2F9
330
2F3
100
AcDbEntity
  8
画層1
 62
     0
100
AcDbMText
 10
155.09
 20
423.5199999999999
 30
0.0
 40
2.5
 41
0.0
 71
     5
 72
     1
  1
\A1;80
  7
STYLE1
 73
     1
 44
1.0
1001
ACAD
1000
MTEXTBEGIN
1070
    73
1070
     1
1070
    44
1040
1.0
1070
    74
1070
     0
1000
MTEXTEND
1000
MTEXTBEGIN
1070
    73
1070
     1
1070
    44
1040
1.0
1070
    74
1070
     0
1000
MTEXTEND
  0
POINT
  5
2FA
330
2F3
100
AcDbEntity
  8
DEFPOINTS
 62
     0
100
AcDbPoint
 10
115.09
 20
385.74
 30
0.0
  0
POINT
  5
2FB
330
2F3
100
AcDbEntity
  8
DEFPOINTS
 62
     0
100
AcDbPoint
 10
195.09
 20
385.74
 30
0.0
  0
POINT
  5
2FC
330
2F3
100
AcDbEntity
  8
DEFPOINTS
 62
     0
100
AcDbPoint
 10
195.09
 20
421.6499999999999
 30
0.0
  0
ENDBLK
  5
2FE
330
2F3
100
AcDbEntity
  8
0
 62
     1
100
AcDbBlockEnd
  0
BLOCK
  5
3C2
330
3B8
100
AcDbEntity
  8
0
 62
     1
100
AcDbBlockBegin
  2
*D17
 70
     1
 10
0.0
 20
0.0
 30
0.0
  3
*D17
  1

  0
LINE
  5
3B9
330
3B8
100
AcDbEntity
  8
画層1
 62
     0
100
AcDbLine
 10
381.0899999999999
 20
343.3699999999999
 30
0.0
 11
381.0899999999999
 21
400.99
 31
0.0
  0
LINE
  5
3BA
330
3B8
100
AcDbEntity
  8
画層1
 62
     0
100
AcDbLine
 10
518.09
 20
386.37
 30
0.0
 11
518.09
 21
400.99
 31
0.0
  0
LINE
  5
3BB
330
3B8
100
AcDbEntity
  8
画層1
 62
     0
100
AcDbLine
 10
382.5899999999999
 20
399.74
 30
0.0
 11
516.59
 21
399.74
 31
0.0
  0
INSERT
  5
3BC
330
3B8
100
AcDbEntity
  8
画層1
 62
     0
100
AcDbBlockReference
  2
_OPEN30
 10
381.0899999999999
 20
399.74
 30
0.0
 41
1.5
 42
1.5
 43
1.5
 50
180.0
  0
INSERT
  5
3BD
330
3B8
100
AcDbEntity
  8
画層1
 62
     0
100
AcDbBlockReference
  2
_OPEN30
 10
518.09
 20
399.74
 30
0.0
 41
1.5
 42
1.5
 43
1.5
  0
MTEXT
  5
3BE
330
3B8
100
AcDbEntity
  8
画層1
 62
     0
100
AcDbMText
 10
449.5899999999999
 20
401.92
 30
0.0
 40
2.5
 41
0.0
 71
     5
 72
     1
  1
\A1;(137)
  7
STYLE1
 73
     1
 44
1.0
1001
ACAD
1000
MTEXTBEGIN
1070
    73
1070
     1
1070
    44
1040
1.0
1070
    74
1070
     0
1000
MTEXTEND
  0
POINT
  5
3BF
330
3B8
100
AcDbEntity
  8
DEFPOINTS
 62
     0
100
AcDbPoint
 10
381.0899999999999
 20
342.74
 30
0.0
  0
POINT
  5
3C0
330
3B8
100
AcDbEntity
  8
DEFPOINTS
 62
     0
100
AcDbPoint
 10
518.09
 20
385.74
 30
0.0
  0
POINT
  5
3C1
330
3B8
100
AcDbEntity
  8
DEFPOINTS
 62
     0
100
AcDbPoint
 10
518.09
 20
399.74
 30
0.0
  0
ENDBLK
  5
3C3
330
3B8
100
AcDbEntity
  8
0
 62
     1
100
AcDbBlockEnd
  0
BLOCK
  5
55C
330
552
100
AcDbEntity
  8
0
 62
     1
100
AcDbBlockBegin
  2
*D18
 70
     1
 10
0.0
 20
0.0
 30
0.0
  3
*D18
  1

  0
LINE
  5
603
330
552
100
AcDbEntity
  8
画層1
 62
     0
370
    -2
100
AcDbLine
 10
381.0899999999999
 20
343.3699999999999
 30
0.0
 11
381.0899999999999
 21
400.99
 31
0.0
  0
LINE
  5
604
330
552
100
AcDbEntity
  8
画層1
 62
     0
370
    -2
100
AcDbLine
 10
518.09
 20
386.37
 30
0.0
 11
518.09
 21
400.99
 31
0.0
  0
LINE
  5
605
330
552
100
AcDbEntity
  8
画層1
 62
     0
370
    -2
100
AcDbLine
 10
382.5899999999999
 20
399.74
 30
0.0
 11
516.59
 21
399.74
 31
0.0
  0
INSERT
  5
606
330
552
100
AcDbEntity
  8
画層1
 62
     0
370
    -2
100
AcDbBlockReference
  2
_OPEN30
 10
381.0899999999999
 20
399.74
 30
0.0
 41
1.5
 42
1.5
 43
1.5
 50
180.0
  0
INSERT
  5
607
330
552
100
AcDbEntity
  8
画層1
 62
     0
370
    -2
100
AcDbBlockReference
  2
_OPEN30
 10
518.09
 20
399.74
 30
0.0
 41
1.5
 42
1.5
 43
1.5
  0
MTEXT
  5
608
330
552
100
AcDbEntity
  8
画層1
 62
     0
100
AcDbMText
 10
449.59
 20
401.8293908629441
 30
0.0
 40
2.5
 41
0.0
 71
     5
 72
     1
  1
\A1;(137)
  7
STYLE1
 73
     1
 44
1.0
  0
POINT
  5
609
330
552
100
AcDbEntity
  8
DEFPOINTS
 62
     0
100
AcDbPoint
 10
381.0899999999999
 20
342.74
 30
0.0
  0
POINT
  5
60A
330
552
100
AcDbEntity
  8
DEFPOINTS
 62
     0
100
AcDbPoint
 10
518.09
 20
385.74
 30
0.0
  0
POINT
  5
60B
330
552
100
AcDbEntity
  8
DEFPOINTS
 62
     0
100
AcDbPoint
 10
518.09
 20
399.74
 30
0.0
  0
ENDBLK
  5
55D
330
552
100
AcDbEntity
  8
0
 62
     1
100
AcDbBlockEnd
  0
BLOCK
  5
56F
330
565
100
AcDbEntity
  8
0
 62
     0
100
AcDbBlockBegin
  2
*D19
 70
     1
 10
0.0
 20
0.0
 30
0.0
  3
*D19
  1

  0
LINE
  5
566
330
565
100
AcDbEntity
  8
画層1
 62
     0
370
    -2
100
AcDbLine
 10
195.72
 20
135.74
 30
0.0
 11
228.3399999999999
 21
135.74
 31
0.0
  0
LINE
  5
567
330
565
100
AcDbEntity
  8
画層1
 62
     0
370
    -2
100
AcDbLine
 10
195.72
 20
385.74
 30
0.0
 11
228.3399999999999
 21
385.74
 31
0.0
  0
LINE
  5
568
330
565
100
AcDbEntity
  8
画層1
 62
     0
370
    -2
100
AcDbLine
 10
227.0899999999999
 20
137.24
 30
0.0
 11
227.09
 21
384.2399999999999
 31
0.0
  0
INSERT
  5
569
330
565
100
AcDbEntity
  8
画層1
 62
     0
370
    -2
100
AcDbBlockReference
  2
_OPEN30
 10
227.0899999999999
 20
135.74
 30
0.0
 41
1.5
 42
1.5
 43
1.5
 50
270.0
  0
INSERT
  5
56A
330
565
100
AcDbEntity
  8
画層1
 62
     0
370
    -2
100
AcDbBlockReference
  2
_OPEN30
 10
227.09
 20
385.74
 30
0.0
 41
1.5
 42
1.5
 43
1.5
 50
90.0
  0
MTEXT
  5
56B
330
565
100
AcDbEntity
  8
画層1
 62
     0
100
AcDbMText
 10
225.2099999999999
 20
260.74
 30
0.0
 40
2.5
 41
0.0
 71
     5
 72
     1
  1
\A1;250
  7
STYLE1
 11
0.0000000000000001
 21
1.0
 31
0.0
 73
     1
 44
1.0
  0
POINT
  5
56C
330
565
100
AcDbEntity
  8
DEFPOINTS
 62
     0
100
AcDbPoint
 10
195.09
 20
135.74
 30
0.0
  0
POINT
  5
56D
330
565
100
AcDbEntity
  8
DEFPOINTS
 62
     0
100
AcDbPoint
 10
195.09
 20
385.74
 30
0.0
  0
POINT
  5
56E
330
565
100
AcDbEntity
  8
DEFPOINTS
 62
     0
100
AcDbPoint
 10
227.09
 20
385.74
 30
0.0
  0
ENDBLK
  5
570
330
565
100
AcDbEntity
  8
0
 62
     0
100
AcDbBlockEnd
  0
BLOCK
  5
57B
330
571
100
AcDbEntity
  8
0
 62
     0
100
AcDbBlockBegin
  2
*D20
 70
     1
 10
0.0
 20
0.0
 30
0.0
  3
*D20
  1

  0
LINE
  5
572
330
571
100
AcDbEntity
  8
画層1
 62
     0
370
    -2
100
AcDbLine
 10
151.96
 20
379.74
 30
0.0
 11
83.84000000000005
 21
379.74
 31
0.0
  0
LINE
  5
573
330
571
100
AcDbEntity
  8
画層1
 62
     0
370
    -2
100
AcDbLine
 10
151.96
 20
141.74
 30
0.0
 11
83.84
 21
141.74
 31
0.0
  0
LINE
  5
574
330
571
100
AcDbEntity
  8
画層1
 62
     0
370
    -2
100
AcDbLine
 10
85.09000000000005
 20
378.24
 30
0.0
 11
85.09
 21
143.24
 31
0.0
  0
INSERT
  5
575
330
571
100
AcDbEntity
  8
画層1
 62
     0
370
    -2
100
AcDbBlockReference
  2
_OPEN30
 10
85.09000000000005
 20
379.74
 30
0.0
 41
1.5
 42
1.5
 43
1.5
 50
90.0
  0
INSERT
  5
576
330
571
100
AcDbEntity
  8
画層1
 62
     0
370
    -2
100
AcDbBlockReference
  2
_OPEN30
 10
85.09
 20
141.74
 30
0.0
 41
1.5
 42
1.5
 43
1.5
 50
270.0
  0
MTEXT
  5
577
330
571
100
AcDbEntity
  8
画層1
 62
     0
100
AcDbMText
 10
83.20999999999999
 20
260.74
 30
0.0
 40
2.5
 41
0.0
 71
     5
 72
     1
  1
\A1;238
  7
STYLE1
 11
0.0000000000000001
 21
1.0
 31
0.0
 73
     1
 44
1.0
  0
POINT
  5
578
330
571
100
AcDbEntity
  8
DEFPOINTS
 62
     0
100
AcDbPoint
 10
152.59
 20
379.74
 30
0.0
  0
POINT
  5
579
330
571
100
AcDbEntity
  8
DEFPOINTS
 62
     0
100
AcDbPoint
 10
152.59
 20
141.74
 30
0.0
  0
POINT
  5
57A
330
571
100
AcDbEntity
  8
DEFPOINTS
 62
     0
100
AcDbPoint
 10
85.09
 20
141.74
 30
0.0
  0
ENDBLK
  5
57C
330
571
100
AcDbEntity
  8
0
 62
     0
100
AcDbBlockEnd
  0
BLOCK
  5
588
330
57D
100
AcDbEntity
  8
0
 62
     0
100
AcDbBlockBegin
  2
*D21
 70
     1
 10
0.0
 20
0.0
 30
0.0
  3
*D21
  1

  0
LINE
  5
57E
330
57D
100
AcDbEntity
  8
画層1
 62
     0
370
    -2
100
AcDbLine
 10
152.59
 20
135.11
 30
0.0
 11
152.59
 21
120.49
 31
0.0
  0
LINE
  5
57F
330
57D
100
AcDbEntity
  8
画層1
 62
     0
370
    -2
100
AcDbLine
 10
158.59
 20
135.11
 30
0.0
 11
158.59
 21
120.49
 31
0.0
  0
LINE
  5
580
330
57D
100
AcDbEntity
  8
画層1
 62
     0
370
    -2
100
AcDbLine
 10
154.09
 20
121.74
 30
0.0
 11
157.0899999999999
 21
121.74
 31
0.0
  0
LINE
  5
581
330
57D
100
AcDbEntity
  8
画層1
 62
     0
370
    -2
100
AcDbLine
 10
158.59
 20
121.74
 30
0.0
 11
178.4185279187817
 21
121.74
 31
0.0
  0
INSERT
  5
582
330
57D
100
AcDbEntity
  8
画層1
 62
     0
370
    -2
100
AcDbBlockReference
  2
_OPEN30
 10
152.59
 20
121.74
 30
0.0
 41
1.5
 42
1.5
 43
1.5
 50
180.0
  0
INSERT
  5
583
330
57D
100
AcDbEntity
  8
画層1
 62
     0
370
    -2
100
AcDbBlockReference
  2
_OPEN30
 10
158.59
 20
121.74
 30
0.0
 41
1.5
 42
1.5
 43
1.5
  0
MTEXT
  5
584
330
57D
100
AcDbEntity
  8
画層1
 62
     0
100
AcDbMText
 10
169.2542639593908
 20
123.861116751269
 30
0.0
 40
2.5
 41
0.0
 71
     5
 72
     1
  1
\A1;φ6キリカキ
  7
STYLE1
 73
     1
 44
1.0
  0
POINT
  5
585
330
57D
100
AcDbEntity
  8
DEFPOINTS
 62
     0
100
AcDbPoint
 10
152.59
 20
135.74
 30
0.0
  0
POINT
  5
586
330
57D
100
AcDbEntity
  8
DEFPOINTS
 62
     0
100
AcDbPoint
 10
158.59
 20
135.74
 30
0.0
  0
POINT
  5
587
330
57D
100
AcDbEntity
  8
DEFPOINTS
 62
     0
100
AcDbPoint
 10
158.59
 20
121.74
 30
0.0
  0
ENDBLK
  5
589
330
57D
100
AcDbEntity
  8
0
 62
     0
100
AcDbBlockEnd
  0
BLOCK
  5
594
330
58A
100
AcDbEntity
  8
0
 62
     0
100
AcDbBlockBegin
  2
*D22
 70
     1
 10
0.0
 20
0.0
 30
0.0
  3
*D22
  1

  0
LINE
  5
58B
330
58A
100
AcDbEntity
  8
画層1
 62
     0
370
    -2
100
AcDbLine
 10
144.09
 20
186.37
 30
0.0
 11
144.09
 21
200.99
 31
0.0
  0
LINE
  5
58C
330
58A
100
AcDbEntity
  8
画層1
 62
     0
370
    -2
100
AcDbLine
 10
154.09
 20
186.37
 30
0.0
 11
154.09
 21
200.99
 31
0.0
  0
LINE
  5
58D
330
58A
100
AcDbEntity
  8
画層1
 62
     0
370
    -2
100
AcDbLine
 10
145.5899999999999
 20
199.74
 30
0.0
 11
152.59
 21
199.74
 31
0.0
  0
INSERT
  5
58E
330
58A
100
AcDbEntity
  8
画層1
 62
     0
370
    -2
100
AcDbBlockReference
  2
_OPEN30
 10
144.09
 20
199.74
 30
0.0
 41
1.5
 42
1.5
 43
1.5
 50
180.0
  0
INSERT
  5
58F
330
58A
100
AcDbEntity
  8
画層1
 62
     0
370
    -2
100
AcDbBlockReference
  2
_OPEN30
 10
154.09
 20
199.74
 30
0.0
 41
1.5
 42
1.5
 43
1.5
  0
MTEXT
  5
590
330
58A
100
AcDbEntity
  8
画層1
 62
     0
100
AcDbMText
 10
149.09
 20
201.6199999999999
 30
0.0
 40
2.5
 41
0.0
 71
     5
 72
     1
  1
\A1;10
  7
STYLE1
 73
     1
 44
1.0
  0
POINT
  5
591
330
58A
100
AcDbEntity
  8
DEFPOINTS
 62
     0
100
AcDbPoint
 10
144.09
 20
185.74
 30
0.0
  0
POINT
  5
592
330
58A
100
AcDbEntity
  8
DEFPOINTS
 62
     0
100
AcDbPoint
 10
154.09
 20
185.74
 30
0.0
  0
POINT
  5
593
330
58A
100
AcDbEntity
  8
DEFPOINTS
 62
     0
100
AcDbPoint
 10
154.09
 20
199.74
 30
0.0
  0
ENDBLK
  5
595
330
58A
100
AcDbEntity
  8
0
 62
     0
100
AcDbBlockEnd
  0
BLOCK
  5
5A0
330
596
100
AcDbEntity
  8
0
 62
     0
100
AcDbBlockBegin
  2
*D23
 70
     1
 10
0.0
 20
0.0
 30
0.0
  3
*D23
  1

  0
LINE
  5
597
330
596
100
AcDbEntity
  8
画層1
 62
     0
370
    -2
100
AcDbLine
 10
195.72
 20
135.74
 30
0.0
 11
214.34
 21
135.74
 31
0.0
  0
LINE
  5
598
330
596
100
AcDbEntity
  8
画層1
 62
     0
370
    -2
100
AcDbLine
 10
191.72
 20
173.74
 30
0.0
 11
214.34
 21
173.7399999999999
 31
0.0
  0
LINE
  5
599
330
596
100
AcDbEntity
  8
画層1
 62
     0
370
    -2
100
AcDbLine
 10
213.09
 20
137.24
 30
0.0
 11
213.09
 21
172.2399999999999
 31
0.0
  0
INSERT
  5
59A
330
596
100
AcDbEntity
  8
画層1
 62
     0
370
    -2
100
AcDbBlockReference
  2
_OPEN30
 10
213.09
 20
135.74
 30
0.0
 41
1.5
 42
1.5
 43
1.5
 50
270.0
  0
INSERT
  5
59B
330
596
100
AcDbEntity
  8
画層1
 62
     0
370
    -2
100
AcDbBlockReference
  2
_OPEN30
 10
213.09
 20
173.7399999999999
 30
0.0
 41
1.5
 42
1.5
 43
1.5
 50
90.0
  0
MTEXT
  5
59C
330
596
100
AcDbEntity
  8
画層1
 62
     0
100
AcDbMText
 10
211.2099999999999
 20
154.74
 30
0.0
 40
2.5
 41
0.0
 71
     5
 72
     1
  1
\A1;38
  7
STYLE1
 11
0.0000000000000001
 21
1.0
 31
0.0
 73
     1
 44
1.0
  0
POINT
  5
59D
330
596
100
AcDbEntity
  8
DEFPOINTS
 62
     0
100
AcDbPoint
 10
195.09
 20
135.74
 30
0.0
  0
POINT
  5
59E
330
596
100
AcDbEntity
  8
DEFPOINTS
 62
     0
100
AcDbPoint
 10
191.0899999999999
 20
173.74
 30
0.0
  0
POINT
  5
59F
330
596
100
AcDbEntity
  8
DEFPOINTS
 62
     0
100
AcDbPoint
 10
213.09
 20
173.7399999999999
 30
0.0
  0
ENDBLK
  5
5A1
330
596
100
AcDbEntity
  8
0
 62
     0
100
AcDbBlockEnd
  0
BLOCK
  5
5AC
330
5A2
100
AcDbEntity
  8
0
 62
     0
100
AcDbBlockBegin
  2
*D24
 70
     1
 10
0.0
 20
0.0
 30
0.0
  3
*D24
  1

  0
LINE
  5
5A3
330
5A2
100
AcDbEntity
  8
画層1
 62
     0
370
    -2
100
AcDbLine
 10
118.66
 20
328.94
 30
0.0
 11
97.84
 21
328.94
 31
0.0
  0
LINE
  5
5A4
330
5A2
100
AcDbEntity
  8
画層1
 62
     0
370
    -2
100
AcDbLine
 10
118.66
 20
336.94
 30
0.0
 11
97.84
 21
336.94
 31
0.0
  0
LINE
  5
5A5
330
5A2
100
AcDbEntity
  8
画層1
 62
     0
370
    -2
100
AcDbLine
 10
99.09
 20
330.44
 30
0.0
 11
99.09
 21
335.44
 31
0.0
  0
INSERT
  5
5A6
330
5A2
100
AcDbEntity
  8
画層1
 62
     0
370
    -2
100
AcDbBlockReference
  2
_OPEN30
 10
99.09
 20
328.94
 30
0.0
 41
1.5
 42
1.5
 43
1.5
 50
270.0
  0
INSERT
  5
5A7
330
5A2
100
AcDbEntity
  8
画層1
 62
     0
370
    -2
100
AcDbBlockReference
  2
_OPEN30
 10
99.09
 20
336.94
 30
0.0
 41
1.5
 42
1.5
 43
1.5
 50
90.0
  0
MTEXT
  5
5A8
330
5A2
100
AcDbEntity
  8
画層1
 62
     0
100
AcDbMText
 10
97.20999999999996
 20
332.94
 30
0.0
 40
2.5
 41
0.0
 71
     5
 72
     1
  1
\A1;8
  7
STYLE1
 11
0.0000000000000001
 21
1.0
 31
0.0
 73
     1
 44
1.0
  0
POINT
  5
5A9
330
5A2
100
AcDbEntity
  8
DEFPOINTS
 62
     0
100
AcDbPoint
 10
119.29
 20
328.94
 30
0.0
  0
POINT
  5
5AA
330
5A2
100
AcDbEntity
  8
DEFPOINTS
 62
     0
100
AcDbPoint
 10
119.29
 20
336.94
 30
0.0
  0
POINT
  5
5AB
330
5A2
100
AcDbEntity
  8
DEFPOINTS
 62
     0
100
AcDbPoint
 10
99.09
 20
336.94
 30
0.0
  0
ENDBLK
  5
5AD
330
5A2
100
AcDbEntity
  8
0
 62
     0
100
AcDbBlockEnd
  0
BLOCK
  5
5B8
330
5AE
100
AcDbEntity
  8
0
 62
     0
100
AcDbBlockBegin
  2
*D25
 70
     1
 10
0.0
 20
0.0
 30
0.0
  3
*D25
  1

  0
LINE
  5
5AF
330
5AE
100
AcDbEntity
  8
画層1
 62
     0
370
    -2
100
AcDbLine
 10
115.09
 20
386.37
 30
0.0
 11
115.09
 21
422.9
 31
0.0
  0
LINE
  5
5B0
330
5AE
100
AcDbEntity
  8
画層1
 62
     0
370
    -2
100
AcDbLine
 10
195.09
 20
386.37
 30
0.0
 11
195.09
 21
422.9
 31
0.0
  0
LINE
  5
5B1
330
5AE
100
AcDbEntity
  8
画層1
 62
     0
370
    -2
100
AcDbLine
 10
116.59
 20
421.6499999999999
 30
0.0
 11
193.59
 21
421.6499999999999
 31
0.0
  0
INSERT
  5
5B2
330
5AE
100
AcDbEntity
  8
画層1
 62
     0
370
    -2
100
AcDbBlockReference
  2
_OPEN30
 10
115.09
 20
421.6499999999999
 30
0.0
 41
1.5
 42
1.5
 43
1.5
 50
180.0
  0
INSERT
  5
5B3
330
5AE
100
AcDbEntity
  8
画層1
 62
     0
370
    -2
100
AcDbBlockReference
  2
_OPEN30
 10
195.09
 20
421.6499999999999
 30
0.0
 41
1.5
 42
1.5
 43
1.5
  0
MTEXT
  5
5B4
330
5AE
100
AcDbEntity
  8
画層1
 62
     0
100
AcDbMText
 10
155.09
 20
423.5299999999999
 30
0.0
 40
2.5
 41
0.0
 71
     5
 72
     1
  1
\A1;80
  7
STYLE1
 73
     1
 44
1.0
  0
POINT
  5
5B5
330
5AE
100
AcDbEntity
  8
DEFPOINTS
 62
     0
100
AcDbPoint
 10
115.09
 20
385.74
 30
0.0
  0
POINT
  5
5B6
330
5AE
100
AcDbEntity
  8
DEFPOINTS
 62
     0
100
AcDbPoint
 10
195.09
 20
385.74
 30
0.0
  0
POINT
  5
5B7
330
5AE
100
AcDbEntity
  8
DEFPOINTS
 62
     0
100
AcDbPoint
 10
195.09
 20
421.6499999999999
 30
0.0
  0
ENDBLK
  5
5B9
330
5AE
100
AcDbEntity
  8
0
 62
     0
100
AcDbBlockEnd
  0
BLOCK
  5
5C4
330
5BA
100
AcDbEntity
  8
0
 62
     0
100
AcDbBlockBegin
  2
*D26
 70
     1
 10
0.0
 20
0.0
 30
0.0
  3
*D26
  1

  0
LINE
  5
5BB
330
5BA
100
AcDbEntity
  8
画層1
 62
     0
370
    -2
100
AcDbLine
 10
112.59
 20
367.9699999999999
 30
0.0
 11
112.59
 21
428.99
 31
0.0
  0
LINE
  5
5BC
330
5BA
100
AcDbEntity
  8
画層1
 62
     0
370
    -2
100
AcDbLine
 10
199.5899999999999
 20
367.9699999999999
 30
0.0
 11
199.5899999999999
 21
428.99
 31
0.0
  0
LINE
  5
5BD
330
5BA
100
AcDbEntity
  8
画層1
 62
     0
370
    -2
100
AcDbLine
 10
114.09
 20
427.74
 30
0.0
 11
198.09
 21
427.74
 31
0.0
  0
INSERT
  5
5BE
330
5BA
100
AcDbEntity
  8
画層1
 62
     0
370
    -2
100
AcDbBlockReference
  2
_OPEN30
 10
112.59
 20
427.74
 30
0.0
 41
1.5
 42
1.5
 43
1.5
 50
180.0
  0
INSERT
  5
5BF
330
5BA
100
AcDbEntity
  8
画層1
 62
     0
370
    -2
100
AcDbBlockReference
  2
_OPEN30
 10
199.5899999999999
 20
427.74
 30
0.0
 41
1.5
 42
1.5
 43
1.5
  0
MTEXT
  5
5C0
330
5BA
100
AcDbEntity
  8
画層1
 62
     0
100
AcDbMText
 10
156.09
 20
429.6199999999999
 30
0.0
 40
2.5
 41
0.0
 71
     5
 72
     1
  1
\A1;87
  7
STYLE1
 73
     1
 44
1.0
  0
POINT
  5
5C1
330
5BA
100
AcDbEntity
  8
DEFPOINTS
 62
     0
100
AcDbPoint
 10
112.59
 20
367.3399999999999
 30
0.0
  0
POINT
  5
5C2
330
5BA
100
AcDbEntity
  8
DEFPOINTS
 62
     0
100
AcDbPoint
 10
199.5899999999999
 20
367.3399999999999
 30
0.0
  0
POINT
  5
5C3
330
5BA
100
AcDbEntity
  8
DEFPOINTS
 62
     0
100
AcDbPoint
 10
199.5899999999999
 20
427.74
 30
0.0
  0
ENDBLK
  5
5C5
330
5BA
100
AcDbEntity
  8
0
 62
     0
100
AcDbBlockEnd
  0
BLOCK
  5
5D0
330
5C6
100
AcDbEntity
  8
0
 62
     0
100
AcDbBlockBegin
  2
*D27
 70
     1
 10
0.0
 20
0.0
 30
0.0
  3
*D27
  1

  0
LINE
  5
5C7
330
5C6
100
AcDbEntity
  8
画層1
 62
     0
370
    -2
100
AcDbLine
 10
195.09
 20
386.37
 30
0.0
 11
195.09
 21
414.99
 31
0.0
  0
LINE
  5
5C8
330
5C6
100
AcDbEntity
  8
画層1
 62
     0
370
    -2
100
AcDbLine
 10
115.09
 20
386.37
 30
0.0
 11
115.09
 21
414.99
 31
0.0
  0
LINE
  5
5C9
330
5C6
100
AcDbEntity
  8
画層1
 62
     0
370
    -2
100
AcDbLine
 10
193.59
 20
413.74
 30
0.0
 11
116.59
 21
413.74
 31
0.0
  0
INSERT
  5
5CA
330
5C6
100
AcDbEntity
  8
画層1
 62
     0
370
    -2
100
AcDbBlockReference
  2
_OPEN30
 10
195.09
 20
413.74
 30
0.0
 41
1.5
 42
1.5
 43
1.5
  0
INSERT
  5
5CB
330
5C6
100
AcDbEntity
  8
画層1
 62
     0
370
    -2
100
AcDbBlockReference
  2
_OPEN30
 10
115.09
 20
413.74
 30
0.0
 41
1.5
 42
1.5
 43
1.5
 50
180.0
  0
MTEXT
  5
5CC
330
5C6
100
AcDbEntity
  8
画層1
 62
     0
100
AcDbMText
 10
155.09
 20
415.62
 30
0.0
 40
2.5
 41
0.0
 71
     5
 72
     1
  1
\A1;80
  7
STYLE1
 73
     1
 44
1.0
  0
POINT
  5
5CD
330
5C6
100
AcDbEntity
  8
DEFPOINTS
 62
     0
100
AcDbPoint
 10
195.09
 20
385.74
 30
0.0
  0
POINT
  5
5CE
330
5C6
100
AcDbEntity
  8
DEFPOINTS
 62
     0
100
AcDbPoint
 10
115.09
 20
385.74
 30
0.0
  0
POINT
  5
5CF
330
5C6
100
AcDbEntity
  8
DEFPOINTS
 62
     0
100
AcDbPoint
 10
115.09
 20
413.74
 30
0.0
  0
ENDBLK
  5
5D1
330
5C6
100
AcDbEntity
  8
0
 62
     0
100
AcDbBlockEnd
  0
BLOCK
  5
5DC
330
5D2
100
AcDbEntity
  8
0
 62
     0
100
AcDbBlockBegin
  2
*D28
 70
     1
 10
0.0
 20
0.0
 30
0.0
  3
*D28
  1

  0
LINE
  5
5D3
330
5D2
100
AcDbEntity
  8
画層1
 62
     0
370
    -2
100
AcDbLine
 10
195.09
 20
386.37
 30
0.0
 11
195.09
 21
400.99
 31
0.0
  0
LINE
  5
5D4
330
5D2
100
AcDbEntity
  8
画層1
 62
     0
370
    -2
100
AcDbLine
 10
155.59
 20
386.37
 30
0.0
 11
155.59
 21
400.99
 31
0.0
  0
LINE
  5
5D5
330
5D2
100
AcDbEntity
  8
画層1
 62
     0
370
    -2
100
AcDbLine
 10
193.59
 20
399.74
 30
0.0
 11
157.0899999999999
 21
399.74
 31
0.0
  0
INSERT
  5
5D6
330
5D2
100
AcDbEntity
  8
画層1
 62
     0
370
    -2
100
AcDbBlockReference
  2
_OPEN30
 10
195.09
 20
399.74
 30
0.0
 41
1.5
 42
1.5
 43
1.5
  0
INSERT
  5
5D7
330
5D2
100
AcDbEntity
  8
画層1
 62
     0
370
    -2
100
AcDbBlockReference
  2
_OPEN30
 10
155.59
 20
399.74
 30
0.0
 41
1.5
 42
1.5
 43
1.5
 50
180.0
  0
MTEXT
  5
5D8
330
5D2
100
AcDbEntity
  8
画層1
 62
     0
100
AcDbMText
 10
175.34
 20
401.8293908629441
 30
0.0
 40
2.5
 41
0.0
 71
     5
 72
     1
  1
\A1;(39.5)
  7
STYLE1
 73
     1
 44
1.0
  0
POINT
  5
5D9
330
5D2
100
AcDbEntity
  8
DEFPOINTS
 62
     0
100
AcDbPoint
 10
195.09
 20
385.74
 30
0.0
  0
POINT
  5
5DA
330
5D2
100
AcDbEntity
  8
DEFPOINTS
 62
     0
100
AcDbPoint
 10
155.59
 20
385.74
 30
0.0
  0
POINT
  5
5DB
330
5D2
100
AcDbEntity
  8
DEFPOINTS
 62
     0
100
AcDbPoint
 10
155.59
 20
399.74
 30
0.0
  0
ENDBLK
  5
5DD
330
5D2
100
AcDbEntity
  8
0
 62
     0
100
AcDbBlockEnd
  0
BLOCK
  5
5E9
330
5DE
100
AcDbEntity
  8
0
 62
     0
100
AcDbBlockBegin
  2
*D29
 70
     1
 10
0.0
 20
0.0
 30
0.0
  3
*D29
  1

  0
LINE
  5
5DF
330
5DE
100
AcDbEntity
  8
画層1
 62
     0
370
    -2
100
AcDbLine
 10
199.5899999999999
 20
367.9699999999999
 30
0.0
 11
199.5899999999999
 21
414.99
 31
0.0
  0
LINE
  5
5E0
330
5DE
100
AcDbEntity
  8
画層1
 62
     0
370
    -2
100
AcDbLine
 10
195.09
 20
386.37
 30
0.0
 11
195.09
 21
414.99
 31
0.0
  0
LINE
  5
5E1
330
5DE
100
AcDbEntity
  8
画層1
 62
     0
370
    -2
100
AcDbLine
 10
196.5899999999999
 20
413.74
 30
0.0
 11
198.09
 21
413.74
 31
0.0
  0
LINE
  5
5E2
330
5DE
100
AcDbEntity
  8
画層1
 62
     0
370
    -2
100
AcDbLine
 10
199.5899999999999
 20
413.74
 30
0.0
 11
214.3406091370558
 21
413.74
 31
0.0
  0
INSERT
  5
5E3
330
5DE
100
AcDbEntity
  8
画層1
 62
     0
370
    -2
100
AcDbBlockReference
  2
_OPEN30
 10
195.09
 20
413.74
 30
0.0
 41
1.5
 42
1.5
 43
1.5
 50
180.0
  0
INSERT
  5
5E4
330
5DE
100
AcDbEntity
  8
画層1
 62
     0
370
    -2
100
AcDbBlockReference
  2
_OPEN30
 10
199.5899999999999
 20
413.74
 30
0.0
 41
1.5
 42
1.5
 43
1.5
  0
MTEXT
  5
5E5
330
5DE
100
AcDbEntity
  8
画層1
 62
     0
100
AcDbMText
 10
211.4199999999999
 20
415.62
 30
0.0
 40
2.5
 41
0.0
 71
     5
 72
     1
  1
\A1;4.5
  7
STYLE1
 73
     1
 44
1.0
  0
POINT
  5
5E6
330
5DE
100
AcDbEntity
  8
DEFPOINTS
 62
     0
100
AcDbPoint
 10
199.5899999999999
 20
367.3399999999999
 30
0.0
  0
POINT
  5
5E7
330
5DE
100
AcDbEntity
  8
DEFPOINTS
 62
     0
100
AcDbPoint
 10
195.09
 20
385.74
 30
0.0
  0
POINT
  5
5E8
330
5DE
100
AcDbEntity
  8
DEFPOINTS
 62
     0
100
AcDbPoint
 10
195.09
 20
413.74
 30
0.0
  0
ENDBLK
  5
5EA
330
5DE
100
AcDbEntity
  8
0
 62
     0
100
AcDbBlockEnd
  0
BLOCK
  5
5F5
330
5EB
100
AcDbEntity
  8
0
 62
     0
100
AcDbBlockBegin
  2
*D30
 70
     1
 10
0.0
 20
0.0
 30
0.0
  3
*D30
  1

  0
LINE
  5
5EC
330
5EB
100
AcDbEntity
  8
画層1
 62
     0
370
    -2
100
AcDbLine
 10
518.09
 20
135.11
 30
0.0
 11
518.09
 21
120.49
 31
0.0
  0
LINE
  5
5ED
330
5EB
100
AcDbEntity
  8
画層1
 62
     0
370
    -2
100
AcDbLine
 10
428.0899999999999
 20
163.11
 30
0.0
 11
428.0899999999999
 21
120.49
 31
0.0
  0
LINE
  5
5EE
330
5EB
100
AcDbEntity
  8
画層1
 62
     0
370
    -2
100
AcDbLine
 10
516.59
 20
121.74
 30
0.0
 11
429.5899999999999
 21
121.74
 31
0.0
  0
INSERT
  5
5EF
330
5EB
100
AcDbEntity
  8
画層1
 62
     0
370
    -2
100
AcDbBlockReference
  2
_OPEN30
 10
518.09
 20
121.74
 30
0.0
 41
1.5
 42
1.5
 43
1.5
  0
INSERT
  5
5F0
330
5EB
100
AcDbEntity
  8
画層1
 62
     0
370
    -2
100
AcDbBlockReference
  2
_OPEN30
 10
428.0899999999999
 20
121.74
 30
0.0
 41
1.5
 42
1.5
 43
1.5
 50
180.0
  0
MTEXT
  5
5F1
330
5EB
100
AcDbEntity
  8
画層1
 62
     0
100
AcDbMText
 10
473.09
 20
123.8293908629441
 30
0.0
 40
2.5
 41
0.0
 71
     5
 72
     1
  1
\A1;(90)
  7
STYLE1
 73
     1
 44
1.0
  0
POINT
  5
5F2
330
5EB
100
AcDbEntity
  8
DEFPOINTS
 62
     0
100
AcDbPoint
 10
518.09
 20
135.74
 30
0.0
  0
POINT
  5
5F3
330
5EB
100
AcDbEntity
  8
DEFPOINTS
 62
     0
100
AcDbPoint
 10
428.0899999999999
 20
163.74
 30
0.0
  0
POINT
  5
5F4
330
5EB
100
AcDbEntity
  8
DEFPOINTS
 62
     0
100
AcDbPoint
 10
428.0899999999999
 20
121.74
 30
0.0
  0
ENDBLK
  5
5F6
330
5EB
100
AcDbEntity
  8
0
 62
     0
100
AcDbBlockEnd
  0
BLOCK
  5
601
330
5F7
100
AcDbEntity
  8
0
 62
     0
100
AcDbBlockBegin
  2
*D31
 70
     1
 10
0.0
 20
0.0
 30
0.0
  3
*D31
  1

  0
LINE
  5
5F8
330
5F7
100
AcDbEntity
  8
画層1
 62
     0
370
    -2
100
AcDbLine
 10
352.0899999999999
 20
382.9699999999999
 30
0.0
 11
352.0899999999999
 21
414.99
 31
0.0
  0
LINE
  5
5F9
330
5F7
100
AcDbEntity
  8
画層1
 62
     0
370
    -2
100
AcDbLine
 10
518.09
 20
387.62
 30
0.0
 11
518.09
 21
414.99
 31
0.0
  0
LINE
  5
5FA
330
5F7
100
AcDbEntity
  8
画層1
 62
     0
370
    -2
100
AcDbLine
 10
353.5899999999999
 20
413.74
 30
0.0
 11
516.59
 21
413.74
 31
0.0
  0
INSERT
  5
5FB
330
5F7
100
AcDbEntity
  8
画層1
 62
     0
370
    -2
100
AcDbBlockReference
  2
_OPEN30
 10
352.0899999999999
 20
413.74
 30
0.0
 41
1.5
 42
1.5
 43
1.5
 50
180.0
  0
INSERT
  5
5FC
330
5F7
100
AcDbEntity
  8
画層1
 62
     0
370
    -2
100
AcDbBlockReference
  2
_OPEN30
 10
518.09
 20
413.74
 30
0.0
 41
1.5
 42
1.5
 43
1.5
  0
MTEXT
  5
5FD
330
5F7
100
AcDbEntity
  8
画層1
 62
     0
100
AcDbMText
 10
435.09
 20
415.62
 30
0.0
 40
2.5
 41
0.0
 71
     5
 72
     1
  1
\A1;166
  7
STYLE1
 73
     1
 44
1.0
  0
POINT
  5
5FE
330
5F7
100
AcDbEntity
  8
DEFPOINTS
 62
     0
100
AcDbPoint
 10
352.0899999999999
 20
382.3399999999999
 30
0.0
  0
POINT
  5
5FF
330
5F7
100
AcDbEntity
  8
DEFPOINTS
 62
     0
100
AcDbPoint
 10
518.09
 20
386.99
 30
0.0
  0
POINT
  5
600
330
5F7
100
AcDbEntity
  8
DEFPOINTS
 62
     0
100
AcDbPoint
 10
518.09
 20
413.74
 30
0.0
  0
ENDBLK
  5
602
330
5F7
100
AcDbEntity
  8
0
 62
     0
100
AcDbBlockEnd
  0
BLOCK
  5
616
330
60C
100
AcDbEntity
  8
0
 62
     0
100
AcDbBlockBegin
  2
*D32
 70
     1
 10
0.0
 20
0.0
 30
0.0
  3
*D32
  1

  0
LINE
  5
60D
330
60C
100
AcDbEntity
  8
画層1
 62
     0
370
    -2
100
AcDbLine
 10
368.5899999999999
 20
345.3699999999999
 30
0.0
 11
368.5899999999999
 21
400.99
 31
0.0
  0
LINE
  5
60E
330
60C
100
AcDbEntity
  8
画層1
 62
     0
370
    -2
100
AcDbLine
 10
381.0899999999999
 20
343.3699999999999
 30
0.0
 11
381.0899999999999
 21
400.99
 31
0.0
  0
LINE
  5
60F
330
60C
100
AcDbEntity
  8
画層1
 62
     0
370
    -2
100
AcDbLine
 10
370.0899999999999
 20
399.74
 30
0.0
 11
379.5899999999999
 21
399.74
 31
0.0
  0
INSERT
  5
610
330
60C
100
AcDbEntity
  8
画層1
 62
     0
370
    -2
100
AcDbBlockReference
  2
_OPEN30
 10
368.5899999999999
 20
399.74
 30
0.0
 41
1.5
 42
1.5
 43
1.5
 50
180.0
  0
INSERT
  5
611
330
60C
100
AcDbEntity
  8
画層1
 62
     0
370
    -2
100
AcDbBlockReference
  2
_OPEN30
 10
381.0899999999999
 20
399.74
 30
0.0
 41
1.5
 42
1.5
 43
1.5
  0
MTEXT
  5
612
330
60C
100
AcDbEntity
  8
画層1
 62
     0
100
AcDbMText
 10
374.8399999999999
 20
401.62
 30
0.0
 40
2.5
 41
0.0
 71
     5
 72
     1
  1
\A1;12.5
  7
STYLE1
 73
     1
 44
1.0
  0
POINT
  5
613
330
60C
100
AcDbEntity
  8
DEFPOINTS
 62
     0
100
AcDbPoint
 10
368.5899999999999
 20
344.74
 30
0.0
  0
POINT
  5
614
330
60C
100
AcDbEntity
  8
DEFPOINTS
 62
     0
100
AcDbPoint
 10
381.0899999999999
 20
342.74
 30
0.0
  0
POINT
  5
615
330
60C
100
AcDbEntity
  8
DEFPOINTS
 62
     0
100
AcDbPoint
 10
381.0899999999999
 20
399.74
 30
0.0
  0
ENDBLK
  5
617
330
60C
100
AcDbEntity
  8
0
 62
     0
100
AcDbBlockEnd
  0
ENDSEC
  0
SECTION
  2
ENTITIES
  0
DIMENSION
  5
36
330
2
100
AcDbEntity
  8
画層1
 62
     0
100
AcDbDimension
  2
*D20
 10
85.09
 20
141.74
 30
0.0
 11
83.20999999999999
 21
260.74
 31
0.0
 70
    32
 71
     5
 42
238.0
  3
STANDARD_WS
100
AcDbAlignedDimension
 13
152.59
 23
379.74
 33
0.0
 14
152.59
 24
141.74
 34
0.0
 50
90.0
100
AcDbRotatedDimension
1001
ACAD
1000
DSTYLE
1002
{
1070
    47
1040
0.6
1070
   144
1040
1.0
1070
   146
1040
0.5
1070
   173
1070
     0
1070
   284
1070
     8
1070
   340
1005
27
1070
   341
1005
28
1070
     5
1000
OPEN30
1070
     6
1000
OPEN30
1002
}
  0
DIMENSION
  5
44
330
2
100
AcDbEntity
  8
画層1
 62
     0
100
AcDbDimension
  2
*D19
 10
227.09
 20
385.74
 30
0.0
 11
225.2099999999999
 21
260.74
 31
0.0
 70
    32
 71
     5
 42
250.0
  3
STANDARD_WS
100
AcDbAlignedDimension
 13
195.09
 23
135.74
 33
0.0
 14
195.09
 24
385.74
 34
0.0
 50
90.0
100
AcDbRotatedDimension
1001
ACAD
1000
DSTYLE
1002
{
1070
    47
1040
0.6
1070
   144
1040
1.0
1070
   146
1040
0.5
1070
   173
1070
     0
1070
   284
1070
     8
1070
   340
1005
27
1070
   341
1005
28
1070
     5
1000
OPEN30
1070
     6
1000
OPEN30
1002
}
  0
LINE
  5
51
330
2
100
AcDbEntity
  8
画層1
 62
     0
100
AcDbLine
 10
195.09
 20
385.74
 30
0.0
 11
195.09
 21
135.74
 31
0.0
  0
LINE
  5
52
330
2
100
AcDbEntity
  8
画層1
 62
     0
100
AcDbLine
 10
115.09
 20
135.74
 30
0.0
 11
115.09
 21
251.74
 31
0.0
  0
LINE
  5
53
330
2
100
AcDbEntity
  8
画層1
 62
     0
100
AcDbLine
 10
192.0899999999999
 20
371.24
 30
0.0
 11
192.0899999999999
 21
150.24
 31
0.0
  0
LINE
  5
54
330
2
100
AcDbEntity
  8
画層1
 62
     0
100
AcDbLine
 10
189.09
 20
358.24
 30
0.0
 11
189.09
 21
153.24
 31
0.0
  0
LINE
  5
55
330
2
100
AcDbEntity
  8
画層1
 62
     0
100
AcDbLine
 10
152.09
 20
153.24
 30
0.0
 11
152.09
 21
358.24
 31
0.0
  0
LINE
  5
56
330
2
100
AcDbEntity
  8
画層1
 62
     0
100
AcDbLine
 10
118.09
 20
150.24
 30
0.0
 11
118.09
 21
250.74
 31
0.0
  0
DIMENSION
  5
57
330
2
100
AcDbEntity
  8
画層1
 62
     0
100
AcDbDimension
  2
*D21
 10
158.59
 20
121.74
 30
0.0
 11
169.2542639593908
 21
123.861116751269
 31
0.0
 70
    32
 71
     5
 42
6.0
  3
STANDARD_WS
100
AcDbAlignedDimension
 13
152.59
 23
135.74
 33
0.0
 14
158.59
 24
135.74
 34
0.0
100
AcDbRotatedDimension
1001
ACAD
1000
DSTYLE
1002
{
1070
     3
1000
φ<>キリカキ
1070
    47
1040
0.6
1070
   144
1040
1.0
1070
   146
1040
0.5
1070
   173
1070
     0
1070
   284
1070
     8
1070
   340
1005
27
1070
   341
1005
28
1070
     5
1000
OPEN30
1070
     6
1000
OPEN30
1002
}
  0
LINE
  5
65
330
2
100
AcDbEntity
  8
画層1
 62
     0
100
AcDbLine
 10
195.09
 20
135.74
 30
0.0
 11
115.09
 21
135.74
 31
0.0
  0
LINE
  5
66
330
2
100
AcDbEntity
  8
画層1
 62
     0
100
AcDbLine
 10
188.59
 20
146.74
 30
0.0
 11
121.5899999999999
 21
146.74
 31
0.0
  0
LINE
  5
67
330
2
100
AcDbEntity
  8
画層1
  6
DASHED2
 62
     0
100
AcDbLine
 10
194.09
 20
145.7399999999999
 30
0.0
 11
119.09
 21
145.7399999999999
 31
0.0
  0
LINE
  5
69
330
2
100
AcDbEntity
  8
画層1
  6
DASHED2
 62
     0
100
AcDbLine
 10
119.09
 20
185.74
 30
0.0
 11
194.09
 21
185.74
 31
0.0
  0
LINE
  5
6A
330
2
100
AcDbEntity
  8
画層1
  6
DASHED2
 62
     0
100
AcDbLine
 10
131.0899999999999
 20
161.74
 30
0.0
 11
193.09
 21
161.74
 31
0.0
  0
LINE
  5
6B
330
2
100
AcDbEntity
  8
画層1
  6
DASHED2
 62
     0
100
AcDbLine
 10
170.09
 20
183.74
 30
0.0
 11
180.09
 21
183.74
 31
0.0
  0
LINE
  5
6C
330
2
100
AcDbEntity
  8
画層1
 62
     0
100
AcDbLine
 10
186.59
 20
150.74
 30
0.0
 11
154.59
 21
150.74
 31
0.0
  0
LINE
  5
6D
330
2
100
AcDbEntity
  8
画層1
  6
DASHED2
 62
     0
100
AcDbLine
 10
180.09
 20
163.74
 30
0.0
 11
170.09
 21
163.74
 31
0.0
  0
LEADER
  5
6E
330
2
100
AcDbEntity
  8
画層1
 62
     0
100
AcDbLeader
  3
STANDARD_WS
 73
     0
 75
     1
 40
5.0
 41
13.9
 76
     3
 10
148.15
 20
169.8499999999999
 30
0.0
 10
134.46
 20
122.37
 30
0.0
 10
132.96
 20
122.37
 30
0.0
340
6F
213
-1.0
223
0.4207616165015227
233
0.0
1001
ACAD
1000
DSTYLE
1002
{
1070
     6
1000
OPEN30
1070
    47
1040
0.6
1070
    77
1070
     2
1070
   144
1040
2.0
1070
   146
1040
0.5
1070
   147
1040
0.63
1070
   284
1070
     8
1070
   340
1005
27
1070
   341
1005
28
1070
   343
1005
28
1002
}
  0
MTEXT
  5
6F
102
{ACAD_REACTORS
330
6E
102
}
330
2
100
AcDbEntity
  8
画層1
 62
     0
100
AcDbMText
 10
133.34
 20
122.57
 30
0.0
 40
5.0
 41
0.0
 71
     9
 72
     1
  1
3-M4
  7
STYLE1
 73
     1
 44
1.0
1001
ACAD
1000
MTEXTBEGIN
1070
    73
1070
     1
1070
    44
1040
1.0
1070
    74
1070
     0
1000
MTEXTEND
1000
MTEXTBEGIN
1070
    73
1070
     1
1070
    44
1040
1.0
1070
    74
1070
     0
1000
MTEXTEND
1000
MTEXTBEGIN
1070
    73
1070
     1
1070
    44
1040
1.0
1070
    74
1070
     0
1000
MTEXTEND
  0
ARC
  5
70
330
2
100
AcDbEntity
  8
画層1
 62
     0
100
AcDbCircle
 10
121.5899999999999
 20
150.24
 30
0.0
 40
3.5
100
AcDbArc
 50
180.0
 51
270.0
  0
LINE
  5
71
330
2
100
AcDbEntity
  8
画層1
 62
     0
100
AcDbLine
 10
113.09
 20
151.34
 30
0.0
 11
113.09
 21
148.1399999999999
 31
0.0
  0
LINE
  5
72
330
2
100
AcDbEntity
  8
画層1
  6
DASHED2
 62
     0
100
AcDbLine
 10
119.09
 20
145.7399999999999
 30
0.0
 11
119.09
 21
185.74
 31
0.0
  0
ARC
  5
73
330
2
100
AcDbEntity
  8
画層1
 62
     0
100
AcDbCircle
 10
114.09
 20
148.1399999999999
 30
0.0
 40
1.0
100
AcDbArc
 50
180.0
 51
270.0
  0
LINE
  5
74
330
2
100
AcDbEntity
  8
画層1
 62
     0
100
AcDbLine
 10
114.09
 20
147.1399999999999
 30
0.0
 11
115.09
 21
147.1399999999999
 31
0.0
  0
LINE
  5
75
330
2
100
AcDbEntity
  8
画層1
  6
CENTER
 62
     0
100
AcDbLine
 10
150.59
 20
141.74
 30
0.0
 11
160.59
 21
141.74
 31
0.0
  0
LINE
  5
77
330
2
100
AcDbEntity
  8
画層1
  6
DASHED2
 62
     0
100
AcDbLine
 10
158.59
 20
141.74
 30
0.0
 11
158.59
 21
135.74
 31
0.0
  0
LINE
  5
78
330
2
100
AcDbEntity
  8
画層1
  6
DASHED2
 62
     0
100
AcDbLine
 10
152.59
 20
141.74
 30
0.0
 11
152.59
 21
135.74
 31
0.0
  0
LINE
  5
79
330
2
100
AcDbEntity
  8
画層1
  6
CENTER
 62
     0
100
AcDbLine
 10
155.59
 20
135.74
 30
0.0
 11
155.59
 21
146.74
 31
0.0
  0
ARC
  5
7A
330
2
100
AcDbEntity
  8
画層1
  6
DASHED2
 62
     0
100
AcDbCircle
 10
155.59
 20
141.74
 30
0.0
 40
3.0
100
AcDbArc
 50
0.0
 51
180.0
  0
LINE
  5
7B
330
2
100
AcDbEntity
  8
画層1
  6
DASHED2
 62
     0
100
AcDbLine
 10
141.0899999999999
 20
163.74
 30
0.0
 11
131.0899999999999
 21
163.74
 31
0.0
  0
LINE
  5
7C
330
2
100
AcDbEntity
  8
画層1
 62
     0
100
AcDbLine
 10
133.0899999999999
 20
173.74
 30
0.0
 11
139.09
 21
173.74
 31
0.0
  0
LINE
  5
7D
330
2
100
AcDbEntity
  8
画層1
  6
DASHED2
 62
     0
100
AcDbLine
 10
131.0899999999999
 20
183.74
 30
0.0
 11
141.0899999999999
 21
183.74
 31
0.0
  0
LINE
  5
7E
330
2
100
AcDbEntity
  8
画層1
  6
DASHED2
 62
     0
100
AcDbLine
 10
131.0899999999999
 20
185.74
 30
0.0
 11
131.0899999999999
 21
161.74
 31
0.0
  0
ARC
  5
7F
330
2
100
AcDbEntity
  8
画層1
 62
     0
100
AcDbCircle
 10
114.09
 20
181.34
 30
0.0
 40
1.0
100
AcDbArc
 50
90.0
 51
180.0
  0
ARC
  5
80
330
2
100
AcDbEntity
  8
画層1
 62
     0
100
AcDbCircle
 10
114.09
 20
151.34
 30
0.0
 40
1.0
100
AcDbArc
 50
90.0
 51
180.0
  0
LINE
  5
81
330
2
100
AcDbEntity
  8
画層1
 62
     0
100
AcDbLine
 10
113.69
 20
149.34
 30
0.0
 11
113.09
 21
149.34
 31
0.0
  0
LINE
  5
82
330
2
100
AcDbEntity
  8
画層1
 62
     0
100
AcDbLine
 10
113.09
 20
150.1399999999999
 30
0.0
 11
113.69
 21
150.1399999999999
 31
0.0
  0
LINE
  5
83
330
2
100
AcDbEntity
  8
画層1
 62
     0
100
AcDbLine
 10
115.09
 20
152.34
 30
0.0
 11
114.09
 21
152.34
 31
0.0
  0
LINE
  5
84
330
2
100
AcDbEntity
  8
画層1
 62
     0
100
AcDbLine
 10
113.69
 20
150.1399999999999
 30
0.0
 11
113.69
 21
149.34
 31
0.0
  0
ARC
  5
85
330
2
100
AcDbEntity
  8
画層1
 62
     0
100
AcDbCircle
 10
114.09
 20
178.1399999999999
 30
0.0
 40
1.0
100
AcDbArc
 50
180.0
 51
270.0
  0
LINE
  5
86
330
2
100
AcDbEntity
  8
画層1
 62
     0
100
AcDbLine
 10
113.69
 20
179.34
 30
0.0
 11
113.09
 21
179.34
 31
0.0
  0
LINE
  5
87
330
2
100
AcDbEntity
  8
画層1
 62
     0
100
AcDbLine
 10
113.09
 20
180.1399999999999
 30
0.0
 11
113.69
 21
180.1399999999999
 31
0.0
  0
LINE
  5
88
330
2
100
AcDbEntity
  8
画層1
 62
     0
100
AcDbLine
 10
113.09
 20
181.34
 30
0.0
 11
113.09
 21
178.1399999999999
 31
0.0
  0
LINE
  5
89
330
2
100
AcDbEntity
  8
画層1
 62
     0
100
AcDbLine
 10
114.09
 20
177.1399999999999
 30
0.0
 11
115.09
 21
177.1399999999999
 31
0.0
  0
LINE
  5
8A
330
2
100
AcDbEntity
  8
画層1
 62
     0
100
AcDbLine
 10
113.69
 20
180.1399999999999
 30
0.0
 11
113.69
 21
179.34
 31
0.0
  0
LINE
  5
8B
330
2
100
AcDbEntity
  8
画層1
 62
     0
100
AcDbLine
 10
136.0899999999999
 20
176.74
 30
0.0
 11
136.0899999999999
 21
170.7399999999999
 31
0.0
  0
LINE
  5
8C
330
2
100
AcDbEntity
  8
画層1
 62
     0
100
AcDbLine
 10
115.09
 20
182.34
 30
0.0
 11
114.09
 21
182.34
 31
0.0
  0
LINE
  5
8D
330
2
100
AcDbEntity
  8
画層1
  6
DASHED2
 62
     0
100
AcDbLine
 10
141.0899999999999
 20
185.74
 30
0.0
 11
141.0899999999999
 21
161.74
 31
0.0
  0
LINE
  5
8E
330
2
100
AcDbEntity
  8
画層1
  6
DASHED2
 62
     0
100
AcDbLine
 10
144.09
 20
185.74
 30
0.0
 11
144.09
 21
161.74
 31
0.0
  0
LINE
  5
8F
330
2
100
AcDbEntity
  8
画層1
  6
DASHED2
 62
     0
100
AcDbLine
 10
154.09
 20
185.74
 30
0.0
 11
154.09
 21
161.74
 31
0.0
  0
LINE
  5
90
330
2
100
AcDbEntity
  8
画層1
  6
DASHED2
 62
     0
100
AcDbLine
 10
157.0899999999999
 20
185.74
 30
0.0
 11
157.0899999999999
 21
161.74
 31
0.0
  0
LINE
  5
91
330
2
100
AcDbEntity
  8
画層1
  6
DASHED2
 62
     0
100
AcDbLine
 10
167.09
 20
185.74
 30
0.0
 11
167.09
 21
161.74
 31
0.0
  0
LINE
  5
92
330
2
100
AcDbEntity
  8
画層1
  6
DASHED2
 62
     0
100
AcDbLine
 10
170.09
 20
185.74
 30
0.0
 11
170.09
 21
161.74
 31
0.0
  0
CIRCLE
  5
93
330
2
100
AcDbEntity
  8
画層1
  6
DASHED2
 62
     0
100
AcDbCircle
 10
162.0899999999999
 20
173.74
 30
0.0
 40
4.0
  0
LINE
  5
94
330
2
100
AcDbEntity
  8
画層1
  6
DASHED2
 62
     0
100
AcDbLine
 10
167.09
 20
163.74
 30
0.0
 11
157.0899999999999
 21
163.74
 31
0.0
  0
LINE
  5
95
330
2
100
AcDbEntity
  8
画層1
  6
DASHED2
 62
     0
100
AcDbLine
 10
154.09
 20
163.74
 30
0.0
 11
144.09
 21
163.74
 31
0.0
  0
ARC
  5
96
330
2
100
AcDbEntity
  8
画層1
 62
     0
100
AcDbCircle
 10
154.59
 20
153.24
 30
0.0
 40
2.5
100
AcDbArc
 50
180.0
 51
270.0
  0
CIRCLE
  5
97
330
2
100
AcDbEntity
  8
画層1
  6
DASHED2
 62
     0
100
AcDbCircle
 10
149.09
 20
173.74
 30
0.0
 40
4.0
  0
LINE
  5
98
330
2
100
AcDbEntity
  8
画層1
  6
DASHED2
 62
     0
100
AcDbLine
 10
148.5899999999999
 20
175.74
 30
0.0
 11
149.5899999999999
 21
175.74
 31
0.0
  0
LINE
  5
99
330
2
100
AcDbEntity
  8
画層1
  6
DASHED2
 62
     0
100
AcDbLine
 10
148.5899999999999
 20
171.74
 30
0.0
 11
149.5899999999999
 21
171.74
 31
0.0
  0
LINE
  5
9A
330
2
100
AcDbEntity
  8
画層1
  6
DASHED2
 62
     0
100
AcDbLine
 10
147.09
 20
173.24
 30
0.0
 11
147.09
 21
174.24
 31
0.0
  0
ARC
  5
9B
330
2
100
AcDbEntity
  8
画層1
  6
DASHED2
 62
     0
100
AcDbCircle
 10
147.59
 20
172.24
 30
0.0
 40
1.0
100
AcDbArc
 50
0.0
 51
90.0
  0
LINE
  5
9C
330
2
100
AcDbEntity
  8
画層1
  6
DASHED2
 62
     0
100
AcDbLine
 10
147.59
 20
173.24
 30
0.0
 11
147.09
 21
173.24
 31
0.0
  0
LINE
  5
9D
330
2
100
AcDbEntity
  8
画層1
  6
DASHED2
 62
     0
100
AcDbLine
 10
148.5899999999999
 20
171.74
 30
0.0
 11
148.5899999999999
 21
172.24
 31
0.0
  0
ARC
  5
9E
330
2
100
AcDbEntity
  8
画層1
  6
DASHED2
 62
     0
100
AcDbCircle
 10
147.59
 20
175.24
 30
0.0
 40
1.0
100
AcDbArc
 50
270.0
 51
0.0
  0
LINE
  5
9F
330
2
100
AcDbEntity
  8
画層1
  6
DASHED2
 62
     0
100
AcDbLine
 10
147.09
 20
174.24
 30
0.0
 11
147.59
 21
174.24
 31
0.0
  0
LINE
  5
A0
330
2
100
AcDbEntity
  8
画層1
  6
DASHED2
 62
     0
100
AcDbLine
 10
148.5899999999999
 20
175.24
 30
0.0
 11
148.5899999999999
 21
175.74
 31
0.0
  0
LINE
  5
A1
330
2
100
AcDbEntity
  8
画層1
  6
DASHED2
 62
     0
100
AcDbLine
 10
151.09
 20
173.24
 30
0.0
 11
151.09
 21
174.24
 31
0.0
  0
LINE
  5
A2
330
2
100
AcDbEntity
  8
画層1
  6
DASHED2
 62
     0
100
AcDbLine
 10
149.5899999999999
 20
172.24
 30
0.0
 11
149.5899999999999
 21
171.74
 31
0.0
  0
ARC
  5
A3
330
2
100
AcDbEntity
  8
画層1
  6
DASHED2
 62
     0
100
AcDbCircle
 10
150.59
 20
172.24
 30
0.0
 40
1.0
100
AcDbArc
 50
90.0
 51
180.0
  0
LINE
  5
A4
330
2
100
AcDbEntity
  8
画層1
  6
DASHED2
 62
     0
100
AcDbLine
 10
151.09
 20
173.24
 30
0.0
 11
150.59
 21
173.24
 31
0.0
  0
LINE
  5
A5
330
2
100
AcDbEntity
  8
画層1
  6
DASHED2
 62
     0
100
AcDbLine
 10
149.5899999999999
 20
175.74
 30
0.0
 11
149.5899999999999
 21
175.24
 31
0.0
  0
LINE
  5
A6
330
2
100
AcDbEntity
  8
画層1
  6
DASHED2
 62
     0
100
AcDbLine
 10
150.59
 20
174.24
 30
0.0
 11
151.09
 21
174.24
 31
0.0
  0
ARC
  5
A7
330
2
100
AcDbEntity
  8
画層1
  6
DASHED2
 62
     0
100
AcDbCircle
 10
150.59
 20
175.24
 30
0.0
 40
1.0
100
AcDbArc
 50
180.0
 51
270.0
  0
LINE
  5
A8
330
2
100
AcDbEntity
  8
画層1
  6
DASHED2
 62
     0
100
AcDbLine
 10
160.09
 20
173.24
 30
0.0
 11
160.09
 21
174.24
 31
0.0
  0
LINE
  5
A9
330
2
100
AcDbEntity
  8
画層1
  6
DASHED2
 62
     0
100
AcDbLine
 10
164.09
 20
173.24
 30
0.0
 11
164.09
 21
174.24
 31
0.0
  0
ARC
  5
AA
330
2
100
AcDbEntity
  8
画層1
  6
DASHED2
 62
     0
100
AcDbCircle
 10
160.59
 20
172.24
 30
0.0
 40
1.0
100
AcDbArc
 50
0.0
 51
90.0
  0
LINE
  5
AB
330
2
100
AcDbEntity
  8
画層1
  6
DASHED2
 62
     0
100
AcDbLine
 10
160.59
 20
173.24
 30
0.0
 11
160.09
 21
173.24
 31
0.0
  0
LINE
  5
AC
330
2
100
AcDbEntity
  8
画層1
  6
DASHED2
 62
     0
100
AcDbLine
 10
164.09
 20
173.24
 30
0.0
 11
163.59
 21
173.24
 31
0.0
  0
LINE
  5
AD
330
2
100
AcDbEntity
  8
画層1
  6
DASHED2
 62
     0
100
AcDbLine
 10
161.59
 20
171.74
 30
0.0
 11
162.59
 21
171.74
 31
0.0
  0
ARC
  5
AE
330
2
100
AcDbEntity
  8
画層1
  6
DASHED2
 62
     0
100
AcDbCircle
 10
163.59
 20
172.24
 30
0.0
 40
1.0
100
AcDbArc
 50
90.0
 51
180.0
  0
LINE
  5
AF
330
2
100
AcDbEntity
  8
画層1
  6
DASHED2
 62
     0
100
AcDbLine
 10
162.59
 20
172.24
 30
0.0
 11
162.59
 21
171.74
 31
0.0
  0
LINE
  5
B0
330
2
100
AcDbEntity
  8
画層1
  6
DASHED2
 62
     0
100
AcDbLine
 10
161.59
 20
171.74
 30
0.0
 11
161.59
 21
172.24
 31
0.0
  0
ARC
  5
B1
330
2
100
AcDbEntity
  8
画層1
  6
DASHED2
 62
     0
100
AcDbCircle
 10
160.59
 20
175.24
 30
0.0
 40
1.0
100
AcDbArc
 50
270.0
 51
0.0
  0
LINE
  5
B2
330
2
100
AcDbEntity
  8
画層1
  6
DASHED2
 62
     0
100
AcDbLine
 10
160.09
 20
174.24
 30
0.0
 11
160.59
 21
174.24
 31
0.0
  0
LINE
  5
B3
330
2
100
AcDbEntity
  8
画層1
  6
DASHED2
 62
     0
100
AcDbLine
 10
161.59
 20
175.74
 30
0.0
 11
162.59
 21
175.74
 31
0.0
  0
LINE
  5
B4
330
2
100
AcDbEntity
  8
画層1
  6
DASHED2
 62
     0
100
AcDbLine
 10
161.59
 20
175.24
 30
0.0
 11
161.59
 21
175.74
 31
0.0
  0
LINE
  5
B5
330
2
100
AcDbEntity
  8
画層1
  6
DASHED2
 62
     0
100
AcDbLine
 10
162.59
 20
175.74
 30
0.0
 11
162.59
 21
175.24
 31
0.0
  0
LINE
  5
B6
330
2
100
AcDbEntity
  8
画層1
  6
DASHED2
 62
     0
100
AcDbLine
 10
163.59
 20
174.24
 30
0.0
 11
164.09
 21
174.24
 31
0.0
  0
ARC
  5
B7
330
2
100
AcDbEntity
  8
画層1
  6
DASHED2
 62
     0
100
AcDbCircle
 10
163.59
 20
175.24
 30
0.0
 40
1.0
100
AcDbArc
 50
180.0
 51
270.0
  0
CIRCLE
  5
B8
330
2
100
AcDbEntity
  8
画層1
  6
DASHED2
 62
     0
100
AcDbCircle
 10
175.09
 20
173.74
 30
0.0
 40
4.0
  0
LINE
  5
B9
330
2
100
AcDbEntity
  8
画層1
  6
DASHED2
 62
     0
100
AcDbLine
 10
177.09
 20
173.24
 30
0.0
 11
177.09
 21
174.24
 31
0.0
  0
LINE
  5
BA
330
2
100
AcDbEntity
  8
画層1
  6
DASHED2
 62
     0
100
AcDbLine
 10
173.09
 20
173.24
 30
0.0
 11
173.09
 21
174.24
 31
0.0
  0
ARC
  5
BB
330
2
100
AcDbEntity
  8
画層1
  6
DASHED2
 62
     0
100
AcDbCircle
 10
173.5899999999999
 20
172.24
 30
0.0
 40
1.0
100
AcDbArc
 50
0.0
 51
90.0
  0
LINE
  5
BC
330
2
100
AcDbEntity
  8
画層1
  6
DASHED2
 62
     0
100
AcDbLine
 10
173.5899999999999
 20
173.24
 30
0.0
 11
173.09
 21
173.24
 31
0.0
  0
LINE
  5
BD
330
2
100
AcDbEntity
  8
画層1
  6
DASHED2
 62
     0
100
AcDbLine
 10
174.5899999999999
 20
171.74
 30
0.0
 11
174.5899999999999
 21
172.24
 31
0.0
  0
LINE
  5
BE
330
2
100
AcDbEntity
  8
画層1
  6
DASHED2
 62
     0
100
AcDbLine
 10
175.59
 20
172.24
 30
0.0
 11
175.59
 21
171.74
 31
0.0
  0
ARC
  5
BF
330
2
100
AcDbEntity
  8
画層1
  6
DASHED2
 62
     0
100
AcDbCircle
 10
176.59
 20
172.24
 30
0.0
 40
1.0
100
AcDbArc
 50
90.0
 51
180.0
  0
LINE
  5
C0
330
2
100
AcDbEntity
  8
画層1
  6
DASHED2
 62
     0
100
AcDbLine
 10
174.5899999999999
 20
171.74
 30
0.0
 11
175.59
 21
171.74
 31
0.0
  0
LINE
  5
C1
330
2
100
AcDbEntity
  8
画層1
  6
DASHED2
 62
     0
100
AcDbLine
 10
177.09
 20
173.24
 30
0.0
 11
176.59
 21
173.24
 31
0.0
  0
ARC
  5
C2
330
2
100
AcDbEntity
  8
画層1
  6
DASHED2
 62
     0
100
AcDbCircle
 10
173.5899999999999
 20
175.24
 30
0.0
 40
1.0
100
AcDbArc
 50
270.0
 51
0.0
  0
LINE
  5
C3
330
2
100
AcDbEntity
  8
画層1
  6
DASHED2
 62
     0
100
AcDbLine
 10
173.09
 20
174.24
 30
0.0
 11
173.5899999999999
 21
174.24
 31
0.0
  0
LINE
  5
C4
330
2
100
AcDbEntity
  8
画層1
  6
DASHED2
 62
     0
100
AcDbLine
 10
175.59
 20
175.74
 30
0.0
 11
175.59
 21
175.24
 31
0.0
  0
LINE
  5
C5
330
2
100
AcDbEntity
  8
画層1
  6
DASHED2
 62
     0
100
AcDbLine
 10
174.5899999999999
 20
175.24
 30
0.0
 11
174.5899999999999
 21
175.74
 31
0.0
  0
LINE
  5
C6
330
2
100
AcDbEntity
  8
画層1
  6
DASHED2
 62
     0
100
AcDbLine
 10
174.5899999999999
 20
175.74
 30
0.0
 11
175.59
 21
175.74
 31
0.0
  0
LINE
  5
C7
330
2
100
AcDbEntity
  8
画層1
  6
DASHED2
 62
     0
100
AcDbLine
 10
176.59
 20
174.24
 30
0.0
 11
177.09
 21
174.24
 31
0.0
  0
ARC
  5
C8
330
2
100
AcDbEntity
  8
画層1
  6
DASHED2
 62
     0
100
AcDbCircle
 10
176.59
 20
175.24
 30
0.0
 40
1.0
100
AcDbArc
 50
180.0
 51
270.0
  0
LINE
  5
C9
330
2
100
AcDbEntity
  8
画層1
  6
DASHED2
 62
     0
100
AcDbLine
 10
157.0899999999999
 20
183.74
 30
0.0
 11
167.09
 21
183.74
 31
0.0
  0
DIMENSION
  5
CA
330
2
100
AcDbEntity
  8
画層1
 62
     0
100
AcDbDimension
  2
*D22
 10
154.09
 20
199.74
 30
0.0
 11
149.09
 21
201.6199999999999
 31
0.0
 70
    32
 71
     5
 42
10.0
  3
STANDARD_WS
100
AcDbAlignedDimension
 13
144.09
 23
185.74
 33
0.0
 14
154.09
 24
185.74
 34
0.0
100
AcDbRotatedDimension
1001
ACAD
1000
DSTYLE
1002
{
1070
    47
1040
0.6
1070
   144
1040
1.0
1070
   146
1040
0.5
1070
   173
1070
     0
1070
   284
1070
     8
1070
   340
1005
27
1070
   341
1005
28
1070
     5
1000
OPEN30
1070
     6
1000
OPEN30
1002
}
  0
LINE
  5
D7
330
2
100
AcDbEntity
  8
画層1
  6
DASHED2
 62
     0
100
AcDbLine
 10
144.09
 20
183.74
 30
0.0
 11
154.09
 21
183.74
 31
0.0
  0
DIMENSION
  5
D8
330
2
100
AcDbEntity
  8
画層1
 62
     0
100
AcDbDimension
  2
*D23
 10
213.09
 20
173.7399999999999
 30
0.0
 11
211.2099999999999
 21
154.74
 31
0.0
 70
    32
 71
     5
 42
37.99999999999997
  3
STANDARD_WS
100
AcDbAlignedDimension
 13
195.09
 23
135.74
 33
0.0
 14
191.0899999999999
 24
173.74
 34
0.0
 50
90.0
100
AcDbRotatedDimension
1001
ACAD
1000
DSTYLE
1002
{
1070
    47
1040
0.6
1070
   144
1040
1.0
1070
   146
1040
0.5
1070
   173
1070
     0
1070
   284
1070
     8
1070
   340
1005
27
1070
   341
1005
28
1070
     5
1000
OPEN30
1070
     6
1000
OPEN30
1002
}
  0
ARC
  5
E5
330
2
100
AcDbEntity
  8
画層1
 62
     0
100
AcDbCircle
 10
188.59
 20
150.24
 30
0.0
 40
3.5
100
AcDbArc
 50
270.0
 51
0.0
  0
LINE
  5
E6
330
2
100
AcDbEntity
  8
画層1
  6
DASHED2
 62
     0
100
AcDbLine
 10
194.09
 20
185.74
 30
0.0
 11
194.09
 21
145.7399999999999
 31
0.0
  0
ARC
  5
E7
330
2
100
AcDbEntity
  8
画層1
 62
     0
100
AcDbCircle
 10
190.09
 20
142.24
 30
0.0
 40
5.0
100
AcDbArc
 50
90.0
 51
180.0
  0
CIRCLE
  5
E8
330
2
100
AcDbEntity
  8
画層1
 62
     0
100
AcDbCircle
 10
189.59
 20
140.74
 30
0.0
 40
2.6
  0
CIRCLE
  5
E9
330
2
100
AcDbEntity
  8
画層1
 62
     0
100
AcDbCircle
 10
189.59
 20
140.74
 30
0.0
 40
3.799999999999998
  0
LINE
  5
EA
330
2
100
AcDbEntity
  8
画層1
 62
     0
100
AcDbLine
 10
189.09
 20
142.5399999999999
 30
0.0
 11
190.09
 21
142.5399999999999
 31
0.0
  0
LINE
  5
EB
330
2
100
AcDbEntity
  8
画層1
 62
     0
100
AcDbLine
 10
189.09
 20
138.9399999999999
 30
0.0
 11
190.09
 21
138.9399999999999
 31
0.0
  0
LINE
  5
EC
330
2
100
AcDbEntity
  8
画層1
 62
     0
100
AcDbLine
 10
185.09
 20
142.24
 30
0.0
 11
185.09
 21
135.74
 31
0.0
  0
ARC
  5
ED
330
2
100
AcDbEntity
  8
画層1
 62
     0
100
AcDbCircle
 10
188.09
 20
139.24
 30
0.0
 40
1.0
100
AcDbArc
 50
0.0
 51
90.0
  0
LINE
  5
EE
330
2
100
AcDbEntity
  8
画層1
 62
     0
100
AcDbLine
 10
189.09
 20
138.9399999999999
 30
0.0
 11
189.09
 21
139.24
 31
0.0
  0
ARC
  5
EF
330
2
100
AcDbEntity
  8
画層1
 62
     0
100
AcDbCircle
 10
188.09
 20
142.24
 30
0.0
 40
1.0
100
AcDbArc
 50
270.0
 51
0.0
  0
LINE
  5
F0
330
2
100
AcDbEntity
  8
画層1
 62
     0
100
AcDbLine
 10
188.09
 20
140.24
 30
0.0
 11
187.7899999999999
 21
140.24
 31
0.0
  0
LINE
  5
F1
330
2
100
AcDbEntity
  8
画層1
 62
     0
100
AcDbLine
 10
187.7899999999999
 20
140.24
 30
0.0
 11
187.7899999999999
 21
141.24
 31
0.0
  0
LINE
  5
F2
330
2
100
AcDbEntity
  8
画層1
 62
     0
100
AcDbLine
 10
187.7899999999999
 20
141.24
 30
0.0
 11
188.09
 21
141.24
 31
0.0
  0
LINE
  5
F3
330
2
100
AcDbEntity
  8
画層1
 62
     0
100
AcDbLine
 10
189.09
 20
142.24
 30
0.0
 11
189.09
 21
142.5399999999999
 31
0.0
  0
ARC
  5
F4
330
2
100
AcDbEntity
  8
画層1
 62
     0
100
AcDbCircle
 10
191.0899999999999
 20
139.24
 30
0.0
 40
1.0
100
AcDbArc
 50
90.0
 51
180.0
  0
LINE
  5
F5
330
2
100
AcDbEntity
  8
画層1
 62
     0
100
AcDbLine
 10
190.09
 20
139.24
 30
0.0
 11
190.09
 21
138.9399999999999
 31
0.0
  0
LINE
  5
F6
330
2
100
AcDbEntity
  8
画層1
 62
     0
100
AcDbLine
 10
195.09
 20
147.24
 30
0.0
 11
190.09
 21
147.24
 31
0.0
  0
LINE
  5
F7
330
2
100
AcDbEntity
  8
画層1
 62
     0
100
AcDbLine
 10
191.3899999999999
 20
140.24
 30
0.0
 11
191.0899999999999
 21
140.24
 31
0.0
  0
LINE
  5
F8
330
2
100
AcDbEntity
  8
画層1
 62
     0
100
AcDbLine
 10
191.3899999999999
 20
140.24
 30
0.0
 11
191.3899999999999
 21
141.24
 31
0.0
  0
LINE
  5
F9
330
2
100
AcDbEntity
  8
画層1
 62
     0
100
AcDbLine
 10
191.0899999999999
 20
141.24
 30
0.0
 11
191.3899999999999
 21
141.24
 31
0.0
  0
ARC
  5
FA
330
2
100
AcDbEntity
  8
画層1
 62
     0
100
AcDbCircle
 10
191.0899999999999
 20
142.24
 30
0.0
 40
1.0
100
AcDbArc
 50
180.0
 51
270.0
  0
LINE
  5
FB
330
2
100
AcDbEntity
  8
画層1
 62
     0
100
AcDbLine
 10
190.09
 20
142.5399999999999
 30
0.0
 11
190.09
 21
142.24
 31
0.0
  0
LINE
  5
FC
330
2
100
AcDbEntity
  8
画層1
  6
DASHED2
 62
     0
100
AcDbLine
 10
193.09
 20
161.74
 30
0.0
 11
193.09
 21
185.74
 31
0.0
  0
LINE
  5
FD
330
2
100
AcDbEntity
  8
画層1
  6
DASHED2
 62
     0
100
AcDbLine
 10
180.09
 20
185.74
 30
0.0
 11
180.09
 21
161.74
 31
0.0
  0
LINE
  5
FE
330
2
100
AcDbEntity
  8
画層1
  6
DASHED2
 62
     0
100
AcDbLine
 10
183.0899999999999
 20
185.74
 30
0.0
 11
183.0899999999999
 21
161.74
 31
0.0
  0
LINE
  5
FF
330
2
100
AcDbEntity
  8
画層1
 62
     0
100
AcDbLine
 10
199.09
 20
166.34
 30
0.0
 11
199.09
 21
163.14
 31
0.0
  0
LINE
  5
100
330
2
100
AcDbEntity
  8
画層1
 62
     0
100
AcDbLine
 10
195.8899999999999
 20
167.74
 30
0.0
 11
195.8899999999999
 21
161.74
 31
0.0
  0
LINE
  5
101
330
2
100
AcDbEntity
  8
画層1
 62
     0
100
AcDbLine
 10
196.69
 20
162.1399999999999
 30
0.0
 11
196.69
 21
167.3399999999999
 31
0.0
  0
LINE
  5
102
330
2
100
AcDbEntity
  8
画層1
  6
DASHED2
 62
     0
100
AcDbLine
 10
193.09
 20
163.74
 30
0.0
 11
183.0899999999999
 21
163.74
 31
0.0
  0
ARC
  5
103
330
2
100
AcDbEntity
  8
画層1
 62
     0
100
AcDbCircle
 10
186.59
 20
153.24
 30
0.0
 40
2.5
100
AcDbArc
 50
270.0
 51
0.0
  0
LINE
  5
104
330
2
100
AcDbEntity
  8
画層1
 62
     0
100
AcDbLine
 10
198.09
 20
162.1399999999999
 30
0.0
 11
196.69
 21
162.1399999999999
 31
0.0
  0
LINE
  5
105
330
2
100
AcDbEntity
  8
画層1
 62
     0
100
AcDbLine
 10
196.69
 20
165.1399999999999
 30
0.0
 11
195.8899999999999
 21
164.3399999999999
 31
0.0
  0
LINE
  5
106
330
2
100
AcDbEntity
  8
画層1
 62
     0
100
AcDbLine
 10
195.8899999999999
 20
161.74
 30
0.0
 11
195.09
 21
161.74
 31
0.0
  0
LINE
  5
107
330
2
100
AcDbEntity
  8
画層1
 62
     0
100
AcDbLine
 10
195.8899999999999
 20
162.1399999999999
 30
0.0
 11
196.69
 21
162.1399999999999
 31
0.0
  0
LINE
  5
108
330
2
100
AcDbEntity
  8
画層1
 62
     0
100
AcDbLine
 10
199.09
 20
165.1399999999999
 30
0.0
 11
198.49
 21
165.1399999999999
 31
0.0
  0
LINE
  5
109
330
2
100
AcDbEntity
  8
画層1
 62
     0
100
AcDbLine
 10
198.49
 20
165.1399999999999
 30
0.0
 11
198.49
 21
164.3399999999999
 31
0.0
  0
LINE
  5
10A
330
2
100
AcDbEntity
  8
画層1
 62
     0
100
AcDbLine
 10
198.49
 20
164.3399999999999
 30
0.0
 11
199.09
 21
164.3399999999999
 31
0.0
  0
ARC
  5
10B
330
2
100
AcDbEntity
  8
画層1
 62
     0
100
AcDbCircle
 10
198.09
 20
163.14
 30
0.0
 40
1.0
100
AcDbArc
 50
270.0
 51
0.0
  0
LINE
  5
10C
330
2
100
AcDbEntity
  8
画層1
 62
     0
100
AcDbLine
 10
185.09
 20
173.74
 30
0.0
 11
191.0899999999999
 21
173.74
 31
0.0
  0
LINE
  5
10D
330
2
100
AcDbEntity
  8
画層1
 62
     0
100
AcDbLine
 10
188.09
 20
176.74
 30
0.0
 11
188.09
 21
170.7399999999999
 31
0.0
  0
LINE
  5
10E
330
2
100
AcDbEntity
  8
画層1
 62
     0
100
AcDbLine
 10
196.69
 20
167.3399999999999
 30
0.0
 11
198.09
 21
167.3399999999999
 31
0.0
  0
LINE
  5
10F
330
2
100
AcDbEntity
  8
画層1
 62
     0
100
AcDbLine
 10
195.09
 20
167.74
 30
0.0
 11
195.8899999999999
 21
167.74
 31
0.0
  0
LINE
  5
110
330
2
100
AcDbEntity
  8
画層1
 62
     0
100
AcDbLine
 10
195.8899999999999
 20
167.3399999999999
 30
0.0
 11
196.69
 21
167.3399999999999
 31
0.0
  0
ARC
  5
111
330
2
100
AcDbEntity
  8
画層1
 62
     0
100
AcDbCircle
 10
198.09
 20
166.34
 30
0.0
 40
1.0
100
AcDbArc
 50
0.0
 51
90.0
  0
LINE
  5
112
330
2
100
AcDbEntity
  8
画層1
  6
DASHED2
 62
     0
100
AcDbLine
 10
183.0899999999999
 20
183.74
 30
0.0
 11
193.09
 21
183.74
 31
0.0
  0
DIMENSION
  5
113
330
2
100
AcDbEntity
  8
画層1
 62
     0
100
AcDbDimension
  2
*D24
 10
99.09
 20
336.94
 30
0.0
 11
97.20999999999996
 21
332.94
 31
0.0
 70
    32
 71
     5
 42
8.0
  3
STANDARD_WS
100
AcDbAlignedDimension
 13
119.29
 23
328.94
 33
0.0
 14
119.29
 24
336.94
 34
0.0
 50
90.0
100
AcDbRotatedDimension
1001
ACAD
1000
DSTYLE
1002
{
1070
    47
1040
0.6
1070
   144
1040
1.0
1070
   146
1040
0.5
1070
   173
1070
     0
1070
   284
1070
     8
1070
   340
1005
27
1070
   341
1005
28
1070
     5
1000
OPEN30
1070
     6
1000
OPEN30
1002
}
  0
LEADER
  5
120
330
2
100
AcDbEntity
  8
画層1
 62
     0
100
AcDbLeader
  3
STANDARD_WS
 73
     0
 75
     1
 40
5.0
 41
24.18
 76
     3
 10
123.1899999999999
 20
334.24
 30
0.0
 10
71.95999999999999
 20
380.37
 30
0.0
 10
70.45999999999999
 20
380.37
 30
0.0
340
125
213
-1.0
223
0.4207616165015227
233
0.0
1001
ACAD
1000
DSTYLE
1002
{
1070
     6
1000
DOTSMALL
1070
    47
1040
0.6
1070
    77
1070
     2
1070
   144
1040
2.0
1070
   146
1040
0.5
1070
   147
1040
0.63
1070
   284
1070
     8
1070
   340
1005
27
1070
   341
1005
121
1070
   343
1005
121
1002
}
  0
MTEXT
  5
125
102
{ACAD_REACTORS
330
120
102
}
330
2
100
AcDbEntity
  8
画層1
 62
     0
100
AcDbMText
 10
70.84
 20
380.5699999999999
 30
0.0
 40
5.0
 41
0.0
 71
     9
 72
     1
  1
18-M3.5
  7
STYLE1
 73
     1
 44
1.0
1001
ACAD
1000
MTEXTBEGIN
1070
    73
1070
     1
1070
    44
1040
1.0
1070
    74
1070
     0
1000
MTEXTEND
1000
MTEXTBEGIN
1070
    73
1070
     1
1070
    44
1040
1.0
1070
    74
1070
     0
1000
MTEXTEND
1000
MTEXTBEGIN
1070
    73
1070
     1
1070
    44
1040
1.0
1070
    74
1070
     0
1000
MTEXTEND
  0
LINE
  5
126
330
2
100
AcDbEntity
  8
画層1
 62
     0
100
AcDbLine
 10
115.09
 20
344.74
 30
0.0
 11
115.09
 21
385.74
 31
0.0
  0
LINE
  5
127
330
2
100
AcDbEntity
  8
画層1
 62
     0
100
AcDbLine
 10
118.09
 20
345.74
 30
0.0
 11
118.09
 21
371.24
 31
0.0
  0
CIRCLE
  5
128
330
2
100
AcDbEntity
  8
画層1
 62
     0
100
AcDbCircle
 10
179.59
 20
325.74
 30
0.0
 40
2.5
  0
CIRCLE
  5
129
330
2
100
AcDbEntity
  8
画層1
 62
     0
100
AcDbCircle
 10
179.59
 20
310.74
 30
0.0
 40
2.5
  0
CIRCLE
  5
12A
330
2
100
AcDbEntity
  8
画層1
 62
     0
100
AcDbCircle
 10
179.59
 20
295.74
 30
0.0
 40
2.5
  0
CIRCLE
  5
12B
330
2
100
AcDbEntity
  8
画層1
 62
     0
100
AcDbCircle
 10
179.59
 20
340.7399999999999
 30
0.0
 40
2.5
  0
LINE
  5
12C
330
2
100
AcDbEntity
  8
画層1
 62
     0
100
AcDbLine
 10
138.09
 20
344.74
 30
0.0
 11
138.09
 21
251.74
 31
0.0
  0
LINE
  5
12D
330
2
100
AcDbEntity
  8
画層1
 62
     0
100
AcDbLine
 10
116.09
 20
344.74
 30
0.0
 11
116.09
 21
251.74
 31
0.0
  0
LINE
  5
12E
330
2
100
AcDbEntity
  8
画層1
 62
     0
100
AcDbLine
 10
117.29
 20
344.74
 30
0.0
 11
117.29
 21
251.74
 31
0.0
  0
LINE
  5
12F
330
2
100
AcDbEntity
  8
画層1
 62
     0
100
AcDbLine
 10
119.29
 20
344.74
 30
0.0
 11
119.29
 21
251.74
 31
0.0
  0
LINE
  5
130
330
2
100
AcDbEntity
  8
画層1
 62
     0
100
AcDbLine
 10
128.6899999999999
 20
344.74
 30
0.0
 11
128.6899999999999
 21
251.74
 31
0.0
  0
LINE
  5
131
330
2
100
AcDbEntity
  8
画層1
 62
     0
100
AcDbLine
 10
139.09
 20
250.74
 30
0.0
 11
139.09
 21
345.74
 31
0.0
  0
LINE
  5
132
330
2
100
AcDbEntity
  8
画層1
 62
     0
100
AcDbLine
 10
128.19
 20
289.44
 30
0.0
 11
128.19
 21
282.44
 31
0.0
  0
LINE
  5
133
330
2
100
AcDbEntity
  8
画層1
 62
     0
100
AcDbLine
 10
121.1899999999999
 20
282.44
 30
0.0
 11
121.1899999999999
 21
289.44
 31
0.0
  0
CIRCLE
  5
134
330
2
100
AcDbEntity
  8
画層1
 62
     0
100
AcDbCircle
 10
124.6899999999999
 20
285.9399999999999
 30
0.0
 40
3.0
  0
CIRCLE
  5
135
330
2
100
AcDbEntity
  8
画層1
 62
     0
100
AcDbCircle
 10
134.0899999999999
 20
282.3399999999999
 30
0.0
 40
3.0
  0
LINE
  5
136
330
2
100
AcDbEntity
  8
画層1
 62
     0
100
AcDbLine
 10
130.59
 20
278.8399999999999
 30
0.0
 11
130.59
 21
285.8399999999999
 31
0.0
  0
ARC
  5
137
330
2
100
AcDbEntity
  8
画層1
 62
     0
100
AcDbCircle
 10
135.59
 20
283.8399999999999
 30
0.0
 40
1.0
100
AcDbArc
 50
180.0
 51
270.0
  0
ARC
  5
138
330
2
100
AcDbEntity
  8
画層1
 62
     0
100
AcDbCircle
 10
132.59
 20
283.8399999999999
 30
0.0
 40
1.0
100
AcDbArc
 50
270.0
 51
0.0
  0
LINE
  5
139
330
2
100
AcDbEntity
  8
画層1
 62
     0
100
AcDbLine
 10
137.59
 20
285.8399999999999
 30
0.0
 11
137.59
 21
278.8399999999999
 31
0.0
  0
LINE
  5
13A
330
2
100
AcDbEntity
  8
画層1
 62
     0
100
AcDbLine
 10
118.09
 20
250.74
 30
0.0
 11
139.09
 21
250.74
 31
0.0
  0
LINE
  5
13B
330
2
100
AcDbEntity
  8
画層1
 62
     0
100
AcDbLine
 10
112.59
 20
227.34
 30
0.0
 11
112.59
 21
224.14
 31
0.0
  0
ARC
  5
13C
330
2
100
AcDbEntity
  8
画層1
 62
     0
100
AcDbCircle
 10
114.1899999999999
 20
224.14
 30
0.0
 40
1.6
100
AcDbArc
 50
180.0
 51
270.0
  0
LINE
  5
13D
330
2
100
AcDbEntity
  8
画層1
 62
     0
100
AcDbLine
 10
114.1899999999999
 20
222.54
 30
0.0
 11
115.09
 21
222.54
 31
0.0
  0
LINE
  5
13E
330
2
100
AcDbEntity
  8
画層1
 62
     0
100
AcDbLine
 10
112.59
 20
226.34
 30
0.0
 11
113.59
 21
226.34
 31
0.0
  0
LINE
  5
13F
330
2
100
AcDbEntity
  8
画層1
 62
     0
100
AcDbLine
 10
113.59
 20
225.1399999999999
 30
0.0
 11
112.59
 21
225.1399999999999
 31
0.0
  0
ARC
  5
140
330
2
100
AcDbEntity
  8
画層1
 62
     0
100
AcDbCircle
 10
114.1899999999999
 20
227.34
 30
0.0
 40
1.6
100
AcDbArc
 50
90.0
 51
180.0
  0
LINE
  5
141
330
2
100
AcDbEntity
  8
画層1
 62
     0
100
AcDbLine
 10
115.09
 20
228.94
 30
0.0
 11
114.1899999999999
 21
228.94
 31
0.0
  0
LINE
  5
142
330
2
100
AcDbEntity
  8
画層1
 62
     0
100
AcDbLine
 10
113.59
 20
226.34
 30
0.0
 11
113.59
 21
225.1399999999999
 31
0.0
  0
LINE
  5
143
330
2
100
AcDbEntity
  8
画層1
 62
     0
100
AcDbLine
 10
138.09
 20
251.74
 30
0.0
 11
115.09
 21
251.74
 31
0.0
  0
LINE
  5
144
330
2
100
AcDbEntity
  8
画層1
 62
     0
100
AcDbLine
 10
137.59
 20
267.04
 30
0.0
 11
137.59
 21
260.04
 31
0.0
  0
LINE
  5
145
330
2
100
AcDbEntity
  8
画層1
 62
     0
100
AcDbLine
 10
130.59
 20
260.04
 30
0.0
 11
130.59
 21
267.04
 31
0.0
  0
CIRCLE
  5
146
330
2
100
AcDbEntity
  8
画層1
 62
     0
100
AcDbCircle
 10
134.0899999999999
 20
263.54
 30
0.0
 40
3.0
  0
LINE
  5
147
330
2
100
AcDbEntity
  8
画層1
 62
     0
100
AcDbLine
 10
128.19
 20
270.6399999999999
 30
0.0
 11
128.19
 21
263.64
 31
0.0
  0
LINE
  5
148
330
2
100
AcDbEntity
  8
画層1
 62
     0
100
AcDbLine
 10
121.1899999999999
 20
263.64
 30
0.0
 11
121.1899999999999
 21
270.6399999999999
 31
0.0
  0
CIRCLE
  5
149
330
2
100
AcDbEntity
  8
画層1
 62
     0
100
AcDbCircle
 10
124.6899999999999
 20
267.1399999999999
 30
0.0
 40
3.0
  0
ARC
  5
14A
330
2
100
AcDbEntity
  8
画層1
 62
     0
100
AcDbCircle
 10
123.1899999999999
 20
265.64
 30
0.0
 40
1.0
100
AcDbArc
 50
0.0
 51
90.0
  0
ARC
  5
14B
330
2
100
AcDbEntity
  8
画層1
 62
     0
100
AcDbCircle
 10
126.19
 20
265.64
 30
0.0
 40
1.0
100
AcDbArc
 50
90.0
 51
180.0
  0
LINE
  5
14C
330
2
100
AcDbEntity
  8
画層1
 62
     0
100
AcDbLine
 10
119.29
 20
253.74
 30
0.0
 11
128.6899999999999
 21
253.74
 31
0.0
  0
LINE
  5
14D
330
2
100
AcDbEntity
  8
画層1
 62
     0
100
AcDbLine
 10
119.29
 20
261.7399999999999
 30
0.0
 11
128.6899999999999
 21
261.7399999999999
 31
0.0
  0
LINE
  5
14E
330
2
100
AcDbEntity
  8
画層1
 62
     0
100
AcDbLine
 10
119.29
 20
263.1399999999999
 30
0.0
 11
128.6899999999999
 21
263.1399999999999
 31
0.0
  0
LINE
  5
14F
330
2
100
AcDbEntity
  8
画層1
 62
     0
100
AcDbLine
 10
121.1899999999999
 20
254.24
 30
0.0
 11
121.1899999999999
 21
261.24
 31
0.0
  0
CIRCLE
  5
150
330
2
100
AcDbEntity
  8
画層1
 62
     0
100
AcDbCircle
 10
124.6899999999999
 20
257.74
 30
0.0
 40
3.0
  0
LINE
  5
151
330
2
100
AcDbEntity
  8
画層1
 62
     0
100
AcDbLine
 10
128.19
 20
261.24
 30
0.0
 11
128.19
 21
254.24
 31
0.0
  0
LINE
  5
152
330
2
100
AcDbEntity
  8
画層1
 62
     0
100
AcDbLine
 10
128.19
 20
254.24
 30
0.0
 11
121.1899999999999
 21
254.24
 31
0.0
  0
ARC
  5
153
330
2
100
AcDbEntity
  8
画層1
 62
     0
100
AcDbCircle
 10
123.1899999999999
 20
256.24
 30
0.0
 40
1.0
100
AcDbArc
 50
0.0
 51
90.0
  0
LINE
  5
154
330
2
100
AcDbEntity
  8
画層1
 62
     0
100
AcDbLine
 10
123.1899999999999
 20
257.24
 30
0.0
 11
121.73
 21
257.24
 31
0.0
  0
ARC
  5
155
330
2
100
AcDbEntity
  8
画層1
 62
     0
100
AcDbCircle
 10
126.19
 20
256.24
 30
0.0
 40
1.0
100
AcDbArc
 50
90.0
 51
180.0
  0
LINE
  5
156
330
2
100
AcDbEntity
  8
画層1
 62
     0
100
AcDbLine
 10
124.19
 20
255.94
 30
0.0
 11
125.19
 21
255.94
 31
0.0
  0
LINE
  5
157
330
2
100
AcDbEntity
  8
画層1
 62
     0
100
AcDbLine
 10
125.19
 20
256.24
 30
0.0
 11
125.19
 21
255.94
 31
0.0
  0
LINE
  5
158
330
2
100
AcDbEntity
  8
画層1
 62
     0
100
AcDbLine
 10
124.19
 20
255.94
 30
0.0
 11
124.19
 21
256.24
 31
0.0
  0
LINE
  5
159
330
2
100
AcDbEntity
  8
画層1
 62
     0
100
AcDbLine
 10
127.6399999999999
 20
257.24
 30
0.0
 11
126.19
 21
257.24
 31
0.0
  0
LINE
  5
15A
330
2
100
AcDbEntity
  8
画層1
 62
     0
100
AcDbLine
 10
121.1899999999999
 20
261.24
 30
0.0
 11
128.19
 21
261.24
 31
0.0
  0
LINE
  5
15B
330
2
100
AcDbEntity
  8
画層1
 62
     0
100
AcDbLine
 10
128.19
 20
263.64
 30
0.0
 11
121.1899999999999
 21
263.64
 31
0.0
  0
ARC
  5
15C
330
2
100
AcDbEntity
  8
画層1
 62
     0
100
AcDbCircle
 10
123.1899999999999
 20
259.24
 30
0.0
 40
1.0
100
AcDbArc
 50
270.0
 51
0.0
  0
LINE
  5
15D
330
2
100
AcDbEntity
  8
画層1
 62
     0
100
AcDbLine
 10
121.73
 20
258.24
 30
0.0
 11
123.1899999999999
 21
258.24
 31
0.0
  0
ARC
  5
15E
330
2
100
AcDbEntity
  8
画層1
 62
     0
100
AcDbCircle
 10
126.19
 20
259.24
 30
0.0
 40
1.0
100
AcDbArc
 50
180.0
 51
270.0
  0
LINE
  5
15F
330
2
100
AcDbEntity
  8
画層1
 62
     0
100
AcDbLine
 10
126.19
 20
258.24
 30
0.0
 11
127.6399999999999
 21
258.24
 31
0.0
  0
LINE
  5
160
330
2
100
AcDbEntity
  8
画層1
 62
     0
100
AcDbLine
 10
124.19
 20
259.54
 30
0.0
 11
125.19
 21
259.54
 31
0.0
  0
LINE
  5
161
330
2
100
AcDbEntity
  8
画層1
 62
     0
100
AcDbLine
 10
124.19
 20
259.24
 30
0.0
 11
124.19
 21
259.54
 31
0.0
  0
LINE
  5
162
330
2
100
AcDbEntity
  8
画層1
 62
     0
100
AcDbLine
 10
125.19
 20
259.54
 30
0.0
 11
125.19
 21
259.24
 31
0.0
  0
LINE
  5
163
330
2
100
AcDbEntity
  8
画層1
 62
     0
100
AcDbLine
 10
124.19
 20
265.3399999999999
 30
0.0
 11
125.19
 21
265.3399999999999
 31
0.0
  0
LINE
  5
164
330
2
100
AcDbEntity
  8
画層1
 62
     0
100
AcDbLine
 10
125.19
 20
265.64
 30
0.0
 11
125.19
 21
265.3399999999999
 31
0.0
  0
LINE
  5
165
330
2
100
AcDbEntity
  8
画層1
 62
     0
100
AcDbLine
 10
124.19
 20
265.3399999999999
 30
0.0
 11
124.19
 21
265.64
 31
0.0
  0
ARC
  5
166
330
2
100
AcDbEntity
  8
画層1
 62
     0
100
AcDbCircle
 10
132.59
 20
265.04
 30
0.0
 40
1.0
100
AcDbArc
 50
270.0
 51
0.0
  0
LINE
  5
167
330
2
100
AcDbEntity
  8
画層1
 62
     0
100
AcDbLine
 10
128.6899999999999
 20
259.54
 30
0.0
 11
138.09
 21
259.54
 31
0.0
  0
LINE
  5
168
330
2
100
AcDbEntity
  8
画層1
 62
     0
100
AcDbLine
 10
137.59
 20
260.04
 30
0.0
 11
130.59
 21
260.04
 31
0.0
  0
ARC
  5
169
330
2
100
AcDbEntity
  8
画層1
 62
     0
100
AcDbCircle
 10
132.59
 20
262.04
 30
0.0
 40
1.0
100
AcDbArc
 50
0.0
 51
90.0
  0
LINE
  5
16A
330
2
100
AcDbEntity
  8
画層1
 62
     0
100
AcDbLine
 10
132.59
 20
263.04
 30
0.0
 11
131.1299999999999
 21
263.04
 31
0.0
  0
LINE
  5
16B
330
2
100
AcDbEntity
  8
画層1
 62
     0
100
AcDbLine
 10
131.1299999999999
 20
264.04
 30
0.0
 11
132.59
 21
264.04
 31
0.0
  0
ARC
  5
16C
330
2
100
AcDbEntity
  8
画層1
 62
     0
100
AcDbCircle
 10
135.59
 20
265.04
 30
0.0
 40
1.0
100
AcDbArc
 50
180.0
 51
270.0
  0
LINE
  5
16D
330
2
100
AcDbEntity
  8
画層1
 62
     0
100
AcDbLine
 10
137.0399999999999
 20
263.04
 30
0.0
 11
135.59
 21
263.04
 31
0.0
  0
LINE
  5
16E
330
2
100
AcDbEntity
  8
画層1
 62
     0
100
AcDbLine
 10
135.59
 20
264.04
 30
0.0
 11
137.0399999999999
 21
264.04
 31
0.0
  0
LINE
  5
16F
330
2
100
AcDbEntity
  8
画層1
 62
     0
100
AcDbLine
 10
134.59
 20
262.04
 30
0.0
 11
134.59
 21
261.7399999999999
 31
0.0
  0
ARC
  5
170
330
2
100
AcDbEntity
  8
画層1
 62
     0
100
AcDbCircle
 10
135.59
 20
262.04
 30
0.0
 40
1.0
100
AcDbArc
 50
90.0
 51
180.0
  0
LINE
  5
171
330
2
100
AcDbEntity
  8
画層1
 62
     0
100
AcDbLine
 10
134.59
 20
265.3399999999999
 30
0.0
 11
134.59
 21
265.04
 31
0.0
  0
LINE
  5
172
330
2
100
AcDbEntity
  8
画層1
 62
     0
100
AcDbLine
 10
133.59
 20
261.7399999999999
 30
0.0
 11
133.59
 21
262.04
 31
0.0
  0
LINE
  5
173
330
2
100
AcDbEntity
  8
画層1
 62
     0
100
AcDbLine
 10
133.59
 20
265.04
 30
0.0
 11
133.59
 21
265.3399999999999
 31
0.0
  0
LINE
  5
174
330
2
100
AcDbEntity
  8
画層1
 62
     0
100
AcDbLine
 10
133.59
 20
261.7399999999999
 30
0.0
 11
134.59
 21
261.7399999999999
 31
0.0
  0
LINE
  5
175
330
2
100
AcDbEntity
  8
画層1
 62
     0
100
AcDbLine
 10
133.59
 20
265.3399999999999
 30
0.0
 11
134.59
 21
265.3399999999999
 31
0.0
  0
LINE
  5
176
330
2
100
AcDbEntity
  8
画層1
 62
     0
100
AcDbLine
 10
119.29
 20
271.1399999999999
 30
0.0
 11
128.6899999999999
 21
271.1399999999999
 31
0.0
  0
LINE
  5
177
330
2
100
AcDbEntity
  8
画層1
 62
     0
100
AcDbLine
 10
119.29
 20
272.54
 30
0.0
 11
128.6899999999999
 21
272.54
 31
0.0
  0
LINE
  5
178
330
2
100
AcDbEntity
  8
画層1
 62
     0
100
AcDbLine
 10
119.29
 20
280.54
 30
0.0
 11
128.6899999999999
 21
280.54
 31
0.0
  0
LINE
  5
179
330
2
100
AcDbEntity
  8
画層1
 62
     0
100
AcDbLine
 10
119.29
 20
281.9399999999999
 30
0.0
 11
128.6899999999999
 21
281.9399999999999
 31
0.0
  0
LINE
  5
17A
330
2
100
AcDbEntity
  8
画層1
 62
     0
100
AcDbLine
 10
121.1899999999999
 20
273.04
 30
0.0
 11
121.1899999999999
 21
280.04
 31
0.0
  0
CIRCLE
  5
17B
330
2
100
AcDbEntity
  8
画層1
 62
     0
100
AcDbCircle
 10
124.6899999999999
 20
276.54
 30
0.0
 40
3.0
  0
LINE
  5
17C
330
2
100
AcDbEntity
  8
画層1
 62
     0
100
AcDbLine
 10
128.19
 20
280.04
 30
0.0
 11
128.19
 21
273.04
 31
0.0
  0
LINE
  5
17D
330
2
100
AcDbEntity
  8
画層1
 62
     0
100
AcDbLine
 10
121.1899999999999
 20
270.6399999999999
 30
0.0
 11
128.19
 21
270.6399999999999
 31
0.0
  0
LINE
  5
17E
330
2
100
AcDbEntity
  8
画層1
 62
     0
100
AcDbLine
 10
128.19
 20
273.04
 30
0.0
 11
121.1899999999999
 21
273.04
 31
0.0
  0
ARC
  5
17F
330
2
100
AcDbEntity
  8
画層1
 62
     0
100
AcDbCircle
 10
123.1899999999999
 20
268.6399999999999
 30
0.0
 40
1.0
100
AcDbArc
 50
270.0
 51
0.0
  0
LINE
  5
180
330
2
100
AcDbEntity
  8
画層1
 62
     0
100
AcDbLine
 10
121.73
 20
267.64
 30
0.0
 11
123.1899999999999
 21
267.64
 31
0.0
  0
LINE
  5
181
330
2
100
AcDbEntity
  8
画層1
 62
     0
100
AcDbLine
 10
123.1899999999999
 20
266.6399999999999
 30
0.0
 11
121.73
 21
266.6399999999999
 31
0.0
  0
ARC
  5
182
330
2
100
AcDbEntity
  8
画層1
 62
     0
100
AcDbCircle
 10
126.19
 20
268.6399999999999
 30
0.0
 40
1.0
100
AcDbArc
 50
180.0
 51
270.0
  0
LINE
  5
183
330
2
100
AcDbEntity
  8
画層1
 62
     0
100
AcDbLine
 10
126.19
 20
267.64
 30
0.0
 11
127.6399999999999
 21
267.64
 31
0.0
  0
LINE
  5
184
330
2
100
AcDbEntity
  8
画層1
 62
     0
100
AcDbLine
 10
124.19
 20
268.94
 30
0.0
 11
125.19
 21
268.94
 31
0.0
  0
LINE
  5
185
330
2
100
AcDbEntity
  8
画層1
 62
     0
100
AcDbLine
 10
124.19
 20
268.6399999999999
 30
0.0
 11
124.19
 21
268.94
 31
0.0
  0
LINE
  5
186
330
2
100
AcDbEntity
  8
画層1
 62
     0
100
AcDbLine
 10
125.19
 20
268.94
 30
0.0
 11
125.19
 21
268.6399999999999
 31
0.0
  0
LINE
  5
187
330
2
100
AcDbEntity
  8
画層1
 62
     0
100
AcDbLine
 10
127.6399999999999
 20
266.6399999999999
 30
0.0
 11
126.19
 21
266.6399999999999
 31
0.0
  0
LINE
  5
188
330
2
100
AcDbEntity
  8
画層1
 62
     0
100
AcDbLine
 10
121.1899999999999
 20
280.04
 30
0.0
 11
128.19
 21
280.04
 31
0.0
  0
LINE
  5
189
330
2
100
AcDbEntity
  8
画層1
 62
     0
100
AcDbLine
 10
128.19
 20
282.44
 30
0.0
 11
121.1899999999999
 21
282.44
 31
0.0
  0
ARC
  5
18A
330
2
100
AcDbEntity
  8
画層1
 62
     0
100
AcDbCircle
 10
123.1899999999999
 20
275.04
 30
0.0
 40
1.0
100
AcDbArc
 50
0.0
 51
90.0
  0
ARC
  5
18B
330
2
100
AcDbEntity
  8
画層1
 62
     0
100
AcDbCircle
 10
123.1899999999999
 20
278.04
 30
0.0
 40
1.0
100
AcDbArc
 50
270.0
 51
0.0
  0
LINE
  5
18C
330
2
100
AcDbEntity
  8
画層1
 62
     0
100
AcDbLine
 10
123.1899999999999
 20
276.04
 30
0.0
 11
121.73
 21
276.04
 31
0.0
  0
LINE
  5
18D
330
2
100
AcDbEntity
  8
画層1
 62
     0
100
AcDbLine
 10
121.73
 20
277.04
 30
0.0
 11
123.1899999999999
 21
277.04
 31
0.0
  0
ARC
  5
18E
330
2
100
AcDbEntity
  8
画層1
 62
     0
100
AcDbCircle
 10
126.19
 20
275.04
 30
0.0
 40
1.0
100
AcDbArc
 50
90.0
 51
180.0
  0
LINE
  5
18F
330
2
100
AcDbEntity
  8
画層1
 62
     0
100
AcDbLine
 10
124.19
 20
274.74
 30
0.0
 11
125.19
 21
274.74
 31
0.0
  0
LINE
  5
190
330
2
100
AcDbEntity
  8
画層1
 62
     0
100
AcDbLine
 10
127.6399999999999
 20
276.04
 30
0.0
 11
126.19
 21
276.04
 31
0.0
  0
LINE
  5
191
330
2
100
AcDbEntity
  8
画層1
 62
     0
100
AcDbLine
 10
125.19
 20
275.04
 30
0.0
 11
125.19
 21
274.74
 31
0.0
  0
LINE
  5
192
330
2
100
AcDbEntity
  8
画層1
 62
     0
100
AcDbLine
 10
124.19
 20
274.74
 30
0.0
 11
124.19
 21
275.04
 31
0.0
  0
LINE
  5
193
330
2
100
AcDbEntity
  8
画層1
 62
     0
100
AcDbLine
 10
124.19
 20
278.3399999999999
 30
0.0
 11
125.19
 21
278.3399999999999
 31
0.0
  0
LINE
  5
194
330
2
100
AcDbEntity
  8
画層1
 62
     0
100
AcDbLine
 10
124.19
 20
278.04
 30
0.0
 11
124.19
 21
278.3399999999999
 31
0.0
  0
ARC
  5
195
330
2
100
AcDbEntity
  8
画層1
 62
     0
100
AcDbCircle
 10
126.19
 20
278.04
 30
0.0
 40
1.0
100
AcDbArc
 50
180.0
 51
270.0
  0
LINE
  5
196
330
2
100
AcDbEntity
  8
画層1
 62
     0
100
AcDbLine
 10
125.19
 20
278.3399999999999
 30
0.0
 11
125.19
 21
278.04
 31
0.0
  0
LINE
  5
197
330
2
100
AcDbEntity
  8
画層1
 62
     0
100
AcDbLine
 10
126.19
 20
277.04
 30
0.0
 11
127.6399999999999
 21
277.04
 31
0.0
  0
LINE
  5
198
330
2
100
AcDbEntity
  8
画層1
 62
     0
100
AcDbLine
 10
137.59
 20
276.44
 30
0.0
 11
137.59
 21
269.4399999999999
 31
0.0
  0
LINE
  5
199
330
2
100
AcDbEntity
  8
画層1
 62
     0
100
AcDbLine
 10
130.59
 20
269.4399999999999
 30
0.0
 11
130.59
 21
276.44
 31
0.0
  0
CIRCLE
  5
19A
330
2
100
AcDbEntity
  8
画層1
 62
     0
100
AcDbCircle
 10
134.0899999999999
 20
272.94
 30
0.0
 40
3.0
  0
LINE
  5
19B
330
2
100
AcDbEntity
  8
画層1
 62
     0
100
AcDbLine
 10
134.59
 20
274.74
 30
0.0
 11
134.59
 21
274.44
 31
0.0
  0
LINE
  5
19C
330
2
100
AcDbEntity
  8
画層1
 62
     0
100
AcDbLine
 10
133.59
 20
274.44
 30
0.0
 11
133.59
 21
274.74
 31
0.0
  0
LINE
  5
19D
330
2
100
AcDbEntity
  8
画層1
 62
     0
100
AcDbLine
 10
128.6899999999999
 20
268.94
 30
0.0
 11
138.09
 21
268.94
 31
0.0
  0
LINE
  5
19E
330
2
100
AcDbEntity
  8
画層1
 62
     0
100
AcDbLine
 10
137.59
 20
269.4399999999999
 30
0.0
 11
130.59
 21
269.4399999999999
 31
0.0
  0
LINE
  5
19F
330
2
100
AcDbEntity
  8
画層1
 62
     0
100
AcDbLine
 10
128.6899999999999
 20
267.54
 30
0.0
 11
138.09
 21
267.54
 31
0.0
  0
LINE
  5
1A0
330
2
100
AcDbEntity
  8
画層1
 62
     0
100
AcDbLine
 10
130.59
 20
267.04
 30
0.0
 11
137.59
 21
267.04
 31
0.0
  0
ARC
  5
1A1
330
2
100
AcDbEntity
  8
画層1
 62
     0
100
AcDbCircle
 10
132.59
 20
271.4399999999999
 30
0.0
 40
1.0
100
AcDbArc
 50
0.0
 51
90.0
  0
ARC
  5
1A2
330
2
100
AcDbEntity
  8
画層1
 62
     0
100
AcDbCircle
 10
132.59
 20
274.44
 30
0.0
 40
1.0
100
AcDbArc
 50
270.0
 51
0.0
  0
LINE
  5
1A3
330
2
100
AcDbEntity
  8
画層1
 62
     0
100
AcDbLine
 10
132.59
 20
272.44
 30
0.0
 11
131.1299999999999
 21
272.44
 31
0.0
  0
LINE
  5
1A4
330
2
100
AcDbEntity
  8
画層1
 62
     0
100
AcDbLine
 10
131.1299999999999
 20
273.4399999999999
 30
0.0
 11
132.59
 21
273.4399999999999
 31
0.0
  0
LINE
  5
1A5
330
2
100
AcDbEntity
  8
画層1
 62
     0
100
AcDbLine
 10
137.0399999999999
 20
272.44
 30
0.0
 11
135.59
 21
272.44
 31
0.0
  0
LINE
  5
1A6
330
2
100
AcDbEntity
  8
画層1
 62
     0
100
AcDbLine
 10
135.59
 20
273.4399999999999
 30
0.0
 11
137.0399999999999
 21
273.4399999999999
 31
0.0
  0
LINE
  5
1A7
330
2
100
AcDbEntity
  8
画層1
 62
     0
100
AcDbLine
 10
134.59
 20
271.4399999999999
 30
0.0
 11
134.59
 21
271.1399999999999
 31
0.0
  0
ARC
  5
1A8
330
2
100
AcDbEntity
  8
画層1
 62
     0
100
AcDbCircle
 10
135.59
 20
271.4399999999999
 30
0.0
 40
1.0
100
AcDbArc
 50
90.0
 51
180.0
  0
ARC
  5
1A9
330
2
100
AcDbEntity
  8
画層1
 62
     0
100
AcDbCircle
 10
135.59
 20
274.44
 30
0.0
 40
1.0
100
AcDbArc
 50
180.0
 51
270.0
  0
LINE
  5
1AA
330
2
100
AcDbEntity
  8
画層1
 62
     0
100
AcDbLine
 10
133.59
 20
271.1399999999999
 30
0.0
 11
133.59
 21
271.4399999999999
 31
0.0
  0
LINE
  5
1AB
330
2
100
AcDbEntity
  8
画層1
 62
     0
100
AcDbLine
 10
133.59
 20
271.1399999999999
 30
0.0
 11
134.59
 21
271.1399999999999
 31
0.0
  0
LINE
  5
1AC
330
2
100
AcDbEntity
  8
画層1
 62
     0
100
AcDbLine
 10
137.59
 20
278.8399999999999
 30
0.0
 11
130.59
 21
278.8399999999999
 31
0.0
  0
LINE
  5
1AD
330
2
100
AcDbEntity
  8
画層1
 62
     0
100
AcDbLine
 10
128.6899999999999
 20
278.3399999999999
 30
0.0
 11
138.09
 21
278.3399999999999
 31
0.0
  0
LINE
  5
1AE
330
2
100
AcDbEntity
  8
画層1
 62
     0
100
AcDbLine
 10
128.6899999999999
 20
276.94
 30
0.0
 11
138.09
 21
276.94
 31
0.0
  0
LINE
  5
1AF
330
2
100
AcDbEntity
  8
画層1
 62
     0
100
AcDbLine
 10
130.59
 20
276.44
 30
0.0
 11
137.59
 21
276.44
 31
0.0
  0
ARC
  5
1B0
330
2
100
AcDbEntity
  8
画層1
 62
     0
100
AcDbCircle
 10
132.59
 20
280.8399999999999
 30
0.0
 40
1.0
100
AcDbArc
 50
0.0
 51
90.0
  0
LINE
  5
1B1
330
2
100
AcDbEntity
  8
画層1
 62
     0
100
AcDbLine
 10
132.59
 20
281.84
 30
0.0
 11
131.1299999999999
 21
281.84
 31
0.0
  0
LINE
  5
1B2
330
2
100
AcDbEntity
  8
画層1
 62
     0
100
AcDbLine
 10
131.1299999999999
 20
282.8399999999999
 30
0.0
 11
132.59
 21
282.8399999999999
 31
0.0
  0
LINE
  5
1B3
330
2
100
AcDbEntity
  8
画層1
 62
     0
100
AcDbLine
 10
137.0399999999999
 20
281.84
 30
0.0
 11
135.59
 21
281.84
 31
0.0
  0
LINE
  5
1B4
330
2
100
AcDbEntity
  8
画層1
 62
     0
100
AcDbLine
 10
135.59
 20
282.8399999999999
 30
0.0
 11
137.0399999999999
 21
282.8399999999999
 31
0.0
  0
ARC
  5
1B5
330
2
100
AcDbEntity
  8
画層1
 62
     0
100
AcDbCircle
 10
135.59
 20
280.8399999999999
 30
0.0
 40
1.0
100
AcDbArc
 50
90.0
 51
180.0
  0
LINE
  5
1B6
330
2
100
AcDbEntity
  8
画層1
 62
     0
100
AcDbLine
 10
134.59
 20
280.8399999999999
 30
0.0
 11
134.59
 21
280.54
 31
0.0
  0
LINE
  5
1B7
330
2
100
AcDbEntity
  8
画層1
 62
     0
100
AcDbLine
 10
133.59
 20
280.54
 30
0.0
 11
133.59
 21
280.8399999999999
 31
0.0
  0
LINE
  5
1B8
330
2
100
AcDbEntity
  8
画層1
 62
     0
100
AcDbLine
 10
133.59
 20
274.74
 30
0.0
 11
134.59
 21
274.74
 31
0.0
  0
LINE
  5
1B9
330
2
100
AcDbEntity
  8
画層1
 62
     0
100
AcDbLine
 10
133.59
 20
280.54
 30
0.0
 11
134.59
 21
280.54
 31
0.0
  0
LINE
  5
1BA
330
2
100
AcDbEntity
  8
画層1
 62
     0
100
AcDbLine
 10
139.09
 20
345.74
 30
0.0
 11
118.09
 21
345.74
 31
0.0
  0
LINE
  5
1BB
330
2
100
AcDbEntity
  8
画層1
 62
     0
100
AcDbLine
 10
128.19
 20
317.64
 30
0.0
 11
128.19
 21
310.6399999999999
 31
0.0
  0
LINE
  5
1BC
330
2
100
AcDbEntity
  8
画層1
 62
     0
100
AcDbLine
 10
121.1899999999999
 20
310.6399999999999
 30
0.0
 11
121.1899999999999
 21
317.64
 31
0.0
  0
CIRCLE
  5
1BD
330
2
100
AcDbEntity
  8
画層1
 62
     0
100
AcDbCircle
 10
124.6899999999999
 20
314.1399999999999
 30
0.0
 40
3.0
  0
LINE
  5
1BE
330
2
100
AcDbEntity
  8
画層1
 62
     0
100
AcDbLine
 10
137.59
 20
323.4399999999999
 30
0.0
 11
137.59
 21
316.44
 31
0.0
  0
LINE
  5
1BF
330
2
100
AcDbEntity
  8
画層1
 62
     0
100
AcDbLine
 10
130.59
 20
316.44
 30
0.0
 11
130.59
 21
323.4399999999999
 31
0.0
  0
CIRCLE
  5
1C0
330
2
100
AcDbEntity
  8
画層1
 62
     0
100
AcDbCircle
 10
134.0899999999999
 20
301.14
 30
0.0
 40
3.0
  0
LINE
  5
1C1
330
2
100
AcDbEntity
  8
画層1
 62
     0
100
AcDbLine
 10
130.59
 20
297.6399999999999
 30
0.0
 11
130.59
 21
304.6399999999999
 31
0.0
  0
LINE
  5
1C2
330
2
100
AcDbEntity
  8
画層1
 62
     0
100
AcDbLine
 10
137.59
 20
304.6399999999999
 30
0.0
 11
137.59
 21
297.6399999999999
 31
0.0
  0
ARC
  5
1C3
330
2
100
AcDbEntity
  8
画層1
 62
     0
100
AcDbCircle
 10
132.59
 20
299.6399999999999
 30
0.0
 40
1.0
100
AcDbArc
 50
0.0
 51
90.0
  0
ARC
  5
1C4
330
2
100
AcDbEntity
  8
画層1
 62
     0
100
AcDbCircle
 10
135.59
 20
299.6399999999999
 30
0.0
 40
1.0
100
AcDbArc
 50
90.0
 51
180.0
  0
LINE
  5
1C5
330
2
100
AcDbEntity
  8
画層1
 62
     0
100
AcDbLine
 10
119.29
 20
291.3399999999999
 30
0.0
 11
128.6899999999999
 21
291.3399999999999
 31
0.0
  0
LINE
  5
1C6
330
2
100
AcDbEntity
  8
画層1
 62
     0
100
AcDbLine
 10
119.29
 20
299.3399999999999
 30
0.0
 11
128.6899999999999
 21
299.3399999999999
 31
0.0
  0
LINE
  5
1C7
330
2
100
AcDbEntity
  8
画層1
 62
     0
100
AcDbLine
 10
119.29
 20
289.9399999999999
 30
0.0
 11
128.6899999999999
 21
289.9399999999999
 31
0.0
  0
ARC
  5
1C8
330
2
100
AcDbEntity
  8
画層1
 62
     0
100
AcDbCircle
 10
123.1899999999999
 20
287.4399999999999
 30
0.0
 40
1.0
100
AcDbArc
 50
270.0
 51
0.0
  0
ARC
  5
1C9
330
2
100
AcDbEntity
  8
画層1
 62
     0
100
AcDbCircle
 10
123.1899999999999
 20
284.4399999999999
 30
0.0
 40
1.0
100
AcDbArc
 50
0.0
 51
90.0
  0
LINE
  5
1CA
330
2
100
AcDbEntity
  8
画層1
 62
     0
100
AcDbLine
 10
121.1899999999999
 20
289.44
 30
0.0
 11
128.19
 21
289.44
 31
0.0
  0
LINE
  5
1CB
330
2
100
AcDbEntity
  8
画層1
 62
     0
100
AcDbLine
 10
121.73
 20
286.4399999999999
 30
0.0
 11
123.1899999999999
 21
286.4399999999999
 31
0.0
  0
LINE
  5
1CC
330
2
100
AcDbEntity
  8
画層1
 62
     0
100
AcDbLine
 10
123.1899999999999
 20
285.44
 30
0.0
 11
121.73
 21
285.44
 31
0.0
  0
LINE
  5
1CD
330
2
100
AcDbEntity
  8
画層1
 62
     0
100
AcDbLine
 10
124.19
 20
287.4399999999999
 30
0.0
 11
124.19
 21
287.74
 31
0.0
  0
LINE
  5
1CE
330
2
100
AcDbEntity
  8
画層1
 62
     0
100
AcDbLine
 10
125.19
 20
287.74
 30
0.0
 11
125.19
 21
287.4399999999999
 31
0.0
  0
LINE
  5
1CF
330
2
100
AcDbEntity
  8
画層1
 62
     0
100
AcDbLine
 10
124.19
 20
284.1399999999999
 30
0.0
 11
125.19
 21
284.1399999999999
 31
0.0
  0
ARC
  5
1D0
330
2
100
AcDbEntity
  8
画層1
 62
     0
100
AcDbCircle
 10
126.19
 20
287.4399999999999
 30
0.0
 40
1.0
100
AcDbArc
 50
180.0
 51
270.0
  0
LINE
  5
1D1
330
2
100
AcDbEntity
  8
画層1
 62
     0
100
AcDbLine
 10
126.19
 20
286.4399999999999
 30
0.0
 11
127.6399999999999
 21
286.4399999999999
 31
0.0
  0
ARC
  5
1D2
330
2
100
AcDbEntity
  8
画層1
 62
     0
100
AcDbCircle
 10
126.19
 20
284.4399999999999
 30
0.0
 40
1.0
100
AcDbArc
 50
90.0
 51
180.0
  0
LINE
  5
1D3
330
2
100
AcDbEntity
  8
画層1
 62
     0
100
AcDbLine
 10
127.6399999999999
 20
285.44
 30
0.0
 11
126.19
 21
285.44
 31
0.0
  0
LINE
  5
1D4
330
2
100
AcDbEntity
  8
画層1
 62
     0
100
AcDbLine
 10
125.19
 20
284.4399999999999
 30
0.0
 11
125.19
 21
284.1399999999999
 31
0.0
  0
LINE
  5
1D5
330
2
100
AcDbEntity
  8
画層1
 62
     0
100
AcDbLine
 10
124.19
 20
284.1399999999999
 30
0.0
 11
124.19
 21
284.4399999999999
 31
0.0
  0
LINE
  5
1D6
330
2
100
AcDbEntity
  8
画層1
 62
     0
100
AcDbLine
 10
124.19
 20
287.74
 30
0.0
 11
125.19
 21
287.74
 31
0.0
  0
LINE
  5
1D7
330
2
100
AcDbEntity
  8
画層1
 62
     0
100
AcDbLine
 10
121.1899999999999
 20
298.84
 30
0.0
 11
128.19
 21
298.84
 31
0.0
  0
LINE
  5
1D8
330
2
100
AcDbEntity
  8
画層1
 62
     0
100
AcDbLine
 10
128.19
 20
291.8399999999999
 30
0.0
 11
121.1899999999999
 21
291.8399999999999
 31
0.0
  0
CIRCLE
  5
1D9
330
2
100
AcDbEntity
  8
画層1
 62
     0
100
AcDbCircle
 10
124.6899999999999
 20
295.3399999999999
 30
0.0
 40
3.0
  0
ARC
  5
1DA
330
2
100
AcDbEntity
  8
画層1
 62
     0
100
AcDbCircle
 10
123.1899999999999
 20
296.8399999999999
 30
0.0
 40
1.0
100
AcDbArc
 50
270.0
 51
0.0
  0
ARC
  5
1DB
330
2
100
AcDbEntity
  8
画層1
 62
     0
100
AcDbCircle
 10
123.1899999999999
 20
293.8399999999999
 30
0.0
 40
1.0
100
AcDbArc
 50
0.0
 51
90.0
  0
LINE
  5
1DC
330
2
100
AcDbEntity
  8
画層1
 62
     0
100
AcDbLine
 10
121.1899999999999
 20
291.8399999999999
 30
0.0
 11
121.1899999999999
 21
298.84
 31
0.0
  0
LINE
  5
1DD
330
2
100
AcDbEntity
  8
画層1
 62
     0
100
AcDbLine
 10
121.73
 20
295.8399999999999
 30
0.0
 11
123.1899999999999
 21
295.8399999999999
 31
0.0
  0
LINE
  5
1DE
330
2
100
AcDbEntity
  8
画層1
 62
     0
100
AcDbLine
 10
123.1899999999999
 20
294.8399999999999
 30
0.0
 11
121.73
 21
294.8399999999999
 31
0.0
  0
LINE
  5
1DF
330
2
100
AcDbEntity
  8
画層1
 62
     0
100
AcDbLine
 10
124.19
 20
297.14
 30
0.0
 11
125.19
 21
297.14
 31
0.0
  0
LINE
  5
1E0
330
2
100
AcDbEntity
  8
画層1
 62
     0
100
AcDbLine
 10
124.19
 20
293.54
 30
0.0
 11
125.19
 21
293.54
 31
0.0
  0
LINE
  5
1E1
330
2
100
AcDbEntity
  8
画層1
 62
     0
100
AcDbLine
 10
124.19
 20
296.8399999999999
 30
0.0
 11
124.19
 21
297.14
 31
0.0
  0
ARC
  5
1E2
330
2
100
AcDbEntity
  8
画層1
 62
     0
100
AcDbCircle
 10
126.19
 20
296.8399999999999
 30
0.0
 40
1.0
100
AcDbArc
 50
180.0
 51
270.0
  0
LINE
  5
1E3
330
2
100
AcDbEntity
  8
画層1
 62
     0
100
AcDbLine
 10
125.19
 20
297.14
 30
0.0
 11
125.19
 21
296.8399999999999
 31
0.0
  0
LINE
  5
1E4
330
2
100
AcDbEntity
  8
画層1
 62
     0
100
AcDbLine
 10
126.19
 20
295.8399999999999
 30
0.0
 11
127.6399999999999
 21
295.8399999999999
 31
0.0
  0
ARC
  5
1E5
330
2
100
AcDbEntity
  8
画層1
 62
     0
100
AcDbCircle
 10
126.19
 20
293.8399999999999
 30
0.0
 40
1.0
100
AcDbArc
 50
90.0
 51
180.0
  0
LINE
  5
1E6
330
2
100
AcDbEntity
  8
画層1
 62
     0
100
AcDbLine
 10
127.6399999999999
 20
294.8399999999999
 30
0.0
 11
126.19
 21
294.8399999999999
 31
0.0
  0
LINE
  5
1E7
330
2
100
AcDbEntity
  8
画層1
 62
     0
100
AcDbLine
 10
125.19
 20
293.8399999999999
 30
0.0
 11
125.19
 21
293.54
 31
0.0
  0
LINE
  5
1E8
330
2
100
AcDbEntity
  8
画層1
 62
     0
100
AcDbLine
 10
124.19
 20
293.54
 30
0.0
 11
124.19
 21
293.8399999999999
 31
0.0
  0
LINE
  5
1E9
330
2
100
AcDbEntity
  8
画層1
 62
     0
100
AcDbLine
 10
128.19
 20
298.84
 30
0.0
 11
128.19
 21
291.8399999999999
 31
0.0
  0
CIRCLE
  5
1EA
330
2
100
AcDbEntity
  8
画層1
 62
     0
100
AcDbCircle
 10
134.0899999999999
 20
291.74
 30
0.0
 40
3.0
  0
LINE
  5
1EB
330
2
100
AcDbEntity
  8
画層1
 62
     0
100
AcDbLine
 10
130.59
 20
288.24
 30
0.0
 11
130.59
 21
295.24
 31
0.0
  0
LINE
  5
1EC
330
2
100
AcDbEntity
  8
画層1
 62
     0
100
AcDbLine
 10
137.59
 20
295.24
 30
0.0
 11
137.59
 21
288.24
 31
0.0
  0
LINE
  5
1ED
330
2
100
AcDbEntity
  8
画層1
 62
     0
100
AcDbLine
 10
128.6899999999999
 20
286.34
 30
0.0
 11
138.09
 21
286.34
 31
0.0
  0
LINE
  5
1EE
330
2
100
AcDbEntity
  8
画層1
 62
     0
100
AcDbLine
 10
130.59
 20
285.8399999999999
 30
0.0
 11
137.59
 21
285.8399999999999
 31
0.0
  0
LINE
  5
1EF
330
2
100
AcDbEntity
  8
画層1
 62
     0
100
AcDbLine
 10
128.6899999999999
 20
287.74
 30
0.0
 11
138.09
 21
287.74
 31
0.0
  0
LINE
  5
1F0
330
2
100
AcDbEntity
  8
画層1
 62
     0
100
AcDbLine
 10
137.59
 20
288.24
 30
0.0
 11
130.59
 21
288.24
 31
0.0
  0
ARC
  5
1F1
330
2
100
AcDbEntity
  8
画層1
 62
     0
100
AcDbCircle
 10
132.59
 20
290.24
 30
0.0
 40
1.0
100
AcDbArc
 50
0.0
 51
90.0
  0
LINE
  5
1F2
330
2
100
AcDbEntity
  8
画層1
 62
     0
100
AcDbLine
 10
132.59
 20
291.24
 30
0.0
 11
131.1299999999999
 21
291.24
 31
0.0
  0
LINE
  5
1F3
330
2
100
AcDbEntity
  8
画層1
 62
     0
100
AcDbLine
 10
134.59
 20
284.1399999999999
 30
0.0
 11
134.59
 21
283.8399999999999
 31
0.0
  0
LINE
  5
1F4
330
2
100
AcDbEntity
  8
画層1
 62
     0
100
AcDbLine
 10
137.0399999999999
 20
291.24
 30
0.0
 11
135.59
 21
291.24
 31
0.0
  0
LINE
  5
1F5
330
2
100
AcDbEntity
  8
画層1
 62
     0
100
AcDbLine
 10
134.59
 20
290.24
 30
0.0
 11
134.59
 21
289.9399999999999
 31
0.0
  0
ARC
  5
1F6
330
2
100
AcDbEntity
  8
画層1
 62
     0
100
AcDbCircle
 10
135.59
 20
290.24
 30
0.0
 40
1.0
100
AcDbArc
 50
90.0
 51
180.0
  0
LINE
  5
1F7
330
2
100
AcDbEntity
  8
画層1
 62
     0
100
AcDbLine
 10
133.59
 20
283.8399999999999
 30
0.0
 11
133.59
 21
284.1399999999999
 31
0.0
  0
LINE
  5
1F8
330
2
100
AcDbEntity
  8
画層1
 62
     0
100
AcDbLine
 10
133.59
 20
289.9399999999999
 30
0.0
 11
133.59
 21
290.24
 31
0.0
  0
LINE
  5
1F9
330
2
100
AcDbEntity
  8
画層1
 62
     0
100
AcDbLine
 10
133.59
 20
284.1399999999999
 30
0.0
 11
134.59
 21
284.1399999999999
 31
0.0
  0
LINE
  5
1FA
330
2
100
AcDbEntity
  8
画層1
 62
     0
100
AcDbLine
 10
133.59
 20
289.9399999999999
 30
0.0
 11
134.59
 21
289.9399999999999
 31
0.0
  0
LINE
  5
1FB
330
2
100
AcDbEntity
  8
画層1
 62
     0
100
AcDbLine
 10
128.6899999999999
 20
297.14
 30
0.0
 11
138.09
 21
297.14
 31
0.0
  0
LINE
  5
1FC
330
2
100
AcDbEntity
  8
画層1
 62
     0
100
AcDbLine
 10
137.59
 20
297.6399999999999
 30
0.0
 11
130.59
 21
297.6399999999999
 31
0.0
  0
LINE
  5
1FD
330
2
100
AcDbEntity
  8
画層1
 62
     0
100
AcDbLine
 10
128.6899999999999
 20
295.74
 30
0.0
 11
138.09
 21
295.74
 31
0.0
  0
LINE
  5
1FE
330
2
100
AcDbEntity
  8
画層1
 62
     0
100
AcDbLine
 10
130.59
 20
295.24
 30
0.0
 11
137.59
 21
295.24
 31
0.0
  0
ARC
  5
1FF
330
2
100
AcDbEntity
  8
画層1
 62
     0
100
AcDbCircle
 10
132.59
 20
293.24
 30
0.0
 40
1.0
100
AcDbArc
 50
270.0
 51
0.0
  0
LINE
  5
200
330
2
100
AcDbEntity
  8
画層1
 62
     0
100
AcDbLine
 10
131.1299999999999
 20
292.24
 30
0.0
 11
132.59
 21
292.24
 31
0.0
  0
LINE
  5
201
330
2
100
AcDbEntity
  8
画層1
 62
     0
100
AcDbLine
 10
135.59
 20
292.24
 30
0.0
 11
137.0399999999999
 21
292.24
 31
0.0
  0
LINE
  5
202
330
2
100
AcDbEntity
  8
画層1
 62
     0
100
AcDbLine
 10
134.59
 20
293.54
 30
0.0
 11
134.59
 21
293.24
 31
0.0
  0
ARC
  5
203
330
2
100
AcDbEntity
  8
画層1
 62
     0
100
AcDbCircle
 10
135.59
 20
293.24
 30
0.0
 40
1.0
100
AcDbArc
 50
180.0
 51
270.0
  0
LINE
  5
204
330
2
100
AcDbEntity
  8
画層1
 62
     0
100
AcDbLine
 10
134.59
 20
299.6399999999999
 30
0.0
 11
134.59
 21
299.3399999999999
 31
0.0
  0
LINE
  5
205
330
2
100
AcDbEntity
  8
画層1
 62
     0
100
AcDbLine
 10
133.59
 20
293.24
 30
0.0
 11
133.59
 21
293.54
 31
0.0
  0
LINE
  5
206
330
2
100
AcDbEntity
  8
画層1
 62
     0
100
AcDbLine
 10
133.59
 20
299.3399999999999
 30
0.0
 11
133.59
 21
299.6399999999999
 31
0.0
  0
LINE
  5
207
330
2
100
AcDbEntity
  8
画層1
 62
     0
100
AcDbLine
 10
133.59
 20
293.54
 30
0.0
 11
134.59
 21
293.54
 31
0.0
  0
LINE
  5
208
330
2
100
AcDbEntity
  8
画層1
 62
     0
100
AcDbLine
 10
133.59
 20
299.3399999999999
 30
0.0
 11
134.59
 21
299.3399999999999
 31
0.0
  0
LINE
  5
209
330
2
100
AcDbEntity
  8
画層1
 62
     0
100
AcDbLine
 10
119.29
 20
300.74
 30
0.0
 11
128.6899999999999
 21
300.74
 31
0.0
  0
LINE
  5
20A
330
2
100
AcDbEntity
  8
画層1
 62
     0
100
AcDbLine
 10
119.29
 20
308.74
 30
0.0
 11
128.6899999999999
 21
308.74
 31
0.0
  0
LINE
  5
20B
330
2
100
AcDbEntity
  8
画層1
 62
     0
100
AcDbLine
 10
119.29
 20
310.1399999999999
 30
0.0
 11
128.6899999999999
 21
310.1399999999999
 31
0.0
  0
LINE
  5
20C
330
2
100
AcDbEntity
  8
画層1
 62
     0
100
AcDbLine
 10
128.19
 20
301.2399999999999
 30
0.0
 11
121.1899999999999
 21
301.2399999999999
 31
0.0
  0
LINE
  5
20D
330
2
100
AcDbEntity
  8
画層1
 62
     0
100
AcDbLine
 10
121.1899999999999
 20
308.24
 30
0.0
 11
128.19
 21
308.24
 31
0.0
  0
CIRCLE
  5
20E
330
2
100
AcDbEntity
  8
画層1
 62
     0
100
AcDbCircle
 10
124.6899999999999
 20
304.74
 30
0.0
 40
3.0
  0
ARC
  5
20F
330
2
100
AcDbEntity
  8
画層1
 62
     0
100
AcDbCircle
 10
123.1899999999999
 20
306.24
 30
0.0
 40
1.0
100
AcDbArc
 50
270.0
 51
0.0
  0
ARC
  5
210
330
2
100
AcDbEntity
  8
画層1
 62
     0
100
AcDbCircle
 10
123.1899999999999
 20
303.2399999999999
 30
0.0
 40
1.0
100
AcDbArc
 50
0.0
 51
90.0
  0
LINE
  5
211
330
2
100
AcDbEntity
  8
画層1
 62
     0
100
AcDbLine
 10
121.1899999999999
 20
301.2399999999999
 30
0.0
 11
121.1899999999999
 21
308.24
 31
0.0
  0
LINE
  5
212
330
2
100
AcDbEntity
  8
画層1
 62
     0
100
AcDbLine
 10
123.1899999999999
 20
304.24
 30
0.0
 11
121.73
 21
304.24
 31
0.0
  0
LINE
  5
213
330
2
100
AcDbEntity
  8
画層1
 62
     0
100
AcDbLine
 10
121.73
 20
305.24
 30
0.0
 11
123.1899999999999
 21
305.24
 31
0.0
  0
ARC
  5
214
330
2
100
AcDbEntity
  8
画層1
 62
     0
100
AcDbCircle
 10
126.19
 20
306.24
 30
0.0
 40
1.0
100
AcDbArc
 50
180.0
 51
270.0
  0
LINE
  5
215
330
2
100
AcDbEntity
  8
画層1
 62
     0
100
AcDbLine
 10
125.19
 20
303.2399999999999
 30
0.0
 11
125.19
 21
302.9399999999999
 31
0.0
  0
LINE
  5
216
330
2
100
AcDbEntity
  8
画層1
 62
     0
100
AcDbLine
 10
124.19
 20
302.9399999999999
 30
0.0
 11
124.19
 21
303.2399999999999
 31
0.0
  0
LINE
  5
217
330
2
100
AcDbEntity
  8
画層1
 62
     0
100
AcDbLine
 10
124.19
 20
302.9399999999999
 30
0.0
 11
125.19
 21
302.9399999999999
 31
0.0
  0
ARC
  5
218
330
2
100
AcDbEntity
  8
画層1
 62
     0
100
AcDbCircle
 10
126.19
 20
303.2399999999999
 30
0.0
 40
1.0
100
AcDbArc
 50
90.0
 51
180.0
  0
LINE
  5
219
330
2
100
AcDbEntity
  8
画層1
 62
     0
100
AcDbLine
 10
127.6399999999999
 20
304.24
 30
0.0
 11
126.19
 21
304.24
 31
0.0
  0
LINE
  5
21A
330
2
100
AcDbEntity
  8
画層1
 62
     0
100
AcDbLine
 10
124.19
 20
306.54
 30
0.0
 11
125.19
 21
306.54
 31
0.0
  0
LINE
  5
21B
330
2
100
AcDbEntity
  8
画層1
 62
     0
100
AcDbLine
 10
124.19
 20
306.24
 30
0.0
 11
124.19
 21
306.54
 31
0.0
  0
LINE
  5
21C
330
2
100
AcDbEntity
  8
画層1
 62
     0
100
AcDbLine
 10
125.19
 20
306.54
 30
0.0
 11
125.19
 21
306.24
 31
0.0
  0
LINE
  5
21D
330
2
100
AcDbEntity
  8
画層1
 62
     0
100
AcDbLine
 10
126.19
 20
305.24
 30
0.0
 11
127.6399999999999
 21
305.24
 31
0.0
  0
LINE
  5
21E
330
2
100
AcDbEntity
  8
画層1
 62
     0
100
AcDbLine
 10
128.19
 20
308.24
 30
0.0
 11
128.19
 21
301.2399999999999
 31
0.0
  0
LINE
  5
21F
330
2
100
AcDbEntity
  8
画層1
 62
     0
100
AcDbLine
 10
128.19
 20
310.6399999999999
 30
0.0
 11
121.1899999999999
 21
310.6399999999999
 31
0.0
  0
ARC
  5
220
330
2
100
AcDbEntity
  8
画層1
 62
     0
100
AcDbCircle
 10
123.1899999999999
 20
315.64
 30
0.0
 40
1.0
100
AcDbArc
 50
270.0
 51
0.0
  0
ARC
  5
221
330
2
100
AcDbEntity
  8
画層1
 62
     0
100
AcDbCircle
 10
123.1899999999999
 20
312.6399999999999
 30
0.0
 40
1.0
100
AcDbArc
 50
0.0
 51
90.0
  0
LINE
  5
222
330
2
100
AcDbEntity
  8
画層1
 62
     0
100
AcDbLine
 10
121.73
 20
314.6399999999999
 30
0.0
 11
123.1899999999999
 21
314.6399999999999
 31
0.0
  0
LINE
  5
223
330
2
100
AcDbEntity
  8
画層1
 62
     0
100
AcDbLine
 10
123.1899999999999
 20
313.64
 30
0.0
 11
121.73
 21
313.64
 31
0.0
  0
ARC
  5
224
330
2
100
AcDbEntity
  8
画層1
 62
     0
100
AcDbCircle
 10
126.19
 20
315.64
 30
0.0
 40
1.0
100
AcDbArc
 50
180.0
 51
270.0
  0
LINE
  5
225
330
2
100
AcDbEntity
  8
画層1
 62
     0
100
AcDbLine
 10
126.19
 20
314.6399999999999
 30
0.0
 11
127.6399999999999
 21
314.6399999999999
 31
0.0
  0
LINE
  5
226
330
2
100
AcDbEntity
  8
画層1
 62
     0
100
AcDbLine
 10
127.6399999999999
 20
313.64
 30
0.0
 11
126.19
 21
313.64
 31
0.0
  0
LINE
  5
227
330
2
100
AcDbEntity
  8
画層1
 62
     0
100
AcDbLine
 10
124.19
 20
315.94
 30
0.0
 11
125.19
 21
315.94
 31
0.0
  0
LINE
  5
228
330
2
100
AcDbEntity
  8
画層1
 62
     0
100
AcDbLine
 10
124.19
 20
315.64
 30
0.0
 11
124.19
 21
315.94
 31
0.0
  0
LINE
  5
229
330
2
100
AcDbEntity
  8
画層1
 62
     0
100
AcDbLine
 10
125.19
 20
315.94
 30
0.0
 11
125.19
 21
315.64
 31
0.0
  0
LINE
  5
22A
330
2
100
AcDbEntity
  8
画層1
 62
     0
100
AcDbLine
 10
124.19
 20
312.3399999999999
 30
0.0
 11
125.19
 21
312.3399999999999
 31
0.0
  0
LINE
  5
22B
330
2
100
AcDbEntity
  8
画層1
 62
     0
100
AcDbLine
 10
125.19
 20
312.6399999999999
 30
0.0
 11
125.19
 21
312.3399999999999
 31
0.0
  0
LINE
  5
22C
330
2
100
AcDbEntity
  8
画層1
 62
     0
100
AcDbLine
 10
124.19
 20
312.3399999999999
 30
0.0
 11
124.19
 21
312.6399999999999
 31
0.0
  0
ARC
  5
22D
330
2
100
AcDbEntity
  8
画層1
 62
     0
100
AcDbCircle
 10
126.19
 20
312.6399999999999
 30
0.0
 40
1.0
100
AcDbArc
 50
90.0
 51
180.0
  0
CIRCLE
  5
22E
330
2
100
AcDbEntity
  8
画層1
 62
     0
100
AcDbCircle
 10
134.0899999999999
 20
310.54
 30
0.0
 40
3.0
  0
LINE
  5
22F
330
2
100
AcDbEntity
  8
画層1
 62
     0
100
AcDbLine
 10
130.59
 20
307.04
 30
0.0
 11
130.59
 21
314.04
 31
0.0
  0
LINE
  5
230
330
2
100
AcDbEntity
  8
画層1
 62
     0
100
AcDbLine
 10
137.59
 20
314.04
 30
0.0
 11
137.59
 21
307.04
 31
0.0
  0
LINE
  5
231
330
2
100
AcDbEntity
  8
画層1
 62
     0
100
AcDbLine
 10
128.6899999999999
 20
306.54
 30
0.0
 11
138.09
 21
306.54
 31
0.0
  0
LINE
  5
232
330
2
100
AcDbEntity
  8
画層1
 62
     0
100
AcDbLine
 10
137.59
 20
307.04
 30
0.0
 11
130.59
 21
307.04
 31
0.0
  0
LINE
  5
233
330
2
100
AcDbEntity
  8
画層1
 62
     0
100
AcDbLine
 10
128.6899999999999
 20
305.14
 30
0.0
 11
138.09
 21
305.14
 31
0.0
  0
LINE
  5
234
330
2
100
AcDbEntity
  8
画層1
 62
     0
100
AcDbLine
 10
130.59
 20
304.6399999999999
 30
0.0
 11
137.59
 21
304.6399999999999
 31
0.0
  0
ARC
  5
235
330
2
100
AcDbEntity
  8
画層1
 62
     0
100
AcDbCircle
 10
132.59
 20
302.6399999999999
 30
0.0
 40
1.0
100
AcDbArc
 50
270.0
 51
0.0
  0
LINE
  5
236
330
2
100
AcDbEntity
  8
画層1
 62
     0
100
AcDbLine
 10
132.59
 20
300.6399999999999
 30
0.0
 11
131.1299999999999
 21
300.6399999999999
 31
0.0
  0
LINE
  5
237
330
2
100
AcDbEntity
  8
画層1
 62
     0
100
AcDbLine
 10
131.1299999999999
 20
301.6399999999999
 30
0.0
 11
132.59
 21
301.6399999999999
 31
0.0
  0
LINE
  5
238
330
2
100
AcDbEntity
  8
画層1
 62
     0
100
AcDbLine
 10
137.0399999999999
 20
300.6399999999999
 30
0.0
 11
135.59
 21
300.6399999999999
 31
0.0
  0
LINE
  5
239
330
2
100
AcDbEntity
  8
画層1
 62
     0
100
AcDbLine
 10
135.59
 20
301.6399999999999
 30
0.0
 11
137.0399999999999
 21
301.6399999999999
 31
0.0
  0
LINE
  5
23A
330
2
100
AcDbEntity
  8
画層1
 62
     0
100
AcDbLine
 10
134.59
 20
302.9399999999999
 30
0.0
 11
134.59
 21
302.6399999999999
 31
0.0
  0
ARC
  5
23B
330
2
100
AcDbEntity
  8
画層1
 62
     0
100
AcDbCircle
 10
135.59
 20
302.6399999999999
 30
0.0
 40
1.0
100
AcDbArc
 50
180.0
 51
270.0
  0
LINE
  5
23C
330
2
100
AcDbEntity
  8
画層1
 62
     0
100
AcDbLine
 10
133.59
 20
302.6399999999999
 30
0.0
 11
133.59
 21
302.9399999999999
 31
0.0
  0
LINE
  5
23D
330
2
100
AcDbEntity
  8
画層1
 62
     0
100
AcDbLine
 10
133.59
 20
302.9399999999999
 30
0.0
 11
134.59
 21
302.9399999999999
 31
0.0
  0
ARC
  5
23E
330
2
100
AcDbEntity
  8
画層1
 62
     0
100
AcDbCircle
 10
132.59
 20
312.04
 30
0.0
 40
1.0
100
AcDbArc
 50
270.0
 51
0.0
  0
ARC
  5
23F
330
2
100
AcDbEntity
  8
画層1
 62
     0
100
AcDbCircle
 10
132.59
 20
309.04
 30
0.0
 40
1.0
100
AcDbArc
 50
0.0
 51
90.0
  0
LINE
  5
240
330
2
100
AcDbEntity
  8
画層1
 62
     0
100
AcDbLine
 10
128.6899999999999
 20
315.94
 30
0.0
 11
138.09
 21
315.94
 31
0.0
  0
LINE
  5
241
330
2
100
AcDbEntity
  8
画層1
 62
     0
100
AcDbLine
 10
137.59
 20
316.44
 30
0.0
 11
130.59
 21
316.44
 31
0.0
  0
LINE
  5
242
330
2
100
AcDbEntity
  8
画層1
 62
     0
100
AcDbLine
 10
128.6899999999999
 20
314.54
 30
0.0
 11
138.09
 21
314.54
 31
0.0
  0
LINE
  5
243
330
2
100
AcDbEntity
  8
画層1
 62
     0
100
AcDbLine
 10
130.59
 20
314.04
 30
0.0
 11
137.59
 21
314.04
 31
0.0
  0
LINE
  5
244
330
2
100
AcDbEntity
  8
画層1
 62
     0
100
AcDbLine
 10
132.59
 20
310.04
 30
0.0
 11
131.1299999999999
 21
310.04
 31
0.0
  0
LINE
  5
245
330
2
100
AcDbEntity
  8
画層1
 62
     0
100
AcDbLine
 10
131.1299999999999
 20
311.04
 30
0.0
 11
132.59
 21
311.04
 31
0.0
  0
ARC
  5
246
330
2
100
AcDbEntity
  8
画層1
 62
     0
100
AcDbCircle
 10
135.59
 20
312.04
 30
0.0
 40
1.0
100
AcDbArc
 50
180.0
 51
270.0
  0
LINE
  5
247
330
2
100
AcDbEntity
  8
画層1
 62
     0
100
AcDbLine
 10
137.0399999999999
 20
310.04
 30
0.0
 11
135.59
 21
310.04
 31
0.0
  0
LINE
  5
248
330
2
100
AcDbEntity
  8
画層1
 62
     0
100
AcDbLine
 10
134.59
 20
309.04
 30
0.0
 11
134.59
 21
308.74
 31
0.0
  0
ARC
  5
249
330
2
100
AcDbEntity
  8
画層1
 62
     0
100
AcDbCircle
 10
135.59
 20
309.04
 30
0.0
 40
1.0
100
AcDbArc
 50
90.0
 51
180.0
  0
LINE
  5
24A
330
2
100
AcDbEntity
  8
画層1
 62
     0
100
AcDbLine
 10
135.59
 20
311.04
 30
0.0
 11
137.0399999999999
 21
311.04
 31
0.0
  0
LINE
  5
24B
330
2
100
AcDbEntity
  8
画層1
 62
     0
100
AcDbLine
 10
134.59
 20
312.3399999999999
 30
0.0
 11
134.59
 21
312.04
 31
0.0
  0
LINE
  5
24C
330
2
100
AcDbEntity
  8
画層1
 62
     0
100
AcDbLine
 10
133.59
 20
308.74
 30
0.0
 11
133.59
 21
309.04
 31
0.0
  0
LINE
  5
24D
330
2
100
AcDbEntity
  8
画層1
 62
     0
100
AcDbLine
 10
133.59
 20
312.04
 30
0.0
 11
133.59
 21
312.3399999999999
 31
0.0
  0
LINE
  5
24E
330
2
100
AcDbEntity
  8
画層1
 62
     0
100
AcDbLine
 10
133.59
 20
308.74
 30
0.0
 11
134.59
 21
308.74
 31
0.0
  0
LINE
  5
24F
330
2
100
AcDbEntity
  8
画層1
 62
     0
100
AcDbLine
 10
133.59
 20
312.3399999999999
 30
0.0
 11
134.59
 21
312.3399999999999
 31
0.0
  0
LINE
  5
250
330
2
100
AcDbEntity
  8
画層1
 62
     0
100
AcDbLine
 10
115.09
 20
344.74
 30
0.0
 11
138.09
 21
344.74
 31
0.0
  0
ARC
  5
251
330
2
100
AcDbEntity
  8
画層1
 62
     0
100
AcDbCircle
 10
126.19
 20
334.44
 30
0.0
 40
1.0
100
AcDbArc
 50
180.0
 51
270.0
  0
LINE
  5
252
330
2
100
AcDbEntity
  8
画層1
 62
     0
100
AcDbLine
 10
128.19
 20
336.4399999999999
 30
0.0
 11
128.19
 21
329.4399999999999
 31
0.0
  0
LINE
  5
253
330
2
100
AcDbEntity
  8
画層1
 62
     0
100
AcDbLine
 10
121.1899999999999
 20
329.4399999999999
 30
0.0
 11
121.1899999999999
 21
336.4399999999999
 31
0.0
  0
CIRCLE
  5
254
330
2
100
AcDbEntity
  8
画層1
 62
     0
100
AcDbCircle
 10
124.6899999999999
 20
332.94
 30
0.0
 40
3.0
  0
ARC
  5
255
330
2
100
AcDbEntity
  8
画層1
 62
     0
100
AcDbCircle
 10
123.1899999999999
 20
334.44
 30
0.0
 40
1.0
100
AcDbArc
 50
270.0
 51
0.0
  0
LINE
  5
256
330
2
100
AcDbEntity
  8
画層1
 62
     0
100
AcDbLine
 10
119.29
 20
318.14
 30
0.0
 11
128.6899999999999
 21
318.14
 31
0.0
  0
LINE
  5
257
330
2
100
AcDbEntity
  8
画層1
 62
     0
100
AcDbLine
 10
119.29
 20
319.54
 30
0.0
 11
128.6899999999999
 21
319.54
 31
0.0
  0
LINE
  5
258
330
2
100
AcDbEntity
  8
画層1
 62
     0
100
AcDbLine
 10
119.29
 20
327.54
 30
0.0
 11
128.6899999999999
 21
327.54
 31
0.0
  0
LINE
  5
259
330
2
100
AcDbEntity
  8
画層1
 62
     0
100
AcDbLine
 10
119.29
 20
328.94
 30
0.0
 11
128.6899999999999
 21
328.94
 31
0.0
  0
LINE
  5
25A
330
2
100
AcDbEntity
  8
画層1
 62
     0
100
AcDbLine
 10
121.1899999999999
 20
320.04
 30
0.0
 11
121.1899999999999
 21
327.04
 31
0.0
  0
CIRCLE
  5
25B
330
2
100
AcDbEntity
  8
画層1
 62
     0
100
AcDbCircle
 10
124.6899999999999
 20
323.54
 30
0.0
 40
3.0
  0
LINE
  5
25C
330
2
100
AcDbEntity
  8
画層1
 62
     0
100
AcDbLine
 10
124.19
 20
325.04
 30
0.0
 11
124.19
 21
325.3399999999999
 31
0.0
  0
LINE
  5
25D
330
2
100
AcDbEntity
  8
画層1
 62
     0
100
AcDbLine
 10
125.19
 20
325.3399999999999
 30
0.0
 11
125.19
 21
325.04
 31
0.0
  0
LINE
  5
25E
330
2
100
AcDbEntity
  8
画層1
 62
     0
100
AcDbLine
 10
128.19
 20
327.04
 30
0.0
 11
128.19
 21
320.04
 31
0.0
  0
LINE
  5
25F
330
2
100
AcDbEntity
  8
画層1
 62
     0
100
AcDbLine
 10
121.1899999999999
 20
317.64
 30
0.0
 11
128.19
 21
317.64
 31
0.0
  0
LINE
  5
260
330
2
100
AcDbEntity
  8
画層1
 62
     0
100
AcDbLine
 10
128.19
 20
320.04
 30
0.0
 11
121.1899999999999
 21
320.04
 31
0.0
  0
ARC
  5
261
330
2
100
AcDbEntity
  8
画層1
 62
     0
100
AcDbCircle
 10
123.1899999999999
 20
322.04
 30
0.0
 40
1.0
100
AcDbArc
 50
0.0
 51
90.0
  0
ARC
  5
262
330
2
100
AcDbEntity
  8
画層1
 62
     0
100
AcDbCircle
 10
123.1899999999999
 20
325.04
 30
0.0
 40
1.0
100
AcDbArc
 50
270.0
 51
0.0
  0
LINE
  5
263
330
2
100
AcDbEntity
  8
画層1
 62
     0
100
AcDbLine
 10
121.73
 20
324.04
 30
0.0
 11
123.1899999999999
 21
324.04
 31
0.0
  0
LINE
  5
264
330
2
100
AcDbEntity
  8
画層1
 62
     0
100
AcDbLine
 10
123.1899999999999
 20
323.04
 30
0.0
 11
121.73
 21
323.04
 31
0.0
  0
ARC
  5
265
330
2
100
AcDbEntity
  8
画層1
 62
     0
100
AcDbCircle
 10
126.19
 20
322.04
 30
0.0
 40
1.0
100
AcDbArc
 50
90.0
 51
180.0
  0
LINE
  5
266
330
2
100
AcDbEntity
  8
画層1
 62
     0
100
AcDbLine
 10
124.19
 20
321.74
 30
0.0
 11
125.19
 21
321.74
 31
0.0
  0
LINE
  5
267
330
2
100
AcDbEntity
  8
画層1
 62
     0
100
AcDbLine
 10
125.19
 20
322.04
 30
0.0
 11
125.19
 21
321.74
 31
0.0
  0
LINE
  5
268
330
2
100
AcDbEntity
  8
画層1
 62
     0
100
AcDbLine
 10
124.19
 20
321.74
 30
0.0
 11
124.19
 21
322.04
 31
0.0
  0
ARC
  5
269
330
2
100
AcDbEntity
  8
画層1
 62
     0
100
AcDbCircle
 10
126.19
 20
325.04
 30
0.0
 40
1.0
100
AcDbArc
 50
180.0
 51
270.0
  0
LINE
  5
26A
330
2
100
AcDbEntity
  8
画層1
 62
     0
100
AcDbLine
 10
126.19
 20
324.04
 30
0.0
 11
127.6399999999999
 21
324.04
 31
0.0
  0
LINE
  5
26B
330
2
100
AcDbEntity
  8
画層1
 62
     0
100
AcDbLine
 10
127.6399999999999
 20
323.04
 30
0.0
 11
126.19
 21
323.04
 31
0.0
  0
LINE
  5
26C
330
2
100
AcDbEntity
  8
画層1
 62
     0
100
AcDbLine
 10
121.1899999999999
 20
327.04
 30
0.0
 11
128.19
 21
327.04
 31
0.0
  0
LINE
  5
26D
330
2
100
AcDbEntity
  8
画層1
 62
     0
100
AcDbLine
 10
128.19
 20
329.4399999999999
 30
0.0
 11
121.1899999999999
 21
329.4399999999999
 31
0.0
  0
ARC
  5
26E
330
2
100
AcDbEntity
  8
画層1
 62
     0
100
AcDbCircle
 10
123.1899999999999
 20
331.44
 30
0.0
 40
1.0
100
AcDbArc
 50
0.0
 51
90.0
  0
LINE
  5
26F
330
2
100
AcDbEntity
  8
画層1
 62
     0
100
AcDbLine
 10
123.1899999999999
 20
332.44
 30
0.0
 11
121.73
 21
332.44
 31
0.0
  0
LINE
  5
270
330
2
100
AcDbEntity
  8
画層1
 62
     0
100
AcDbLine
 10
121.73
 20
333.44
 30
0.0
 11
123.1899999999999
 21
333.44
 31
0.0
  0
LINE
  5
271
330
2
100
AcDbEntity
  8
画層1
 62
     0
100
AcDbLine
 10
124.19
 20
325.3399999999999
 30
0.0
 11
125.19
 21
325.3399999999999
 31
0.0
  0
LINE
  5
272
330
2
100
AcDbEntity
  8
画層1
 62
     0
100
AcDbLine
 10
124.19
 20
331.1399999999999
 30
0.0
 11
124.19
 21
331.44
 31
0.0
  0
LINE
  5
273
330
2
100
AcDbEntity
  8
画層1
 62
     0
100
AcDbLine
 10
125.19
 20
331.44
 30
0.0
 11
125.19
 21
331.1399999999999
 31
0.0
  0
LINE
  5
274
330
2
100
AcDbEntity
  8
画層1
 62
     0
100
AcDbLine
 10
127.6399999999999
 20
332.44
 30
0.0
 11
126.19
 21
332.44
 31
0.0
  0
ARC
  5
275
330
2
100
AcDbEntity
  8
画層1
 62
     0
100
AcDbCircle
 10
126.19
 20
331.44
 30
0.0
 40
1.0
100
AcDbArc
 50
90.0
 51
180.0
  0
LINE
  5
276
330
2
100
AcDbEntity
  8
画層1
 62
     0
100
AcDbLine
 10
126.19
 20
333.44
 30
0.0
 11
127.6399999999999
 21
333.44
 31
0.0
  0
LINE
  5
277
330
2
100
AcDbEntity
  8
画層1
 62
     0
100
AcDbLine
 10
124.19
 20
331.1399999999999
 30
0.0
 11
125.19
 21
331.1399999999999
 31
0.0
  0
CIRCLE
  5
278
330
2
100
AcDbEntity
  8
画層1
 62
     0
100
AcDbCircle
 10
134.0899999999999
 20
319.94
 30
0.0
 40
3.0
  0
ARC
  5
279
330
2
100
AcDbEntity
  8
画層1
 62
     0
100
AcDbCircle
 10
132.59
 20
318.44
 30
0.0
 40
1.0
100
AcDbArc
 50
0.0
 51
90.0
  0
ARC
  5
27A
330
2
100
AcDbEntity
  8
画層1
 62
     0
100
AcDbCircle
 10
132.59
 20
321.4399999999999
 30
0.0
 40
1.0
100
AcDbArc
 50
270.0
 51
0.0
  0
LINE
  5
27B
330
2
100
AcDbEntity
  8
画層1
 62
     0
100
AcDbLine
 10
128.6899999999999
 20
323.9399999999999
 30
0.0
 11
138.09
 21
323.9399999999999
 31
0.0
  0
LINE
  5
27C
330
2
100
AcDbEntity
  8
画層1
 62
     0
100
AcDbLine
 10
130.59
 20
323.4399999999999
 30
0.0
 11
137.59
 21
323.4399999999999
 31
0.0
  0
LINE
  5
27D
330
2
100
AcDbEntity
  8
画層1
 62
     0
100
AcDbLine
 10
132.59
 20
319.4399999999999
 30
0.0
 11
131.1299999999999
 21
319.4399999999999
 31
0.0
  0
LINE
  5
27E
330
2
100
AcDbEntity
  8
画層1
 62
     0
100
AcDbLine
 10
131.1299999999999
 20
320.44
 30
0.0
 11
132.59
 21
320.44
 31
0.0
  0
LINE
  5
27F
330
2
100
AcDbEntity
  8
画層1
 62
     0
100
AcDbLine
 10
137.0399999999999
 20
319.4399999999999
 30
0.0
 11
135.59
 21
319.4399999999999
 31
0.0
  0
LINE
  5
280
330
2
100
AcDbEntity
  8
画層1
 62
     0
100
AcDbLine
 10
135.59
 20
320.44
 30
0.0
 11
137.0399999999999
 21
320.44
 31
0.0
  0
LINE
  5
281
330
2
100
AcDbEntity
  8
画層1
 62
     0
100
AcDbLine
 10
134.59
 20
318.44
 30
0.0
 11
134.59
 21
318.14
 31
0.0
  0
ARC
  5
282
330
2
100
AcDbEntity
  8
画層1
 62
     0
100
AcDbCircle
 10
135.59
 20
318.44
 30
0.0
 40
1.0
100
AcDbArc
 50
90.0
 51
180.0
  0
LINE
  5
283
330
2
100
AcDbEntity
  8
画層1
 62
     0
100
AcDbLine
 10
134.59
 20
321.74
 30
0.0
 11
134.59
 21
321.4399999999999
 31
0.0
  0
ARC
  5
284
330
2
100
AcDbEntity
  8
画層1
 62
     0
100
AcDbCircle
 10
135.59
 20
321.4399999999999
 30
0.0
 40
1.0
100
AcDbArc
 50
180.0
 51
270.0
  0
LINE
  5
285
330
2
100
AcDbEntity
  8
画層1
 62
     0
100
AcDbLine
 10
133.59
 20
318.14
 30
0.0
 11
133.59
 21
318.44
 31
0.0
  0
LINE
  5
286
330
2
100
AcDbEntity
  8
画層1
 62
     0
100
AcDbLine
 10
133.59
 20
321.4399999999999
 30
0.0
 11
133.59
 21
321.74
 31
0.0
  0
LINE
  5
287
330
2
100
AcDbEntity
  8
画層1
 62
     0
100
AcDbLine
 10
133.59
 20
318.14
 30
0.0
 11
134.59
 21
318.14
 31
0.0
  0
LINE
  5
288
330
2
100
AcDbEntity
  8
画層1
 62
     0
100
AcDbLine
 10
133.59
 20
321.74
 30
0.0
 11
134.59
 21
321.74
 31
0.0
  0
CIRCLE
  5
289
330
2
100
AcDbEntity
  8
画層1
 62
     0
100
AcDbCircle
 10
134.0899999999999
 20
329.3399999999999
 30
0.0
 40
3.0
  0
LINE
  5
28A
330
2
100
AcDbEntity
  8
画層1
 62
     0
100
AcDbLine
 10
128.6899999999999
 20
325.3399999999999
 30
0.0
 11
138.09
 21
325.3399999999999
 31
0.0
  0
LINE
  5
28B
330
2
100
AcDbEntity
  8
画層1
 62
     0
100
AcDbLine
 10
128.6899999999999
 20
333.3399999999999
 30
0.0
 11
138.09
 21
333.3399999999999
 31
0.0
  0
LINE
  5
28C
330
2
100
AcDbEntity
  8
画層1
 62
     0
100
AcDbLine
 10
137.59
 20
325.8399999999999
 30
0.0
 11
130.59
 21
325.8399999999999
 31
0.0
  0
LINE
  5
28D
330
2
100
AcDbEntity
  8
画層1
 62
     0
100
AcDbLine
 10
130.59
 20
332.8399999999999
 30
0.0
 11
137.59
 21
332.8399999999999
 31
0.0
  0
ARC
  5
28E
330
2
100
AcDbEntity
  8
画層1
 62
     0
100
AcDbCircle
 10
132.59
 20
327.8399999999999
 30
0.0
 40
1.0
100
AcDbArc
 50
0.0
 51
90.0
  0
ARC
  5
28F
330
2
100
AcDbEntity
  8
画層1
 62
     0
100
AcDbCircle
 10
132.59
 20
330.8399999999999
 30
0.0
 40
1.0
100
AcDbArc
 50
270.0
 51
0.0
  0
LINE
  5
290
330
2
100
AcDbEntity
  8
画層1
 62
     0
100
AcDbLine
 10
130.59
 20
325.8399999999999
 30
0.0
 11
130.59
 21
332.8399999999999
 31
0.0
  0
LINE
  5
291
330
2
100
AcDbEntity
  8
画層1
 62
     0
100
AcDbLine
 10
132.59
 20
328.8399999999999
 30
0.0
 11
131.1299999999999
 21
328.8399999999999
 31
0.0
  0
LINE
  5
292
330
2
100
AcDbEntity
  8
画層1
 62
     0
100
AcDbLine
 10
131.1299999999999
 20
329.8399999999999
 30
0.0
 11
132.59
 21
329.8399999999999
 31
0.0
  0
LINE
  5
293
330
2
100
AcDbEntity
  8
画層1
 62
     0
100
AcDbLine
 10
137.0399999999999
 20
328.8399999999999
 30
0.0
 11
135.59
 21
328.8399999999999
 31
0.0
  0
LINE
  5
294
330
2
100
AcDbEntity
  8
画層1
 62
     0
100
AcDbLine
 10
135.59
 20
329.8399999999999
 30
0.0
 11
137.0399999999999
 21
329.8399999999999
 31
0.0
  0
ARC
  5
295
330
2
100
AcDbEntity
  8
画層1
 62
     0
100
AcDbCircle
 10
135.59
 20
327.8399999999999
 30
0.0
 40
1.0
100
AcDbArc
 50
90.0
 51
180.0
  0
LINE
  5
296
330
2
100
AcDbEntity
  8
画層1
 62
     0
100
AcDbLine
 10
134.59
 20
327.8399999999999
 30
0.0
 11
134.59
 21
327.54
 31
0.0
  0
LINE
  5
297
330
2
100
AcDbEntity
  8
画層1
 62
     0
100
AcDbLine
 10
134.59
 20
331.1399999999999
 30
0.0
 11
134.59
 21
330.8399999999999
 31
0.0
  0
ARC
  5
298
330
2
100
AcDbEntity
  8
画層1
 62
     0
100
AcDbCircle
 10
135.59
 20
330.8399999999999
 30
0.0
 40
1.0
100
AcDbArc
 50
180.0
 51
270.0
  0
LINE
  5
299
330
2
100
AcDbEntity
  8
画層1
 62
     0
100
AcDbLine
 10
137.59
 20
332.8399999999999
 30
0.0
 11
137.59
 21
325.8399999999999
 31
0.0
  0
LINE
  5
29A
330
2
100
AcDbEntity
  8
画層1
 62
     0
100
AcDbLine
 10
133.59
 20
327.54
 30
0.0
 11
133.59
 21
327.8399999999999
 31
0.0
  0
LINE
  5
29B
330
2
100
AcDbEntity
  8
画層1
 62
     0
100
AcDbLine
 10
133.59
 20
330.8399999999999
 30
0.0
 11
133.59
 21
331.1399999999999
 31
0.0
  0
LINE
  5
29C
330
2
100
AcDbEntity
  8
画層1
 62
     0
100
AcDbLine
 10
133.59
 20
327.54
 30
0.0
 11
134.59
 21
327.54
 31
0.0
  0
LINE
  5
29D
330
2
100
AcDbEntity
  8
画層1
 62
     0
100
AcDbLine
 10
133.59
 20
331.1399999999999
 30
0.0
 11
134.59
 21
331.1399999999999
 31
0.0
  0
LINE
  5
29E
330
2
100
AcDbEntity
  8
画層1
 62
     0
100
AcDbLine
 10
119.29
 20
336.94
 30
0.0
 11
128.6899999999999
 21
336.94
 31
0.0
  0
LINE
  5
29F
330
2
100
AcDbEntity
  8
画層1
 62
     0
100
AcDbLine
 10
121.1899999999999
 20
336.4399999999999
 30
0.0
 11
128.19
 21
336.4399999999999
 31
0.0
  0
LINE
  5
2A0
330
2
100
AcDbEntity
  8
画層1
 62
     0
100
AcDbLine
 10
125.19
 20
334.74
 30
0.0
 11
125.19
 21
334.44
 31
0.0
  0
LINE
  5
2A1
330
2
100
AcDbEntity
  8
画層1
 62
     0
100
AcDbLine
 10
124.19
 20
334.44
 30
0.0
 11
124.19
 21
334.74
 31
0.0
  0
LINE
  5
2A2
330
2
100
AcDbEntity
  8
画層1
 62
     0
100
AcDbLine
 10
124.19
 20
334.74
 30
0.0
 11
125.19
 21
334.74
 31
0.0
  0
LINE
  5
2A3
330
2
100
AcDbEntity
  8
画層1
 62
     0
100
AcDbLine
 10
130.59
 20
335.24
 30
0.0
 11
130.59
 21
342.24
 31
0.0
  0
LINE
  5
2A4
330
2
100
AcDbEntity
  8
画層1
 62
     0
100
AcDbLine
 10
137.59
 20
342.24
 30
0.0
 11
137.59
 21
335.24
 31
0.0
  0
LINE
  5
2A5
330
2
100
AcDbEntity
  8
画層1
 62
     0
100
AcDbLine
 10
137.59
 20
335.24
 30
0.0
 11
130.59
 21
335.24
 31
0.0
  0
LINE
  5
2A6
330
2
100
AcDbEntity
  8
画層1
 62
     0
100
AcDbLine
 10
128.6899999999999
 20
334.74
 30
0.0
 11
138.09
 21
334.74
 31
0.0
  0
CIRCLE
  5
2A7
330
2
100
AcDbEntity
  8
画層1
 62
     0
100
AcDbCircle
 10
134.0899999999999
 20
338.7399999999999
 30
0.0
 40
3.0
  0
ARC
  5
2A8
330
2
100
AcDbEntity
  8
画層1
 62
     0
100
AcDbCircle
 10
132.59
 20
340.24
 30
0.0
 40
1.0
100
AcDbArc
 50
270.0
 51
0.0
  0
ARC
  5
2A9
330
2
100
AcDbEntity
  8
画層1
 62
     0
100
AcDbCircle
 10
132.59
 20
337.24
 30
0.0
 40
1.0
100
AcDbArc
 50
0.0
 51
90.0
  0
LINE
  5
2AA
330
2
100
AcDbEntity
  8
画層1
 62
     0
100
AcDbLine
 10
131.1299999999999
 20
339.24
 30
0.0
 11
132.59
 21
339.24
 31
0.0
  0
LINE
  5
2AB
330
2
100
AcDbEntity
  8
画層1
 62
     0
100
AcDbLine
 10
132.59
 20
338.24
 30
0.0
 11
131.1299999999999
 21
338.24
 31
0.0
  0
LINE
  5
2AC
330
2
100
AcDbEntity
  8
画層1
 62
     0
100
AcDbLine
 10
135.59
 20
339.24
 30
0.0
 11
137.0399999999999
 21
339.24
 31
0.0
  0
LINE
  5
2AD
330
2
100
AcDbEntity
  8
画層1
 62
     0
100
AcDbLine
 10
137.0399999999999
 20
338.24
 30
0.0
 11
135.59
 21
338.24
 31
0.0
  0
ARC
  5
2AE
330
2
100
AcDbEntity
  8
画層1
 62
     0
100
AcDbCircle
 10
135.59
 20
340.24
 30
0.0
 40
1.0
100
AcDbArc
 50
180.0
 51
270.0
  0
LINE
  5
2AF
330
2
100
AcDbEntity
  8
画層1
 62
     0
100
AcDbLine
 10
134.59
 20
337.24
 30
0.0
 11
134.59
 21
336.94
 31
0.0
  0
ARC
  5
2B0
330
2
100
AcDbEntity
  8
画層1
 62
     0
100
AcDbCircle
 10
135.59
 20
337.24
 30
0.0
 40
1.0
100
AcDbArc
 50
90.0
 51
180.0
  0
LINE
  5
2B1
330
2
100
AcDbEntity
  8
画層1
 62
     0
100
AcDbLine
 10
134.59
 20
340.54
 30
0.0
 11
134.59
 21
340.24
 31
0.0
  0
LINE
  5
2B2
330
2
100
AcDbEntity
  8
画層1
 62
     0
100
AcDbLine
 10
133.59
 20
336.94
 30
0.0
 11
133.59
 21
337.24
 31
0.0
  0
LINE
  5
2B3
330
2
100
AcDbEntity
  8
画層1
 62
     0
100
AcDbLine
 10
133.59
 20
340.24
 30
0.0
 11
133.59
 21
340.54
 31
0.0
  0
LINE
  5
2B4
330
2
100
AcDbEntity
  8
画層1
 62
     0
100
AcDbLine
 10
133.59
 20
336.94
 30
0.0
 11
134.59
 21
336.94
 31
0.0
  0
LINE
  5
2B5
330
2
100
AcDbEntity
  8
画層1
 62
     0
100
AcDbLine
 10
133.59
 20
340.54
 30
0.0
 11
134.59
 21
340.54
 31
0.0
  0
LINE
  5
2B6
330
2
100
AcDbEntity
  8
画層1
 62
     0
100
AcDbLine
 10
130.59
 20
342.24
 30
0.0
 11
137.59
 21
342.24
 31
0.0
  0
LINE
  5
2B7
330
2
100
AcDbEntity
  8
画層1
 62
     0
100
AcDbLine
 10
128.6899999999999
 20
342.74
 30
0.0
 11
138.09
 21
342.74
 31
0.0
  0
CIRCLE
  5
2B8
330
2
100
AcDbEntity
  8
画層1
 62
     0
100
AcDbCircle
 10
159.59
 20
310.74
 30
0.0
 40
1.75
  0
CIRCLE
  5
2B9
330
2
100
AcDbEntity
  8
画層1
 62
     0
100
AcDbCircle
 10
159.48
 20
330.74
 30
0.0
 40
1.75
  0
CIRCLE
  5
2BA
330
2
100
AcDbEntity
  8
画層1
 62
     0
100
AcDbCircle
 10
159.59
 20
320.74
 30
0.0
 40
1.75
  0
CIRCLE
  5
2BB
330
2
100
AcDbEntity
  8
画層1
 62
     0
100
AcDbCircle
 10
159.59
 20
340.7399999999999
 30
0.0
 40
1.75
  0
ARC
  5
2BC
330
2
100
AcDbEntity
  8
画層1
 62
     0
100
AcDbCircle
 10
197.99
 20
224.14
 30
0.0
 40
1.6
100
AcDbArc
 50
270.0
 51
0.0
  0
ARC
  5
2BD
330
2
100
AcDbEntity
  8
画層1
 62
     0
100
AcDbCircle
 10
197.99
 20
227.34
 30
0.0
 40
1.6
100
AcDbArc
 50
0.0
 51
90.0
  0
LINE
  5
2BE
330
2
100
AcDbEntity
  8
画層1
 62
     0
100
AcDbLine
 10
196.09
 20
230.74
 30
0.0
 11
196.09
 21
220.74
 31
0.0
  0
LINE
  5
2BF
330
2
100
AcDbEntity
  8
画層1
 62
     0
100
AcDbLine
 10
197.09
 20
229.34
 30
0.0
 11
197.09
 21
222.14
 31
0.0
  0
LINE
  5
2C0
330
2
100
AcDbEntity
  8
画層1
 62
     0
100
AcDbLine
 10
199.5899999999999
 20
227.34
 30
0.0
 11
199.5899999999999
 21
224.14
 31
0.0
  0
LINE
  5
2C1
330
2
100
AcDbEntity
  8
画層1
 62
     0
100
AcDbLine
 10
197.99
 20
222.54
 30
0.0
 11
197.09
 21
222.54
 31
0.0
  0
LINE
  5
2C2
330
2
100
AcDbEntity
  8
画層1
 62
     0
100
AcDbLine
 10
197.09
 20
222.14
 30
0.0
 11
196.09
 21
222.14
 31
0.0
  0
LINE
  5
2C3
330
2
100
AcDbEntity
  8
画層1
 62
     0
100
AcDbLine
 10
196.09
 20
220.74
 30
0.0
 11
195.09
 21
220.74
 31
0.0
  0
LINE
  5
2C4
330
2
100
AcDbEntity
  8
画層1
 62
     0
100
AcDbLine
 10
197.09
 20
228.94
 30
0.0
 11
197.99
 21
228.94
 31
0.0
  0
LINE
  5
2C5
330
2
100
AcDbEntity
  8
画層1
 62
     0
100
AcDbLine
 10
197.09
 20
226.34
 30
0.0
 11
196.09
 21
225.1399999999999
 31
0.0
  0
LINE
  5
2C6
330
2
100
AcDbEntity
  8
画層1
 62
     0
100
AcDbLine
 10
196.09
 20
229.34
 30
0.0
 11
197.09
 21
229.34
 31
0.0
  0
LINE
  5
2C7
330
2
100
AcDbEntity
  8
画層1
 62
     0
100
AcDbLine
 10
198.5899999999999
 20
225.1399999999999
 30
0.0
 11
199.5899999999999
 21
225.1399999999999
 31
0.0
  0
LINE
  5
2C8
330
2
100
AcDbEntity
  8
画層1
 62
     0
100
AcDbLine
 10
198.5899999999999
 20
226.34
 30
0.0
 11
198.5899999999999
 21
225.1399999999999
 31
0.0
  0
LINE
  5
2C9
330
2
100
AcDbEntity
  8
画層1
 62
     0
100
AcDbLine
 10
199.5899999999999
 20
226.34
 30
0.0
 11
198.5899999999999
 21
226.34
 31
0.0
  0
LINE
  5
2CA
330
2
100
AcDbEntity
  8
画層1
 62
     0
100
AcDbLine
 10
195.09
 20
230.74
 30
0.0
 11
196.09
 21
230.74
 31
0.0
  0
DIMENSION
  5
2CB
330
2
100
AcDbEntity
  8
画層1
 62
     0
100
AcDbDimension
  2
*D28
 10
155.59
 20
399.74
 30
0.0
 11
175.34
 21
401.8293908629441
 31
0.0
 70
    32
 71
     5
 42
39.5
  3
STANDARD_WS
100
AcDbAlignedDimension
 13
195.09
 23
385.74
 33
0.0
 14
155.59
 24
385.74
 34
0.0
100
AcDbRotatedDimension
1001
ACAD
1000
DSTYLE
1002
{
1070
     3
1000
(<>)
1070
     7
1000
OPEN30
1070
     6
1000
OPEN30
1070
    47
1040
0.6
1070
   144
1040
1.0
1070
   146
1040
0.5
1070
   284
1070
     8
1070
   340
1005
27
1002
}
  0
DIMENSION
  5
2D8
330
2
100
AcDbEntity
  8
画層1
 62
     0
100
AcDbDimension
  2
*D27
 10
115.09
 20
413.74
 30
0.0
 11
155.09
 21
415.62
 31
0.0
 70
    32
 71
     5
 42
80.0
  3
STANDARD_WS
100
AcDbAlignedDimension
 13
195.09
 23
385.74
 33
0.0
 14
115.09
 24
385.74
 34
0.0
100
AcDbRotatedDimension
1001
ACAD
1000
DSTYLE
1002
{
1070
     7
1000
OPEN30
1070
     6
1000
OPEN30
1070
    47
1040
0.6
1070
   144
1040
1.0
1070
   146
1040
0.5
1070
   284
1070
     8
1070
   340
1005
27
1002
}
  0
DIMENSION
  5
2E5
330
2
100
AcDbEntity
  8
画層1
 62
     0
100
AcDbDimension
  2
*D26
 10
199.5899999999999
 20
427.74
 30
0.0
 11
156.09
 21
429.6199999999999
 31
0.0
 70
    32
 71
     5
 42
87.0
  3
STANDARD_WS
100
AcDbAlignedDimension
 13
112.59
 23
367.3399999999999
 33
0.0
 14
199.5899999999999
 24
367.3399999999999
 34
0.0
100
AcDbRotatedDimension
1001
ACAD
1000
DSTYLE
1002
{
1070
     7
1000
OPEN30
1070
     6
1000
OPEN30
1070
    47
1040
0.6
1070
   144
1040
1.0
1070
   146
1040
0.5
1070
   284
1070
     8
1070
   340
1005
27
1002
}
  0
DIMENSION
  5
2F2
330
2
100
AcDbEntity
  8
画層1
 62
     0
100
AcDbDimension
  2
*D25
 10
195.09
 20
421.6499999999999
 30
0.0
 11
155.09
 21
423.5299999999999
 31
0.0
 70
    32
 71
     5
 42
80.0
  3
STANDARD_WS
100
AcDbAlignedDimension
 13
115.09
 23
385.74
 33
0.0
 14
195.09
 24
385.74
 34
0.0
100
AcDbRotatedDimension
1001
ACAD
1000
DSTYLE
1002
{
1070
    47
1040
0.6
1070
   144
1040
1.0
1070
   146
1040
0.5
1070
   173
1070
     0
1070
   284
1070
     8
1070
   340
1005
27
1070
   341
1005
28
1070
     5
1000
OPEN30
1070
     6
1000
OPEN30
1002
}
  0
LINE
  5
2FF
330
2
100
AcDbEntity
  8
画層1
 62
     0
100
AcDbLine
 10
115.09
 20
385.74
 30
0.0
 11
195.09
 21
385.74
 31
0.0
  0
LINE
  5
300
330
2
100
AcDbEntity
  8
画層1
 62
     0
100
AcDbLine
 10
121.5899999999999
 20
374.74
 30
0.0
 11
188.59
 21
374.74
 31
0.0
  0
LINE
  5
301
330
2
100
AcDbEntity
  8
画層1
 62
     0
100
AcDbLine
 10
154.59
 20
360.74
 30
0.0
 11
186.59
 21
360.74
 31
0.0
  0
LEADER
  5
302
330
2
100
AcDbEntity
  8
画層1
 62
     0
100
AcDbLeader
  3
STANDARD_WS
 73
     0
 75
     1
 40
5.929999999999999
 41
8.9
 76
     3
 10
153.7599999999999
 20
382.1299999999999
 30
0.0
 10
136.2299999999999
 20
400.37
 30
0.0
 10
134.7299999999999
 20
400.37
 30
0.0
340
303
213
0.0
223
1.25
233
0.0
1001
ACAD
1000
DSTYLE
1002
{
1070
     6
1000
OPEN30
1070
    47
1040
0.6
1070
    77
1070
     2
1070
   144
1040
2.0
1070
   146
1040
0.5
1070
   147
1040
0.63
1070
   284
1070
     8
1070
   340
1005
27
1070
   341
1005
28
1070
   343
1005
28
1002
}
  0
MTEXT
  5
303
102
{ACAD_REACTORS
330
302
102
}
330
2
100
AcDbEntity
  8
画層1
 62
     0
100
AcDbMText
 10
134.0999999999999
 20
399.74
 30
0.0
 40
5.0
 41
0.0
 71
     9
 72
     1
  1
φ6
  7
STYLE1
 73
     1
 44
1.0
1001
ACAD
1000
MTEXTBEGIN
1070
    73
1070
     1
1070
    44
1040
1.0
1070
    74
1070
     0
1000
MTEXTEND
1000
MTEXTBEGIN
1070
    73
1070
     1
1070
    44
1040
1.0
1070
    74
1070
     0
1000
MTEXTEND
1000
MTEXTBEGIN
1070
    73
1070
     1
1070
    44
1040
1.0
1070
    74
1070
     0
1000
MTEXTEND
  0
ARC
  5
304
330
2
100
AcDbEntity
  8
画層1
 62
     0
100
AcDbCircle
 10
121.5899999999999
 20
371.24
 30
0.0
 40
3.5
100
AcDbArc
 50
90.0
 51
180.0
  0
ARC
  5
305
330
2
100
AcDbEntity
  8
画層1
 62
     0
100
AcDbCircle
 10
114.1899999999999
 20
367.3399999999999
 30
0.0
 40
1.6
100
AcDbArc
 50
90.0
 51
180.0
  0
ARC
  5
306
330
2
100
AcDbEntity
  8
画層1
 62
     0
100
AcDbCircle
 10
114.1899999999999
 20
364.1399999999999
 30
0.0
 40
1.6
100
AcDbArc
 50
180.0
 51
270.0
  0
LINE
  5
307
330
2
100
AcDbEntity
  8
画層1
 62
     0
100
AcDbLine
 10
113.59
 20
365.1399999999999
 30
0.0
 11
112.59
 21
365.1399999999999
 31
0.0
  0
LINE
  5
308
330
2
100
AcDbEntity
  8
画層1
 62
     0
100
AcDbLine
 10
112.59
 20
366.3399999999999
 30
0.0
 11
113.59
 21
366.3399999999999
 31
0.0
  0
LINE
  5
309
330
2
100
AcDbEntity
  8
画層1
 62
     0
100
AcDbLine
 10
112.59
 20
367.3399999999999
 30
0.0
 11
112.59
 21
364.1399999999999
 31
0.0
  0
LINE
  5
30A
330
2
100
AcDbEntity
  8
画層1
 62
     0
100
AcDbLine
 10
114.1899999999999
 20
362.54
 30
0.0
 11
115.09
 21
362.54
 31
0.0
  0
LINE
  5
30B
330
2
100
AcDbEntity
  8
画層1
 62
     0
100
AcDbLine
 10
113.59
 20
366.3399999999999
 30
0.0
 11
113.59
 21
365.1399999999999
 31
0.0
  0
LINE
  5
30C
330
2
100
AcDbEntity
  8
画層1
 62
     0
100
AcDbLine
 10
115.09
 20
368.94
 30
0.0
 11
114.1899999999999
 21
368.94
 31
0.0
  0
LINE
  5
30D
330
2
100
AcDbEntity
  8
画層1
  6
CENTER
 62
     0
100
AcDbLine
 10
155.59
 20
386.74
 30
0.0
 11
155.59
 21
372.74
 31
0.0
  0
LINE
  5
30E
330
2
100
AcDbEntity
  8
画層1
  6
CENTER
 62
     0
100
AcDbLine
 10
148.5899999999999
 20
379.74
 30
0.0
 11
162.59
 21
379.74
 31
0.0
  0
ARC
  5
30F
330
2
100
AcDbEntity
  8
画層1
 62
     0
100
AcDbCircle
 10
154.59
 20
358.24
 30
0.0
 40
2.5
100
AcDbArc
 50
90.0
 51
180.0
  0
CIRCLE
  5
310
330
2
100
AcDbEntity
  8
画層1
  6
DASHED2
 62
     0
100
AcDbCircle
 10
155.59
 20
379.74
 30
0.0
 40
3.0
  0
DIMENSION
  5
311
330
2
100
AcDbEntity
  8
画層1
 62
     0
100
AcDbDimension
  2
*D29
 10
195.09
 20
413.74
 30
0.0
 11
211.4199999999999
 21
413.74
 31
0.0
 70
   160
 71
     5
 42
4.5
  3
STANDARD_WS
100
AcDbAlignedDimension
 13
199.5899999999999
 23
367.3399999999999
 33
0.0
 14
195.09
 24
385.74
 34
0.0
100
AcDbRotatedDimension
1001
ACAD
1000
DSTYLE
1002
{
1070
     7
1000
OPEN30
1070
     6
1000
OPEN30
1070
    47
1040
0.6
1070
   144
1040
1.0
1070
   146
1040
0.5
1070
   284
1070
     8
1070
   340
1005
27
1002
}
  0
LINE
  5
31F
330
2
100
AcDbEntity
  8
画層1
 62
     0
100
AcDbLine
 10
185.09
 20
379.24
 30
0.0
 11
185.09
 21
385.74
 31
0.0
  0
CIRCLE
  5
320
330
2
100
AcDbEntity
  8
画層1
 62
     0
100
AcDbCircle
 10
189.59
 20
380.74
 30
0.0
 40
3.799999999999998
  0
ARC
  5
321
330
2
100
AcDbEntity
  8
画層1
 62
     0
100
AcDbCircle
 10
197.99
 20
367.3399999999999
 30
0.0
 40
1.6
100
AcDbArc
 50
0.0
 51
90.0
  0
ARC
  5
322
330
2
100
AcDbEntity
  8
画層1
 62
     0
100
AcDbCircle
 10
197.99
 20
364.1399999999999
 30
0.0
 40
1.6
100
AcDbArc
 50
270.0
 51
0.0
  0
LINE
  5
323
330
2
100
AcDbEntity
  8
画層1
 62
     0
100
AcDbLine
 10
196.09
 20
370.74
 30
0.0
 11
196.09
 21
360.74
 31
0.0
  0
LINE
  5
324
330
2
100
AcDbEntity
  8
画層1
 62
     0
100
AcDbLine
 10
197.09
 20
369.34
 30
0.0
 11
197.09
 21
362.1399999999999
 31
0.0
  0
ARC
  5
325
330
2
100
AcDbEntity
  8
画層1
 62
     0
100
AcDbCircle
 10
186.59
 20
358.24
 30
0.0
 40
2.5
100
AcDbArc
 50
0.0
 51
90.0
  0
LINE
  5
326
330
2
100
AcDbEntity
  8
画層1
 62
     0
100
AcDbLine
 10
197.99
 20
362.54
 30
0.0
 11
197.09
 21
362.54
 31
0.0
  0
LINE
  5
327
330
2
100
AcDbEntity
  8
画層1
 62
     0
100
AcDbLine
 10
196.09
 20
360.74
 30
0.0
 11
195.09
 21
360.74
 31
0.0
  0
LINE
  5
328
330
2
100
AcDbEntity
  8
画層1
 62
     0
100
AcDbLine
 10
197.09
 20
362.1399999999999
 30
0.0
 11
196.09
 21
362.1399999999999
 31
0.0
  0
LINE
  5
329
330
2
100
AcDbEntity
  8
画層1
 62
     0
100
AcDbLine
 10
197.09
 20
366.3399999999999
 30
0.0
 11
196.09
 21
365.1399999999999
 31
0.0
  0
LINE
  5
32A
330
2
100
AcDbEntity
  8
画層1
 62
     0
100
AcDbLine
 10
199.5899999999999
 20
367.3399999999999
 30
0.0
 11
199.5899999999999
 21
364.1399999999999
 31
0.0
  0
LINE
  5
32B
330
2
100
AcDbEntity
  8
画層1
 62
     0
100
AcDbLine
 10
199.5899999999999
 20
366.3399999999999
 30
0.0
 11
198.5899999999999
 21
366.3399999999999
 31
0.0
  0
LINE
  5
32C
330
2
100
AcDbEntity
  8
画層1
 62
     0
100
AcDbLine
 10
198.5899999999999
 20
366.3399999999999
 30
0.0
 11
198.5899999999999
 21
365.1399999999999
 31
0.0
  0
LINE
  5
32D
330
2
100
AcDbEntity
  8
画層1
 62
     0
100
AcDbLine
 10
198.5899999999999
 20
365.1399999999999
 30
0.0
 11
199.5899999999999
 21
365.1399999999999
 31
0.0
  0
CIRCLE
  5
32E
330
2
100
AcDbEntity
  8
画層1
 62
     0
100
AcDbCircle
 10
189.59
 20
380.74
 30
0.0
 40
2.6
  0
ARC
  5
32F
330
2
100
AcDbEntity
  8
画層1
 62
     0
100
AcDbCircle
 10
190.09
 20
379.24
 30
0.0
 40
5.0
100
AcDbArc
 50
180.0
 51
270.0
  0
ARC
  5
330
330
2
100
AcDbEntity
  8
画層1
 62
     0
100
AcDbCircle
 10
188.59
 20
371.24
 30
0.0
 40
3.5
100
AcDbArc
 50
0.0
 51
90.0
  0
LINE
  5
331
330
2
100
AcDbEntity
  8
画層1
 62
     0
100
AcDbLine
 10
189.09
 20
378.94
 30
0.0
 11
190.09
 21
378.94
 31
0.0
  0
LINE
  5
332
330
2
100
AcDbEntity
  8
画層1
 62
     0
100
AcDbLine
 10
189.09
 20
382.54
 30
0.0
 11
190.09
 21
382.54
 31
0.0
  0
LINE
  5
333
330
2
100
AcDbEntity
  8
画層1
 62
     0
100
AcDbLine
 10
187.7899999999999
 20
380.24
 30
0.0
 11
187.7899999999999
 21
381.24
 31
0.0
  0
LINE
  5
334
330
2
100
AcDbEntity
  8
画層1
 62
     0
100
AcDbLine
 10
189.09
 20
378.94
 30
0.0
 11
189.09
 21
379.24
 31
0.0
  0
ARC
  5
335
330
2
100
AcDbEntity
  8
画層1
 62
     0
100
AcDbCircle
 10
188.09
 20
379.24
 30
0.0
 40
1.0
100
AcDbArc
 50
0.0
 51
90.0
  0
LINE
  5
336
330
2
100
AcDbEntity
  8
画層1
 62
     0
100
AcDbLine
 10
188.09
 20
380.24
 30
0.0
 11
187.7899999999999
 21
380.24
 31
0.0
  0
LINE
  5
337
330
2
100
AcDbEntity
  8
画層1
 62
     0
100
AcDbLine
 10
189.09
 20
382.24
 30
0.0
 11
189.09
 21
382.54
 31
0.0
  0
ARC
  5
338
330
2
100
AcDbEntity
  8
画層1
 62
     0
100
AcDbCircle
 10
188.09
 20
382.24
 30
0.0
 40
1.0
100
AcDbArc
 50
270.0
 51
0.0
  0
LINE
  5
339
330
2
100
AcDbEntity
  8
画層1
 62
     0
100
AcDbLine
 10
187.7899999999999
 20
381.24
 30
0.0
 11
188.09
 21
381.24
 31
0.0
  0
LINE
  5
33A
330
2
100
AcDbEntity
  8
画層1
 62
     0
100
AcDbLine
 10
195.09
 20
374.2399999999999
 30
0.0
 11
190.09
 21
374.2399999999999
 31
0.0
  0
LINE
  5
33B
330
2
100
AcDbEntity
  8
画層1
 62
     0
100
AcDbLine
 10
197.09
 20
368.94
 30
0.0
 11
197.99
 21
368.94
 31
0.0
  0
LINE
  5
33C
330
2
100
AcDbEntity
  8
画層1
 62
     0
100
AcDbLine
 10
195.09
 20
370.74
 30
0.0
 11
196.09
 21
370.74
 31
0.0
  0
LINE
  5
33D
330
2
100
AcDbEntity
  8
画層1
 62
     0
100
AcDbLine
 10
196.09
 20
369.34
 30
0.0
 11
197.09
 21
369.34
 31
0.0
  0
LINE
  5
33E
330
2
100
AcDbEntity
  8
画層1
 62
     0
100
AcDbLine
 10
191.3899999999999
 20
380.24
 30
0.0
 11
191.3899999999999
 21
381.24
 31
0.0
  0
LINE
  5
33F
330
2
100
AcDbEntity
  8
画層1
 62
     0
100
AcDbLine
 10
190.09
 20
379.24
 30
0.0
 11
190.09
 21
378.94
 31
0.0
  0
ARC
  5
340
330
2
100
AcDbEntity
  8
画層1
 62
     0
100
AcDbCircle
 10
191.0899999999999
 20
379.24
 30
0.0
 40
1.0
100
AcDbArc
 50
90.0
 51
180.0
  0
LINE
  5
341
330
2
100
AcDbEntity
  8
画層1
 62
     0
100
AcDbLine
 10
191.3899999999999
 20
380.24
 30
0.0
 11
191.0899999999999
 21
380.24
 31
0.0
  0
LINE
  5
342
330
2
100
AcDbEntity
  8
画層1
 62
     0
100
AcDbLine
 10
190.09
 20
382.54
 30
0.0
 11
190.09
 21
382.24
 31
0.0
  0
ARC
  5
343
330
2
100
AcDbEntity
  8
画層1
 62
     0
100
AcDbCircle
 10
191.0899999999999
 20
382.24
 30
0.0
 40
1.0
100
AcDbArc
 50
180.0
 51
270.0
  0
LINE
  5
344
330
2
100
AcDbEntity
  8
画層1
 62
     0
100
AcDbLine
 10
191.0899999999999
 20
381.24
 30
0.0
 11
191.3899999999999
 21
381.24
 31
0.0
  0
LINE
  5
345
330
2
100
AcDbEntity
  8
画層1
 62
     0
100
AcDbLine
 10
356.0899999999999
 20
385.74
 30
0.0
 11
356.0899999999999
 21
135.74
 31
0.0
  0
LINE
  5
346
330
2
100
AcDbEntity
  8
画層1
 62
     0
100
AcDbLine
 10
406.09
 20
385.74
 30
0.0
 11
406.09
 21
135.74
 31
0.0
  0
LINE
  5
347
330
2
100
AcDbEntity
  8
画層1
 62
     0
100
AcDbLine
 10
518.09
 20
385.74
 30
0.0
 11
518.09
 21
135.74
 31
0.0
  0
LINE
  5
348
330
2
100
AcDbEntity
  8
画層1
 62
     0
100
AcDbLine
 10
516.8899999999999
 20
385.74
 30
0.0
 11
516.8899999999999
 21
135.74
 31
0.0
  0
LINE
  5
349
330
2
100
AcDbEntity
  8
画層1
 62
     0
100
AcDbLine
 10
407.29
 20
370.24
 30
0.0
 11
407.29
 21
151.24
 31
0.0
  0
LINE
  5
34A
330
2
100
AcDbEntity
  8
画層1
 62
     0
100
AcDbLine
 10
518.09
 20
135.74
 30
0.0
 11
389.0899999999999
 21
135.74
 31
0.0
  0
LINE
  5
34B
330
2
100
AcDbEntity
  8
画層1
 62
     0
100
AcDbLine
 10
356.0899999999999
 20
147.24
 30
0.0
 11
406.09
 21
147.24
 31
0.0
  0
LINE
  5
34C
330
2
100
AcDbEntity
  8
画層1
 62
     0
100
AcDbLine
 10
356.0899999999999
 20
135.74
 30
0.0
 11
382.0899999999999
 21
135.74
 31
0.0
  0
ARC
  5
34D
330
2
100
AcDbEntity
  8
画層1
 62
     0
100
AcDbCircle
 10
353.0899999999999
 20
142.3399999999999
 30
0.0
 40
1.0
100
AcDbArc
 50
90.0
 51
180.0
  0
ARC
  5
34E
330
2
100
AcDbEntity
  8
画層1
 62
     0
100
AcDbCircle
 10
353.0899999999999
 20
139.1399999999999
 30
0.0
 40
1.0
100
AcDbArc
 50
180.0
 51
270.0
  0
LINE
  5
34F
330
2
100
AcDbEntity
  8
画層1
 62
     0
100
AcDbLine
 10
352.0899999999999
 20
139.1399999999999
 30
0.0
 11
352.0899999999999
 21
142.3399999999999
 31
0.0
  0
LINE
  5
350
330
2
100
AcDbEntity
  8
画層1
 62
     0
100
AcDbLine
 10
352.6899999999999
 20
141.1399999999999
 30
0.0
 11
352.6899999999999
 21
140.3399999999999
 31
0.0
  0
LINE
  5
351
330
2
100
AcDbEntity
  8
画層1
 62
     0
100
AcDbLine
 10
352.0899999999999
 20
141.1399999999999
 30
0.0
 11
352.6899999999999
 21
141.1399999999999
 31
0.0
  0
LINE
  5
352
330
2
100
AcDbEntity
  8
画層1
 62
     0
100
AcDbLine
 10
352.6899999999999
 20
140.3399999999999
 30
0.0
 11
352.0899999999999
 21
140.3399999999999
 31
0.0
  0
LINE
  5
353
330
2
100
AcDbEntity
  8
画層1
 62
     0
100
AcDbLine
 10
357.0899999999999
 20
135.74
 30
0.0
 11
357.0899999999999
 21
147.24
 31
0.0
  0
LINE
  5
354
330
2
100
AcDbEntity
  8
画層1
 62
     0
100
AcDbLine
 10
354.8899999999999
 20
138.1399999999999
 30
0.0
 11
354.8899999999999
 21
143.3399999999999
 31
0.0
  0
LINE
  5
355
330
2
100
AcDbEntity
  8
画層1
 62
     0
100
AcDbLine
 10
358.29
 20
135.74
 30
0.0
 11
358.29
 21
147.24
 31
0.0
  0
LINE
  5
356
330
2
100
AcDbEntity
  8
画層1
 62
     0
100
AcDbLine
 10
362.0899999999999
 20
140.0399999999999
 30
0.0
 11
361.29
 21
139.24
 31
0.0
  0
LINE
  5
357
330
2
100
AcDbEntity
  8
画層1
 62
     0
100
AcDbLine
 10
361.29
 20
142.24
 30
0.0
 11
361.29
 21
139.24
 31
0.0
  0
LINE
  5
358
330
2
100
AcDbEntity
  8
画層1
 62
     0
100
AcDbLine
 10
354.8899999999999
 20
138.1399999999999
 30
0.0
 11
353.0899999999999
 21
138.1399999999999
 31
0.0
  0
LINE
  5
359
330
2
100
AcDbEntity
  8
画層1
 62
     0
100
AcDbLine
 10
355.4899999999999
 20
136.9399999999999
 30
0.0
 11
354.8899999999999
 21
138.1399999999999
 31
0.0
  0
LINE
  5
35A
330
2
100
AcDbEntity
  8
画層1
 62
     0
100
AcDbLine
 10
356.0899999999999
 20
136.9399999999999
 30
0.0
 11
355.4899999999999
 21
136.9399999999999
 31
0.0
  0
LINE
  5
35B
330
2
100
AcDbEntity
  8
画層1
 62
     0
100
AcDbLine
 10
361.29
 20
139.24
 30
0.0
 11
358.29
 21
139.24
 31
0.0
  0
LINE
  5
35C
330
2
100
AcDbEntity
  8
画層1
 62
     0
100
AcDbLine
 10
353.0899999999999
 20
143.3399999999999
 30
0.0
 11
354.8899999999999
 21
143.3399999999999
 31
0.0
  0
LINE
  5
35D
330
2
100
AcDbEntity
  8
画層1
 62
     0
100
AcDbLine
 10
355.4899999999999
 20
144.54
 30
0.0
 11
356.0899999999999
 21
144.54
 31
0.0
  0
LINE
  5
35E
330
2
100
AcDbEntity
  8
画層1
 62
     0
100
AcDbLine
 10
354.8899999999999
 20
143.3399999999999
 30
0.0
 11
355.4899999999999
 21
144.54
 31
0.0
  0
LINE
  5
35F
330
2
100
AcDbEntity
  8
画層1
 62
     0
100
AcDbLine
 10
361.29
 20
142.24
 30
0.0
 11
362.0899999999999
 21
141.44
 31
0.0
  0
LINE
  5
360
330
2
100
AcDbEntity
  8
画層1
 62
     0
100
AcDbLine
 10
358.29
 20
141.44
 30
0.0
 11
362.0899999999999
 21
141.44
 31
0.0
  0
LINE
  5
361
330
2
100
AcDbEntity
  8
画層1
 62
     0
100
AcDbLine
 10
362.0899999999999
 20
140.0399999999999
 30
0.0
 11
358.29
 21
140.0399999999999
 31
0.0
  0
LINE
  5
362
330
2
100
AcDbEntity
  8
画層1
 62
     0
100
AcDbLine
 10
358.29
 20
142.24
 30
0.0
 11
361.29
 21
142.24
 31
0.0
  0
LINE
  5
363
330
2
100
AcDbEntity
  8
画層1
 62
     0
100
AcDbLine
 10
362.0899999999999
 20
141.44
 30
0.0
 11
362.0899999999999
 21
140.0399999999999
 31
0.0
  0
LINE
  5
364
330
2
100
AcDbEntity
  8
画層1
 62
     0
100
AcDbLine
 10
382.0899999999999
 20
135.74
 30
0.0
 11
382.0899999999999
 21
146.74
 31
0.0
  0
LINE
  5
365
330
2
100
AcDbEntity
  8
画層1
 62
     0
100
AcDbLine
 10
382.0899999999999
 20
147.24
 30
0.0
 11
382.0899999999999
 21
135.74
 31
0.0
  0
LINE
  5
366
330
2
100
AcDbEntity
  8
画層1
 62
     0
100
AcDbLine
 10
389.0899999999999
 20
145.54
 30
0.0
 11
405.0899999999999
 21
145.54
 31
0.0
  0
LINE
  5
367
330
2
100
AcDbEntity
  8
画層1
 62
     0
100
AcDbLine
 10
389.0899999999999
 20
146.74
 30
0.0
 11
405.0899999999999
 21
146.74
 31
0.0
  0
LINE
  5
368
330
2
100
AcDbEntity
  8
画層1
 62
     0
100
AcDbLine
 10
403.8899999999999
 20
138.1399999999999
 30
0.0
 11
402.09
 21
138.1399999999999
 31
0.0
  0
LINE
  5
369
330
2
100
AcDbEntity
  8
画層1
 62
     0
100
AcDbLine
 10
402.09
 20
143.3399999999999
 30
0.0
 11
403.8899999999999
 21
143.3399999999999
 31
0.0
  0
LINE
  5
36A
330
2
100
AcDbEntity
  8
画層1
 62
     0
100
AcDbLine
 10
392.0899999999999
 20
141.5399999999999
 30
0.0
 11
396.0899999999999
 21
141.5399999999999
 31
0.0
  0
LINE
  5
36B
330
2
100
AcDbEntity
  8
画層1
 62
     0
100
AcDbLine
 10
391.0899999999999
 20
144.74
 30
0.0
 11
397.0899999999999
 21
144.74
 31
0.0
  0
LINE
  5
36C
330
2
100
AcDbEntity
  8
画層1
 62
     0
100
AcDbLine
 10
397.0899999999999
 20
143.94
 30
0.0
 11
391.0899999999999
 21
143.94
 31
0.0
  0
LINE
  5
36D
330
2
100
AcDbEntity
  8
画層1
 62
     0
100
AcDbLine
 10
389.0899999999999
 20
135.74
 30
0.0
 11
389.0899999999999
 21
146.74
 31
0.0
  0
LINE
  5
36E
330
2
100
AcDbEntity
  8
画層1
 62
     0
100
AcDbLine
 10
391.0899999999999
 20
143.94
 30
0.0
 11
391.0899999999999
 21
142.5399999999999
 31
0.0
  0
ARC
  5
36F
330
2
100
AcDbEntity
  8
画層1
 62
     0
100
AcDbCircle
 10
392.0899999999999
 20
142.5399999999999
 30
0.0
 40
1.0
100
AcDbArc
 50
180.0
 51
270.0
  0
LINE
  5
370
330
2
100
AcDbEntity
  8
画層1
 62
     0
100
AcDbLine
 10
391.0899999999999
 20
145.54
 30
0.0
 11
391.0899999999999
 21
144.74
 31
0.0
  0
LINE
  5
371
330
2
100
AcDbEntity
  8
画層1
 62
     0
100
AcDbLine
 10
391.49
 20
144.74
 30
0.0
 11
391.49
 21
143.94
 31
0.0
  0
LINE
  5
372
330
2
100
AcDbEntity
  8
画層1
 62
     0
100
AcDbLine
 10
401.0899999999999
 20
139.1399999999999
 30
0.0
 11
401.0899999999999
 21
142.3399999999999
 31
0.0
  0
ARC
  5
373
330
2
100
AcDbEntity
  8
画層1
 62
     0
100
AcDbCircle
 10
402.09
 20
139.1399999999999
 30
0.0
 40
1.0
100
AcDbArc
 50
180.0
 51
270.0
  0
LINE
  5
374
330
2
100
AcDbEntity
  8
画層1
 62
     0
100
AcDbLine
 10
397.0899999999999
 20
142.5399999999999
 30
0.0
 11
397.0899999999999
 21
143.94
 31
0.0
  0
LINE
  5
375
330
2
100
AcDbEntity
  8
画層1
 62
     0
100
AcDbLine
 10
394.49
 20
142.14
 30
0.0
 11
394.49
 21
141.5399999999999
 31
0.0
  0
LINE
  5
376
330
2
100
AcDbEntity
  8
画層1
 62
     0
100
AcDbLine
 10
393.6899999999999
 20
141.5399999999999
 30
0.0
 11
393.6899999999999
 21
142.14
 31
0.0
  0
LINE
  5
377
330
2
100
AcDbEntity
  8
画層1
 62
     0
100
AcDbLine
 10
393.6899999999999
 20
142.14
 30
0.0
 11
394.49
 21
142.14
 31
0.0
  0
ARC
  5
378
330
2
100
AcDbEntity
  8
画層1
 62
     0
100
AcDbCircle
 10
396.0899999999999
 20
142.5399999999999
 30
0.0
 40
1.0
100
AcDbArc
 50
270.0
 51
0.0
  0
LINE
  5
379
330
2
100
AcDbEntity
  8
画層1
 62
     0
100
AcDbLine
 10
393.6899999999999
 20
143.94
 30
0.0
 11
394.49
 21
144.74
 31
0.0
  0
LINE
  5
37A
330
2
100
AcDbEntity
  8
画層1
 62
     0
100
AcDbLine
 10
397.0899999999999
 20
144.74
 30
0.0
 11
397.0899999999999
 21
145.54
 31
0.0
  0
LINE
  5
37B
330
2
100
AcDbEntity
  8
画層1
 62
     0
100
AcDbLine
 10
396.6899999999999
 20
144.74
 30
0.0
 11
396.6899999999999
 21
143.94
 31
0.0
  0
ARC
  5
37C
330
2
100
AcDbEntity
  8
画層1
 62
     0
100
AcDbCircle
 10
402.09
 20
142.3399999999999
 30
0.0
 40
1.0
100
AcDbArc
 50
90.0
 51
180.0
  0
LINE
  5
37D
330
2
100
AcDbEntity
  8
画層1
 62
     0
100
AcDbLine
 10
401.6899999999999
 20
140.3399999999999
 30
0.0
 11
401.0899999999999
 21
140.3399999999999
 31
0.0
  0
LINE
  5
37E
330
2
100
AcDbEntity
  8
画層1
 62
     0
100
AcDbLine
 10
401.0899999999999
 20
141.1399999999999
 30
0.0
 11
401.6899999999999
 21
141.1399999999999
 31
0.0
  0
LINE
  5
37F
330
2
100
AcDbEntity
  8
画層1
 62
     0
100
AcDbLine
 10
401.6899999999999
 20
141.1399999999999
 30
0.0
 11
401.6899999999999
 21
140.3399999999999
 31
0.0
  0
LINE
  5
380
330
2
100
AcDbEntity
  8
画層1
 62
     0
100
AcDbLine
 10
405.0899999999999
 20
135.74
 30
0.0
 11
405.0899999999999
 21
147.24
 31
0.0
  0
LINE
  5
381
330
2
100
AcDbEntity
  8
画層1
 62
     0
100
AcDbLine
 10
403.8899999999999
 20
138.1399999999999
 30
0.0
 11
403.8899999999999
 21
143.3399999999999
 31
0.0
  0
LINE
  5
382
330
2
100
AcDbEntity
  8
画層1
 62
     0
100
AcDbLine
 10
405.0899999999999
 20
136.9399999999999
 30
0.0
 11
404.49
 21
136.9399999999999
 31
0.0
  0
LINE
  5
383
330
2
100
AcDbEntity
  8
画層1
 62
     0
100
AcDbLine
 10
404.49
 20
136.9399999999999
 30
0.0
 11
403.8899999999999
 21
138.1399999999999
 31
0.0
  0
LWPOLYLINE
  5
384
330
2
100
AcDbEntity
  8
0
 62
     0
100
AcDbPolyline
 90
        2
 70
     0
 43
0.3
 10
404.0
 20
142.5
 10
408.0
 20
142.5
  0
LINE
  5
385
330
2
100
AcDbEntity
  8
画層1
 62
     0
100
AcDbLine
 10
403.8899999999999
 20
143.3399999999999
 30
0.0
 11
404.49
 21
144.54
 31
0.0
  0
LINE
  5
386
330
2
100
AcDbEntity
  8
画層1
 62
     0
100
AcDbLine
 10
404.49
 20
144.54
 30
0.0
 11
405.0899999999999
 21
144.54
 31
0.0
  0
LINE
  5
387
330
2
100
AcDbEntity
  8
画層1
 62
     0
100
AcDbLine
 10
406.09
 20
151.24
 30
0.0
 11
407.29
 21
151.24
 31
0.0
  0
DIMENSION
  5
388
330
2
100
AcDbEntity
  8
画層1
 62
     0
100
AcDbDimension
  2
*D30
 10
428.0899999999999
 20
121.74
 30
0.0
 11
473.09
 21
123.8293908629441
 31
0.0
 70
    32
 71
     5
 42
90.00000000000005
  3
STANDARD_WS
100
AcDbAlignedDimension
 13
518.09
 23
135.74
 33
0.0
 14
428.0899999999999
 24
163.74
 34
0.0
100
AcDbRotatedDimension
1001
ACAD
1000
DSTYLE
1002
{
1070
     3
1000
(<>)
1070
    47
1040
0.6
1070
   144
1040
1.0
1070
   146
1040
0.5
1070
   173
1070
     0
1070
   284
1070
     8
1070
   340
1005
27
1070
   341
1005
28
1070
     5
1000
OPEN30
1070
     6
1000
OPEN30
1002
}
  0
LINE
  5
395
330
2
100
AcDbEntity
  8
画層1
  6
DASHED2
 62
     0
100
AcDbLine
 10
453.0899999999999
 20
145.7399999999999
 30
0.0
 11
453.0899999999999
 21
185.74
 31
0.0
  0
LINE
  5
396
330
2
100
AcDbEntity
  8
画層1
  6
DASHED2
 62
     0
100
AcDbLine
 10
443.09
 20
185.74
 30
0.0
 11
443.09
 21
145.7399999999999
 31
0.0
  0
LINE
  5
397
330
2
100
AcDbEntity
  8
画層1
  6
DASHED2
 62
     0
100
AcDbLine
 10
444.09
 20
185.74
 30
0.0
 11
444.09
 21
145.7399999999999
 31
0.0
  0
LINE
  5
398
330
2
100
AcDbEntity
  8
画層1
  6
DASHED2
 62
     0
100
AcDbLine
 10
443.09
 20
145.7399999999999
 30
0.0
 11
453.0899999999999
 21
145.7399999999999
 31
0.0
  0
LINE
  5
399
330
2
100
AcDbEntity
  8
画層1
  6
DASHED2
 62
     0
100
AcDbLine
 10
425.0899999999999
 20
184.74
 30
0.0
 11
425.0899999999999
 21
162.74
 31
0.0
  0
LINE
  5
39A
330
2
100
AcDbEntity
  8
画層1
  6
DASHED2
 62
     0
100
AcDbLine
 10
433.0899999999999
 20
183.74
 30
0.0
 11
433.0899999999999
 21
163.74
 31
0.0
  0
LINE
  5
39B
330
2
100
AcDbEntity
  8
画層1
  6
DASHED2
 62
     0
100
AcDbLine
 10
461.0899999999999
 20
183.74
 30
0.0
 11
461.0899999999999
 21
163.74
 31
0.0
  0
LINE
  5
39C
330
2
100
AcDbEntity
  8
画層1
  6
DASHED2
 62
     0
100
AcDbLine
 10
461.0899999999999
 20
163.74
 30
0.0
 11
444.09
 21
163.74
 31
0.0
  0
LINE
  5
39D
330
2
100
AcDbEntity
  8
画層1
  6
DASHED2
 62
     0
100
AcDbLine
 10
426.0899999999999
 20
161.74
 30
0.0
 11
443.09
 21
161.74
 31
0.0
  0
LINE
  5
39E
330
2
100
AcDbEntity
  8
画層1
  6
DASHED2
 62
     0
100
AcDbLine
 10
433.0899999999999
 20
163.74
 30
0.0
 11
442.0899999999999
 21
161.74
 31
0.0
  0
ARC
  5
39F
330
2
100
AcDbEntity
  8
画層1
  6
DASHED2
 62
     0
100
AcDbCircle
 10
426.0899999999999
 20
162.74
 30
0.0
 40
1.0
100
AcDbArc
 50
180.0
 51
270.0
  0
CIRCLE
  5
3A0
330
2
100
AcDbEntity
  8
画層1
 62
     0
100
AcDbCircle
 10
448.09
 20
164.74
 30
0.0
 40
2.6
  0
ARC
  5
3A1
330
2
100
AcDbEntity
  8
画層1
 62
     0
100
AcDbCircle
 10
446.5899999999999
 20
166.24
 30
0.0
 40
1.0
100
AcDbArc
 50
270.0
 51
0.0
  0
LINE
  5
3A2
330
2
100
AcDbEntity
  8
画層1
 62
     0
100
AcDbLine
 10
446.29
 20
164.24
 30
0.0
 11
446.29
 21
165.24
 31
0.0
  0
ARC
  5
3A3
330
2
100
AcDbEntity
  8
画層1
 62
     0
100
AcDbCircle
 10
449.5899999999999
 20
166.24
 30
0.0
 40
1.0
100
AcDbArc
 50
180.0
 51
270.0
  0
LINE
  5
3A4
330
2
100
AcDbEntity
  8
画層1
 62
     0
100
AcDbLine
 10
449.8899999999999
 20
164.24
 30
0.0
 11
449.8899999999999
 21
165.24
 31
0.0
  0
LINE
  5
3A5
330
2
100
AcDbEntity
  8
画層1
 62
     0
100
AcDbLine
 10
449.8899999999999
 20
164.24
 30
0.0
 11
449.5899999999999
 21
164.24
 31
0.0
  0
LINE
  5
3A6
330
2
100
AcDbEntity
  8
画層1
 62
     0
100
AcDbLine
 10
447.59
 20
162.9399999999999
 30
0.0
 11
448.5899999999999
 21
162.9399999999999
 31
0.0
  0
ARC
  5
3A7
330
2
100
AcDbEntity
  8
画層1
 62
     0
100
AcDbCircle
 10
446.5899999999999
 20
163.24
 30
0.0
 40
1.0
100
AcDbArc
 50
0.0
 51
90.0
  0
LINE
  5
3A8
330
2
100
AcDbEntity
  8
画層1
 62
     0
100
AcDbLine
 10
447.59
 20
162.9399999999999
 30
0.0
 11
447.59
 21
163.24
 31
0.0
  0
LINE
  5
3A9
330
2
100
AcDbEntity
  8
画層1
 62
     0
100
AcDbLine
 10
446.5899999999999
 20
164.24
 30
0.0
 11
446.29
 21
164.24
 31
0.0
  0
ARC
  5
3AA
330
2
100
AcDbEntity
  8
画層1
 62
     0
100
AcDbCircle
 10
449.5899999999999
 20
163.24
 30
0.0
 40
1.0
100
AcDbArc
 50
90.0
 51
180.0
  0
LINE
  5
3AB
330
2
100
AcDbEntity
  8
画層1
 62
     0
100
AcDbLine
 10
448.5899999999999
 20
163.24
 30
0.0
 11
448.5899999999999
 21
162.9399999999999
 31
0.0
  0
LINE
  5
3AC
330
2
100
AcDbEntity
  8
画層1
 62
     0
100
AcDbLine
 10
449.5899999999999
 20
165.24
 30
0.0
 11
449.8899999999999
 21
165.24
 31
0.0
  0
LINE
  5
3AD
330
2
100
AcDbEntity
  8
画層1
 62
     0
100
AcDbLine
 10
447.59
 20
166.5399999999999
 30
0.0
 11
448.5899999999999
 21
166.5399999999999
 31
0.0
  0
LINE
  5
3AE
330
2
100
AcDbEntity
  8
画層1
 62
     0
100
AcDbLine
 10
446.29
 20
165.24
 30
0.0
 11
446.5899999999999
 21
165.24
 31
0.0
  0
LINE
  5
3AF
330
2
100
AcDbEntity
  8
画層1
 62
     0
100
AcDbLine
 10
447.59
 20
166.24
 30
0.0
 11
447.59
 21
166.5399999999999
 31
0.0
  0
LINE
  5
3B0
330
2
100
AcDbEntity
  8
画層1
 62
     0
100
AcDbLine
 10
448.5899999999999
 20
166.5399999999999
 30
0.0
 11
448.5899999999999
 21
166.24
 31
0.0
  0
LINE
  5
3B1
330
2
100
AcDbEntity
  8
画層1
  6
DASHED2
 62
     0
100
AcDbLine
 10
444.09
 20
183.74
 30
0.0
 11
461.0899999999999
 21
183.74
 31
0.0
  0
LINE
  5
3B2
330
2
100
AcDbEntity
  8
画層1
  6
DASHED2
 62
     0
100
AcDbLine
 10
453.0899999999999
 20
185.74
 30
0.0
 11
443.09
 21
185.74
 31
0.0
  0
LINE
  5
3B3
330
2
100
AcDbEntity
  8
画層1
  6
DASHED2
 62
     0
100
AcDbLine
 10
443.09
 20
185.74
 30
0.0
 11
426.0899999999999
 21
185.74
 31
0.0
  0
LINE
  5
3B4
330
2
100
AcDbEntity
  8
画層1
  6
DASHED2
 62
     0
100
AcDbLine
 10
442.0899999999999
 20
185.74
 30
0.0
 11
433.0899999999999
 21
183.74
 31
0.0
  0
ARC
  5
3B5
330
2
100
AcDbEntity
  8
画層1
  6
DASHED2
 62
     0
100
AcDbCircle
 10
426.0899999999999
 20
184.74
 30
0.0
 40
1.0
100
AcDbArc
 50
90.0
 51
180.0
  0
LINE
  5
3B6
330
2
100
AcDbEntity
  8
画層1
  6
CENTER
 62
     0
100
AcDbLine
 10
512.8899999999999
 20
141.74
 30
0.0
 11
522.09
 21
141.74
 31
0.0
  0
DIMENSION
  5
3B7
330
2
100
AcDbEntity
  8
画層1
 62
     0
100
AcDbDimension
  2
*D18
 10
518.09
 20
399.74
 30
0.0
 11
449.59
 21
401.8293908629441
 31
0.0
 70
    32
 71
     5
 42
137.0
  3
STANDARD_WS
100
AcDbAlignedDimension
 13
381.0899999999999
 23
342.74
 33
0.0
 14
518.09
 24
385.74
 34
0.0
100
AcDbRotatedDimension
1001
ACAD
1000
DSTYLE
1002
{
1070
   287
1070
     4
1070
   287
1070
     4
1070
   287
1070
     4
1070
     3
1000
(<>)
1070
   279
1070
     1
1070
    47
1040
0.6
1070
   144
1040
1.0
1070
   146
1040
0.5
1070
   173
1070
     0
1070
   284
1070
     8
1070
   340
1005
27
1070
   341
1005
28
1070
     5
1000
OPEN30
1070
     6
1000
OPEN30
1002
}
  0
DIMENSION
  5
3C4
330
2
100
AcDbEntity
  8
画層1
 62
     0
100
AcDbDimension
  2
*D31
 10
518.09
 20
413.74
 30
0.0
 11
435.09
 21
415.62
 31
0.0
 70
    32
 71
     5
 42
166.0
  3
STANDARD_WS
100
AcDbAlignedDimension
 13
352.0899999999999
 23
382.3399999999999
 33
0.0
 14
518.09
 24
386.99
 34
0.0
100
AcDbRotatedDimension
1001
ACAD
1000
DSTYLE
1002
{
1070
    47
1040
0.6
1070
   144
1040
1.0
1070
   146
1040
0.5
1070
   173
1070
     0
1070
   284
1070
     8
1070
   340
1005
27
1070
   341
1005
28
1070
     5
1000
OPEN30
1070
     6
1000
OPEN30
1002
}
  0
LINE
  5
3D1
330
2
100
AcDbEntity
  8
画層1
 62
     0
100
AcDbLine
 10
389.0899999999999
 20
385.74
 30
0.0
 11
518.09
 21
385.74
 31
0.0
  0
DIMENSION
  5
3D2
330
2
100
AcDbEntity
  8
画層1
 62
     0
100
AcDbDimension
  2
*D32
 10
381.0899999999999
 20
399.74
 30
0.0
 11
374.8399999999999
 21
399.74
 31
0.0
 70
   160
 71
     5
 42
12.5
  3
STANDARD_WS
100
AcDbAlignedDimension
 13
368.5899999999999
 23
344.74
 33
0.0
 14
381.0899999999999
 24
342.74
 34
0.0
100
AcDbRotatedDimension
1001
ACAD
1000
DSTYLE
1002
{
1070
    47
1040
0.6
1070
   144
1040
1.0
1070
   146
1040
0.5
1070
   173
1070
     0
1070
   284
1070
     8
1070
   340
1005
27
1070
   341
1005
28
1070
     5
1000
OPEN30
1070
     6
1000
OPEN30
1002
}
  0
LINE
  5
3DF
330
2
100
AcDbEntity
  8
画層1
  6
DASHED2
 62
     0
100
AcDbLine
 10
394.5899999999999
 20
344.74
 30
0.0
 11
394.5899999999999
 21
251.74
 31
0.0
  0
LINE
  5
3E0
330
2
100
AcDbEntity
  8
画層1
  6
DASHED2
 62
     0
100
AcDbLine
 10
386.5899999999999
 20
289.44
 30
0.0
 11
386.5899999999999
 21
282.44
 31
0.0
  0
LINE
  5
3E1
330
2
100
AcDbEntity
  8
画層1
  6
DASHED2
 62
     0
100
AcDbLine
 10
388.5899999999999
 20
289.9399999999999
 30
0.0
 11
388.5899999999999
 21
281.9399999999999
 31
0.0
  0
LINE
  5
3E2
330
2
100
AcDbEntity
  8
画層1
  6
DASHED2
 62
     0
100
AcDbLine
 10
385.79
 20
288.94
 30
0.0
 11
385.79
 21
282.94
 31
0.0
  0
LINE
  5
3E3
330
2
100
AcDbEntity
  8
画層1
  6
DASHED2
 62
     0
100
AcDbLine
 10
371.5899999999999
 20
283.74
 30
0.0
 11
371.5899999999999
 21
280.94
 31
0.0
  0
ARC
  5
3E4
330
2
100
AcDbEntity
  8
画層1
  6
DASHED2
 62
     0
100
AcDbCircle
 10
384.1899999999999
 20
284.54
 30
0.0
 40
1.6
100
AcDbArc
 50
180.0
 51
270.0
  0
LINE
  5
3E5
330
2
100
AcDbEntity
  8
画層1
  6
DASHED2
 62
     0
100
AcDbLine
 10
375.59
 20
285.8399999999999
 30
0.0
 11
375.59
 21
278.8399999999999
 31
0.0
  0
LINE
  5
3E6
330
2
100
AcDbEntity
  8
画層1
  6
DASHED2
 62
     0
100
AcDbLine
 10
374.79
 20
285.3399999999999
 30
0.0
 11
374.79
 21
279.3399999999999
 31
0.0
  0
LINE
  5
3E7
330
2
100
AcDbEntity
  8
画層1
  6
DASHED2
 62
     0
100
AcDbLine
 10
377.59
 20
286.34
 30
0.0
 11
377.59
 21
278.3399999999999
 31
0.0
  0
LINE
  5
3E8
330
2
100
AcDbEntity
  8
画層1
  6
DASHED2
 62
     0
100
AcDbLine
 10
394.5899999999999
 20
251.74
 30
0.0
 11
368.5899999999999
 21
251.74
 31
0.0
  0
LINE
  5
3E9
330
2
100
AcDbEntity
  8
画層1
  6
DASHED2
 62
     0
100
AcDbLine
 10
368.5899999999999
 20
253.74
 30
0.0
 11
388.5899999999999
 21
253.74
 31
0.0
  0
ARC
  5
3EA
330
2
100
AcDbEntity
  8
画層1
  6
DASHED2
 62
     0
100
AcDbCircle
 10
384.1899999999999
 20
265.7399999999999
 30
0.0
 40
1.6
100
AcDbArc
 50
180.0
 51
270.0
  0
ARC
  5
3EB
330
2
100
AcDbEntity
  8
画層1
  6
DASHED2
 62
     0
100
AcDbCircle
 10
384.1899999999999
 20
259.1399999999999
 30
0.0
 40
1.6
100
AcDbArc
 50
90.0
 51
180.0
  0
ARC
  5
3EC
330
2
100
AcDbEntity
  8
画層1
  6
DASHED2
 62
     0
100
AcDbCircle
 10
384.1899999999999
 20
256.3399999999999
 30
0.0
 40
1.6
100
AcDbArc
 50
180.0
 51
270.0
  0
LINE
  5
3ED
330
2
100
AcDbEntity
  8
画層1
  6
DASHED2
 62
     0
100
AcDbLine
 10
388.5899999999999
 20
263.1399999999999
 30
0.0
 11
379.5899999999999
 21
263.1399999999999
 31
0.0
  0
LINE
  5
3EE
330
2
100
AcDbEntity
  8
画層1
  6
DASHED2
 62
     0
100
AcDbLine
 10
379.5899999999999
 20
261.7399999999999
 30
0.0
 11
388.5899999999999
 21
261.7399999999999
 31
0.0
  0
ARC
  5
3EF
330
2
100
AcDbEntity
  8
画層1
  6
DASHED2
 62
     0
100
AcDbCircle
 10
384.1899999999999
 20
268.54
 30
0.0
 40
1.6
100
AcDbArc
 50
90.0
 51
180.0
  0
ARC
  5
3F0
330
2
100
AcDbEntity
  8
画層1
  6
DASHED2
 62
     0
100
AcDbCircle
 10
384.1899999999999
 20
275.1399999999999
 30
0.0
 40
1.6
100
AcDbArc
 50
180.0
 51
270.0
  0
LINE
  5
3F1
330
2
100
AcDbEntity
  8
画層1
  6
DASHED2
 62
     0
100
AcDbLine
 10
379.5899999999999
 20
271.1399999999999
 30
0.0
 11
388.5899999999999
 21
271.1399999999999
 31
0.0
  0
LINE
  5
3F2
330
2
100
AcDbEntity
  8
画層1
  6
DASHED2
 62
     0
100
AcDbLine
 10
388.5899999999999
 20
272.54
 30
0.0
 11
379.5899999999999
 21
272.54
 31
0.0
  0
ARC
  5
3F3
330
2
100
AcDbEntity
  8
画層1
  6
DASHED2
 62
     0
100
AcDbCircle
 10
384.1899999999999
 20
277.9399999999999
 30
0.0
 40
1.6
100
AcDbArc
 50
90.0
 51
180.0
  0
LINE
  5
3F4
330
2
100
AcDbEntity
  8
画層1
  6
DASHED2
 62
     0
100
AcDbLine
 10
379.5899999999999
 20
280.54
 30
0.0
 11
388.5899999999999
 21
280.54
 31
0.0
  0
LINE
  5
3F5
330
2
100
AcDbEntity
  8
画層1
  6
DASHED2
 62
     0
100
AcDbLine
 10
388.5899999999999
 20
281.9399999999999
 30
0.0
 11
379.5899999999999
 21
281.9399999999999
 31
0.0
  0
ARC
  5
3F6
330
2
100
AcDbEntity
  8
画層1
  6
DASHED2
 62
     0
100
AcDbCircle
 10
373.1899999999999
 20
264.9399999999999
 30
0.0
 40
1.6
100
AcDbArc
 50
90.0
 51
180.0
  0
LINE
  5
3F7
330
2
100
AcDbEntity
  8
画層1
  6
DASHED2
 62
     0
100
AcDbLine
 10
374.79
 20
266.54
 30
0.0
 11
374.79
 21
260.54
 31
0.0
  0
LINE
  5
3F8
330
2
100
AcDbEntity
  8
画層1
  6
DASHED2
 62
     0
100
AcDbLine
 10
375.59
 20
267.04
 30
0.0
 11
375.59
 21
260.04
 31
0.0
  0
LINE
  5
3F9
330
2
100
AcDbEntity
  8
画層1
  6
DASHED2
 62
     0
100
AcDbLine
 10
377.59
 20
267.54
 30
0.0
 11
377.59
 21
259.54
 31
0.0
  0
LINE
  5
3FA
330
2
100
AcDbEntity
  8
画層1
  6
DASHED2
 62
     0
100
AcDbLine
 10
382.5899999999999
 20
268.54
 30
0.0
 11
382.5899999999999
 21
265.7399999999999
 31
0.0
  0
LINE
  5
3FB
330
2
100
AcDbEntity
  8
画層1
  6
DASHED2
 62
     0
100
AcDbLine
 10
373.1899999999999
 20
260.54
 30
0.0
 11
375.59
 21
260.54
 31
0.0
  0
LINE
  5
3FC
330
2
100
AcDbEntity
  8
画層1
  6
DASHED2
 62
     0
100
AcDbLine
 10
377.59
 20
259.54
 30
0.0
 11
368.5899999999999
 21
259.54
 31
0.0
  0
LINE
  5
3FD
330
2
100
AcDbEntity
  8
画層1
  6
DASHED2
 62
     0
100
AcDbLine
 10
368.5899999999999
 20
251.74
 30
0.0
 11
368.5899999999999
 21
259.54
 31
0.0
  0
LINE
  5
3FE
330
2
100
AcDbEntity
  8
画層1
  6
DASHED2
 62
     0
100
AcDbLine
 10
371.5899999999999
 20
264.9399999999999
 30
0.0
 11
371.5899999999999
 21
262.1399999999999
 31
0.0
  0
ARC
  5
3FF
330
2
100
AcDbEntity
  8
画層1
  6
DASHED2
 62
     0
100
AcDbCircle
 10
373.1899999999999
 20
262.1399999999999
 30
0.0
 40
1.6
100
AcDbArc
 50
180.0
 51
270.0
  0
LINE
  5
400
330
2
100
AcDbEntity
  8
画層1
  6
DASHED2
 62
     0
100
AcDbLine
 10
382.5899999999999
 20
259.1399999999999
 30
0.0
 11
382.5899999999999
 21
256.3399999999999
 31
0.0
  0
LINE
  5
401
330
2
100
AcDbEntity
  8
画層1
  6
DASHED2
 62
     0
100
AcDbLine
 10
375.59
 20
260.04
 30
0.0
 11
377.59
 21
260.04
 31
0.0
  0
LINE
  5
402
330
2
100
AcDbEntity
  8
画層1
  6
DASHED2
 62
     0
100
AcDbLine
 10
379.5899999999999
 20
263.1399999999999
 30
0.0
 11
379.5899999999999
 21
261.7399999999999
 31
0.0
  0
LINE
  5
403
330
2
100
AcDbEntity
  8
画層1
  6
DASHED2
 62
     0
100
AcDbLine
 10
373.1899999999999
 20
279.3399999999999
 30
0.0
 11
375.59
 21
279.3399999999999
 31
0.0
  0
LINE
  5
404
330
2
100
AcDbEntity
  8
画層1
  6
DASHED2
 62
     0
100
AcDbLine
 10
373.1899999999999
 20
269.94
 30
0.0
 11
375.59
 21
269.94
 31
0.0
  0
LINE
  5
405
330
2
100
AcDbEntity
  8
画層1
  6
DASHED2
 62
     0
100
AcDbLine
 10
375.59
 20
275.9399999999999
 30
0.0
 11
373.1899999999999
 21
275.9399999999999
 31
0.0
  0
LINE
  5
406
330
2
100
AcDbEntity
  8
画層1
  6
DASHED2
 62
     0
100
AcDbLine
 10
368.5899999999999
 20
267.54
 30
0.0
 11
377.59
 21
267.54
 31
0.0
  0
LINE
  5
407
330
2
100
AcDbEntity
  8
画層1
  6
DASHED2
 62
     0
100
AcDbLine
 10
377.59
 20
268.94
 30
0.0
 11
368.5899999999999
 21
268.94
 31
0.0
  0
LINE
  5
408
330
2
100
AcDbEntity
  8
画層1
  6
DASHED2
 62
     0
100
AcDbLine
 10
377.59
 20
278.3399999999999
 30
0.0
 11
368.5899999999999
 21
278.3399999999999
 31
0.0
  0
LINE
  5
409
330
2
100
AcDbEntity
  8
画層1
  6
DASHED2
 62
     0
100
AcDbLine
 10
368.5899999999999
 20
276.94
 30
0.0
 11
377.59
 21
276.94
 31
0.0
  0
LINE
  5
40A
330
2
100
AcDbEntity
  8
画層1
  6
DASHED2
 62
     0
100
AcDbLine
 10
375.59
 20
266.54
 30
0.0
 11
373.1899999999999
 21
266.54
 31
0.0
  0
ARC
  5
40B
330
2
100
AcDbEntity
  8
画層1
  6
DASHED2
 62
     0
100
AcDbCircle
 10
373.1899999999999
 20
274.3399999999999
 30
0.0
 40
1.6
100
AcDbArc
 50
90.0
 51
180.0
  0
ARC
  5
40C
330
2
100
AcDbEntity
  8
画層1
  6
DASHED2
 62
     0
100
AcDbCircle
 10
373.1899999999999
 20
271.54
 30
0.0
 40
1.6
100
AcDbArc
 50
180.0
 51
270.0
  0
LINE
  5
40D
330
2
100
AcDbEntity
  8
画層1
  6
DASHED2
 62
     0
100
AcDbLine
 10
368.5899999999999
 20
268.94
 30
0.0
 11
368.5899999999999
 21
267.54
 31
0.0
  0
LINE
  5
40E
330
2
100
AcDbEntity
  8
画層1
  6
DASHED2
 62
     0
100
AcDbLine
 10
371.5899999999999
 20
274.3399999999999
 30
0.0
 11
371.5899999999999
 21
271.54
 31
0.0
  0
LINE
  5
40F
330
2
100
AcDbEntity
  8
画層1
  6
DASHED2
 62
     0
100
AcDbLine
 10
368.5899999999999
 20
278.3399999999999
 30
0.0
 11
368.5899999999999
 21
276.94
 31
0.0
  0
ARC
  5
410
330
2
100
AcDbEntity
  8
画層1
  6
DASHED2
 62
     0
100
AcDbCircle
 10
373.1899999999999
 20
280.94
 30
0.0
 40
1.6
100
AcDbArc
 50
180.0
 51
270.0
  0
LINE
  5
411
330
2
100
AcDbEntity
  8
画層1
  6
DASHED2
 62
     0
100
AcDbLine
 10
377.59
 20
276.94
 30
0.0
 11
377.59
 21
268.94
 31
0.0
  0
LINE
  5
412
330
2
100
AcDbEntity
  8
画層1
  6
DASHED2
 62
     0
100
AcDbLine
 10
375.59
 20
276.44
 30
0.0
 11
375.59
 21
269.4399999999999
 31
0.0
  0
LINE
  5
413
330
2
100
AcDbEntity
  8
画層1
  6
DASHED2
 62
     0
100
AcDbLine
 10
374.79
 20
275.9399999999999
 30
0.0
 11
374.79
 21
269.94
 31
0.0
  0
LINE
  5
414
330
2
100
AcDbEntity
  8
画層1
  6
DASHED2
 62
     0
100
AcDbLine
 10
375.59
 20
269.4399999999999
 30
0.0
 11
377.59
 21
269.4399999999999
 31
0.0
  0
LINE
  5
415
330
2
100
AcDbEntity
  8
画層1
  6
DASHED2
 62
     0
100
AcDbLine
 10
377.59
 20
267.04
 30
0.0
 11
375.59
 21
267.04
 31
0.0
  0
LINE
  5
416
330
2
100
AcDbEntity
  8
画層1
  6
DASHED2
 62
     0
100
AcDbLine
 10
379.5899999999999
 20
272.54
 30
0.0
 11
379.5899999999999
 21
271.1399999999999
 31
0.0
  0
LINE
  5
417
330
2
100
AcDbEntity
  8
画層1
  6
DASHED2
 62
     0
100
AcDbLine
 10
375.59
 20
278.8399999999999
 30
0.0
 11
377.59
 21
278.8399999999999
 31
0.0
  0
LINE
  5
418
330
2
100
AcDbEntity
  8
画層1
  6
DASHED2
 62
     0
100
AcDbLine
 10
377.59
 20
276.44
 30
0.0
 11
375.59
 21
276.44
 31
0.0
  0
LINE
  5
419
330
2
100
AcDbEntity
  8
画層1
  6
DASHED2
 62
     0
100
AcDbLine
 10
382.5899999999999
 20
277.9399999999999
 30
0.0
 11
382.5899999999999
 21
275.1399999999999
 31
0.0
  0
LINE
  5
41A
330
2
100
AcDbEntity
  8
画層1
  6
DASHED2
 62
     0
100
AcDbLine
 10
379.5899999999999
 20
281.9399999999999
 30
0.0
 11
379.5899999999999
 21
280.54
 31
0.0
  0
LINE
  5
41B
330
2
100
AcDbEntity
  8
画層1
  6
DASHED2
 62
     0
100
AcDbLine
 10
385.79
 20
270.14
 30
0.0
 11
385.79
 21
264.1399999999999
 31
0.0
  0
LINE
  5
41C
330
2
100
AcDbEntity
  8
画層1
  6
DASHED2
 62
     0
100
AcDbLine
 10
386.5899999999999
 20
270.6399999999999
 30
0.0
 11
386.5899999999999
 21
263.64
 31
0.0
  0
LINE
  5
41D
330
2
100
AcDbEntity
  8
画層1
  6
DASHED2
 62
     0
100
AcDbLine
 10
388.5899999999999
 20
271.1399999999999
 30
0.0
 11
388.5899999999999
 21
263.1399999999999
 31
0.0
  0
LINE
  5
41E
330
2
100
AcDbEntity
  8
画層1
  6
DASHED2
 62
     0
100
AcDbLine
 10
386.5899999999999
 20
261.24
 30
0.0
 11
386.5899999999999
 21
254.24
 31
0.0
  0
LINE
  5
41F
330
2
100
AcDbEntity
  8
画層1
  6
DASHED2
 62
     0
100
AcDbLine
 10
388.5899999999999
 20
261.7399999999999
 30
0.0
 11
388.5899999999999
 21
253.74
 31
0.0
  0
LINE
  5
420
330
2
100
AcDbEntity
  8
画層1
  6
DASHED2
 62
     0
100
AcDbLine
 10
385.79
 20
260.74
 30
0.0
 11
385.79
 21
254.74
 31
0.0
  0
LINE
  5
421
330
2
100
AcDbEntity
  8
画層1
  6
DASHED2
 62
     0
100
AcDbLine
 10
386.5899999999999
 20
254.24
 30
0.0
 11
388.5899999999999
 21
254.24
 31
0.0
  0
LINE
  5
422
330
2
100
AcDbEntity
  8
画層1
  6
DASHED2
 62
     0
100
AcDbLine
 10
384.1899999999999
 20
254.74
 30
0.0
 11
386.5899999999999
 21
254.74
 31
0.0
  0
LINE
  5
423
330
2
100
AcDbEntity
  8
画層1
  6
DASHED2
 62
     0
100
AcDbLine
 10
388.5899999999999
 20
261.24
 30
0.0
 11
386.5899999999999
 21
261.24
 31
0.0
  0
LINE
  5
424
330
2
100
AcDbEntity
  8
画層1
  6
DASHED2
 62
     0
100
AcDbLine
 10
386.5899999999999
 20
263.64
 30
0.0
 11
388.5899999999999
 21
263.64
 31
0.0
  0
LINE
  5
425
330
2
100
AcDbEntity
  8
画層1
  6
DASHED2
 62
     0
100
AcDbLine
 10
386.5899999999999
 20
260.74
 30
0.0
 11
384.1899999999999
 21
260.74
 31
0.0
  0
LINE
  5
426
330
2
100
AcDbEntity
  8
画層1
  6
DASHED2
 62
     0
100
AcDbLine
 10
384.1899999999999
 20
264.1399999999999
 30
0.0
 11
386.5899999999999
 21
264.1399999999999
 31
0.0
  0
LINE
  5
427
330
2
100
AcDbEntity
  8
画層1
  6
DASHED2
 62
     0
100
AcDbLine
 10
388.5899999999999
 20
280.54
 30
0.0
 11
388.5899999999999
 21
272.54
 31
0.0
  0
LINE
  5
428
330
2
100
AcDbEntity
  8
画層1
  6
DASHED2
 62
     0
100
AcDbLine
 10
386.5899999999999
 20
280.04
 30
0.0
 11
386.5899999999999
 21
273.04
 31
0.0
  0
LINE
  5
429
330
2
100
AcDbEntity
  8
画層1
  6
DASHED2
 62
     0
100
AcDbLine
 10
385.79
 20
279.54
 30
0.0
 11
385.79
 21
273.54
 31
0.0
  0
LINE
  5
42A
330
2
100
AcDbEntity
  8
画層1
  6
DASHED2
 62
     0
100
AcDbLine
 10
388.5899999999999
 20
270.6399999999999
 30
0.0
 11
386.5899999999999
 21
270.6399999999999
 31
0.0
  0
LINE
  5
42B
330
2
100
AcDbEntity
  8
画層1
  6
DASHED2
 62
     0
100
AcDbLine
 10
386.5899999999999
 20
273.04
 30
0.0
 11
388.5899999999999
 21
273.04
 31
0.0
  0
LINE
  5
42C
330
2
100
AcDbEntity
  8
画層1
  6
DASHED2
 62
     0
100
AcDbLine
 10
386.5899999999999
 20
270.14
 30
0.0
 11
384.1899999999999
 21
270.14
 31
0.0
  0
LINE
  5
42D
330
2
100
AcDbEntity
  8
画層1
  6
DASHED2
 62
     0
100
AcDbLine
 10
384.1899999999999
 20
273.54
 30
0.0
 11
386.5899999999999
 21
273.54
 31
0.0
  0
LINE
  5
42E
330
2
100
AcDbEntity
  8
画層1
  6
DASHED2
 62
     0
100
AcDbLine
 10
388.5899999999999
 20
280.04
 30
0.0
 11
386.5899999999999
 21
280.04
 31
0.0
  0
LINE
  5
42F
330
2
100
AcDbEntity
  8
画層1
  6
DASHED2
 62
     0
100
AcDbLine
 10
386.5899999999999
 20
282.44
 30
0.0
 11
388.5899999999999
 21
282.44
 31
0.0
  0
LINE
  5
430
330
2
100
AcDbEntity
  8
画層1
  6
DASHED2
 62
     0
100
AcDbLine
 10
386.5899999999999
 20
279.54
 30
0.0
 11
384.1899999999999
 21
279.54
 31
0.0
  0
LINE
  5
431
330
2
100
AcDbEntity
  8
画層1
  6
DASHED2
 62
     0
100
AcDbLine
 10
384.1899999999999
 20
282.94
 30
0.0
 11
386.5899999999999
 21
282.94
 31
0.0
  0
ARC
  5
432
330
2
100
AcDbEntity
  8
画層1
  6
DASHED2
 62
     0
100
AcDbCircle
 10
384.1899999999999
 20
287.3399999999999
 30
0.0
 40
1.6
100
AcDbArc
 50
90.0
 51
180.0
  0
ARC
  5
433
330
2
100
AcDbEntity
  8
画層1
  6
DASHED2
 62
     0
100
AcDbCircle
 10
384.1899999999999
 20
312.74
 30
0.0
 40
1.6
100
AcDbArc
 50
180.0
 51
270.0
  0
ARC
  5
434
330
2
100
AcDbEntity
  8
画層1
  6
DASHED2
 62
     0
100
AcDbCircle
 10
384.1899999999999
 20
293.94
 30
0.0
 40
1.6
100
AcDbArc
 50
180.0
 51
270.0
  0
ARC
  5
435
330
2
100
AcDbEntity
  8
画層1
  6
DASHED2
 62
     0
100
AcDbCircle
 10
384.1899999999999
 20
296.7399999999999
 30
0.0
 40
1.6
100
AcDbArc
 50
90.0
 51
180.0
  0
LINE
  5
436
330
2
100
AcDbEntity
  8
画層1
  6
DASHED2
 62
     0
100
AcDbLine
 10
388.5899999999999
 20
291.3399999999999
 30
0.0
 11
379.5899999999999
 21
291.3399999999999
 31
0.0
  0
LINE
  5
437
330
2
100
AcDbEntity
  8
画層1
  6
DASHED2
 62
     0
100
AcDbLine
 10
379.5899999999999
 20
289.9399999999999
 30
0.0
 11
388.5899999999999
 21
289.9399999999999
 31
0.0
  0
ARC
  5
438
330
2
100
AcDbEntity
  8
画層1
  6
DASHED2
 62
     0
100
AcDbCircle
 10
384.1899999999999
 20
306.1399999999999
 30
0.0
 40
1.6
100
AcDbArc
 50
90.0
 51
180.0
  0
ARC
  5
439
330
2
100
AcDbEntity
  8
画層1
  6
DASHED2
 62
     0
100
AcDbCircle
 10
384.1899999999999
 20
303.3399999999999
 30
0.0
 40
1.6
100
AcDbArc
 50
180.0
 51
270.0
  0
LINE
  5
43A
330
2
100
AcDbEntity
  8
画層1
  6
DASHED2
 62
     0
100
AcDbLine
 10
379.5899999999999
 20
299.3399999999999
 30
0.0
 11
388.5899999999999
 21
299.3399999999999
 31
0.0
  0
LINE
  5
43B
330
2
100
AcDbEntity
  8
画層1
  6
DASHED2
 62
     0
100
AcDbLine
 10
388.5899999999999
 20
300.74
 30
0.0
 11
379.5899999999999
 21
300.74
 31
0.0
  0
LINE
  5
43C
330
2
100
AcDbEntity
  8
画層1
  6
DASHED2
 62
     0
100
AcDbLine
 10
388.5899999999999
 20
310.1399999999999
 30
0.0
 11
379.5899999999999
 21
310.1399999999999
 31
0.0
  0
LINE
  5
43D
330
2
100
AcDbEntity
  8
画層1
  6
DASHED2
 62
     0
100
AcDbLine
 10
379.5899999999999
 20
308.74
 30
0.0
 11
388.5899999999999
 21
308.74
 31
0.0
  0
ARC
  5
43E
330
2
100
AcDbEntity
  8
画層1
  6
DASHED2
 62
     0
100
AcDbCircle
 10
384.1899999999999
 20
315.54
 30
0.0
 40
1.6
100
AcDbArc
 50
90.0
 51
180.0
  0
ARC
  5
43F
330
2
100
AcDbEntity
  8
画層1
  6
DASHED2
 62
     0
100
AcDbCircle
 10
384.1899999999999
 20
322.14
 30
0.0
 40
1.6
100
AcDbArc
 50
180.0
 51
270.0
  0
LINE
  5
440
330
2
100
AcDbEntity
  8
画層1
  6
DASHED2
 62
     0
100
AcDbLine
 10
388.5899999999999
 20
319.54
 30
0.0
 11
379.5899999999999
 21
319.54
 31
0.0
  0
LINE
  5
441
330
2
100
AcDbEntity
  8
画層1
  6
DASHED2
 62
     0
100
AcDbLine
 10
379.5899999999999
 20
318.14
 30
0.0
 11
388.5899999999999
 21
318.14
 31
0.0
  0
ARC
  5
442
330
2
100
AcDbEntity
  8
画層1
  6
DASHED2
 62
     0
100
AcDbCircle
 10
384.1899999999999
 20
331.54
 30
0.0
 40
1.6
100
AcDbArc
 50
180.0
 51
270.0
  0
ARC
  5
443
330
2
100
AcDbEntity
  8
画層1
  6
DASHED2
 62
     0
100
AcDbCircle
 10
384.1899999999999
 20
324.94
 30
0.0
 40
1.6
100
AcDbArc
 50
90.0
 51
180.0
  0
LINE
  5
444
330
2
100
AcDbEntity
  8
画層1
  6
DASHED2
 62
     0
100
AcDbLine
 10
379.5899999999999
 20
327.54
 30
0.0
 11
388.5899999999999
 21
327.54
 31
0.0
  0
LINE
  5
445
330
2
100
AcDbEntity
  8
画層1
  6
DASHED2
 62
     0
100
AcDbLine
 10
388.5899999999999
 20
328.94
 30
0.0
 11
379.5899999999999
 21
328.94
 31
0.0
  0
LINE
  5
446
330
2
100
AcDbEntity
  8
画層1
  6
DASHED2
 62
     0
100
AcDbLine
 10
368.5899999999999
 20
344.74
 30
0.0
 11
394.5899999999999
 21
344.74
 31
0.0
  0
LINE
  5
447
330
2
100
AcDbEntity
  8
画層1
  6
DASHED2
 62
     0
100
AcDbLine
 10
388.5899999999999
 20
336.94
 30
0.0
 11
381.0899999999999
 21
336.94
 31
0.0
  0
ARC
  5
448
330
2
100
AcDbEntity
  8
画層1
  6
DASHED2
 62
     0
100
AcDbCircle
 10
384.1899999999999
 20
334.3399999999999
 30
0.0
 40
1.6
100
AcDbArc
 50
90.0
 51
180.0
  0
ARC
  5
449
330
2
100
AcDbEntity
  8
画層1
  6
DASHED2
 62
     0
100
AcDbCircle
 10
373.1899999999999
 20
318.54
 30
0.0
 40
1.6
100
AcDbArc
 50
180.0
 51
270.0
  0
LINE
  5
44A
330
2
100
AcDbEntity
  8
画層1
  6
DASHED2
 62
     0
100
AcDbLine
 10
375.59
 20
323.4399999999999
 30
0.0
 11
375.59
 21
316.44
 31
0.0
  0
LINE
  5
44B
330
2
100
AcDbEntity
  8
画層1
  6
DASHED2
 62
     0
100
AcDbLine
 10
377.59
 20
323.9399999999999
 30
0.0
 11
377.59
 21
315.94
 31
0.0
  0
LINE
  5
44C
330
2
100
AcDbEntity
  8
画層1
  6
DASHED2
 62
     0
100
AcDbLine
 10
371.5899999999999
 20
302.54
 30
0.0
 11
371.5899999999999
 21
299.74
 31
0.0
  0
LINE
  5
44D
330
2
100
AcDbEntity
  8
画層1
  6
DASHED2
 62
     0
100
AcDbLine
 10
374.79
 20
304.1399999999999
 30
0.0
 11
374.79
 21
298.1399999999999
 31
0.0
  0
LINE
  5
44E
330
2
100
AcDbEntity
  8
画層1
  6
DASHED2
 62
     0
100
AcDbLine
 10
375.59
 20
304.6399999999999
 30
0.0
 11
375.59
 21
297.6399999999999
 31
0.0
  0
LINE
  5
44F
330
2
100
AcDbEntity
  8
画層1
  6
DASHED2
 62
     0
100
AcDbLine
 10
377.59
 20
305.14
 30
0.0
 11
377.59
 21
297.14
 31
0.0
  0
LINE
  5
450
330
2
100
AcDbEntity
  8
画層1
  6
DASHED2
 62
     0
100
AcDbLine
 10
379.5899999999999
 20
300.74
 30
0.0
 11
379.5899999999999
 21
299.3399999999999
 31
0.0
  0
LINE
  5
451
330
2
100
AcDbEntity
  8
画層1
  6
DASHED2
 62
     0
100
AcDbLine
 10
375.59
 20
285.3399999999999
 30
0.0
 11
373.1899999999999
 21
285.3399999999999
 31
0.0
  0
LINE
  5
452
330
2
100
AcDbEntity
  8
画層1
  6
DASHED2
 62
     0
100
AcDbLine
 10
368.5899999999999
 20
286.34
 30
0.0
 11
377.59
 21
286.34
 31
0.0
  0
LINE
  5
453
330
2
100
AcDbEntity
  8
画層1
  6
DASHED2
 62
     0
100
AcDbLine
 10
375.59
 20
294.74
 30
0.0
 11
373.1899999999999
 21
294.74
 31
0.0
  0
LINE
  5
454
330
2
100
AcDbEntity
  8
画層1
  6
DASHED2
 62
     0
100
AcDbLine
 10
373.1899999999999
 20
298.1399999999999
 30
0.0
 11
375.59
 21
298.1399999999999
 31
0.0
  0
LINE
  5
455
330
2
100
AcDbEntity
  8
画層1
  6
DASHED2
 62
     0
100
AcDbLine
 10
373.1899999999999
 20
288.7399999999999
 30
0.0
 11
375.59
 21
288.7399999999999
 31
0.0
  0
LINE
  5
456
330
2
100
AcDbEntity
  8
画層1
  6
DASHED2
 62
     0
100
AcDbLine
 10
377.59
 20
287.74
 30
0.0
 11
368.5899999999999
 21
287.74
 31
0.0
  0
LINE
  5
457
330
2
100
AcDbEntity
  8
画層1
  6
DASHED2
 62
     0
100
AcDbLine
 10
368.5899999999999
 20
295.74
 30
0.0
 11
377.59
 21
295.74
 31
0.0
  0
LINE
  5
458
330
2
100
AcDbEntity
  8
画層1
  6
DASHED2
 62
     0
100
AcDbLine
 10
377.59
 20
297.14
 30
0.0
 11
368.5899999999999
 21
297.14
 31
0.0
  0
LINE
  5
459
330
2
100
AcDbEntity
  8
画層1
  6
DASHED2
 62
     0
100
AcDbLine
 10
371.5899999999999
 20
293.14
 30
0.0
 11
371.5899999999999
 21
290.3399999999999
 31
0.0
  0
LINE
  5
45A
330
2
100
AcDbEntity
  8
画層1
  6
DASHED2
 62
     0
100
AcDbLine
 10
368.5899999999999
 20
287.74
 30
0.0
 11
368.5899999999999
 21
286.34
 31
0.0
  0
ARC
  5
45B
330
2
100
AcDbEntity
  8
画層1
  6
DASHED2
 62
     0
100
AcDbCircle
 10
373.1899999999999
 20
283.74
 30
0.0
 40
1.6
100
AcDbArc
 50
90.0
 51
180.0
  0
ARC
  5
45C
330
2
100
AcDbEntity
  8
画層1
  6
DASHED2
 62
     0
100
AcDbCircle
 10
373.1899999999999
 20
290.3399999999999
 30
0.0
 40
1.6
100
AcDbArc
 50
180.0
 51
270.0
  0
ARC
  5
45D
330
2
100
AcDbEntity
  8
画層1
  6
DASHED2
 62
     0
100
AcDbCircle
 10
373.1899999999999
 20
299.74
 30
0.0
 40
1.6
100
AcDbArc
 50
180.0
 51
270.0
  0
ARC
  5
45E
330
2
100
AcDbEntity
  8
画層1
  6
DASHED2
 62
     0
100
AcDbCircle
 10
373.1899999999999
 20
293.14
 30
0.0
 40
1.6
100
AcDbArc
 50
90.0
 51
180.0
  0
LINE
  5
45F
330
2
100
AcDbEntity
  8
画層1
  6
DASHED2
 62
     0
100
AcDbLine
 10
368.5899999999999
 20
297.14
 30
0.0
 11
368.5899999999999
 21
295.74
 31
0.0
  0
LINE
  5
460
330
2
100
AcDbEntity
  8
画層1
  6
DASHED2
 62
     0
100
AcDbLine
 10
377.59
 20
295.74
 30
0.0
 11
377.59
 21
287.74
 31
0.0
  0
LINE
  5
461
330
2
100
AcDbEntity
  8
画層1
  6
DASHED2
 62
     0
100
AcDbLine
 10
375.59
 20
295.24
 30
0.0
 11
375.59
 21
288.24
 31
0.0
  0
LINE
  5
462
330
2
100
AcDbEntity
  8
画層1
  6
DASHED2
 62
     0
100
AcDbLine
 10
374.79
 20
294.74
 30
0.0
 11
374.79
 21
288.7399999999999
 31
0.0
  0
LINE
  5
463
330
2
100
AcDbEntity
  8
画層1
  6
DASHED2
 62
     0
100
AcDbLine
 10
377.59
 20
285.8399999999999
 30
0.0
 11
375.59
 21
285.8399999999999
 31
0.0
  0
LINE
  5
464
330
2
100
AcDbEntity
  8
画層1
  6
DASHED2
 62
     0
100
AcDbLine
 10
375.59
 20
288.24
 30
0.0
 11
377.59
 21
288.24
 31
0.0
  0
LINE
  5
465
330
2
100
AcDbEntity
  8
画層1
  6
DASHED2
 62
     0
100
AcDbLine
 10
382.5899999999999
 20
287.3399999999999
 30
0.0
 11
382.5899999999999
 21
284.54
 31
0.0
  0
LINE
  5
466
330
2
100
AcDbEntity
  8
画層1
  6
DASHED2
 62
     0
100
AcDbLine
 10
379.5899999999999
 20
291.3399999999999
 30
0.0
 11
379.5899999999999
 21
289.9399999999999
 31
0.0
  0
LINE
  5
467
330
2
100
AcDbEntity
  8
画層1
  6
DASHED2
 62
     0
100
AcDbLine
 10
377.59
 20
295.24
 30
0.0
 11
375.59
 21
295.24
 31
0.0
  0
LINE
  5
468
330
2
100
AcDbEntity
  8
画層1
  6
DASHED2
 62
     0
100
AcDbLine
 10
375.59
 20
297.6399999999999
 30
0.0
 11
377.59
 21
297.6399999999999
 31
0.0
  0
LINE
  5
469
330
2
100
AcDbEntity
  8
画層1
  6
DASHED2
 62
     0
100
AcDbLine
 10
382.5899999999999
 20
296.7399999999999
 30
0.0
 11
382.5899999999999
 21
293.94
 31
0.0
  0
LINE
  5
46A
330
2
100
AcDbEntity
  8
画層1
  6
DASHED2
 62
     0
100
AcDbLine
 10
375.59
 20
313.54
 30
0.0
 11
373.1899999999999
 21
313.54
 31
0.0
  0
LINE
  5
46B
330
2
100
AcDbEntity
  8
画層1
  6
DASHED2
 62
     0
100
AcDbLine
 10
368.5899999999999
 20
314.54
 30
0.0
 11
377.59
 21
314.54
 31
0.0
  0
LINE
  5
46C
330
2
100
AcDbEntity
  8
画層1
  6
DASHED2
 62
     0
100
AcDbLine
 10
377.59
 20
315.94
 30
0.0
 11
368.5899999999999
 21
315.94
 31
0.0
  0
LINE
  5
46D
330
2
100
AcDbEntity
  8
画層1
  6
DASHED2
 62
     0
100
AcDbLine
 10
373.1899999999999
 20
307.54
 30
0.0
 11
375.59
 21
307.54
 31
0.0
  0
LINE
  5
46E
330
2
100
AcDbEntity
  8
画層1
  6
DASHED2
 62
     0
100
AcDbLine
 10
375.59
 20
304.1399999999999
 30
0.0
 11
373.1899999999999
 21
304.1399999999999
 31
0.0
  0
LINE
  5
46F
330
2
100
AcDbEntity
  8
画層1
  6
DASHED2
 62
     0
100
AcDbLine
 10
377.59
 20
306.54
 30
0.0
 11
368.5899999999999
 21
306.54
 31
0.0
  0
LINE
  5
470
330
2
100
AcDbEntity
  8
画層1
  6
DASHED2
 62
     0
100
AcDbLine
 10
368.5899999999999
 20
305.14
 30
0.0
 11
377.59
 21
305.14
 31
0.0
  0
ARC
  5
471
330
2
100
AcDbEntity
  8
画層1
  6
DASHED2
 62
     0
100
AcDbCircle
 10
373.1899999999999
 20
309.14
 30
0.0
 40
1.6
100
AcDbArc
 50
180.0
 51
270.0
  0
ARC
  5
472
330
2
100
AcDbEntity
  8
画層1
  6
DASHED2
 62
     0
100
AcDbCircle
 10
373.1899999999999
 20
302.54
 30
0.0
 40
1.6
100
AcDbArc
 50
90.0
 51
180.0
  0
LINE
  5
473
330
2
100
AcDbEntity
  8
画層1
  6
DASHED2
 62
     0
100
AcDbLine
 10
368.5899999999999
 20
306.54
 30
0.0
 11
368.5899999999999
 21
305.14
 31
0.0
  0
LINE
  5
474
330
2
100
AcDbEntity
  8
画層1
  6
DASHED2
 62
     0
100
AcDbLine
 10
371.5899999999999
 20
311.94
 30
0.0
 11
371.5899999999999
 21
309.14
 31
0.0
  0
LINE
  5
475
330
2
100
AcDbEntity
  8
画層1
  6
DASHED2
 62
     0
100
AcDbLine
 10
368.5899999999999
 20
315.94
 30
0.0
 11
368.5899999999999
 21
314.54
 31
0.0
  0
ARC
  5
476
330
2
100
AcDbEntity
  8
画層1
  6
DASHED2
 62
     0
100
AcDbCircle
 10
373.1899999999999
 20
311.94
 30
0.0
 40
1.6
100
AcDbArc
 50
90.0
 51
180.0
  0
LINE
  5
477
330
2
100
AcDbEntity
  8
画層1
  6
DASHED2
 62
     0
100
AcDbLine
 10
375.59
 20
314.04
 30
0.0
 11
375.59
 21
307.04
 31
0.0
  0
LINE
  5
478
330
2
100
AcDbEntity
  8
画層1
  6
DASHED2
 62
     0
100
AcDbLine
 10
374.79
 20
313.54
 30
0.0
 11
374.79
 21
307.54
 31
0.0
  0
LINE
  5
479
330
2
100
AcDbEntity
  8
画層1
  6
DASHED2
 62
     0
100
AcDbLine
 10
377.59
 20
314.54
 30
0.0
 11
377.59
 21
306.54
 31
0.0
  0
LINE
  5
47A
330
2
100
AcDbEntity
  8
画層1
  6
DASHED2
 62
     0
100
AcDbLine
 10
377.59
 20
304.6399999999999
 30
0.0
 11
375.59
 21
304.6399999999999
 31
0.0
  0
LINE
  5
47B
330
2
100
AcDbEntity
  8
画層1
  6
DASHED2
 62
     0
100
AcDbLine
 10
375.59
 20
307.04
 30
0.0
 11
377.59
 21
307.04
 31
0.0
  0
LINE
  5
47C
330
2
100
AcDbEntity
  8
画層1
  6
DASHED2
 62
     0
100
AcDbLine
 10
382.5899999999999
 20
306.1399999999999
 30
0.0
 11
382.5899999999999
 21
303.3399999999999
 31
0.0
  0
LINE
  5
47D
330
2
100
AcDbEntity
  8
画層1
  6
DASHED2
 62
     0
100
AcDbLine
 10
377.59
 20
314.04
 30
0.0
 11
375.59
 21
314.04
 31
0.0
  0
LINE
  5
47E
330
2
100
AcDbEntity
  8
画層1
  6
DASHED2
 62
     0
100
AcDbLine
 10
375.59
 20
316.44
 30
0.0
 11
377.59
 21
316.44
 31
0.0
  0
LINE
  5
47F
330
2
100
AcDbEntity
  8
画層1
  6
DASHED2
 62
     0
100
AcDbLine
 10
379.5899999999999
 20
310.1399999999999
 30
0.0
 11
379.5899999999999
 21
308.74
 31
0.0
  0
LINE
  5
480
330
2
100
AcDbEntity
  8
画層1
  6
DASHED2
 62
     0
100
AcDbLine
 10
382.5899999999999
 20
315.54
 30
0.0
 11
382.5899999999999
 21
312.74
 31
0.0
  0
LINE
  5
481
330
2
100
AcDbEntity
  8
画層1
  6
DASHED2
 62
     0
100
AcDbLine
 10
382.5899999999999
 20
334.3399999999999
 30
0.0
 11
382.5899999999999
 21
331.54
 31
0.0
  0
LINE
  5
482
330
2
100
AcDbEntity
  8
画層1
  6
DASHED2
 62
     0
100
AcDbLine
 10
368.5899999999999
 20
334.74
 30
0.0
 11
368.5899999999999
 21
333.3399999999999
 31
0.0
  0
LINE
  5
483
330
2
100
AcDbEntity
  8
画層1
  6
DASHED2
 62
     0
100
AcDbLine
 10
373.1899999999999
 20
326.3399999999999
 30
0.0
 11
375.59
 21
326.3399999999999
 31
0.0
  0
LINE
  5
484
330
2
100
AcDbEntity
  8
画層1
  6
DASHED2
 62
     0
100
AcDbLine
 10
375.59
 20
332.3399999999999
 30
0.0
 11
373.1899999999999
 21
332.3399999999999
 31
0.0
  0
LINE
  5
485
330
2
100
AcDbEntity
  8
画層1
  6
DASHED2
 62
     0
100
AcDbLine
 10
373.1899999999999
 20
316.9399999999999
 30
0.0
 11
375.59
 21
316.9399999999999
 31
0.0
  0
LINE
  5
486
330
2
100
AcDbEntity
  8
画層1
  6
DASHED2
 62
     0
100
AcDbLine
 10
375.59
 20
322.94
 30
0.0
 11
373.1899999999999
 21
322.94
 31
0.0
  0
LINE
  5
487
330
2
100
AcDbEntity
  8
画層1
  6
DASHED2
 62
     0
100
AcDbLine
 10
368.5899999999999
 20
333.3399999999999
 30
0.0
 11
377.59
 21
333.3399999999999
 31
0.0
  0
LINE
  5
488
330
2
100
AcDbEntity
  8
画層1
  6
DASHED2
 62
     0
100
AcDbLine
 10
368.5899999999999
 20
323.9399999999999
 30
0.0
 11
377.59
 21
323.9399999999999
 31
0.0
  0
LINE
  5
489
330
2
100
AcDbEntity
  8
画層1
  6
DASHED2
 62
     0
100
AcDbLine
 10
377.59
 20
325.3399999999999
 30
0.0
 11
368.5899999999999
 21
325.3399999999999
 31
0.0
  0
LINE
  5
48A
330
2
100
AcDbEntity
  8
画層1
  6
DASHED2
 62
     0
100
AcDbLine
 10
368.5899999999999
 20
325.3399999999999
 30
0.0
 11
368.5899999999999
 21
323.9399999999999
 31
0.0
  0
ARC
  5
48B
330
2
100
AcDbEntity
  8
画層1
  6
DASHED2
 62
     0
100
AcDbCircle
 10
373.1899999999999
 20
321.34
 30
0.0
 40
1.6
100
AcDbArc
 50
90.0
 51
180.0
  0
LINE
  5
48C
330
2
100
AcDbEntity
  8
画層1
  6
DASHED2
 62
     0
100
AcDbLine
 10
371.5899999999999
 20
321.34
 30
0.0
 11
371.5899999999999
 21
318.54
 31
0.0
  0
LINE
  5
48D
330
2
100
AcDbEntity
  8
画層1
  6
DASHED2
 62
     0
100
AcDbLine
 10
371.5899999999999
 20
330.74
 30
0.0
 11
371.5899999999999
 21
327.9399999999999
 31
0.0
  0
ARC
  5
48E
330
2
100
AcDbEntity
  8
画層1
  6
DASHED2
 62
     0
100
AcDbCircle
 10
373.1899999999999
 20
327.9399999999999
 30
0.0
 40
1.6
100
AcDbArc
 50
180.0
 51
270.0
  0
ARC
  5
48F
330
2
100
AcDbEntity
  8
画層1
  6
DASHED2
 62
     0
100
AcDbCircle
 10
373.1899999999999
 20
330.74
 30
0.0
 40
1.6
100
AcDbArc
 50
90.0
 51
180.0
  0
LINE
  5
490
330
2
100
AcDbEntity
  8
画層1
  6
DASHED2
 62
     0
100
AcDbLine
 10
374.79
 20
322.94
 30
0.0
 11
374.79
 21
316.9399999999999
 31
0.0
  0
LINE
  5
491
330
2
100
AcDbEntity
  8
画層1
  6
DASHED2
 62
     0
100
AcDbLine
 10
377.59
 20
323.4399999999999
 30
0.0
 11
375.59
 21
323.4399999999999
 31
0.0
  0
LINE
  5
492
330
2
100
AcDbEntity
  8
画層1
  6
DASHED2
 62
     0
100
AcDbLine
 10
382.5899999999999
 20
324.94
 30
0.0
 11
382.5899999999999
 21
322.14
 31
0.0
  0
LINE
  5
493
330
2
100
AcDbEntity
  8
画層1
  6
DASHED2
 62
     0
100
AcDbLine
 10
379.5899999999999
 20
319.54
 30
0.0
 11
379.5899999999999
 21
318.14
 31
0.0
  0
LINE
  5
494
330
2
100
AcDbEntity
  8
画層1
  6
DASHED2
 62
     0
100
AcDbLine
 10
374.79
 20
332.3399999999999
 30
0.0
 11
374.79
 21
326.3399999999999
 31
0.0
  0
LINE
  5
495
330
2
100
AcDbEntity
  8
画層1
  6
DASHED2
 62
     0
100
AcDbLine
 10
375.59
 20
332.8399999999999
 30
0.0
 11
375.59
 21
325.8399999999999
 31
0.0
  0
LINE
  5
496
330
2
100
AcDbEntity
  8
画層1
  6
DASHED2
 62
     0
100
AcDbLine
 10
377.59
 20
333.3399999999999
 30
0.0
 11
377.59
 21
325.3399999999999
 31
0.0
  0
LINE
  5
497
330
2
100
AcDbEntity
  8
画層1
  6
DASHED2
 62
     0
100
AcDbLine
 10
375.59
 20
325.8399999999999
 30
0.0
 11
377.59
 21
325.8399999999999
 31
0.0
  0
LINE
  5
498
330
2
100
AcDbEntity
  8
画層1
  6
DASHED2
 62
     0
100
AcDbLine
 10
377.59
 20
332.8399999999999
 30
0.0
 11
375.59
 21
332.8399999999999
 31
0.0
  0
LINE
  5
499
330
2
100
AcDbEntity
  8
画層1
  6
DASHED2
 62
     0
100
AcDbLine
 10
379.5899999999999
 20
328.94
 30
0.0
 11
379.5899999999999
 21
327.54
 31
0.0
  0
LINE
  5
49A
330
2
100
AcDbEntity
  8
画層1
  6
DASHED2
 62
     0
100
AcDbLine
 10
375.59
 20
341.74
 30
0.0
 11
373.1899999999999
 21
341.74
 31
0.0
  0
LINE
  5
49B
330
2
100
AcDbEntity
  8
画層1
  6
DASHED2
 62
     0
100
AcDbLine
 10
373.1899999999999
 20
335.74
 30
0.0
 11
375.59
 21
335.74
 31
0.0
  0
LINE
  5
49C
330
2
100
AcDbEntity
  8
画層1
  6
DASHED2
 62
     0
100
AcDbLine
 10
368.5899999999999
 20
342.74
 30
0.0
 11
381.0899999999999
 21
342.74
 31
0.0
  0
LINE
  5
49D
330
2
100
AcDbEntity
  8
画層1
  6
DASHED2
 62
     0
100
AcDbLine
 10
377.59
 20
334.74
 30
0.0
 11
368.5899999999999
 21
334.74
 31
0.0
  0
LINE
  5
49E
330
2
100
AcDbEntity
  8
画層1
  6
DASHED2
 62
     0
100
AcDbLine
 10
371.5899999999999
 20
340.1399999999999
 30
0.0
 11
371.5899999999999
 21
337.3399999999999
 31
0.0
  0
ARC
  5
49F
330
2
100
AcDbEntity
  8
画層1
  6
DASHED2
 62
     0
100
AcDbCircle
 10
373.1899999999999
 20
337.3399999999999
 30
0.0
 40
1.6
100
AcDbArc
 50
180.0
 51
270.0
  0
ARC
  5
4A0
330
2
100
AcDbEntity
  8
画層1
  6
DASHED2
 62
     0
100
AcDbCircle
 10
373.1899999999999
 20
340.1399999999999
 30
0.0
 40
1.6
100
AcDbArc
 50
90.0
 51
180.0
  0
LINE
  5
4A1
330
2
100
AcDbEntity
  8
画層1
  6
DASHED2
 62
     0
100
AcDbLine
 10
368.5899999999999
 20
344.74
 30
0.0
 11
368.5899999999999
 21
342.74
 31
0.0
  0
LINE
  5
4A2
330
2
100
AcDbEntity
  8
画層1
  6
DASHED2
 62
     0
100
AcDbLine
 10
381.0899999999999
 20
336.94
 30
0.0
 11
381.0899999999999
 21
342.74
 31
0.0
  0
LINE
  5
4A3
330
2
100
AcDbEntity
  8
画層1
  6
DASHED2
 62
     0
100
AcDbLine
 10
377.59
 20
342.74
 30
0.0
 11
377.59
 21
334.74
 31
0.0
  0
LINE
  5
4A4
330
2
100
AcDbEntity
  8
画層1
  6
DASHED2
 62
     0
100
AcDbLine
 10
375.59
 20
342.24
 30
0.0
 11
375.59
 21
335.24
 31
0.0
  0
LINE
  5
4A5
330
2
100
AcDbEntity
  8
画層1
  6
DASHED2
 62
     0
100
AcDbLine
 10
374.79
 20
341.74
 30
0.0
 11
374.79
 21
335.74
 31
0.0
  0
LINE
  5
4A6
330
2
100
AcDbEntity
  8
画層1
  6
DASHED2
 62
     0
100
AcDbLine
 10
375.59
 20
335.24
 30
0.0
 11
377.59
 21
335.24
 31
0.0
  0
LINE
  5
4A7
330
2
100
AcDbEntity
  8
画層1
  6
DASHED2
 62
     0
100
AcDbLine
 10
377.59
 20
342.24
 30
0.0
 11
375.59
 21
342.24
 31
0.0
  0
LINE
  5
4A8
330
2
100
AcDbEntity
  8
画層1
  6
DASHED2
 62
     0
100
AcDbLine
 10
388.5899999999999
 20
318.14
 30
0.0
 11
388.5899999999999
 21
310.1399999999999
 31
0.0
  0
LINE
  5
4A9
330
2
100
AcDbEntity
  8
画層1
  6
DASHED2
 62
     0
100
AcDbLine
 10
386.5899999999999
 20
317.64
 30
0.0
 11
386.5899999999999
 21
310.6399999999999
 31
0.0
  0
LINE
  5
4AA
330
2
100
AcDbEntity
  8
画層1
  6
DASHED2
 62
     0
100
AcDbLine
 10
385.79
 20
317.1399999999999
 30
0.0
 11
385.79
 21
311.1399999999999
 31
0.0
  0
LINE
  5
4AB
330
2
100
AcDbEntity
  8
画層1
  6
DASHED2
 62
     0
100
AcDbLine
 10
388.5899999999999
 20
299.3399999999999
 30
0.0
 11
388.5899999999999
 21
291.3399999999999
 31
0.0
  0
LINE
  5
4AC
330
2
100
AcDbEntity
  8
画層1
  6
DASHED2
 62
     0
100
AcDbLine
 10
388.5899999999999
 20
289.44
 30
0.0
 11
386.5899999999999
 21
289.44
 31
0.0
  0
LINE
  5
4AD
330
2
100
AcDbEntity
  8
画層1
  6
DASHED2
 62
     0
100
AcDbLine
 10
386.5899999999999
 20
288.94
 30
0.0
 11
384.1899999999999
 21
288.94
 31
0.0
  0
LINE
  5
4AE
330
2
100
AcDbEntity
  8
画層1
  6
DASHED2
 62
     0
100
AcDbLine
 10
386.5899999999999
 20
291.8399999999999
 30
0.0
 11
388.5899999999999
 21
291.8399999999999
 31
0.0
  0
LINE
  5
4AF
330
2
100
AcDbEntity
  8
画層1
  6
DASHED2
 62
     0
100
AcDbLine
 10
388.5899999999999
 20
298.84
 30
0.0
 11
386.5899999999999
 21
298.84
 31
0.0
  0
LINE
  5
4B0
330
2
100
AcDbEntity
  8
画層1
  6
DASHED2
 62
     0
100
AcDbLine
 10
386.5899999999999
 20
298.84
 30
0.0
 11
386.5899999999999
 21
291.8399999999999
 31
0.0
  0
LINE
  5
4B1
330
2
100
AcDbEntity
  8
画層1
  6
DASHED2
 62
     0
100
AcDbLine
 10
385.79
 20
298.3399999999999
 30
0.0
 11
385.79
 21
292.3399999999999
 31
0.0
  0
LINE
  5
4B2
330
2
100
AcDbEntity
  8
画層1
  6
DASHED2
 62
     0
100
AcDbLine
 10
384.1899999999999
 20
292.3399999999999
 30
0.0
 11
386.5899999999999
 21
292.3399999999999
 31
0.0
  0
LINE
  5
4B3
330
2
100
AcDbEntity
  8
画層1
  6
DASHED2
 62
     0
100
AcDbLine
 10
386.5899999999999
 20
298.3399999999999
 30
0.0
 11
384.1899999999999
 21
298.3399999999999
 31
0.0
  0
LINE
  5
4B4
330
2
100
AcDbEntity
  8
画層1
  6
DASHED2
 62
     0
100
AcDbLine
 10
388.5899999999999
 20
308.74
 30
0.0
 11
388.5899999999999
 21
300.74
 31
0.0
  0
LINE
  5
4B5
330
2
100
AcDbEntity
  8
画層1
  6
DASHED2
 62
     0
100
AcDbLine
 10
386.5899999999999
 20
301.2399999999999
 30
0.0
 11
388.5899999999999
 21
301.2399999999999
 31
0.0
  0
LINE
  5
4B6
330
2
100
AcDbEntity
  8
画層1
  6
DASHED2
 62
     0
100
AcDbLine
 10
388.5899999999999
 20
308.24
 30
0.0
 11
386.5899999999999
 21
308.24
 31
0.0
  0
LINE
  5
4B7
330
2
100
AcDbEntity
  8
画層1
  6
DASHED2
 62
     0
100
AcDbLine
 10
386.5899999999999
 20
308.24
 30
0.0
 11
386.5899999999999
 21
301.2399999999999
 31
0.0
  0
LINE
  5
4B8
330
2
100
AcDbEntity
  8
画層1
  6
DASHED2
 62
     0
100
AcDbLine
 10
385.79
 20
307.74
 30
0.0
 11
385.79
 21
301.74
 31
0.0
  0
LINE
  5
4B9
330
2
100
AcDbEntity
  8
画層1
  6
DASHED2
 62
     0
100
AcDbLine
 10
384.1899999999999
 20
301.74
 30
0.0
 11
386.5899999999999
 21
301.74
 31
0.0
  0
LINE
  5
4BA
330
2
100
AcDbEntity
  8
画層1
  6
DASHED2
 62
     0
100
AcDbLine
 10
386.5899999999999
 20
307.74
 30
0.0
 11
384.1899999999999
 21
307.74
 31
0.0
  0
LINE
  5
4BB
330
2
100
AcDbEntity
  8
画層1
  6
DASHED2
 62
     0
100
AcDbLine
 10
386.5899999999999
 20
310.6399999999999
 30
0.0
 11
388.5899999999999
 21
310.6399999999999
 31
0.0
  0
LINE
  5
4BC
330
2
100
AcDbEntity
  8
画層1
  6
DASHED2
 62
     0
100
AcDbLine
 10
384.1899999999999
 20
311.1399999999999
 30
0.0
 11
386.5899999999999
 21
311.1399999999999
 31
0.0
  0
LINE
  5
4BD
330
2
100
AcDbEntity
  8
画層1
  6
DASHED2
 62
     0
100
AcDbLine
 10
386.5899999999999
 20
336.4399999999999
 30
0.0
 11
386.5899999999999
 21
329.4399999999999
 31
0.0
  0
LINE
  5
4BE
330
2
100
AcDbEntity
  8
画層1
  6
DASHED2
 62
     0
100
AcDbLine
 10
385.79
 20
335.9399999999999
 30
0.0
 11
385.79
 21
329.9399999999999
 31
0.0
  0
LINE
  5
4BF
330
2
100
AcDbEntity
  8
画層1
  6
DASHED2
 62
     0
100
AcDbLine
 10
388.5899999999999
 20
336.94
 30
0.0
 11
388.5899999999999
 21
328.94
 31
0.0
  0
LINE
  5
4C0
330
2
100
AcDbEntity
  8
画層1
  6
DASHED2
 62
     0
100
AcDbLine
 10
388.5899999999999
 20
327.54
 30
0.0
 11
388.5899999999999
 21
319.54
 31
0.0
  0
LINE
  5
4C1
330
2
100
AcDbEntity
  8
画層1
  6
DASHED2
 62
     0
100
AcDbLine
 10
386.5899999999999
 20
327.04
 30
0.0
 11
386.5899999999999
 21
320.04
 31
0.0
  0
LINE
  5
4C2
330
2
100
AcDbEntity
  8
画層1
  6
DASHED2
 62
     0
100
AcDbLine
 10
385.79
 20
326.54
 30
0.0
 11
385.79
 21
320.54
 31
0.0
  0
LINE
  5
4C3
330
2
100
AcDbEntity
  8
画層1
  6
DASHED2
 62
     0
100
AcDbLine
 10
388.5899999999999
 20
317.64
 30
0.0
 11
386.5899999999999
 21
317.64
 31
0.0
  0
LINE
  5
4C4
330
2
100
AcDbEntity
  8
画層1
  6
DASHED2
 62
     0
100
AcDbLine
 10
386.5899999999999
 20
320.04
 30
0.0
 11
388.5899999999999
 21
320.04
 31
0.0
  0
LINE
  5
4C5
330
2
100
AcDbEntity
  8
画層1
  6
DASHED2
 62
     0
100
AcDbLine
 10
386.5899999999999
 20
317.1399999999999
 30
0.0
 11
384.1899999999999
 21
317.1399999999999
 31
0.0
  0
LINE
  5
4C6
330
2
100
AcDbEntity
  8
画層1
  6
DASHED2
 62
     0
100
AcDbLine
 10
384.1899999999999
 20
320.54
 30
0.0
 11
386.5899999999999
 21
320.54
 31
0.0
  0
LINE
  5
4C7
330
2
100
AcDbEntity
  8
画層1
  6
DASHED2
 62
     0
100
AcDbLine
 10
388.5899999999999
 20
327.04
 30
0.0
 11
386.5899999999999
 21
327.04
 31
0.0
  0
LINE
  5
4C8
330
2
100
AcDbEntity
  8
画層1
  6
DASHED2
 62
     0
100
AcDbLine
 10
386.5899999999999
 20
329.4399999999999
 30
0.0
 11
388.5899999999999
 21
329.4399999999999
 31
0.0
  0
LINE
  5
4C9
330
2
100
AcDbEntity
  8
画層1
  6
DASHED2
 62
     0
100
AcDbLine
 10
386.5899999999999
 20
326.54
 30
0.0
 11
384.1899999999999
 21
326.54
 31
0.0
  0
LINE
  5
4CA
330
2
100
AcDbEntity
  8
画層1
  6
DASHED2
 62
     0
100
AcDbLine
 10
384.1899999999999
 20
329.9399999999999
 30
0.0
 11
386.5899999999999
 21
329.9399999999999
 31
0.0
  0
LINE
  5
4CB
330
2
100
AcDbEntity
  8
画層1
  6
DASHED2
 62
     0
100
AcDbLine
 10
388.5899999999999
 20
336.4399999999999
 30
0.0
 11
386.5899999999999
 21
336.4399999999999
 31
0.0
  0
LINE
  5
4CC
330
2
100
AcDbEntity
  8
画層1
  6
DASHED2
 62
     0
100
AcDbLine
 10
386.5899999999999
 20
335.9399999999999
 30
0.0
 11
384.1899999999999
 21
335.9399999999999
 31
0.0
  0
LINE
  5
4CD
330
2
100
AcDbEntity
  8
画層1
 62
     0
100
AcDbLine
 10
356.0899999999999
 20
374.2399999999999
 30
0.0
 11
406.09
 21
374.2399999999999
 31
0.0
  0
LINE
  5
4CE
330
2
100
AcDbEntity
  8
画層1
 62
     0
100
AcDbLine
 10
382.0899999999999
 20
385.74
 30
0.0
 11
382.0899999999999
 21
374.2399999999999
 31
0.0
  0
LINE
  5
4CF
330
2
100
AcDbEntity
  8
画層1
 62
     0
100
AcDbLine
 10
382.0899999999999
 20
385.74
 30
0.0
 11
382.0899999999999
 21
374.74
 31
0.0
  0
LINE
  5
4D0
330
2
100
AcDbEntity
  8
画層1
 62
     0
100
AcDbLine
 10
357.0899999999999
 20
385.74
 30
0.0
 11
357.0899999999999
 21
374.2399999999999
 31
0.0
  0
LINE
  5
4D1
330
2
100
AcDbEntity
  8
画層1
 62
     0
100
AcDbLine
 10
358.29
 20
385.74
 30
0.0
 11
358.29
 21
374.2399999999999
 31
0.0
  0
LINE
  5
4D2
330
2
100
AcDbEntity
  8
画層1
 62
     0
100
AcDbLine
 10
355.4899999999999
 20
384.54
 30
0.0
 11
354.8899999999999
 21
383.3399999999999
 31
0.0
  0
ARC
  5
4D3
330
2
100
AcDbEntity
  8
画層1
 62
     0
100
AcDbCircle
 10
353.0899999999999
 20
379.1399999999999
 30
0.0
 40
1.0
100
AcDbArc
 50
180.0
 51
270.0
  0
ARC
  5
4D4
330
2
100
AcDbEntity
  8
画層1
 62
     0
100
AcDbCircle
 10
353.0899999999999
 20
382.3399999999999
 30
0.0
 40
1.0
100
AcDbArc
 50
90.0
 51
180.0
  0
LINE
  5
4D5
330
2
100
AcDbEntity
  8
画層1
 62
     0
100
AcDbLine
 10
352.0899999999999
 20
382.3399999999999
 30
0.0
 11
352.0899999999999
 21
379.1399999999999
 31
0.0
  0
LINE
  5
4D6
330
2
100
AcDbEntity
  8
画層1
 62
     0
100
AcDbLine
 10
352.6899999999999
 20
380.3399999999999
 30
0.0
 11
352.6899999999999
 21
381.1399999999999
 31
0.0
  0
LINE
  5
4D7
330
2
100
AcDbEntity
  8
画層1
 62
     0
100
AcDbLine
 10
352.0899999999999
 20
380.3399999999999
 30
0.0
 11
352.6899999999999
 21
380.3399999999999
 31
0.0
  0
LINE
  5
4D8
330
2
100
AcDbEntity
  8
画層1
 62
     0
100
AcDbLine
 10
352.6899999999999
 20
381.1399999999999
 30
0.0
 11
352.0899999999999
 21
381.1399999999999
 31
0.0
  0
LINE
  5
4D9
330
2
100
AcDbEntity
  8
画層1
 62
     0
100
AcDbLine
 10
354.8899999999999
 20
383.3399999999999
 30
0.0
 11
354.8899999999999
 21
378.14
 31
0.0
  0
LINE
  5
4DA
330
2
100
AcDbEntity
  8
画層1
 62
     0
100
AcDbLine
 10
353.0899999999999
 20
378.14
 30
0.0
 11
354.8899999999999
 21
378.14
 31
0.0
  0
LINE
  5
4DB
330
2
100
AcDbEntity
  8
画層1
 62
     0
100
AcDbLine
 10
354.8899999999999
 20
378.14
 30
0.0
 11
355.4899999999999
 21
376.94
 31
0.0
  0
LINE
  5
4DC
330
2
100
AcDbEntity
  8
画層1
 62
     0
100
AcDbLine
 10
355.4899999999999
 20
376.94
 30
0.0
 11
356.0899999999999
 21
376.94
 31
0.0
  0
LINE
  5
4DD
330
2
100
AcDbEntity
  8
画層1
 62
     0
100
AcDbLine
 10
354.8899999999999
 20
383.3399999999999
 30
0.0
 11
353.0899999999999
 21
383.3399999999999
 31
0.0
  0
LINE
  5
4DE
330
2
100
AcDbEntity
  8
画層1
 62
     0
100
AcDbLine
 10
362.0899999999999
 20
381.44
 30
0.0
 11
362.0899999999999
 21
380.04
 31
0.0
  0
LINE
  5
4DF
330
2
100
AcDbEntity
  8
画層1
 62
     0
100
AcDbLine
 10
361.29
 20
382.24
 30
0.0
 11
361.29
 21
379.24
 31
0.0
  0
LINE
  5
4E0
330
2
100
AcDbEntity
  8
画層1
 62
     0
100
AcDbLine
 10
362.0899999999999
 20
380.04
 30
0.0
 11
358.29
 21
380.04
 31
0.0
  0
LINE
  5
4E1
330
2
100
AcDbEntity
  8
画層1
 62
     0
100
AcDbLine
 10
362.0899999999999
 20
380.04
 30
0.0
 11
361.29
 21
379.24
 31
0.0
  0
LINE
  5
4E2
330
2
100
AcDbEntity
  8
画層1
 62
     0
100
AcDbLine
 10
361.29
 20
379.24
 30
0.0
 11
358.29
 21
379.24
 31
0.0
  0
LINE
  5
4E3
330
2
100
AcDbEntity
  8
画層1
 62
     0
100
AcDbLine
 10
358.29
 20
381.44
 30
0.0
 11
362.0899999999999
 21
381.44
 31
0.0
  0
LINE
  5
4E4
330
2
100
AcDbEntity
  8
画層1
 62
     0
100
AcDbLine
 10
361.29
 20
382.24
 30
0.0
 11
362.0899999999999
 21
381.44
 31
0.0
  0
LINE
  5
4E5
330
2
100
AcDbEntity
  8
画層1
 62
     0
100
AcDbLine
 10
358.29
 20
382.24
 30
0.0
 11
361.29
 21
382.24
 31
0.0
  0
LINE
  5
4E6
330
2
100
AcDbEntity
  8
画層1
 62
     0
100
AcDbLine
 10
356.0899999999999
 20
385.74
 30
0.0
 11
382.0899999999999
 21
385.74
 31
0.0
  0
LINE
  5
4E7
330
2
100
AcDbEntity
  8
画層1
 62
     0
100
AcDbLine
 10
356.0899999999999
 20
384.54
 30
0.0
 11
355.4899999999999
 21
384.54
 31
0.0
  0
LINE
  5
4E8
330
2
100
AcDbEntity
  8
画層1
 62
     0
100
AcDbLine
 10
405.0899999999999
 20
385.74
 30
0.0
 11
405.0899999999999
 21
374.2399999999999
 31
0.0
  0
LINE
  5
4E9
330
2
100
AcDbEntity
  8
画層1
 62
     0
100
AcDbLine
 10
389.0899999999999
 20
385.74
 30
0.0
 11
389.0899999999999
 21
374.74
 31
0.0
  0
LINE
  5
4EA
330
2
100
AcDbEntity
  8
画層1
 62
     0
100
AcDbLine
 10
404.49
 20
384.54
 30
0.0
 11
403.8899999999999
 21
383.3399999999999
 31
0.0
  0
LINE
  5
4EB
330
2
100
AcDbEntity
  8
画層1
 62
     0
100
AcDbLine
 10
389.0899999999999
 20
374.74
 30
0.0
 11
405.0899999999999
 21
374.74
 31
0.0
  0
LINE
  5
4EC
330
2
100
AcDbEntity
  8
画層1
 62
     0
100
AcDbLine
 10
389.0899999999999
 20
375.9399999999999
 30
0.0
 11
405.0899999999999
 21
375.9399999999999
 31
0.0
  0
LINE
  5
4ED
330
2
100
AcDbEntity
  8
画層1
 62
     0
100
AcDbLine
 10
402.09
 20
378.14
 30
0.0
 11
403.8899999999999
 21
378.14
 31
0.0
  0
LINE
  5
4EE
330
2
100
AcDbEntity
  8
画層1
 62
     0
100
AcDbLine
 10
403.8899999999999
 20
383.3399999999999
 30
0.0
 11
402.09
 21
383.3399999999999
 31
0.0
  0
LINE
  5
4EF
330
2
100
AcDbEntity
  8
画層1
 62
     0
100
AcDbLine
 10
397.0899999999999
 20
377.54
 30
0.0
 11
391.0899999999999
 21
377.54
 31
0.0
  0
LINE
  5
4F0
330
2
100
AcDbEntity
  8
画層1
 62
     0
100
AcDbLine
 10
391.0899999999999
 20
376.74
 30
0.0
 11
397.0899999999999
 21
376.74
 31
0.0
  0
LINE
  5
4F1
330
2
100
AcDbEntity
  8
画層1
 62
     0
100
AcDbLine
 10
392.0899999999999
 20
379.9399999999999
 30
0.0
 11
396.0899999999999
 21
379.9399999999999
 31
0.0
  0
LINE
  5
4F2
330
2
100
AcDbEntity
  8
画層1
 62
     0
100
AcDbLine
 10
391.0899999999999
 20
377.54
 30
0.0
 11
391.0899999999999
 21
378.94
 31
0.0
  0
LINE
  5
4F3
330
2
100
AcDbEntity
  8
画層1
 62
     0
100
AcDbLine
 10
391.49
 20
376.74
 30
0.0
 11
391.49
 21
377.54
 31
0.0
  0
LINE
  5
4F4
330
2
100
AcDbEntity
  8
画層1
 62
     0
100
AcDbLine
 10
391.0899999999999
 20
375.9399999999999
 30
0.0
 11
391.0899999999999
 21
376.74
 31
0.0
  0
ARC
  5
4F5
330
2
100
AcDbEntity
  8
画層1
 62
     0
100
AcDbCircle
 10
392.0899999999999
 20
378.94
 30
0.0
 40
1.0
100
AcDbArc
 50
90.0
 51
180.0
  0
LINE
  5
4F6
330
2
100
AcDbEntity
  8
画層1
 62
     0
100
AcDbLine
 10
394.49
 20
379.3399999999999
 30
0.0
 11
394.49
 21
379.9399999999999
 31
0.0
  0
LINE
  5
4F7
330
2
100
AcDbEntity
  8
画層1
 62
     0
100
AcDbLine
 10
393.6899999999999
 20
379.9399999999999
 30
0.0
 11
393.6899999999999
 21
379.3399999999999
 31
0.0
  0
LINE
  5
4F8
330
2
100
AcDbEntity
  8
画層1
 62
     0
100
AcDbLine
 10
393.6899999999999
 20
377.54
 30
0.0
 11
394.49
 21
376.74
 31
0.0
  0
LINE
  5
4F9
330
2
100
AcDbEntity
  8
画層1
 62
     0
100
AcDbLine
 10
393.6899999999999
 20
379.3399999999999
 30
0.0
 11
394.49
 21
379.3399999999999
 31
0.0
  0
ARC
  5
4FA
330
2
100
AcDbEntity
  8
画層1
 62
     0
100
AcDbCircle
 10
396.0899999999999
 20
378.94
 30
0.0
 40
1.0
100
AcDbArc
 50
0.0
 51
90.0
  0
LINE
  5
4FB
330
2
100
AcDbEntity
  8
画層1
 62
     0
100
AcDbLine
 10
397.0899999999999
 20
378.94
 30
0.0
 11
397.0899999999999
 21
377.54
 31
0.0
  0
LINE
  5
4FC
330
2
100
AcDbEntity
  8
画層1
 62
     0
100
AcDbLine
 10
396.6899999999999
 20
376.74
 30
0.0
 11
396.6899999999999
 21
377.54
 31
0.0
  0
LINE
  5
4FD
330
2
100
AcDbEntity
  8
画層1
 62
     0
100
AcDbLine
 10
397.0899999999999
 20
376.74
 30
0.0
 11
397.0899999999999
 21
375.9399999999999
 31
0.0
  0
LINE
  5
4FE
330
2
100
AcDbEntity
  8
画層1
 62
     0
100
AcDbLine
 10
401.6899999999999
 20
380.3399999999999
 30
0.0
 11
401.6899999999999
 21
381.1399999999999
 31
0.0
  0
LINE
  5
4FF
330
2
100
AcDbEntity
  8
画層1
 62
     0
100
AcDbLine
 10
401.0899999999999
 20
382.3399999999999
 30
0.0
 11
401.0899999999999
 21
379.1399999999999
 31
0.0
  0
LINE
  5
500
330
2
100
AcDbEntity
  8
画層1
 62
     0
100
AcDbLine
 10
401.0899999999999
 20
380.3399999999999
 30
0.0
 11
401.6899999999999
 21
380.3399999999999
 31
0.0
  0
ARC
  5
501
330
2
100
AcDbEntity
  8
画層1
 62
     0
100
AcDbCircle
 10
402.09
 20
379.1399999999999
 30
0.0
 40
1.0
100
AcDbArc
 50
180.0
 51
270.0
  0
LINE
  5
502
330
2
100
AcDbEntity
  8
画層1
 62
     0
100
AcDbLine
 10
401.6899999999999
 20
381.1399999999999
 30
0.0
 11
401.0899999999999
 21
381.1399999999999
 31
0.0
  0
ARC
  5
503
330
2
100
AcDbEntity
  8
画層1
 62
     0
100
AcDbCircle
 10
402.09
 20
382.3399999999999
 30
0.0
 40
1.0
100
AcDbArc
 50
90.0
 51
180.0
  0
LINE
  5
504
330
2
100
AcDbEntity
  8
画層1
 62
     0
100
AcDbLine
 10
406.09
 20
370.24
 30
0.0
 11
407.29
 21
370.24
 31
0.0
  0
LINE
  5
505
330
2
100
AcDbEntity
  8
画層1
 62
     0
100
AcDbLine
 10
403.8899999999999
 20
383.3399999999999
 30
0.0
 11
403.8899999999999
 21
378.14
 31
0.0
  0
LINE
  5
506
330
2
100
AcDbEntity
  8
画層1
 62
     0
100
AcDbLine
 10
404.49
 20
376.94
 30
0.0
 11
405.0899999999999
 21
376.94
 31
0.0
  0
LINE
  5
507
330
2
100
AcDbEntity
  8
画層1
 62
     0
100
AcDbLine
 10
403.8899999999999
 20
378.14
 30
0.0
 11
404.49
 21
376.94
 31
0.0
  0
LINE
  5
508
330
2
100
AcDbEntity
  8
画層1
 62
     0
100
AcDbLine
 10
405.0899999999999
 20
384.54
 30
0.0
 11
404.49
 21
384.54
 31
0.0
  0
CIRCLE
  5
509
330
2
100
AcDbEntity
  8
画層1
 62
     0
100
AcDbCircle
 10
490.09
 20
225.74
 30
0.0
 40
5.0
  0
CIRCLE
  5
50A
330
2
100
AcDbEntity
  8
画層1
 62
     0
100
AcDbCircle
 10
490.09
 20
225.74
 30
0.0
 40
3.199999999999988
  0
LINE
  5
50B
330
2
100
AcDbEntity
  8
画層1
 62
     0
100
AcDbLine
 10
490.5899999999999
 20
224.2399999999999
 30
0.0
 11
490.5899999999999
 21
223.74
 31
0.0
  0
LINE
  5
50C
330
2
100
AcDbEntity
  8
画層1
 62
     0
100
AcDbLine
 10
489.59
 20
223.74
 30
0.0
 11
489.59
 21
224.2399999999999
 31
0.0
  0
LINE
  5
50D
330
2
100
AcDbEntity
  8
画層1
 62
     0
100
AcDbLine
 10
489.59
 20
223.74
 30
0.0
 11
490.5899999999999
 21
223.74
 31
0.0
  0
ARC
  5
50E
330
2
100
AcDbEntity
  8
画層1
 62
     0
100
AcDbCircle
 10
491.5899999999999
 20
227.24
 30
0.0
 40
1.0
100
AcDbArc
 50
180.0
 51
270.0
  0
ARC
  5
50F
330
2
100
AcDbEntity
  8
画層1
 62
     0
100
AcDbCircle
 10
491.5899999999999
 20
224.2399999999999
 30
0.0
 40
1.0
100
AcDbArc
 50
90.0
 51
180.0
  0
LINE
  5
510
330
2
100
AcDbEntity
  8
画層1
 62
     0
100
AcDbLine
 10
489.59
 20
227.74
 30
0.0
 11
490.5899999999999
 21
227.74
 31
0.0
  0
ARC
  5
511
330
2
100
AcDbEntity
  8
画層1
 62
     0
100
AcDbCircle
 10
488.5899999999999
 20
227.24
 30
0.0
 40
1.0
100
AcDbArc
 50
270.0
 51
0.0
  0
ARC
  5
512
330
2
100
AcDbEntity
  8
画層1
 62
     0
100
AcDbCircle
 10
488.5899999999999
 20
224.2399999999999
 30
0.0
 40
1.0
100
AcDbArc
 50
0.0
 51
90.0
  0
LINE
  5
513
330
2
100
AcDbEntity
  8
画層1
 62
     0
100
AcDbLine
 10
488.5899999999999
 20
225.24
 30
0.0
 11
488.0899999999999
 21
225.24
 31
0.0
  0
LINE
  5
514
330
2
100
AcDbEntity
  8
画層1
 62
     0
100
AcDbLine
 10
488.0899999999999
 20
225.24
 30
0.0
 11
488.0899999999999
 21
226.2399999999999
 31
0.0
  0
LINE
  5
515
330
2
100
AcDbEntity
  8
画層1
 62
     0
100
AcDbLine
 10
488.0899999999999
 20
226.2399999999999
 30
0.0
 11
488.5899999999999
 21
226.2399999999999
 31
0.0
  0
LINE
  5
516
330
2
100
AcDbEntity
  8
画層1
 62
     0
100
AcDbLine
 10
489.59
 20
227.24
 30
0.0
 11
489.59
 21
227.74
 31
0.0
  0
LINE
  5
517
330
2
100
AcDbEntity
  8
画層1
 62
     0
100
AcDbLine
 10
492.0899999999999
 20
225.24
 30
0.0
 11
491.5899999999999
 21
225.24
 31
0.0
  0
LINE
  5
518
330
2
100
AcDbEntity
  8
画層1
 62
     0
100
AcDbLine
 10
492.0899999999999
 20
225.24
 30
0.0
 11
492.0899999999999
 21
226.2399999999999
 31
0.0
  0
LINE
  5
519
330
2
100
AcDbEntity
  8
画層1
 62
     0
100
AcDbLine
 10
491.5899999999999
 20
226.2399999999999
 30
0.0
 11
492.0899999999999
 21
226.2399999999999
 31
0.0
  0
LINE
  5
51A
330
2
100
AcDbEntity
  8
画層1
 62
     0
100
AcDbLine
 10
490.5899999999999
 20
227.74
 30
0.0
 11
490.5899999999999
 21
227.24
 31
0.0
  0
CIRCLE
  5
51B
330
2
100
AcDbEntity
  8
画層1
 62
     0
100
AcDbCircle
 10
490.09
 20
365.7399999999999
 30
0.0
 40
5.0
  0
CIRCLE
  5
51C
330
2
100
AcDbEntity
  8
画層1
 62
     0
100
AcDbCircle
 10
490.09
 20
365.7399999999999
 30
0.0
 40
3.199999999999988
  0
LINE
  5
51D
330
2
100
AcDbEntity
  8
画層1
 62
     0
100
AcDbLine
 10
490.5899999999999
 20
367.74
 30
0.0
 11
490.5899999999999
 21
367.24
 31
0.0
  0
LINE
  5
51E
330
2
100
AcDbEntity
  8
画層1
 62
     0
100
AcDbLine
 10
489.59
 20
367.24
 30
0.0
 11
489.59
 21
367.74
 31
0.0
  0
ARC
  5
51F
330
2
100
AcDbEntity
  8
画層1
 62
     0
100
AcDbCircle
 10
491.5899999999999
 20
364.24
 30
0.0
 40
1.0
100
AcDbArc
 50
90.0
 51
180.0
  0
LINE
  5
520
330
2
100
AcDbEntity
  8
画層1
 62
     0
100
AcDbLine
 10
489.59
 20
363.7399999999999
 30
0.0
 11
490.5899999999999
 21
363.7399999999999
 31
0.0
  0
ARC
  5
521
330
2
100
AcDbEntity
  8
画層1
 62
     0
100
AcDbCircle
 10
491.5899999999999
 20
367.24
 30
0.0
 40
1.0
100
AcDbArc
 50
180.0
 51
270.0
  0
ARC
  5
522
330
2
100
AcDbEntity
  8
画層1
 62
     0
100
AcDbCircle
 10
488.5899999999999
 20
364.24
 30
0.0
 40
1.0
100
AcDbArc
 50
0.0
 51
90.0
  0
ARC
  5
523
330
2
100
AcDbEntity
  8
画層1
 62
     0
100
AcDbCircle
 10
488.5899999999999
 20
367.24
 30
0.0
 40
1.0
100
AcDbArc
 50
270.0
 51
0.0
  0
LINE
  5
524
330
2
100
AcDbEntity
  8
画層1
 62
     0
100
AcDbLine
 10
488.0899999999999
 20
366.24
 30
0.0
 11
488.5899999999999
 21
366.24
 31
0.0
  0
LINE
  5
525
330
2
100
AcDbEntity
  8
画層1
 62
     0
100
AcDbLine
 10
488.0899999999999
 20
365.24
 30
0.0
 11
488.0899999999999
 21
366.24
 31
0.0
  0
LINE
  5
526
330
2
100
AcDbEntity
  8
画層1
 62
     0
100
AcDbLine
 10
488.5899999999999
 20
365.24
 30
0.0
 11
488.0899999999999
 21
365.24
 31
0.0
  0
LINE
  5
527
330
2
100
AcDbEntity
  8
画層1
 62
     0
100
AcDbLine
 10
489.59
 20
363.7399999999999
 30
0.0
 11
489.59
 21
364.24
 31
0.0
  0
LINE
  5
528
330
2
100
AcDbEntity
  8
画層1
 62
     0
100
AcDbLine
 10
490.5899999999999
 20
364.24
 30
0.0
 11
490.5899999999999
 21
363.7399999999999
 31
0.0
  0
LINE
  5
529
330
2
100
AcDbEntity
  8
画層1
 62
     0
100
AcDbLine
 10
491.5899999999999
 20
366.24
 30
0.0
 11
492.0899999999999
 21
366.24
 31
0.0
  0
LINE
  5
52A
330
2
100
AcDbEntity
  8
画層1
 62
     0
100
AcDbLine
 10
492.0899999999999
 20
365.24
 30
0.0
 11
492.0899999999999
 21
366.24
 31
0.0
  0
LINE
  5
52B
330
2
100
AcDbEntity
  8
画層1
 62
     0
100
AcDbLine
 10
492.0899999999999
 20
365.24
 30
0.0
 11
491.5899999999999
 21
365.24
 31
0.0
  0
LINE
  5
52C
330
2
100
AcDbEntity
  8
画層1
 62
     0
100
AcDbLine
 10
489.59
 20
367.74
 30
0.0
 11
490.5899999999999
 21
367.74
 31
0.0
  0
LINE
  5
52D
330
2
100
AcDbEntity
  8
画層1
  6
CENTER
 62
     0
100
AcDbLine
 10
512.8899999999999
 20
379.74
 30
0.0
 11
522.09
 21
379.74
 31
0.0
  0
ENDSEC
  0
SECTION
  2
OBJECTS
  0
DICTIONARY
  5
9
330
0
100
AcDbDictionary
281
     1
  3
ACAD_GROUP
350
23
  3
ACAD_LAYOUT
350
D
  3
ACAD_MLINESTYLE
350
24
  3
ACAD_PLOTSETTINGS
350
25
  3
ACAD_PLOTSTYLENAME
350
8
  3
DWGPROPS
350
618
  0
DICTIONARY
  5
3
330
2
100
AcDbDictionary
280
     1
281
     1
  3
ACAD_LAYOUTSELFREF
360
54F
  0
DICTIONARY
  5
F
330
E
100
AcDbDictionary
280
     1
281
     1
  3
ACAD_LAYOUTSELFREF
360
550
  0
DICTIONARY
  5
23
102
{ACAD_REACTORS
330
9
102
}
330
9
100
AcDbDictionary
281
     1
  0
DICTIONARY
  5
D
102
{ACAD_REACTORS
330
9
102
}
330
9
100
AcDbDictionary
281
     1
  3
Model
350
560
  3
ﾚｲｱｳﾄ1
350
561
  0
DICTIONARY
  5
24
102
{ACAD_REACTORS
330
9
102
}
330
9
100
AcDbDictionary
281
     1
  3
STANDARD
350
34
  0
DICTIONARY
  5
25
102
{ACAD_REACTORS
330
9
102
}
330
9
100
AcDbDictionary
281
     1
  0
ACDBDICTIONARYWDFLT
  5
8
102
{ACAD_REACTORS
330
9
102
}
330
9
100
AcDbDictionary
281
     1
  3
Normal
350
7
100
AcDbDictionaryWithDefault
340
7
  0
XRECORD
  5
618
102
{ACAD_REACTORS
330
9
102
}
330
9
100
AcDbXrecord
280
     1
  1
DWGPROPS COOKIE
  2

  3

  4

  6

  7

  8

  9

300
=
301
=
302
=
303
=
304
=
305
=
306
=
307
=
308
=
309
=
 40
3.523243749999999
 41
2450995.462150231
 42
2451964.719684722
  1

 90
        0
  0
XRECORD
  5
54F
102
{ACAD_REACTORS
330
3
102
}
330
3
100
AcDbXrecord
280
     1
340
2
  0
XRECORD
  5
550
102
{ACAD_REACTORS
330
F
102
}
330
F
100
AcDbXrecord
280
     1
340
E
  0
LAYOUT
  5
560
102
{ACAD_REACTORS
330
D
102
}
330
D
100
AcDbPlotSettings
  1

  2
EPSON MJ-6000C
  4

  6

 40
0.0
 41
0.0
 42
0.0
 43
0.0
 44
0.0
 45
0.0
 46
0.0
 47
0.0
 48
0.0
 49
0.0
140
0.0
141
0.0
142
1.0
143
1.0
 70
  1712
 72
     0
 73
     0
 74
     0
  7

 75
     0
147
1.0
148
0.0
149
0.0
100
AcDbLayout
  1
Model
 70
     1
 71
     0
 10
0.0
 20
0.0
 11
12.0
 21
9.0
 12
0.0
 22
0.0
 32
0.0
 14
0.0
 24
0.0
 34
0.0
 15
0.0
 25
0.0
 35
0.0
146
0.0
 13
0.0
 23
0.0
 33
0.0
 16
1.0
 26
0.0
 36
0.0
 17
0.0
 27
1.0
 37
0.0
 76
     0
330
2
  0
LAYOUT
  5
561
102
{ACAD_REACTORS
330
D
102
}
330
D
100
AcDbPlotSettings
  1

  2
EPSON MJ-6000C
  4

  6

 40
0.0
 41
0.0
 42
0.0
 43
0.0
 44
0.0
 45
0.0
 46
0.0
 47
0.0
 48
0.0
 49
0.0
140
0.0
141
0.0
142
1.0
143
1.0
 70
   688
 72
     0
 73
     0
 74
     5
  7

 75
    16
147
1.0
148
0.0
149
0.0
100
AcDbLayout
  1
ﾚｲｱｳﾄ1
 70
     1
 71
     1
 10
0.0
 20
0.0
 11
420.0
 21
297.0
 12
0.0
 22
0.0
 32
0.0
 14
1.000000000000000E+20
 24
1.000000000000000E+20
 34
1.000000000000000E+20
 15
-1.000000000000000E+20
 25
-1.000000000000000E+20
 35
-1.000000000000000E+20
146
0.0
 13
0.0
 23
0.0
 33
0.0
 16
1.0
 26
0.0
 36
0.0
 17
0.0
 27
1.0
 37
0.0
 76
     0
330
E
  0
MLINESTYLE
  5
34
102
{ACAD_REACTORS
330
24
102
}
330
24
100
AcDbMlineStyle
  2
STANDARD
 70
     0
  3

 62
   256
 51
90.0
 52
90.0
 71
     2
 49
0.5
 62
   256
  6
BYLAYER
 49
-0.5
 62
   256
  6
BYLAYER
  0
ACDBPLACEHOLDER
  5
7
102
{ACAD_REACTORS
330
8
102
}
330
8
  0
ENDSEC
  0
EOF
