  0
SECTION
  2
HEADER
  9
$ACADVER
  1
AC1015
  9
$ACADMAINTVER
 70
     6
  9
$DWGCODEPAGE
  3
ANSI_932
  9
$INSBASE
 10
0.0
 20
0.0
 30
0.0
  9
$EXTMIN
 10
432.6512404554189
 20
239.170142982966
 30
0.0
  9
$EXTMAX
 10
677.5255352853072
 20
613.8089845614188
 30
0.0
  9
$LIMMIN
 10
0.0
 20
0.0
  9
$LIMMAX
 10
420.0
 20
297.0
  9
$ORTHOMODE
 70
     0
  9
$REGENMODE
 70
     1
  9
$FILLMODE
 70
     1
  9
$QTEXTMODE
 70
     0
  9
$MIRRTEXT
 70
     1
  9
$LTSCALE
 40
1.0
  9
$ATTMODE
 70
     1
  9
$TEXTSIZE
 40
2.5
  9
$TRACEWID
 40
1.0
  9
$TEXTSTYLE
  7
STYLE1
  9
$CLAYER
  8
画層1
  9
$CELTYPE
  6
ByLayer
  9
$CECOLOR
 62
     1
  9
$CELTSCALE
 40
1.0
  9
$DISPSILH
 70
     0
  9
$DIMSCALE
 40
1.0
  9
$DIMASZ
 40
2.5
  9
$DIMEXO
 40
0.625
  9
$DIMDLI
 40
3.75
  9
$DIMRND
 40
0.0
  9
$DIMDLE
 40
0.0
  9
$DIMEXE
 40
1.25
  9
$DIMTP
 40
0.0
  9
$DIMTM
 40
0.0
  9
$DIMTXT
 40
2.5
  9
$DIMCEN
 40
2.5
  9
$DIMTSZ
 40
0.0
  9
$DIMTOL
 70
     0
  9
$DIMLIM
 70
     0
  9
$DIMTIH
 70
     0
  9
$DIMTOH
 70
     0
  9
$DIMSE1
 70
     0
  9
$DIMSE2
 70
     0
  9
$DIMTAD
 70
     1
  9
$DIMZIN
 70
     8
  9
$DIMBLK
  1

  9
$DIMASO
 70
     1
  9
$DIMSHO
 70
     1
  9
$DIMPOST
  1

  9
$DIMAPOST
  1

  9
$DIMALT
 70
     0
  9
$DIMALTD
 70
     3
  9
$DIMALTF
 40
0.03937007874016
  9
$DIMLFAC
 40
1.0
  9
$DIMTOFL
 70
     1
  9
$DIMTVP
 40
0.0
  9
$DIMTIX
 70
     0
  9
$DIMSOXD
 70
     0
  9
$DIMSAH
 70
     0
  9
$DIMBLK1
  1

  9
$DIMBLK2
  1

  9
$DIMSTYLE
  2
ISO-25
  9
$DIMCLRD
 70
     0
  9
$DIMCLRE
 70
     0
  9
$DIMCLRT
 70
     0
  9
$DIMTFAC
 40
1.0
  9
$DIMGAP
 40
0.625
  9
$DIMJUST
 70
     0
  9
$DIMSD1
 70
     0
  9
$DIMSD2
 70
     0
  9
$DIMTOLJ
 70
     0
  9
$DIMTZIN
 70
     8
  9
$DIMALTZ
 70
     0
  9
$DIMALTTZ
 70
     0
  9
$DIMUPT
 70
     0
  9
$DIMDEC
 70
     2
  9
$DIMTDEC
 70
     2
  9
$DIMALTU
 70
     2
  9
$DIMALTTD
 70
     3
  9
$DIMTXSTY
  7
Standard
  9
$DIMAUNIT
 70
     0
  9
$DIMADEC
 70
     0
  9
$DIMALTRND
 40
0.0
  9
$DIMAZIN
 70
     0
  9
$DIMDSEP
 70
    44
  9
$DIMATFIT
 70
     3
  9
$DIMFRAC
 70
     0
  9
$DIMLDRBLK
  1

  9
$DIMLUNIT
 70
     2
  9
$DIMLWD
 70
    -2
  9
$DIMLWE
 70
    -2
  9
$DIMTMOVE
 70
     0
  9
$LUNITS
 70
     2
  9
$LUPREC
 70
     4
  9
$SKETCHINC
 40
1.0
  9
$FILLETRAD
 40
1.5
  9
$AUNITS
 70
     0
  9
$AUPREC
 70
     0
  9
$MENU
  1
.
  9
$ELEVATION
 40
0.0
  9
$PELEVATION
 40
0.0
  9
$THICKNESS
 40
0.0
  9
$LIMCHECK
 70
     0
  9
$CHAMFERA
 40
1.0
  9
$CHAMFERB
 40
1.0
  9
$CHAMFERC
 40
20.0
  9
$CHAMFERD
 40
0.0
  9
$SKPOLY
 70
     0
  9
$TDCREATE
 40
2453921.428927037
  9
$TDUCREATE
 40
2453921.053927037
  9
$TDUPDATE
 40
2457007.728436759
  9
$TDUUPDATE
 40
2457007.353436759
  9
$TDINDWG
 40
4.0194758565
  9
$TDUSRTIMER
 40
4.0194758565
  9
$USRTIMER
 70
     1
  9
$ANGBASE
 50
0.0
  9
$ANGDIR
 70
     0
  9
$PDMODE
 70
     0
  9
$PDSIZE
 40
0.0
  9
$PLINEWID
 40
0.0
  9
$SPLFRAME
 70
     0
  9
$SPLINETYPE
 70
     6
  9
$SPLINESEGS
 70
     8
  9
$HANDSEED
  5
2455
  9
$SURFTAB1
 70
     6
  9
$SURFTAB2
 70
     6
  9
$SURFTYPE
 70
     6
  9
$SURFU
 70
     6
  9
$SURFV
 70
     6
  9
$UCSBASE
  2

  9
$UCSNAME
  2

  9
$UCSORG
 10
0.0
 20
0.0
 30
0.0
  9
$UCSXDIR
 10
1.0
 20
0.0
 30
0.0
  9
$UCSYDIR
 10
0.0
 20
1.0
 30
0.0
  9
$UCSORTHOREF
  2

  9
$UCSORTHOVIEW
 70
     0
  9
$UCSORGTOP
 10
0.0
 20
0.0
 30
0.0
  9
$UCSORGBOTTOM
 10
0.0
 20
0.0
 30
0.0
  9
$UCSORGLEFT
 10
0.0
 20
0.0
 30
0.0
  9
$UCSORGRIGHT
 10
0.0
 20
0.0
 30
0.0
  9
$UCSORGFRONT
 10
0.0
 20
0.0
 30
0.0
  9
$UCSORGBACK
 10
0.0
 20
0.0
 30
0.0
  9
$PUCSBASE
  2

  9
$PUCSNAME
  2

  9
$PUCSORG
 10
0.0
 20
0.0
 30
0.0
  9
$PUCSXDIR
 10
1.0
 20
0.0
 30
0.0
  9
$PUCSYDIR
 10
0.0
 20
1.0
 30
0.0
  9
$PUCSORTHOREF
  2

  9
$PUCSORTHOVIEW
 70
     0
  9
$PUCSORGTOP
 10
0.0
 20
0.0
 30
0.0
  9
$PUCSORGBOTTOM
 10
0.0
 20
0.0
 30
0.0
  9
$PUCSORGLEFT
 10
0.0
 20
0.0
 30
0.0
  9
$PUCSORGRIGHT
 10
0.0
 20
0.0
 30
0.0
  9
$PUCSORGFRONT
 10
0.0
 20
0.0
 30
0.0
  9
$PUCSORGBACK
 10
0.0
 20
0.0
 30
0.0
  9
$USERI1
 70
     0
  9
$USERI2
 70
     0
  9
$USERI3
 70
     0
  9
$USERI4
 70
     0
  9
$USERI5
 70
     0
  9
$USERR1
 40
0.0
  9
$USERR2
 40
0.0
  9
$USERR3
 40
0.0
  9
$USERR4
 40
0.0
  9
$USERR5
 40
0.0
  9
$WORLDVIEW
 70
     1
  9
$SHADEDGE
 70
     3
  9
$SHADEDIF
 70
    70
  9
$TILEMODE
 70
     1
  9
$MAXACTVP
 70
    48
  9
$PINSBASE
 10
0.0
 20
0.0
 30
0.0
  9
$PLIMCHECK
 70
     0
  9
$PEXTMIN
 10
1.000000000000000E+20
 20
1.000000000000000E+20
 30
1.000000000000000E+20
  9
$PEXTMAX
 10
-1.000000000000000E+20
 20
-1.000000000000000E+20
 30
-1.000000000000000E+20
  9
$PLIMMIN
 10
0.0
 20
0.0
  9
$PLIMMAX
 10
420.0
 20
297.0
  9
$UNITMODE
 70
     0
  9
$VISRETAIN
 70
     1
  9
$PLINEGEN
 70
     0
  9
$PSLTSCALE
 70
     1
  9
$TREEDEPTH
 70
  3020
  9
$CMLSTYLE
  2
Standard
  9
$CMLJUST
 70
     0
  9
$CMLSCALE
 40
20.0
  9
$PROXYGRAPHICS
 70
     1
  9
$MEASUREMENT
 70
     1
  9
$CELWEIGHT
370
    -1
  9
$ENDCAPS
280
     0
  9
$JOINSTYLE
280
     0
  9
$LWDISPLAY
290
     0
  9
$INSUNITS
 70
     4
  9
$HYPERLINKBASE
  1

  9
$STYLESHEET
  1
ryu.ctb
  9
$XEDIT
290
     1
  9
$CEPSNTYPE
380
     0
  9
$PSTYLEMODE
290
     1
  9
$FINGERPRINTGUID
  2
{FDEAD578-A652-11D2-9A35-0060089B3A3F}
  9
$VERSIONGUID
  2
{E285240E-7B1D-45D1-8746-3879D940D885}
  9
$EXTNAMES
290
     1
  9
$PSVPSCALE
 40
0.0
  9
$OLESTARTUP
290
     0
  0
ENDSEC
  0
SECTION
  2
CLASSES
  0
CLASS
  1
ACDBDICTIONARYWDFLT
  2
AcDbDictionaryWithDefault
  3
AutoCAD 2000
 90
        0
280
     0
281
     0
  0
CLASS
  1
ACDBPLACEHOLDER
  2
AcDbPlaceHolder
  3
AutoCAD 2000
 90
        0
280
     0
281
     0
  0
CLASS
  1
LAYOUT
  2
AcDbLayout
  3
AutoCAD 2000
 90
        0
280
     0
281
     0
  0
CLASS
  1
DICTIONARYVAR
  2
AcDbDictionaryVar
  3
AutoCAD 2000
 90
        0
280
     0
281
     0
  0
CLASS
  1
LONG_TRANSACTION
  2
AcDbLongTransaction
  3
AutoCAD 2000
 90
    32768
280
     0
281
     0
  0
CLASS
  1
LWPOLYLINE
  2
AcDbPolyline
  3
AutoCAD 2000
 90
    32768
280
     0
281
     1
  0
CLASS
  1
HATCH
  2
AcDbHatch
  3
AutoCAD 2000
 90
    32768
280
     0
281
     1
  0
CLASS
  1
XRECORD
  2
AcDbXrecord
  3
AutoCAD 2000
 90
    32768
280
     0
281
     0
  0
CLASS
  1
LONG_TRANSACTION
  2
AcDbLongTransaction
  3
AutoCAD 2000
 90
    32768
280
     0
281
     0
  0
CLASS
  1
LWPOLYLINE
  2
AcDbPolyline
  3
AutoCAD 2000
 90
    32768
280
     0
281
     1
  0
CLASS
  1
HATCH
  2
AcDbHatch
  3
AutoCAD 2000
 90
    32768
280
     0
281
     1
  0
CLASS
  1
XRECORD
  2
AcDbXrecord
  3
AutoCAD 2000
 90
    32768
280
     0
281
     0
  0
CLASS
  1
LONG_TRANSACTION
  2
AcDbLongTransaction
  3
AutoCAD 2000
 90
    32768
280
     0
281
     0
  0
CLASS
  1
LWPOLYLINE
  2
AcDbPolyline
  3
AutoCAD 2000
 90
    32768
280
     0
281
     1
  0
CLASS
  1
HATCH
  2
AcDbHatch
  3
AutoCAD 2000
 90
    32768
280
     0
281
     1
  0
CLASS
  1
XRECORD
  2
AcDbXrecord
  3
AutoCAD 2000
 90
    32768
280
     0
281
     0
  0
CLASS
  1
LONG_TRANSACTION
  2
AcDbLongTransaction
  3
AutoCAD 2000
 90
    32768
280
     0
281
     0
  0
CLASS
  1
LWPOLYLINE
  2
AcDbPolyline
  3
AutoCAD 2000
 90
    32768
280
     0
281
     1
  0
CLASS
  1
HATCH
  2
AcDbHatch
  3
AutoCAD 2000
 90
    32768
280
     0
281
     1
  0
CLASS
  1
XRECORD
  2
AcDbXrecord
  3
AutoCAD 2000
 90
    32768
280
     0
281
     0
  0
CLASS
  1
LONG_TRANSACTION
  2
AcDbLongTransaction
  3
AutoCAD 2000
 90
    32768
280
     0
281
     0
  0
CLASS
  1
LWPOLYLINE
  2
AcDbPolyline
  3
AutoCAD 2000
 90
    32768
280
     0
281
     1
  0
CLASS
  1
HATCH
  2
AcDbHatch
  3
AutoCAD 2000
 90
    32768
280
     0
281
     1
  0
CLASS
  1
XRECORD
  2
AcDbXrecord
  3
AutoCAD 2000
 90
    32768
280
     0
281
     0
  0
CLASS
  1
LONG_TRANSACTION
  2
AcDbLongTransaction
  3
AutoCAD 2000
 90
    32768
280
     0
281
     0
  0
CLASS
  1
LWPOLYLINE
  2
AcDbPolyline
  3
AutoCAD 2000
 90
    32768
280
     0
281
     1
  0
CLASS
  1
HATCH
  2
AcDbHatch
  3
AutoCAD 2000
 90
    32768
280
     0
281
     1
  0
CLASS
  1
XRECORD
  2
AcDbXrecord
  3
AutoCAD 2000
 90
    32768
280
     0
281
     0
  0
CLASS
  1
LONG_TRANSACTION
  2
AcDbLongTransaction
  3
AutoCAD 2000
 90
    32768
280
     0
281
     0
  0
CLASS
  1
LWPOLYLINE
  2
AcDbPolyline
  3
AutoCAD 2000
 90
    32768
280
     0
281
     1
  0
CLASS
  1
HATCH
  2
AcDbHatch
  3
AutoCAD 2000
 90
    32768
280
     0
281
     1
  0
CLASS
  1
XRECORD
  2
AcDbXrecord
  3
AutoCAD 2000
 90
    32768
280
     0
281
     0
  0
CLASS
  1
LONG_TRANSACTION
  2
AcDbLongTransaction
  3
AutoCAD 2000
 90
    32768
280
     0
281
     0
  0
CLASS
  1
LWPOLYLINE
  2
AcDbPolyline
  3
AutoCAD 2000
 90
    32768
280
     0
281
     1
  0
CLASS
  1
HATCH
  2
AcDbHatch
  3
AutoCAD 2000
 90
    32768
280
     0
281
     1
  0
CLASS
  1
XRECORD
  2
AcDbXrecord
  3
AutoCAD 2000
 90
    32768
280
     0
281
     0
  0
CLASS
  1
LONG_TRANSACTION
  2
AcDbLongTransaction
  3
AutoCAD 2000
 90
    32768
280
     0
281
     0
  0
CLASS
  1
LWPOLYLINE
  2
AcDbPolyline
  3
AutoCAD 2000
 90
    32768
280
     0
281
     1
  0
CLASS
  1
HATCH
  2
AcDbHatch
  3
AutoCAD 2000
 90
    32768
280
     0
281
     1
  0
CLASS
  1
XRECORD
  2
AcDbXrecord
  3
AutoCAD 2000
 90
    32768
280
     0
281
     0
  0
CLASS
  1
LONG_TRANSACTION
  2
AcDbLongTransaction
  3
AutoCAD 2000
 90
    32768
280
     0
281
     0
  0
CLASS
  1
LWPOLYLINE
  2
AcDbPolyline
  3
AutoCAD 2000
 90
    32768
280
     0
281
     1
  0
CLASS
  1
HATCH
  2
AcDbHatch
  3
AutoCAD 2000
 90
    32768
280
     0
281
     1
  0
CLASS
  1
XRECORD
  2
AcDbXrecord
  3
AutoCAD 2000
 90
    32768
280
     0
281
     0
  0
CLASS
  1
LONG_TRANSACTION
  2
AcDbLongTransaction
  3
AutoCAD 2000
 90
    32768
280
     0
281
     0
  0
CLASS
  1
LWPOLYLINE
  2
AcDbPolyline
  3
AutoCAD 2000
 90
    32768
280
     0
281
     1
  0
CLASS
  1
HATCH
  2
AcDbHatch
  3
AutoCAD 2000
 90
    32768
280
     0
281
     1
  0
CLASS
  1
XRECORD
  2
AcDbXrecord
  3
AutoCAD 2000
 90
    32768
280
     0
281
     0
  0
CLASS
  1
LONG_TRANSACTION
  2
AcDbLongTransaction
  3
AutoCAD 2000
 90
    32768
280
     0
281
     0
  0
CLASS
  1
LWPOLYLINE
  2
AcDbPolyline
  3
AutoCAD 2000
 90
    32768
280
     0
281
     1
  0
CLASS
  1
HATCH
  2
AcDbHatch
  3
AutoCAD 2000
 90
    32768
280
     0
281
     1
  0
CLASS
  1
XRECORD
  2
AcDbXrecord
  3
AutoCAD 2000
 90
    32768
280
     0
281
     0
  0
CLASS
  1
LONG_TRANSACTION
  2
AcDbLongTransaction
  3
AutoCAD 2000
 90
    32768
280
     0
281
     0
  0
CLASS
  1
LWPOLYLINE
  2
AcDbPolyline
  3
AutoCAD 2000
 90
    32768
280
     0
281
     1
  0
CLASS
  1
HATCH
  2
AcDbHatch
  3
AutoCAD 2000
 90
    32768
280
     0
281
     1
  0
CLASS
  1
XRECORD
  2
AcDbXrecord
  3
AutoCAD 2000
 90
    32768
280
     0
281
     0
  0
CLASS
  1
LONG_TRANSACTION
  2
AcDbLongTransaction
  3
AutoCAD 2000
 90
    32768
280
     0
281
     0
  0
CLASS
  1
LWPOLYLINE
  2
AcDbPolyline
  3
AutoCAD 2000
 90
    32768
280
     0
281
     1
  0
CLASS
  1
HATCH
  2
AcDbHatch
  3
AutoCAD 2000
 90
    32768
280
     0
281
     1
  0
CLASS
  1
XRECORD
  2
AcDbXrecord
  3
AutoCAD 2000
 90
    32768
280
     0
281
     0
  0
CLASS
  1
LONG_TRANSACTION
  2
AcDbLongTransaction
  3
AutoCAD 2000
 90
    32768
280
     0
281
     0
  0
CLASS
  1
LWPOLYLINE
  2
AcDbPolyline
  3
AutoCAD 2000
 90
    32768
280
     0
281
     1
  0
CLASS
  1
HATCH
  2
AcDbHatch
  3
AutoCAD 2000
 90
    32768
280
     0
281
     1
  0
CLASS
  1
XRECORD
  2
AcDbXrecord
  3
AutoCAD 2000
 90
    32768
280
     0
281
     0
  0
CLASS
  1
LONG_TRANSACTION
  2
AcDbLongTransaction
  3
AutoCAD 2000
 90
    32768
280
     0
281
     0
  0
CLASS
  1
LWPOLYLINE
  2
AcDbPolyline
  3
AutoCAD 2000
 90
    32768
280
     0
281
     1
  0
CLASS
  1
HATCH
  2
AcDbHatch
  3
AutoCAD 2000
 90
    32768
280
     0
281
     1
  0
CLASS
  1
XRECORD
  2
AcDbXrecord
  3
AutoCAD 2000
 90
    32768
280
     0
281
     0
  0
CLASS
  1
LONG_TRANSACTION
  2
AcDbLongTransaction
  3
AutoCAD 2000
 90
    32768
280
     0
281
     0
  0
CLASS
  1
LWPOLYLINE
  2
AcDbPolyline
  3
AutoCAD 2000
 90
    32768
280
     0
281
     1
  0
CLASS
  1
HATCH
  2
AcDbHatch
  3
AutoCAD 2000
 90
    32768
280
     0
281
     1
  0
CLASS
  1
XRECORD
  2
AcDbXrecord
  3
AutoCAD 2000
 90
    32768
280
     0
281
     0
  0
CLASS
  1
LONG_TRANSACTION
  2
AcDbLongTransaction
  3
AutoCAD 2000
 90
    32768
280
     0
281
     0
  0
CLASS
  1
LWPOLYLINE
  2
AcDbPolyline
  3
AutoCAD 2000
 90
    32768
280
     0
281
     1
  0
CLASS
  1
HATCH
  2
AcDbHatch
  3
AutoCAD 2000
 90
    32768
280
     0
281
     1
  0
CLASS
  1
XRECORD
  2
AcDbXrecord
  3
AutoCAD 2000
 90
    32768
280
     0
281
     0
  0
ENDSEC
  0
SECTION
  2
TABLES
  0
TABLE
  2
VPORT
  5
8
330
0
100
AcDbSymbolTable
 70
     3
  0
VPORT
  5
2454
330
8
100
AcDbSymbolTableRecord
100
AcDbViewportTableRecord
  2
*Active
 70
     0
 10
0.0
 20
0.0
 11
1.0
 21
1.0
 12
762.0675437632445
 22
336.2573334594981
 13
0.0
 23
0.0
 14
10.0
 24
10.0
 15
10.0
 25
10.0
 16
0.0
 26
0.0
 36
1.0
 17
0.0
 27
0.0
 37
0.0
 40
481.2100234882309
 41
1.791666666666666
 42
50.0
 43
0.0
 44
0.0
 50
0.0
 51
0.0
 71
     0
 72
   100
 73
     1
 74
     3
 75
     0
 76
     0
 77
     0
 78
     0
281
     0
 65
     1
110
0.0
120
0.0
130
0.0
111
1.0
121
0.0
131
0.0
112
0.0
122
1.0
132
0.0
 79
     0
146
0.0
  0
ENDTAB
  0
TABLE
  2
LTYPE
  5
5
330
0
100
AcDbSymbolTable
 70
     6
  0
LTYPE
  5
14
330
5
100
AcDbSymbolTableRecord
100
AcDbLinetypeTableRecord
  2
ByBlock
 70
     0
  3

 72
    65
 73
     0
 40
0.0
  0
LTYPE
  5
15
330
5
100
AcDbSymbolTableRecord
100
AcDbLinetypeTableRecord
  2
ByLayer
 70
     0
  3

 72
    65
 73
     0
 40
0.0
  0
LTYPE
  5
16
330
5
100
AcDbSymbolTableRecord
100
AcDbLinetypeTableRecord
  2
Continuous
 70
     0
  3
Solid line
 72
    65
 73
     0
 40
0.0
  0
LTYPE
  5
CD1
330
5
100
AcDbSymbolTableRecord
100
AcDbLinetypeTableRecord
  2
ACAD_ISO02W100
 70
     0
  3
ISO dash __ __ __ __ __ __ __ __ __ __ __ __ __
 72
    65
 73
     2
 40
15.0
 49
12.0
 74
     0
 49
-3.0
 74
     0
  0
LTYPE
  5
D43
330
5
100
AcDbSymbolTableRecord
100
AcDbLinetypeTableRecord
  2
DASHED2
 70
     0
  3
Dashed (.5x) _ _ _ _ _ _ _ _ _ _ _ _ _ _ _ _ _
 72
    65
 73
     2
 40
9.524999999999998
 49
6.349999999999999
 74
     0
 49
-3.174999999999999
 74
     0
  0
LTYPE
  5
1570
330
5
100
AcDbSymbolTableRecord
100
AcDbLinetypeTableRecord
  2
CENTER
 70
     0
  3
Center ____ _ ____ _ ____ _ ____ _ ____ _ ____
 72
    65
 73
     4
 40
50.8
 49
31.75
 74
     0
 49
-6.349999999999999
 74
     0
 49
6.349999999999999
 74
     0
 49
-6.349999999999999
 74
     0
  0
LTYPE
  5
201D
330
5
100
AcDbSymbolTableRecord
100
AcDbLinetypeTableRecord
  2
ACAD_ISO07W100
 70
     0
  3
ISO dot . . . . . . . . . . . . . . . . . . . .
 72
    65
 73
     2
 40
3.0
 49
0.0
 74
     0
 49
-3.0
 74
     0
  0
LTYPE
  5
201E
330
5
100
AcDbSymbolTableRecord
100
AcDbLinetypeTableRecord
  2
DASHED
 70
     0
  3
Dashed __ __ __ __ __ __ __ __ __ __ __ __ __ _
 72
    65
 73
     2
 40
19.04999999999999
 49
12.7
 74
     0
 49
-6.349999999999999
 74
     0
  0
ENDTAB
  0
TABLE
  2
LAYER
  5
2
330
0
100
AcDbSymbolTable
 70
     4
  0
LAYER
  5
10
330
2
100
AcDbSymbolTableRecord
100
AcDbLayerTableRecord
  2
0
 70
     0
 62
     7
  6
Continuous
370
    -3
390
F
  0
LAYER
  5
4A
330
2
100
AcDbSymbolTableRecord
100
AcDbLayerTableRecord
  2
画層1
 70
     0
 62
     7
  6
Continuous
370
    -3
390
F
  0
LAYER
  5
B02
330
2
100
AcDbSymbolTableRecord
100
AcDbLayerTableRecord
  2
Defpoints
 70
     0
 62
     7
  6
Continuous
290
     0
370
    -3
390
F
  0
LAYER
  5
1571
330
2
100
AcDbSymbolTableRecord
100
AcDbLayerTableRecord
  2
LY_1
 70
     0
 62
     7
  6
Continuous
370
    -3
390
F
  0
ENDTAB
  0
TABLE
  2
STYLE
  5
3
330
0
100
AcDbSymbolTable
 70
     7
  0
STYLE
  5
11
330
3
100
AcDbSymbolTableRecord
100
AcDbTextStyleTableRecord
  2
Standard
 70
     0
 40
0.0
 41
1.0
 50
0.0
 71
     0
 42
2.5
  3
txt
  4

  0
STYLE
  5
4B
330
3
100
AcDbSymbolTableRecord
100
AcDbTextStyleTableRecord
  2
STYLE1
 70
     0
 40
2.5
 41
1.0
 50
0.0
 71
     0
 42
2.5
  3
MS Gothic.ttf
  4

1001
ACAD
1000
MS Gothic
1071
    32817
  0
STYLE
  5
CD0
330
3
100
AcDbSymbolTableRecord
100
AcDbTextStyleTableRecord
  2

 70
     1
 40
0.0
 41
1.0
 50
0.0
 71
     0
 42
2.5
  3
ltypeshp.shx
  4

  0
STYLE
  5
1572
330
3
100
AcDbSymbolTableRecord
100
AcDbTextStyleTableRecord
  2
MX_NOTE_STANDARD
 70
     0
 40
0.0
 41
1.0
 50
0.0
 71
     0
 42
4.16718
  3
txt.shx
  4
extfont.shx
  0
STYLE
  5
1573
330
3
100
AcDbSymbolTableRecord
100
AcDbTextStyleTableRecord
  2
MX_DIMTXSTY_2
 70
     0
 40
0.0
 41
1.35
 50
0.0
 71
     0
 42
4.16718
  3
txt.shx
  4
extfont.shx
  0
STYLE
  5
1574
330
3
100
AcDbSymbolTableRecord
100
AcDbTextStyleTableRecord
  2
MX_DIMTXSTY_3
 70
     0
 40
0.0
 41
1.5
 50
0.0
 71
     0
 42
4.16718
  3
txt.shx
  4
extfont.shx
  0
STYLE
  5
1575
330
3
100
AcDbSymbolTableRecord
100
AcDbTextStyleTableRecord
  2
MX_DIMTXSTY_4
 70
     0
 40
0.0
 41
1.25
 50
0.0
 71
     0
 42
4.16718
  3
txt.shx
  4
extfont.shx
  0
ENDTAB
  0
TABLE
  2
VIEW
  5
6
330
0
100
AcDbSymbolTable
 70
     0
  0
ENDTAB
  0
TABLE
  2
UCS
  5
7
330
0
100
AcDbSymbolTable
 70
     0
  0
ENDTAB
  0
TABLE
  2
APPID
  5
9
330
0
100
AcDbSymbolTable
 70
     1
  0
APPID
  5
12
330
9
100
AcDbSymbolTableRecord
100
AcDbRegAppTableRecord
  2
ACAD
 70
     0
  0
ENDTAB
  0
TABLE
  2
DIMSTYLE
  5
A
330
0
100
AcDbSymbolTable
 70
     3
100
AcDbDimStyleTable
 71
     1
340
27
  0
DIMSTYLE
105
27
102
{ACAD_REACTORS
330
22D7
330
22E4
330
22F1
330
22FE
330
230B
330
2318
330
2327
330
2336
330
2343
330
2350
330
235D
330
236A
330
2377
330
2384
330
239A
330
23A7
330
1CA5
330
1AB5
330
1AA8
330
1A83
330
1A65
330
1A4B
330
1A58
330
1B0A
330
1A74
330
1D86
330
1CB2
330
1BF8
330
1C05
330
1EBA
330
1EAB
330
1E82
330
1E8F
330
1E9C
102
}
330
A
100
AcDbSymbolTableRecord
100
AcDbDimStyleTableRecord
  2
ISO-25
 70
     0
 41
2.5
 42
0.625
 43
3.75
 44
1.25
 73
     0
 74
     0
 77
     1
 78
     8
140
2.5
141
2.5
143
0.03937007874016
147
0.625
171
     3
172
     1
271
     2
272
     2
274
     3
278
    44
283
     0
284
     8
340
11
  0
DIMSTYLE
105
4C
330
A
100
AcDbSymbolTableRecord
100
AcDbDimStyleTableRecord
  2
STANDARD_WS
 70
     0
 41
2.5
 42
0.625
 43
3.75
 44
1.25
 73
     0
 74
     0
 77
     1
 78
     8
140
2.5
141
2.5
143
0.0394
147
0.625
171
     4
172
     1
273
     8
274
     4
340
11
  0
DIMSTYLE
105
1576
330
A
100
AcDbSymbolTableRecord
100
AcDbDimStyleTableRecord
  2
MXDIMSTYLE
 70
     0
 41
2.5
 42
0.0
 43
3.75
 44
2.54
 73
     0
 74
     0
 77
     1
 78
     8
140
2.54
141
2.5
143
0.03937
147
0.6400000000000001
171
     4
172
     1
173
     1
271
     2
272
     2
274
     4
283
     0
340
1572
341
44
343
44
344
44
  0
ENDTAB
  0
TABLE
  2
BLOCK_RECORD
  5
1
330
0
100
AcDbSymbolTable
 70
    37
  0
BLOCK_RECORD
  5
1F
102
{ACAD_XDICTIONARY
360
BC3
102
}
330
1
100
AcDbSymbolTableRecord
100
AcDbBlockTableRecord
  2
*Model_Space
340
22
  0
BLOCK_RECORD
  5
1B
102
{ACAD_XDICTIONARY
360
BC5
102
}
330
1
100
AcDbSymbolTableRecord
100
AcDbBlockTableRecord
  2
*Paper_Space
340
1E
  0
BLOCK_RECORD
  5
23
102
{ACAD_XDICTIONARY
360
BC7
102
}
330
1
100
AcDbSymbolTableRecord
100
AcDbBlockTableRecord
  2
*Paper_Space0
340
26
  0
BLOCK_RECORD
  5
44
330
1
100
AcDbSymbolTableRecord
100
AcDbBlockTableRecord
  2
_OPEN30
340
0
  0
BLOCK_RECORD
  5
1522
330
1
100
AcDbSymbolTableRecord
100
AcDbBlockTableRecord
  2
_OPEN
340
0
  0
BLOCK_RECORD
  5
1A4C
330
1
100
AcDbSymbolTableRecord
100
AcDbBlockTableRecord
  2
*D3
340
0
  0
BLOCK_RECORD
  5
1A59
330
1
100
AcDbSymbolTableRecord
100
AcDbBlockTableRecord
  2
*D4
340
0
  0
BLOCK_RECORD
  5
1A66
330
1
100
AcDbSymbolTableRecord
100
AcDbBlockTableRecord
  2
*D5
340
0
  0
BLOCK_RECORD
  5
1A75
330
1
100
AcDbSymbolTableRecord
100
AcDbBlockTableRecord
  2
*D6
340
0
  0
BLOCK_RECORD
  5
1A84
330
1
100
AcDbSymbolTableRecord
100
AcDbBlockTableRecord
  2
*D7
340
0
  0
BLOCK_RECORD
  5
1AA9
330
1
100
AcDbSymbolTableRecord
100
AcDbBlockTableRecord
  2
*D8
340
0
  0
BLOCK_RECORD
  5
1AB6
330
1
100
AcDbSymbolTableRecord
100
AcDbBlockTableRecord
  2
*D9
340
0
  0
BLOCK_RECORD
  5
1B0B
330
1
100
AcDbSymbolTableRecord
100
AcDbBlockTableRecord
  2
*D10
340
0
  0
BLOCK_RECORD
  5
1BF9
330
1
100
AcDbSymbolTableRecord
100
AcDbBlockTableRecord
  2
*D11
340
0
  0
BLOCK_RECORD
  5
1C06
330
1
100
AcDbSymbolTableRecord
100
AcDbBlockTableRecord
  2
*D12
340
0
  0
BLOCK_RECORD
  5
1CA6
330
1
100
AcDbSymbolTableRecord
100
AcDbBlockTableRecord
  2
*D13
340
0
  0
BLOCK_RECORD
  5
1CB3
330
1
100
AcDbSymbolTableRecord
100
AcDbBlockTableRecord
  2
*D14
340
0
  0
BLOCK_RECORD
  5
1D87
330
1
100
AcDbSymbolTableRecord
100
AcDbBlockTableRecord
  2
*D15
340
0
  0
BLOCK_RECORD
  5
1E83
330
1
100
AcDbSymbolTableRecord
100
AcDbBlockTableRecord
  2
*D16
340
0
  0
BLOCK_RECORD
  5
1E90
330
1
100
AcDbSymbolTableRecord
100
AcDbBlockTableRecord
  2
*D17
340
0
  0
BLOCK_RECORD
  5
1E9D
330
1
100
AcDbSymbolTableRecord
100
AcDbBlockTableRecord
  2
*D18
340
0
  0
BLOCK_RECORD
  5
1EAC
330
1
100
AcDbSymbolTableRecord
100
AcDbBlockTableRecord
  2
*D19
340
0
  0
BLOCK_RECORD
  5
1EBB
330
1
100
AcDbSymbolTableRecord
100
AcDbBlockTableRecord
  2
*D20
340
0
  0
BLOCK_RECORD
  5
22D8
330
1
100
AcDbSymbolTableRecord
100
AcDbBlockTableRecord
  2
*D21
340
0
  0
BLOCK_RECORD
  5
22E5
330
1
100
AcDbSymbolTableRecord
100
AcDbBlockTableRecord
  2
*D22
340
0
  0
BLOCK_RECORD
  5
22F2
330
1
100
AcDbSymbolTableRecord
100
AcDbBlockTableRecord
  2
*D23
340
0
  0
BLOCK_RECORD
  5
22FF
330
1
100
AcDbSymbolTableRecord
100
AcDbBlockTableRecord
  2
*D24
340
0
  0
BLOCK_RECORD
  5
230C
330
1
100
AcDbSymbolTableRecord
100
AcDbBlockTableRecord
  2
*D25
340
0
  0
BLOCK_RECORD
  5
2319
330
1
100
AcDbSymbolTableRecord
100
AcDbBlockTableRecord
  2
*D26
340
0
  0
BLOCK_RECORD
  5
2328
330
1
100
AcDbSymbolTableRecord
100
AcDbBlockTableRecord
  2
*D27
340
0
  0
BLOCK_RECORD
  5
2337
330
1
100
AcDbSymbolTableRecord
100
AcDbBlockTableRecord
  2
*D28
340
0
  0
BLOCK_RECORD
  5
2344
330
1
100
AcDbSymbolTableRecord
100
AcDbBlockTableRecord
  2
*D29
340
0
  0
BLOCK_RECORD
  5
2351
330
1
100
AcDbSymbolTableRecord
100
AcDbBlockTableRecord
  2
*D30
340
0
  0
BLOCK_RECORD
  5
235E
330
1
100
AcDbSymbolTableRecord
100
AcDbBlockTableRecord
  2
*D31
340
0
  0
BLOCK_RECORD
  5
236B
330
1
100
AcDbSymbolTableRecord
100
AcDbBlockTableRecord
  2
*D32
340
0
  0
BLOCK_RECORD
  5
2378
330
1
100
AcDbSymbolTableRecord
100
AcDbBlockTableRecord
  2
*D33
340
0
  0
BLOCK_RECORD
  5
2385
330
1
100
AcDbSymbolTableRecord
100
AcDbBlockTableRecord
  2
*D34
340
0
  0
BLOCK_RECORD
  5
239B
330
1
100
AcDbSymbolTableRecord
100
AcDbBlockTableRecord
  2
*D35
340
0
  0
BLOCK_RECORD
  5
23A8
330
1
100
AcDbSymbolTableRecord
100
AcDbBlockTableRecord
  2
*D36
340
0
  0
ENDTAB
  0
ENDSEC
  0
SECTION
  2
BLOCKS
  0
BLOCK
  5
20
330
1F
100
AcDbEntity
  8
0
100
AcDbBlockBegin
  2
*Model_Space
 70
     0
 10
0.0
 20
0.0
 30
0.0
  3
*Model_Space
  1

  0
ENDBLK
  5
21
330
1F
100
AcDbEntity
  8
0
100
AcDbBlockEnd
  0
BLOCK
  5
1C
330
1B
100
AcDbEntity
 67
     1
  8
0
100
AcDbBlockBegin
  2
*Paper_Space
 70
     0
 10
0.0
 20
0.0
 30
0.0
  3
*Paper_Space
  1

  0
ENDBLK
  5
1D
330
1B
100
AcDbEntity
 67
     1
  8
0
100
AcDbBlockEnd
  0
BLOCK
  5
24
330
23
100
AcDbEntity
  8
0
100
AcDbBlockBegin
  2
*Paper_Space0
 70
     0
 10
0.0
 20
0.0
 30
0.0
  3
*Paper_Space0
  1

  0
ENDBLK
  5
25
330
23
100
AcDbEntity
  8
0
100
AcDbBlockEnd
  0
BLOCK
  5
48
330
44
100
AcDbEntity
  8
0
100
AcDbBlockBegin
  2
_OPEN30
 70
     0
 10
0.0
 20
0.0
 30
0.0
  3
_OPEN30
  1

  0
LINE
  5
45
330
44
100
AcDbEntity
  8
0
  6
ByBlock
 62
     0
100
AcDbLine
 10
-1.0
 20
0.26794919
 30
0.0
 11
0.0
 21
0.0
 31
0.0
  0
LINE
  5
46
330
44
100
AcDbEntity
  8
0
  6
ByBlock
 62
     0
100
AcDbLine
 10
0.0
 20
0.0
 30
0.0
 11
-1.0
 21
-0.26794919
 31
0.0
  0
LINE
  5
47
330
44
100
AcDbEntity
  8
0
  6
ByBlock
 62
     0
100
AcDbLine
 10
0.0
 20
0.0
 30
0.0
 11
-1.0
 21
0.0
 31
0.0
  0
ENDBLK
  5
49
330
44
100
AcDbEntity
  8
0
100
AcDbBlockEnd
  0
BLOCK
  5
1526
330
1522
100
AcDbEntity
  8
0
  6
ByBlock
 62
     0
370
    -2
100
AcDbBlockBegin
  2
_OPEN
 70
     2
 10
0.0
 20
0.0
 30
0.0
  3
_OPEN
  1

  0
LINE
  5
1523
330
1522
100
AcDbEntity
  8
0
  6
ByBlock
 62
     0
370
    -2
100
AcDbLine
 10
-1.0
 20
0.166667
 30
0.0
 11
0.0
 21
0.0
 31
0.0
  0
LINE
  5
1524
330
1522
100
AcDbEntity
  8
0
  6
ByBlock
 62
     0
370
    -2
100
AcDbLine
 10
0.0
 20
0.0
 30
0.0
 11
-1.0
 21
-0.166667
 31
0.0
  0
LINE
  5
1525
330
1522
100
AcDbEntity
  8
0
  6
ByBlock
 62
     0
370
    -2
100
AcDbLine
 10
0.0
 20
0.0
 30
0.0
 11
-1.0
 21
0.0
 31
0.0
  0
ENDBLK
  5
1527
330
1522
100
AcDbEntity
  8
0
  6
ByBlock
 62
     0
370
    -2
100
AcDbBlockEnd
  0
BLOCK
  5
1A56
330
1A4C
100
AcDbEntity
  8
0
 62
     3
100
AcDbBlockBegin
  2
*D3
 70
     1
 10
0.0
 20
0.0
 30
0.0
  3
*D3
  1

  0
LINE
  5
2173
330
1A4C
100
AcDbEntity
  8
画層1
 62
     0
370
    -2
100
AcDbLine
 10
514.6512404554189
 20
496.6342431354276
 30
0.0
 11
514.6512404554189
 21
512.3907580321196
 31
0.0
  0
LINE
  5
2174
330
1A4C
100
AcDbEntity
  8
画層1
 62
     0
370
    -2
100
AcDbLine
 10
492.6512404554189
 20
496.6342431354276
 30
0.0
 11
492.6512404554189
 21
512.3907580321196
 31
0.0
  0
LINE
  5
2175
330
1A4C
100
AcDbEntity
  8
画層1
 62
     0
370
    -2
100
AcDbLine
 10
512.1512404554189
 20
511.1407580321196
 30
0.0
 11
495.1512404554189
 21
511.1407580321196
 31
0.0
  0
SOLID
  5
2176
330
1A4C
100
AcDbEntity
  8
画層1
 62
     0
100
AcDbTrace
 10
512.1512404554189
 20
511.5574246987862
 30
0.0
 11
512.1512404554189
 21
510.7240913654528
 31
0.0
 12
514.6512404554189
 22
511.1407580321196
 32
0.0
 13
514.6512404554189
 23
511.1407580321196
 33
0.0
  0
SOLID
  5
2177
330
1A4C
100
AcDbEntity
  8
画層1
 62
     0
100
AcDbTrace
 10
495.1512404554189
 20
511.5574246987862
 30
0.0
 11
495.1512404554189
 21
510.7240913654528
 31
0.0
 12
492.6512404554189
 22
511.1407580321196
 32
0.0
 13
492.6512404554189
 23
511.1407580321196
 33
0.0
  0
MTEXT
  5
2178
330
1A4C
100
AcDbEntity
  8
画層1
 62
     0
100
AcDbMText
 10
503.6512404554189
 20
513.0157580321196
 30
0.0
 40
2.5
 41
0.0
 71
     5
 72
     1
  1
22
 73
     1
 44
1.0
1001
ACAD
1000
MTEXTBEGIN
1070
    73
1070
     1
1070
    44
1040
1.0
1070
    74
1070
     0
1000
MTEXTEND
1000
MTEXTBEGIN
1070
    73
1070
     1
1070
    44
1040
1.0
1070
    74
1070
     0
1000
MTEXTEND
  0
POINT
  5
2179
330
1A4C
100
AcDbEntity
  8
Defpoints
 62
     0
100
AcDbPoint
 10
514.6512404554189
 20
496.0092431354277
 30
0.0
  0
POINT
  5
217A
330
1A4C
100
AcDbEntity
  8
Defpoints
 62
     0
100
AcDbPoint
 10
492.6512404554189
 20
496.0092431354277
 30
0.0
  0
POINT
  5
217B
330
1A4C
100
AcDbEntity
  8
Defpoints
 62
     0
100
AcDbPoint
 10
492.6512404554189
 20
511.1407580321196
 30
0.0
  0
ENDBLK
  5
1A57
330
1A4C
100
AcDbEntity
  8
0
 62
     3
100
AcDbBlockEnd
  0
BLOCK
  5
1A63
330
1A59
100
AcDbEntity
  8
0
 62
     3
100
AcDbBlockBegin
  2
*D4
 70
     1
 10
0.0
 20
0.0
 30
0.0
  3
*D4
  1

  0
LINE
  5
217C
330
1A59
100
AcDbEntity
  8
画層1
 62
     0
370
    -2
100
AcDbLine
 10
486.1512404554189
 20
485.5342431354277
 30
0.0
 11
486.1512404554189
 21
475.751490869393
 31
0.0
  0
LINE
  5
217D
330
1A59
100
AcDbEntity
  8
画層1
 62
     0
370
    -2
100
AcDbLine
 10
521.1512404554189
 20
485.5342431354277
 30
0.0
 11
521.1512404554189
 21
475.751490869393
 31
0.0
  0
LINE
  5
217E
330
1A59
100
AcDbEntity
  8
画層1
 62
     0
370
    -2
100
AcDbLine
 10
488.6512404554189
 20
477.001490869393
 30
0.0
 11
518.6512404554189
 21
477.001490869393
 31
0.0
  0
SOLID
  5
217F
330
1A59
100
AcDbEntity
  8
画層1
 62
     0
100
AcDbTrace
 10
488.6512404554189
 20
477.4181575360596
 30
0.0
 11
488.6512404554189
 21
476.5848242027263
 31
0.0
 12
486.1512404554189
 22
477.001490869393
 32
0.0
 13
486.1512404554189
 23
477.001490869393
 33
0.0
  0
SOLID
  5
2180
330
1A59
100
AcDbEntity
  8
画層1
 62
     0
100
AcDbTrace
 10
518.6512404554189
 20
477.4181575360596
 30
0.0
 11
518.6512404554189
 21
476.5848242027263
 31
0.0
 12
521.1512404554189
 22
477.001490869393
 32
0.0
 13
521.1512404554189
 23
477.001490869393
 33
0.0
  0
MTEXT
  5
2181
330
1A59
100
AcDbEntity
  8
画層1
 62
     0
100
AcDbMText
 10
495.5990952005866
 20
478.876490869393
 30
0.0
 40
2.5
 41
0.0
 71
     5
 72
     1
  1
35
 73
     1
 44
1.0
1001
ACAD
1000
MTEXTBEGIN
1070
    73
1070
     1
1070
    44
1040
1.0
1070
    74
1070
     0
1000
MTEXTEND
1000
MTEXTBEGIN
1070
    73
1070
     1
1070
    44
1040
1.0
1070
    74
1070
     0
1000
MTEXTEND
  0
POINT
  5
2182
330
1A59
100
AcDbEntity
  8
Defpoints
 62
     0
100
AcDbPoint
 10
486.1512404554189
 20
486.1592431354276
 30
0.0
  0
POINT
  5
2183
330
1A59
100
AcDbEntity
  8
Defpoints
 62
     0
100
AcDbPoint
 10
521.1512404554189
 20
486.1592431354276
 30
0.0
  0
POINT
  5
2184
330
1A59
100
AcDbEntity
  8
Defpoints
 62
     0
100
AcDbPoint
 10
521.1512404554189
 20
477.001490869393
 30
0.0
  0
ENDBLK
  5
1A64
330
1A59
100
AcDbEntity
  8
0
 62
     3
100
AcDbBlockEnd
  0
BLOCK
  5
1A72
330
1A66
100
AcDbEntity
  8
0
 62
     3
100
AcDbBlockBegin
  2
*D5
 70
     1
 10
0.0
 20
0.0
 30
0.0
  3
*D5
  1

  0
LINE
  5
2168
330
1A66
100
AcDbEntity
  8
画層1
 62
     0
370
    -2
100
AcDbLine
 10
470.5262404554189
 20
483.7592431354277
 30
0.0
 11
461.5398342698938
 21
483.7592431354277
 31
0.0
  0
LINE
  5
2169
330
1A66
100
AcDbEntity
  8
画層1
 62
     0
370
    -2
100
AcDbLine
 10
485.5262404554189
 20
487.1592431354277
 30
0.0
 11
461.5398342698938
 21
487.1592431354277
 31
0.0
  0
LINE
  5
216A
330
1A66
100
AcDbEntity
  8
画層1
 62
     0
370
    -2
100
AcDbLine
 10
462.7898342698938
 20
481.2592431354277
 30
0.0
 11
462.7898342698938
 21
478.7592431354276
 31
0.0
  0
LINE
  5
216B
330
1A66
100
AcDbEntity
  8
画層1
 62
     0
370
    -2
100
AcDbLine
 10
462.7898342698938
 20
489.6592431354276
 30
0.0
 11
462.7898342698938
 21
498.8259098020943
 31
0.0
  0
LINE
  5
216C
330
1A66
100
AcDbEntity
  8
画層1
 62
     0
370
    -2
100
AcDbLine
 10
462.7898342698938
 20
483.7592431354277
 30
0.0
 11
462.7898342698938
 21
487.1592431354277
 31
0.0
  0
SOLID
  5
216D
330
1A66
100
AcDbEntity
  8
画層1
 62
     0
100
AcDbTrace
 10
462.3731676032271
 20
481.2592431354277
 30
0.0
 11
463.2065009365605
 21
481.2592431354277
 31
0.0
 12
462.7898342698938
 22
483.7592431354277
 32
0.0
 13
462.7898342698938
 23
483.7592431354277
 33
0.0
  0
SOLID
  5
216E
330
1A66
100
AcDbEntity
  8
画層1
 62
     0
100
AcDbTrace
 10
462.3731676032271
 20
489.6592431354276
 30
0.0
 11
463.2065009365605
 21
489.6592431354276
 31
0.0
 12
462.7898342698938
 22
487.1592431354277
 32
0.0
 13
462.7898342698938
 23
487.1592431354277
 33
0.0
  0
MTEXT
  5
216F
330
1A66
100
AcDbEntity
  8
画層1
 62
     0
100
AcDbMText
 10
460.7065009365604
 20
495.4925764687611
 30
0.0
 40
2.5
 41
0.0
 71
     5
 72
     1
  1
3,4
 11
0.0000000000000001
 21
1.0
 31
0.0
 73
     1
 44
1.0
1001
ACAD
1000
MTEXTBEGIN
1070
    73
1070
     1
1070
    44
1040
1.0
1070
    74
1070
     0
1000
MTEXTEND
1000
MTEXTBEGIN
1070
    73
1070
     1
1070
    44
1040
1.0
1070
    74
1070
     0
1000
MTEXTEND
  0
POINT
  5
2170
330
1A66
100
AcDbEntity
  8
Defpoints
 62
     0
100
AcDbPoint
 10
471.1512404554189
 20
483.7592431354277
 30
0.0
  0
POINT
  5
2171
330
1A66
100
AcDbEntity
  8
Defpoints
 62
     0
100
AcDbPoint
 10
486.1512404554189
 20
487.1592431354277
 30
0.0
  0
POINT
  5
2172
330
1A66
100
AcDbEntity
  8
Defpoints
 62
     0
100
AcDbPoint
 10
462.7898342698938
 20
487.1592431354277
 30
0.0
  0
ENDBLK
  5
1A73
330
1A66
100
AcDbEntity
  8
0
 62
     3
100
AcDbBlockEnd
  0
BLOCK
  5
1A81
330
1A75
100
AcDbEntity
  8
0
 62
     3
100
AcDbBlockBegin
  2
*D6
 70
     1
 10
0.0
 20
0.0
 30
0.0
  3
*D6
  1

  0
LINE
  5
218E
330
1A75
100
AcDbEntity
  8
画層1
 62
     0
370
    -2
100
AcDbLine
 10
528.5012404554189
 20
481.6342431354277
 30
0.0
 11
528.5012404554189
 21
475.751490869393
 31
0.0
  0
LINE
  5
218F
330
1A75
100
AcDbEntity
  8
画層1
 62
     0
370
    -2
100
AcDbLine
 10
532.8012404554189
 20
481.6342431354277
 30
0.0
 11
532.8012404554189
 21
475.751490869393
 31
0.0
  0
LINE
  5
2190
330
1A75
100
AcDbEntity
  8
画層1
 62
     0
370
    -2
100
AcDbLine
 10
526.0012404554189
 20
477.001490869393
 30
0.0
 11
523.5012404554189
 21
477.001490869393
 31
0.0
  0
LINE
  5
2191
330
1A75
100
AcDbEntity
  8
画層1
 62
     0
370
    -2
100
AcDbLine
 10
535.3012404554188
 20
477.001490869393
 30
0.0
 11
544.4679071220855
 21
477.001490869393
 31
0.0
  0
LINE
  5
2192
330
1A75
100
AcDbEntity
  8
画層1
 62
     0
370
    -2
100
AcDbLine
 10
528.5012404554189
 20
477.001490869393
 30
0.0
 11
532.8012404554189
 21
477.001490869393
 31
0.0
  0
SOLID
  5
2193
330
1A75
100
AcDbEntity
  8
画層1
 62
     0
100
AcDbTrace
 10
526.0012404554189
 20
477.4181575360596
 30
0.0
 11
526.0012404554189
 21
476.5848242027263
 31
0.0
 12
528.5012404554189
 22
477.001490869393
 32
0.0
 13
528.5012404554189
 23
477.001490869393
 33
0.0
  0
SOLID
  5
2194
330
1A75
100
AcDbEntity
  8
画層1
 62
     0
100
AcDbTrace
 10
535.3012404554188
 20
477.4181575360596
 30
0.0
 11
535.3012404554188
 21
476.5848242027263
 31
0.0
 12
532.8012404554189
 22
477.001490869393
 32
0.0
 13
532.8012404554189
 23
477.001490869393
 33
0.0
  0
MTEXT
  5
2195
330
1A75
100
AcDbEntity
  8
画層1
 62
     0
100
AcDbMText
 10
541.1345737887522
 20
479.0848242027263
 30
0.0
 40
2.5
 41
0.0
 71
     5
 72
     1
  1
4,3
 73
     1
 44
1.0
1001
ACAD
1000
MTEXTBEGIN
1070
    73
1070
     1
1070
    44
1040
1.0
1070
    74
1070
     0
1000
MTEXTEND
1000
MTEXTBEGIN
1070
    73
1070
     1
1070
    44
1040
1.0
1070
    74
1070
     0
1000
MTEXTEND
  0
POINT
  5
2196
330
1A75
100
AcDbEntity
  8
Defpoints
 62
     0
100
AcDbPoint
 10
528.5012404554189
 20
482.2592431354276
 30
0.0
  0
POINT
  5
2197
330
1A75
100
AcDbEntity
  8
Defpoints
 62
     0
100
AcDbPoint
 10
532.8012404554189
 20
482.2592431354276
 30
0.0
  0
POINT
  5
2198
330
1A75
100
AcDbEntity
  8
Defpoints
 62
     0
100
AcDbPoint
 10
532.8012404554189
 20
477.001490869393
 30
0.0
  0
ENDBLK
  5
1A82
330
1A75
100
AcDbEntity
  8
0
 62
     3
100
AcDbBlockEnd
  0
BLOCK
  5
1A90
330
1A84
100
AcDbEntity
  8
0
 62
     3
100
AcDbBlockBegin
  2
*D7
 70
     1
 10
0.0
 20
0.0
 30
0.0
  3
*D7
  1

  0
LINE
  5
215D
330
1A84
100
AcDbEntity
  8
画層1
 62
     0
370
    -2
100
AcDbLine
 10
533.4262404554189
 20
482.2592431354276
 30
0.0
 11
550.7911616627004
 21
482.2592431354276
 31
0.0
  0
LINE
  5
215E
330
1A84
100
AcDbEntity
  8
画層1
 62
     0
370
    -2
100
AcDbLine
 10
536.7762404554189
 20
483.7592431354277
 30
0.0
 11
550.7911616627004
 21
483.7592431354277
 31
0.0
  0
LINE
  5
215F
330
1A84
100
AcDbEntity
  8
画層1
 62
     0
370
    -2
100
AcDbLine
 10
549.5411616627004
 20
486.2592431354276
 30
0.0
 11
549.5411616627004
 21
488.7592431354277
 31
0.0
  0
LINE
  5
2160
330
1A84
100
AcDbEntity
  8
画層1
 62
     0
370
    -2
100
AcDbLine
 10
549.5411616627004
 20
479.7592431354277
 30
0.0
 11
549.5411616627004
 21
471.4259098020944
 31
0.0
  0
LINE
  5
2161
330
1A84
100
AcDbEntity
  8
画層1
 62
     0
370
    -2
100
AcDbLine
 10
549.5411616627004
 20
483.7592431354277
 30
0.0
 11
549.5411616627004
 21
482.2592431354276
 31
0.0
  0
SOLID
  5
2162
330
1A84
100
AcDbEntity
  8
画層1
 62
     0
100
AcDbTrace
 10
549.1244949960338
 20
486.2592431354276
 30
0.0
 11
549.957828329367
 21
486.2592431354276
 31
0.0
 12
549.5411616627004
 22
483.7592431354277
 32
0.0
 13
549.5411616627004
 23
483.7592431354277
 33
0.0
  0
SOLID
  5
2163
330
1A84
100
AcDbEntity
  8
画層1
 62
     0
100
AcDbTrace
 10
549.1244949960338
 20
479.7592431354277
 30
0.0
 11
549.957828329367
 21
479.7592431354277
 31
0.0
 12
549.5411616627004
 22
482.2592431354276
 32
0.0
 13
549.5411616627004
 23
482.2592431354276
 33
0.0
  0
MTEXT
  5
2164
330
1A84
100
AcDbEntity
  8
画層1
 62
     0
100
AcDbMText
 10
547.4578283293669
 20
474.3425764687611
 30
0.0
 40
2.5
 41
0.0
 71
     5
 72
     1
  1
1,5
 11
0.0000000000000001
 21
1.0
 31
0.0
 73
     1
 44
1.0
1001
ACAD
1000
MTEXTBEGIN
1070
    73
1070
     1
1070
    44
1040
1.0
1070
    74
1070
     0
1000
MTEXTEND
1000
MTEXTBEGIN
1070
    73
1070
     1
1070
    44
1040
1.0
1070
    74
1070
     0
1000
MTEXTEND
  0
POINT
  5
2165
330
1A84
100
AcDbEntity
  8
Defpoints
 62
     0
100
AcDbPoint
 10
532.8012404554189
 20
482.2592431354276
 30
0.0
  0
POINT
  5
2166
330
1A84
100
AcDbEntity
  8
Defpoints
 62
     0
100
AcDbPoint
 10
536.1512404554189
 20
483.7592431354277
 30
0.0
  0
POINT
  5
2167
330
1A84
100
AcDbEntity
  8
Defpoints
 62
     0
100
AcDbPoint
 10
549.5411616627004
 20
483.7592431354277
 30
0.0
  0
ENDBLK
  5
1A91
330
1A84
100
AcDbEntity
  8
0
 62
     3
100
AcDbBlockEnd
  0
BLOCK
  5
1AB3
330
1AA9
100
AcDbEntity
  8
0
 62
     3
100
AcDbBlockBegin
  2
*D8
 70
     1
 10
0.0
 20
0.0
 30
0.0
  3
*D8
  1

  0
LINE
  5
2154
330
1AA9
100
AcDbEntity
  8
画層1
 62
     0
370
    -2
100
AcDbLine
 10
536.7762404554189
 20
483.7592431354277
 30
0.0
 11
550.7911616627004
 21
483.7592431354277
 31
0.0
  0
LINE
  5
2155
330
1AA9
100
AcDbEntity
  8
画層1
 62
     0
370
    -2
100
AcDbLine
 10
519.5262404554189
 20
491.7592431354277
 30
0.0
 11
550.7911616627004
 21
491.7592431354277
 31
0.0
  0
LINE
  5
2156
330
1AA9
100
AcDbEntity
  8
画層1
 62
     0
370
    -2
100
AcDbLine
 10
549.5411616627004
 20
486.2592431354276
 30
0.0
 11
549.5411616627004
 21
489.2592431354277
 31
0.0
  0
SOLID
  5
2157
330
1AA9
100
AcDbEntity
  8
画層1
 62
     0
100
AcDbTrace
 10
549.1244949960338
 20
486.2592431354276
 30
0.0
 11
549.957828329367
 21
486.2592431354276
 31
0.0
 12
549.5411616627004
 22
483.7592431354277
 32
0.0
 13
549.5411616627004
 23
483.7592431354277
 33
0.0
  0
SOLID
  5
2158
330
1AA9
100
AcDbEntity
  8
画層1
 62
     0
100
AcDbTrace
 10
549.1244949960338
 20
489.2592431354277
 30
0.0
 11
549.957828329367
 21
489.2592431354277
 31
0.0
 12
549.5411616627004
 22
491.7592431354277
 32
0.0
 13
549.5411616627004
 23
491.7592431354277
 33
0.0
  0
MTEXT
  5
2159
330
1AA9
100
AcDbEntity
  8
画層1
 62
     0
100
AcDbMText
 10
547.6661616627003
 20
487.7592431354277
 30
0.0
 40
2.5
 41
0.0
 71
     5
 72
     1
  1
8
 11
0.0000000000000001
 21
1.0
 31
0.0
 73
     1
 44
1.0
1001
ACAD
1000
MTEXTBEGIN
1070
    73
1070
     1
1070
    44
1040
1.0
1070
    74
1070
     0
1000
MTEXTEND
1000
MTEXTBEGIN
1070
    73
1070
     1
1070
    44
1040
1.0
1070
    74
1070
     0
1000
MTEXTEND
  0
POINT
  5
215A
330
1AA9
100
AcDbEntity
  8
Defpoints
 62
     0
100
AcDbPoint
 10
536.1512404554189
 20
483.7592431354277
 30
0.0
  0
POINT
  5
215B
330
1AA9
100
AcDbEntity
  8
Defpoints
 62
     0
100
AcDbPoint
 10
518.9012404554189
 20
491.7592431354277
 30
0.0
  0
POINT
  5
215C
330
1AA9
100
AcDbEntity
  8
Defpoints
 62
     0
100
AcDbPoint
 10
549.5411616627004
 20
491.7592431354277
 30
0.0
  0
ENDBLK
  5
1AB4
330
1AA9
100
AcDbEntity
  8
0
 62
     3
100
AcDbBlockEnd
  0
BLOCK
  5
1AC0
330
1AB6
100
AcDbEntity
  8
0
 62
     3
100
AcDbBlockBegin
  2
*D9
 70
     1
 10
0.0
 20
0.0
 30
0.0
  3
*D9
  1

  0
LINE
  5
214B
330
1AB6
100
AcDbEntity
  8
画層1
 62
     0
370
    -2
100
AcDbLine
 10
551.4161616627005
 20
483.7592431354277
 30
0.0
 11
557.8643596475942
 21
483.7592431354277
 31
0.0
  0
LINE
  5
214C
330
1AB6
100
AcDbEntity
  8
画層1
 62
     0
370
    -2
100
AcDbLine
 10
534.776240455419
 20
501.5592431354277
 30
0.0
 11
557.8643596475942
 21
501.5592431354277
 31
0.0
  0
LINE
  5
214D
330
1AB6
100
AcDbEntity
  8
画層1
 62
     0
370
    -2
100
AcDbLine
 10
556.6143596475942
 20
486.2592431354276
 30
0.0
 11
556.6143596475942
 21
499.0592431354277
 31
0.0
  0
SOLID
  5
214E
330
1AB6
100
AcDbEntity
  8
画層1
 62
     0
100
AcDbTrace
 10
556.1976929809276
 20
486.2592431354276
 30
0.0
 11
557.0310263142609
 21
486.2592431354276
 31
0.0
 12
556.6143596475942
 22
483.7592431354277
 32
0.0
 13
556.6143596475942
 23
483.7592431354277
 33
0.0
  0
SOLID
  5
214F
330
1AB6
100
AcDbEntity
  8
画層1
 62
     0
100
AcDbTrace
 10
556.1976929809276
 20
499.0592431354277
 30
0.0
 11
557.0310263142609
 21
499.0592431354277
 31
0.0
 12
556.6143596475942
 22
501.5592431354277
 32
0.0
 13
556.6143596475942
 23
501.5592431354277
 33
0.0
  0
MTEXT
  5
2150
330
1AB6
100
AcDbEntity
  8
画層1
 62
     0
100
AcDbMText
 10
554.5310263142607
 20
492.6592431354277
 30
0.0
 40
2.5
 41
0.0
 71
     5
 72
     1
  1
17,8
 11
0.0000000000000001
 21
1.0
 31
0.0
 73
     1
 44
1.0
1001
ACAD
1000
MTEXTBEGIN
1070
    73
1070
     1
1070
    44
1040
1.0
1070
    74
1070
     0
1000
MTEXTEND
1000
MTEXTBEGIN
1070
    73
1070
     1
1070
    44
1040
1.0
1070
    74
1070
     0
1000
MTEXTEND
  0
POINT
  5
2151
330
1AB6
100
AcDbEntity
  8
Defpoints
 62
     0
100
AcDbPoint
 10
550.7911616627004
 20
483.7592431354277
 30
0.0
  0
POINT
  5
2152
330
1AB6
100
AcDbEntity
  8
Defpoints
 62
     0
100
AcDbPoint
 10
534.151240455419
 20
501.5592431354277
 30
0.0
  0
POINT
  5
2153
330
1AB6
100
AcDbEntity
  8
Defpoints
 62
     0
100
AcDbPoint
 10
556.6143596475942
 20
501.5592431354277
 30
0.0
  0
ENDBLK
  5
1AC1
330
1AB6
100
AcDbEntity
  8
0
 62
     3
100
AcDbBlockEnd
  0
BLOCK
  5
1B15
330
1B0B
100
AcDbEntity
  8
0
 62
     3
100
AcDbBlockBegin
  2
*D10
 70
     1
 10
0.0
 20
0.0
 30
0.0
  3
*D10
  1

  0
LINE
  5
2185
330
1B0B
100
AcDbEntity
  8
画層1
 62
     0
370
    -2
100
AcDbLine
 10
503.6512404554189
 20
478.1342431354277
 30
0.0
 11
503.6512404554189
 21
467.9477993278658
 31
0.0
  0
LINE
  5
2186
330
1B0B
100
AcDbEntity
  8
画層1
 62
     0
370
    -2
100
AcDbLine
 10
530.6512404554189
 20
481.6342431354277
 30
0.0
 11
530.6512404554189
 21
467.9477993278658
 31
0.0
  0
LINE
  5
2187
330
1B0B
100
AcDbEntity
  8
画層1
 62
     0
370
    -2
100
AcDbLine
 10
506.1512404554189
 20
469.1977993278658
 30
0.0
 11
528.1512404554189
 21
469.1977993278658
 31
0.0
  0
SOLID
  5
2188
330
1B0B
100
AcDbEntity
  8
画層1
 62
     0
100
AcDbTrace
 10
506.1512404554189
 20
469.6144659945325
 30
0.0
 11
506.1512404554189
 21
468.7811326611991
 31
0.0
 12
503.6512404554189
 22
469.1977993278658
 32
0.0
 13
503.6512404554189
 23
469.1977993278658
 33
0.0
  0
SOLID
  5
2189
330
1B0B
100
AcDbEntity
  8
画層1
 62
     0
100
AcDbTrace
 10
528.1512404554189
 20
469.6144659945325
 30
0.0
 11
528.1512404554189
 21
468.7811326611991
 31
0.0
 12
530.6512404554189
 22
469.1977993278658
 32
0.0
 13
530.6512404554189
 23
469.1977993278658
 33
0.0
  0
MTEXT
  5
218A
330
1B0B
100
AcDbEntity
  8
画層1
 62
     0
100
AcDbMText
 10
517.1512404554189
 20
471.0727993278658
 30
0.0
 40
2.5
 41
0.0
 71
     5
 72
     1
  1
27
 73
     1
 44
1.0
1001
ACAD
1000
MTEXTBEGIN
1070
    73
1070
     1
1070
    44
1040
1.0
1070
    74
1070
     0
1000
MTEXTEND
1000
MTEXTBEGIN
1070
    73
1070
     1
1070
    44
1040
1.0
1070
    74
1070
     0
1000
MTEXTEND
  0
POINT
  5
218B
330
1B0B
100
AcDbEntity
  8
Defpoints
 62
     0
100
AcDbPoint
 10
503.6512404554189
 20
478.7592431354276
 30
0.0
  0
POINT
  5
218C
330
1B0B
100
AcDbEntity
  8
Defpoints
 62
     0
100
AcDbPoint
 10
530.6512404554189
 20
482.2592431354276
 30
0.0
  0
POINT
  5
218D
330
1B0B
100
AcDbEntity
  8
Defpoints
 62
     0
100
AcDbPoint
 10
530.6512404554189
 20
469.1977993278658
 30
0.0
  0
ENDBLK
  5
1B16
330
1B0B
100
AcDbEntity
  8
0
 62
     3
100
AcDbBlockEnd
  0
BLOCK
  5
1C03
330
1BF9
100
AcDbEntity
  8
0
 62
     3
100
AcDbBlockBegin
  2
*D11
 70
     1
 10
0.0
 20
0.0
 30
0.0
  3
*D11
  1

  0
LINE
  5
21AB
330
1BF9
100
AcDbEntity
  8
画層1
 62
     0
370
    -2
100
AcDbLine
 10
606.5019166466811
 20
483.1342431354276
 30
0.0
 11
606.5019166466811
 21
475.751490869393
 31
0.0
  0
LINE
  5
21AC
330
1BF9
100
AcDbEntity
  8
画層1
 62
     0
370
    -2
100
AcDbLine
 10
580.5019166466811
 20
483.1342431354276
 30
0.0
 11
580.5019166466811
 21
475.751490869393
 31
0.0
  0
LINE
  5
21AD
330
1BF9
100
AcDbEntity
  8
画層1
 62
     0
370
    -2
100
AcDbLine
 10
604.0019166466811
 20
477.001490869393
 30
0.0
 11
583.0019166466811
 21
477.001490869393
 31
0.0
  0
SOLID
  5
21AE
330
1BF9
100
AcDbEntity
  8
画層1
 62
     0
100
AcDbTrace
 10
604.0019166466811
 20
477.4181575360596
 30
0.0
 11
604.0019166466811
 21
476.5848242027263
 31
0.0
 12
606.5019166466811
 22
477.001490869393
 32
0.0
 13
606.5019166466811
 23
477.001490869393
 33
0.0
  0
SOLID
  5
21AF
330
1BF9
100
AcDbEntity
  8
画層1
 62
     0
100
AcDbTrace
 10
583.0019166466811
 20
477.4181575360596
 30
0.0
 11
583.0019166466811
 21
476.5848242027263
 31
0.0
 12
580.5019166466811
 22
477.001490869393
 32
0.0
 13
580.5019166466811
 23
477.001490869393
 33
0.0
  0
MTEXT
  5
21B0
330
1BF9
100
AcDbEntity
  8
画層1
 62
     0
100
AcDbMText
 10
593.5019166466811
 20
478.876490869393
 30
0.0
 40
2.5
 41
0.0
 71
     5
 72
     1
  1
26
 73
     1
 44
1.0
1001
ACAD
1000
MTEXTBEGIN
1070
    73
1070
     1
1070
    44
1040
1.0
1070
    74
1070
     0
1000
MTEXTEND
1000
MTEXTBEGIN
1070
    73
1070
     1
1070
    44
1040
1.0
1070
    74
1070
     0
1000
MTEXTEND
  0
POINT
  5
21B1
330
1BF9
100
AcDbEntity
  8
Defpoints
 62
     0
100
AcDbPoint
 10
606.5019166466811
 20
483.7592431354277
 30
0.0
  0
POINT
  5
21B2
330
1BF9
100
AcDbEntity
  8
Defpoints
 62
     0
100
AcDbPoint
 10
580.5019166466811
 20
483.7592431354277
 30
0.0
  0
POINT
  5
21B3
330
1BF9
100
AcDbEntity
  8
Defpoints
 62
     0
100
AcDbPoint
 10
580.5019166466811
 20
477.001490869393
 30
0.0
  0
ENDBLK
  5
1C04
330
1BF9
100
AcDbEntity
  8
0
 62
     3
100
AcDbBlockEnd
  0
BLOCK
  5
1C12
330
1C06
100
AcDbEntity
  8
0
 62
     3
100
AcDbBlockBegin
  2
*D12
 70
     1
 10
0.0
 20
0.0
 30
0.0
  3
*D12
  1

  0
LINE
  5
21B4
330
1C06
100
AcDbEntity
  8
画層1
 62
     0
370
    -2
100
AcDbLine
 10
579.5019166466811
 20
483.6342431354276
 30
0.0
 11
579.5019166466811
 21
475.751490869393
 31
0.0
  0
LINE
  5
21B5
330
1C06
100
AcDbEntity
  8
画層1
 62
     0
370
    -2
100
AcDbLine
 10
580.5019166466811
 20
477.626490869393
 30
0.0
 11
580.5019166466811
 21
478.251490869393
 31
0.0
  0
LINE
  5
21B6
330
1C06
100
AcDbEntity
  8
画層1
 62
     0
370
    -2
100
AcDbLine
 10
583.0019166466811
 20
477.001490869393
 30
0.0
 11
585.5019166466811
 21
477.001490869393
 31
0.0
  0
LINE
  5
21B7
330
1C06
100
AcDbEntity
  8
画層1
 62
     0
370
    -2
100
AcDbLine
 10
577.0019166466811
 20
477.001490869393
 30
0.0
 11
572.4185833133478
 21
477.001490869393
 31
0.0
  0
LINE
  5
21B8
330
1C06
100
AcDbEntity
  8
画層1
 62
     0
370
    -2
100
AcDbLine
 10
580.5019166466811
 20
477.001490869393
 30
0.0
 11
579.5019166466811
 21
477.001490869393
 31
0.0
  0
SOLID
  5
21B9
330
1C06
100
AcDbEntity
  8
画層1
 62
     0
100
AcDbTrace
 10
583.0019166466811
 20
477.4181575360596
 30
0.0
 11
583.0019166466811
 21
476.5848242027263
 31
0.0
 12
580.5019166466811
 22
477.001490869393
 32
0.0
 13
580.5019166466811
 23
477.001490869393
 33
0.0
  0
SOLID
  5
21BA
330
1C06
100
AcDbEntity
  8
画層1
 62
     0
100
AcDbTrace
 10
577.0019166466811
 20
477.4181575360596
 30
0.0
 11
577.0019166466811
 21
476.5848242027263
 31
0.0
 12
579.5019166466811
 22
477.001490869393
 32
0.0
 13
579.5019166466811
 23
477.001490869393
 33
0.0
  0
MTEXT
  5
21BB
330
1C06
100
AcDbEntity
  8
画層1
 62
     0
100
AcDbMText
 10
573.4602499800145
 20
478.876490869393
 30
0.0
 40
2.5
 41
0.0
 71
     5
 72
     1
  1
1
 73
     1
 44
1.0
1001
ACAD
1000
MTEXTBEGIN
1070
    73
1070
     1
1070
    44
1040
1.0
1070
    74
1070
     0
1000
MTEXTEND
1000
MTEXTBEGIN
1070
    73
1070
     1
1070
    44
1040
1.0
1070
    74
1070
     0
1000
MTEXTEND
  0
POINT
  5
21BC
330
1C06
100
AcDbEntity
  8
Defpoints
 62
     0
100
AcDbPoint
 10
579.5019166466811
 20
484.2592431354277
 30
0.0
  0
POINT
  5
21BD
330
1C06
100
AcDbEntity
  8
Defpoints
 62
     0
100
AcDbPoint
 10
580.5019166466811
 20
477.001490869393
 30
0.0
  0
POINT
  5
21BE
330
1C06
100
AcDbEntity
  8
Defpoints
 62
     0
100
AcDbPoint
 10
580.5019166466811
 20
477.001490869393
 30
0.0
  0
ENDBLK
  5
1C13
330
1C06
100
AcDbEntity
  8
0
 62
     3
100
AcDbBlockEnd
  0
BLOCK
  5
1CB0
330
1CA6
100
AcDbEntity
  8
0
 62
     3
100
AcDbBlockBegin
  2
*D13
 70
     1
 10
0.0
 20
0.0
 30
0.0
  3
*D13
  1

  0
LINE
  5
2142
330
1CA6
100
AcDbEntity
  8
画層1
 62
     0
370
    -2
100
AcDbLine
 10
536.7762404554189
 20
540.7497838232785
 30
0.0
 11
551.0607339590321
 21
540.7497838232785
 31
0.0
  0
LINE
  5
2143
330
1CA6
100
AcDbEntity
  8
画層1
 62
     0
370
    -2
100
AcDbLine
 10
536.7762404554189
 20
566.7497838232785
 30
0.0
 11
551.0607339590321
 21
566.7497838232785
 31
0.0
  0
LINE
  5
2144
330
1CA6
100
AcDbEntity
  8
画層1
 62
     0
370
    -2
100
AcDbLine
 10
549.8107339590322
 20
543.2497838232785
 30
0.0
 11
549.8107339590322
 21
564.2497838232785
 31
0.0
  0
SOLID
  5
2145
330
1CA6
100
AcDbEntity
  8
画層1
 62
     0
100
AcDbTrace
 10
549.3940672923655
 20
543.2497838232785
 30
0.0
 11
550.2274006256988
 21
543.2497838232785
 31
0.0
 12
549.8107339590322
 22
540.7497838232785
 32
0.0
 13
549.8107339590322
 23
540.7497838232785
 33
0.0
  0
SOLID
  5
2146
330
1CA6
100
AcDbEntity
  8
画層1
 62
     0
100
AcDbTrace
 10
549.3940672923655
 20
564.2497838232785
 30
0.0
 11
550.2274006256988
 21
564.2497838232785
 31
0.0
 12
549.8107339590322
 22
566.7497838232785
 32
0.0
 13
549.8107339590322
 23
566.7497838232785
 33
0.0
  0
MTEXT
  5
2147
330
1CA6
100
AcDbEntity
  8
画層1
 62
     0
100
AcDbMText
 10
547.935733959032
 20
553.7497838232787
 30
0.0
 40
2.5
 41
0.0
 71
     5
 72
     1
  1
26
 11
0.0000000000000001
 21
1.0
 31
0.0
 73
     1
 44
1.0
1001
ACAD
1000
MTEXTBEGIN
1070
    73
1070
     1
1070
    44
1040
1.0
1070
    74
1070
     0
1000
MTEXTEND
1000
MTEXTBEGIN
1070
    73
1070
     1
1070
    44
1040
1.0
1070
    74
1070
     0
1000
MTEXTEND
  0
POINT
  5
2148
330
1CA6
100
AcDbEntity
  8
Defpoints
 62
     0
100
AcDbPoint
 10
536.1512404554189
 20
540.7497838232785
 30
0.0
  0
POINT
  5
2149
330
1CA6
100
AcDbEntity
  8
Defpoints
 62
     0
100
AcDbPoint
 10
536.1512404554189
 20
566.7497838232785
 30
0.0
  0
POINT
  5
214A
330
1CA6
100
AcDbEntity
  8
Defpoints
 62
     0
100
AcDbPoint
 10
549.8107339590322
 20
566.7497838232785
 30
0.0
  0
ENDBLK
  5
1CB1
330
1CA6
100
AcDbEntity
  8
0
 62
     3
100
AcDbBlockEnd
  0
BLOCK
  5
1CBD
330
1CB3
100
AcDbEntity
  8
0
 62
     3
100
AcDbBlockBegin
  2
*D14
 70
     1
 10
0.0
 20
0.0
 30
0.0
  3
*D14
  1

  0
LINE
  5
21A2
330
1CB3
100
AcDbEntity
  8
画層1
 62
     0
370
    -2
100
AcDbLine
 10
471.1512404554189
 20
567.3747838232785
 30
0.0
 11
471.1512404554189
 21
577.7823031360994
 31
0.0
  0
LINE
  5
21A3
330
1CB3
100
AcDbEntity
  8
画層1
 62
     0
370
    -2
100
AcDbLine
 10
536.1512404554189
 20
567.3747838232785
 30
0.0
 11
536.1512404554189
 21
577.7823031360994
 31
0.0
  0
LINE
  5
21A4
330
1CB3
100
AcDbEntity
  8
画層1
 62
     0
370
    -2
100
AcDbLine
 10
473.6512404554189
 20
576.5323031360995
 30
0.0
 11
533.6512404554189
 21
576.5323031360995
 31
0.0
  0
SOLID
  5
21A5
330
1CB3
100
AcDbEntity
  8
画層1
 62
     0
100
AcDbTrace
 10
473.6512404554189
 20
576.9489698027661
 30
0.0
 11
473.6512404554189
 21
576.1156364694328
 31
0.0
 12
471.1512404554189
 22
576.5323031360995
 32
0.0
 13
471.1512404554189
 23
576.5323031360995
 33
0.0
  0
SOLID
  5
21A6
330
1CB3
100
AcDbEntity
  8
画層1
 62
     0
100
AcDbTrace
 10
533.6512404554189
 20
576.9489698027661
 30
0.0
 11
533.6512404554189
 21
576.1156364694328
 31
0.0
 12
536.1512404554189
 22
576.5323031360995
 32
0.0
 13
536.1512404554189
 23
576.5323031360995
 33
0.0
  0
MTEXT
  5
21A7
330
1CB3
100
AcDbEntity
  8
画層1
 62
     0
100
AcDbMText
 10
503.6512404554189
 20
578.4073031360994
 30
0.0
 40
2.5
 41
0.0
 71
     5
 72
     1
  1
65
 73
     1
 44
1.0
1001
ACAD
1000
MTEXTBEGIN
1070
    73
1070
     1
1070
    44
1040
1.0
1070
    74
1070
     0
1000
MTEXTEND
1000
MTEXTBEGIN
1070
    73
1070
     1
1070
    44
1040
1.0
1070
    74
1070
     0
1000
MTEXTEND
  0
POINT
  5
21A8
330
1CB3
100
AcDbEntity
  8
Defpoints
 62
     0
100
AcDbPoint
 10
471.1512404554189
 20
566.7497838232785
 30
0.0
  0
POINT
  5
21A9
330
1CB3
100
AcDbEntity
  8
Defpoints
 62
     0
100
AcDbPoint
 10
536.1512404554189
 20
566.7497838232785
 30
0.0
  0
POINT
  5
21AA
330
1CB3
100
AcDbEntity
  8
Defpoints
 62
     0
100
AcDbPoint
 10
536.1512404554189
 20
576.5323031360995
 30
0.0
  0
ENDBLK
  5
1CBE
330
1CB3
100
AcDbEntity
  8
0
 62
     3
100
AcDbBlockEnd
  0
BLOCK
  5
1D91
330
1D87
100
AcDbEntity
  8
0
 62
     3
100
AcDbBlockBegin
  2
*D15
 70
     1
 10
0.0
 20
0.0
 30
0.0
  3
*D15
  1

  0
LINE
  5
2199
330
1D87
100
AcDbEntity
  8
画層1
 62
     0
370
    -2
100
AcDbLine
 10
483.1512404554189
 20
546.6247838232785
 30
0.0
 11
483.1512404554189
 21
528.9700038570128
 31
0.0
  0
LINE
  5
219A
330
1D87
100
AcDbEntity
  8
画層1
 62
     0
370
    -2
100
AcDbLine
 10
524.1512404554189
 20
546.6247838232785
 30
0.0
 11
524.1512404554189
 21
528.9700038570128
 31
0.0
  0
LINE
  5
219B
330
1D87
100
AcDbEntity
  8
画層1
 62
     0
370
    -2
100
AcDbLine
 10
485.6512404554189
 20
530.2200038570127
 30
0.0
 11
521.6512404554189
 21
530.2200038570127
 31
0.0
  0
SOLID
  5
219C
330
1D87
100
AcDbEntity
  8
画層1
 62
     0
100
AcDbTrace
 10
485.6512404554189
 20
530.6366705236793
 30
0.0
 11
485.6512404554189
 21
529.8033371903462
 31
0.0
 12
483.1512404554189
 22
530.2200038570127
 32
0.0
 13
483.1512404554189
 23
530.2200038570127
 33
0.0
  0
SOLID
  5
219D
330
1D87
100
AcDbEntity
  8
画層1
 62
     0
100
AcDbTrace
 10
521.6512404554189
 20
530.6366705236793
 30
0.0
 11
521.6512404554189
 21
529.8033371903462
 31
0.0
 12
524.1512404554189
 22
530.2200038570127
 32
0.0
 13
524.1512404554189
 23
530.2200038570127
 33
0.0
  0
MTEXT
  5
219E
330
1D87
100
AcDbEntity
  8
画層1
 62
     0
100
AcDbMText
 10
503.6512404554189
 20
532.0950038570128
 30
0.0
 40
2.5
 41
0.0
 71
     5
 72
     1
  1
41
 73
     1
 44
1.0
1001
ACAD
1000
MTEXTBEGIN
1070
    73
1070
     1
1070
    44
1040
1.0
1070
    74
1070
     0
1000
MTEXTEND
1000
MTEXTBEGIN
1070
    73
1070
     1
1070
    44
1040
1.0
1070
    74
1070
     0
1000
MTEXTEND
  0
POINT
  5
219F
330
1D87
100
AcDbEntity
  8
Defpoints
 62
     0
100
AcDbPoint
 10
483.1512404554189
 20
547.2497838232786
 30
0.0
  0
POINT
  5
21A0
330
1D87
100
AcDbEntity
  8
Defpoints
 62
     0
100
AcDbPoint
 10
524.1512404554189
 20
547.2497838232786
 30
0.0
  0
POINT
  5
21A1
330
1D87
100
AcDbEntity
  8
Defpoints
 62
     0
100
AcDbPoint
 10
524.1512404554189
 20
530.2200038570127
 30
0.0
  0
ENDBLK
  5
1D92
330
1D87
100
AcDbEntity
  8
0
 62
     3
100
AcDbBlockEnd
  0
BLOCK
  5
1E8D
330
1E83
100
AcDbEntity
  8
0
 62
     3
100
AcDbBlockBegin
  2
*D16
 70
     1
 10
0.0
 20
0.0
 30
0.0
  3
*D16
  1

  0
LINE
  5
21D5
330
1E83
100
AcDbEntity
  8
画層1
 62
     0
370
    -2
100
AcDbLine
 10
640.3807788644678
 20
569.3747838232785
 30
0.0
 11
640.3807788644678
 21
577.7823031360994
 31
0.0
  0
LINE
  5
21D6
330
1E83
100
AcDbEntity
  8
画層1
 62
     0
370
    -2
100
AcDbLine
 10
575.3807788644678
 20
569.3747838232785
 30
0.0
 11
575.3807788644678
 21
577.7823031360994
 31
0.0
  0
LINE
  5
21D7
330
1E83
100
AcDbEntity
  8
画層1
 62
     0
370
    -2
100
AcDbLine
 10
637.8807788644678
 20
576.5323031360995
 30
0.0
 11
577.8807788644678
 21
576.5323031360995
 31
0.0
  0
SOLID
  5
21D8
330
1E83
100
AcDbEntity
  8
画層1
 62
     0
100
AcDbTrace
 10
637.8807788644678
 20
576.9489698027661
 30
0.0
 11
637.8807788644678
 21
576.1156364694328
 31
0.0
 12
640.3807788644678
 22
576.5323031360995
 32
0.0
 13
640.3807788644678
 23
576.5323031360995
 33
0.0
  0
SOLID
  5
21D9
330
1E83
100
AcDbEntity
  8
画層1
 62
     0
100
AcDbTrace
 10
577.8807788644678
 20
576.9489698027661
 30
0.0
 11
577.8807788644678
 21
576.1156364694328
 31
0.0
 12
575.3807788644678
 22
576.5323031360995
 32
0.0
 13
575.3807788644678
 23
576.5323031360995
 33
0.0
  0
MTEXT
  5
21DA
330
1E83
100
AcDbEntity
  8
画層1
 62
     0
100
AcDbMText
 10
607.8807788644678
 20
578.4073031360994
 30
0.0
 40
2.5
 41
0.0
 71
     5
 72
     1
  1
65
 73
     1
 44
1.0
1001
ACAD
1000
MTEXTBEGIN
1070
    73
1070
     1
1070
    44
1040
1.0
1070
    74
1070
     0
1000
MTEXTEND
1000
MTEXTBEGIN
1070
    73
1070
     1
1070
    44
1040
1.0
1070
    74
1070
     0
1000
MTEXTEND
  0
POINT
  5
21DB
330
1E83
100
AcDbEntity
  8
Defpoints
 62
     0
100
AcDbPoint
 10
640.3807788644678
 20
568.7497838232785
 30
0.0
  0
POINT
  5
21DC
330
1E83
100
AcDbEntity
  8
Defpoints
 62
     0
100
AcDbPoint
 10
575.3807788644678
 20
568.7497838232785
 30
0.0
  0
POINT
  5
21DD
330
1E83
100
AcDbEntity
  8
Defpoints
 62
     0
100
AcDbPoint
 10
575.3807788644678
 20
576.5323031360995
 30
0.0
  0
ENDBLK
  5
1E8E
330
1E83
100
AcDbEntity
  8
0
 62
     3
100
AcDbBlockEnd
  0
BLOCK
  5
1E9A
330
1E90
100
AcDbEntity
  8
0
 62
     3
100
AcDbBlockBegin
  2
*D17
 70
     1
 10
0.0
 20
0.0
 30
0.0
  3
*D17
  1

  0
LINE
  5
21DE
330
1E90
100
AcDbEntity
  8
画層1
 62
     0
370
    -2
100
AcDbLine
 10
640.0057788644678
 20
569.7497838232785
 30
0.0
 11
650.0240429912014
 21
569.7497838232785
 31
0.0
  0
LINE
  5
21DF
330
1E90
100
AcDbEntity
  8
画層1
 62
     0
370
    -2
100
AcDbLine
 10
640.0057788644678
 20
551.5497838232785
 30
0.0
 11
650.0240429912014
 21
551.5497838232785
 31
0.0
  0
LINE
  5
21E0
330
1E90
100
AcDbEntity
  8
画層1
 62
     0
370
    -2
100
AcDbLine
 10
648.7740429912014
 20
567.2497838232785
 30
0.0
 11
648.7740429912014
 21
554.0497838232785
 31
0.0
  0
SOLID
  5
21E1
330
1E90
100
AcDbEntity
  8
画層1
 62
     0
100
AcDbTrace
 10
648.3573763245348
 20
567.2497838232785
 30
0.0
 11
649.190709657868
 21
567.2497838232785
 31
0.0
 12
648.7740429912014
 22
569.7497838232785
 32
0.0
 13
648.7740429912014
 23
569.7497838232785
 33
0.0
  0
SOLID
  5
21E2
330
1E90
100
AcDbEntity
  8
画層1
 62
     0
100
AcDbTrace
 10
648.3573763245348
 20
554.0497838232785
 30
0.0
 11
649.190709657868
 21
554.0497838232785
 31
0.0
 12
648.7740429912014
 22
551.5497838232785
 32
0.0
 13
648.7740429912014
 23
551.5497838232785
 33
0.0
  0
MTEXT
  5
21E3
330
1E90
100
AcDbEntity
  8
画層1
 62
     0
100
AcDbMText
 10
646.690709657868
 20
560.6497838232786
 30
0.0
 40
2.5
 41
0.0
 71
     5
 72
     1
  1
18,2
 11
0.0000000000000001
 21
1.0
 31
0.0
 73
     1
 44
1.0
1001
ACAD
1000
MTEXTBEGIN
1070
    73
1070
     1
1070
    44
1040
1.0
1070
    74
1070
     0
1000
MTEXTEND
1000
MTEXTBEGIN
1070
    73
1070
     1
1070
    44
1040
1.0
1070
    74
1070
     0
1000
MTEXTEND
  0
POINT
  5
21E4
330
1E90
100
AcDbEntity
  8
Defpoints
 62
     0
100
AcDbPoint
 10
639.3807788644679
 20
569.7497838232785
 30
0.0
  0
POINT
  5
21E5
330
1E90
100
AcDbEntity
  8
Defpoints
 62
     0
100
AcDbPoint
 10
639.3807788644679
 20
551.5497838232785
 30
0.0
  0
POINT
  5
21E6
330
1E90
100
AcDbEntity
  8
Defpoints
 62
     0
100
AcDbPoint
 10
648.7740429912014
 20
551.5497838232785
 30
0.0
  0
ENDBLK
  5
1E9B
330
1E90
100
AcDbEntity
  8
0
 62
     3
100
AcDbBlockEnd
  0
BLOCK
  5
1EA9
330
1E9D
100
AcDbEntity
  8
0
 62
     3
100
AcDbBlockBegin
  2
*D18
 70
     1
 10
0.0
 20
0.0
 30
0.0
  3
*D18
  1

  0
LINE
  5
21E7
330
1E9D
100
AcDbEntity
  8
画層1
 62
     0
370
    -2
100
AcDbLine
 10
665.1922019519738
 20
570.3747838232785
 30
0.0
 11
665.1922019519738
 21
577.7823031360994
 31
0.0
  0
LINE
  5
21E8
330
1E9D
100
AcDbEntity
  8
画層1
 62
     0
370
    -2
100
AcDbLine
 10
666.6922019519738
 20
570.3747838232785
 30
0.0
 11
666.6922019519738
 21
577.7823031360994
 31
0.0
  0
LINE
  5
21E9
330
1E9D
100
AcDbEntity
  8
画層1
 62
     0
370
    -2
100
AcDbLine
 10
662.6922019519739
 20
576.5323031360995
 30
0.0
 11
660.1922019519738
 21
576.5323031360995
 31
0.0
  0
LINE
  5
21EA
330
1E9D
100
AcDbEntity
  8
画層1
 62
     0
370
    -2
100
AcDbLine
 10
669.1922019519738
 20
576.5323031360995
 30
0.0
 11
677.5255352853072
 21
576.5323031360995
 31
0.0
  0
LINE
  5
21EB
330
1E9D
100
AcDbEntity
  8
画層1
 62
     0
370
    -2
100
AcDbLine
 10
665.1922019519738
 20
576.5323031360995
 30
0.0
 11
666.6922019519738
 21
576.5323031360995
 31
0.0
  0
SOLID
  5
21EC
330
1E9D
100
AcDbEntity
  8
画層1
 62
     0
100
AcDbTrace
 10
662.6922019519739
 20
576.9489698027661
 30
0.0
 11
662.6922019519739
 21
576.1156364694328
 31
0.0
 12
665.1922019519738
 22
576.5323031360995
 32
0.0
 13
665.1922019519738
 23
576.5323031360995
 33
0.0
  0
SOLID
  5
21ED
330
1E9D
100
AcDbEntity
  8
画層1
 62
     0
100
AcDbTrace
 10
669.1922019519738
 20
576.9489698027661
 30
0.0
 11
669.1922019519738
 21
576.1156364694328
 31
0.0
 12
666.6922019519738
 22
576.5323031360995
 32
0.0
 13
666.6922019519738
 23
576.5323031360995
 33
0.0
  0
MTEXT
  5
21EE
330
1E9D
100
AcDbEntity
  8
画層1
 62
     0
100
AcDbMText
 10
674.6088686186404
 20
578.6156364694328
 30
0.0
 40
2.5
 41
0.0
 71
     5
 72
     1
  1
1,5
 73
     1
 44
1.0
1001
ACAD
1000
MTEXTBEGIN
1070
    73
1070
     1
1070
    44
1040
1.0
1070
    74
1070
     0
1000
MTEXTEND
1000
MTEXTBEGIN
1070
    73
1070
     1
1070
    44
1040
1.0
1070
    74
1070
     0
1000
MTEXTEND
  0
POINT
  5
21EF
330
1E9D
100
AcDbEntity
  8
Defpoints
 62
     0
100
AcDbPoint
 10
665.1922019519738
 20
569.7497838232785
 30
0.0
  0
POINT
  5
21F0
330
1E9D
100
AcDbEntity
  8
Defpoints
 62
     0
100
AcDbPoint
 10
666.6922019519738
 20
569.7497838232785
 30
0.0
  0
POINT
  5
21F1
330
1E9D
100
AcDbEntity
  8
Defpoints
 62
     0
100
AcDbPoint
 10
666.6922019519738
 20
576.5323031360995
 30
0.0
  0
ENDBLK
  5
1EAA
330
1E9D
100
AcDbEntity
  8
0
 62
     3
100
AcDbBlockEnd
  0
BLOCK
  5
1EB8
330
1EAC
100
AcDbEntity
  8
0
 62
     3
100
AcDbBlockBegin
  2
*D19
 70
     1
 10
0.0
 20
0.0
 30
0.0
  3
*D19
  1

  0
LINE
  5
21CA
330
1EAC
100
AcDbEntity
  8
画層1
 62
     0
370
    -2
100
AcDbLine
 10
666.2922019519738
 20
540.1247838232785
 30
0.0
 11
666.2922019519738
 21
537.6846910615422
 31
0.0
  0
LINE
  5
21CB
330
1EAC
100
AcDbEntity
  8
画層1
 62
     0
370
    -2
100
AcDbLine
 10
665.1922019519738
 20
550.9247838232783
 30
0.0
 11
665.1922019519738
 21
537.6846910615422
 31
0.0
  0
LINE
  5
21CC
330
1EAC
100
AcDbEntity
  8
画層1
 62
     0
370
    -2
100
AcDbLine
 10
668.7922019519739
 20
538.9346910615422
 30
0.0
 11
671.2922019519738
 21
538.9346910615422
 31
0.0
  0
LINE
  5
21CD
330
1EAC
100
AcDbEntity
  8
画層1
 62
     0
370
    -2
100
AcDbLine
 10
662.6922019519739
 20
538.9346910615422
 30
0.0
 11
655.1922019519738
 21
538.9346910615422
 31
0.0
  0
LINE
  5
21CE
330
1EAC
100
AcDbEntity
  8
画層1
 62
     0
370
    -2
100
AcDbLine
 10
666.2922019519738
 20
538.9346910615422
 30
0.0
 11
665.1922019519738
 21
538.9346910615422
 31
0.0
  0
SOLID
  5
21CF
330
1EAC
100
AcDbEntity
  8
画層1
 62
     0
100
AcDbTrace
 10
668.7922019519739
 20
539.3513577282089
 30
0.0
 11
668.7922019519739
 21
538.5180243948756
 31
0.0
 12
666.2922019519738
 22
538.9346910615422
 32
0.0
 13
666.2922019519738
 23
538.9346910615422
 33
0.0
  0
SOLID
  5
21D0
330
1EAC
100
AcDbEntity
  8
画層1
 62
     0
100
AcDbTrace
 10
662.6922019519739
 20
539.3513577282089
 30
0.0
 11
662.6922019519739
 21
538.5180243948756
 31
0.0
 12
665.1922019519738
 22
538.9346910615422
 32
0.0
 13
665.1922019519738
 23
538.9346910615422
 33
0.0
  0
MTEXT
  5
21D1
330
1EAC
100
AcDbEntity
  8
画層1
 62
     0
100
AcDbMText
 10
657.6922019519738
 20
541.0180243948756
 30
0.0
 40
2.5
 41
0.0
 71
     5
 72
     1
  1
1,1
 73
     1
 44
1.0
1001
ACAD
1000
MTEXTBEGIN
1070
    73
1070
     1
1070
    44
1040
1.0
1070
    74
1070
     0
1000
MTEXTEND
1000
MTEXTBEGIN
1070
    73
1070
     1
1070
    44
1040
1.0
1070
    74
1070
     0
1000
MTEXTEND
  0
POINT
  5
21D2
330
1EAC
100
AcDbEntity
  8
Defpoints
 62
     0
100
AcDbPoint
 10
666.2922019519738
 20
540.7497838232785
 30
0.0
  0
POINT
  5
21D3
330
1EAC
100
AcDbEntity
  8
Defpoints
 62
     0
100
AcDbPoint
 10
665.1922019519738
 20
551.5497838232784
 30
0.0
  0
POINT
  5
21D4
330
1EAC
100
AcDbEntity
  8
Defpoints
 62
     0
100
AcDbPoint
 10
665.1922019519738
 20
538.9346910615422
 30
0.0
  0
ENDBLK
  5
1EB9
330
1EAC
100
AcDbEntity
  8
0
 62
     3
100
AcDbBlockEnd
  0
BLOCK
  5
1EC7
330
1EBB
100
AcDbEntity
  8
0
 62
     3
100
AcDbBlockBegin
  2
*D20
 70
     1
 10
0.0
 20
0.0
 30
0.0
  3
*D20
  1

  0
LINE
  5
21BF
330
1EBB
100
AcDbEntity
  8
画層1
 62
     0
370
    -2
100
AcDbLine
 10
667.5922019519738
 20
540.1247838232785
 30
0.0
 11
667.5922019519738
 21
532.9943776747223
 31
0.0
  0
LINE
  5
21C0
330
1EBB
100
AcDbEntity
  8
画層1
 62
     0
370
    -2
100
AcDbLine
 10
665.1922019519738
 20
537.0596910615422
 30
0.0
 11
665.1922019519738
 21
532.9943776747223
 31
0.0
  0
LINE
  5
21C1
330
1EBB
100
AcDbEntity
  8
画層1
 62
     0
370
    -2
100
AcDbLine
 10
670.0922019519738
 20
534.2443776747223
 30
0.0
 11
672.5922019519738
 21
534.2443776747223
 31
0.0
  0
LINE
  5
21C2
330
1EBB
100
AcDbEntity
  8
画層1
 62
     0
370
    -2
100
AcDbLine
 10
662.6922019519739
 20
534.2443776747223
 30
0.0
 11
653.5255352853072
 21
534.2443776747223
 31
0.0
  0
LINE
  5
21C3
330
1EBB
100
AcDbEntity
  8
画層1
 62
     0
370
    -2
100
AcDbLine
 10
667.5922019519738
 20
534.2443776747223
 30
0.0
 11
665.1922019519738
 21
534.2443776747223
 31
0.0
  0
SOLID
  5
21C4
330
1EBB
100
AcDbEntity
  8
画層1
 62
     0
100
AcDbTrace
 10
670.0922019519738
 20
534.6610443413888
 30
0.0
 11
670.0922019519738
 21
533.8277110080556
 31
0.0
 12
667.5922019519738
 22
534.2443776747223
 32
0.0
 13
667.5922019519738
 23
534.2443776747223
 33
0.0
  0
SOLID
  5
21C5
330
1EBB
100
AcDbEntity
  8
画層1
 62
     0
100
AcDbTrace
 10
662.6922019519739
 20
534.6610443413888
 30
0.0
 11
662.6922019519739
 21
533.8277110080556
 31
0.0
 12
665.1922019519738
 22
534.2443776747223
 32
0.0
 13
665.1922019519738
 23
534.2443776747223
 33
0.0
  0
MTEXT
  5
21C6
330
1EBB
100
AcDbEntity
  8
画層1
 62
     0
100
AcDbMText
 10
656.8588686186404
 20
536.3277110080556
 30
0.0
 40
2.5
 41
0.0
 71
     5
 72
     1
  1
2,4
 73
     1
 44
1.0
1001
ACAD
1000
MTEXTBEGIN
1070
    73
1070
     1
1070
    44
1040
1.0
1070
    74
1070
     0
1000
MTEXTEND
1000
MTEXTBEGIN
1070
    73
1070
     1
1070
    44
1040
1.0
1070
    74
1070
     0
1000
MTEXTEND
  0
POINT
  5
21C7
330
1EBB
100
AcDbEntity
  8
Defpoints
 62
     0
100
AcDbPoint
 10
667.5922019519738
 20
540.7497838232785
 30
0.0
  0
POINT
  5
21C8
330
1EBB
100
AcDbEntity
  8
Defpoints
 62
     0
100
AcDbPoint
 10
665.1922019519738
 20
537.6846910615422
 30
0.0
  0
POINT
  5
21C9
330
1EBB
100
AcDbEntity
  8
Defpoints
 62
     0
100
AcDbPoint
 10
665.1922019519738
 20
534.2443776747223
 30
0.0
  0
ENDBLK
  5
1EC8
330
1EBB
100
AcDbEntity
  8
0
 62
     3
100
AcDbBlockEnd
  0
BLOCK
  5
22E2
330
22D8
100
AcDbEntity
  8
0
 62
     1
100
AcDbBlockBegin
  2
*D21
 70
     1
 10
0.0
 20
0.0
 30
0.0
  3
*D21
  1

  0
LINE
  5
242D
330
22D8
100
AcDbEntity
  8
画層1
 62
     0
370
    -2
100
AcDbLine
 10
452.6512404554189
 20
398.3747838232785
 30
0.0
 11
452.6512404554189
 21
409.1996320302512
 31
0.0
  0
LINE
  5
242E
330
22D8
100
AcDbEntity
  8
画層1
 62
     0
370
    -2
100
AcDbLine
 10
554.6512404554189
 20
398.3747838232785
 30
0.0
 11
554.6512404554189
 21
409.1996320302512
 31
0.0
  0
LINE
  5
242F
330
22D8
100
AcDbEntity
  8
画層1
 62
     0
370
    -2
100
AcDbLine
 10
455.1512404554189
 20
407.9496320302512
 30
0.0
 11
552.1512404554189
 21
407.9496320302512
 31
0.0
  0
SOLID
  5
2430
330
22D8
100
AcDbEntity
  8
画層1
 62
     0
100
AcDbTrace
 10
455.1512404554189
 20
408.3662986969178
 30
0.0
 11
455.1512404554189
 21
407.5329653635845
 31
0.0
 12
452.6512404554189
 22
407.9496320302512
 32
0.0
 13
452.6512404554189
 23
407.9496320302512
 33
0.0
  0
SOLID
  5
2431
330
22D8
100
AcDbEntity
  8
画層1
 62
     0
100
AcDbTrace
 10
552.1512404554189
 20
408.3662986969178
 30
0.0
 11
552.1512404554189
 21
407.5329653635845
 31
0.0
 12
554.6512404554189
 22
407.9496320302512
 32
0.0
 13
554.6512404554189
 23
407.9496320302512
 33
0.0
  0
MTEXT
  5
2432
330
22D8
100
AcDbEntity
  8
画層1
 62
     0
100
AcDbMText
 10
503.6512404554189
 20
409.8246320302512
 30
0.0
 40
2.5
 41
0.0
 71
     5
 72
     1
  1
102
 73
     1
 44
1.0
  0
POINT
  5
2433
330
22D8
100
AcDbEntity
  8
Defpoints
 62
     0
100
AcDbPoint
 10
452.6512404554189
 20
397.7497838232785
 30
0.0
  0
POINT
  5
2434
330
22D8
100
AcDbEntity
  8
Defpoints
 62
     0
100
AcDbPoint
 10
554.6512404554189
 20
397.7497838232785
 30
0.0
  0
POINT
  5
2435
330
22D8
100
AcDbEntity
  8
Defpoints
 62
     0
100
AcDbPoint
 10
554.6512404554189
 20
407.9496320302512
 30
0.0
  0
ENDBLK
  5
22E3
330
22D8
100
AcDbEntity
  8
0
 62
     1
100
AcDbBlockEnd
  0
BLOCK
  5
22EF
330
22E5
100
AcDbEntity
  8
0
 62
     1
100
AcDbBlockBegin
  2
*D22
 70
     1
 10
0.0
 20
0.0
 30
0.0
  3
*D22
  1

  0
LINE
  5
2424
330
22E5
100
AcDbEntity
  8
画層1
 62
     0
370
    -2
100
AcDbLine
 10
445.6512404554189
 20
374.3747838232785
 30
0.0
 11
445.6512404554189
 21
415.883891801865
 31
0.0
  0
LINE
  5
2425
330
22E5
100
AcDbEntity
  8
画層1
 62
     0
370
    -2
100
AcDbLine
 10
561.6512404554189
 20
374.3747838232785
 30
0.0
 11
561.6512404554189
 21
415.883891801865
 31
0.0
  0
LINE
  5
2426
330
22E5
100
AcDbEntity
  8
画層1
 62
     0
370
    -2
100
AcDbLine
 10
448.1512404554189
 20
414.633891801865
 30
0.0
 11
559.1512404554189
 21
414.633891801865
 31
0.0
  0
SOLID
  5
2427
330
22E5
100
AcDbEntity
  8
画層1
 62
     0
100
AcDbTrace
 10
448.1512404554189
 20
415.0505584685317
 30
0.0
 11
448.1512404554189
 21
414.2172251351984
 31
0.0
 12
445.6512404554189
 22
414.633891801865
 32
0.0
 13
445.6512404554189
 23
414.633891801865
 33
0.0
  0
SOLID
  5
2428
330
22E5
100
AcDbEntity
  8
画層1
 62
     0
100
AcDbTrace
 10
559.1512404554189
 20
415.0505584685317
 30
0.0
 11
559.1512404554189
 21
414.2172251351984
 31
0.0
 12
561.6512404554189
 22
414.633891801865
 32
0.0
 13
561.6512404554189
 23
414.633891801865
 33
0.0
  0
MTEXT
  5
2429
330
22E5
100
AcDbEntity
  8
画層1
 62
     0
100
AcDbMText
 10
503.6512404554189
 20
416.508891801865
 30
0.0
 40
2.5
 41
0.0
 71
     5
 72
     1
  1
116
 73
     1
 44
1.0
  0
POINT
  5
242A
330
22E5
100
AcDbEntity
  8
Defpoints
 62
     0
100
AcDbPoint
 10
445.6512404554189
 20
373.7497838232785
 30
0.0
  0
POINT
  5
242B
330
22E5
100
AcDbEntity
  8
Defpoints
 62
     0
100
AcDbPoint
 10
561.6512404554189
 20
373.7497838232785
 30
0.0
  0
POINT
  5
242C
330
22E5
100
AcDbEntity
  8
Defpoints
 62
     0
100
AcDbPoint
 10
561.6512404554189
 20
414.633891801865
 30
0.0
  0
ENDBLK
  5
22F0
330
22E5
100
AcDbEntity
  8
0
 62
     1
100
AcDbBlockEnd
  0
BLOCK
  5
22FC
330
22F2
100
AcDbEntity
  8
0
 62
     1
100
AcDbBlockBegin
  2
*D23
 70
     1
 10
0.0
 20
0.0
 30
0.0
  3
*D23
  1

  0
LINE
  5
243F
330
22F2
100
AcDbEntity
  8
画層1
 62
     0
370
    -2
100
AcDbLine
 10
562.2762404554189
 20
381.7497838232785
 30
0.0
 11
584.0720306856123
 21
381.7497838232785
 31
0.0
  0
LINE
  5
2440
330
22F2
100
AcDbEntity
  8
画層1
 62
     0
370
    -2
100
AcDbLine
 10
562.2762404554189
 20
365.7497838232785
 30
0.0
 11
584.0720306856123
 21
365.7497838232785
 31
0.0
  0
LINE
  5
2441
330
22F2
100
AcDbEntity
  8
画層1
 62
     0
370
    -2
100
AcDbLine
 10
582.8220306856123
 20
379.2497838232785
 30
0.0
 11
582.8220306856123
 21
368.2497838232785
 31
0.0
  0
SOLID
  5
2442
330
22F2
100
AcDbEntity
  8
画層1
 62
     0
100
AcDbTrace
 10
582.4053640189458
 20
379.2497838232785
 30
0.0
 11
583.238697352279
 21
379.2497838232785
 31
0.0
 12
582.8220306856123
 22
381.7497838232785
 32
0.0
 13
582.8220306856123
 23
381.7497838232785
 33
0.0
  0
SOLID
  5
2443
330
22F2
100
AcDbEntity
  8
画層1
 62
     0
100
AcDbTrace
 10
582.4053640189458
 20
368.2497838232785
 30
0.0
 11
583.238697352279
 21
368.2497838232785
 31
0.0
 12
582.8220306856123
 22
365.7497838232785
 32
0.0
 13
582.8220306856123
 23
365.7497838232785
 33
0.0
  0
MTEXT
  5
2444
330
22F2
100
AcDbEntity
  8
画層1
 62
     0
100
AcDbMText
 10
580.9470306856122
 20
373.7497838232786
 30
0.0
 40
2.5
 41
0.0
 71
     5
 72
     1
  1
16
 11
0.0000000000000001
 21
1.0
 31
0.0
 73
     1
 44
1.0
  0
POINT
  5
2445
330
22F2
100
AcDbEntity
  8
Defpoints
 62
     0
100
AcDbPoint
 10
561.6512404554189
 20
381.7497838232785
 30
0.0
  0
POINT
  5
2446
330
22F2
100
AcDbEntity
  8
Defpoints
 62
     0
100
AcDbPoint
 10
561.6512404554189
 20
365.7497838232785
 30
0.0
  0
POINT
  5
2447
330
22F2
100
AcDbEntity
  8
Defpoints
 62
     0
100
AcDbPoint
 10
582.8220306856123
 20
365.7497838232785
 30
0.0
  0
ENDBLK
  5
22FD
330
22F2
100
AcDbEntity
  8
0
 62
     1
100
AcDbBlockEnd
  0
BLOCK
  5
2309
330
22FF
100
AcDbEntity
  8
0
 62
     1
100
AcDbBlockBegin
  2
*D24
 70
     1
 10
0.0
 20
0.0
 30
0.0
  3
*D24
  1

  0
LINE
  5
2436
330
22FF
100
AcDbEntity
  8
画層1
 62
     0
370
    -2
100
AcDbLine
 10
555.2762404554189
 20
397.7497838232785
 30
0.0
 11
592.6332419274274
 21
397.7497838232785
 31
0.0
  0
LINE
  5
2437
330
22FF
100
AcDbEntity
  8
画層1
 62
     0
370
    -2
100
AcDbLine
 10
555.2762404554189
 20
349.7497838232785
 30
0.0
 11
592.6332419274274
 21
349.7497838232785
 31
0.0
  0
LINE
  5
2438
330
22FF
100
AcDbEntity
  8
画層1
 62
     0
370
    -2
100
AcDbLine
 10
591.3832419274274
 20
395.2497838232785
 30
0.0
 11
591.3832419274274
 21
352.2497838232785
 31
0.0
  0
SOLID
  5
2439
330
22FF
100
AcDbEntity
  8
画層1
 62
     0
100
AcDbTrace
 10
590.9665752607607
 20
395.2497838232785
 30
0.0
 11
591.799908594094
 21
395.2497838232785
 31
0.0
 12
591.3832419274274
 22
397.7497838232785
 32
0.0
 13
591.3832419274274
 23
397.7497838232785
 33
0.0
  0
SOLID
  5
243A
330
22FF
100
AcDbEntity
  8
画層1
 62
     0
100
AcDbTrace
 10
590.9665752607607
 20
352.2497838232785
 30
0.0
 11
591.799908594094
 21
352.2497838232785
 31
0.0
 12
591.3832419274274
 22
349.7497838232785
 32
0.0
 13
591.3832419274274
 23
349.7497838232785
 33
0.0
  0
MTEXT
  5
243B
330
22FF
100
AcDbEntity
  8
画層1
 62
     0
100
AcDbMText
 10
589.5082419274273
 20
373.7497838232786
 30
0.0
 40
2.5
 41
0.0
 71
     5
 72
     1
  1
48
 11
0.0000000000000001
 21
1.0
 31
0.0
 73
     1
 44
1.0
  0
POINT
  5
243C
330
22FF
100
AcDbEntity
  8
Defpoints
 62
     0
100
AcDbPoint
 10
554.6512404554189
 20
397.7497838232785
 30
0.0
  0
POINT
  5
243D
330
22FF
100
AcDbEntity
  8
Defpoints
 62
     0
100
AcDbPoint
 10
554.6512404554189
 20
349.7497838232785
 30
0.0
  0
POINT
  5
243E
330
22FF
100
AcDbEntity
  8
Defpoints
 62
     0
100
AcDbPoint
 10
591.3832419274274
 20
349.7497838232785
 30
0.0
  0
ENDBLK
  5
230A
330
22FF
100
AcDbEntity
  8
0
 62
     1
100
AcDbBlockEnd
  0
BLOCK
  5
2316
330
230C
100
AcDbEntity
  8
0
 62
     1
100
AcDbBlockBegin
  2
*D25
 70
     1
 10
0.0
 20
0.0
 30
0.0
  3
*D25
  1

  0
LINE
  5
23EC
330
230C
100
AcDbEntity
  8
画層1
 62
     0
370
    -2
100
AcDbLine
 10
451.1512404554189
 20
263.3747838232785
 30
0.0
 11
451.1512404554189
 21
272.5808455923048
 31
0.0
  0
LINE
  5
23ED
330
230C
100
AcDbEntity
  8
画層1
 62
     0
370
    -2
100
AcDbLine
 10
440.1512404554189
 20
263.3747838232785
 30
0.0
 11
440.1512404554189
 21
272.5808455923048
 31
0.0
  0
LINE
  5
23EE
330
230C
100
AcDbEntity
  8
画層1
 62
     0
370
    -2
100
AcDbLine
 10
448.6512404554189
 20
271.3308455923048
 30
0.0
 11
442.6512404554189
 21
271.3308455923048
 31
0.0
  0
SOLID
  5
23EF
330
230C
100
AcDbEntity
  8
画層1
 62
     0
100
AcDbTrace
 10
448.6512404554189
 20
271.7475122589715
 30
0.0
 11
448.6512404554189
 21
270.9141789256381
 31
0.0
 12
451.1512404554189
 22
271.3308455923048
 32
0.0
 13
451.1512404554189
 23
271.3308455923048
 33
0.0
  0
SOLID
  5
23F0
330
230C
100
AcDbEntity
  8
画層1
 62
     0
100
AcDbTrace
 10
442.6512404554189
 20
271.7475122589715
 30
0.0
 11
442.6512404554189
 21
270.9141789256381
 31
0.0
 12
440.1512404554189
 22
271.3308455923048
 32
0.0
 13
440.1512404554189
 23
271.3308455923048
 33
0.0
  0
MTEXT
  5
23F1
330
230C
100
AcDbEntity
  8
画層1
 62
     0
100
AcDbMText
 10
445.6512404554189
 20
273.2058455923048
 30
0.0
 40
2.5
 41
0.0
 71
     5
 72
     1
  1
11
 73
     1
 44
1.0
  0
POINT
  5
23F2
330
230C
100
AcDbEntity
  8
Defpoints
 62
     0
100
AcDbPoint
 10
451.1512404554189
 20
262.7497838232785
 30
0.0
  0
POINT
  5
23F3
330
230C
100
AcDbEntity
  8
Defpoints
 62
     0
100
AcDbPoint
 10
440.1512404554189
 20
262.7497838232785
 30
0.0
  0
POINT
  5
23F4
330
230C
100
AcDbEntity
  8
Defpoints
 62
     0
100
AcDbPoint
 10
440.1512404554189
 20
271.3308455923048
 30
0.0
  0
ENDBLK
  5
2317
330
230C
100
AcDbEntity
  8
0
 62
     1
100
AcDbBlockEnd
  0
BLOCK
  5
2325
330
2319
100
AcDbEntity
  8
0
 62
     1
100
AcDbBlockBegin
  2
*D26
 70
     1
 10
0.0
 20
0.0
 30
0.0
  3
*D26
  1

  0
LINE
  5
23E1
330
2319
100
AcDbEntity
  8
画層1
 62
     0
370
    -2
100
AcDbLine
 10
442.6512404554189
 20
249.1247838232785
 30
0.0
 11
442.6512404554189
 21
239.170142982966
 31
0.0
  0
LINE
  5
23E2
330
2319
100
AcDbEntity
  8
画層1
 62
     0
370
    -2
100
AcDbLine
 10
448.6512404554189
 20
249.1247838232785
 30
0.0
 11
448.6512404554189
 21
239.170142982966
 31
0.0
  0
LINE
  5
23E3
330
2319
100
AcDbEntity
  8
画層1
 62
     0
370
    -2
100
AcDbLine
 10
440.1512404554189
 20
240.420142982966
 30
0.0
 11
437.6512404554189
 21
240.420142982966
 31
0.0
  0
LINE
  5
23E4
330
2319
100
AcDbEntity
  8
画層1
 62
     0
370
    -2
100
AcDbLine
 10
451.1512404554189
 20
240.420142982966
 30
0.0
 11
453.6512404554189
 21
240.420142982966
 31
0.0
  0
LINE
  5
23E5
330
2319
100
AcDbEntity
  8
画層1
 62
     0
370
    -2
100
AcDbLine
 10
442.6512404554189
 20
240.420142982966
 30
0.0
 11
448.6512404554189
 21
240.420142982966
 31
0.0
  0
SOLID
  5
23E6
330
2319
100
AcDbEntity
  8
画層1
 62
     0
100
AcDbTrace
 10
440.1512404554189
 20
240.8368096496326
 30
0.0
 11
440.1512404554189
 21
240.0034763162993
 31
0.0
 12
442.6512404554189
 22
240.420142982966
 32
0.0
 13
442.6512404554189
 23
240.420142982966
 33
0.0
  0
SOLID
  5
23E7
330
2319
100
AcDbEntity
  8
画層1
 62
     0
100
AcDbTrace
 10
451.1512404554189
 20
240.8368096496326
 30
0.0
 11
451.1512404554189
 21
240.0034763162993
 31
0.0
 12
448.6512404554189
 22
240.420142982966
 32
0.0
 13
448.6512404554189
 23
240.420142982966
 33
0.0
  0
MTEXT
  5
23E8
330
2319
100
AcDbEntity
  8
画層1
 62
     0
100
AcDbMText
 10
445.6512404554189
 20
242.295142982966
 30
0.0
 40
2.5
 41
0.0
 71
     5
 72
     1
  1
6
 73
     1
 44
1.0
  0
POINT
  5
23E9
330
2319
100
AcDbEntity
  8
Defpoints
 62
     0
100
AcDbPoint
 10
442.6512404554189
 20
249.7497838232785
 30
0.0
  0
POINT
  5
23EA
330
2319
100
AcDbEntity
  8
Defpoints
 62
     0
100
AcDbPoint
 10
448.6512404554189
 20
249.7497838232785
 30
0.0
  0
POINT
  5
23EB
330
2319
100
AcDbEntity
  8
Defpoints
 62
     0
100
AcDbPoint
 10
448.6512404554189
 20
240.420142982966
 30
0.0
  0
ENDBLK
  5
2326
330
2319
100
AcDbEntity
  8
0
 62
     1
100
AcDbBlockEnd
  0
BLOCK
  5
2334
330
2328
100
AcDbEntity
  8
0
 62
     1
100
AcDbBlockBegin
  2
*D27
 70
     1
 10
0.0
 20
0.0
 30
0.0
  3
*D27
  1

  0
LINE
  5
2419
330
2328
100
AcDbEntity
  8
画層1
 62
     0
370
    -2
100
AcDbLine
 10
570.2762404554189
 20
249.7497838232785
 30
0.0
 11
576.6322860406374
 21
249.7497838232785
 31
0.0
  0
LINE
  5
241A
330
2328
100
AcDbEntity
  8
画層1
 62
     0
370
    -2
100
AcDbLine
 10
567.7762404554189
 20
255.7497838232785
 30
0.0
 11
576.6322860406374
 21
255.7497838232785
 31
0.0
  0
LINE
  5
241B
330
2328
100
AcDbEntity
  8
画層1
 62
     0
370
    -2
100
AcDbLine
 10
575.3822860406374
 20
247.2497838232785
 30
0.0
 11
575.3822860406374
 21
244.7497838232785
 31
0.0
  0
LINE
  5
241C
330
2328
100
AcDbEntity
  8
画層1
 62
     0
370
    -2
100
AcDbLine
 10
575.3822860406375
 20
258.2497838232785
 30
0.0
 11
575.3822860406375
 21
260.7497838232785
 31
0.0
  0
LINE
  5
241D
330
2328
100
AcDbEntity
  8
画層1
 62
     0
370
    -2
100
AcDbLine
 10
575.3822860406374
 20
249.7497838232785
 30
0.0
 11
575.3822860406374
 21
255.7497838232785
 31
0.0
  0
SOLID
  5
241E
330
2328
100
AcDbEntity
  8
画層1
 62
     0
100
AcDbTrace
 10
574.9656193739707
 20
247.2497838232785
 30
0.0
 11
575.798952707304
 21
247.2497838232785
 31
0.0
 12
575.3822860406374
 22
249.7497838232785
 32
0.0
 13
575.3822860406374
 23
249.7497838232785
 33
0.0
  0
SOLID
  5
241F
330
2328
100
AcDbEntity
  8
画層1
 62
     0
100
AcDbTrace
 10
574.9656193739708
 20
258.2497838232785
 30
0.0
 11
575.7989527073041
 21
258.2497838232785
 31
0.0
 12
575.3822860406374
 22
255.7497838232785
 32
0.0
 13
575.3822860406374
 23
255.7497838232785
 33
0.0
  0
MTEXT
  5
2420
330
2328
100
AcDbEntity
  8
画層1
 62
     0
100
AcDbMText
 10
573.5072860406374
 20
252.7497838232786
 30
0.0
 40
2.5
 41
0.0
 71
     5
 72
     1
  1
6
 11
0.0000000000000001
 21
1.0
 31
0.0
 73
     1
 44
1.0
  0
POINT
  5
2421
330
2328
100
AcDbEntity
  8
Defpoints
 62
     0
100
AcDbPoint
 10
569.6512404554189
 20
249.7497838232785
 30
0.0
  0
POINT
  5
2422
330
2328
100
AcDbEntity
  8
Defpoints
 62
     0
100
AcDbPoint
 10
567.1512404554189
 20
255.7497838232785
 30
0.0
  0
POINT
  5
2423
330
2328
100
AcDbEntity
  8
Defpoints
 62
     0
100
AcDbPoint
 10
575.3822860406374
 20
255.7497838232785
 30
0.0
  0
ENDBLK
  5
2335
330
2328
100
AcDbEntity
  8
0
 62
     1
100
AcDbBlockEnd
  0
BLOCK
  5
2341
330
2337
100
AcDbEntity
  8
0
 62
     1
100
AcDbBlockBegin
  2
*D28
 70
     1
 10
0.0
 20
0.0
 30
0.0
  3
*D28
  1

  0
LINE
  5
2410
330
2337
100
AcDbEntity
  8
画層1
 62
     0
370
    -2
100
AcDbLine
 10
577.2572860406373
 20
249.7497838232785
 30
0.0
 11
583.6049344706408
 21
249.7497838232785
 31
0.0
  0
LINE
  5
2411
330
2337
100
AcDbEntity
  8
画層1
 62
     0
370
    -2
100
AcDbLine
 10
570.2762404554189
 20
262.7497838232785
 30
0.0
 11
583.6049344706409
 21
262.7497838232785
 31
0.0
  0
LINE
  5
2412
330
2337
100
AcDbEntity
  8
画層1
 62
     0
370
    -2
100
AcDbLine
 10
582.3549344706408
 20
252.2497838232785
 30
0.0
 11
582.3549344706409
 21
260.2497838232785
 31
0.0
  0
SOLID
  5
2413
330
2337
100
AcDbEntity
  8
画層1
 62
     0
100
AcDbTrace
 10
581.9382678039742
 20
252.2497838232785
 30
0.0
 11
582.7716011373074
 21
252.2497838232785
 31
0.0
 12
582.3549344706408
 22
249.7497838232785
 32
0.0
 13
582.3549344706408
 23
249.7497838232785
 33
0.0
  0
SOLID
  5
2414
330
2337
100
AcDbEntity
  8
画層1
 62
     0
100
AcDbTrace
 10
581.9382678039743
 20
260.2497838232785
 30
0.0
 11
582.7716011373076
 21
260.2497838232785
 31
0.0
 12
582.3549344706409
 22
262.7497838232785
 32
0.0
 13
582.3549344706409
 23
262.7497838232785
 33
0.0
  0
MTEXT
  5
2415
330
2337
100
AcDbEntity
  8
画層1
 62
     0
100
AcDbMText
 10
580.4799344706408
 20
256.2497838232786
 30
0.0
 40
2.5
 41
0.0
 71
     5
 72
     1
  1
13
 11
0.0000000000000001
 21
1.0
 31
0.0
 73
     1
 44
1.0
  0
POINT
  5
2416
330
2337
100
AcDbEntity
  8
Defpoints
 62
     0
100
AcDbPoint
 10
576.6322860406374
 20
249.7497838232785
 30
0.0
  0
POINT
  5
2417
330
2337
100
AcDbEntity
  8
Defpoints
 62
     0
100
AcDbPoint
 10
569.6512404554189
 20
262.7497838232785
 30
0.0
  0
POINT
  5
2418
330
2337
100
AcDbEntity
  8
Defpoints
 62
     0
100
AcDbPoint
 10
582.3549344706409
 20
262.7497838232785
 30
0.0
  0
ENDBLK
  5
2342
330
2337
100
AcDbEntity
  8
0
 62
     1
100
AcDbBlockEnd
  0
BLOCK
  5
234E
330
2344
100
AcDbEntity
  8
0
 62
     1
100
AcDbBlockBegin
  2
*D29
 70
     1
 10
0.0
 20
0.0
 30
0.0
  3
*D29
  1

  0
LINE
  5
2407
330
2344
100
AcDbEntity
  8
画層1
 62
     0
370
    -2
100
AcDbLine
 10
584.2299344706408
 20
249.7497838232785
 30
0.0
 11
590.5775829006444
 21
249.7497838232785
 31
0.0
  0
LINE
  5
2408
330
2344
100
AcDbEntity
  8
画層1
 62
     0
370
    -2
100
AcDbLine
 10
570.2762404554189
 20
284.7497838232785
 30
0.0
 11
590.5775829006445
 21
284.7497838232785
 31
0.0
  0
LINE
  5
2409
330
2344
100
AcDbEntity
  8
画層1
 62
     0
370
    -2
100
AcDbLine
 10
589.3275829006443
 20
252.2497838232785
 30
0.0
 11
589.3275829006445
 21
282.2497838232785
 31
0.0
  0
SOLID
  5
240A
330
2344
100
AcDbEntity
  8
画層1
 62
     0
100
AcDbTrace
 10
588.9109162339777
 20
252.2497838232785
 30
0.0
 11
589.744249567311
 21
252.2497838232785
 31
0.0
 12
589.3275829006443
 22
249.7497838232785
 32
0.0
 13
589.3275829006443
 23
249.7497838232785
 33
0.0
  0
SOLID
  5
240B
330
2344
100
AcDbEntity
  8
画層1
 62
     0
100
AcDbTrace
 10
588.9109162339779
 20
282.2497838232785
 30
0.0
 11
589.7442495673111
 21
282.2497838232785
 31
0.0
 12
589.3275829006445
 22
284.7497838232785
 32
0.0
 13
589.3275829006445
 23
284.7497838232785
 33
0.0
  0
MTEXT
  5
240C
330
2344
100
AcDbEntity
  8
画層1
 62
     0
100
AcDbMText
 10
587.4525829006444
 20
267.2497838232786
 30
0.0
 40
2.5
 41
0.0
 71
     5
 72
     1
  1
35
 11
0.0000000000000001
 21
1.0
 31
0.0
 73
     1
 44
1.0
  0
POINT
  5
240D
330
2344
100
AcDbEntity
  8
Defpoints
 62
     0
100
AcDbPoint
 10
583.6049344706408
 20
249.7497838232785
 30
0.0
  0
POINT
  5
240E
330
2344
100
AcDbEntity
  8
Defpoints
 62
     0
100
AcDbPoint
 10
569.6512404554189
 20
284.7497838232785
 30
0.0
  0
POINT
  5
240F
330
2344
100
AcDbEntity
  8
Defpoints
 62
     0
100
AcDbPoint
 10
589.3275829006445
 20
284.7497838232785
 30
0.0
  0
ENDBLK
  5
234F
330
2344
100
AcDbEntity
  8
0
 62
     1
100
AcDbBlockEnd
  0
BLOCK
  5
235B
330
2351
100
AcDbEntity
  8
0
 62
     1
100
AcDbBlockBegin
  2
*D30
 70
     1
 10
0.0
 20
0.0
 30
0.0
  3
*D30
  1

  0
LINE
  5
23D8
330
2351
100
AcDbEntity
  8
画層1
 62
     0
370
    -2
100
AcDbLine
 10
591.2025829006444
 20
249.7497838232785
 30
0.0
 11
599.3810008095378
 21
249.7497838232785
 31
0.0
  0
LINE
  5
23D9
330
2351
100
AcDbEntity
  8
画層1
 62
     0
370
    -2
100
AcDbLine
 10
570.2762404554189
 20
321.7497838232785
 30
0.0
 11
599.3810008095379
 21
321.7497838232785
 31
0.0
  0
LINE
  5
23DA
330
2351
100
AcDbEntity
  8
画層1
 62
     0
370
    -2
100
AcDbLine
 10
598.1310008095378
 20
252.2497838232785
 30
0.0
 11
598.1310008095379
 21
319.2497838232785
 31
0.0
  0
SOLID
  5
23DB
330
2351
100
AcDbEntity
  8
画層1
 62
     0
100
AcDbTrace
 10
597.7143341428711
 20
252.2497838232785
 30
0.0
 11
598.5476674762044
 21
252.2497838232785
 31
0.0
 12
598.1310008095378
 22
249.7497838232785
 32
0.0
 13
598.1310008095378
 23
249.7497838232785
 33
0.0
  0
SOLID
  5
23DC
330
2351
100
AcDbEntity
  8
画層1
 62
     0
100
AcDbTrace
 10
597.7143341428712
 20
319.2497838232785
 30
0.0
 11
598.5476674762045
 21
319.2497838232785
 31
0.0
 12
598.1310008095379
 22
321.7497838232785
 32
0.0
 13
598.1310008095379
 23
321.7497838232785
 33
0.0
  0
MTEXT
  5
23DD
330
2351
100
AcDbEntity
  8
画層1
 62
     0
100
AcDbMText
 10
596.2560008095378
 20
285.7497838232786
 30
0.0
 40
2.5
 41
0.0
 71
     5
 72
     1
  1
72
 11
0.0000000000000001
 21
1.0
 31
0.0
 73
     1
 44
1.0
  0
POINT
  5
23DE
330
2351
100
AcDbEntity
  8
Defpoints
 62
     0
100
AcDbPoint
 10
590.5775829006444
 20
249.7497838232785
 30
0.0
  0
POINT
  5
23DF
330
2351
100
AcDbEntity
  8
Defpoints
 62
     0
100
AcDbPoint
 10
569.6512404554189
 20
321.7497838232785
 30
0.0
  0
POINT
  5
23E0
330
2351
100
AcDbEntity
  8
Defpoints
 62
     0
100
AcDbPoint
 10
598.1310008095379
 20
321.7497838232785
 30
0.0
  0
ENDBLK
  5
235C
330
2351
100
AcDbEntity
  8
0
 62
     1
100
AcDbBlockEnd
  0
BLOCK
  5
2368
330
235E
100
AcDbEntity
  8
0
 62
     1
100
AcDbBlockBegin
  2
*D31
 70
     1
 10
0.0
 20
0.0
 30
0.0
  3
*D31
  1

  0
LINE
  5
23CF
330
235E
100
AcDbEntity
  8
画層1
 62
     0
370
    -2
100
AcDbLine
 10
588.7025829006445
 20
284.7497838232785
 30
0.0
 11
588.0775829006445
 21
284.7497838232785
 31
0.0
  0
LINE
  5
23D0
330
235E
100
AcDbEntity
  8
画層1
 62
     0
370
    -2
100
AcDbLine
 10
543.2762404554189
 20
307.7497838232785
 30
0.0
 11
590.5775829006445
 21
307.7497838232785
 31
0.0
  0
LINE
  5
23D1
330
235E
100
AcDbEntity
  8
画層1
 62
     0
370
    -2
100
AcDbLine
 10
589.3275829006445
 20
287.2497838232785
 30
0.0
 11
589.3275829006445
 21
305.2497838232785
 31
0.0
  0
SOLID
  5
23D2
330
235E
100
AcDbEntity
  8
画層1
 62
     0
100
AcDbTrace
 10
588.9109162339779
 20
287.2497838232785
 30
0.0
 11
589.7442495673111
 21
287.2497838232785
 31
0.0
 12
589.3275829006445
 22
284.7497838232785
 32
0.0
 13
589.3275829006445
 23
284.7497838232785
 33
0.0
  0
SOLID
  5
23D3
330
235E
100
AcDbEntity
  8
画層1
 62
     0
100
AcDbTrace
 10
588.9109162339779
 20
305.2497838232785
 30
0.0
 11
589.7442495673111
 21
305.2497838232785
 31
0.0
 12
589.3275829006445
 22
307.7497838232785
 32
0.0
 13
589.3275829006445
 23
307.7497838232785
 33
0.0
  0
MTEXT
  5
23D4
330
235E
100
AcDbEntity
  8
画層1
 62
     0
100
AcDbMText
 10
587.4525829006444
 20
296.2497838232786
 30
0.0
 40
2.5
 41
0.0
 71
     5
 72
     1
  1
23
 11
0.0000000000000001
 21
1.0
 31
0.0
 73
     1
 44
1.0
  0
POINT
  5
23D5
330
235E
100
AcDbEntity
  8
Defpoints
 62
     0
100
AcDbPoint
 10
589.3275829006445
 20
284.7497838232785
 30
0.0
  0
POINT
  5
23D6
330
235E
100
AcDbEntity
  8
Defpoints
 62
     0
100
AcDbPoint
 10
542.6512404554189
 20
307.7497838232785
 30
0.0
  0
POINT
  5
23D7
330
235E
100
AcDbEntity
  8
Defpoints
 62
     0
100
AcDbPoint
 10
589.3275829006445
 20
307.7497838232785
 30
0.0
  0
ENDBLK
  5
2369
330
235E
100
AcDbEntity
  8
0
 62
     1
100
AcDbBlockEnd
  0
BLOCK
  5
2375
330
236B
100
AcDbEntity
  8
0
 62
     1
100
AcDbBlockBegin
  2
*D32
 70
     1
 10
0.0
 20
0.0
 30
0.0
  3
*D32
  1

  0
LINE
  5
23FE
330
236B
100
AcDbEntity
  8
画層1
 62
     0
370
    -2
100
AcDbLine
 10
656.5057788644678
 20
249.7497838232785
 30
0.0
 11
664.2107444952411
 21
249.7497838232785
 31
0.0
  0
LINE
  5
23FF
330
236B
100
AcDbEntity
  8
画層1
 62
     0
370
    -2
100
AcDbLine
 10
642.0057788644678
 20
262.7497838232785
 30
0.0
 11
664.2107444952412
 21
262.7497838232785
 31
0.0
  0
LINE
  5
2400
330
236B
100
AcDbEntity
  8
画層1
 62
     0
370
    -2
100
AcDbLine
 10
662.960744495241
 20
252.2497838232785
 30
0.0
 11
662.9607444952412
 21
260.2497838232785
 31
0.0
  0
SOLID
  5
2401
330
236B
100
AcDbEntity
  8
画層1
 62
     0
100
AcDbTrace
 10
662.5440778285744
 20
252.2497838232785
 30
0.0
 11
663.3774111619077
 21
252.2497838232785
 31
0.0
 12
662.960744495241
 22
249.7497838232785
 32
0.0
 13
662.960744495241
 23
249.7497838232785
 33
0.0
  0
SOLID
  5
2402
330
236B
100
AcDbEntity
  8
画層1
 62
     0
100
AcDbTrace
 10
662.5440778285746
 20
260.2497838232785
 30
0.0
 11
663.3774111619078
 21
260.2497838232785
 31
0.0
 12
662.9607444952412
 22
262.7497838232785
 32
0.0
 13
662.9607444952412
 23
262.7497838232785
 33
0.0
  0
MTEXT
  5
2403
330
236B
100
AcDbEntity
  8
画層1
 62
     0
100
AcDbMText
 10
661.0857444952411
 20
256.2497838232786
 30
0.0
 40
2.5
 41
0.0
 71
     5
 72
     1
  1
13
 11
0.0000000000000001
 21
1.0
 31
0.0
 73
     1
 44
1.0
  0
POINT
  5
2404
330
236B
100
AcDbEntity
  8
Defpoints
 62
     0
100
AcDbPoint
 10
655.8807788644678
 20
249.7497838232785
 30
0.0
  0
POINT
  5
2405
330
236B
100
AcDbEntity
  8
Defpoints
 62
     0
100
AcDbPoint
 10
641.3807788644678
 20
262.7497838232785
 30
0.0
  0
POINT
  5
2406
330
236B
100
AcDbEntity
  8
Defpoints
 62
     0
100
AcDbPoint
 10
662.9607444952412
 20
262.7497838232785
 30
0.0
  0
ENDBLK
  5
2376
330
236B
100
AcDbEntity
  8
0
 62
     1
100
AcDbBlockEnd
  0
BLOCK
  5
2382
330
2378
100
AcDbEntity
  8
0
 62
     1
100
AcDbBlockBegin
  2
*D33
 70
     1
 10
0.0
 20
0.0
 30
0.0
  3
*D33
  1

  0
LINE
  5
23F5
330
2378
100
AcDbEntity
  8
画層1
 62
     0
370
    -2
100
AcDbLine
 10
664.835744495241
 20
249.7497838232785
 30
0.0
 11
671.9709508012337
 21
249.7497838232785
 31
0.0
  0
LINE
  5
23F6
330
2378
100
AcDbEntity
  8
画層1
 62
     0
370
    -2
100
AcDbLine
 10
656.5057788644678
 20
284.7497838232785
 30
0.0
 11
671.9709508012337
 21
284.7497838232785
 31
0.0
  0
LINE
  5
23F7
330
2378
100
AcDbEntity
  8
画層1
 62
     0
370
    -2
100
AcDbLine
 10
670.7209508012336
 20
252.2497838232785
 30
0.0
 11
670.7209508012338
 21
282.2497838232785
 31
0.0
  0
SOLID
  5
23F8
330
2378
100
AcDbEntity
  8
画層1
 62
     0
100
AcDbTrace
 10
670.304284134567
 20
252.2497838232785
 30
0.0
 11
671.1376174679003
 21
252.2497838232785
 31
0.0
 12
670.7209508012336
 22
249.7497838232785
 32
0.0
 13
670.7209508012336
 23
249.7497838232785
 33
0.0
  0
SOLID
  5
23F9
330
2378
100
AcDbEntity
  8
画層1
 62
     0
100
AcDbTrace
 10
670.3042841345672
 20
282.2497838232785
 30
0.0
 11
671.1376174679004
 21
282.2497838232785
 31
0.0
 12
670.7209508012338
 22
284.7497838232785
 32
0.0
 13
670.7209508012338
 23
284.7497838232785
 33
0.0
  0
MTEXT
  5
23FA
330
2378
100
AcDbEntity
  8
画層1
 62
     0
100
AcDbMText
 10
668.8459508012337
 20
267.2497838232786
 30
0.0
 40
2.5
 41
0.0
 71
     5
 72
     1
  1
35
 11
0.0000000000000001
 21
1.0
 31
0.0
 73
     1
 44
1.0
  0
POINT
  5
23FB
330
2378
100
AcDbEntity
  8
Defpoints
 62
     0
100
AcDbPoint
 10
664.2107444952411
 20
249.7497838232785
 30
0.0
  0
POINT
  5
23FC
330
2378
100
AcDbEntity
  8
Defpoints
 62
     0
100
AcDbPoint
 10
655.8807788644678
 20
284.7497838232785
 30
0.0
  0
POINT
  5
23FD
330
2378
100
AcDbEntity
  8
Defpoints
 62
     0
100
AcDbPoint
 10
670.7209508012338
 20
284.7497838232785
 30
0.0
  0
ENDBLK
  5
2383
330
2378
100
AcDbEntity
  8
0
 62
     1
100
AcDbBlockEnd
  0
BLOCK
  5
238F
330
2385
100
AcDbEntity
  8
0
 62
     1
100
AcDbBlockBegin
  2
*D34
 70
     1
 10
0.0
 20
0.0
 30
0.0
  3
*D34
  1

  0
LINE
  5
23C6
330
2385
100
AcDbEntity
  8
画層1
 62
     0
370
    -2
100
AcDbLine
 10
670.0959508012338
 20
284.7497838232785
 30
0.0
 11
669.4709508012338
 21
284.7497838232785
 31
0.0
  0
LINE
  5
23C7
330
2385
100
AcDbEntity
  8
画層1
 62
     0
370
    -2
100
AcDbLine
 10
636.5057788644678
 20
307.7497838232785
 30
0.0
 11
671.9709508012337
 21
307.7497838232785
 31
0.0
  0
LINE
  5
23C8
330
2385
100
AcDbEntity
  8
画層1
 62
     0
370
    -2
100
AcDbLine
 10
670.7209508012338
 20
287.2497838232785
 30
0.0
 11
670.7209508012338
 21
305.2497838232785
 31
0.0
  0
SOLID
  5
23C9
330
2385
100
AcDbEntity
  8
画層1
 62
     0
100
AcDbTrace
 10
670.3042841345672
 20
287.2497838232785
 30
0.0
 11
671.1376174679004
 21
287.2497838232785
 31
0.0
 12
670.7209508012338
 22
284.7497838232785
 32
0.0
 13
670.7209508012338
 23
284.7497838232785
 33
0.0
  0
SOLID
  5
23CA
330
2385
100
AcDbEntity
  8
画層1
 62
     0
100
AcDbTrace
 10
670.3042841345672
 20
305.2497838232785
 30
0.0
 11
671.1376174679004
 21
305.2497838232785
 31
0.0
 12
670.7209508012338
 22
307.7497838232785
 32
0.0
 13
670.7209508012338
 23
307.7497838232785
 33
0.0
  0
MTEXT
  5
23CB
330
2385
100
AcDbEntity
  8
画層1
 62
     0
100
AcDbMText
 10
668.8459508012337
 20
296.2497838232786
 30
0.0
 40
2.5
 41
0.0
 71
     5
 72
     1
  1
23
 11
0.0000000000000001
 21
1.0
 31
0.0
 73
     1
 44
1.0
  0
POINT
  5
23CC
330
2385
100
AcDbEntity
  8
Defpoints
 62
     0
100
AcDbPoint
 10
670.7209508012338
 20
284.7497838232785
 30
0.0
  0
POINT
  5
23CD
330
2385
100
AcDbEntity
  8
Defpoints
 62
     0
100
AcDbPoint
 10
635.8807788644678
 20
307.7497838232785
 30
0.0
  0
POINT
  5
23CE
330
2385
100
AcDbEntity
  8
Defpoints
 62
     0
100
AcDbPoint
 10
670.7209508012338
 20
307.7497838232785
 30
0.0
  0
ENDBLK
  5
2390
330
2385
100
AcDbEntity
  8
0
 62
     1
100
AcDbBlockEnd
  0
BLOCK
  5
23A5
330
239B
100
AcDbEntity
  8
0
 62
     1
100
AcDbBlockBegin
  2
*D35
 70
     1
 10
0.0
 20
0.0
 30
0.0
  3
*D35
  1

  0
LINE
  5
23BD
330
239B
100
AcDbEntity
  8
画層1
 62
     0
370
    -2
100
AcDbLine
 10
468.6512404554189
 20
285.3747838232785
 30
0.0
 11
468.6512404554189
 21
334.1169762460289
 31
0.0
  0
LINE
  5
23BE
330
239B
100
AcDbEntity
  8
画層1
 62
     0
370
    -2
100
AcDbLine
 10
538.6512404554189
 20
285.3747838232785
 30
0.0
 11
538.6512404554189
 21
334.1169762460289
 31
0.0
  0
LINE
  5
23BF
330
239B
100
AcDbEntity
  8
画層1
 62
     0
370
    -2
100
AcDbLine
 10
471.1512404554189
 20
332.8669762460289
 30
0.0
 11
536.1512404554189
 21
332.8669762460289
 31
0.0
  0
SOLID
  5
23C0
330
239B
100
AcDbEntity
  8
画層1
 62
     0
100
AcDbTrace
 10
471.1512404554189
 20
333.2836429126956
 30
0.0
 11
471.1512404554189
 21
332.4503095793622
 31
0.0
 12
468.6512404554189
 22
332.8669762460289
 32
0.0
 13
468.6512404554189
 23
332.8669762460289
 33
0.0
  0
SOLID
  5
23C1
330
239B
100
AcDbEntity
  8
画層1
 62
     0
100
AcDbTrace
 10
536.1512404554189
 20
333.2836429126956
 30
0.0
 11
536.1512404554189
 21
332.4503095793622
 31
0.0
 12
538.6512404554189
 22
332.8669762460289
 32
0.0
 13
538.6512404554189
 23
332.8669762460289
 33
0.0
  0
MTEXT
  5
23C2
330
239B
100
AcDbEntity
  8
画層1
 62
     0
100
AcDbMText
 10
503.6512404554189
 20
334.7419762460289
 30
0.0
 40
2.5
 41
0.0
 71
     5
 72
     1
  1
70
 73
     1
 44
1.0
  0
POINT
  5
23C3
330
239B
100
AcDbEntity
  8
Defpoints
 62
     0
100
AcDbPoint
 10
468.6512404554189
 20
284.7497838232785
 30
0.0
  0
POINT
  5
23C4
330
239B
100
AcDbEntity
  8
Defpoints
 62
     0
100
AcDbPoint
 10
538.6512404554189
 20
284.7497838232785
 30
0.0
  0
POINT
  5
23C5
330
239B
100
AcDbEntity
  8
Defpoints
 62
     0
100
AcDbPoint
 10
538.6512404554189
 20
332.8669762460289
 30
0.0
  0
ENDBLK
  5
23A6
330
239B
100
AcDbEntity
  8
0
 62
     1
100
AcDbBlockEnd
  0
BLOCK
  5
23B2
330
23A8
100
AcDbEntity
  8
0
 62
     1
100
AcDbBlockBegin
  2
*D36
 70
     1
 10
0.0
 20
0.0
 30
0.0
  3
*D36
  1

  0
LINE
  5
23B4
330
23A8
100
AcDbEntity
  8
画層1
 62
     0
370
    -2
100
AcDbLine
 10
607.8807788644678
 20
285.3747838232785
 30
0.0
 11
607.8807788644678
 21
327.2136169436202
 31
0.0
  0
LINE
  5
23B5
330
23A8
100
AcDbEntity
  8
画層1
 62
     0
370
    -2
100
AcDbLine
 10
655.8807788644678
 20
285.3747838232785
 30
0.0
 11
655.8807788644678
 21
327.2136169436202
 31
0.0
  0
LINE
  5
23B6
330
23A8
100
AcDbEntity
  8
画層1
 62
     0
370
    -2
100
AcDbLine
 10
610.3807788644679
 20
325.9636169436201
 30
0.0
 11
653.3807788644678
 21
325.9636169436201
 31
0.0
  0
SOLID
  5
23B7
330
23A8
100
AcDbEntity
  8
画層1
 62
     0
100
AcDbTrace
 10
610.3807788644679
 20
326.3802836102868
 30
0.0
 11
610.3807788644679
 21
325.5469502769535
 31
0.0
 12
607.8807788644678
 22
325.9636169436201
 32
0.0
 13
607.8807788644678
 23
325.9636169436201
 33
0.0
  0
SOLID
  5
23B8
330
23A8
100
AcDbEntity
  8
画層1
 62
     0
100
AcDbTrace
 10
653.3807788644678
 20
326.3802836102868
 30
0.0
 11
653.3807788644678
 21
325.5469502769535
 31
0.0
 12
655.8807788644678
 22
325.9636169436201
 32
0.0
 13
655.8807788644678
 23
325.9636169436201
 33
0.0
  0
MTEXT
  5
23B9
330
23A8
100
AcDbEntity
  8
画層1
 62
     0
100
AcDbMText
 10
631.8807788644678
 20
327.8386169436202
 30
0.0
 40
2.5
 41
0.0
 71
     5
 72
     1
  1
48
 73
     1
 44
1.0
  0
POINT
  5
23BA
330
23A8
100
AcDbEntity
  8
Defpoints
 62
     0
100
AcDbPoint
 10
607.8807788644678
 20
284.7497838232785
 30
0.0
  0
POINT
  5
23BB
330
23A8
100
AcDbEntity
  8
Defpoints
 62
     0
100
AcDbPoint
 10
655.8807788644678
 20
284.7497838232785
 30
0.0
  0
POINT
  5
23BC
330
23A8
100
AcDbEntity
  8
Defpoints
 62
     0
100
AcDbPoint
 10
655.8807788644678
 20
325.9636169436201
 30
0.0
  0
ENDBLK
  5
23B3
330
23A8
100
AcDbEntity
  8
0
 62
     1
100
AcDbBlockEnd
  0
ENDSEC
  0
SECTION
  2
ENTITIES
  0
XLINE
  5
CD8
330
1F
100
AcDbEntity
  8
0
 62
     1
100
AcDbXline
 10
356.217670706203
 20
2015.830258785447
 30
0.0
 11
1.0
 21
0.0
 31
0.0
  0
MTEXT
  5
1ECA
330
1F
100
AcDbEntity
  8
画層1
100
AcDbMText
 10
444.587708912235
 20
459.2068754825556
 30
0.0
 40
5.0
 41
70.6145
 71
     1
 72
     5
  1
型式：ＱＳＨ００３\P富士電機\PＣＭＳー５
  7
STYLE1
 73
     1
 44
1.0
1001
ACAD
1000
MTEXTBEGIN
1070
    73
1070
     1
1070
    44
1040
1.0
1070
    74
1070
     0
1000
MTEXTEND
1000
MTEXTBEGIN
1070
    73
1070
     1
1070
    44
1040
1.0
1070
    74
1070
     0
1000
MTEXTEND
1000
MTEXTBEGIN
1070
    73
1070
     1
1070
    44
1040
1.0
1070
    74
1070
     0
1000
MTEXTEND
1000
MTEXTBEGIN
1070
    73
1070
     1
1070
    44
1040
1.0
1070
    74
1070
     0
1000
MTEXTEND
  0
LWPOLYLINE
  5
1ED3
330
1F
100
AcDbEntity
  8
画層1
100
AcDbPolyline
 90
        8
 70
     0
 43
0.0
 10
561.6512404554189
 20
381.7497838232785
 10
556.6512404554189
 20
381.7497838232785
 42
-0.4142135623730951
 10
554.6512404554189
 20
383.7497838232785
 10
554.6512404554189
 20
397.7497838232785
 10
452.6512404554189
 20
397.7497838232785
 10
452.6512404554189
 20
383.7497838232785
 42
-0.4142135623730951
 10
450.6512404554189
 20
381.7497838232785
 10
445.6512404554189
 20
381.7497838232785
  0
CIRCLE
  5
1ED9
330
1F
100
AcDbEntity
  8
画層1
100
AcDbCircle
 10
445.6512404554189
 20
373.7497838232785
 30
0.0
 40
3.0
  0
CIRCLE
  5
1EDA
330
1F
100
AcDbEntity
  8
画層1
100
AcDbCircle
 10
561.6512404554189
 20
373.7497838232785
 30
0.0
 40
3.0
  0
CIRCLE
  5
1EDB
330
1F
100
AcDbEntity
  8
画層1
100
AcDbCircle
 10
445.6512404554189
 20
373.7497838232785
 30
0.0
 40
5.5
  0
CIRCLE
  5
1EDC
330
1F
100
AcDbEntity
  8
画層1
100
AcDbCircle
 10
561.6512404554189
 20
373.7497838232785
 30
0.0
 40
5.5
  0
ARC
  5
1EE0
330
1F
100
AcDbEntity
  8
画層1
100
AcDbCircle
 10
445.6512404554189
 20
373.7497838232785
 30
0.0
 40
8.0
100
AcDbArc
 50
90.0
 51
270.0
  0
ARC
  5
1EE1
330
1F
100
AcDbEntity
  8
画層1
100
AcDbCircle
 10
561.6512404554189
 20
373.7497838232785
 30
0.0
 40
8.0
100
AcDbArc
 50
270.0
 51
90.0
  0
LINE
  5
1EE4
330
1F
100
AcDbEntity
  8
画層1
100
AcDbLine
 10
561.6512404554189
 20
365.7497838232785
 30
0.0
 11
556.6512404554189
 21
365.7497838232785
 31
0.0
  0
LINE
  5
1EE6
330
1F
100
AcDbEntity
  8
画層1
100
AcDbLine
 10
445.6512404554189
 20
365.7497838232785
 30
0.0
 11
450.6512404554189
 21
365.7497838232785
 31
0.0
  0
LINE
  5
1EE7
330
1F
100
AcDbEntity
  8
画層1
100
AcDbLine
 10
452.6512404554189
 20
363.7497838232785
 30
0.0
 11
452.6512404554189
 21
349.7497838232785
 31
0.0
  0
ARC
  5
1EE8
330
1F
100
AcDbEntity
  8
画層1
100
AcDbCircle
 10
450.6512404554189
 20
363.7497838232785
 30
0.0
 40
2.0
100
AcDbArc
 50
0.0
 51
90.0
  0
LINE
  5
1EE9
330
1F
100
AcDbEntity
  8
画層1
100
AcDbLine
 10
452.6512404554189
 20
349.7497838232785
 30
0.0
 11
554.6512404554189
 21
349.7497838232785
 31
0.0
  0
LINE
  5
1EEA
330
1F
100
AcDbEntity
  8
画層1
100
AcDbLine
 10
554.6512404554189
 20
363.7497838232785
 30
0.0
 11
554.6512404554189
 21
349.7497838232785
 31
0.0
  0
ARC
  5
1EEB
330
1F
100
AcDbEntity
  8
画層1
100
AcDbCircle
 10
556.6512404554189
 20
363.7497838232785
 30
0.0
 40
2.0
100
AcDbArc
 50
90.0
 51
180.0
  0
LINE
  5
1EEE
330
1F
100
AcDbEntity
  8
画層1
100
AcDbLine
 10
454.6512404554189
 20
351.7497838232785
 30
0.0
 11
501.1512404554189
 21
351.7497838232785
 31
0.0
  0
LINE
  5
1EEF
330
1F
100
AcDbEntity
  8
画層1
100
AcDbLine
 10
454.651240455419
 20
356.7497838232785
 30
0.0
 11
454.6512404554189
 21
351.7497838232785
 31
0.0
  0
LINE
  5
1EF0
330
1F
100
AcDbEntity
  8
画層1
100
AcDbLine
 10
552.6512404554189
 20
356.7497838232785
 30
0.0
 11
552.6512404554189
 21
351.7497838232785
 31
0.0
  0
LINE
  5
1EF1
330
1F
100
AcDbEntity
  8
画層1
100
AcDbLine
 10
454.6512404554189
 20
395.7497838232785
 30
0.0
 11
501.1512404554189
 21
395.7497838232785
 31
0.0
  0
LINE
  5
1EF2
330
1F
100
AcDbEntity
  8
画層1
100
AcDbLine
 10
454.6512404554189
 20
390.7497838232785
 30
0.0
 11
482.651240455419
 21
390.7497838232785
 31
0.0
  0
LINE
  5
1EF3
330
1F
100
AcDbEntity
  8
画層1
100
AcDbLine
 10
454.6512404554189
 20
395.7497838232785
 30
0.0
 11
454.6512404554189
 21
390.7497838232785
 31
0.0
  0
LINE
  5
1EF4
330
1F
100
AcDbEntity
  8
画層1
100
AcDbLine
 10
454.6512404554189
 20
356.7497838232785
 30
0.0
 11
482.6512404554188
 21
356.7497838232784
 31
0.0
  0
LINE
  5
1EF5
330
1F
100
AcDbEntity
  8
画層1
100
AcDbLine
 10
552.6512404554189
 20
395.7497838232785
 30
0.0
 11
552.6512404554189
 21
390.7497838232785
 31
0.0
  0
LINE
  5
1EF6
330
1F
100
AcDbEntity
  8
画層1
100
AcDbLine
 10
482.651240455419
 20
395.7497838232785
 30
0.0
 11
482.6512404554189
 21
351.7497838232785
 31
0.0
  0
LINE
  5
1EF7
330
1F
100
AcDbEntity
  8
画層1
100
AcDbLine
 10
524.6512404554189
 20
395.7497838232785
 30
0.0
 11
524.6512404554189
 21
351.7497838232785
 31
0.0
  0
LINE
  5
1EF9
330
1F
100
AcDbEntity
  8
画層1
100
AcDbLine
 10
524.6512404554189
 20
356.7497838232784
 30
0.0
 11
552.6512404554189
 21
356.7497838232785
 31
0.0
  0
LINE
  5
1EFA
330
1F
100
AcDbEntity
  8
画層1
100
AcDbLine
 10
524.6512404554189
 20
390.7497838232785
 30
0.0
 11
552.6512404554189
 21
390.7497838232785
 31
0.0
  0
LINE
  5
1EFD
330
1F
100
AcDbEntity
  8
画層1
100
AcDbLine
 10
454.6512404554189
 20
356.7497838232785
 30
0.0
 11
454.6512404554189
 21
351.7497838232785
 31
0.0
  0
LINE
  5
1EFE
330
1F
100
AcDbEntity
  8
画層1
100
AcDbLine
 10
456.6512404554188
 20
367.7497838232785
 30
0.0
 11
462.0384744979723
 21
367.7497838232784
 31
0.0
  0
LINE
  5
1EFF
330
1F
100
AcDbEntity
  8
画層1
100
AcDbLine
 10
456.6512404554189
 20
379.7497838232785
 30
0.0
 11
462.0384744979721
 21
379.7497838232785
 31
0.0
  0
LINE
  5
1F00
330
1F
100
AcDbEntity
  8
画層1
100
AcDbLine
 10
454.6512404554189
 20
388.7497838232785
 30
0.0
 11
482.651240455419
 21
388.7497838232785
 31
0.0
  0
LINE
  5
1F03
330
1F
100
AcDbEntity
  8
画層1
100
AcDbLine
 10
454.6512404554189
 20
358.7497838232785
 30
0.0
 11
482.6512404554189
 21
358.7497838232784
 31
0.0
  0
LINE
  5
1F04
330
1F
100
AcDbEntity
  8
画層1
100
AcDbLine
 10
454.6512404554189
 20
388.7497838232785
 30
0.0
 11
454.6512404554189
 21
381.7497838232785
 31
0.0
  0
LINE
  5
1F05
330
1F
100
AcDbEntity
  8
画層1
100
AcDbLine
 10
454.6512404554189
 20
365.7497838232785
 30
0.0
 11
454.6512404554189
 21
358.7497838232785
 31
0.0
  0
CIRCLE
  5
1F07
330
1F
100
AcDbEntity
  8
画層1
100
AcDbCircle
 10
468.6512404554189
 20
373.7497838232785
 30
0.0
 40
5.0
  0
CIRCLE
  5
1F08
330
1F
100
AcDbEntity
  8
画層1
100
AcDbCircle
 10
538.6512404554189
 20
373.7497838232785
 30
0.0
 40
5.0
  0
ARC
  5
1F09
330
1F
100
AcDbEntity
  8
画層1
100
AcDbCircle
 10
468.6512404554189
 20
373.7497838232785
 30
0.0
 40
9.0
100
AcDbArc
 50
220.9175048051084
 51
260.6263913086012
  0
LINE
  5
1F10
330
1F
100
AcDbEntity
  8
画層1
100
AcDbLine
 10
477.0512404554189
 20
368.7497838232785
 30
0.0
 11
477.0512404554189
 21
378.7497838232785
 31
0.0
  0
LINE
  5
1F11
330
1F
100
AcDbEntity
  8
画層1
100
AcDbLine
 10
477.0512404554189
 20
378.7497838232785
 30
0.0
 11
468.6512404554189
 21
383.4497838232785
 31
0.0
  0
LINE
  5
1F12
330
1F
100
AcDbEntity
  8
画層1
100
AcDbLine
 10
468.6512404554189
 20
383.4497838232785
 30
0.0
 11
460.2512404554189
 21
378.7497838232785
 31
0.0
  0
LINE
  5
1F13
330
1F
100
AcDbEntity
  8
画層1
100
AcDbLine
 10
460.2512404554189
 20
378.7497838232785
 30
0.0
 11
460.2512404554189
 21
368.7497838232785
 31
0.0
  0
LINE
  5
1F14
330
1F
100
AcDbEntity
  8
画層1
100
AcDbLine
 10
460.2512404554189
 20
368.7497838232785
 30
0.0
 11
468.6512404554189
 21
364.0497838232785
 31
0.0
  0
LINE
  5
1F15
330
1F
100
AcDbEntity
  8
画層1
100
AcDbLine
 10
468.6512404554189
 20
364.0497838232785
 30
0.0
 11
477.0512404554189
 21
368.7497838232785
 31
0.0
  0
ARC
  5
1F16
330
1F
100
AcDbEntity
  8
画層1
100
AcDbCircle
 10
468.6512404554189
 20
373.7497838232785
 30
0.0
 40
9.0
100
AcDbArc
 50
279.3736086913987
 51
319.0824951948915
  0
ARC
  5
1F17
330
1F
100
AcDbEntity
  8
画層1
100
AcDbCircle
 10
468.6512404554189
 20
373.7497838232785
 30
0.0
 40
9.0
100
AcDbArc
 50
338.9605302186843
 51
21.03946978131565
  0
ARC
  5
1F18
330
1F
100
AcDbEntity
  8
画層1
100
AcDbCircle
 10
468.6512404554189
 20
373.7497838232785
 30
0.0
 40
9.0
100
AcDbArc
 50
40.91750480510948
 51
80.62639130860061
  0
ARC
  5
1F19
330
1F
100
AcDbEntity
  8
画層1
100
AcDbCircle
 10
468.6512404554189
 20
373.7497838232785
 30
0.0
 40
9.0
100
AcDbArc
 50
158.9605302186812
 51
201.0394697813187
  0
ARC
  5
1F1A
330
1F
100
AcDbEntity
  8
画層1
100
AcDbCircle
 10
468.6512404554189
 20
373.7497838232785
 30
0.0
 40
9.0
100
AcDbArc
 50
99.37360869139871
 51
139.0824951948915
  0
ARC
  5
1F1B
330
1F
100
AcDbEntity
  8
画層1
100
AcDbCircle
 10
538.6512404554189
 20
373.7497838232785
 30
0.0
 40
9.0
100
AcDbArc
 50
40.91750480510948
 51
80.62639130860061
  0
LINE
  5
1F1C
330
1F
100
AcDbEntity
  8
画層1
100
AcDbLine
 10
547.051240455419
 20
378.7497838232785
 30
0.0
 11
538.6512404554189
 21
383.4497838232785
 31
0.0
  0
LINE
  5
1F1D
330
1F
100
AcDbEntity
  8
画層1
100
AcDbLine
 10
547.051240455419
 20
368.7497838232785
 30
0.0
 11
547.051240455419
 21
378.7497838232785
 31
0.0
  0
ARC
  5
1F1E
330
1F
100
AcDbEntity
  8
画層1
100
AcDbCircle
 10
538.6512404554189
 20
373.7497838232785
 30
0.0
 40
9.0
100
AcDbArc
 50
338.9605302186843
 51
21.03946978131565
  0
ARC
  5
1F1F
330
1F
100
AcDbEntity
  8
画層1
100
AcDbCircle
 10
538.6512404554189
 20
373.7497838232785
 30
0.0
 40
9.0
100
AcDbArc
 50
279.3736086913987
 51
319.0824951948915
  0
LINE
  5
1F20
330
1F
100
AcDbEntity
  8
画層1
100
AcDbLine
 10
538.6512404554189
 20
364.0497838232785
 30
0.0
 11
547.051240455419
 21
368.7497838232785
 31
0.0
  0
ARC
  5
1F21
330
1F
100
AcDbEntity
  8
画層1
100
AcDbCircle
 10
538.6512404554189
 20
373.7497838232785
 30
0.0
 40
9.0
100
AcDbArc
 50
220.9175048051084
 51
260.6263913086012
  0
LINE
  5
1F22
330
1F
100
AcDbEntity
  8
画層1
100
AcDbLine
 10
530.2512404554189
 20
368.7497838232785
 30
0.0
 11
538.6512404554189
 21
364.0497838232785
 31
0.0
  0
LINE
  5
1F23
330
1F
100
AcDbEntity
  8
画層1
100
AcDbLine
 10
530.2512404554189
 20
378.7497838232785
 30
0.0
 11
530.2512404554189
 21
368.7497838232785
 31
0.0
  0
ARC
  5
1F24
330
1F
100
AcDbEntity
  8
画層1
100
AcDbCircle
 10
538.6512404554189
 20
373.7497838232785
 30
0.0
 40
9.0
100
AcDbArc
 50
158.9605302186812
 51
201.0394697813187
  0
ARC
  5
1F25
330
1F
100
AcDbEntity
  8
画層1
100
AcDbCircle
 10
538.6512404554189
 20
373.7497838232785
 30
0.0
 40
9.0
100
AcDbArc
 50
99.37360869139871
 51
139.0824951948915
  0
LINE
  5
1F26
330
1F
100
AcDbEntity
  8
画層1
100
AcDbLine
 10
538.6512404554189
 20
383.4497838232785
 30
0.0
 11
530.2512404554189
 21
378.7497838232785
 31
0.0
  0
LINE
  5
1F27
330
1F
100
AcDbEntity
  8
画層1
100
AcDbLine
 10
524.6512404554189
 20
358.7497838232784
 30
0.0
 11
552.6512404554189
 21
358.7497838232784
 31
0.0
  0
LINE
  5
1F28
330
1F
100
AcDbEntity
  8
画層1
100
AcDbLine
 10
524.6512404554189
 20
388.7497838232785
 30
0.0
 11
552.6512404554189
 21
388.7497838232785
 31
0.0
  0
LINE
  5
1F29
330
1F
100
AcDbEntity
  8
画層1
100
AcDbLine
 10
552.6512404554188
 20
365.7497838232785
 30
0.0
 11
552.6512404554189
 21
358.7497838232785
 31
0.0
  0
LINE
  5
1F2A
330
1F
100
AcDbEntity
  8
画層1
100
AcDbLine
 10
552.6512404554189
 20
388.7497838232785
 30
0.0
 11
552.6512404554189
 21
381.7497838232785
 31
0.0
  0
LINE
  5
1F2B
330
1F
100
AcDbEntity
  8
画層1
100
AcDbLine
 10
550.6512404554189
 20
379.7497838232785
 30
0.0
 11
545.2640064128657
 21
379.7497838232785
 31
0.0
  0
LINE
  5
1F2C
330
1F
100
AcDbEntity
  8
画層1
100
AcDbLine
 10
550.6512404554188
 20
367.7497838232785
 30
0.0
 11
545.2640064128655
 21
367.7497838232785
 31
0.0
  0
ARC
  5
1F2D
330
1F
100
AcDbEntity
  8
画層1
100
AcDbCircle
 10
550.6512404554188
 20
365.7497838232785
 30
0.0
 40
2.0
100
AcDbArc
 50
0.0000000000007124
 51
90.0
  0
ARC
  5
1F2E
330
1F
100
AcDbEntity
  8
画層1
100
AcDbCircle
 10
456.6512404554188
 20
365.7497838232785
 30
0.0
 40
2.0
100
AcDbArc
 50
89.99999999999955
 51
180.0000000000003
  0
ARC
  5
1F2F
330
1F
100
AcDbEntity
  8
画層1
100
AcDbCircle
 10
456.6512404554189
 20
381.7497838232785
 30
0.0
 40
2.0
100
AcDbArc
 50
180.0
 51
270.0
  0
ARC
  5
1F30
330
1F
100
AcDbEntity
  8
画層1
100
AcDbCircle
 10
550.6512404554189
 20
381.7497838232785
 30
0.0
 40
2.0
100
AcDbArc
 50
270.0
 51
0.0
  0
LINE
  5
1FB3
330
1F
100
AcDbEntity
  8
画層1
100
AcDbLine
 10
506.1512404554189
 20
395.7497838232785
 30
0.0
 11
506.1512404554189
 21
393.2497838232785
 31
0.0
  0
LINE
  5
1FB4
330
1F
100
AcDbEntity
  8
画層1
100
AcDbLine
 10
501.1512404554189
 20
395.7497838232785
 30
0.0
 11
501.1512404554189
 21
393.2497838232785
 31
0.0
  0
LINE
  5
1FB5
330
1F
100
AcDbEntity
  8
画層1
100
AcDbLine
 10
506.1512404554188
 20
354.2497838232785
 30
0.0
 11
506.1512404554189
 21
351.7497838232785
 31
0.0
  0
LINE
  5
1FB6
330
1F
100
AcDbEntity
  8
画層1
100
AcDbLine
 10
501.1512404554189
 20
354.2497838232785
 30
0.0
 11
501.1512404554189
 21
351.7497838232785
 31
0.0
  0
LINE
  5
1FB8
330
1F
100
AcDbEntity
  8
画層1
100
AcDbLine
 10
501.1512404554189
 20
393.2497838232785
 30
0.0
 11
506.1512404554189
 21
393.2497838232785
 31
0.0
  0
LINE
  5
1FBA
330
1F
100
AcDbEntity
  8
画層1
100
AcDbLine
 10
501.1512404554189
 20
354.2497838232785
 30
0.0
 11
506.1512404554189
 21
354.2497838232785
 31
0.0
  0
LINE
  5
1FBB
330
1F
100
AcDbEntity
  8
画層1
100
AcDbLine
 10
506.1512404554188
 20
395.7497838232785
 30
0.0
 11
552.6512404554189
 21
395.7497838232785
 31
0.0
  0
LINE
  5
1FBC
330
1F
100
AcDbEntity
  8
画層1
100
AcDbLine
 10
506.1512404554188
 20
351.7497838232785
 30
0.0
 11
552.6512404554189
 21
351.7497838232785
 31
0.0
  0
LINE
  5
1FFB
330
1F
100
AcDbEntity
  8
画層1
  6
CENTER
100
AcDbLine
 10
432.6512404554189
 20
373.7497838232785
 30
0.0
 11
574.6512404554189
 21
373.7497838232785
 31
0.0
  0
LINE
  5
1FFE
330
1F
100
AcDbEntity
  8
画層1
  6
CENTER
100
AcDbLine
 10
503.6512404554189
 20
402.7497838232785
 30
0.0
 11
503.6512404554189
 21
344.7497838232785
 31
0.0
  0
LINE
  5
2006
330
1F
100
AcDbEntity
  8
画層1
100
AcDbLine
 10
437.6512404554189
 20
249.7497838232785
 30
0.0
 11
437.6512404554189
 21
262.7497838232785
 31
0.0
  0
LINE
  5
2007
330
1F
100
AcDbEntity
  8
画層1
100
AcDbLine
 10
437.6512404554189
 20
262.7497838232785
 30
0.0
 11
452.6512404554189
 21
262.7497838232785
 31
0.0
  0
LINE
  5
2008
330
1F
100
AcDbEntity
  8
画層1
100
AcDbLine
 10
569.6512404554189
 20
249.7497838232785
 30
0.0
 11
569.6512404554189
 21
262.7497838232785
 31
0.0
  0
LINE
  5
2009
330
1F
100
AcDbEntity
  8
画層1
100
AcDbLine
 10
569.6512404554189
 20
262.7497838232785
 30
0.0
 11
554.6512404554189
 21
262.7497838232785
 31
0.0
  0
LINE
  5
200A
330
1F
100
AcDbEntity
  8
画層1
100
AcDbLine
 10
437.6512404554189
 20
249.7497838232785
 30
0.0
 11
569.6512404554189
 21
249.7497838232785
 31
0.0
  0
LINE
  5
200B
330
1F
100
AcDbEntity
  8
画層1
100
AcDbLine
 10
452.6512404554189
 20
284.7497838232785
 30
0.0
 11
554.6512404554189
 21
284.7497838232785
 31
0.0
  0
LINE
  5
200E
330
1F
100
AcDbEntity
  8
画層1
100
AcDbLine
 10
452.6512404554189
 20
284.7497838232785
 30
0.0
 11
452.6512404554189
 21
249.7497838232785
 31
0.0
  0
LINE
  5
200F
330
1F
100
AcDbEntity
  8
画層1
100
AcDbLine
 10
554.6512404554189
 20
284.7497838232785
 30
0.0
 11
554.6512404554189
 21
249.7497838232785
 31
0.0
  0
LINE
  5
2017
330
1F
100
AcDbEntity
  8
画層1
  6
DASHED2
100
AcDbLine
 10
442.6512404554189
 20
249.7497838232785
 30
0.0
 11
442.6512404554189
 21
255.7497838232785
 31
0.0
  0
LINE
  5
2018
330
1F
100
AcDbEntity
  8
画層1
  6
DASHED2
100
AcDbLine
 10
442.6512404554189
 20
255.7497838232785
 30
0.0
 11
440.1512404554189
 21
255.7497838232785
 31
0.0
  0
LINE
  5
2019
330
1F
100
AcDbEntity
  8
画層1
  6
DASHED2
100
AcDbLine
 10
440.1512404554189
 20
255.7497838232785
 30
0.0
 11
440.1512404554189
 21
262.7497838232785
 31
0.0
  0
LINE
  5
201A
330
1F
100
AcDbEntity
  8
画層1
  6
DASHED2
100
AcDbLine
 10
448.6512404554189
 20
249.7497838232785
 30
0.0
 11
448.6512404554189
 21
255.7497838232785
 31
0.0
  0
LINE
  5
201B
330
1F
100
AcDbEntity
  8
画層1
  6
DASHED2
100
AcDbLine
 10
448.6512404554189
 20
255.7497838232785
 30
0.0
 11
451.1512404554189
 21
255.7497838232785
 31
0.0
  0
LINE
  5
201C
330
1F
100
AcDbEntity
  8
画層1
  6
DASHED2
100
AcDbLine
 10
451.1512404554189
 20
255.7497838232785
 30
0.0
 11
451.1512404554189
 21
262.7497838232785
 31
0.0
  0
LINE
  5
2025
330
1F
100
AcDbEntity
  8
画層1
  6
DASHED2
100
AcDbLine
 10
558.6512404554189
 20
249.7497838232785
 30
0.0
 11
558.6512404554189
 21
255.7497838232785
 31
0.0
  0
LINE
  5
2026
330
1F
100
AcDbEntity
  8
画層1
  6
DASHED2
100
AcDbLine
 10
558.6512404554189
 20
255.7497838232785
 30
0.0
 11
556.1512404554189
 21
255.7497838232785
 31
0.0
  0
LINE
  5
2027
330
1F
100
AcDbEntity
  8
画層1
  6
DASHED2
100
AcDbLine
 10
556.1512404554189
 20
255.7497838232785
 30
0.0
 11
556.1512404554189
 21
262.7497838232785
 31
0.0
  0
LINE
  5
2028
330
1F
100
AcDbEntity
  8
画層1
  6
DASHED2
100
AcDbLine
 10
564.6512404554189
 20
249.7497838232785
 30
0.0
 11
564.6512404554189
 21
255.7497838232785
 31
0.0
  0
LINE
  5
2029
330
1F
100
AcDbEntity
  8
画層1
  6
DASHED2
100
AcDbLine
 10
564.6512404554189
 20
255.7497838232785
 30
0.0
 11
567.1512404554189
 21
255.7497838232785
 31
0.0
  0
LINE
  5
202A
330
1F
100
AcDbEntity
  8
画層1
  6
DASHED2
100
AcDbLine
 10
567.1512404554189
 20
255.7497838232785
 30
0.0
 11
567.1512404554189
 21
262.7497838232785
 31
0.0
  0
LINE
  5
202C
330
1F
100
AcDbEntity
  8
画層1
100
AcDbLine
 10
561.6512404554189
 20
244.7497838232785
 30
0.0
 11
561.6512404554189
 21
267.7497838232785
 31
0.0
  0
LINE
  5
202D
330
1F
100
AcDbEntity
  8
画層1
100
AcDbLine
 10
445.6512404554189
 20
244.7497838232785
 30
0.0
 11
445.6512404554189
 21
267.7497838232785
 31
0.0
  0
LINE
  5
206E
330
1F
100
AcDbEntity
  8
画層1
100
AcDbLine
 10
503.6512404554189
 20
289.7497838232785
 30
0.0
 11
503.6512404554189
 21
244.7497838232785
 31
0.0
  0
LINE
  5
2070
330
1F
100
AcDbEntity
  8
画層1
  6
ACAD_ISO02W100
100
AcDbLine
 10
437.6512404554189
 20
321.7497838232785
 30
0.0
 11
569.6512404554189
 21
321.7497838232785
 31
0.0
  0
LINE
  5
2071
330
1F
100
AcDbEntity
  8
画層1
  6
ACAD_ISO02W100
100
AcDbLine
 10
437.6512404554189
 20
284.7497838232785
 30
0.0
 11
452.6512404554189
 21
284.7497838232785
 31
0.0
  0
LINE
  5
2072
330
1F
100
AcDbEntity
  8
画層1
  6
ACAD_ISO02W100
100
AcDbLine
 10
554.6512404554189
 20
284.7497838232785
 30
0.0
 11
569.6512404554189
 21
284.7497838232785
 31
0.0
  0
LINE
  5
2073
330
1F
100
AcDbEntity
  8
画層1
  6
ACAD_ISO02W100
100
AcDbLine
 10
437.6512404554189
 20
284.7497838232785
 30
0.0
 11
437.6512404554189
 21
321.7497838232785
 31
0.0
  0
LINE
  5
2074
330
1F
100
AcDbEntity
  8
画層1
  6
ACAD_ISO02W100
100
AcDbLine
 10
569.6512404554189
 20
321.7497838232785
 30
0.0
 11
569.6512404554189
 21
284.7497838232785
 31
0.0
  0
LINE
  5
2075
330
1F
100
AcDbEntity
  8
画層1
100
AcDbLine
 10
445.6512404554189
 20
249.7497838232785
 30
0.0
 11
445.6512404554189
 21
249.7497838232785
 31
0.0
  0
LINE
  5
2078
330
1F
100
AcDbEntity
  8
画層1
100
AcDbLine
 10
459.6512404554188
 20
284.7497838232785
 30
0.0
 11
459.6512404554188
 21
285.7497838232785
 31
0.0
  0
LINE
  5
2079
330
1F
100
AcDbEntity
  8
画層1
100
AcDbLine
 10
459.6512404554188
 20
284.7497838232785
 30
0.0
 11
459.6512404554188
 21
286.3497838232786
 31
0.0
  0
LINE
  5
207A
330
1F
100
AcDbEntity
  8
画層1
100
AcDbLine
 10
477.6512404554189
 20
284.7497838232785
 30
0.0
 11
477.6512404554189
 21
286.3497838232786
 31
0.0
  0
LINE
  5
207B
330
1F
100
AcDbEntity
  8
画層1
100
AcDbLine
 10
477.6512404554189
 20
284.7497838232785
 30
0.0
 11
477.6512404554189
 21
285.7497838232785
 31
0.0
  0
LINE
  5
207C
330
1F
100
AcDbEntity
  8
画層1
100
AcDbLine
 10
459.6512404554188
 20
286.3497838232786
 30
0.0
 11
477.6512404554189
 21
286.3497838232786
 31
0.0
  0
LINE
  5
207D
330
1F
100
AcDbEntity
  8
画層1
100
AcDbLine
 10
468.1460624850812
 20
286.3497838232786
 30
0.0
 11
468.2333112268374
 21
288.8482608908264
 31
0.0
  0
LINE
  5
207E
330
1F
100
AcDbEntity
  8
画層1
100
AcDbLine
 10
459.6512404554188
 20
286.6464295452499
 30
0.0
 11
459.7384891971751
 21
289.1449066127976
 31
0.0
  0
LINE
  5
207F
330
1F
100
AcDbEntity
  8
画層1
100
AcDbLine
 10
459.7384891971751
 20
289.1449066127976
 30
0.0
 11
468.2333112268374
 21
288.8482608908264
 31
0.0
  0
LINE
  5
2080
330
1F
100
AcDbEntity
  8
画層1
100
AcDbLine
 10
468.7257949132661
 20
288.3367812377176
 30
0.0
 11
468.7547227988559
 21
290.8702470007075
 31
0.0
  0
LINE
  5
2084
330
1F
100
AcDbEntity
  8
画層1
100
AcDbLine
 10
477.3445728920205
 20
286.8170581393272
 30
0.0
 11
477.9069505278802
 21
289.2529833012903
 31
0.0
  0
LINE
  5
2085
330
1F
100
AcDbEntity
  8
画層1
100
AcDbLine
 10
468.754722798856
 20
290.8702470007075
 30
0.0
 11
477.7786933361879
 21
289.2790775218577
 31
0.0
  0
LINE
  5
2086
330
1F
100
AcDbEntity
  8
画層1
100
AcDbLine
 10
468.7257949132661
 20
288.3367812377176
 30
0.0
 11
477.3445728920205
 21
286.8170581393272
 31
0.0
  0
LINE
  5
2088
330
1F
100
AcDbEntity
  8
画層1
100
AcDbLine
 10
468.1460624850812
 20
286.3497838232786
 30
0.0
 11
459.6512404554188
 21
286.6464295452499
 31
0.0
  0
LINE
  5
2090
330
1F
100
AcDbEntity
  8
画層1
100
AcDbLine
 10
473.6512404554189
 20
286.7814408737061
 30
0.0
 11
477.3445728920205
 21
286.8170581393272
 31
0.0
  0
LINE
  5
2091
330
1F
100
AcDbEntity
  8
画層1
100
AcDbLine
 10
459.7384891971751
 20
289.1449066127976
 30
0.0
 11
463.6512404554189
 21
289.1681819574286
 31
0.0
  0
LINE
  5
209A
330
1F
100
AcDbEntity
  8
画層1
100
AcDbLine
 10
459.0512404554189
 20
291.8702470007076
 30
0.0
 11
459.0512404554189
 21
297.8702470007076
 31
0.0
  0
LINE
  5
209C
330
1F
100
AcDbEntity
  8
画層1
100
AcDbLine
 10
478.2512404554188
 20
297.8702470007076
 30
0.0
 11
478.2512404554188
 21
291.8702470007076
 31
0.0
  0
LINE
  5
209E
330
1F
100
AcDbEntity
  8
画層1
100
AcDbLine
 10
463.6512404554189
 20
292.3702470007075
 30
0.0
 11
463.6512404554188
 21
297.3702470007075
 31
0.0
  0
LINE
  5
209F
330
1F
100
AcDbEntity
  8
画層1
100
AcDbLine
 10
473.6512404554189
 20
292.3702470007075
 30
0.0
 11
473.6512404554188
 21
297.3702470007075
 31
0.0
  0
LINE
  5
20A7
330
1F
100
AcDbEntity
  8
画層1
100
AcDbLine
 10
460.0512404554189
 20
290.8702470007075
 30
0.0
 11
477.2512404554189
 21
290.8702470007076
 31
0.0
  0
LINE
  5
20AE
330
1F
100
AcDbEntity
  8
画層1
100
AcDbLine
 10
460.0512404554189
 20
298.8702470007075
 30
0.0
 11
477.2512404554189
 21
298.8702470007075
 31
0.0
  0
LINE
  5
20B4
330
1F
100
AcDbEntity
  8
画層1
100
AcDbLine
 10
460.0512404554189
 20
298.8702470007075
 30
0.0
 11
459.0512404554189
 21
297.8702470007076
 31
0.0
  0
LINE
  5
20B5
330
1F
100
AcDbEntity
  8
画層1
100
AcDbLine
 10
477.2512404554189
 20
298.8702470007075
 30
0.0
 11
478.2512404554188
 21
297.8702470007076
 31
0.0
  0
LINE
  5
20B6
330
1F
100
AcDbEntity
  8
画層1
100
AcDbLine
 10
459.0512404554189
 20
291.8702470007076
 30
0.0
 11
460.0512404554189
 21
290.8702470007075
 31
0.0
  0
LINE
  5
20B7
330
1F
100
AcDbEntity
  8
画層1
100
AcDbLine
 10
477.2512404554189
 20
290.8702470007076
 30
0.0
 11
478.2512404554188
 21
291.8702470007076
 31
0.0
  0
ARC
  5
20B8
330
1F
100
AcDbEntity
  8
画層1
100
AcDbCircle
 10
462.1512404554189
 20
292.3702470007075
 30
0.0
 40
1.5
100
AcDbArc
 50
270.0000000000002
 51
0.0000000000010814
  0
ARC
  5
20B9
330
1F
100
AcDbEntity
  8
画層1
100
AcDbCircle
 10
465.1512404554189
 20
292.3702470007075
 30
0.0
 40
1.5
100
AcDbArc
 50
180.0000000000006
 51
269.9999999999997
  0
ARC
  5
20BA
330
1F
100
AcDbEntity
  8
画層1
100
AcDbCircle
 10
472.1512404554188
 20
292.3702470007075
 30
0.0
 40
1.5
100
AcDbArc
 50
269.9999999999997
 51
359.9999999999989
  0
ARC
  5
20BB
330
1F
100
AcDbEntity
  8
画層1
100
AcDbCircle
 10
475.1512404554189
 20
292.3702470007075
 30
0.0
 40
1.5
100
AcDbArc
 50
180.0
 51
270.0000000000002
  0
ARC
  5
20BC
330
1F
100
AcDbEntity
  8
画層1
100
AcDbCircle
 10
462.1512404554188
 20
297.3702470007075
 30
0.0
 40
1.5
100
AcDbArc
 50
0.0000000000006107
 51
90.0
  0
ARC
  5
20BD
330
1F
100
AcDbEntity
  8
画層1
100
AcDbCircle
 10
465.1512404554188
 20
297.3702470007075
 30
0.0
 40
1.5
100
AcDbArc
 50
90.0
 51
180.0000000000006
  0
ARC
  5
20BE
330
1F
100
AcDbEntity
  8
画層1
100
AcDbCircle
 10
472.1512404554188
 20
297.3702470007075
 30
0.0
 40
1.5
100
AcDbArc
 50
0.0
 51
90.0
  0
ARC
  5
20BF
330
1F
100
AcDbEntity
  8
画層1
100
AcDbCircle
 10
475.1512404554189
 20
297.3702470007075
 30
0.0
 40
1.5
100
AcDbArc
 50
90.0
 51
180.0
  0
LINE
  5
20C3
330
1F
100
AcDbEntity
  8
画層1
100
AcDbLine
 10
463.6512404554189
 20
298.8702470007075
 30
0.0
 11
463.6512404554189
 21
306.7497838232785
 31
0.0
  0
LINE
  5
20C4
330
1F
100
AcDbEntity
  8
画層1
100
AcDbLine
 10
464.6512404554189
 20
307.7497838232785
 30
0.0
 11
472.6512404554189
 21
307.7497838232785
 31
0.0
  0
LINE
  5
20C5
330
1F
100
AcDbEntity
  8
画層1
100
AcDbLine
 10
473.6512404554189
 20
306.7497838232785
 30
0.0
 11
473.6512404554189
 21
298.8702470007075
 31
0.0
  0
LINE
  5
20C6
330
1F
100
AcDbEntity
  8
画層1
100
AcDbLine
 10
463.6512404554189
 20
289.0082703280299
 30
0.0
 11
463.6512404554189
 21
290.8702470007075
 31
0.0
  0
LINE
  5
20C7
330
1F
100
AcDbEntity
  8
画層1
100
AcDbLine
 10
473.6512404554189
 20
290.0068588263401
 30
0.0
 11
473.6512404554189
 21
290.8702470007076
 31
0.0
  0
LINE
  5
20C8
330
1F
100
AcDbEntity
  8
画層1
100
AcDbLine
 10
464.6512404554189
 20
307.7497838232785
 30
0.0
 11
463.6512404554189
 21
306.7497838232785
 31
0.0
  0
LINE
  5
20C9
330
1F
100
AcDbEntity
  8
画層1
100
AcDbLine
 10
472.6512404554189
 20
307.7497838232785
 30
0.0
 11
473.6512404554189
 21
306.7497838232785
 31
0.0
  0
LINE
  5
20CA
330
1F
100
AcDbEntity
  8
画層1
100
AcDbLine
 10
464.3512404554189
 20
307.4497838232785
 30
0.0
 11
464.3512404554189
 21
298.7844605630807
 31
0.0
  0
LINE
  5
20CB
330
1F
100
AcDbEntity
  8
画層1
100
AcDbLine
 10
472.9512404554189
 20
307.4497838232785
 30
0.0
 11
472.9512404554189
 21
298.7844605630807
 31
0.0
  0
LINE
  5
20CC
330
1F
100
AcDbEntity
  8
画層1
100
AcDbLine
 10
472.9512404554189
 20
290.8702470007076
 30
0.0
 11
472.9512404554188
 21
290.130287712836
 31
0.0
  0
LINE
  5
20CD
330
1F
100
AcDbEntity
  8
画層1
100
AcDbLine
 10
464.3512404554189
 20
290.8702470007075
 30
0.0
 11
464.3512404554188
 21
288.9733495585381
 31
0.0
  0
LINE
  5
20CE
330
1F
100
AcDbEntity
  8
画層1
100
AcDbLine
 10
472.9512404554188
 20
287.5917211831217
 30
0.0
 11
472.9512404554189
 21
286.3497838232786
 31
0.0
  0
LINE
  5
20CF
330
1F
100
AcDbEntity
  8
画層1
100
AcDbLine
 10
473.6512404554189
 20
287.4682922966258
 30
0.0
 11
473.6512404554189
 21
286.3497838232786
 31
0.0
  0
LINE
  5
20D0
330
1F
100
AcDbEntity
  8
画層1
100
AcDbLine
 10
534.6512404554188
 20
307.7497838232785
 30
0.0
 11
542.6512404554189
 21
307.7497838232785
 31
0.0
  0
LINE
  5
20D1
330
1F
100
AcDbEntity
  8
画層1
100
AcDbLine
 10
530.051240455419
 20
298.8702470007075
 30
0.0
 11
547.2512404554188
 21
298.8702470007075
 31
0.0
  0
LINE
  5
20D2
330
1F
100
AcDbEntity
  8
画層1
100
AcDbLine
 10
530.051240455419
 20
290.8702470007075
 30
0.0
 11
547.2512404554188
 21
290.8702470007076
 31
0.0
  0
LINE
  5
20D3
330
1F
100
AcDbEntity
  8
画層1
100
AcDbLine
 10
538.7257949132661
 20
288.3367812377176
 30
0.0
 11
547.3445728920205
 21
286.8170581393272
 31
0.0
  0
LINE
  5
20D4
330
1F
100
AcDbEntity
  8
画層1
100
AcDbLine
 10
538.7547227988561
 20
290.8702470007075
 30
0.0
 11
547.7786933361878
 21
289.2790775218577
 31
0.0
  0
LINE
  5
20D5
330
1F
100
AcDbEntity
  8
画層1
100
AcDbLine
 10
529.6512404554189
 20
286.3497838232786
 30
0.0
 11
547.6512404554189
 21
286.3497838232786
 31
0.0
  0
LINE
  5
20D6
330
1F
100
AcDbEntity
  8
画層1
100
AcDbLine
 10
533.6512404554189
 20
292.3702470007075
 30
0.0
 11
533.6512404554188
 21
297.3702470007075
 31
0.0
  0
LINE
  5
20D7
330
1F
100
AcDbEntity
  8
画層1
100
AcDbLine
 10
529.051240455419
 20
291.8702470007076
 30
0.0
 11
529.051240455419
 21
297.8702470007076
 31
0.0
  0
ARC
  5
20D8
330
1F
100
AcDbEntity
  8
画層1
100
AcDbCircle
 10
535.1512404554189
 20
292.3702470007075
 30
0.0
 40
1.5
100
AcDbArc
 50
180.0000000000006
 51
269.9999999999997
  0
LINE
  5
20D9
330
1F
100
AcDbEntity
  8
画層1
100
AcDbLine
 10
538.1460624850811
 20
286.3497838232786
 30
0.0
 11
529.6512404554189
 21
286.6464295452499
 31
0.0
  0
LINE
  5
20DA
330
1F
100
AcDbEntity
  8
画層1
100
AcDbLine
 10
529.7384891971751
 20
289.1449066127976
 30
0.0
 11
538.2333112268375
 21
288.8482608908264
 31
0.0
  0
LINE
  5
20DB
330
1F
100
AcDbEntity
  8
画層1
100
AcDbLine
 10
534.3512404554189
 20
290.8702470007075
 30
0.0
 11
534.3512404554188
 21
288.9733495585381
 31
0.0
  0
LINE
  5
20DC
330
1F
100
AcDbEntity
  8
画層1
100
AcDbLine
 10
529.7384891971751
 20
289.1449066127976
 30
0.0
 11
533.6512404554189
 21
289.1681819574286
 31
0.0
  0
LINE
  5
20DD
330
1F
100
AcDbEntity
  8
画層1
100
AcDbLine
 10
533.6512404554189
 20
289.0082703280299
 30
0.0
 11
533.6512404554189
 21
290.8702470007075
 31
0.0
  0
ARC
  5
20DE
330
1F
100
AcDbEntity
  8
画層1
100
AcDbCircle
 10
532.1512404554189
 20
292.3702470007075
 30
0.0
 40
1.5
100
AcDbArc
 50
270.0000000000002
 51
0.0000000000010814
  0
LINE
  5
20DF
330
1F
100
AcDbEntity
  8
画層1
100
AcDbLine
 10
529.051240455419
 20
291.8702470007076
 30
0.0
 11
530.051240455419
 21
290.8702470007075
 31
0.0
  0
LINE
  5
20E0
330
1F
100
AcDbEntity
  8
画層1
100
AcDbLine
 10
529.6512404554189
 20
286.6464295452499
 30
0.0
 11
529.7384891971751
 21
289.1449066127976
 31
0.0
  0
LINE
  5
20E1
330
1F
100
AcDbEntity
  8
画層1
100
AcDbLine
 10
529.6512404554189
 20
284.7497838232785
 30
0.0
 11
529.6512404554189
 21
286.3497838232786
 31
0.0
  0
LINE
  5
20E2
330
1F
100
AcDbEntity
  8
画層1
100
AcDbLine
 10
529.6512404554189
 20
284.7497838232785
 30
0.0
 11
529.6512404554189
 21
285.7497838232785
 31
0.0
  0
LINE
  5
20E3
330
1F
100
AcDbEntity
  8
画層1
100
AcDbLine
 10
538.7257949132661
 20
288.3367812377176
 30
0.0
 11
538.7547227988559
 21
290.8702470007075
 31
0.0
  0
LINE
  5
20E4
330
1F
100
AcDbEntity
  8
画層1
100
AcDbLine
 10
538.1460624850811
 20
286.3497838232786
 30
0.0
 11
538.2333112268375
 21
288.8482608908264
 31
0.0
  0
LINE
  5
20E5
330
1F
100
AcDbEntity
  8
画層1
100
AcDbLine
 10
534.6512404554188
 20
307.7497838232785
 30
0.0
 11
533.6512404554189
 21
306.7497838232785
 31
0.0
  0
ARC
  5
20E6
330
1F
100
AcDbEntity
  8
画層1
100
AcDbCircle
 10
535.1512404554187
 20
297.3702470007075
 30
0.0
 40
1.5
100
AcDbArc
 50
90.0
 51
180.0000000000006
  0
LINE
  5
20E7
330
1F
100
AcDbEntity
  8
画層1
100
AcDbLine
 10
534.3512404554189
 20
307.4497838232785
 30
0.0
 11
534.3512404554189
 21
298.7844605630807
 31
0.0
  0
LINE
  5
20E8
330
1F
100
AcDbEntity
  8
画層1
100
AcDbLine
 10
533.6512404554189
 20
298.8702470007075
 30
0.0
 11
533.6512404554189
 21
306.7497838232785
 31
0.0
  0
ARC
  5
20E9
330
1F
100
AcDbEntity
  8
画層1
100
AcDbCircle
 10
532.1512404554189
 20
297.3702470007075
 30
0.0
 40
1.5
100
AcDbArc
 50
0.0000000000006107
 51
90.0
  0
LINE
  5
20EA
330
1F
100
AcDbEntity
  8
画層1
100
AcDbLine
 10
530.051240455419
 20
298.8702470007075
 30
0.0
 11
529.051240455419
 21
297.8702470007076
 31
0.0
  0
LINE
  5
20EB
330
1F
100
AcDbEntity
  8
画層1
100
AcDbLine
 10
543.6512404554189
 20
292.3702470007075
 30
0.0
 11
543.6512404554189
 21
297.3702470007075
 31
0.0
  0
LINE
  5
20EC
330
1F
100
AcDbEntity
  8
画層1
100
AcDbLine
 10
548.2512404554188
 20
297.8702470007076
 30
0.0
 11
548.2512404554188
 21
291.8702470007076
 31
0.0
  0
LINE
  5
20ED
330
1F
100
AcDbEntity
  8
画層1
100
AcDbLine
 10
547.2512404554188
 20
290.8702470007076
 30
0.0
 11
548.2512404554188
 21
291.8702470007076
 31
0.0
  0
LINE
  5
20EE
330
1F
100
AcDbEntity
  8
画層1
100
AcDbLine
 10
547.3445728920205
 20
286.8170581393272
 30
0.0
 11
547.9069505278803
 21
289.2529833012903
 31
0.0
  0
LINE
  5
20EF
330
1F
100
AcDbEntity
  8
画層1
100
AcDbLine
 10
542.9512404554189
 20
287.5917211831217
 30
0.0
 11
542.9512404554189
 21
286.3497838232786
 31
0.0
  0
LINE
  5
20F0
330
1F
100
AcDbEntity
  8
画層1
100
AcDbLine
 10
542.9512404554189
 20
290.8702470007076
 30
0.0
 11
542.9512404554189
 21
290.130287712836
 31
0.0
  0
LINE
  5
20F1
330
1F
100
AcDbEntity
  8
画層1
100
AcDbLine
 10
543.6512404554189
 20
286.7814408737061
 30
0.0
 11
547.3445728920205
 21
286.8170581393272
 31
0.0
  0
LINE
  5
20F2
330
1F
100
AcDbEntity
  8
画層1
100
AcDbLine
 10
543.6512404554189
 20
287.4682922966258
 30
0.0
 11
543.6512404554189
 21
286.3497838232786
 31
0.0
  0
LINE
  5
20F3
330
1F
100
AcDbEntity
  8
画層1
100
AcDbLine
 10
543.6512404554189
 20
290.0068588263401
 30
0.0
 11
543.6512404554189
 21
290.8702470007076
 31
0.0
  0
ARC
  5
20F4
330
1F
100
AcDbEntity
  8
画層1
100
AcDbCircle
 10
545.1512404554189
 20
292.3702470007075
 30
0.0
 40
1.5
100
AcDbArc
 50
180.0
 51
270.0000000000002
  0
ARC
  5
20F5
330
1F
100
AcDbEntity
  8
画層1
100
AcDbCircle
 10
542.1512404554189
 20
292.3702470007075
 30
0.0
 40
1.5
100
AcDbArc
 50
269.9999999999997
 51
359.9999999999989
  0
LINE
  5
20F6
330
1F
100
AcDbEntity
  8
画層1
100
AcDbLine
 10
547.6512404554189
 20
284.7497838232785
 30
0.0
 11
547.6512404554189
 21
285.7497838232785
 31
0.0
  0
LINE
  5
20F7
330
1F
100
AcDbEntity
  8
画層1
100
AcDbLine
 10
547.6512404554189
 20
284.7497838232785
 30
0.0
 11
547.6512404554189
 21
286.3497838232786
 31
0.0
  0
LINE
  5
20F8
330
1F
100
AcDbEntity
  8
画層1
100
AcDbLine
 10
547.2512404554188
 20
298.8702470007075
 30
0.0
 11
548.2512404554188
 21
297.8702470007076
 31
0.0
  0
LINE
  5
20F9
330
1F
100
AcDbEntity
  8
画層1
100
AcDbLine
 10
542.9512404554189
 20
307.4497838232785
 30
0.0
 11
542.9512404554189
 21
298.7844605630807
 31
0.0
  0
LINE
  5
20FA
330
1F
100
AcDbEntity
  8
画層1
100
AcDbLine
 10
543.6512404554189
 20
306.7497838232785
 30
0.0
 11
543.6512404554189
 21
298.8702470007075
 31
0.0
  0
LINE
  5
20FB
330
1F
100
AcDbEntity
  8
画層1
100
AcDbLine
 10
542.6512404554189
 20
307.7497838232785
 30
0.0
 11
543.6512404554189
 21
306.7497838232785
 31
0.0
  0
ARC
  5
20FC
330
1F
100
AcDbEntity
  8
画層1
100
AcDbCircle
 10
545.1512404554189
 20
297.3702470007075
 30
0.0
 40
1.5
100
AcDbArc
 50
90.0
 51
180.0
  0
ARC
  5
20FD
330
1F
100
AcDbEntity
  8
画層1
100
AcDbCircle
 10
542.1512404554189
 20
297.3702470007075
 30
0.0
 40
1.5
100
AcDbArc
 50
0.0
 51
90.0
  0
LINE
  5
21F6
330
1F
100
AcDbEntity
  8
画層1
100
AcDbLine
 10
607.8807788644678
 20
249.7497838232785
 30
0.0
 11
607.8807788644678
 21
284.7497838232785
 31
0.0
  0
LINE
  5
21F7
330
1F
100
AcDbEntity
  8
画層1
100
AcDbLine
 10
607.8807788644678
 20
284.7497838232785
 30
0.0
 11
655.8807788644678
 21
284.7497838232785
 31
0.0
  0
LINE
  5
21F8
330
1F
100
AcDbEntity
  8
画層1
100
AcDbLine
 10
655.8807788644678
 20
284.7497838232785
 30
0.0
 11
655.8807788644678
 21
249.7497838232785
 31
0.0
  0
LINE
  5
21FA
330
1F
100
AcDbEntity
  8
画層1
100
AcDbLine
 10
609.8807788644678
 20
252.7497838232785
 30
0.0
 11
622.3807788644678
 21
252.7497838232785
 31
0.0
  0
LINE
  5
21FE
330
1F
100
AcDbEntity
  8
画層1
100
AcDbLine
 10
639.8807788644679
 20
262.7497838232785
 30
0.0
 11
639.8807788644679
 21
249.7497838232785
 31
0.0
  0
LINE
  5
21FF
330
1F
100
AcDbEntity
  8
画層1
100
AcDbLine
 10
623.8807788644678
 20
262.7497838232785
 30
0.0
 11
623.8807788644678
 21
249.7497838232785
 31
0.0
  0
LINE
  5
2201
330
1F
100
AcDbEntity
  8
画層1
  6
CENTER
100
AcDbLine
 10
631.8807788644678
 20
321.7497838232785
 30
0.0
 11
631.8807788644678
 21
244.7497838232785
 31
0.0
  0
LINE
  5
2202
330
1F
100
AcDbEntity
  8
画層1
100
AcDbLine
 10
622.3807788644678
 20
262.7497838232785
 30
0.0
 11
641.3807788644678
 21
262.7497838232785
 31
0.0
  0
LINE
  5
2204
330
1F
100
AcDbEntity
  8
画層1
100
AcDbLine
 10
636.8807788644678
 20
306.7497838232785
 30
0.0
 11
636.8807788644678
 21
298.8702470007075
 31
0.0
  0
LINE
  5
2205
330
1F
100
AcDbEntity
  8
画層1
100
AcDbLine
 10
636.1807788644678
 20
307.4497838232785
 30
0.0
 11
636.1807788644678
 21
298.7844605630807
 31
0.0
  0
LINE
  5
2206
330
1F
100
AcDbEntity
  8
画層1
100
AcDbLine
 10
626.8807788644679
 20
298.8702470007075
 30
0.0
 11
626.8807788644679
 21
306.7497838232785
 31
0.0
  0
LINE
  5
2207
330
1F
100
AcDbEntity
  8
画層1
100
AcDbLine
 10
627.5807788644678
 20
307.4497838232785
 30
0.0
 11
627.5807788644678
 21
298.7844605630807
 31
0.0
  0
LINE
  5
220A
330
1F
100
AcDbEntity
  8
画層1
100
AcDbLine
 10
622.8807788644679
 20
286.3497838232786
 30
0.0
 11
640.8807788644678
 21
286.3497838232786
 31
0.0
  0
LINE
  5
220B
330
1F
100
AcDbEntity
  8
画層1
100
AcDbLine
 10
623.2807788644679
 20
290.8702470007075
 30
0.0
 11
640.4807788644677
 21
290.8702470007076
 31
0.0
  0
LINE
  5
220C
330
1F
100
AcDbEntity
  8
画層1
100
AcDbLine
 10
623.2807788644679
 20
298.8702470007075
 30
0.0
 11
640.4807788644677
 21
298.8702470007075
 31
0.0
  0
LINE
  5
220E
330
1F
100
AcDbEntity
  8
画層1
100
AcDbLine
 10
622.8807788644679
 20
284.7497838232785
 30
0.0
 11
622.8807788644679
 21
285.7497838232785
 31
0.0
  0
LINE
  5
220F
330
1F
100
AcDbEntity
  8
画層1
100
AcDbLine
 10
622.8807788644679
 20
284.7497838232785
 30
0.0
 11
622.8807788644679
 21
286.3497838232786
 31
0.0
  0
LINE
  5
2211
330
1F
100
AcDbEntity
  8
画層1
100
AcDbLine
 10
623.2807788644679
 20
298.8702470007075
 30
0.0
 11
622.2807788644679
 21
297.8702470007076
 31
0.0
  0
LINE
  5
2212
330
1F
100
AcDbEntity
  8
画層1
100
AcDbLine
 10
622.2807788644679
 20
291.8702470007076
 30
0.0
 11
623.2807788644679
 21
290.8702470007075
 31
0.0
  0
LINE
  5
2213
330
1F
100
AcDbEntity
  8
画層1
100
AcDbLine
 10
622.2807788644679
 20
291.8702470007076
 30
0.0
 11
622.2807788644679
 21
297.8702470007076
 31
0.0
  0
ARC
  5
2214
330
1F
100
AcDbEntity
  8
画層1
100
AcDbCircle
 10
625.3807788644678
 20
297.3702470007075
 30
0.0
 40
1.5
100
AcDbArc
 50
0.0000000000006107
 51
90.0
  0
ARC
  5
2215
330
1F
100
AcDbEntity
  8
画層1
100
AcDbCircle
 10
628.3807788644677
 20
297.3702470007075
 30
0.0
 40
1.5
100
AcDbArc
 50
90.0
 51
180.0000000000006
  0
ARC
  5
2216
330
1F
100
AcDbEntity
  8
画層1
100
AcDbCircle
 10
625.3807788644678
 20
292.3702470007075
 30
0.0
 40
1.5
100
AcDbArc
 50
270.0000000000002
 51
0.0000000000010814
  0
LINE
  5
2217
330
1F
100
AcDbEntity
  8
画層1
100
AcDbLine
 10
626.8807788644679
 20
290.4209167540673
 30
0.0
 11
626.8807788644679
 21
290.8702470007075
 31
0.0
  0
LINE
  5
2218
330
1F
100
AcDbEntity
  8
画層1
100
AcDbLine
 10
627.5807788644678
 20
290.8702470007075
 30
0.0
 11
627.5807788644678
 21
290.3422839609052
 31
0.0
  0
ARC
  5
2219
330
1F
100
AcDbEntity
  8
画層1
100
AcDbCircle
 10
628.3807788644678
 20
292.3702470007075
 30
0.0
 40
1.5
100
AcDbArc
 50
180.0000000000006
 51
269.9999999999997
  0
LINE
  5
221A
330
1F
100
AcDbEntity
  8
画層1
100
AcDbLine
 10
626.8807788644679
 20
292.3702470007075
 30
0.0
 11
626.8807788644677
 21
297.3702470007075
 31
0.0
  0
LINE
  5
221D
330
1F
100
AcDbEntity
  8
画層1
100
AcDbLine
 10
622.8518509788777
 20
288.3367812377176
 30
0.0
 11
622.8807788644676
 21
290.8702470007075
 31
0.0
  0
LINE
  5
221F
330
1F
100
AcDbEntity
  8
画層1
100
AcDbLine
 10
622.8518509788777
 20
288.3367812377176
 30
0.0
 11
640.8807788644678
 21
286.3497838232786
 31
0.0
  0
LINE
  5
2220
330
1F
100
AcDbEntity
  8
画層1
100
AcDbLine
 10
636.8807788644678
 20
286.7906303177675
 30
0.0
 11
636.8807788644678
 21
286.3497838232786
 31
0.0
  0
LINE
  5
2221
330
1F
100
AcDbEntity
  8
画層1
100
AcDbLine
 10
636.1807788644678
 20
286.867778454303
 30
0.0
 11
636.1807788644678
 21
286.3497838232786
 31
0.0
  0
LINE
  5
2222
330
1F
100
AcDbEntity
  8
画層1
100
AcDbLine
 10
640.8807788644678
 20
284.7497838232785
 30
0.0
 11
640.8807788644678
 21
286.3497838232786
 31
0.0
  0
LINE
  5
2223
330
1F
100
AcDbEntity
  8
画層1
100
AcDbLine
 10
640.8807788644678
 20
284.7497838232785
 30
0.0
 11
640.8807788644678
 21
285.7497838232785
 31
0.0
  0
ARC
  5
2224
330
1F
100
AcDbEntity
  8
画層1
100
AcDbCircle
 10
635.3807788644679
 20
297.3702470007075
 30
0.0
 40
1.5
100
AcDbArc
 50
0.0
 51
90.0
  0
ARC
  5
2225
330
1F
100
AcDbEntity
  8
画層1
100
AcDbCircle
 10
638.3807788644678
 20
297.3702470007075
 30
0.0
 40
1.5
100
AcDbArc
 50
90.0
 51
180.0
  0
ARC
  5
2226
330
1F
100
AcDbEntity
  8
画層1
100
AcDbCircle
 10
635.3807788644679
 20
292.3702470007075
 30
0.0
 40
1.5
100
AcDbArc
 50
269.9999999999997
 51
359.9999999999989
  0
ARC
  5
2227
330
1F
100
AcDbEntity
  8
画層1
100
AcDbCircle
 10
638.3807788644678
 20
292.3702470007075
 30
0.0
 40
1.5
100
AcDbArc
 50
180.0
 51
270.0000000000002
  0
LINE
  5
2229
330
1F
100
AcDbEntity
  8
画層1
100
AcDbLine
 10
636.8807788644678
 20
289.2975911374666
 30
0.0
 11
636.8807788644678
 21
290.8702470007076
 31
0.0
  0
LINE
  5
222A
330
1F
100
AcDbEntity
  8
画層1
100
AcDbLine
 10
636.1807788644678
 20
290.8702470007076
 30
0.0
 11
636.1807788644678
 21
289.3762239306287
 31
0.0
  0
LINE
  5
222B
330
1F
100
AcDbEntity
  8
画層1
100
AcDbLine
 10
636.8807788644678
 20
292.3702470007075
 30
0.0
 11
636.8807788644678
 21
297.3702470007075
 31
0.0
  0
LINE
  5
222C
330
1F
100
AcDbEntity
  8
画層1
100
AcDbLine
 10
640.4807788644677
 20
298.8702470007075
 30
0.0
 11
641.4807788644678
 21
297.8702470007076
 31
0.0
  0
LINE
  5
222D
330
1F
100
AcDbEntity
  8
画層1
100
AcDbLine
 10
640.4807788644677
 20
290.8702470007076
 30
0.0
 11
641.4807788644678
 21
291.8702470007076
 31
0.0
  0
LINE
  5
222E
330
1F
100
AcDbEntity
  8
画層1
100
AcDbLine
 10
641.4807788644678
 20
297.8702470007076
 30
0.0
 11
641.4807788644678
 21
291.8702470007076
 31
0.0
  0
LINE
  5
222F
330
1F
100
AcDbEntity
  8
画層1
100
AcDbLine
 10
627.8807788644678
 20
307.7497838232785
 30
0.0
 11
635.8807788644678
 21
307.7497838232785
 31
0.0
  0
LINE
  5
2230
330
1F
100
AcDbEntity
  8
画層1
100
AcDbLine
 10
627.8807788644678
 20
307.7497838232785
 30
0.0
 11
626.8807788644679
 21
306.7497838232785
 31
0.0
  0
LINE
  5
2231
330
1F
100
AcDbEntity
  8
画層1
100
AcDbLine
 10
635.8807788644678
 20
307.7497838232785
 30
0.0
 11
636.8807788644678
 21
306.7497838232785
 31
0.0
  0
LINE
  5
2232
330
1F
100
AcDbEntity
  8
画層1
100
AcDbLine
 10
653.8807788644678
 20
252.7497838232785
 30
0.0
 11
653.8807788644678
 21
249.7497838232785
 31
0.0
  0
LINE
  5
2233
330
1F
100
AcDbEntity
  8
画層1
100
AcDbLine
 10
653.8807788644678
 20
249.7497838232785
 30
0.0
 11
655.8807788644678
 21
249.7497838232785
 31
0.0
  0
LINE
  5
2234
330
1F
100
AcDbEntity
  8
画層1
100
AcDbLine
 10
609.8807788644678
 20
252.7497838232785
 30
0.0
 11
609.8807788644678
 21
249.7497838232785
 31
0.0
  0
LINE
  5
2235
330
1F
100
AcDbEntity
  8
画層1
100
AcDbLine
 10
607.8807788644678
 20
249.7497838232785
 30
0.0
 11
609.8807788644678
 21
249.7497838232785
 31
0.0
  0
LINE
  5
2236
330
1F
100
AcDbEntity
  8
画層1
100
AcDbLine
 10
622.3807788644678
 20
249.7497838232785
 30
0.0
 11
641.3807788644678
 21
249.7497838232785
 31
0.0
  0
LINE
  5
2237
330
1F
100
AcDbEntity
  8
画層1
100
AcDbLine
 10
641.3807788644678
 20
252.7497838232785
 30
0.0
 11
653.8807788644678
 21
252.7497838232785
 31
0.0
  0
LINE
  5
2238
330
1F
100
AcDbEntity
  8
画層1
100
AcDbLine
 10
609.8807788644678
 20
251.7497838232785
 30
0.0
 11
622.3807788644678
 21
251.7497838232785
 31
0.0
  0
LINE
  5
2239
330
1F
100
AcDbEntity
  8
画層1
100
AcDbLine
 10
641.3807788644678
 20
251.7497838232785
 30
0.0
 11
653.8807788644678
 21
251.7497838232785
 31
0.0
  0
LINE
  5
223A
330
1F
100
AcDbEntity
  8
画層1
100
AcDbLine
 10
622.3807788644678
 20
262.7497838232785
 30
0.0
 11
622.3807788644678
 21
249.7497838232785
 31
0.0
  0
LINE
  5
223B
330
1F
100
AcDbEntity
  8
画層1
100
AcDbLine
 10
641.3807788644678
 20
262.7497838232785
 30
0.0
 11
641.3807788644678
 21
249.7497838232785
 31
0.0
  0
LINE
  5
2241
330
1F
100
AcDbEntity
  8
画層1
100
AcDbLine
 10
640.8807788644678
 20
286.3497838232786
 30
0.0
 11
640.9680276062241
 21
288.8482608908264
 31
0.0
  0
LINE
  5
2244
330
1F
100
AcDbEntity
  8
画層1
100
AcDbLine
 10
622.8807788644676
 20
290.8702470007075
 30
0.0
 11
640.8807788644678
 21
288.8482608908264
 31
0.0
  0
LINE
  5
2245
330
1F
100
AcDbEntity
  8
画層1
100
AcDbLine
 10
626.8807788644679
 20
287.8927465539898
 30
0.0
 11
626.8807788644679
 21
286.3497838232784
 31
0.0
  0
LINE
  5
2246
330
1F
100
AcDbEntity
  8
画層1
100
AcDbLine
 10
627.5807788644678
 20
287.8155984174542
 30
0.0
 11
627.5807788644678
 21
286.3497838232784
 31
0.0
  0
DIMENSION
  5
22D7
330
1F
100
AcDbEntity
  8
画層1
100
AcDbDimension
  2
*D21
 10
554.6512404554189
 20
407.9496320302512
 30
0.0
 11
503.6512404554189
 21
409.8246320302512
 31
0.0
 70
    32
 71
     5
 42
102.0
  3
ISO-25
100
AcDbAlignedDimension
 13
452.6512404554189
 23
397.7497838232785
 33
0.0
 14
554.6512404554189
 24
397.7497838232785
 34
0.0
100
AcDbRotatedDimension
  0
DIMENSION
  5
22E4
330
1F
100
AcDbEntity
  8
画層1
100
AcDbDimension
  2
*D22
 10
561.6512404554189
 20
414.633891801865
 30
0.0
 11
503.6512404554189
 21
416.508891801865
 31
0.0
 70
    32
 71
     5
 42
116.0
  3
ISO-25
100
AcDbAlignedDimension
 13
445.6512404554189
 23
373.7497838232785
 33
0.0
 14
561.6512404554189
 24
373.7497838232785
 34
0.0
100
AcDbRotatedDimension
  0
DIMENSION
  5
22F1
330
1F
100
AcDbEntity
  8
画層1
100
AcDbDimension
  2
*D23
 10
582.8220306856123
 20
365.7497838232785
 30
0.0
 11
580.9470306856122
 21
373.7497838232786
 31
0.0
 70
    32
 71
     5
 42
16.0
  3
ISO-25
100
AcDbAlignedDimension
 13
561.6512404554189
 23
381.7497838232785
 33
0.0
 14
561.6512404554189
 24
365.7497838232785
 34
0.0
 50
90.0
100
AcDbRotatedDimension
  0
DIMENSION
  5
22FE
330
1F
100
AcDbEntity
  8
画層1
100
AcDbDimension
  2
*D24
 10
591.3832419274274
 20
349.7497838232785
 30
0.0
 11
589.5082419274273
 21
373.7497838232786
 31
0.0
 70
    32
 71
     5
 42
48.0
  3
ISO-25
100
AcDbAlignedDimension
 13
554.6512404554189
 23
397.7497838232785
 33
0.0
 14
554.6512404554189
 24
349.7497838232785
 34
0.0
 50
90.0
100
AcDbRotatedDimension
  0
DIMENSION
  5
230B
330
1F
100
AcDbEntity
  8
画層1
100
AcDbDimension
  2
*D25
 10
440.1512404554189
 20
271.3308455923048
 30
0.0
 11
445.6512404554189
 21
273.2058455923048
 31
0.0
 70
    32
 71
     5
 42
11.0
  3
ISO-25
100
AcDbAlignedDimension
 13
451.1512404554189
 23
262.7497838232785
 33
0.0
 14
440.1512404554189
 24
262.7497838232785
 34
0.0
100
AcDbRotatedDimension
  0
DIMENSION
  5
2318
330
1F
100
AcDbEntity
  8
画層1
100
AcDbDimension
  2
*D26
 10
448.6512404554189
 20
240.420142982966
 30
0.0
 11
445.6512404554189
 21
242.295142982966
 31
0.0
 70
    32
 71
     5
 42
6.0
  3
ISO-25
100
AcDbAlignedDimension
 13
442.6512404554189
 23
249.7497838232785
 33
0.0
 14
448.6512404554189
 24
249.7497838232785
 34
0.0
100
AcDbRotatedDimension
  0
DIMENSION
  5
2327
330
1F
100
AcDbEntity
  8
画層1
100
AcDbDimension
  2
*D27
 10
575.3822860406374
 20
255.7497838232785
 30
0.0
 11
573.5072860406374
 21
252.7497838232786
 31
0.0
 70
    32
 71
     5
 42
6.0
  3
ISO-25
100
AcDbAlignedDimension
 13
569.6512404554189
 23
249.7497838232785
 33
0.0
 14
567.1512404554189
 24
255.7497838232785
 34
0.0
 50
90.0
100
AcDbRotatedDimension
  0
DIMENSION
  5
2336
330
1F
100
AcDbEntity
  8
画層1
100
AcDbDimension
  2
*D28
 10
582.3549344706409
 20
262.7497838232785
 30
0.0
 11
580.4799344706408
 21
256.2497838232786
 31
0.0
 70
    32
 71
     5
 42
13.0
  3
ISO-25
100
AcDbAlignedDimension
 13
576.6322860406374
 23
249.7497838232785
 33
0.0
 14
569.6512404554189
 24
262.7497838232785
 34
0.0
 50
90.0
100
AcDbRotatedDimension
  0
DIMENSION
  5
2343
330
1F
100
AcDbEntity
  8
画層1
100
AcDbDimension
  2
*D29
 10
589.3275829006445
 20
284.7497838232785
 30
0.0
 11
587.4525829006444
 21
267.2497838232786
 31
0.0
 70
    32
 71
     5
 42
35.0
  3
ISO-25
100
AcDbAlignedDimension
 13
583.6049344706408
 23
249.7497838232785
 33
0.0
 14
569.6512404554189
 24
284.7497838232785
 34
0.0
 50
90.0
100
AcDbRotatedDimension
  0
DIMENSION
  5
2350
330
1F
100
AcDbEntity
  8
画層1
100
AcDbDimension
  2
*D30
 10
598.1310008095379
 20
321.7497838232785
 30
0.0
 11
596.2560008095378
 21
285.7497838232786
 31
0.0
 70
    32
 71
     5
 42
72.0
  3
ISO-25
100
AcDbAlignedDimension
 13
590.5775829006444
 23
249.7497838232785
 33
0.0
 14
569.6512404554189
 24
321.7497838232785
 34
0.0
 50
90.0
100
AcDbRotatedDimension
  0
DIMENSION
  5
235D
330
1F
100
AcDbEntity
  8
画層1
100
AcDbDimension
  2
*D31
 10
589.3275829006445
 20
307.7497838232785
 30
0.0
 11
587.4525829006444
 21
296.2497838232786
 31
0.0
 70
    32
 71
     5
 42
23.0
  3
ISO-25
100
AcDbAlignedDimension
 13
589.3275829006445
 23
284.7497838232785
 33
0.0
 14
542.6512404554189
 24
307.7497838232785
 34
0.0
 50
90.0
100
AcDbRotatedDimension
  0
DIMENSION
  5
236A
330
1F
100
AcDbEntity
  8
画層1
100
AcDbDimension
  2
*D32
 10
662.9607444952412
 20
262.7497838232785
 30
0.0
 11
661.0857444952411
 21
256.2497838232786
 31
0.0
 70
    32
 71
     5
 42
13.00000000000002
  3
ISO-25
100
AcDbAlignedDimension
 13
655.8807788644678
 23
249.7497838232785
 33
0.0
 14
641.3807788644678
 24
262.7497838232785
 34
0.0
 50
90.0
100
AcDbRotatedDimension
  0
DIMENSION
  5
2377
330
1F
100
AcDbEntity
  8
画層1
100
AcDbDimension
  2
*D33
 10
670.7209508012338
 20
284.7497838232785
 30
0.0
 11
668.8459508012337
 21
267.2497838232786
 31
0.0
 70
    32
 71
     5
 42
35.00000000000003
  3
ISO-25
100
AcDbAlignedDimension
 13
664.2107444952411
 23
249.7497838232785
 33
0.0
 14
655.8807788644678
 24
284.7497838232785
 34
0.0
 50
90.0
100
AcDbRotatedDimension
  0
DIMENSION
  5
2384
330
1F
100
AcDbEntity
  8
画層1
100
AcDbDimension
  2
*D34
 10
670.7209508012338
 20
307.7497838232785
 30
0.0
 11
668.8459508012337
 21
296.2497838232786
 31
0.0
 70
    32
 71
     5
 42
22.99999999999994
  3
ISO-25
100
AcDbAlignedDimension
 13
670.7209508012338
 23
284.7497838232785
 33
0.0
 14
635.8807788644678
 24
307.7497838232785
 34
0.0
 50
90.0
100
AcDbRotatedDimension
  0
DIMENSION
  5
239A
330
1F
100
AcDbEntity
  8
画層1
100
AcDbDimension
  2
*D35
 10
538.6512404554189
 20
332.8669762460289
 30
0.0
 11
503.6512404554189
 21
334.7419762460289
 31
0.0
 70
    32
 71
     5
 42
70.0
  3
ISO-25
100
AcDbAlignedDimension
 13
468.6512404554189
 23
284.7497838232785
 33
0.0
 14
538.6512404554189
 24
284.7497838232785
 34
0.0
100
AcDbRotatedDimension
  0
DIMENSION
  5
23A7
330
1F
100
AcDbEntity
  8
画層1
100
AcDbDimension
  2
*D36
 10
655.8807788644678
 20
325.9636169436201
 30
0.0
 11
631.8807788644678
 21
327.8386169436202
 31
0.0
 70
    32
 71
     5
 42
48.0
  3
ISO-25
100
AcDbAlignedDimension
 13
607.8807788644678
 23
284.7497838232785
 33
0.0
 14
655.8807788644678
 24
284.7497838232785
 34
0.0
100
AcDbRotatedDimension
  0
MTEXT
  5
2449
330
1F
100
AcDbEntity
  8
画層1
100
AcDbMText
 10
567.1063835537222
 20
336.2769659570852
 30
0.0
 40
2.5
 41
31.2278
 71
     1
 72
     5
  1
絶縁カバー
  7
STYLE1
 73
     1
 44
1.0
  0
LINE
  5
244A
330
1F
100
AcDbEntity
  8
画層1
100
AcDbLine
 10
557.9967090965074
 20
321.7497838232785
 30
0.0
 11
566.1914249197812
 21
333.5339793108382
 31
0.0
  0
ENDSEC
  0
SECTION
  2
OBJECTS
  0
DICTIONARY
  5
C
330
0
100
AcDbDictionary
281
     1
  3
ACAD_GROUP
350
D
  3
ACAD_LAYOUT
350
1A
  3
ACAD_MLINESTYLE
350
17
  3
ACAD_PLOTSETTINGS
350
19
  3
ACAD_PLOTSTYLENAME
350
E
  3
AcDbVariableDictionary
350
AF4
  0
DICTIONARY
  5
BC3
330
1F
100
AcDbDictionary
280
     1
281
     1
  3
ACAD_LAYOUTSELFREF
360
22C4
  0
DICTIONARY
  5
BC5
330
1B
100
AcDbDictionary
280
     1
281
     1
  3
ACAD_LAYOUTSELFREF
360
22C3
  0
DICTIONARY
  5
BC7
330
23
100
AcDbDictionary
280
     1
281
     1
  3
ACAD_LAYOUTSELFREF
360
22C5
  0
DICTIONARY
  5
D
102
{ACAD_REACTORS
330
C
102
}
330
C
100
AcDbDictionary
281
     1
  3
*A1
350
D4D
  3
*A2
350
EE0
  3
*A3
350
F92
  3
*A4
350
FAB
  3
*A5
350
E6A
  3
*A6
350
E6B
  3
*A7
350
EA5
  3
*A8
350
EA6
  3
*A9
350
EDF
  3
*A10
350
10EC
  3
*A11
350
10F0
  0
DICTIONARY
  5
1A
102
{ACAD_REACTORS
330
C
102
}
330
C
100
AcDbDictionary
281
     1
  3
Layout1
350
1E
  3
Layout2
350
26
  3
Model
350
22
  0
DICTIONARY
  5
17
102
{ACAD_REACTORS
330
C
102
}
330
C
100
AcDbDictionary
281
     1
  3
Standard
350
18
  0
DICTIONARY
  5
19
102
{ACAD_REACTORS
330
C
102
}
330
C
100
AcDbDictionary
281
     1
  0
ACDBDICTIONARYWDFLT
  5
E
102
{ACAD_REACTORS
330
C
102
}
330
C
100
AcDbDictionary
281
     1
  3
Normal
350
F
100
AcDbDictionaryWithDefault
340
F
  0
DICTIONARY
  5
AF4
102
{ACAD_REACTORS
330
C
102
}
330
C
100
AcDbDictionary
281
     1
  3
DIMASSOC
350
AF5
  3
SORTENTS
350
12E3
  0
XRECORD
  5
22C4
102
{ACAD_REACTORS
330
BC3
102
}
330
BC3
100
AcDbXrecord
280
     1
340
1F
  0
XRECORD
  5
22C3
102
{ACAD_REACTORS
330
BC5
102
}
330
BC5
100
AcDbXrecord
280
     1
340
1B
  0
XRECORD
  5
22C5
102
{ACAD_REACTORS
330
BC7
102
}
330
BC7
100
AcDbXrecord
280
     1
340
23
  0
GROUP
  5
D4D
102
{ACAD_REACTORS
330
D
102
}
330
D
100
AcDbGroup
300

 70
     1
 71
     1
  0
GROUP
  5
EE0
102
{ACAD_REACTORS
330
D
102
}
330
D
100
AcDbGroup
300

 70
     1
 71
     1
  0
GROUP
  5
F92
102
{ACAD_REACTORS
330
D
102
}
330
D
100
AcDbGroup
300

 70
     1
 71
     1
  0
GROUP
  5
FAB
102
{ACAD_REACTORS
330
D
102
}
330
D
100
AcDbGroup
300

 70
     1
 71
     1
  0
GROUP
  5
E6A
102
{ACAD_REACTORS
330
D
102
}
330
D
100
AcDbGroup
300

 70
     1
 71
     1
  0
GROUP
  5
E6B
102
{ACAD_REACTORS
330
D
102
}
330
D
100
AcDbGroup
300

 70
     1
 71
     1
  0
GROUP
  5
EA5
102
{ACAD_REACTORS
330
D
102
}
330
D
100
AcDbGroup
300

 70
     1
 71
     1
  0
GROUP
  5
EA6
102
{ACAD_REACTORS
330
D
102
}
330
D
100
AcDbGroup
300

 70
     1
 71
     1
  0
GROUP
  5
EDF
102
{ACAD_REACTORS
330
D
102
}
330
D
100
AcDbGroup
300

 70
     1
 71
     1
  0
GROUP
  5
10EC
102
{ACAD_REACTORS
330
D
102
}
330
D
100
AcDbGroup
300

 70
     1
 71
     1
  0
GROUP
  5
10F0
102
{ACAD_REACTORS
330
D
102
}
330
D
100
AcDbGroup
300

 70
     1
 71
     1
  0
LAYOUT
  5
1E
102
{ACAD_REACTORS
330
1A
102
}
330
1A
100
AcDbPlotSettings
  1

  2

  4

  6

 40
0.0
 41
0.0
 42
0.0
 43
0.0
 44
0.0
 45
0.0
 46
0.0
 47
0.0
 48
0.0
 49
0.0
140
0.0
141
0.0
142
1.0
143
1.0
 70
   688
 72
     0
 73
     0
 74
     5
  7
ryu.ctb
 75
    16
147
1.0
148
0.0
149
0.0
100
AcDbLayout
  1
Layout1
 70
     1
 71
     1
 10
0.0
 20
0.0
 11
420.0
 21
297.0
 12
0.0
 22
0.0
 32
0.0
 14
1.000000000000000E+20
 24
1.000000000000000E+20
 34
1.000000000000000E+20
 15
-1.000000000000000E+20
 25
-1.000000000000000E+20
 35
-1.000000000000000E+20
146
0.0
 13
0.0
 23
0.0
 33
0.0
 16
1.0
 26
0.0
 36
0.0
 17
0.0
 27
1.0
 37
0.0
 76
     0
330
1B
  0
LAYOUT
  5
26
102
{ACAD_REACTORS
330
1A
102
}
330
1A
100
AcDbPlotSettings
  1

  2

  4

  6

 40
0.0
 41
0.0
 42
0.0
 43
0.0
 44
0.0
 45
0.0
 46
0.0
 47
0.0
 48
0.0
 49
0.0
140
0.0
141
0.0
142
1.0
143
1.0
 70
   688
 72
     0
 73
     0
 74
     5
  7
ryu.ctb
 75
    16
147
1.0
148
0.0
149
0.0
100
AcDbLayout
  1
Layout2
 70
     1
 71
     2
 10
0.0
 20
0.0
 11
12.0
 21
9.0
 12
0.0
 22
0.0
 32
0.0
 14
0.0
 24
0.0
 34
0.0
 15
0.0
 25
0.0
 35
0.0
146
0.0
 13
0.0
 23
0.0
 33
0.0
 16
1.0
 26
0.0
 36
0.0
 17
0.0
 27
1.0
 37
0.0
 76
     0
330
23
  0
LAYOUT
  5
22
102
{ACAD_REACTORS
330
1A
102
}
330
1A
100
AcDbPlotSettings
  1

  2
Acrobat Distiller
  4
A3
  6

 40
3.174999952316284
 41
3.174999952316284
 42
3.17498779296875
 43
3.17498779296875
 44
297.0530090332031
 45
420.1583251953125
 46
0.0
 47
0.0
 48
0.0
 49
0.0
140
0.0
141
0.0
142
1.0
143
1.0
 70
 11952
 72
     1
 73
     1
 74
     1
  7
ryu.ctb
 75
    16
147
1.0
148
-265.0827039232044
149
-184.4376534941113
100
AcDbLayout
  1
Model
 70
     1
 71
     0
 10
0.0
 20
0.0
 11
12.0
 21
9.0
 12
0.0
 22
0.0
 32
0.0
 14
0.0
 24
0.0
 34
0.0
 15
0.0
 25
0.0
 35
0.0
146
0.0
 13
0.0
 23
0.0
 33
0.0
 16
1.0
 26
0.0
 36
0.0
 17
0.0
 27
1.0
 37
0.0
 76
     0
330
1F
  0
MLINESTYLE
  5
18
102
{ACAD_REACTORS
330
17
102
}
330
17
100
AcDbMlineStyle
  2
STANDARD
 70
     0
  3

 62
   256
 51
90.0
 52
90.0
 71
     2
 49
0.5
 62
   256
  6
BYLAYER
 49
-0.5
 62
   256
  6
BYLAYER
  0
ACDBPLACEHOLDER
  5
F
102
{ACAD_REACTORS
330
E
102
}
330
E
  0
DICTIONARYVAR
  5
AF5
102
{ACAD_REACTORS
330
AF4
102
}
330
AF4
100
DictionaryVariables
280
     0
  1
1
  0
DICTIONARYVAR
  5
12E3
102
{ACAD_REACTORS
330
AF4
102
}
330
AF4
100
DictionaryVariables
280
     0
  1
96
  0
ENDSEC
  0
EOF
