  0
SECTION
  2
HEADER
  9
$ACADVER
  1
AC1015
  9
$ACADMAINTVER
 70
     6
  9
$DWGCODEPAGE
  3
ANSI_932
  9
$INSBASE
 10
0.0
 20
0.0
 30
0.0
  9
$EXTMIN
 10
225.7860163973006
 20
99.63708736246219
 30
0.0
  9
$EXTMAX
 10
397.1849029999998
 20
291.9386510220208
 30
0.0
  9
$LIMMIN
 10
0.0
 20
0.0
  9
$LIMMAX
 10
594.0
 20
420.0
  9
$ORTHOMODE
 70
     0
  9
$REGENMODE
 70
     1
  9
$FILLMODE
 70
     1
  9
$QTEXTMODE
 70
     0
  9
$MIRRTEXT
 70
     1
  9
$LTSCALE
 40
1.0
  9
$ATTMODE
 70
     1
  9
$TEXTSIZE
 40
4.5
  9
$TRACEWID
 40
0.05
  9
$TEXTSTYLE
  7
KANJI
  9
$CLAYER
  8
0
  9
$CELTYPE
  6
ByLayer
  9
$CECOLOR
 62
     1
  9
$CELTSCALE
 40
1.0
  9
$DISPSILH
 70
     0
  9
$DIMSCALE
 40
1.0
  9
$DIMASZ
 40
2.0
  9
$DIMEXO
 40
1.0
  9
$DIMDLI
 40
8.0
  9
$DIMRND
 40
0.0
  9
$DIMDLE
 40
0.0
  9
$DIMEXE
 40
1.0
  9
$DIMTP
 40
0.0
  9
$DIMTM
 40
0.0
  9
$DIMTXT
 40
3.2
  9
$DIMCEN
 40
0.09
  9
$DIMTSZ
 40
0.0
  9
$DIMTOL
 70
     0
  9
$DIMLIM
 70
     0
  9
$DIMTIH
 70
     0
  9
$DIMTOH
 70
     0
  9
$DIMSE1
 70
     0
  9
$DIMSE2
 70
     0
  9
$DIMTAD
 70
     1
  9
$DIMZIN
 70
     0
  9
$DIMBLK
  1

  9
$DIMASO
 70
     1
  9
$DIMSHO
 70
     0
  9
$DIMPOST
  1

  9
$DIMAPOST
  1

  9
$DIMALT
 70
     0
  9
$DIMALTD
 70
     2
  9
$DIMALTF
 40
25.4
  9
$DIMLFAC
 40
1.0
  9
$DIMTOFL
 70
     0
  9
$DIMTVP
 40
0.0
  9
$DIMTIX
 70
     0
  9
$DIMSOXD
 70
     0
  9
$DIMSAH
 70
     0
  9
$DIMBLK1
  1

  9
$DIMBLK2
  1

  9
$DIMSTYLE
  2
STANDARD
  9
$DIMCLRD
 70
     0
  9
$DIMCLRE
 70
     0
  9
$DIMCLRT
 70
     0
  9
$DIMTFAC
 40
1.0
  9
$DIMGAP
 40
0.09
  9
$DIMJUST
 70
     0
  9
$DIMSD1
 70
     0
  9
$DIMSD2
 70
     0
  9
$DIMTOLJ
 70
     1
  9
$DIMTZIN
 70
     0
  9
$DIMALTZ
 70
     0
  9
$DIMALTTZ
 70
     0
  9
$DIMUPT
 70
     0
  9
$DIMDEC
 70
     1
  9
$DIMTDEC
 70
     1
  9
$DIMALTU
 70
     2
  9
$DIMALTTD
 70
     2
  9
$DIMTXSTY
  7
STANDARD
  9
$DIMAUNIT
 70
     0
  9
$DIMADEC
 70
     0
  9
$DIMALTRND
 40
0.0
  9
$DIMAZIN
 70
     0
  9
$DIMDSEP
 70
    46
  9
$DIMATFIT
 70
     3
  9
$DIMFRAC
 70
     0
  9
$DIMLDRBLK
  1

  9
$DIMLUNIT
 70
     2
  9
$DIMLWD
 70
    -2
  9
$DIMLWE
 70
    -2
  9
$DIMTMOVE
 70
     0
  9
$LUNITS
 70
     2
  9
$LUPREC
 70
     2
  9
$SKETCHINC
 40
0.1
  9
$FILLETRAD
 40
1.0
  9
$AUNITS
 70
     1
  9
$AUPREC
 70
     2
  9
$MENU
  1
ACAD
  9
$ELEVATION
 40
0.0
  9
$PELEVATION
 40
0.0
  9
$THICKNESS
 40
0.0
  9
$LIMCHECK
 70
     0
  9
$CHAMFERA
 40
1.0
  9
$CHAMFERB
 40
1.0
  9
$CHAMFERC
 40
0.0
  9
$CHAMFERD
 40
0.0
  9
$SKPOLY
 70
     0
  9
$TDCREATE
 40
2452718.349483136
  9
$TDUCREATE
 40
2452717.974483136
  9
$TDUPDATE
 40
2456463.719143946
  9
$TDUUPDATE
 40
2456463.344143946
  9
$TDINDWG
 40
0.4042007755
  9
$TDUSRTIMER
 40
0.4041982523
  9
$USRTIMER
 70
     1
  9
$ANGBASE
 50
0.0
  9
$ANGDIR
 70
     0
  9
$PDMODE
 70
     0
  9
$PDSIZE
 40
0.0
  9
$PLINEWID
 40
0.0
  9
$SPLFRAME
 70
     0
  9
$SPLINETYPE
 70
     6
  9
$SPLINESEGS
 70
     8
  9
$HANDSEED
  5
5F6
  9
$SURFTAB1
 70
     6
  9
$SURFTAB2
 70
     6
  9
$SURFTYPE
 70
     6
  9
$SURFU
 70
     6
  9
$SURFV
 70
     6
  9
$UCSBASE
  2

  9
$UCSNAME
  2

  9
$UCSORG
 10
0.0
 20
0.0
 30
0.0
  9
$UCSXDIR
 10
1.0
 20
0.0
 30
0.0
  9
$UCSYDIR
 10
0.0
 20
1.0
 30
0.0
  9
$UCSORTHOREF
  2

  9
$UCSORTHOVIEW
 70
     0
  9
$UCSORGTOP
 10
0.0
 20
0.0
 30
0.0
  9
$UCSORGBOTTOM
 10
0.0
 20
0.0
 30
0.0
  9
$UCSORGLEFT
 10
0.0
 20
0.0
 30
0.0
  9
$UCSORGRIGHT
 10
0.0
 20
0.0
 30
0.0
  9
$UCSORGFRONT
 10
0.0
 20
0.0
 30
0.0
  9
$UCSORGBACK
 10
0.0
 20
0.0
 30
0.0
  9
$PUCSBASE
  2

  9
$PUCSNAME
  2

  9
$PUCSORG
 10
0.0
 20
0.0
 30
0.0
  9
$PUCSXDIR
 10
1.0
 20
0.0
 30
0.0
  9
$PUCSYDIR
 10
0.0
 20
1.0
 30
0.0
  9
$PUCSORTHOREF
  2

  9
$PUCSORTHOVIEW
 70
     0
  9
$PUCSORGTOP
 10
0.0
 20
0.0
 30
0.0
  9
$PUCSORGBOTTOM
 10
0.0
 20
0.0
 30
0.0
  9
$PUCSORGLEFT
 10
0.0
 20
0.0
 30
0.0
  9
$PUCSORGRIGHT
 10
0.0
 20
0.0
 30
0.0
  9
$PUCSORGFRONT
 10
0.0
 20
0.0
 30
0.0
  9
$PUCSORGBACK
 10
0.0
 20
0.0
 30
0.0
  9
$USERI1
 70
     0
  9
$USERI2
 70
     0
  9
$USERI3
 70
     0
  9
$USERI4
 70
     0
  9
$USERI5
 70
     0
  9
$USERR1
 40
0.0
  9
$USERR2
 40
0.0
  9
$USERR3
 40
0.0
  9
$USERR4
 40
0.0
  9
$USERR5
 40
0.0
  9
$WORLDVIEW
 70
     1
  9
$SHADEDGE
 70
     3
  9
$SHADEDIF
 70
    70
  9
$TILEMODE
 70
     1
  9
$MAXACTVP
 70
    48
  9
$PINSBASE
 10
0.0
 20
0.0
 30
0.0
  9
$PLIMCHECK
 70
     0
  9
$PEXTMIN
 10
1.000000000000000E+20
 20
1.000000000000000E+20
 30
1.000000000000000E+20
  9
$PEXTMAX
 10
-1.000000000000000E+20
 20
-1.000000000000000E+20
 30
-1.000000000000000E+20
  9
$PLIMMIN
 10
0.0
 20
0.0
  9
$PLIMMAX
 10
12.0
 20
9.0
  9
$UNITMODE
 70
     0
  9
$VISRETAIN
 70
     1
  9
$PLINEGEN
 70
     0
  9
$PSLTSCALE
 70
     1
  9
$TREEDEPTH
 70
  3020
  9
$CMLSTYLE
  2
Standard
  9
$CMLJUST
 70
     0
  9
$CMLSCALE
 40
1.0
  9
$PROXYGRAPHICS
 70
     1
  9
$MEASUREMENT
 70
     0
  9
$CELWEIGHT
370
    -1
  9
$ENDCAPS
280
     0
  9
$JOINSTYLE
280
     0
  9
$LWDISPLAY
290
     0
  9
$INSUNITS
 70
     0
  9
$HYPERLINKBASE
  1

  9
$STYLESHEET
  1

  9
$XEDIT
290
     1
  9
$CEPSNTYPE
380
     0
  9
$PSTYLEMODE
290
     1
  9
$FINGERPRINTGUID
  2
{5CACC788-2D2C-4022-B876-405DD683072D}
  9
$VERSIONGUID
  2
{324464C9-F5CE-4A5F-B191-224C786D5AB5}
  9
$EXTNAMES
290
     1
  9
$PSVPSCALE
 40
0.0
  9
$OLESTARTUP
290
     0
  0
ENDSEC
  0
SECTION
  2
CLASSES
  0
CLASS
  1
ACDBDICTIONARYWDFLT
  2
AcDbDictionaryWithDefault
  3
AutoCAD 2000
 90
        0
280
     0
281
     0
  0
CLASS
  1
ACDBPLACEHOLDER
  2
AcDbPlaceHolder
  3
AutoCAD 2000
 90
        0
280
     0
281
     0
  0
CLASS
  1
LAYOUT
  2
AcDbLayout
  3
AutoCAD 2000
 90
        0
280
     0
281
     0
  0
ENDSEC
  0
SECTION
  2
TABLES
  0
TABLE
  2
VPORT
  5
2AB
330
0
100
AcDbSymbolTable
 70
     2
  0
VPORT
  5
5F5
330
2AB
100
AcDbSymbolTableRecord
100
AcDbViewportTableRecord
  2
*Active
 70
     0
 10
0.0
 20
0.0
 11
1.0
 21
1.0
 12
353.3997548470541
 22
219.024431140008
 13
0.0
 23
0.0
 14
1.0
 24
1.0
 15
0.0
 25
0.0
 16
0.0
 26
0.0
 36
1.0
 17
0.0
 27
0.0
 37
0.0
 40
259.0966940301036
 41
1.791666666666666
 42
50.0
 43
0.0
 44
0.0
 50
0.0
 51
0.0
 71
     0
 72
   100
 73
     1
 74
     1
 75
     0
 76
     0
 77
     0
 78
     0
281
     0
 65
     1
110
0.0
120
0.0
130
0.0
111
1.0
121
0.0
131
0.0
112
0.0
122
1.0
132
0.0
 79
     0
146
0.0
  0
ENDTAB
  0
TABLE
  2
LTYPE
  5
2A8
330
0
100
AcDbSymbolTable
 70
     4
  0
LTYPE
  5
2B6
330
2A8
100
AcDbSymbolTableRecord
100
AcDbLinetypeTableRecord
  2
ByBlock
 70
     0
  3

 72
    65
 73
     0
 40
0.0
  0
LTYPE
  5
2B7
330
2A8
100
AcDbSymbolTableRecord
100
AcDbLinetypeTableRecord
  2
ByLayer
 70
     0
  3

 72
    65
 73
     0
 40
0.0
  0
LTYPE
  5
2B8
330
2A8
100
AcDbSymbolTableRecord
100
AcDbLinetypeTableRecord
  2
CONTINUOUS
 70
     0
  3
Solid line
 72
    65
 73
     0
 40
0.0
  0
LTYPE
  5
2C7
330
2A8
100
AcDbSymbolTableRecord
100
AcDbLinetypeTableRecord
  2
CENTER
 70
     0
  3
____ _ ____ _ ____ _ ____ _ ____ _ ____ _ ____
 72
    65
 73
     4
 40
2.0
 49
1.25
 74
     0
 49
-0.25
 74
     0
 49
0.25
 74
     0
 49
-0.25
 74
     0
  0
LTYPE
  5
3FF
330
2A8
100
AcDbSymbolTableRecord
100
AcDbLinetypeTableRecord
  2
DASHED
 70
     0
  3
Dashed __ __ __ __ __ __ __ __ __ __ __ __ __ _
 72
    65
 73
     2
 40
0.75
 49
0.5
 74
     0
 49
-0.25
 74
     0
  0
LTYPE
  5
400
330
2A8
100
AcDbSymbolTableRecord
100
AcDbLinetypeTableRecord
  2
ACAD_ISO04W100
 70
     0
  3
ISO long-dash dot ____ . ____ . ____ . ____ . _
 72
    65
 73
     4
 40
30.0
 49
24.0
 74
     0
 49
-3.0
 74
     0
 49
0.0
 74
     0
 49
-3.0
 74
     0
  0
ENDTAB
  0
TABLE
  2
LAYER
  5
2A5
330
0
100
AcDbSymbolTable
 70
     3
  0
LAYER
  5
2B3
330
2A5
100
AcDbSymbolTableRecord
100
AcDbLayerTableRecord
  2
0
 70
     0
 62
     7
  6
CONTINUOUS
370
    -3
390
2B2
  0
LAYER
  5
2C8
330
2A5
100
AcDbSymbolTableRecord
100
AcDbLayerTableRecord
  2
SUNPOU
 70
     0
 62
     7
  6
CONTINUOUS
370
    -3
390
2B2
  0
LAYER
  5
462
330
2A5
100
AcDbSymbolTableRecord
100
AcDbLayerTableRecord
  2
Defpoints
 70
     0
 62
     7
  6
CONTINUOUS
290
     0
370
    -3
390
2B2
  0
ENDTAB
  0
TABLE
  2
STYLE
  5
2A6
330
0
100
AcDbSymbolTable
 70
     3
  0
STYLE
  5
2B4
330
2A6
100
AcDbSymbolTableRecord
100
AcDbTextStyleTableRecord
  2
STANDARD
 70
     0
 40
0.0
 41
1.0
 50
0.0
 71
     0
 42
0.2
  3
TXT
  4
BIGFONT
  0
STYLE
  5
2C5
330
2A6
100
AcDbSymbolTableRecord
100
AcDbTextStyleTableRecord
  2
KANJI
 70
     0
 40
4.5
 41
1.0
 50
0.0
 71
     0
 42
4.5
  3
TXT
  4
BIGFONT
  0
STYLE
  5
3FE
330
2A6
100
AcDbSymbolTableRecord
100
AcDbTextStyleTableRecord
  2

 70
     1
 40
0.0
 41
1.0
 50
0.0
 71
     0
 42
0.2
  3
ltypeshp.shx
  4

  0
ENDTAB
  0
TABLE
  2
VIEW
  5
2A9
330
0
100
AcDbSymbolTable
 70
     0
  0
ENDTAB
  0
TABLE
  2
UCS
  5
2AA
330
0
100
AcDbSymbolTable
 70
     0
  0
ENDTAB
  0
TABLE
  2
APPID
  5
2AC
330
0
100
AcDbSymbolTable
 70
     1
  0
APPID
  5
2B5
330
2AC
100
AcDbSymbolTableRecord
100
AcDbRegAppTableRecord
  2
ACAD
 70
     0
  0
ENDTAB
  0
TABLE
  2
DIMSTYLE
  5
2AD
330
0
100
AcDbSymbolTable
 70
     1
100
AcDbDimStyleTable
 71
     1
340
2C9
  0
DIMSTYLE
105
2C9
102
{ACAD_REACTORS
330
461
330
46F
330
47C
330
48A
330
498
330
576
330
5BB
102
}
330
2AD
100
AcDbSymbolTableRecord
100
AcDbDimStyleTableRecord
  2
STANDARD
 70
     0
271
     2
272
     2
275
     1
279
     2
340
2C5
  0
ENDTAB
  0
TABLE
  2
BLOCK_RECORD
  5
2A4
330
0
100
AcDbSymbolTable
 70
     9
  0
BLOCK_RECORD
  5
2C1
330
2A4
100
AcDbSymbolTableRecord
100
AcDbBlockTableRecord
  2
*Model_Space
340
2C4
  0
BLOCK_RECORD
  5
2BD
330
2A4
100
AcDbSymbolTableRecord
100
AcDbBlockTableRecord
  2
*Paper_Space
340
2C0
  0
BLOCK_RECORD
  5
2CC
330
2A4
100
AcDbSymbolTableRecord
100
AcDbBlockTableRecord
  2
$MODEL_SPACE
340
0
  0
BLOCK_RECORD
  5
2CF
330
2A4
100
AcDbSymbolTableRecord
100
AcDbBlockTableRecord
  2
$PAPER_SPACE
340
0
  0
BLOCK_RECORD
  5
463
330
2A4
100
AcDbSymbolTableRecord
100
AcDbBlockTableRecord
  2
*D2
340
0
  0
BLOCK_RECORD
  5
470
330
2A4
100
AcDbSymbolTableRecord
100
AcDbBlockTableRecord
  2
*D3
340
0
  0
BLOCK_RECORD
  5
47D
330
2A4
100
AcDbSymbolTableRecord
100
AcDbBlockTableRecord
  2
*D4
340
0
  0
BLOCK_RECORD
  5
48B
330
2A4
100
AcDbSymbolTableRecord
100
AcDbBlockTableRecord
  2
*D5
340
0
  0
BLOCK_RECORD
  5
499
330
2A4
100
AcDbSymbolTableRecord
100
AcDbBlockTableRecord
  2
*D6
340
0
  0
BLOCK_RECORD
  5
577
330
2A4
100
AcDbSymbolTableRecord
100
AcDbBlockTableRecord
  2
*D7
340
0
  0
BLOCK_RECORD
  5
5BC
330
2A4
100
AcDbSymbolTableRecord
100
AcDbBlockTableRecord
  2
*D8
340
0
  0
ENDTAB
  0
ENDSEC
  0
SECTION
  2
BLOCKS
  0
BLOCK
  5
2C2
330
2C1
100
AcDbEntity
  8
0
100
AcDbBlockBegin
  2
*Model_Space
 70
     0
 10
0.0
 20
0.0
 30
0.0
  3
*Model_Space
  1

  0
ENDBLK
  5
2C3
330
2C1
100
AcDbEntity
  8
0
100
AcDbBlockEnd
  0
BLOCK
  5
2BE
330
2BD
100
AcDbEntity
 67
     1
  8
0
100
AcDbBlockBegin
  2
*Paper_Space
 70
     0
 10
0.0
 20
0.0
 30
0.0
  3
*Paper_Space
  1

  0
ENDBLK
  5
2BF
330
2BD
100
AcDbEntity
 67
     1
  8
0
100
AcDbBlockEnd
  0
BLOCK
  5
2CD
330
2CC
100
AcDbEntity
  8
0
100
AcDbBlockBegin
  2
$MODEL_SPACE
 70
     0
 10
0.0
 20
0.0
 30
0.0
  3
$MODEL_SPACE
  1

  0
ENDBLK
  5
2CE
330
2CC
100
AcDbEntity
  8
0
100
AcDbBlockEnd
  0
BLOCK
  5
2D0
330
2CF
100
AcDbEntity
  8
0
100
AcDbBlockBegin
  2
$PAPER_SPACE
 70
     0
 10
0.0
 20
0.0
 30
0.0
  3
$PAPER_SPACE
  1

  0
ENDBLK
  5
2D1
330
2CF
100
AcDbEntity
  8
0
100
AcDbBlockEnd
  0
BLOCK
  5
46D
330
463
100
AcDbEntity
  8
0
 62
     1
100
AcDbBlockBegin
  2
*D2
 70
     1
 10
0.0
 20
0.0
 30
0.0
  3
*D2
  1

  0
LINE
  5
596
330
463
100
AcDbEntity
  8
0
 62
     0
370
    -2
100
AcDbLine
 10
254.8
 20
265.5072989999999
 30
0.0
 11
254.8
 21
274.1102074699213
 31
0.0
  0
LINE
  5
597
330
463
100
AcDbEntity
  8
0
 62
     0
370
    -2
100
AcDbLine
 10
237.7999999999999
 20
266.107299
 30
0.0
 11
237.7999999999999
 21
274.1102074699213
 31
0.0
  0
LINE
  5
598
330
463
100
AcDbEntity
  8
0
 62
     0
370
    -2
100
AcDbLine
 10
252.8
 20
273.1102074699212
 30
0.0
 11
239.7999999999999
 21
273.1102074699212
 31
0.0
  0
SOLID
  5
599
330
463
100
AcDbEntity
  8
0
 62
     0
100
AcDbTrace
 10
252.8
 20
273.4435408032546
 30
0.0
 11
252.8
 21
272.7768741365879
 31
0.0
 12
254.8
 22
273.1102074699212
 32
0.0
 13
254.8
 23
273.1102074699212
 33
0.0
  0
SOLID
  5
59A
330
463
100
AcDbEntity
  8
0
 62
     0
100
AcDbTrace
 10
239.7999999999999
 20
273.4435408032546
 30
0.0
 11
239.7999999999999
 21
272.7768741365879
 31
0.0
 12
237.7999999999999
 22
273.1102074699212
 32
0.0
 13
237.7999999999999
 23
273.1102074699212
 33
0.0
  0
MTEXT
  5
59B
330
463
100
AcDbEntity
  8
0
 62
     0
100
AcDbMText
 10
246.3
 20
274.8002074699213
 30
0.0
 40
3.2
 41
0.0
 71
     5
 72
     1
  1
\A1;17.0
 73
     1
 44
1.0
  0
POINT
  5
59C
330
463
100
AcDbEntity
  8
Defpoints
 62
     0
100
AcDbPoint
 10
254.8
 20
264.507299
 30
0.0
  0
POINT
  5
59D
330
463
100
AcDbEntity
  8
Defpoints
 62
     0
100
AcDbPoint
 10
237.7999999999999
 20
265.107299
 30
0.0
  0
POINT
  5
59E
330
463
100
AcDbEntity
  8
Defpoints
 62
     0
100
AcDbPoint
 10
237.7999999999999
 20
273.1102074699212
 30
0.0
  0
ENDBLK
  5
46E
330
463
100
AcDbEntity
  8
0
 62
     1
100
AcDbBlockEnd
  0
BLOCK
  5
47A
330
470
100
AcDbEntity
  8
0
 62
     1
100
AcDbBlockBegin
  2
*D3
 70
     1
 10
0.0
 20
0.0
 30
0.0
  3
*D3
  1

  0
LINE
  5
58D
330
470
100
AcDbEntity
  8
0
 62
     0
370
    -2
100
AcDbLine
 10
258.2999999999998
 20
259.9072989999999
 30
0.0
 11
258.2999999999998
 21
274.1102074699213
 31
0.0
  0
LINE
  5
58E
330
470
100
AcDbEntity
  8
0
 62
     0
370
    -2
100
AcDbLine
 10
276.2999999999999
 20
263.4072989999999
 30
0.0
 11
276.2999999999999
 21
274.1102074699213
 31
0.0
  0
LINE
  5
58F
330
470
100
AcDbEntity
  8
0
 62
     0
370
    -2
100
AcDbLine
 10
260.2999999999998
 20
273.1102074699212
 30
0.0
 11
274.2999999999998
 21
273.1102074699212
 31
0.0
  0
SOLID
  5
590
330
470
100
AcDbEntity
  8
0
 62
     0
100
AcDbTrace
 10
260.2999999999998
 20
273.4435408032546
 30
0.0
 11
260.2999999999998
 21
272.7768741365879
 31
0.0
 12
258.2999999999998
 22
273.1102074699212
 32
0.0
 13
258.2999999999998
 23
273.1102074699212
 33
0.0
  0
SOLID
  5
591
330
470
100
AcDbEntity
  8
0
 62
     0
100
AcDbTrace
 10
274.2999999999998
 20
273.4435408032546
 30
0.0
 11
274.2999999999998
 21
272.7768741365879
 31
0.0
 12
276.2999999999999
 22
273.1102074699212
 32
0.0
 13
276.2999999999999
 23
273.1102074699212
 33
0.0
  0
MTEXT
  5
592
330
470
100
AcDbEntity
  8
0
 62
     0
100
AcDbMText
 10
267.2999999999999
 20
274.8002074699213
 30
0.0
 40
3.2
 41
0.0
 71
     5
 72
     1
  1
\A1;18.0
 73
     1
 44
1.0
  0
POINT
  5
593
330
470
100
AcDbEntity
  8
Defpoints
 62
     0
100
AcDbPoint
 10
258.2999999999998
 20
258.9072989999999
 30
0.0
  0
POINT
  5
594
330
470
100
AcDbEntity
  8
Defpoints
 62
     0
100
AcDbPoint
 10
276.2999999999999
 20
262.4072989999999
 30
0.0
  0
POINT
  5
595
330
470
100
AcDbEntity
  8
Defpoints
 62
     0
100
AcDbPoint
 10
276.2999999999999
 20
273.1102074699212
 30
0.0
  0
ENDBLK
  5
47B
330
470
100
AcDbEntity
  8
0
 62
     1
100
AcDbBlockEnd
  0
BLOCK
  5
488
330
47D
100
AcDbEntity
  8
0
 62
     1
100
AcDbBlockBegin
  2
*D4
 70
     1
 10
0.0
 20
0.0
 30
0.0
  3
*D4
  1

  0
LINE
  5
5A8
330
47D
100
AcDbEntity
  8
0
 62
     0
370
    -2
100
AcDbLine
 10
257.2999999999999
 20
279.4072989999999
 30
0.0
 11
257.2999999999999
 21
281.7436862427685
 31
0.0
  0
LINE
  5
5A9
330
47D
100
AcDbEntity
  8
0
 62
     0
370
    -2
100
AcDbLine
 10
258.2999999999998
 20
279.4072989999999
 30
0.0
 11
258.2999999999998
 21
281.7436862427685
 31
0.0
  0
LINE
  5
5AA
330
47D
100
AcDbEntity
  8
0
 62
     0
370
    -2
100
AcDbLine
 10
255.2999999999999
 20
280.7436862427684
 30
0.0
 11
253.2999999999999
 21
280.7436862427684
 31
0.0
  0
LINE
  5
5AB
330
47D
100
AcDbEntity
  8
0
 62
     0
370
    -2
100
AcDbLine
 10
260.2999999999998
 20
280.7436862427684
 30
0.0
 11
267.2799999999999
 21
280.7436862427684
 31
0.0
  0
SOLID
  5
5AC
330
47D
100
AcDbEntity
  8
0
 62
     0
100
AcDbTrace
 10
255.2999999999999
 20
281.0770195761018
 30
0.0
 11
255.2999999999999
 21
280.4103529094351
 31
0.0
 12
257.2999999999999
 22
280.7436862427684
 32
0.0
 13
257.2999999999999
 23
280.7436862427684
 33
0.0
  0
SOLID
  5
5AD
330
47D
100
AcDbEntity
  8
0
 62
     0
100
AcDbTrace
 10
260.2999999999998
 20
281.0770195761018
 30
0.0
 11
260.2999999999998
 21
280.4103529094351
 31
0.0
 12
258.2999999999998
 22
280.7436862427684
 32
0.0
 13
258.2999999999998
 23
280.7436862427684
 33
0.0
  0
MTEXT
  5
5AE
330
47D
100
AcDbEntity
  8
0
 62
     0
100
AcDbMText
 10
264.7899999999999
 20
282.4336862427685
 30
0.0
 40
3.2
 41
0.0
 71
     5
 72
     1
  1
\A1;1.0
 73
     1
 44
1.0
  0
POINT
  5
5AF
330
47D
100
AcDbEntity
  8
Defpoints
 62
     0
100
AcDbPoint
 10
257.2999999999999
 20
278.4072989999999
 30
0.0
  0
POINT
  5
5B0
330
47D
100
AcDbEntity
  8
Defpoints
 62
     0
100
AcDbPoint
 10
258.2999999999998
 20
278.4072989999999
 30
0.0
  0
POINT
  5
5B1
330
47D
100
AcDbEntity
  8
Defpoints
 62
     0
100
AcDbPoint
 10
258.2999999999998
 20
280.7436862427684
 30
0.0
  0
ENDBLK
  5
489
330
47D
100
AcDbEntity
  8
0
 62
     1
100
AcDbBlockEnd
  0
BLOCK
  5
496
330
48B
100
AcDbEntity
  8
0
 62
     1
100
AcDbBlockBegin
  2
*D5
 70
     1
 10
0.0
 20
0.0
 30
0.0
  3
*D5
  1

  0
LINE
  5
583
330
48B
100
AcDbEntity
  8
0
 62
     0
370
    -2
100
AcDbLine
 10
254.8
 20
265.5072989999999
 30
0.0
 11
254.8
 21
287.0968276857185
 31
0.0
  0
LINE
  5
584
330
48B
100
AcDbEntity
  8
0
 62
     0
370
    -2
100
AcDbLine
 10
257.2999999999999
 20
279.4072989999999
 30
0.0
 11
257.2999999999999
 21
287.0968276857185
 31
0.0
  0
LINE
  5
585
330
48B
100
AcDbEntity
  8
0
 62
     0
370
    -2
100
AcDbLine
 10
252.8
 20
286.0968276857186
 30
0.0
 11
250.8
 21
286.0968276857186
 31
0.0
  0
LINE
  5
586
330
48B
100
AcDbEntity
  8
0
 62
     0
370
    -2
100
AcDbLine
 10
259.2999999999999
 20
286.0968276857186
 30
0.0
 11
267.8799999999998
 21
286.0968276857186
 31
0.0
  0
SOLID
  5
587
330
48B
100
AcDbEntity
  8
0
 62
     0
100
AcDbTrace
 10
252.8
 20
286.4301610190519
 30
0.0
 11
252.8
 21
285.7634943523852
 31
0.0
 12
254.8
 22
286.0968276857186
 32
0.0
 13
254.8
 23
286.0968276857186
 33
0.0
  0
SOLID
  5
588
330
48B
100
AcDbEntity
  8
0
 62
     0
100
AcDbTrace
 10
259.2999999999999
 20
286.4301610190519
 30
0.0
 11
259.2999999999999
 21
285.7634943523852
 31
0.0
 12
257.2999999999999
 22
286.0968276857186
 32
0.0
 13
257.2999999999999
 23
286.0968276857186
 33
0.0
  0
MTEXT
  5
589
330
48B
100
AcDbEntity
  8
0
 62
     0
100
AcDbMText
 10
264.5899999999999
 20
287.7868276857185
 30
0.0
 40
3.2
 41
0.0
 71
     5
 72
     1
  1
\A1;2.5
 73
     1
 44
1.0
  0
POINT
  5
58A
330
48B
100
AcDbEntity
  8
Defpoints
 62
     0
100
AcDbPoint
 10
254.8
 20
264.507299
 30
0.0
  0
POINT
  5
58B
330
48B
100
AcDbEntity
  8
Defpoints
 62
     0
100
AcDbPoint
 10
257.2999999999999
 20
278.4072989999999
 30
0.0
  0
POINT
  5
58C
330
48B
100
AcDbEntity
  8
Defpoints
 62
     0
100
AcDbPoint
 10
257.2999999999999
 20
286.0968276857186
 30
0.0
  0
ENDBLK
  5
497
330
48B
100
AcDbEntity
  8
0
 62
     1
100
AcDbBlockEnd
  0
BLOCK
  5
4A3
330
499
100
AcDbEntity
  8
0
 62
     1
100
AcDbBlockBegin
  2
*D6
 70
     1
 10
0.0
 20
0.0
 30
0.0
  3
*D6
  1

  0
LINE
  5
59F
330
499
100
AcDbEntity
  8
0
 62
     0
370
    -2
100
AcDbLine
 10
237.6
 20
265.907299
 30
0.0
 11
228.0760163973007
 21
265.907299
 31
0.0
  0
LINE
  5
5A0
330
499
100
AcDbEntity
  8
0
 62
     0
370
    -2
100
AcDbLine
 10
237.6
 20
235.907299
 30
0.0
 11
228.0760163973007
 21
235.907299
 31
0.0
  0
LINE
  5
5A1
330
499
100
AcDbEntity
  8
0
 62
     0
370
    -2
100
AcDbLine
 10
229.0760163973006
 20
263.907299
 30
0.0
 11
229.0760163973006
 21
237.907299
 31
0.0
  0
SOLID
  5
5A2
330
499
100
AcDbEntity
  8
0
 62
     0
100
AcDbTrace
 10
228.7426830639673
 20
263.907299
 30
0.0
 11
229.409349730634
 21
263.907299
 31
0.0
 12
229.0760163973006
 22
265.907299
 32
0.0
 13
229.0760163973006
 23
265.907299
 33
0.0
  0
SOLID
  5
5A3
330
499
100
AcDbEntity
  8
0
 62
     0
100
AcDbTrace
 10
228.7426830639673
 20
237.907299
 30
0.0
 11
229.409349730634
 21
237.907299
 31
0.0
 12
229.0760163973006
 22
235.907299
 32
0.0
 13
229.0760163973006
 23
235.907299
 33
0.0
  0
MTEXT
  5
5A4
330
499
100
AcDbEntity
  8
0
 62
     0
100
AcDbMText
 10
227.3860163973006
 20
250.907299
 30
0.0
 40
3.2
 41
0.0
 71
     5
 72
     1
  1
\A1;30.0
 11
0.0000000000000001
 21
1.0
 31
0.0
 73
     1
 44
1.0
  0
POINT
  5
5A5
330
499
100
AcDbEntity
  8
Defpoints
 62
     0
100
AcDbPoint
 10
238.6
 20
265.907299
 30
0.0
  0
POINT
  5
5A6
330
499
100
AcDbEntity
  8
Defpoints
 62
     0
100
AcDbPoint
 10
238.6
 20
235.907299
 30
0.0
  0
POINT
  5
5A7
330
499
100
AcDbEntity
  8
Defpoints
 62
     0
100
AcDbPoint
 10
229.0760163973006
 20
235.907299
 30
0.0
  0
ENDBLK
  5
4A4
330
499
100
AcDbEntity
  8
0
 62
     1
100
AcDbBlockEnd
  0
BLOCK
  5
581
330
577
100
AcDbEntity
  8
0
 62
     1
100
AcDbBlockBegin
  2
*D7
 70
     1
 10
0.0
 20
0.0
 30
0.0
  3
*D7
  1

  0
LINE
  5
5B2
330
577
100
AcDbEntity
  8
0
 62
     0
370
    -2
100
AcDbLine
 10
363.6849029999998
 20
163.3117927571587
 30
0.0
 11
353.1840271918421
 21
163.3117927571587
 31
0.0
  0
LINE
  5
5B3
330
577
100
AcDbEntity
  8
0
 62
     0
370
    -2
100
AcDbLine
 10
363.6849029999998
 20
175.3117927571588
 30
0.0
 11
353.1840271918421
 21
175.3117927571588
 31
0.0
  0
LINE
  5
5B4
330
577
100
AcDbEntity
  8
0
 62
     0
370
    -2
100
AcDbLine
 10
354.1840271918421
 20
165.3117927571587
 30
0.0
 11
354.1840271918421
 21
173.3117927571588
 31
0.0
  0
SOLID
  5
5B5
330
577
100
AcDbEntity
  8
0
 62
     0
100
AcDbTrace
 10
353.8506938585088
 20
165.3117927571587
 30
0.0
 11
354.5173605251755
 21
165.3117927571587
 31
0.0
 12
354.1840271918421
 22
163.3117927571587
 32
0.0
 13
354.1840271918421
 23
163.3117927571587
 33
0.0
  0
SOLID
  5
5B6
330
577
100
AcDbEntity
  8
0
 62
     0
100
AcDbTrace
 10
353.8506938585088
 20
173.3117927571588
 30
0.0
 11
354.5173605251755
 21
173.3117927571588
 31
0.0
 12
354.1840271918421
 22
175.3117927571588
 32
0.0
 13
354.1840271918421
 23
175.3117927571588
 33
0.0
  0
MTEXT
  5
5B7
330
577
100
AcDbEntity
  8
0
 62
     0
100
AcDbMText
 10
352.4940271918421
 20
169.3117927571588
 30
0.0
 40
3.2
 41
0.0
 71
     5
 72
     1
  1
\A1;12.0
 11
0.0000000000000001
 21
1.0
 31
0.0
 73
     1
 44
1.0
  0
POINT
  5
5B8
330
577
100
AcDbEntity
  8
Defpoints
 62
     0
100
AcDbPoint
 10
364.6849029999998
 20
163.3117927571587
 30
0.0
  0
POINT
  5
5B9
330
577
100
AcDbEntity
  8
Defpoints
 62
     0
100
AcDbPoint
 10
364.6849029999998
 20
175.3117927571588
 30
0.0
  0
POINT
  5
5BA
330
577
100
AcDbEntity
  8
Defpoints
 62
     0
100
AcDbPoint
 10
354.1840271918421
 20
175.3117927571588
 30
0.0
  0
ENDBLK
  5
582
330
577
100
AcDbEntity
  8
0
 62
     1
100
AcDbBlockEnd
  0
BLOCK
  5
5C6
330
5BC
100
AcDbEntity
  8
0
 62
     1
100
AcDbBlockBegin
  2
*D8
 70
     1
 10
0.0
 20
0.0
 30
0.0
  3
*D8
  1

  0
LINE
  5
5C8
330
5BC
100
AcDbEntity
  8
0
 62
     0
370
    -2
100
AcDbLine
 10
337.1849029999998
 20
251.9072989999999
 30
0.0
 11
337.1849029999998
 21
289.6486510220206
 31
0.0
  0
LINE
  5
5C9
330
5BC
100
AcDbEntity
  8
0
 62
     0
370
    -2
100
AcDbLine
 10
392.1849029999998
 20
251.9072989999999
 30
0.0
 11
392.1849029999998
 21
289.6486510220206
 31
0.0
  0
LINE
  5
5CA
330
5BC
100
AcDbEntity
  8
0
 62
     0
370
    -2
100
AcDbLine
 10
339.1849029999998
 20
288.6486510220206
 30
0.0
 11
390.1849029999998
 21
288.6486510220206
 31
0.0
  0
SOLID
  5
5CB
330
5BC
100
AcDbEntity
  8
0
 62
     0
100
AcDbTrace
 10
339.1849029999998
 20
288.9819843553539
 30
0.0
 11
339.1849029999998
 21
288.3153176886873
 31
0.0
 12
337.1849029999998
 22
288.6486510220206
 32
0.0
 13
337.1849029999998
 23
288.6486510220206
 33
0.0
  0
SOLID
  5
5CC
330
5BC
100
AcDbEntity
  8
0
 62
     0
100
AcDbTrace
 10
390.1849029999998
 20
288.9819843553539
 30
0.0
 11
390.1849029999998
 21
288.3153176886873
 31
0.0
 12
392.1849029999998
 22
288.6486510220206
 32
0.0
 13
392.1849029999998
 23
288.6486510220206
 33
0.0
  0
MTEXT
  5
5CD
330
5BC
100
AcDbEntity
  8
0
 62
     0
100
AcDbMText
 10
364.6849029999998
 20
290.3386510220206
 30
0.0
 40
3.2
 41
0.0
 71
     5
 72
     1
  1
\A1;55.0
 73
     1
 44
1.0
  0
POINT
  5
5CE
330
5BC
100
AcDbEntity
  8
Defpoints
 62
     0
100
AcDbPoint
 10
337.1849029999998
 20
250.9072989999999
 30
0.0
  0
POINT
  5
5CF
330
5BC
100
AcDbEntity
  8
Defpoints
 62
     0
100
AcDbPoint
 10
392.1849029999998
 20
250.9072989999999
 30
0.0
  0
POINT
  5
5D0
330
5BC
100
AcDbEntity
  8
Defpoints
 62
     0
100
AcDbPoint
 10
392.1849029999998
 20
288.6486510220206
 30
0.0
  0
ENDBLK
  5
5C7
330
5BC
100
AcDbEntity
  8
0
 62
     1
100
AcDbBlockEnd
  0
ENDSEC
  0
SECTION
  2
ENTITIES
  0
ARC
  5
30C
330
2C1
100
AcDbEntity
  8
0
  6
Continuous
370
    25
100
AcDbCircle
 10
254.0
 20
265.107299
 30
0.0
 40
0.8
100
AcDbArc
 50
0.0
 51
90.0
  0
LINE
  5
342
330
2C1
100
AcDbEntity
  8
0
  6
Continuous
370
    25
100
AcDbLine
 10
254.8
 20
265.107299
 30
0.0
 11
254.8
 21
236.707299
 31
0.0
  0
LINE
  5
343
330
2C1
100
AcDbEntity
  8
0
  6
Continuous
370
    25
100
AcDbLine
 10
250.0
 20
235.9072989999999
 30
0.0
 11
238.6
 21
235.907299
 31
0.0
  0
LINE
  5
344
330
2C1
100
AcDbEntity
  8
0
  6
Continuous
370
    25
100
AcDbLine
 10
250.0
 20
265.9072989999999
 30
0.0
 11
238.6
 21
265.907299
 31
0.0
  0
LINE
  5
345
330
2C1
100
AcDbEntity
  8
0
  6
Continuous
370
    25
100
AcDbLine
 10
255.56
 20
246.4072989999999
 30
0.0
 11
255.56
 21
255.4072989999999
 31
0.0
  0
LINE
  5
348
330
2C1
100
AcDbEntity
  8
0
  6
Continuous
370
    25
100
AcDbLine
 10
262.7999999999999
 20
247.1272989999999
 30
0.0
 11
260.7999999999999
 21
247.1272989999999
 31
0.0
  0
LINE
  5
349
330
2C1
100
AcDbEntity
  8
0
  6
Continuous
370
    25
100
AcDbLine
 10
262.7999999999999
 20
254.6872989999999
 30
0.0
 11
260.7999999999999
 21
254.6872989999999
 31
0.0
  0
LINE
  5
34A
330
2C1
100
AcDbEntity
  8
0
  6
Continuous
370
    25
100
AcDbLine
 10
262.8
 20
246.4072989999999
 30
0.0
 11
260.7999999999999
 21
246.4072989999999
 31
0.0
  0
LINE
  5
34B
330
2C1
100
AcDbEntity
  8
0
  6
Continuous
370
    25
100
AcDbLine
 10
262.8
 20
255.4072989999999
 30
0.0
 11
260.7999999999999
 21
255.4072989999999
 31
0.0
  0
LINE
  5
34E
330
2C1
100
AcDbEntity
  8
0
  6
Continuous
370
    25
100
AcDbLine
 10
264.8
 20
254.6872989999999
 30
0.0
 11
264.8
 21
247.1272989999999
 31
0.0
  0
LINE
  5
34F
330
2C1
100
AcDbEntity
  8
0
  6
Continuous
370
    25
100
AcDbLine
 10
250.0
 20
265.9072989999999
 30
0.0
 11
254.0
 21
265.9072989999999
 31
0.0
  0
LINE
  5
352
330
2C1
100
AcDbEntity
  8
0
  6
Continuous
370
    25
100
AcDbLine
 10
245.2999999999999
 20
235.907299
 30
0.0
 11
245.2999999999999
 21
265.9072989999999
 31
0.0
  0
LINE
  5
361
330
2C1
100
AcDbEntity
  8
SUNPOU
  6
CENTER
370
    25
100
AcDbLine
 10
281.2999999999998
 20
250.9072989999999
 30
0.0
 11
232.8
 21
250.9072989999999
 31
0.0
  0
ARC
  5
363
330
2C1
100
AcDbEntity
  8
0
  6
Continuous
370
    25
100
AcDbCircle
 10
254.0
 20
236.707299
 30
0.0
 40
0.8
100
AcDbArc
 50
270.0
 51
0.0
  0
LINE
  5
366
330
2C1
100
AcDbEntity
  8
0
  6
Continuous
370
    25
100
AcDbLine
 10
250.0
 20
235.9072989999999
 30
0.0
 11
252.4
 21
235.9072989999999
 31
0.0
  0
ARC
  5
367
330
2C1
100
AcDbEntity
  8
0
  6
Continuous
370
    25
100
AcDbCircle
 10
238.6
 20
236.707299
 30
0.0
 40
0.8
100
AcDbArc
 50
180.0
 51
270.0
  0
ARC
  5
368
330
2C1
100
AcDbEntity
  8
0
  6
Continuous
370
    25
100
AcDbCircle
 10
238.6
 20
265.107299
 30
0.0
 40
0.8
100
AcDbArc
 50
90.0
 51
180.0
  0
LINE
  5
369
330
2C1
100
AcDbEntity
  8
0
  6
Continuous
370
    25
100
AcDbLine
 10
237.8
 20
265.107299
 30
0.0
 11
237.8
 21
236.707299
 31
0.0
  0
LINE
  5
36C
330
2C1
100
AcDbEntity
  8
0
  6
Continuous
370
    25
100
AcDbLine
 10
252.6399999999999
 20
235.9072989999999
 30
0.0
 11
254.0
 21
235.9072989999999
 31
0.0
  0
LINE
  5
370
330
2C1
100
AcDbEntity
  8
0
  6
Continuous
370
    25
100
AcDbLine
 10
254.8
 20
255.4072989999999
 30
0.0
 11
255.4
 21
254.6872989999999
 31
0.0
  0
LINE
  5
371
330
2C1
100
AcDbEntity
  8
0
  6
Continuous
370
    25
100
AcDbLine
 10
254.8
 20
246.4072989999999
 30
0.0
 11
255.4
 21
247.1272989999999
 31
0.0
  0
LINE
  5
372
330
2C1
100
AcDbEntity
  8
0
  6
Continuous
370
    25
100
AcDbLine
 10
254.8
 20
264.507299
 30
0.0
 11
256.2999999999998
 21
264.507299
 31
0.0
  0
LINE
  5
373
330
2C1
100
AcDbEntity
  8
0
  6
Continuous
370
    25
100
AcDbLine
 10
254.8
 20
261.5072989999999
 30
0.0
 11
256.2999999999998
 21
261.5072989999999
 31
0.0
  0
LINE
  5
374
330
2C1
100
AcDbEntity
  8
0
  6
Continuous
370
    25
100
AcDbLine
 10
257.2999999999999
 20
263.5072989999999
 30
0.0
 11
257.2999999999999
 21
262.507299
 31
0.0
  0
CIRCLE
  5
3F9
330
2C1
100
AcDbEntity
  8
0
  6
DASHED
100
AcDbCircle
 10
364.6849029999998
 20
163.3117927571587
 30
0.0
 40
27.5
  0
CIRCLE
  5
3FA
330
2C1
100
AcDbEntity
  8
0
100
AcDbCircle
 10
364.6849029999998
 20
163.3117927571587
 30
0.0
 40
4.75
  0
CIRCLE
  5
3FC
330
2C1
100
AcDbEntity
  8
0
100
AcDbCircle
 10
364.6849029999998
 20
175.3117927571588
 30
0.0
 40
1.5
  0
LEADER
  5
401
330
2C1
100
AcDbEntity
  8
0
100
AcDbLeader
  3
STANDARD
 76
     3
 10
369.4349029999998
 20
163.3117927571587
 30
0.0
 10
381.0520496146128
 20
176.3328131221522
 30
0.0
 10
391.9822414700138
 20
176.3328131221522
 30
0.0
1001
ACAD
1000
DSTYLE
1002
{
1070
   147
1040
0.09
1070
    41
1040
2.0
1070
    42
1040
1.0
1070
    43
1040
8.0
1070
    44
1040
1.0
1070
    73
1070
     0
1070
    74
1070
     0
1070
    77
1070
     0
1070
   140
1040
3.2
1070
   271
1070
     4
1070
   272
1070
     4
1070
   275
1070
     0
1070
   279
1070
     0
1070
   340
1005
2B4
1002
}
  0
MTEXT
  5
406
330
2C1
100
AcDbEntity
  8
0
  6
DASHED
100
AcDbMText
 10
382.0926099055903
 20
179.5656409586126
 30
0.0
 40
2.399999999999999
 41
11.51189548417821
 71
     1
 72
     5
  1
φ9.5
  7
KANJI
 73
     1
 44
1.0
  0
LEADER
  5
40A
330
2C1
100
AcDbEntity
  8
0
100
AcDbLeader
  3
STANDARD
 76
     3
 10
364.7439759850589
 20
176.4594645036472
 30
0.0
 10
382.5870116698158
 20
196.7137255387995
 30
0.0
 10
389.7281164261001
 20
196.7137255387995
 30
0.0
1001
ACAD
1000
DSTYLE
1002
{
1070
   147
1040
0.09
1070
    41
1040
2.0
1070
    42
1040
1.0
1070
    43
1040
8.0
1070
    44
1040
1.0
1070
    73
1070
     0
1070
    74
1070
     0
1070
    77
1070
     0
1070
   140
1040
3.2
1070
   271
1070
     4
1070
   272
1070
     4
1070
   275
1070
     0
1070
   279
1070
     0
1070
   340
1005
2B4
1002
}
  0
MTEXT
  5
40B
330
2C1
100
AcDbEntity
  8
0
  6
DASHED
100
AcDbMText
 10
383.6244549512301
 20
200.1760457051594
 30
0.0
 40
2.399999999999999
 41
9.63
 71
     1
 72
     5
  1
φ3
  7
KANJI
 73
     1
 44
1.0
  0
LWPOLYLINE
  5
42F
330
2C1
100
AcDbEntity
  8
0
100
AcDbPolyline
 90
        4
 70
     1
 43
0.0
 10
257.2999999999999
 20
223.4072989999999
 10
258.2999999999998
 20
223.4072989999999
 10
258.2999999999998
 20
278.4072989999999
 10
257.2999999999999
 20
278.4072989999999
  0
ARC
  5
431
330
2C1
100
AcDbEntity
  8
0
  6
Continuous
370
    25
100
AcDbCircle
 10
256.2999999999998
 20
263.5072989999999
 30
0.0
 40
1.0
100
AcDbArc
 50
0.0
 51
90.0
  0
ARC
  5
432
330
2C1
100
AcDbEntity
  8
0
  6
Continuous
370
    25
100
AcDbCircle
 10
256.2999999999998
 20
262.507299
 30
0.0
 40
1.0
100
AcDbArc
 50
270.0
 51
0.0
  0
LINE
  5
433
330
2C1
100
AcDbEntity
  8
0
  6
Continuous
370
    25
100
AcDbLine
 10
257.2999999999999
 20
254.6872989999999
 30
0.0
 11
255.4
 21
254.6872989999999
 31
0.0
  0
LINE
  5
434
330
2C1
100
AcDbEntity
  8
0
  6
Continuous
370
    25
100
AcDbLine
 10
257.2999999999999
 20
255.4072989999999
 30
0.0
 11
254.8
 21
255.4072989999999
 31
0.0
  0
LINE
  5
435
330
2C1
100
AcDbEntity
  8
0
  6
Continuous
370
    25
100
AcDbLine
 10
257.2999999999999
 20
247.1272989999999
 30
0.0
 11
255.4
 21
247.1272989999999
 31
0.0
  0
LINE
  5
436
330
2C1
100
AcDbEntity
  8
0
  6
Continuous
370
    25
100
AcDbLine
 10
257.2999999999999
 20
246.4072989999999
 30
0.0
 11
254.8
 21
246.4072989999999
 31
0.0
  0
LINE
  5
444
330
2C1
100
AcDbEntity
  8
0
100
AcDbLine
 10
267.2999999999999
 20
262.4072989999999
 30
0.0
 11
275.2999999999999
 21
262.4072989999999
 31
0.0
  0
LINE
  5
445
330
2C1
100
AcDbEntity
  8
0
100
AcDbLine
 10
276.2999999999999
 20
261.4072989999999
 30
0.0
 11
276.2999999999999
 21
240.4072989999999
 31
0.0
  0
LINE
  5
446
330
2C1
100
AcDbEntity
  8
0
100
AcDbLine
 10
275.2999999999999
 20
239.4072989999999
 30
0.0
 11
267.2999999999999
 21
239.4072989999999
 31
0.0
  0
LINE
  5
447
330
2C1
100
AcDbEntity
  8
0
100
AcDbLine
 10
267.2999999999999
 20
262.4072989999999
 30
0.0
 11
267.2999999999999
 21
239.4072989999999
 31
0.0
  0
LINE
  5
44B
330
2C1
100
AcDbEntity
  8
0
100
AcDbLine
 10
264.7999999999999
 20
264.4072989999999
 30
0.0
 11
262.7999999999999
 21
264.4072989999999
 31
0.0
  0
LINE
  5
44C
330
2C1
100
AcDbEntity
  8
0
100
AcDbLine
 10
262.7999999999999
 20
264.4072989999999
 30
0.0
 11
262.7999999999999
 21
237.4072989999999
 31
0.0
  0
LINE
  5
44D
330
2C1
100
AcDbEntity
  8
0
100
AcDbLine
 10
262.7999999999999
 20
237.4072989999999
 30
0.0
 11
264.7999999999999
 21
237.4072989999999
 31
0.0
  0
LINE
  5
44E
330
2C1
100
AcDbEntity
  8
0
100
AcDbLine
 10
264.7999999999999
 20
237.4072989999999
 30
0.0
 11
264.7999999999999
 21
264.4072989999999
 31
0.0
  0
LINE
  5
44F
330
2C1
100
AcDbEntity
  8
0
100
AcDbLine
 10
264.7999999999999
 20
264.4072989999999
 30
0.0
 11
267.2999999999999
 21
262.4072989999999
 31
0.0
  0
LINE
  5
450
330
2C1
100
AcDbEntity
  8
0
100
AcDbLine
 10
264.7999999999999
 20
237.4072989999999
 30
0.0
 11
267.2999999999999
 21
239.4072989999999
 31
0.0
  0
LINE
  5
457
330
2C1
100
AcDbEntity
  8
0
100
AcDbLine
 10
258.2999999999998
 20
242.9072989999999
 30
0.0
 11
259.7999999999998
 21
242.9072989999999
 31
0.0
  0
LINE
  5
458
330
2C1
100
AcDbEntity
  8
0
100
AcDbLine
 10
260.7999999999999
 20
243.9072989999999
 30
0.0
 11
260.7999999999999
 21
257.9072989999999
 31
0.0
  0
LINE
  5
459
330
2C1
100
AcDbEntity
  8
0
100
AcDbLine
 10
259.7999999999998
 20
258.9072989999999
 30
0.0
 11
258.2999999999998
 21
258.9072989999999
 31
0.0
  0
LINE
  5
45A
330
2C1
100
AcDbEntity
  8
0
100
AcDbLine
 10
259.7999999999998
 20
258.9072989999999
 30
0.0
 11
260.7999999999999
 21
257.9072989999999
 31
0.0
  0
LINE
  5
45B
330
2C1
100
AcDbEntity
  8
0
100
AcDbLine
 10
259.7999999999998
 20
242.9072989999999
 30
0.0
 11
260.7999999999999
 21
243.9072989999999
 31
0.0
  0
LINE
  5
45D
330
2C1
100
AcDbEntity
  8
0
100
AcDbLine
 10
258.2999999999998
 20
246.9072989999999
 30
0.0
 11
260.7999999999999
 21
246.9072989999999
 31
0.0
  0
LINE
  5
45F
330
2C1
100
AcDbEntity
  8
0
100
AcDbLine
 10
258.2999999999998
 20
254.9072989999999
 30
0.0
 11
260.7999999999999
 21
254.9072989999999
 31
0.0
  0
DIMENSION
  5
461
330
2C1
100
AcDbEntity
  8
0
100
AcDbDimension
  2
*D2
 10
237.7999999999999
 20
273.1102074699212
 30
0.0
 11
246.3
 21
274.8002074699213
 31
0.0
 70
    32
 71
     5
 42
17.00000000000002
  3
STANDARD
100
AcDbAlignedDimension
 13
254.8
 23
264.507299
 33
0.0
 14
237.7999999999999
 24
265.107299
 34
0.0
100
AcDbRotatedDimension
1001
ACAD
1000
DSTYLE
1002
{
1070
    41
1040
2.0
1070
    42
1040
1.0
1070
    43
1040
8.0
1070
    44
1040
1.0
1070
    73
1070
     0
1070
    74
1070
     0
1070
    77
1070
     1
1070
   140
1040
3.2
1070
   271
1070
     1
1070
   272
1070
     1
1070
   275
1070
     0
1070
   279
1070
     0
1070
   340
1005
2B4
1002
}
  0
DIMENSION
  5
46F
330
2C1
100
AcDbEntity
  8
0
100
AcDbDimension
  2
*D3
 10
276.2999999999999
 20
273.1102074699212
 30
0.0
 11
267.2999999999999
 21
274.8002074699213
 31
0.0
 70
    32
 71
     5
 42
18.0
  3
STANDARD
100
AcDbAlignedDimension
 13
258.2999999999998
 23
258.9072989999999
 33
0.0
 14
276.2999999999999
 24
262.4072989999999
 34
0.0
100
AcDbRotatedDimension
1001
ACAD
1000
DSTYLE
1002
{
1070
    41
1040
2.0
1070
    42
1040
1.0
1070
    43
1040
8.0
1070
    44
1040
1.0
1070
    73
1070
     0
1070
    74
1070
     0
1070
    77
1070
     1
1070
   140
1040
3.2
1070
   271
1070
     1
1070
   272
1070
     1
1070
   275
1070
     0
1070
   279
1070
     0
1070
   340
1005
2B4
1002
}
  0
DIMENSION
  5
47C
330
2C1
100
AcDbEntity
  8
0
100
AcDbDimension
  2
*D4
 10
258.2999999999998
 20
280.7436862427684
 30
0.0
 11
264.7899999999999
 21
282.4336862427685
 31
0.0
 70
    32
 71
     5
  3
STANDARD
100
AcDbAlignedDimension
 13
257.2999999999999
 23
278.4072989999999
 33
0.0
 14
258.2999999999998
 24
278.4072989999999
 34
0.0
100
AcDbRotatedDimension
1001
ACAD
1000
DSTYLE
1002
{
1070
    41
1040
2.0
1070
    42
1040
1.0
1070
    43
1040
8.0
1070
    44
1040
1.0
1070
    73
1070
     0
1070
    74
1070
     0
1070
    77
1070
     1
1070
   140
1040
3.2
1070
   271
1070
     1
1070
   272
1070
     1
1070
   275
1070
     0
1070
   279
1070
     0
1070
   340
1005
2B4
1002
}
  0
DIMENSION
  5
48A
330
2C1
100
AcDbEntity
  8
0
100
AcDbDimension
  2
*D5
 10
257.2999999999999
 20
286.0968276857186
 30
0.0
 11
264.5899999999999
 21
287.7868276857185
 31
0.0
 70
    32
 71
     5
 42
2.499999999999886
  3
STANDARD
100
AcDbAlignedDimension
 13
254.8
 23
264.507299
 33
0.0
 14
257.2999999999999
 24
278.4072989999999
 34
0.0
100
AcDbRotatedDimension
1001
ACAD
1000
DSTYLE
1002
{
1070
    41
1040
2.0
1070
    42
1040
1.0
1070
    43
1040
8.0
1070
    44
1040
1.0
1070
    73
1070
     0
1070
    74
1070
     0
1070
    77
1070
     1
1070
   140
1040
3.2
1070
   271
1070
     1
1070
   272
1070
     1
1070
   275
1070
     0
1070
   279
1070
     0
1070
   340
1005
2B4
1002
}
  0
DIMENSION
  5
498
330
2C1
100
AcDbEntity
  8
0
100
AcDbDimension
  2
*D6
 10
229.0760163973006
 20
235.907299
 30
0.0
 11
227.3860163973006
 21
250.907299
 31
0.0
 70
    32
 71
     5
 42
29.99999999999997
  3
STANDARD
100
AcDbAlignedDimension
 13
238.6
 23
265.907299
 33
0.0
 14
238.6
 24
235.907299
 34
0.0
 50
90.0
100
AcDbRotatedDimension
1001
ACAD
1000
DSTYLE
1002
{
1070
    41
1040
2.0
1070
    42
1040
1.0
1070
    43
1040
8.0
1070
    44
1040
1.0
1070
    73
1070
     0
1070
    74
1070
     0
1070
    77
1070
     1
1070
   140
1040
3.2
1070
   271
1070
     1
1070
   272
1070
     1
1070
   275
1070
     0
1070
   279
1070
     0
1070
   340
1005
2B4
1002
}
  0
LINE
  5
4A5
330
2C1
100
AcDbEntity
  8
0
  6
CENTER
100
AcDbLine
 10
364.6849029999998
 20
195.8117927571587
 30
0.0
 11
364.6849029999998
 21
130.8117927571587
 31
0.0
  0
CIRCLE
  5
4A8
330
2C1
100
AcDbEntity
  8
0
100
AcDbCircle
 10
364.6849029999998
 20
250.9072989999999
 30
0.0
 40
27.5
  0
LINE
  5
4A9
330
2C1
100
AcDbEntity
  8
0
100
AcDbLine
 10
275.2999999999999
 20
262.4072989999999
 30
0.0
 11
276.2999999999999
 21
261.4072989999999
 31
0.0
  0
LINE
  5
4AA
330
2C1
100
AcDbEntity
  8
0
100
AcDbLine
 10
275.2999999999999
 20
239.4072989999999
 30
0.0
 11
276.2999999999999
 21
240.4072989999999
 31
0.0
  0
CIRCLE
  5
4AD
330
2C1
100
AcDbEntity
  8
0
100
AcDbCircle
 10
364.6849029999998
 20
250.9072989999999
 30
0.0
 40
13.50000000000002
  0
CIRCLE
  5
4B0
330
2C1
100
AcDbEntity
  8
0
100
AcDbCircle
 10
364.6849029999998
 20
250.9072989999999
 30
0.0
 40
11.50000000000002
  0
LINE
  5
4B2
330
2C1
100
AcDbEntity
  8
0
  6
CENTER
100
AcDbLine
 10
332.1849029999998
 20
250.9072989999999
 30
0.0
 11
397.1849029999998
 21
250.9072989999999
 31
0.0
  0
LINE
  5
4B3
330
2C1
100
AcDbEntity
  8
0
  6
CENTER
100
AcDbLine
 10
364.6849029999998
 20
283.4072989999999
 30
0.0
 11
364.6849029999998
 21
218.4072989999999
 31
0.0
  0
ARC
  5
4EF
330
2C1
100
AcDbEntity
  8
0
100
AcDbCircle
 10
255.6977453106278
 20
171.8725936970307
 30
0.0
 40
2.750000000000006
100
AcDbArc
 50
104.7466528752444
 51
75.25334712475502
  0
CIRCLE
  5
4F0
330
2C1
100
AcDbEntity
  8
0
100
AcDbCircle
 10
255.6977453106278
 20
171.8725936970307
 30
0.0
 40
1.6
  0
LINE
  5
4F7
330
2C1
100
AcDbEntity
  8
0
100
AcDbLine
 10
254.9977453106278
 20
174.5320109264252
 30
0.0
 11
254.9977453106278
 21
175.5320109264252
 31
0.0
  0
LINE
  5
4F8
330
2C1
100
AcDbEntity
  8
0
100
AcDbLine
 10
256.3977453106278
 20
174.5320109264252
 30
0.0
 11
256.3977453106278
 21
175.5320109264252
 31
0.0
  0
LINE
  5
4F9
330
2C1
100
AcDbEntity
  8
0
100
AcDbLine
 10
254.6977453106278
 20
175.5320109264252
 30
0.0
 11
256.6977453106278
 21
175.5320109264252
 31
0.0
  0
LINE
  5
4FA
330
2C1
100
AcDbEntity
  8
0
100
AcDbLine
 10
256.6977453106278
 20
175.5320109264252
 30
0.0
 11
256.6977453106278
 21
180.5320109264252
 31
0.0
  0
LINE
  5
4FB
330
2C1
100
AcDbEntity
  8
0
100
AcDbLine
 10
256.6977453106278
 20
175.5320109264252
 30
0.0
 11
256.6977453106278
 21
175.5320109264252
 31
0.0
  0
LINE
  5
4FC
330
2C1
100
AcDbEntity
  8
0
100
AcDbLine
 10
254.6977453106278
 20
175.5320109264252
 30
0.0
 11
254.6977453106278
 21
180.5320109264252
 31
0.0
  0
LINE
  5
4FD
330
2C1
100
AcDbEntity
  8
0
100
AcDbLine
 10
254.6977453106278
 20
180.5320109264252
 30
0.0
 11
256.6977453106278
 21
180.5320109264252
 31
0.0
  0
LINE
  5
503
330
2C1
100
AcDbEntity
  8
0
100
AcDbLine
 10
264.6977453106278
 20
175.5320109264252
 30
0.0
 11
264.6977453106278
 21
180.5320109264252
 31
0.0
  0
LINE
  5
504
330
2C1
100
AcDbEntity
  8
0
100
AcDbLine
 10
266.6977453106278
 20
175.5320109264252
 30
0.0
 11
266.6977453106278
 21
180.5320109264252
 31
0.0
  0
ARC
  5
505
330
2C1
100
AcDbEntity
  8
0
100
AcDbCircle
 10
265.6977453106278
 20
171.8725936970307
 30
0.0
 40
2.750000000000006
100
AcDbArc
 50
104.7466528752444
 51
75.25334712475502
  0
CIRCLE
  5
506
330
2C1
100
AcDbEntity
  8
0
100
AcDbCircle
 10
265.6977453106278
 20
171.8725936970307
 30
0.0
 40
1.6
  0
LINE
  5
507
330
2C1
100
AcDbEntity
  8
0
100
AcDbLine
 10
266.6977453106278
 20
175.5320109264252
 30
0.0
 11
266.6977453106278
 21
175.5320109264252
 31
0.0
  0
LINE
  5
508
330
2C1
100
AcDbEntity
  8
0
100
AcDbLine
 10
264.6977453106278
 20
175.5320109264252
 30
0.0
 11
266.6977453106278
 21
175.5320109264252
 31
0.0
  0
LINE
  5
509
330
2C1
100
AcDbEntity
  8
0
100
AcDbLine
 10
266.3977453106278
 20
174.5320109264252
 30
0.0
 11
266.3977453106278
 21
175.5320109264252
 31
0.0
  0
LINE
  5
50A
330
2C1
100
AcDbEntity
  8
0
100
AcDbLine
 10
264.9977453106278
 20
174.5320109264252
 30
0.0
 11
264.9977453106278
 21
175.5320109264252
 31
0.0
  0
LINE
  5
50B
330
2C1
100
AcDbEntity
  8
0
100
AcDbLine
 10
264.6977453106278
 20
180.5320109264252
 30
0.0
 11
266.6977453106278
 21
180.5320109264252
 31
0.0
  0
LINE
  5
50C
330
2C1
100
AcDbEntity
  8
0
100
AcDbLine
 10
274.6977453106278
 20
175.5320109264252
 30
0.0
 11
274.6977453106278
 21
180.5320109264252
 31
0.0
  0
LINE
  5
50D
330
2C1
100
AcDbEntity
  8
0
100
AcDbLine
 10
276.6977453106278
 20
175.5320109264252
 30
0.0
 11
276.6977453106278
 21
180.5320109264252
 31
0.0
  0
ARC
  5
50E
330
2C1
100
AcDbEntity
  8
0
100
AcDbCircle
 10
275.6977453106278
 20
171.8725936970307
 30
0.0
 40
2.750000000000006
100
AcDbArc
 50
104.7466528752444
 51
75.25334712475502
  0
CIRCLE
  5
50F
330
2C1
100
AcDbEntity
  8
0
100
AcDbCircle
 10
275.6977453106278
 20
171.8725936970307
 30
0.0
 40
1.6
  0
LINE
  5
510
330
2C1
100
AcDbEntity
  8
0
100
AcDbLine
 10
276.6977453106278
 20
175.5320109264252
 30
0.0
 11
276.6977453106278
 21
175.5320109264252
 31
0.0
  0
LINE
  5
511
330
2C1
100
AcDbEntity
  8
0
100
AcDbLine
 10
274.6977453106278
 20
175.5320109264252
 30
0.0
 11
276.6977453106278
 21
175.5320109264252
 31
0.0
  0
LINE
  5
512
330
2C1
100
AcDbEntity
  8
0
100
AcDbLine
 10
276.3977453106278
 20
174.5320109264252
 30
0.0
 11
276.3977453106278
 21
175.5320109264252
 31
0.0
  0
LINE
  5
513
330
2C1
100
AcDbEntity
  8
0
100
AcDbLine
 10
274.9977453106278
 20
174.5320109264252
 30
0.0
 11
274.9977453106278
 21
175.5320109264252
 31
0.0
  0
LINE
  5
514
330
2C1
100
AcDbEntity
  8
0
100
AcDbLine
 10
274.6977453106278
 20
180.5320109264252
 30
0.0
 11
276.6977453106278
 21
180.5320109264252
 31
0.0
  0
LINE
  5
51C
330
2C1
100
AcDbEntity
  8
0
100
AcDbLine
 10
263.1977453106278
 20
186.8725936970307
 30
0.0
 11
268.1977453106278
 21
186.8725936970307
 31
0.0
  0
LINE
  5
51D
330
2C1
100
AcDbEntity
  8
0
100
AcDbLine
 10
264.9977453106278
 20
180.5320109264252
 30
0.0
 11
264.9977453106278
 21
186.8725936970307
 31
0.0
  0
LINE
  5
51E
330
2C1
100
AcDbEntity
  8
0
100
AcDbLine
 10
266.3977453106278
 20
180.5320109264252
 30
0.0
 11
266.3977453106278
 21
186.8725936970307
 31
0.0
  0
LINE
  5
51F
330
2C1
100
AcDbEntity
  8
0
100
AcDbLine
 10
276.3977453106278
 20
180.5320109264252
 30
0.0
 11
268.1977453106278
 21
186.8725936970307
 31
0.0
  0
LINE
  5
520
330
2C1
100
AcDbEntity
  8
0
100
AcDbLine
 10
274.9977453106278
 20
180.5320109264252
 30
0.0
 11
266.7977453106278
 21
186.8725936970307
 31
0.0
  0
LINE
  5
521
330
2C1
100
AcDbEntity
  8
0
100
AcDbLine
 10
254.9977453106278
 20
180.5320109264252
 30
0.0
 11
263.1977453106278
 21
186.8725936970307
 31
0.0
  0
LINE
  5
522
330
2C1
100
AcDbEntity
  8
0
100
AcDbLine
 10
256.3977453106278
 20
180.5320109264252
 30
0.0
 11
264.5977453106278
 21
186.8725936970307
 31
0.0
  0
LINE
  5
523
330
2C1
100
AcDbEntity
  8
0
100
AcDbLine
 10
263.1977453106278
 20
186.8725936970307
 30
0.0
 11
263.1977453106278
 21
191.8725936970307
 31
0.0
  0
LINE
  5
524
330
2C1
100
AcDbEntity
  8
0
100
AcDbLine
 10
268.1977453106278
 20
186.8725936970307
 30
0.0
 11
268.1977453106278
 21
191.8725936970307
 31
0.0
  0
MTEXT
  5
528
330
2C1
100
AcDbEntity
  8
0
100
AcDbMText
 10
253.4608645730114
 20
165.2778761295187
 30
0.0
 40
4.5
 41
13.13
 71
     1
 72
     5
  1
１\P赤
  7
KANJI
 73
     1
 44
1.0
  0
MTEXT
  5
529
330
2C1
100
AcDbEntity
  8
0
100
AcDbMText
 10
263.4608645730114
 20
165.2778761295187
 30
0.0
 40
4.5
 41
13.13
 71
     1
 72
     5
  1
２\P白
  7
KANJI
 73
     1
 44
1.0
  0
MTEXT
  5
52A
330
2C1
100
AcDbEntity
  8
0
100
AcDbMText
 10
273.4608645730114
 20
165.2778761295187
 30
0.0
 40
4.5
 41
13.13
 71
     1
 72
     5
  1
３\P黒
  7
KANJI
 73
     1
 44
1.0
  0
MTEXT
  5
52B
330
2C1
100
AcDbEntity
  8
0
100
AcDbMText
 10
228.0499907848077
 20
199.8046074249785
 30
0.0
 40
4.5
 41
23.66494763170435
 71
     1
 72
     5
  1
ビニール\Pリード線
  7
KANJI
 73
     1
 44
1.0
  0
MTEXT
  5
52C
330
2C1
100
AcDbEntity
  8
0
100
AcDbMText
 10
251.7165596137973
 20
216.8315155355291
 30
0.0
 40
4.5
 41
17.34069434657397
 71
     1
 72
     5
  1
目盛板
  7
KANJI
 73
     1
 44
1.0
  0
MTEXT
  5
52D
330
2C1
100
AcDbEntity
  8
0
100
AcDbMText
 10
275.1774989445923
 20
232.9346991846741
 30
0.0
 40
4.5
 41
26.11
 71
     1
 72
     5
  1
ツマミ
  7
KANJI
 73
     1
 44
1.0
  0
CIRCLE
  5
52E
330
2C1
100
AcDbEntity
  8
0
100
AcDbCircle
 10
252.6433996073458
 20
130.7412737774675
 30
0.0
 40
15.0
  0
LINE
  5
53B
330
2C1
100
AcDbEntity
  8
0
100
AcDbLine
 10
259.2606889771093
 20
117.2797923806518
 30
0.0
 11
260.7773742035614
 21
114.6528165093476
 31
0.0
  0
LINE
  5
53C
330
2C1
100
AcDbEntity
  8
0
100
AcDbLine
 10
260.7773742035614
 20
114.6528165093476
 30
0.0
 11
262.5094250111303
 21
115.6528165093476
 31
0.0
  0
LINE
  5
53D
330
2C1
100
AcDbEntity
  8
0
100
AcDbLine
 10
262.5094250111303
 20
115.6528165093476
 30
0.0
 11
260.9927397846781
 21
118.2797923806518
 31
0.0
  0
LINE
  5
53E
330
2C1
100
AcDbEntity
  8
0
100
AcDbLine
 10
244.2940594300135
 20
118.2797923806518
 30
0.0
 11
242.7773742035614
 21
115.6528165093476
 31
0.0
  0
LINE
  5
53F
330
2C1
100
AcDbEntity
  8
0
100
AcDbLine
 10
242.7773742035614
 20
115.6528165093476
 30
0.0
 11
244.5094250111302
 21
114.6528165093476
 31
0.0
  0
LINE
  5
540
330
2C1
100
AcDbEntity
  8
0
100
AcDbLine
 10
244.5094250111302
 20
114.6528165093476
 30
0.0
 11
246.0261102375824
 21
117.2797923806518
 31
0.0
  0
LINE
  5
541
330
2C1
100
AcDbEntity
  8
0
100
AcDbLine
 10
251.6433996073458
 20
115.7746442303717
 30
0.0
 11
251.6433996073458
 21
112.7412737774675
 31
0.0
  0
LINE
  5
542
330
2C1
100
AcDbEntity
  8
0
100
AcDbLine
 10
251.6433996073458
 20
112.7412737774675
 30
0.0
 11
253.6433996073458
 21
112.7412737774675
 31
0.0
  0
LINE
  5
543
330
2C1
100
AcDbEntity
  8
0
100
AcDbLine
 10
253.6433996073458
 20
112.7412737774675
 30
0.0
 11
253.6433996073458
 21
115.7746442303717
 31
0.0
  0
MTEXT
  5
544
330
2C1
100
AcDbEntity
  8
0
100
AcDbMText
 10
258.4097955561176
 20
123.6051926453979
 30
0.0
 40
4.5
 41
2.475051994656269
 71
     1
 72
     5
  1
1
  7
KANJI
 73
     1
 44
1.0
  0
MTEXT
  5
545
330
2C1
100
AcDbEntity
  8
0
100
AcDbMText
 10
251.0949526595457
 20
122.1281622626075
 30
0.0
 40
4.5
 41
4.478665257437739
 71
     1
 72
     5
  1
2
  7
KANJI
 73
     1
 44
1.0
  0
MTEXT
  5
546
330
2C1
100
AcDbEntity
  8
0
100
AcDbMText
 10
244.4057966137064
 20
123.7542625763492
 30
0.0
 40
4.5
 41
3.65364792588565
 71
     1
 72
     5
  1
3
  7
KANJI
 73
     1
 44
1.0
  0
LWPOLYLINE
  5
547
330
2C1
100
AcDbEntity
  8
0
100
AcDbPolyline
 90
        3
 70
     0
 43
0.0
 10
261.5100779849874
 20
115.1878136120742
 10
262.7718095562124
 20
112.860408297325
 10
262.7718095562124
 20
103.2598617500832
  0
LWPOLYLINE
  5
548
330
2C1
100
AcDbEntity
  8
0
100
AcDbPolyline
 90
        3
 70
     0
 43
0.0
 10
243.5546647102289
 20
115.1878136120742
 10
241.5164828376589
 20
112.5694827583475
 10
241.5164828376589
 20
103.2598617500832
  0
LINE
  5
549
330
2C1
100
AcDbEntity
  8
0
100
AcDbLine
 10
252.6779556387264
 20
112.7634330340884
 30
0.0
 11
252.6779556387264
 21
103.3568370133199
 31
0.0
  0
MTEXT
  5
54A
330
2C1
100
AcDbEntity
  8
0
100
AcDbMText
 10
242.6406457082643
 20
104.1370873624621
 30
0.0
 40
4.5
 41
5.714158718801581
 71
     1
 72
     5
  1
黒
  7
KANJI
 73
     1
 44
1.0
  0
MTEXT
  5
54B
330
2C1
100
AcDbEntity
  8
0
100
AcDbMText
 10
254.2349869007583
 20
104.1370873624621
 30
0.0
 40
4.5
 41
5.709999999999999
 71
     1
 72
     5
  1
白
  7
KANJI
 73
     1
 44
1.0
  0
MTEXT
  5
54C
330
2C1
100
AcDbEntity
  8
0
100
AcDbMText
 10
264.863133405671
 20
104.1370873624621
 30
0.0
 40
4.5
 41
5.709999999999999
 71
     1
 72
     5
  1
赤
  7
KANJI
 73
     1
 44
1.0
  0
MTEXT
  5
575
330
2C1
100
AcDbEntity
  8
0
100
AcDbMText
 10
356.2901472921695
 20
123.9744372030114
 30
0.0
 40
4.5
 41
17.10006670614299
 71
     1
 72
     5
  1
取付穴
  7
KANJI
 73
     1
 44
1.0
  0
DIMENSION
  5
576
330
2C1
100
AcDbEntity
  8
0
100
AcDbDimension
  2
*D7
 10
354.1840271918421
 20
175.3117927571588
 30
0.0
 11
352.4940271918421
 21
169.3117927571588
 31
0.0
 70
    32
 71
     5
 42
12.00000000000008
  3
STANDARD
100
AcDbAlignedDimension
 13
364.6849029999998
 23
163.3117927571587
 33
0.0
 14
364.6849029999998
 24
175.3117927571588
 34
0.0
 50
90.0
100
AcDbRotatedDimension
1001
ACAD
1000
DSTYLE
1002
{
1070
    41
1040
2.0
1070
    42
1040
1.0
1070
    43
1040
8.0
1070
    44
1040
1.0
1070
    73
1070
     0
1070
    74
1070
     0
1070
    77
1070
     1
1070
   140
1040
3.2
1070
   271
1070
     1
1070
   272
1070
     1
1070
   275
1070
     0
1070
   279
1070
     0
1070
   340
1005
2B4
1002
}
  0
DIMENSION
  5
5BB
330
2C1
100
AcDbEntity
  8
0
100
AcDbDimension
  2
*D8
 10
392.1849029999998
 20
288.6486510220206
 30
0.0
 11
364.6849029999998
 21
290.3386510220206
 31
0.0
 70
    32
 71
     5
 42
55.0
  3
STANDARD
100
AcDbAlignedDimension
 13
337.1849029999998
 23
250.9072989999999
 33
0.0
 14
392.1849029999998
 24
250.9072989999999
 34
0.0
100
AcDbRotatedDimension
1001
ACAD
1000
DSTYLE
1002
{
1070
    41
1040
2.0
1070
    42
1040
1.0
1070
    43
1040
8.0
1070
    44
1040
1.0
1070
    73
1070
     0
1070
    74
1070
     0
1070
    77
1070
     1
1070
   140
1040
3.2
1070
   271
1070
     1
1070
   272
1070
     1
1070
   275
1070
     0
1070
   279
1070
     0
1070
   340
1005
2B4
1002
}
  0
LINE
  5
5D3
330
2C1
100
AcDbEntity
  8
0
  6
CENTER
100
AcDbLine
 10
332.1849029999998
 20
163.3117927571587
 30
0.0
 11
397.1849029999998
 21
163.3117927571587
 31
0.0
  0
LINE
  5
5D5
330
2C1
100
AcDbEntity
  8
0
100
AcDbLine
 10
273.0588929774082
 20
241.6246436273219
 30
0.0
 11
279.8997670851817
 21
234.22922447292
 31
0.0
  0
LINE
  5
5D6
330
2C1
100
AcDbEntity
  8
0
100
AcDbLine
 10
257.9192538163196
 20
224.0325102792492
 30
0.0
 11
259.825726729483
 21
217.9817129944286
 31
0.0
  0
LINE
  5
5D7
330
2C1
100
AcDbEntity
  8
0
100
AcDbLine
 10
267.2999999999999
 20
252.9072989999999
 30
0.0
 11
276.2999999999999
 21
252.9072989999999
 31
0.0
  0
LINE
  5
5D8
330
2C1
100
AcDbEntity
  8
0
100
AcDbLine
 10
267.2999999999999
 20
248.9072989999999
 30
0.0
 11
276.2999999999999
 21
248.9072989999999
 31
0.0
  0
LINE
  5
5D9
330
2C1
100
AcDbEntity
  8
0
100
AcDbLine
 10
267.2999999999999
 20
256.9072989999999
 30
0.0
 11
276.2999999999999
 21
256.9072989999999
 31
0.0
  0
LINE
  5
5DA
330
2C1
100
AcDbEntity
  8
0
100
AcDbLine
 10
267.2999999999999
 20
260.9072989999999
 30
0.0
 11
276.2999999999999
 21
260.9072989999999
 31
0.0
  0
LINE
  5
5DB
330
2C1
100
AcDbEntity
  8
0
100
AcDbLine
 10
267.2999999999999
 20
240.9072989999998
 30
0.0
 11
276.2999999999999
 21
240.9072989999998
 31
0.0
  0
LINE
  5
5DC
330
2C1
100
AcDbEntity
  8
0
100
AcDbLine
 10
267.2999999999999
 20
244.9072989999999
 30
0.0
 11
276.2999999999999
 21
244.9072989999999
 31
0.0
  0
ARC
  5
5DF
330
2C1
100
AcDbEntity
  8
0
100
AcDbCircle
 10
366.7827538398098
 20
250.2679590606162
 30
0.0
 40
19.28925836879123
100
AcDbArc
 50
284.7863328579247
 51
96.24369382698754
  0
ARC
  5
5E0
330
2C1
100
AcDbEntity
  8
0
100
AcDbCircle
 10
364.4164372589067
 20
251.4489978227432
 30
0.0
 40
17.99580442158354
100
AcDbArc
 50
89.1452160649454
 51
252.0339586014368
  0
ARC
  5
5E7
330
2C1
100
AcDbEntity
  8
0
100
AcDbCircle
 10
364.6849029999998
 20
250.9004813388113
 30
0.0
 40
15.04231827581968
100
AcDbArc
 50
290.0083116704594
 51
249.9999999999999
  0
LINE
  5
5EC
330
2C1
100
AcDbEntity
  8
0
100
AcDbLine
 10
359.5401271473536
 20
236.7653258555105
 30
0.0
 11
358.8655727365292
 21
234.3306778165598
 31
0.0
  0
LINE
  5
5ED
330
2C1
100
AcDbEntity
  8
0
100
AcDbLine
 10
369.8317293291946
 20
236.7660723363745
 30
0.0
 11
371.705664381093
 21
231.6174780957588
 31
0.0
  0
ENDSEC
  0
SECTION
  2
OBJECTS
  0
DICTIONARY
  5
2AF
330
0
100
AcDbDictionary
281
     1
  3
ACAD_GROUP
350
2B0
  3
ACAD_LAYOUT
350
2BC
  3
ACAD_MLINESTYLE
350
2B9
  3
ACAD_PLOTSETTINGS
350
2BB
  3
ACAD_PLOTSTYLENAME
350
2B1
  3
AcadDim
350
5D4
  0
DICTIONARY
  5
2B0
102
{ACAD_REACTORS
330
2AF
102
}
330
2AF
100
AcDbDictionary
281
     1
  3
*A1
350
565
  3
*A2
350
56A
  0
DICTIONARY
  5
2BC
102
{ACAD_REACTORS
330
2AF
102
}
330
2AF
100
AcDbDictionary
281
     1
  3
Model
350
2C4
  3
ﾚｲｱｳﾄ1
350
2C0
  0
DICTIONARY
  5
2B9
102
{ACAD_REACTORS
330
2AF
102
}
330
2AF
100
AcDbDictionary
281
     1
  3
Standard
350
2BA
  0
DICTIONARY
  5
2BB
102
{ACAD_REACTORS
330
2AF
102
}
330
2AF
100
AcDbDictionary
281
     1
  0
ACDBDICTIONARYWDFLT
  5
2B1
102
{ACAD_REACTORS
330
2AF
102
}
330
2AF
100
AcDbDictionary
281
     1
  3
Normal
350
2B2
100
AcDbDictionaryWithDefault
340
2B2
  0
XRECORD
  5
5D4
102
{ACAD_REACTORS
330
2AF
102
}
330
2AF
100
AcDbXrecord
280
     1
 90
   990106
  3

 60
     0
 61
     0
 62
     1
 63
     3
 64
     0
 65
     0
 66
     0
 67
     3
 68
     1
 69
     0
 70
     0
 71
     0
 72
     0
 40
0.0
170
     0
  0
GROUP
  5
565
102
{ACAD_REACTORS
330
2B0
102
}
330
2B0
100
AcDbGroup
300

 70
     1
 71
     1
  0
GROUP
  5
56A
102
{ACAD_REACTORS
330
2B0
102
}
330
2B0
100
AcDbGroup
300

 70
     1
 71
     1
  0
LAYOUT
  5
2C4
102
{ACAD_REACTORS
330
2BC
102
}
330
2BC
100
AcDbPlotSettings
  1

  2
RICOH IPSiO SP 6110 RPCS
  4
A4
  6

 40
5.873749732971191
 41
5.873747825622558
 42
5.873748779296875
 43
5.873748779296875
 44
209.9733276367187
 45
296.9259948730469
 46
-1.29
 47
19.58999999999999
 48
0.0
 49
0.0
140
0.0
141
0.0
142
1.0
143
1.0
 70
 11956
 72
     1
 73
     0
 74
     1
  7

 75
    16
147
1.0
148
-196.3927018069577
149
-45.96954448843553
100
AcDbLayout
  1
Model
 70
     1
 71
     0
 10
0.0
 20
0.0
 11
12.0
 21
9.0
 12
0.0
 22
0.0
 32
0.0
 14
0.0
 24
0.0
 34
0.0
 15
0.0
 25
0.0
 35
0.0
146
0.0
 13
0.0
 23
0.0
 33
0.0
 16
1.0
 26
0.0
 36
0.0
 17
0.0
 27
1.0
 37
0.0
 76
     0
330
2C1
  0
LAYOUT
  5
2C0
102
{ACAD_REACTORS
330
2BC
102
}
330
2BC
100
AcDbPlotSettings
  1

  2
FX DocuPrint 360 PS H3
  4

  6

 40
0.0
 41
0.0
 42
0.0
 43
0.0
 44
0.0
 45
0.0
 46
0.0
 47
0.0
 48
0.0
 49
0.0
140
0.0
141
0.0
142
1.0
143
1.0
 70
   688
 72
     0
 73
     0
 74
     5
  7

 75
    16
147
1.0
148
0.0
149
0.0
100
AcDbLayout
  1
ﾚｲｱｳﾄ1
 70
     1
 71
     1
 10
0.0
 20
0.0
 11
12.0
 21
9.0
 12
0.0
 22
0.0
 32
0.0
 14
1.000000000000000E+20
 24
1.000000000000000E+20
 34
1.000000000000000E+20
 15
-1.000000000000000E+20
 25
-1.000000000000000E+20
 35
-1.000000000000000E+20
146
0.0
 13
0.0
 23
0.0
 33
0.0
 16
1.0
 26
0.0
 36
0.0
 17
0.0
 27
1.0
 37
0.0
 76
     0
330
2BD
  0
MLINESTYLE
  5
2BA
102
{ACAD_REACTORS
330
2B9
102
}
330
2B9
100
AcDbMlineStyle
  2
STANDARD
 70
     0
  3

 62
   256
 51
90.0
 52
90.0
 71
     2
 49
0.5
 62
   256
  6
BYLAYER
 49
-0.5
 62
   256
  6
BYLAYER
  0
ACDBPLACEHOLDER
  5
2B2
102
{ACAD_REACTORS
330
2B1
102
}
330
2B1
  0
ENDSEC
  0
EOF
