  0
SECTION
  2
HEADER
  9
$ACADVER
  1
AC1014
  9
$ACADMAINTVER
 70
     9
  9
$DWGCODEPAGE
  3
ANSI_932
  9
$INSBASE
 10
0.0
 20
0.0
 30
0.0
  9
$EXTMIN
 10
75.3
 20
26.05
 30
0.0
  9
$EXTMAX
 10
673.8
 20
510.95
 30
0.0
  9
$LIMMIN
 10
0.0
 20
0.0
  9
$LIMMAX
 10
420.0
 20
297.0
  9
$ORTHOMODE
 70
     0
  9
$REGENMODE
 70
     1
  9
$FILLMODE
 70
     1
  9
$QTEXTMODE
 70
     0
  9
$MIRRTEXT
 70
     1
  9
$DRAGMODE
 70
     2
  9
$LTSCALE
 40
0.2
  9
$OSMODE
 70
    37
  9
$ATTMODE
 70
     1
  9
$TEXTSIZE
 40
2.5
  9
$TRACEWID
 40
1.0
  9
$TEXTSTYLE
  7
STYLE1
  9
$CLAYER
  8
画層1
  9
$CELTYPE
  6
BYLAYER
  9
$CECOLOR
 62
     3
  9
$CELTSCALE
 40
1.0
  9
$DELOBJ
 70
     1
  9
$DISPSILH
 70
     0
  9
$DIMSCALE
 40
1.0
  9
$DIMASZ
 40
1.5
  9
$DIMEXO
 40
0.63
  9
$DIMDLI
 40
3.75
  9
$DIMRND
 40
0.0
  9
$DIMDLE
 40
0.0
  9
$DIMEXE
 40
1.25
  9
$DIMTP
 40
0.6
  9
$DIMTM
 40
0.0
  9
$DIMTXT
 40
2.5
  9
$DIMCEN
 40
2.5
  9
$DIMTSZ
 40
0.0
  9
$DIMTOL
 70
     0
  9
$DIMLIM
 70
     0
  9
$DIMTIH
 70
     0
  9
$DIMTOH
 70
     0
  9
$DIMSE1
 70
     0
  9
$DIMSE2
 70
     0
  9
$DIMTAD
 70
     1
  9
$DIMZIN
 70
     8
  9
$DIMBLK
  1
OPEN30
  9
$DIMASO
 70
     1
  9
$DIMSHO
 70
     1
  9
$DIMPOST
  1

  9
$DIMAPOST
  1

  9
$DIMALT
 70
     0
  9
$DIMALTD
 70
     4
  9
$DIMALTF
 40
0.04
  9
$DIMLFAC
 40
2.0
  9
$DIMTOFL
 70
     1
  9
$DIMTVP
 40
0.0
  9
$DIMTIX
 70
     0
  9
$DIMSOXD
 70
     0
  9
$DIMSAH
 70
     0
  9
$DIMBLK1
  1
OPEN30
  9
$DIMBLK2
  1
OPEN
  9
$DIMSTYLE
  2
STANDARD_WS
  9
$DIMCLRD
 70
     0
  9
$DIMCLRE
 70
     0
  9
$DIMCLRT
 70
     0
  9
$DIMTFAC
 40
0.5
  9
$DIMGAP
 40
0.63
  9
$DIMJUST
 70
     0
  9
$DIMSD1
 70
     0
  9
$DIMSD2
 70
     0
  9
$DIMTOLJ
 70
     1
  9
$DIMTZIN
 70
     8
  9
$DIMALTZ
 70
     0
  9
$DIMALTTZ
 70
     0
  9
$DIMFIT
 70
     3
  9
$DIMUPT
 70
     0
  9
$DIMUNIT
 70
     2
  9
$DIMDEC
 70
     4
  9
$DIMTDEC
 70
     4
  9
$DIMALTU
 70
     8
  9
$DIMALTTD
 70
     4
  9
$DIMTXSTY
  7
STYLE1
  9
$DIMAUNIT
 70
     0
  9
$LUNITS
 70
     2
  9
$LUPREC
 70
     4
  9
$SKETCHINC
 40
1.0
  9
$FILLETRAD
 40
1.0
  9
$AUNITS
 70
     0
  9
$AUPREC
 70
     0
  9
$MENU
  1
acad
  9
$ELEVATION
 40
0.0
  9
$PELEVATION
 40
0.0
  9
$THICKNESS
 40
0.0
  9
$LIMCHECK
 70
     0
  9
$BLIPMODE
 70
     0
  9
$CHAMFERA
 40
10.0
  9
$CHAMFERB
 40
10.0
  9
$CHAMFERC
 40
20.0
  9
$CHAMFERD
 40
0.0
  9
$SKPOLY
 70
     0
  9
$TDCREATE
 40
2450995.462150231
  9
$TDUPDATE
 40
2452594.747922928
  9
$TDINDWG
 40
4.5846709028
  9
$TDUSRTIMER
 40
4.5846687037
  9
$USRTIMER
 70
     1
  9
$ANGBASE
 50
0.0
  9
$ANGDIR
 70
     0
  9
$PDMODE
 70
     0
  9
$PDSIZE
 40
0.0
  9
$PLINEWID
 40
10.0
  9
$COORDS
 70
     2
  9
$SPLFRAME
 70
     0
  9
$SPLINETYPE
 70
     6
  9
$SPLINESEGS
 70
     8
  9
$ATTDIA
 70
     0
  9
$ATTREQ
 70
     1
  9
$HANDLING
 70
 22529
  9
$HANDSEED
  5
4B6
  9
$SURFTAB1
 70
     6
  9
$SURFTAB2
 70
     6
  9
$SURFTYPE
 70
     6
  9
$SURFU
 70
     6
  9
$SURFV
 70
     6
  9
$UCSNAME
  2

  9
$UCSORG
 10
0.0
 20
0.0
 30
0.0
  9
$UCSXDIR
 10
1.0
 20
0.0
 30
0.0
  9
$UCSYDIR
 10
0.0
 20
1.0
 30
0.0
  9
$PUCSNAME
  2

  9
$PUCSORG
 10
0.0
 20
0.0
 30
0.0
  9
$PUCSXDIR
 10
1.0
 20
0.0
 30
0.0
  9
$PUCSYDIR
 10
0.0
 20
1.0
 30
0.0
  9
$USERI1
 70
     0
  9
$USERI2
 70
     0
  9
$USERI3
 70
     0
  9
$USERI4
 70
     0
  9
$USERI5
 70
     0
  9
$USERR1
 40
0.0
  9
$USERR2
 40
0.0
  9
$USERR3
 40
0.0
  9
$USERR4
 40
0.0
  9
$USERR5
 40
0.0
  9
$WORLDVIEW
 70
     1
  9
$SHADEDGE
 70
     3
  9
$SHADEDIF
 70
    70
  9
$TILEMODE
 70
     1
  9
$MAXACTVP
 70
    48
  9
$PINSBASE
 10
0.0
 20
0.0
 30
0.0
  9
$PLIMCHECK
 70
     0
  9
$PEXTMIN
 10
1.00E+20
 20
1.00E+20
 30
1.00E+20
  9
$PEXTMAX
 10
-1.00E+20
 20
-1.00E+20
 30
-1.00E+20
  9
$PLIMMIN
 10
0.0
 20
0.0
  9
$PLIMMAX
 10
420.0
 20
297.0
  9
$UNITMODE
 70
     0
  9
$VISRETAIN
 70
     1
  9
$PLINEGEN
 70
     0
  9
$PSLTSCALE
 70
     1
  9
$TREEDEPTH
 70
  3020
  9
$PICKSTYLE
 70
     1
  9
$CMLSTYLE
  2
STANDARD
  9
$CMLJUST
 70
     0
  9
$CMLSCALE
 40
20.0
  9
$PROXYGRAPHICS
 70
     1
  9
$MEASUREMENT
 70
     1
  0
ENDSEC
  0
SECTION
  2
CLASSES
  0
CLASS
  1
DICTIONARYVAR
  2
AcDbDictionaryVar
  3
AutoCAD 2000
 90
        0
280
     0
281
     0
  0
CLASS
  1
LWPOLYLINE
  2
AcDbPolyline
  3
AutoCAD 2000
 90
        0
280
     0
281
     1
  0
CLASS
  1
OLE2FRAME
  2
AcDbOle2Frame
  3
AutoCAD 2000
 90
        0
280
     0
281
     1
  0
CLASS
  1
HATCH
  2
AcDbHatch
  3
AutoCAD 2000
 90
        0
280
     0
281
     1
  0
CLASS
  1
ACDBDICTIONARYWDFLT
  2
AcDbDictionaryWithDefault
  3
AutoCAD 2000
 90
        0
280
     0
281
     0
  0
CLASS
  1
ACDBPLACEHOLDER
  2
AcDbPlaceHolder
  3
AutoCAD 2000
 90
        0
280
     0
281
     0
  0
CLASS
  1
LAYOUT
  2
AcDbLayout
  3
AutoCAD 2000
 90
        0
280
     0
281
     0
  0
CLASS
  1
LONG_TRANSACTION
  2
AcDbLongTransaction
  3
AutoCAD 2000
 90
        0
280
     0
281
     0
  0
CLASS
  1
LWPOLYLINE
  2
AcDbPolyline
  3
AutoCAD 2000
 90
        0
280
     0
281
     1
  0
CLASS
  1
HATCH
  2
AcDbHatch
  3
AutoCAD 2000
 90
        0
280
     0
281
     1
  0
CLASS
  1
XRECORD
  2
AcDbXrecord
  3
AutoCAD 2000
 90
        0
280
     0
281
     0
  0
CLASS
  1
LONG_TRANSACTION
  2
AcDbLongTransaction
  3
AutoCAD 2000
 90
        0
280
     0
281
     0
  0
CLASS
  1
LWPOLYLINE
  2
AcDbPolyline
  3
AutoCAD 2000
 90
        0
280
     0
281
     1
  0
CLASS
  1
HATCH
  2
AcDbHatch
  3
AutoCAD 2000
 90
        0
280
     0
281
     1
  0
CLASS
  1
XRECORD
  2
AcDbXrecord
  3
AutoCAD 2000
 90
        0
280
     0
281
     0
  0
CLASS
  1
LONG_TRANSACTION
  2
AcDbLongTransaction
  3
AutoCAD 2000
 90
        0
280
     0
281
     0
  0
CLASS
  1
LWPOLYLINE
  2
AcDbPolyline
  3
AutoCAD 2000
 90
        0
280
     0
281
     1
  0
CLASS
  1
HATCH
  2
AcDbHatch
  3
AutoCAD 2000
 90
        0
280
     0
281
     1
  0
CLASS
  1
XRECORD
  2
AcDbXrecord
  3
AutoCAD 2000
 90
        0
280
     0
281
     0
  0
ENDSEC
  0
SECTION
  2
TABLES
  0
TABLE
  2
VPORT
  5
1E
330
0
100
AcDbSymbolTable
 70
     2
  0
VPORT
  5
489
330
1E
100
AcDbSymbolTableRecord
100
AcDbViewportTableRecord
  2
*ACTIVE
 70
     0
 10
0.0
 20
0.0
 11
1.0
 21
1.0
 12
384.86
 22
298.22
 13
0.0
 23
0.0
 14
1.0
 24
1.0
 15
2.0
 25
2.0
 16
0.0
 26
0.0
 36
1.0
 17
0.0
 27
0.0
 37
0.0
 40
607.62
 41
1.67
 42
50.0
 43
0.0
 44
0.0
 50
0.0
 51
0.0
 71
     0
 72
   100
 73
     1
 74
     1
 75
     0
 76
     0
 77
     0
 78
     0
  0
ENDTAB
  0
TABLE
  2
LTYPE
  5
19
330
0
100
AcDbSymbolTable
 70
     4
  0
LTYPE
  5
1A
330
19
100
AcDbSymbolTableRecord
100
AcDbLinetypeTableRecord
  2
BYBLOCK
 70
     0
  3

 72
    65
 73
     0
 40
0.0
  0
LTYPE
  5
1B
330
19
100
AcDbSymbolTableRecord
100
AcDbLinetypeTableRecord
  2
BYLAYER
 70
     0
  3

 72
    65
 73
     0
 40
0.0
  0
LTYPE
  5
A
330
19
100
AcDbSymbolTableRecord
100
AcDbLinetypeTableRecord
  2
CONTINUOUS
 70
     0
  3
Solid line
 72
    65
 73
     0
 40
0.0
  0
LTYPE
  5
5F
330
19
100
AcDbSymbolTableRecord
100
AcDbLinetypeTableRecord
  2
DASHED2
 70
     0
  3
Dashed (.5x) _ _ _ _ _ _ _ _ _ _ _ _ _ _ _ _ _
 72
    65
 73
     2
 40
9.52
 49
6.35
 74
     0
 49
-3.18
 74
     0
  0
LTYPE
  5
63
330
19
100
AcDbSymbolTableRecord
100
AcDbLinetypeTableRecord
  2
CENTER
 70
     0
  3
Center ____ _ ____ _ ____ _ ____ _ ____ _ ____
 72
    65
 73
     4
 40
50.8
 49
31.75
 74
     0
 49
-6.35
 74
     0
 49
6.35
 74
     0
 49
-6.35
 74
     0
  0
LTYPE
  5
65
330
19
100
AcDbSymbolTableRecord
100
AcDbLinetypeTableRecord
  2
DIVIDE
 70
     0
  3
Divide ____ . . ____ . . ____ . . ____ . . ____
 72
    65
 73
     6
 40
31.75
 49
12.7
 74
     0
 49
-6.35
 74
     0
 49
0.0
 74
     0
 49
-6.35
 74
     0
 49
0.0
 74
     0
 49
-6.35
 74
     0
  0
ENDTAB
  0
TABLE
  2
LAYER
  5
14
330
0
100
AcDbSymbolTable
 70
     3
  0
LAYER
  5
6
330
14
100
AcDbSymbolTableRecord
100
AcDbLayerTableRecord
  2
0
 70
     0
 62
     7
  6
CONTINUOUS
  0
LAYER
  5
3F
330
14
100
AcDbSymbolTableRecord
100
AcDbLayerTableRecord
  2
DEFPOINTS
 70
     0
 62
     7
  6
CONTINUOUS
  0
LAYER
  5
26
330
14
100
AcDbSymbolTableRecord
100
AcDbLayerTableRecord
  2
画層1
 70
     0
 62
     7
  6
CONTINUOUS
  0
ENDTAB
  0
TABLE
  2
STYLE
  5
15
330
0
100
AcDbSymbolTable
 70
     2
  0
STYLE
  5
16
330
15
100
AcDbSymbolTableRecord
100
AcDbTextStyleTableRecord
  2
STANDARD
 70
     0
 40
2.5
 41
1.0
 50
0.0
 71
     0
 42
1.5
  3
MS PMincho.ttf
  4

1001
ACAD
1000
MS PMincho
1071
    32786
  0
STYLE
  5
27
330
15
100
AcDbSymbolTableRecord
100
AcDbTextStyleTableRecord
  2
STYLE1
 70
     0
 40
2.5
 41
1.0
 50
0.0
 71
     0
 42
2.5
  3
MS Gothic.ttf
  4

1001
ACAD
1000
MS Gothic
1071
    32817
  0
ENDTAB
  0
TABLE
  2
VIEW
  5
1C
330
0
100
AcDbSymbolTable
 70
     0
  0
ENDTAB
  0
TABLE
  2
UCS
  5
1D
330
0
100
AcDbSymbolTable
 70
     0
  0
ENDTAB
  0
TABLE
  2
APPID
  5
20
330
0
100
AcDbSymbolTable
 70
     1
  0
APPID
  5
17
330
20
100
AcDbSymbolTableRecord
100
AcDbRegAppTableRecord
  2
ACAD
 70
     0
  0
ENDTAB
  0
TABLE
  2
DIMSTYLE
  5
21
330
0
100
AcDbSymbolTable
 70
     1
  0
DIMSTYLE
105
35
102
{ACAD_REACTORS
330
51
330
44
330
2B9
330
2AC
330
271
330
36
330
2CC
330
286
330
334
330
3A3
330
314
330
327
102
}
330
21
100
AcDbSymbolTableRecord
100
AcDbDimStyleTableRecord
  2
STANDARD_WS
 70
     0
  3

  4

  5

  6
OPEN
  7
OPEN
 40
1.0
 41
1.5
 42
0.63
 43
3.75
 44
1.25
 45
0.0
 46
0.0
 47
0.0
 48
0.0
140
2.5
141
2.5
142
0.0
143
0.04
144
1.0
145
0.0
146
1.0
147
0.63
 71
     0
 72
     0
 73
     0
 74
     0
 75
     0
 76
     0
 77
     1
 78
     8
170
     0
171
     4
172
     1
173
     1
174
     0
175
     0
176
     0
177
     0
178
     0
270
     2
271
     4
272
     4
273
     8
274
     4
340
16
275
     0
280
     0
281
     0
282
     0
283
     1
284
     0
285
     0
286
     0
287
     3
288
     0
  0
ENDTAB
  0
TABLE
  2
BLOCK_RECORD
  5
1
330
0
100
AcDbSymbolTable
 70
    27
  0
BLOCK_RECORD
  5
2
102
{ACAD_XDICTIONARY
360
3
102
}
330
1
100
AcDbSymbolTableRecord
100
AcDbBlockTableRecord
  2
*MODEL_SPACE
  0
BLOCK_RECORD
  5
E
102
{ACAD_XDICTIONARY
360
F
102
}
330
1
100
AcDbSymbolTableRecord
100
AcDbBlockTableRecord
  2
*PAPER_SPACE
  0
BLOCK_RECORD
  5
2E
330
1
100
AcDbSymbolTableRecord
100
AcDbBlockTableRecord
  2
_OPEN
  0
BLOCK_RECORD
  5
28
330
1
100
AcDbSymbolTableRecord
100
AcDbBlockTableRecord
  2
_OPEN30
  0
BLOCK_RECORD
  5
3B1
330
1
100
AcDbSymbolTableRecord
100
AcDbBlockTableRecord
  2
_DOTSMALL
  0
BLOCK_RECORD
  5
2AD
330
1
100
AcDbSymbolTableRecord
100
AcDbBlockTableRecord
  2
*D3
  0
BLOCK_RECORD
  5
2BA
330
1
100
AcDbSymbolTableRecord
100
AcDbBlockTableRecord
  2
*D4
  0
BLOCK_RECORD
  5
2CD
330
1
100
AcDbSymbolTableRecord
100
AcDbBlockTableRecord
  2
*D5
  0
BLOCK_RECORD
  5
287
330
1
100
AcDbSymbolTableRecord
100
AcDbBlockTableRecord
  2
*D6
  0
BLOCK_RECORD
  5
45
330
1
100
AcDbSymbolTableRecord
100
AcDbBlockTableRecord
  2
*D7
  0
BLOCK_RECORD
  5
37
330
1
100
AcDbSymbolTableRecord
100
AcDbBlockTableRecord
  2
*D8
  0
BLOCK_RECORD
  5
272
330
1
100
AcDbSymbolTableRecord
100
AcDbBlockTableRecord
  2
*D9
  0
BLOCK_RECORD
  5
52
330
1
100
AcDbSymbolTableRecord
100
AcDbBlockTableRecord
  2
*D10
  0
BLOCK_RECORD
  5
315
330
1
100
AcDbSymbolTableRecord
100
AcDbBlockTableRecord
  2
*D11
  0
BLOCK_RECORD
  5
3A4
330
1
100
AcDbSymbolTableRecord
100
AcDbBlockTableRecord
  2
*D12
  0
BLOCK_RECORD
  5
335
330
1
100
AcDbSymbolTableRecord
100
AcDbBlockTableRecord
  2
*D13
  0
BLOCK_RECORD
  5
328
330
1
100
AcDbSymbolTableRecord
100
AcDbBlockTableRecord
  2
*D14
  0
BLOCK_RECORD
  5
3E5
330
1
100
AcDbSymbolTableRecord
100
AcDbBlockTableRecord
  2
*D15
  0
BLOCK_RECORD
  5
3F8
330
1
100
AcDbSymbolTableRecord
100
AcDbBlockTableRecord
  2
*D16
  0
BLOCK_RECORD
  5
404
330
1
100
AcDbSymbolTableRecord
100
AcDbBlockTableRecord
  2
*D17
  0
BLOCK_RECORD
  5
410
330
1
100
AcDbSymbolTableRecord
100
AcDbBlockTableRecord
  2
*D18
  0
BLOCK_RECORD
  5
41D
330
1
100
AcDbSymbolTableRecord
100
AcDbBlockTableRecord
  2
*D19
  0
BLOCK_RECORD
  5
42A
330
1
100
AcDbSymbolTableRecord
100
AcDbBlockTableRecord
  2
*D20
  0
BLOCK_RECORD
  5
436
330
1
100
AcDbSymbolTableRecord
100
AcDbBlockTableRecord
  2
*D21
  0
BLOCK_RECORD
  5
44B
330
1
100
AcDbSymbolTableRecord
100
AcDbBlockTableRecord
  2
*D22
  0
BLOCK_RECORD
  5
457
330
1
100
AcDbSymbolTableRecord
100
AcDbBlockTableRecord
  2
*D23
  0
BLOCK_RECORD
  5
463
330
1
100
AcDbSymbolTableRecord
100
AcDbBlockTableRecord
  2
*D24
  0
BLOCK_RECORD
  5
46F
330
1
100
AcDbSymbolTableRecord
100
AcDbBlockTableRecord
  2
*D25
  0
BLOCK_RECORD
  5
47B
330
1
100
AcDbSymbolTableRecord
100
AcDbBlockTableRecord
  2
*D26
  0
ENDTAB
  0
ENDSEC
  0
SECTION
  2
BLOCKS
  0
BLOCK
  5
5
330
2
100
AcDbEntity
  8
0
100
AcDbBlockBegin
  2
*MODEL_SPACE
 70
     0
 10
0.0
 20
0.0
 30
0.0
  3
*MODEL_SPACE
  1

  0
ENDBLK
  5
B
330
2
100
AcDbEntity
  8
0
100
AcDbBlockEnd
  0
BLOCK
  5
11
330
E
100
AcDbEntity
 67
     1
  8
0
100
AcDbBlockBegin
  2
*PAPER_SPACE
 70
     0
 10
0.0
 20
0.0
 30
0.0
  3
*PAPER_SPACE
  1

  0
ENDBLK
  5
12
330
E
100
AcDbEntity
 67
     1
  8
0
100
AcDbBlockEnd
  0
BLOCK
  5
32
330
2E
100
AcDbEntity
  8
0
100
AcDbBlockBegin
  2
_OPEN
 70
     0
 10
0.0
 20
0.0
 30
0.0
  3
_OPEN
  1

  0
LINE
  5
2F
330
2E
100
AcDbEntity
  8
0
  6
BYBLOCK
 62
     0
100
AcDbLine
 10
-1.0
 20
0.17
 30
0.0
 11
0.0
 21
0.0
 31
0.0
  0
LINE
  5
30
330
2E
100
AcDbEntity
  8
0
  6
BYBLOCK
 62
     0
100
AcDbLine
 10
0.0
 20
0.0
 30
0.0
 11
-1.0
 21
-0.17
 31
0.0
  0
LINE
  5
31
330
2E
100
AcDbEntity
  8
0
  6
BYBLOCK
 62
     0
100
AcDbLine
 10
0.0
 20
0.0
 30
0.0
 11
-1.0
 21
0.0
 31
0.0
  0
ENDBLK
  5
33
330
2E
100
AcDbEntity
  8
0
100
AcDbBlockEnd
  0
BLOCK
  5
2C
330
28
100
AcDbEntity
  8
0
100
AcDbBlockBegin
  2
_OPEN30
 70
     0
 10
0.0
 20
0.0
 30
0.0
  3
_OPEN30
  1

  0
LINE
  5
29
330
28
100
AcDbEntity
  8
0
  6
BYBLOCK
 62
     0
100
AcDbLine
 10
-1.0
 20
0.27
 30
0.0
 11
0.0
 21
0.0
 31
0.0
  0
LINE
  5
2A
330
28
100
AcDbEntity
  8
0
  6
BYBLOCK
 62
     0
100
AcDbLine
 10
0.0
 20
0.0
 30
0.0
 11
-1.0
 21
-0.27
 31
0.0
  0
LINE
  5
2B
330
28
100
AcDbEntity
  8
0
  6
BYBLOCK
 62
     0
100
AcDbLine
 10
0.0
 20
0.0
 30
0.0
 11
-1.0
 21
0.0
 31
0.0
  0
ENDBLK
  5
2D
330
28
100
AcDbEntity
  8
0
100
AcDbBlockEnd
  0
BLOCK
  5
3B3
330
3B1
100
AcDbEntity
  8
0
 62
     1
100
AcDbBlockBegin
  2
_DOTSMALL
 70
     0
 10
0.0
 20
0.0
 30
0.0
  3
_DOTSMALL
  1

  0
LWPOLYLINE
  5
3B2
330
3B1
100
AcDbEntity
  8
画層1
 62
     0
100
AcDbPolyline
 90
        2
 70
     1
 43
0.5
 10
-0.06
 20
0.0
 42
1.0
 10
0.06
 20
0.0
 42
1.0
  0
ENDBLK
  5
3B4
330
3B1
100
AcDbEntity
  8
0
 62
     1
100
AcDbBlockEnd
  0
BLOCK
  5
2B7
330
2AD
100
AcDbEntity
  8
0
 62
     3
100
AcDbBlockBegin
  2
*D3
 70
     1
 10
0.0
 20
0.0
 30
0.0
  3
*D3
  1

  0
LINE
  5
2AE
330
2AD
100
AcDbEntity
  8
画層1
 62
     0
100
AcDbLine
 10
334.93
 20
65.3
 30
0.0
 11
364.05
 21
65.3
 31
0.0
  0
LINE
  5
2AF
330
2AD
100
AcDbEntity
  8
画層1
 62
     0
100
AcDbLine
 10
334.93
 20
465.3
 30
0.0
 11
364.05
 21
465.3
 31
0.0
  0
LINE
  5
2B0
330
2AD
100
AcDbEntity
  8
画層1
 62
     0
100
AcDbLine
 10
362.8
 20
66.8
 30
0.0
 11
362.8
 21
463.8
 31
0.0
  0
INSERT
  5
2B1
330
2AD
100
AcDbEntity
  8
画層1
 62
     0
100
AcDbBlockReference
  2
_OPEN30
 10
362.8
 20
65.3
 30
0.0
 41
1.5
 42
1.5
 43
1.5
 50
270.0
  0
INSERT
  5
2B2
330
2AD
100
AcDbEntity
  8
画層1
 62
     0
100
AcDbBlockReference
  2
_OPEN30
 10
362.8
 20
465.3
 30
0.0
 41
1.5
 42
1.5
 43
1.5
 50
90.0
  0
MTEXT
  5
2B3
330
2AD
100
AcDbEntity
  8
画層1
 62
     0
100
AcDbMText
 10
360.92
 20
265.3
 30
0.0
 40
2.5
 41
0.0
 71
     5
 72
     1
  1
\A1;400
  7
STYLE1
 11
0.0
 21
1.0
 31
0.0
1001
ACAD
1000
MTEXTBEGIN
1070
    73
1070
     1
1070
    44
1040
1.0
1070
    74
1070
     0
1000
MTEXTEND
1000
MTEXTBEGIN
1070
    73
1070
     1
1070
    44
1040
1.0
1070
    74
1070
     0
1000
MTEXTEND
  0
POINT
  5
2B4
330
2AD
100
AcDbEntity
  8
DEFPOINTS
 62
     0
100
AcDbPoint
 10
334.3
 20
65.3
 30
0.0
  0
POINT
  5
2B5
330
2AD
100
AcDbEntity
  8
DEFPOINTS
 62
     0
100
AcDbPoint
 10
334.3
 20
465.3
 30
0.0
  0
POINT
  5
2B6
330
2AD
100
AcDbEntity
  8
DEFPOINTS
 62
     0
100
AcDbPoint
 10
362.8
 20
465.3
 30
0.0
  0
ENDBLK
  5
2B8
330
2AD
100
AcDbEntity
  8
0
 62
     3
100
AcDbBlockEnd
  0
BLOCK
  5
2C4
330
2BA
100
AcDbEntity
  8
0
 62
     3
100
AcDbBlockBegin
  2
*D4
 70
     1
 10
0.0
 20
0.0
 30
0.0
  3
*D4
  1

  0
LINE
  5
2BB
330
2BA
100
AcDbEntity
  8
画層1
 62
     0
100
AcDbLine
 10
273.93
 20
455.3
 30
0.0
 11
350.05
 21
455.3
 31
0.0
  0
LINE
  5
2BC
330
2BA
100
AcDbEntity
  8
画層1
 62
     0
100
AcDbLine
 10
273.93
 20
75.3
 30
0.0
 11
350.05
 21
75.3
 31
0.0
  0
LINE
  5
2BD
330
2BA
100
AcDbEntity
  8
画層1
 62
     0
100
AcDbLine
 10
348.8
 20
453.8
 30
0.0
 11
348.8
 21
76.8
 31
0.0
  0
INSERT
  5
2BE
330
2BA
100
AcDbEntity
  8
画層1
 62
     0
100
AcDbBlockReference
  2
_OPEN30
 10
348.8
 20
455.3
 30
0.0
 41
1.5
 42
1.5
 43
1.5
 50
90.0
  0
INSERT
  5
2BF
330
2BA
100
AcDbEntity
  8
画層1
 62
     0
100
AcDbBlockReference
  2
_OPEN30
 10
348.8
 20
75.3
 30
0.0
 41
1.5
 42
1.5
 43
1.5
 50
270.0
  0
MTEXT
  5
2C0
330
2BA
100
AcDbEntity
  8
画層1
 62
     0
100
AcDbMText
 10
346.92
 20
265.3
 30
0.0
 40
2.5
 41
0.0
 71
     5
 72
     1
  1
\A1;380
  7
STYLE1
 11
0.0
 21
1.0
 31
0.0
1001
ACAD
1000
MTEXTBEGIN
1070
    73
1070
     1
1070
    44
1040
1.0
1070
    74
1070
     0
1000
MTEXTEND
1000
MTEXTBEGIN
1070
    73
1070
     1
1070
    44
1040
1.0
1070
    74
1070
     0
1000
MTEXTEND
  0
POINT
  5
2C1
330
2BA
100
AcDbEntity
  8
DEFPOINTS
 62
     0
100
AcDbPoint
 10
273.3
 20
455.3
 30
0.0
  0
POINT
  5
2C2
330
2BA
100
AcDbEntity
  8
DEFPOINTS
 62
     0
100
AcDbPoint
 10
273.3
 20
75.3
 30
0.0
  0
POINT
  5
2C3
330
2BA
100
AcDbEntity
  8
DEFPOINTS
 62
     0
100
AcDbPoint
 10
348.8
 20
75.3
 30
0.0
  0
ENDBLK
  5
2C5
330
2BA
100
AcDbEntity
  8
0
 62
     3
100
AcDbBlockEnd
  0
BLOCK
  5
2D8
330
2CD
100
AcDbEntity
  8
0
 62
     3
100
AcDbBlockBegin
  2
*D5
 70
     1
 10
0.0
 20
0.0
 30
0.0
  3
*D5
  1

  0
LINE
  5
2CE
330
2CD
100
AcDbEntity
  8
画層1
 62
     0
100
AcDbLine
 10
277.3
 20
66.17
 30
0.0
 11
277.3
 21
26.05
 31
0.0
  0
LINE
  5
2CF
330
2CD
100
AcDbEntity
  8
画層1
 62
     0
100
AcDbLine
 10
286.3
 20
66.17
 30
0.0
 11
286.3
 21
26.05
 31
0.0
  0
LINE
  5
2D0
330
2CD
100
AcDbEntity
  8
画層1
 62
     0
100
AcDbLine
 10
278.8
 20
27.3
 30
0.0
 11
284.8
 21
27.3
 31
0.0
  0
LINE
  5
2D1
330
2CD
100
AcDbEntity
  8
画層1
 62
     0
100
AcDbLine
 10
286.3
 20
27.3
 30
0.0
 11
308.62
 21
27.3
 31
0.0
  0
INSERT
  5
2D2
330
2CD
100
AcDbEntity
  8
画層1
 62
     0
100
AcDbBlockReference
  2
_OPEN30
 10
277.3
 20
27.3
 30
0.0
 41
1.5
 42
1.5
 43
1.5
 50
180.0
  0
INSERT
  5
2D3
330
2CD
100
AcDbEntity
  8
画層1
 62
     0
100
AcDbBlockReference
  2
_OPEN30
 10
286.3
 20
27.3
 30
0.0
 41
1.5
 42
1.5
 43
1.5
  0
MTEXT
  5
2D4
330
2CD
100
AcDbEntity
  8
画層1
 62
     0
100
AcDbMText
 10
298.21
 20
29.5
 30
0.0
 40
2.5
 41
0.0
 71
     5
 72
     1
  1
\A1;2-9キリカキ
  7
STYLE1
1001
ACAD
1000
MTEXTBEGIN
1070
    73
1070
     1
1070
    44
1040
1.0
1070
    74
1070
     0
1000
MTEXTEND
1000
MTEXTBEGIN
1070
    73
1070
     1
1070
    44
1040
1.0
1070
    74
1070
     0
1000
MTEXTEND
  0
POINT
  5
2D5
330
2CD
100
AcDbEntity
  8
DEFPOINTS
 62
     0
100
AcDbPoint
 10
277.3
 20
66.8
 30
0.0
  0
POINT
  5
2D6
330
2CD
100
AcDbEntity
  8
DEFPOINTS
 62
     0
100
AcDbPoint
 10
286.3
 20
66.8
 30
0.0
  0
POINT
  5
2D7
330
2CD
100
AcDbEntity
  8
DEFPOINTS
 62
     0
100
AcDbPoint
 10
286.3
 20
27.3
 30
0.0
  0
ENDBLK
  5
2D9
330
2CD
100
AcDbEntity
  8
0
 62
     3
100
AcDbBlockEnd
  0
BLOCK
  5
292
330
287
100
AcDbEntity
  8
0
 62
     3
100
AcDbBlockBegin
  2
*D6
 70
     1
 10
0.0
 20
0.0
 30
0.0
  3
*D6
  1

  0
LINE
  5
288
330
287
100
AcDbEntity
  8
画層1
 62
     0
100
AcDbLine
 10
131.17
 20
465.3
 30
0.0
 11
113.55
 21
465.3
 31
0.0
  0
LINE
  5
289
330
287
100
AcDbEntity
  8
画層1
 62
     0
100
AcDbLine
 10
143.43
 20
452.3
 30
0.0
 11
113.55
 21
452.3
 31
0.0
  0
LINE
  5
28A
330
287
100
AcDbEntity
  8
画層1
 62
     0
100
AcDbLine
 10
114.8
 20
453.8
 30
0.0
 11
114.8
 21
463.8
 31
0.0
  0
LINE
  5
28B
330
287
100
AcDbEntity
  8
画層1
 62
     0
100
AcDbLine
 10
114.8
 20
465.3
 30
0.0
 11
114.8
 21
474.76
 31
0.0
  0
INSERT
  5
28C
330
287
100
AcDbEntity
  8
画層1
 62
     0
100
AcDbBlockReference
  2
_OPEN30
 10
114.8
 20
452.3
 30
0.0
 41
1.5
 42
1.5
 43
1.5
 50
270.0
  0
INSERT
  5
28D
330
287
100
AcDbEntity
  8
画層1
 62
     0
100
AcDbBlockReference
  2
_OPEN30
 10
114.8
 20
465.3
 30
0.0
 41
1.5
 42
1.5
 43
1.5
 50
90.0
  0
MTEXT
  5
28E
330
287
100
AcDbEntity
  8
画層1
 62
     0
100
AcDbMText
 10
112.92
 20
472.6
 30
0.0
 40
2.5
 41
0.0
 71
     5
 72
     1
  1
\A1;13
  7
STYLE1
 11
0.0
 21
1.0
 31
0.0
1001
ACAD
1000
MTEXTBEGIN
1070
    73
1070
     1
1070
    44
1040
1.0
1070
    74
1070
     0
1000
MTEXTEND
1000
MTEXTBEGIN
1070
    73
1070
     1
1070
    44
1040
1.0
1070
    74
1070
     0
1000
MTEXTEND
  0
POINT
  5
28F
330
287
100
AcDbEntity
  8
DEFPOINTS
 62
     0
100
AcDbPoint
 10
131.8
 20
465.3
 30
0.0
  0
POINT
  5
290
330
287
100
AcDbEntity
  8
DEFPOINTS
 62
     0
100
AcDbPoint
 10
144.06
 20
452.3
 30
0.0
  0
POINT
  5
291
330
287
100
AcDbEntity
  8
DEFPOINTS
 62
     0
100
AcDbPoint
 10
114.8
 20
452.3
 30
0.0
  0
ENDBLK
  5
293
330
287
100
AcDbEntity
  8
0
 62
     3
100
AcDbBlockEnd
  0
BLOCK
  5
4F
330
45
100
AcDbEntity
  8
0
 62
     3
100
AcDbBlockBegin
  2
*D7
 70
     1
 10
0.0
 20
0.0
 30
0.0
  3
*D7
  1

  0
LINE
  5
46
330
45
100
AcDbEntity
  8
画層1
 62
     0
100
AcDbLine
 10
79.3
 20
465.93
 30
0.0
 11
79.3
 21
504.55
 31
0.0
  0
LINE
  5
47
330
45
100
AcDbEntity
  8
画層1
 62
     0
100
AcDbLine
 10
334.3
 20
465.93
 30
0.0
 11
334.3
 21
504.55
 31
0.0
  0
LINE
  5
48
330
45
100
AcDbEntity
  8
画層1
 62
     0
100
AcDbLine
 10
80.8
 20
503.3
 30
0.0
 11
332.8
 21
503.3
 31
0.0
  0
INSERT
  5
49
330
45
100
AcDbEntity
  8
画層1
 62
     0
100
AcDbBlockReference
  2
_OPEN30
 10
79.3
 20
503.3
 30
0.0
 41
1.5
 42
1.5
 43
1.5
 50
180.0
  0
INSERT
  5
4A
330
45
100
AcDbEntity
  8
画層1
 62
     0
100
AcDbBlockReference
  2
_OPEN30
 10
334.3
 20
503.3
 30
0.0
 41
1.5
 42
1.5
 43
1.5
  0
MTEXT
  5
4B
330
45
100
AcDbEntity
  8
画層1
 62
     0
100
AcDbMText
 10
206.8
 20
505.18
 30
0.0
 40
2.5
 41
0.0
 71
     5
 72
     1
  1
\A1;255
  7
STYLE1
1001
ACAD
1000
MTEXTBEGIN
1070
    73
1070
     1
1070
    44
1040
1.0
1070
    74
1070
     0
1000
MTEXTEND
1000
MTEXTBEGIN
1070
    73
1070
     1
1070
    44
1040
1.0
1070
    74
1070
     0
1000
MTEXTEND
  0
POINT
  5
4C
330
45
100
AcDbEntity
  8
DEFPOINTS
 62
     0
100
AcDbPoint
 10
79.3
 20
465.3
 30
0.0
  0
POINT
  5
4D
330
45
100
AcDbEntity
  8
DEFPOINTS
 62
     0
100
AcDbPoint
 10
334.3
 20
465.3
 30
0.0
  0
POINT
  5
4E
330
45
100
AcDbEntity
  8
DEFPOINTS
 62
     0
100
AcDbPoint
 10
334.3
 20
503.3
 30
0.0
  0
ENDBLK
  5
50
330
45
100
AcDbEntity
  8
0
 62
     3
100
AcDbBlockEnd
  0
BLOCK
  5
42
330
37
100
AcDbEntity
  8
0
 62
     3
100
AcDbBlockBegin
  2
*D8
 70
     1
 10
0.0
 20
0.0
 30
0.0
  3
*D8
  1

  0
LINE
  5
38
330
37
100
AcDbEntity
  8
画層1
 62
     0
100
AcDbLine
 10
206.8
 20
423.67
 30
0.0
 11
206.8
 21
410.05
 31
0.0
  0
LINE
  5
39
330
37
100
AcDbEntity
  8
画層1
 62
     0
100
AcDbLine
 10
276.8
 20
458.93
 30
0.0
 11
276.8
 21
410.05
 31
0.0
  0
LINE
  5
3A
330
37
100
AcDbEntity
  8
画層1
 62
     0
100
AcDbLine
 10
208.3
 20
411.3
 30
0.0
 11
275.3
 21
411.3
 31
0.0
  0
INSERT
  5
3B
330
37
100
AcDbEntity
  8
画層1
 62
     0
100
AcDbBlockReference
  2
_OPEN30
 10
206.8
 20
411.3
 30
0.0
 41
1.5
 42
1.5
 43
1.5
 50
180.0
  0
INSERT
  5
3C
330
37
100
AcDbEntity
  8
画層1
 62
     0
100
AcDbBlockReference
  2
_OPEN30
 10
276.8
 20
411.3
 30
0.0
 41
1.5
 42
1.5
 43
1.5
  0
MTEXT
  5
3D
330
37
100
AcDbEntity
  8
画層1
 62
     0
100
AcDbMText
 10
241.8
 20
413.18
 30
0.0
 40
2.5
 41
0.0
 71
     5
 72
     1
  1
\A1;70
  7
STYLE1
1001
ACAD
1000
MTEXTBEGIN
1070
    73
1070
     1
1070
    44
1040
1.0
1070
    74
1070
     0
1000
MTEXTEND
1000
MTEXTBEGIN
1070
    73
1070
     1
1070
    44
1040
1.0
1070
    74
1070
     0
1000
MTEXTEND
  0
POINT
  5
3E
330
37
100
AcDbEntity
  8
DEFPOINTS
 62
     0
100
AcDbPoint
 10
206.8
 20
424.3
 30
0.0
  0
POINT
  5
40
330
37
100
AcDbEntity
  8
DEFPOINTS
 62
     0
100
AcDbPoint
 10
276.8
 20
459.56
 30
0.0
  0
POINT
  5
41
330
37
100
AcDbEntity
  8
DEFPOINTS
 62
     0
100
AcDbPoint
 10
276.8
 20
411.3
 30
0.0
  0
ENDBLK
  5
43
330
37
100
AcDbEntity
  8
0
 62
     3
100
AcDbBlockEnd
  0
BLOCK
  5
27C
330
272
100
AcDbEntity
  8
0
 62
     3
100
AcDbBlockBegin
  2
*D9
 70
     1
 10
0.0
 20
0.0
 30
0.0
  3
*D9
  1

  0
LINE
  5
273
330
272
100
AcDbEntity
  8
画層1
 62
     0
100
AcDbLine
 10
136.8
 20
458.93
 30
0.0
 11
136.8
 21
410.05
 31
0.0
  0
LINE
  5
274
330
272
100
AcDbEntity
  8
画層1
 62
     0
100
AcDbLine
 10
206.8
 20
423.67
 30
0.0
 11
206.8
 21
410.05
 31
0.0
  0
LINE
  5
275
330
272
100
AcDbEntity
  8
画層1
 62
     0
100
AcDbLine
 10
138.3
 20
411.3
 30
0.0
 11
205.3
 21
411.3
 31
0.0
  0
INSERT
  5
276
330
272
100
AcDbEntity
  8
画層1
 62
     0
100
AcDbBlockReference
  2
_OPEN30
 10
136.8
 20
411.3
 30
0.0
 41
1.5
 42
1.5
 43
1.5
 50
180.0
  0
INSERT
  5
277
330
272
100
AcDbEntity
  8
画層1
 62
     0
100
AcDbBlockReference
  2
_OPEN30
 10
206.8
 20
411.3
 30
0.0
 41
1.5
 42
1.5
 43
1.5
  0
MTEXT
  5
278
330
272
100
AcDbEntity
  8
画層1
 62
     0
100
AcDbMText
 10
171.8
 20
413.18
 30
0.0
 40
2.5
 41
0.0
 71
     5
 72
     1
  1
\A1;70
  7
STYLE1
1001
ACAD
1000
MTEXTBEGIN
1070
    73
1070
     1
1070
    44
1040
1.0
1070
    74
1070
     0
1000
MTEXTEND
1000
MTEXTBEGIN
1070
    73
1070
     1
1070
    44
1040
1.0
1070
    74
1070
     0
1000
MTEXTEND
  0
POINT
  5
279
330
272
100
AcDbEntity
  8
DEFPOINTS
 62
     0
100
AcDbPoint
 10
136.8
 20
459.56
 30
0.0
  0
POINT
  5
27A
330
272
100
AcDbEntity
  8
DEFPOINTS
 62
     0
100
AcDbPoint
 10
206.8
 20
424.3
 30
0.0
  0
POINT
  5
27B
330
272
100
AcDbEntity
  8
DEFPOINTS
 62
     0
100
AcDbPoint
 10
206.8
 20
411.3
 30
0.0
  0
ENDBLK
  5
27D
330
272
100
AcDbEntity
  8
0
 62
     3
100
AcDbBlockEnd
  0
BLOCK
  5
5C
330
52
100
AcDbEntity
  8
0
 62
     3
100
AcDbBlockBegin
  2
*D10
 70
     1
 10
0.0
 20
0.0
 30
0.0
  3
*D10
  1

  0
LINE
  5
53
330
52
100
AcDbEntity
  8
画層1
 62
     0
100
AcDbLine
 10
131.8
 20
447.43
 30
0.0
 11
131.8
 21
478.55
 31
0.0
  0
LINE
  5
54
330
52
100
AcDbEntity
  8
画層1
 62
     0
100
AcDbLine
 10
281.8
 20
447.43
 30
0.0
 11
281.8
 21
478.55
 31
0.0
  0
LINE
  5
55
330
52
100
AcDbEntity
  8
画層1
 62
     0
100
AcDbLine
 10
133.3
 20
477.3
 30
0.0
 11
280.3
 21
477.3
 31
0.0
  0
INSERT
  5
56
330
52
100
AcDbEntity
  8
画層1
 62
     0
100
AcDbBlockReference
  2
_OPEN30
 10
131.8
 20
477.3
 30
0.0
 41
1.5
 42
1.5
 43
1.5
 50
180.0
  0
INSERT
  5
57
330
52
100
AcDbEntity
  8
画層1
 62
     0
100
AcDbBlockReference
  2
_OPEN30
 10
281.8
 20
477.3
 30
0.0
 41
1.5
 42
1.5
 43
1.5
  0
MTEXT
  5
58
330
52
100
AcDbEntity
  8
画層1
 62
     0
100
AcDbMText
 10
206.8
 20
479.18
 30
0.0
 40
2.5
 41
0.0
 71
     5
 72
     1
  1
\A1;150
  7
STYLE1
1001
ACAD
1000
MTEXTBEGIN
1070
    73
1070
     1
1070
    44
1040
1.0
1070
    74
1070
     0
1000
MTEXTEND
1000
MTEXTBEGIN
1070
    73
1070
     1
1070
    44
1040
1.0
1070
    74
1070
     0
1000
MTEXTEND
  0
POINT
  5
59
330
52
100
AcDbEntity
  8
DEFPOINTS
 62
     0
100
AcDbPoint
 10
131.8
 20
446.8
 30
0.0
  0
POINT
  5
5A
330
52
100
AcDbEntity
  8
DEFPOINTS
 62
     0
100
AcDbPoint
 10
281.8
 20
446.8
 30
0.0
  0
POINT
  5
5B
330
52
100
AcDbEntity
  8
DEFPOINTS
 62
     0
100
AcDbPoint
 10
281.8
 20
477.3
 30
0.0
  0
ENDBLK
  5
5D
330
52
100
AcDbEntity
  8
0
 62
     3
100
AcDbBlockEnd
  0
BLOCK
  5
31F
330
315
100
AcDbEntity
  8
0
 62
     3
100
AcDbBlockBegin
  2
*D11
 70
     1
 10
0.0
 20
0.0
 30
0.0
  3
*D11
  1

  0
LINE
  5
316
330
315
100
AcDbEntity
  8
画層1
 62
     0
100
AcDbLine
 10
669.8
 20
66.17
 30
0.0
 11
669.8
 21
52.05
 31
0.0
  0
LINE
  5
317
330
315
100
AcDbEntity
  8
画層1
 62
     0
100
AcDbLine
 10
514.8
 20
65.67
 30
0.0
 11
514.8
 21
52.05
 31
0.0
  0
LINE
  5
318
330
315
100
AcDbEntity
  8
画層1
 62
     0
100
AcDbLine
 10
668.3
 20
53.3
 30
0.0
 11
516.3
 21
53.3
 31
0.0
  0
INSERT
  5
319
330
315
100
AcDbEntity
  8
画層1
 62
     0
100
AcDbBlockReference
  2
_OPEN30
 10
669.8
 20
53.3
 30
0.0
 41
1.5
 42
1.5
 43
1.5
  0
INSERT
  5
31A
330
315
100
AcDbEntity
  8
画層1
 62
     0
100
AcDbBlockReference
  2
_OPEN30
 10
514.8
 20
53.3
 30
0.0
 41
1.5
 42
1.5
 43
1.5
 50
180.0
  0
MTEXT
  5
31B
330
315
100
AcDbEntity
  8
画層1
 62
     0
100
AcDbMText
 10
592.3
 20
55.18
 30
0.0
 40
2.5
 41
0.0
 71
     5
 72
     1
  1
\A1;155
  7
STYLE1
1001
ACAD
1000
MTEXTBEGIN
1070
    73
1070
     1
1070
    44
1040
1.0
1070
    74
1070
     0
1000
MTEXTEND
1000
MTEXTBEGIN
1070
    73
1070
     1
1070
    44
1040
1.0
1070
    74
1070
     0
1000
MTEXTEND
  0
POINT
  5
31C
330
315
100
AcDbEntity
  8
DEFPOINTS
 62
     0
100
AcDbPoint
 10
669.8
 20
66.8
 30
0.0
  0
POINT
  5
31D
330
315
100
AcDbEntity
  8
DEFPOINTS
 62
     0
100
AcDbPoint
 10
514.8
 20
66.3
 30
0.0
  0
POINT
  5
31E
330
315
100
AcDbEntity
  8
DEFPOINTS
 62
     0
100
AcDbPoint
 10
514.8
 20
53.3
 30
0.0
  0
ENDBLK
  5
320
330
315
100
AcDbEntity
  8
0
 62
     3
100
AcDbBlockEnd
  0
BLOCK
  5
3AE
330
3A4
100
AcDbEntity
  8
0
 62
     3
100
AcDbBlockBegin
  2
*D12
 70
     1
 10
0.0
 20
0.0
 30
0.0
  3
*D12
  1

  0
LINE
  5
3A5
330
3A4
100
AcDbEntity
  8
画層1
 62
     0
100
AcDbLine
 10
669.8
 20
464.43
 30
0.0
 11
669.8
 21
478.55
 31
0.0
  0
LINE
  5
3A6
330
3A4
100
AcDbEntity
  8
画層1
 62
     0
100
AcDbLine
 10
540.8
 20
464.93
 30
0.0
 11
540.8
 21
478.55
 31
0.0
  0
LINE
  5
3A7
330
3A4
100
AcDbEntity
  8
画層1
 62
     0
100
AcDbLine
 10
668.3
 20
477.3
 30
0.0
 11
542.3
 21
477.3
 31
0.0
  0
INSERT
  5
3A8
330
3A4
100
AcDbEntity
  8
画層1
 62
     0
100
AcDbBlockReference
  2
_OPEN30
 10
669.8
 20
477.3
 30
0.0
 41
1.5
 42
1.5
 43
1.5
  0
INSERT
  5
3A9
330
3A4
100
AcDbEntity
  8
画層1
 62
     0
100
AcDbBlockReference
  2
_OPEN30
 10
540.8
 20
477.3
 30
0.0
 41
1.5
 42
1.5
 43
1.5
 50
180.0
  0
MTEXT
  5
3AA
330
3A4
100
AcDbEntity
  8
画層1
 62
     0
100
AcDbMText
 10
605.3
 20
479.18
 30
0.0
 40
2.5
 41
0.0
 71
     5
 72
     1
  1
\A1;129
  7
STYLE1
1001
ACAD
1000
MTEXTBEGIN
1070
    73
1070
     1
1070
    44
1040
1.0
1070
    74
1070
     0
1000
MTEXTEND
1000
MTEXTBEGIN
1070
    73
1070
     1
1070
    44
1040
1.0
1070
    74
1070
     0
1000
MTEXTEND
  0
POINT
  5
3AB
330
3A4
100
AcDbEntity
  8
DEFPOINTS
 62
     0
100
AcDbPoint
 10
669.8
 20
463.8
 30
0.0
  0
POINT
  5
3AC
330
3A4
100
AcDbEntity
  8
DEFPOINTS
 62
     0
100
AcDbPoint
 10
540.8
 20
464.3
 30
0.0
  0
POINT
  5
3AD
330
3A4
100
AcDbEntity
  8
DEFPOINTS
 62
     0
100
AcDbPoint
 10
540.8
 20
477.3
 30
0.0
  0
ENDBLK
  5
3AF
330
3A4
100
AcDbEntity
  8
0
 62
     3
100
AcDbBlockEnd
  0
BLOCK
  5
33F
330
335
100
AcDbEntity
  8
0
 62
     3
100
AcDbBlockBegin
  2
*D13
 70
     1
 10
0.0
 20
0.0
 30
0.0
  3
*D13
  1

  0
LINE
  5
336
330
335
100
AcDbEntity
  8
画層1
 62
     0
100
AcDbLine
 10
669.8
 20
464.43
 30
0.0
 11
669.8
 21
504.55
 31
0.0
  0
LINE
  5
337
330
335
100
AcDbEntity
  8
画層1
 62
     0
100
AcDbLine
 10
432.8
 20
452.53
 30
0.0
 11
432.8
 21
504.55
 31
0.0
  0
LINE
  5
338
330
335
100
AcDbEntity
  8
画層1
 62
     0
100
AcDbLine
 10
668.3
 20
503.3
 30
0.0
 11
434.3
 21
503.3
 31
0.0
  0
INSERT
  5
339
330
335
100
AcDbEntity
  8
画層1
 62
     0
100
AcDbBlockReference
  2
_OPEN30
 10
669.8
 20
503.3
 30
0.0
 41
1.5
 42
1.5
 43
1.5
  0
INSERT
  5
33A
330
335
100
AcDbEntity
  8
画層1
 62
     0
100
AcDbBlockReference
  2
_OPEN30
 10
432.8
 20
503.3
 30
0.0
 41
1.5
 42
1.5
 43
1.5
 50
180.0
  0
MTEXT
  5
33B
330
335
100
AcDbEntity
  8
画層1
 62
     0
100
AcDbMText
 10
551.3
 20
505.18
 30
0.0
 40
2.5
 41
0.0
 71
     5
 72
     1
  1
\A1;237
  7
STYLE1
1001
ACAD
1000
MTEXTBEGIN
1070
    73
1070
     1
1070
    44
1040
1.0
1070
    74
1070
     0
1000
MTEXTEND
1000
MTEXTBEGIN
1070
    73
1070
     1
1070
    44
1040
1.0
1070
    74
1070
     0
1000
MTEXTEND
  0
POINT
  5
33C
330
335
100
AcDbEntity
  8
DEFPOINTS
 62
     0
100
AcDbPoint
 10
669.8
 20
463.8
 30
0.0
  0
POINT
  5
33D
330
335
100
AcDbEntity
  8
DEFPOINTS
 62
     0
100
AcDbPoint
 10
432.8
 20
451.9
 30
0.0
  0
POINT
  5
33E
330
335
100
AcDbEntity
  8
DEFPOINTS
 62
     0
100
AcDbPoint
 10
432.8
 20
503.3
 30
0.0
  0
ENDBLK
  5
340
330
335
100
AcDbEntity
  8
0
 62
     3
100
AcDbBlockEnd
  0
BLOCK
  5
332
330
328
100
AcDbEntity
  8
0
 62
     3
100
AcDbBlockBegin
  2
*D14
 70
     1
 10
0.0
 20
0.0
 30
0.0
  3
*D14
  1

  0
LINE
  5
329
330
328
100
AcDbEntity
  8
画層1
 62
     0
100
AcDbLine
 10
510.17
 20
490.3
 30
0.0
 11
495.55
 21
490.3
 31
0.0
  0
LINE
  5
32A
330
328
100
AcDbEntity
  8
画層1
 62
     0
100
AcDbLine
 10
452.93
 20
465.3
 30
0.0
 11
498.05
 21
465.3
 31
0.0
  0
LINE
  5
32B
330
328
100
AcDbEntity
  8
画層1
 62
     0
100
AcDbLine
 10
496.8
 20
488.8
 30
0.0
 11
496.8
 21
466.8
 31
0.0
  0
INSERT
  5
32C
330
328
100
AcDbEntity
  8
画層1
 62
     0
100
AcDbBlockReference
  2
_OPEN30
 10
496.8
 20
490.3
 30
0.0
 41
1.5
 42
1.5
 43
1.5
 50
90.0
  0
INSERT
  5
32D
330
328
100
AcDbEntity
  8
画層1
 62
     0
100
AcDbBlockReference
  2
_OPEN30
 10
496.8
 20
465.3
 30
0.0
 41
1.5
 42
1.5
 43
1.5
 50
270.0
  0
MTEXT
  5
32E
330
328
100
AcDbEntity
  8
画層1
 62
     0
100
AcDbMText
 10
494.92
 20
477.8
 30
0.0
 40
2.5
 41
0.0
 71
     5
 72
     1
  1
\A1;25
  7
STYLE1
 11
0.0
 21
1.0
 31
0.0
1001
ACAD
1000
MTEXTBEGIN
1070
    73
1070
     1
1070
    44
1040
1.0
1070
    74
1070
     0
1000
MTEXTEND
1000
MTEXTBEGIN
1070
    73
1070
     1
1070
    44
1040
1.0
1070
    74
1070
     0
1000
MTEXTEND
  0
POINT
  5
32F
330
328
100
AcDbEntity
  8
DEFPOINTS
 62
     0
100
AcDbPoint
 10
510.8
 20
490.3
 30
0.0
  0
POINT
  5
330
330
328
100
AcDbEntity
  8
DEFPOINTS
 62
     0
100
AcDbPoint
 10
452.3
 20
465.3
 30
0.0
  0
POINT
  5
331
330
328
100
AcDbEntity
  8
DEFPOINTS
 62
     0
100
AcDbPoint
 10
496.8
 20
465.3
 30
0.0
  0
ENDBLK
  5
333
330
328
100
AcDbEntity
  8
0
 62
     3
100
AcDbBlockEnd
  0
BLOCK
  5
3EF
330
3E5
100
AcDbEntity
  8
0
 62
     3
100
AcDbBlockBegin
  2
*D15
 70
     1
 10
0.0
 20
0.0
 30
0.0
  3
*D15
  1

  0
LINE
  5
4AD
330
3E5
100
AcDbEntity
  8
画層1
 62
     0
100
AcDbLine
 10
206.8
 20
423.67
 30
0.0
 11
206.8
 21
410.05
 31
0.0
  0
LINE
  5
4AE
330
3E5
100
AcDbEntity
  8
画層1
 62
     0
100
AcDbLine
 10
276.8
 20
458.93
 30
0.0
 11
276.8
 21
410.05
 31
0.0
  0
LINE
  5
4AF
330
3E5
100
AcDbEntity
  8
画層1
 62
     0
100
AcDbLine
 10
208.3
 20
411.3
 30
0.0
 11
275.3
 21
411.3
 31
0.0
  0
INSERT
  5
4B0
330
3E5
100
AcDbEntity
  8
画層1
 62
     0
100
AcDbBlockReference
  2
_OPEN30
 10
206.8
 20
411.3
 30
0.0
 41
1.5
 42
1.5
 43
1.5
 50
180.0
  0
INSERT
  5
4B1
330
3E5
100
AcDbEntity
  8
画層1
 62
     0
100
AcDbBlockReference
  2
_OPEN30
 10
276.8
 20
411.3
 30
0.0
 41
1.5
 42
1.5
 43
1.5
  0
MTEXT
  5
4B2
330
3E5
100
AcDbEntity
  8
画層1
 62
     0
100
AcDbMText
 10
241.8
 20
413.18
 30
0.0
 40
2.5
 41
0.0
 71
     5
 72
     1
  1
\A1;70
  7
STYLE1
  0
POINT
  5
4B3
330
3E5
100
AcDbEntity
  8
DEFPOINTS
 62
     0
100
AcDbPoint
 10
206.8
 20
424.3
 30
0.0
  0
POINT
  5
4B4
330
3E5
100
AcDbEntity
  8
DEFPOINTS
 62
     0
100
AcDbPoint
 10
276.8
 20
459.56
 30
0.0
  0
POINT
  5
4B5
330
3E5
100
AcDbEntity
  8
DEFPOINTS
 62
     0
100
AcDbPoint
 10
276.8
 20
411.3
 30
0.0
  0
ENDBLK
  5
3F0
330
3E5
100
AcDbEntity
  8
0
 62
     3
100
AcDbBlockEnd
  0
BLOCK
  5
402
330
3F8
100
AcDbEntity
  8
0
 62
     3
100
AcDbBlockBegin
  2
*D16
 70
     1
 10
0.0
 20
0.0
 30
0.0
  3
*D16
  1

  0
LINE
  5
3F9
330
3F8
100
AcDbEntity
  8
画層1
 62
     0
100
AcDbLine
 10
273.93
 20
455.3
 30
0.0
 11
350.05
 21
455.3
 31
0.0
  0
LINE
  5
3FA
330
3F8
100
AcDbEntity
  8
画層1
 62
     0
100
AcDbLine
 10
273.93
 20
75.3
 30
0.0
 11
350.05
 21
75.3
 31
0.0
  0
LINE
  5
3FB
330
3F8
100
AcDbEntity
  8
画層1
 62
     0
100
AcDbLine
 10
348.8
 20
453.8
 30
0.0
 11
348.8
 21
76.8
 31
0.0
  0
INSERT
  5
3FC
330
3F8
100
AcDbEntity
  8
画層1
 62
     0
100
AcDbBlockReference
  2
_OPEN30
 10
348.8
 20
455.3
 30
0.0
 41
1.5
 42
1.5
 43
1.5
 50
90.0
  0
INSERT
  5
3FD
330
3F8
100
AcDbEntity
  8
画層1
 62
     0
100
AcDbBlockReference
  2
_OPEN30
 10
348.8
 20
75.3
 30
0.0
 41
1.5
 42
1.5
 43
1.5
 50
270.0
  0
MTEXT
  5
3FE
330
3F8
100
AcDbEntity
  8
画層1
 62
     0
100
AcDbMText
 10
346.92
 20
265.3
 30
0.0
 40
2.5
 41
0.0
 71
     5
 72
     1
  1
\A1;380
  7
STYLE1
 11
0.0
 21
1.0
 31
0.0
1001
ACAD
1000
MTEXTBEGIN
1070
    73
1070
     1
1070
    44
1040
1.0
1070
    74
1070
     0
1000
MTEXTEND
  0
POINT
  5
3FF
330
3F8
100
AcDbEntity
  8
DEFPOINTS
 62
     0
100
AcDbPoint
 10
273.3
 20
455.3
 30
0.0
  0
POINT
  5
400
330
3F8
100
AcDbEntity
  8
DEFPOINTS
 62
     0
100
AcDbPoint
 10
273.3
 20
75.3
 30
0.0
  0
POINT
  5
401
330
3F8
100
AcDbEntity
  8
DEFPOINTS
 62
     0
100
AcDbPoint
 10
348.8
 20
75.3
 30
0.0
  0
ENDBLK
  5
403
330
3F8
100
AcDbEntity
  8
0
 62
     3
100
AcDbBlockEnd
  0
BLOCK
  5
40E
330
404
100
AcDbEntity
  8
0
 62
     3
100
AcDbBlockBegin
  2
*D17
 70
     1
 10
0.0
 20
0.0
 30
0.0
  3
*D17
  1

  0
LINE
  5
405
330
404
100
AcDbEntity
  8
画層1
 62
     0
100
AcDbLine
 10
334.93
 20
65.3
 30
0.0
 11
364.05
 21
65.3
 31
0.0
  0
LINE
  5
406
330
404
100
AcDbEntity
  8
画層1
 62
     0
100
AcDbLine
 10
334.93
 20
465.3
 30
0.0
 11
364.05
 21
465.3
 31
0.0
  0
LINE
  5
407
330
404
100
AcDbEntity
  8
画層1
 62
     0
100
AcDbLine
 10
362.8
 20
66.8
 30
0.0
 11
362.8
 21
463.8
 31
0.0
  0
INSERT
  5
408
330
404
100
AcDbEntity
  8
画層1
 62
     0
100
AcDbBlockReference
  2
_OPEN30
 10
362.8
 20
65.3
 30
0.0
 41
1.5
 42
1.5
 43
1.5
 50
270.0
  0
INSERT
  5
409
330
404
100
AcDbEntity
  8
画層1
 62
     0
100
AcDbBlockReference
  2
_OPEN30
 10
362.8
 20
465.3
 30
0.0
 41
1.5
 42
1.5
 43
1.5
 50
90.0
  0
MTEXT
  5
40A
330
404
100
AcDbEntity
  8
画層1
 62
     0
100
AcDbMText
 10
360.92
 20
265.3
 30
0.0
 40
2.5
 41
0.0
 71
     5
 72
     1
  1
\A1;400
  7
STYLE1
 11
0.0
 21
1.0
 31
0.0
1001
ACAD
1000
MTEXTBEGIN
1070
    73
1070
     1
1070
    44
1040
1.0
1070
    74
1070
     0
1000
MTEXTEND
  0
POINT
  5
40B
330
404
100
AcDbEntity
  8
DEFPOINTS
 62
     0
100
AcDbPoint
 10
334.3
 20
65.3
 30
0.0
  0
POINT
  5
40C
330
404
100
AcDbEntity
  8
DEFPOINTS
 62
     0
100
AcDbPoint
 10
334.3
 20
465.3
 30
0.0
  0
POINT
  5
40D
330
404
100
AcDbEntity
  8
DEFPOINTS
 62
     0
100
AcDbPoint
 10
362.8
 20
465.3
 30
0.0
  0
ENDBLK
  5
40F
330
404
100
AcDbEntity
  8
0
 62
     3
100
AcDbBlockEnd
  0
BLOCK
  5
41B
330
410
100
AcDbEntity
  8
0
 62
     3
100
AcDbBlockBegin
  2
*D18
 70
     1
 10
0.0
 20
0.0
 30
0.0
  3
*D18
  1

  0
LINE
  5
411
330
410
100
AcDbEntity
  8
画層1
 62
     0
100
AcDbLine
 10
277.3
 20
66.17
 30
0.0
 11
277.3
 21
26.05
 31
0.0
  0
LINE
  5
412
330
410
100
AcDbEntity
  8
画層1
 62
     0
100
AcDbLine
 10
286.3
 20
66.17
 30
0.0
 11
286.3
 21
26.05
 31
0.0
  0
LINE
  5
413
330
410
100
AcDbEntity
  8
画層1
 62
     0
100
AcDbLine
 10
278.8
 20
27.3
 30
0.0
 11
284.8
 21
27.3
 31
0.0
  0
LINE
  5
414
330
410
100
AcDbEntity
  8
画層1
 62
     0
100
AcDbLine
 10
286.3
 20
27.3
 30
0.0
 11
306.64
 21
27.3
 31
0.0
  0
INSERT
  5
415
330
410
100
AcDbEntity
  8
画層1
 62
     0
100
AcDbBlockReference
  2
_OPEN30
 10
277.3
 20
27.3
 30
0.0
 41
1.5
 42
1.5
 43
1.5
 50
180.0
  0
INSERT
  5
416
330
410
100
AcDbEntity
  8
画層1
 62
     0
100
AcDbBlockReference
  2
_OPEN30
 10
286.3
 20
27.3
 30
0.0
 41
1.5
 42
1.5
 43
1.5
  0
MTEXT
  5
417
330
410
100
AcDbEntity
  8
画層1
 62
     0
100
AcDbMText
 10
297.22
 20
29.34
 30
0.0
 40
2.5
 41
0.0
 71
     5
 72
     1
  1
\A1;2-9キリカキ
  7
STYLE1
1001
ACAD
1000
MTEXTBEGIN
1070
    73
1070
     1
1070
    44
1040
1.0
1070
    74
1070
     0
1000
MTEXTEND
  0
POINT
  5
418
330
410
100
AcDbEntity
  8
DEFPOINTS
 62
     0
100
AcDbPoint
 10
277.3
 20
66.8
 30
0.0
  0
POINT
  5
419
330
410
100
AcDbEntity
  8
DEFPOINTS
 62
     0
100
AcDbPoint
 10
286.3
 20
66.8
 30
0.0
  0
POINT
  5
41A
330
410
100
AcDbEntity
  8
DEFPOINTS
 62
     0
100
AcDbPoint
 10
286.3
 20
27.3
 30
0.0
  0
ENDBLK
  5
41C
330
410
100
AcDbEntity
  8
0
 62
     3
100
AcDbBlockEnd
  0
BLOCK
  5
428
330
41D
100
AcDbEntity
  8
0
 62
     3
100
AcDbBlockBegin
  2
*D19
 70
     1
 10
0.0
 20
0.0
 30
0.0
  3
*D19
  1

  0
LINE
  5
41E
330
41D
100
AcDbEntity
  8
画層1
 62
     0
100
AcDbLine
 10
131.17
 20
465.3
 30
0.0
 11
113.55
 21
465.3
 31
0.0
  0
LINE
  5
41F
330
41D
100
AcDbEntity
  8
画層1
 62
     0
100
AcDbLine
 10
143.43
 20
452.3
 30
0.0
 11
113.55
 21
452.3
 31
0.0
  0
LINE
  5
420
330
41D
100
AcDbEntity
  8
画層1
 62
     0
100
AcDbLine
 10
114.8
 20
453.8
 30
0.0
 11
114.8
 21
463.8
 31
0.0
  0
LINE
  5
421
330
41D
100
AcDbEntity
  8
画層1
 62
     0
100
AcDbLine
 10
114.8
 20
465.3
 30
0.0
 11
114.8
 21
474.6
 31
0.0
  0
INSERT
  5
422
330
41D
100
AcDbEntity
  8
画層1
 62
     0
100
AcDbBlockReference
  2
_OPEN30
 10
114.8
 20
452.3
 30
0.0
 41
1.5
 42
1.5
 43
1.5
 50
270.0
  0
INSERT
  5
423
330
41D
100
AcDbEntity
  8
画層1
 62
     0
100
AcDbBlockReference
  2
_OPEN30
 10
114.8
 20
465.3
 30
0.0
 41
1.5
 42
1.5
 43
1.5
 50
90.0
  0
MTEXT
  5
424
330
41D
100
AcDbEntity
  8
画層1
 62
     0
100
AcDbMText
 10
112.92
 20
472.6
 30
0.0
 40
2.5
 41
0.0
 71
     5
 72
     1
  1
\A1;13
  7
STYLE1
 11
0.0
 21
1.0
 31
0.0
1001
ACAD
1000
MTEXTBEGIN
1070
    73
1070
     1
1070
    44
1040
1.0
1070
    74
1070
     0
1000
MTEXTEND
  0
POINT
  5
425
330
41D
100
AcDbEntity
  8
DEFPOINTS
 62
     0
100
AcDbPoint
 10
131.8
 20
465.3
 30
0.0
  0
POINT
  5
426
330
41D
100
AcDbEntity
  8
DEFPOINTS
 62
     0
100
AcDbPoint
 10
144.06
 20
452.3
 30
0.0
  0
POINT
  5
427
330
41D
100
AcDbEntity
  8
DEFPOINTS
 62
     0
100
AcDbPoint
 10
114.8
 20
452.3
 30
0.0
  0
ENDBLK
  5
429
330
41D
100
AcDbEntity
  8
0
 62
     3
100
AcDbBlockEnd
  0
BLOCK
  5
434
330
42A
100
AcDbEntity
  8
0
 62
     3
100
AcDbBlockBegin
  2
*D20
 70
     1
 10
0.0
 20
0.0
 30
0.0
  3
*D20
  1

  0
LINE
  5
42B
330
42A
100
AcDbEntity
  8
画層1
 62
     0
100
AcDbLine
 10
79.3
 20
465.93
 30
0.0
 11
79.3
 21
504.55
 31
0.0
  0
LINE
  5
42C
330
42A
100
AcDbEntity
  8
画層1
 62
     0
100
AcDbLine
 10
334.3
 20
465.93
 30
0.0
 11
334.3
 21
504.55
 31
0.0
  0
LINE
  5
42D
330
42A
100
AcDbEntity
  8
画層1
 62
     0
100
AcDbLine
 10
80.8
 20
503.3
 30
0.0
 11
332.8
 21
503.3
 31
0.0
  0
INSERT
  5
42E
330
42A
100
AcDbEntity
  8
画層1
 62
     0
100
AcDbBlockReference
  2
_OPEN30
 10
79.3
 20
503.3
 30
0.0
 41
1.5
 42
1.5
 43
1.5
 50
180.0
  0
INSERT
  5
42F
330
42A
100
AcDbEntity
  8
画層1
 62
     0
100
AcDbBlockReference
  2
_OPEN30
 10
334.3
 20
503.3
 30
0.0
 41
1.5
 42
1.5
 43
1.5
  0
MTEXT
  5
430
330
42A
100
AcDbEntity
  8
画層1
 62
     0
100
AcDbMText
 10
206.8
 20
505.18
 30
0.0
 40
2.5
 41
0.0
 71
     5
 72
     1
  1
\A1;255
  7
STYLE1
1001
ACAD
1000
MTEXTBEGIN
1070
    73
1070
     1
1070
    44
1040
1.0
1070
    74
1070
     0
1000
MTEXTEND
  0
POINT
  5
431
330
42A
100
AcDbEntity
  8
DEFPOINTS
 62
     0
100
AcDbPoint
 10
79.3
 20
465.3
 30
0.0
  0
POINT
  5
432
330
42A
100
AcDbEntity
  8
DEFPOINTS
 62
     0
100
AcDbPoint
 10
334.3
 20
465.3
 30
0.0
  0
POINT
  5
433
330
42A
100
AcDbEntity
  8
DEFPOINTS
 62
     0
100
AcDbPoint
 10
334.3
 20
503.3
 30
0.0
  0
ENDBLK
  5
435
330
42A
100
AcDbEntity
  8
0
 62
     3
100
AcDbBlockEnd
  0
BLOCK
  5
440
330
436
100
AcDbEntity
  8
0
 62
     3
100
AcDbBlockBegin
  2
*D21
 70
     1
 10
0.0
 20
0.0
 30
0.0
  3
*D21
  1

  0
LINE
  5
437
330
436
100
AcDbEntity
  8
画層1
 62
     0
100
AcDbLine
 10
136.8
 20
458.93
 30
0.0
 11
136.8
 21
410.05
 31
0.0
  0
LINE
  5
438
330
436
100
AcDbEntity
  8
画層1
 62
     0
100
AcDbLine
 10
206.8
 20
423.67
 30
0.0
 11
206.8
 21
410.05
 31
0.0
  0
LINE
  5
439
330
436
100
AcDbEntity
  8
画層1
 62
     0
100
AcDbLine
 10
138.3
 20
411.3
 30
0.0
 11
205.3
 21
411.3
 31
0.0
  0
INSERT
  5
43A
330
436
100
AcDbEntity
  8
画層1
 62
     0
100
AcDbBlockReference
  2
_OPEN30
 10
136.8
 20
411.3
 30
0.0
 41
1.5
 42
1.5
 43
1.5
 50
180.0
  0
INSERT
  5
43B
330
436
100
AcDbEntity
  8
画層1
 62
     0
100
AcDbBlockReference
  2
_OPEN30
 10
206.8
 20
411.3
 30
0.0
 41
1.5
 42
1.5
 43
1.5
  0
MTEXT
  5
43C
330
436
100
AcDbEntity
  8
画層1
 62
     0
100
AcDbMText
 10
171.8
 20
413.18
 30
0.0
 40
2.5
 41
0.0
 71
     5
 72
     1
  1
\A1;70
  7
STYLE1
1001
ACAD
1000
MTEXTBEGIN
1070
    73
1070
     1
1070
    44
1040
1.0
1070
    74
1070
     0
1000
MTEXTEND
  0
POINT
  5
43D
330
436
100
AcDbEntity
  8
DEFPOINTS
 62
     0
100
AcDbPoint
 10
136.8
 20
459.56
 30
0.0
  0
POINT
  5
43E
330
436
100
AcDbEntity
  8
DEFPOINTS
 62
     0
100
AcDbPoint
 10
206.8
 20
424.3
 30
0.0
  0
POINT
  5
43F
330
436
100
AcDbEntity
  8
DEFPOINTS
 62
     0
100
AcDbPoint
 10
206.8
 20
411.3
 30
0.0
  0
ENDBLK
  5
441
330
436
100
AcDbEntity
  8
0
 62
     3
100
AcDbBlockEnd
  0
BLOCK
  5
455
330
44B
100
AcDbEntity
  8
0
 62
     3
100
AcDbBlockBegin
  2
*D22
 70
     1
 10
0.0
 20
0.0
 30
0.0
  3
*D22
  1

  0
LINE
  5
44C
330
44B
100
AcDbEntity
  8
画層1
 62
     0
100
AcDbLine
 10
131.8
 20
447.43
 30
0.0
 11
131.8
 21
478.55
 31
0.0
  0
LINE
  5
44D
330
44B
100
AcDbEntity
  8
画層1
 62
     0
100
AcDbLine
 10
281.8
 20
447.43
 30
0.0
 11
281.8
 21
478.55
 31
0.0
  0
LINE
  5
44E
330
44B
100
AcDbEntity
  8
画層1
 62
     0
100
AcDbLine
 10
133.3
 20
477.3
 30
0.0
 11
280.3
 21
477.3
 31
0.0
  0
INSERT
  5
44F
330
44B
100
AcDbEntity
  8
画層1
 62
     0
100
AcDbBlockReference
  2
_OPEN30
 10
131.8
 20
477.3
 30
0.0
 41
1.5
 42
1.5
 43
1.5
 50
180.0
  0
INSERT
  5
450
330
44B
100
AcDbEntity
  8
画層1
 62
     0
100
AcDbBlockReference
  2
_OPEN30
 10
281.8
 20
477.3
 30
0.0
 41
1.5
 42
1.5
 43
1.5
  0
MTEXT
  5
451
330
44B
100
AcDbEntity
  8
画層1
 62
     0
100
AcDbMText
 10
206.8
 20
479.18
 30
0.0
 40
2.5
 41
0.0
 71
     5
 72
     1
  1
\A1;150
  7
STYLE1
1001
ACAD
1000
MTEXTBEGIN
1070
    73
1070
     1
1070
    44
1040
1.0
1070
    74
1070
     0
1000
MTEXTEND
  0
POINT
  5
452
330
44B
100
AcDbEntity
  8
DEFPOINTS
 62
     0
100
AcDbPoint
 10
131.8
 20
446.8
 30
0.0
  0
POINT
  5
453
330
44B
100
AcDbEntity
  8
DEFPOINTS
 62
     0
100
AcDbPoint
 10
281.8
 20
446.8
 30
0.0
  0
POINT
  5
454
330
44B
100
AcDbEntity
  8
DEFPOINTS
 62
     0
100
AcDbPoint
 10
281.8
 20
477.3
 30
0.0
  0
ENDBLK
  5
456
330
44B
100
AcDbEntity
  8
0
 62
     3
100
AcDbBlockEnd
  0
BLOCK
  5
461
330
457
100
AcDbEntity
  8
0
 62
     3
100
AcDbBlockBegin
  2
*D23
 70
     1
 10
0.0
 20
0.0
 30
0.0
  3
*D23
  1

  0
LINE
  5
458
330
457
100
AcDbEntity
  8
画層1
 62
     0
100
AcDbLine
 10
669.8
 20
66.17
 30
0.0
 11
669.8
 21
52.05
 31
0.0
  0
LINE
  5
459
330
457
100
AcDbEntity
  8
画層1
 62
     0
100
AcDbLine
 10
514.8
 20
65.67
 30
0.0
 11
514.8
 21
52.05
 31
0.0
  0
LINE
  5
45A
330
457
100
AcDbEntity
  8
画層1
 62
     0
100
AcDbLine
 10
668.3
 20
53.3
 30
0.0
 11
516.3
 21
53.3
 31
0.0
  0
INSERT
  5
45B
330
457
100
AcDbEntity
  8
画層1
 62
     0
100
AcDbBlockReference
  2
_OPEN30
 10
669.8
 20
53.3
 30
0.0
 41
1.5
 42
1.5
 43
1.5
  0
INSERT
  5
45C
330
457
100
AcDbEntity
  8
画層1
 62
     0
100
AcDbBlockReference
  2
_OPEN30
 10
514.8
 20
53.3
 30
0.0
 41
1.5
 42
1.5
 43
1.5
 50
180.0
  0
MTEXT
  5
45D
330
457
100
AcDbEntity
  8
画層1
 62
     0
100
AcDbMText
 10
592.3
 20
55.18
 30
0.0
 40
2.5
 41
0.0
 71
     5
 72
     1
  1
\A1;155
  7
STYLE1
1001
ACAD
1000
MTEXTBEGIN
1070
    73
1070
     1
1070
    44
1040
1.0
1070
    74
1070
     0
1000
MTEXTEND
  0
POINT
  5
45E
330
457
100
AcDbEntity
  8
DEFPOINTS
 62
     0
100
AcDbPoint
 10
669.8
 20
66.8
 30
0.0
  0
POINT
  5
45F
330
457
100
AcDbEntity
  8
DEFPOINTS
 62
     0
100
AcDbPoint
 10
514.8
 20
66.3
 30
0.0
  0
POINT
  5
460
330
457
100
AcDbEntity
  8
DEFPOINTS
 62
     0
100
AcDbPoint
 10
514.8
 20
53.3
 30
0.0
  0
ENDBLK
  5
462
330
457
100
AcDbEntity
  8
0
 62
     3
100
AcDbBlockEnd
  0
BLOCK
  5
46D
330
463
100
AcDbEntity
  8
0
 62
     3
100
AcDbBlockBegin
  2
*D24
 70
     1
 10
0.0
 20
0.0
 30
0.0
  3
*D24
  1

  0
LINE
  5
464
330
463
100
AcDbEntity
  8
画層1
 62
     0
100
AcDbLine
 10
669.8
 20
464.43
 30
0.0
 11
669.8
 21
478.55
 31
0.0
  0
LINE
  5
465
330
463
100
AcDbEntity
  8
画層1
 62
     0
100
AcDbLine
 10
540.8
 20
464.93
 30
0.0
 11
540.8
 21
478.55
 31
0.0
  0
LINE
  5
466
330
463
100
AcDbEntity
  8
画層1
 62
     0
100
AcDbLine
 10
668.3
 20
477.3
 30
0.0
 11
542.3
 21
477.3
 31
0.0
  0
INSERT
  5
467
330
463
100
AcDbEntity
  8
画層1
 62
     0
100
AcDbBlockReference
  2
_OPEN30
 10
669.8
 20
477.3
 30
0.0
 41
1.5
 42
1.5
 43
1.5
  0
INSERT
  5
468
330
463
100
AcDbEntity
  8
画層1
 62
     0
100
AcDbBlockReference
  2
_OPEN30
 10
540.8
 20
477.3
 30
0.0
 41
1.5
 42
1.5
 43
1.5
 50
180.0
  0
MTEXT
  5
469
330
463
100
AcDbEntity
  8
画層1
 62
     0
100
AcDbMText
 10
605.3
 20
479.18
 30
0.0
 40
2.5
 41
0.0
 71
     5
 72
     1
  1
\A1;129
  7
STYLE1
1001
ACAD
1000
MTEXTBEGIN
1070
    73
1070
     1
1070
    44
1040
1.0
1070
    74
1070
     0
1000
MTEXTEND
  0
POINT
  5
46A
330
463
100
AcDbEntity
  8
DEFPOINTS
 62
     0
100
AcDbPoint
 10
669.8
 20
463.8
 30
0.0
  0
POINT
  5
46B
330
463
100
AcDbEntity
  8
DEFPOINTS
 62
     0
100
AcDbPoint
 10
540.8
 20
464.3
 30
0.0
  0
POINT
  5
46C
330
463
100
AcDbEntity
  8
DEFPOINTS
 62
     0
100
AcDbPoint
 10
540.8
 20
477.3
 30
0.0
  0
ENDBLK
  5
46E
330
463
100
AcDbEntity
  8
0
 62
     3
100
AcDbBlockEnd
  0
BLOCK
  5
479
330
46F
100
AcDbEntity
  8
0
 62
     3
100
AcDbBlockBegin
  2
*D25
 70
     1
 10
0.0
 20
0.0
 30
0.0
  3
*D25
  1

  0
LINE
  5
470
330
46F
100
AcDbEntity
  8
画層1
 62
     0
100
AcDbLine
 10
669.8
 20
464.43
 30
0.0
 11
669.8
 21
504.55
 31
0.0
  0
LINE
  5
471
330
46F
100
AcDbEntity
  8
画層1
 62
     0
100
AcDbLine
 10
432.8
 20
452.53
 30
0.0
 11
432.8
 21
504.55
 31
0.0
  0
LINE
  5
472
330
46F
100
AcDbEntity
  8
画層1
 62
     0
100
AcDbLine
 10
668.3
 20
503.3
 30
0.0
 11
434.3
 21
503.3
 31
0.0
  0
INSERT
  5
473
330
46F
100
AcDbEntity
  8
画層1
 62
     0
100
AcDbBlockReference
  2
_OPEN30
 10
669.8
 20
503.3
 30
0.0
 41
1.5
 42
1.5
 43
1.5
  0
INSERT
  5
474
330
46F
100
AcDbEntity
  8
画層1
 62
     0
100
AcDbBlockReference
  2
_OPEN30
 10
432.8
 20
503.3
 30
0.0
 41
1.5
 42
1.5
 43
1.5
 50
180.0
  0
MTEXT
  5
475
330
46F
100
AcDbEntity
  8
画層1
 62
     0
100
AcDbMText
 10
551.3
 20
505.18
 30
0.0
 40
2.5
 41
0.0
 71
     5
 72
     1
  1
\A1;237
  7
STYLE1
1001
ACAD
1000
MTEXTBEGIN
1070
    73
1070
     1
1070
    44
1040
1.0
1070
    74
1070
     0
1000
MTEXTEND
  0
POINT
  5
476
330
46F
100
AcDbEntity
  8
DEFPOINTS
 62
     0
100
AcDbPoint
 10
669.8
 20
463.8
 30
0.0
  0
POINT
  5
477
330
46F
100
AcDbEntity
  8
DEFPOINTS
 62
     0
100
AcDbPoint
 10
432.8
 20
451.9
 30
0.0
  0
POINT
  5
478
330
46F
100
AcDbEntity
  8
DEFPOINTS
 62
     0
100
AcDbPoint
 10
432.8
 20
503.3
 30
0.0
  0
ENDBLK
  5
47A
330
46F
100
AcDbEntity
  8
0
 62
     3
100
AcDbBlockEnd
  0
BLOCK
  5
485
330
47B
100
AcDbEntity
  8
0
 62
     3
100
AcDbBlockBegin
  2
*D26
 70
     1
 10
0.0
 20
0.0
 30
0.0
  3
*D26
  1

  0
LINE
  5
47C
330
47B
100
AcDbEntity
  8
画層1
 62
     0
100
AcDbLine
 10
510.17
 20
490.3
 30
0.0
 11
495.55
 21
490.3
 31
0.0
  0
LINE
  5
47D
330
47B
100
AcDbEntity
  8
画層1
 62
     0
100
AcDbLine
 10
452.93
 20
465.3
 30
0.0
 11
498.05
 21
465.3
 31
0.0
  0
LINE
  5
47E
330
47B
100
AcDbEntity
  8
画層1
 62
     0
100
AcDbLine
 10
496.8
 20
488.8
 30
0.0
 11
496.8
 21
466.8
 31
0.0
  0
INSERT
  5
47F
330
47B
100
AcDbEntity
  8
画層1
 62
     0
100
AcDbBlockReference
  2
_OPEN30
 10
496.8
 20
490.3
 30
0.0
 41
1.5
 42
1.5
 43
1.5
 50
90.0
  0
INSERT
  5
480
330
47B
100
AcDbEntity
  8
画層1
 62
     0
100
AcDbBlockReference
  2
_OPEN30
 10
496.8
 20
465.3
 30
0.0
 41
1.5
 42
1.5
 43
1.5
 50
270.0
  0
MTEXT
  5
481
330
47B
100
AcDbEntity
  8
画層1
 62
     0
100
AcDbMText
 10
494.92
 20
477.8
 30
0.0
 40
2.5
 41
0.0
 71
     5
 72
     1
  1
\A1;25
  7
STYLE1
 11
0.0
 21
1.0
 31
0.0
1001
ACAD
1000
MTEXTBEGIN
1070
    73
1070
     1
1070
    44
1040
1.0
1070
    74
1070
     0
1000
MTEXTEND
  0
POINT
  5
482
330
47B
100
AcDbEntity
  8
DEFPOINTS
 62
     0
100
AcDbPoint
 10
510.8
 20
490.3
 30
0.0
  0
POINT
  5
483
330
47B
100
AcDbEntity
  8
DEFPOINTS
 62
     0
100
AcDbPoint
 10
452.3
 20
465.3
 30
0.0
  0
POINT
  5
484
330
47B
100
AcDbEntity
  8
DEFPOINTS
 62
     0
100
AcDbPoint
 10
496.8
 20
465.3
 30
0.0
  0
ENDBLK
  5
486
330
47B
100
AcDbEntity
  8
0
 62
     3
100
AcDbBlockEnd
  0
ENDSEC
  0
SECTION
  2
ENTITIES
  0
DIMENSION
  5
36
330
2
100
AcDbEntity
  8
画層1
 62
     0
100
AcDbDimension
  2
*D15
 10
276.8
 20
411.3
 30
0.0
 11
241.8
 21
413.18
 31
0.0
 70
    32
  3
STANDARD_WS
100
AcDbAlignedDimension
 13
206.8
 23
424.3
 33
0.0
 14
276.8
 24
459.56
 34
0.0
100
AcDbRotatedDimension
1001
ACAD
1000
DSTYLE
1002
{
1070
   287
1070
     4
1070
   287
1070
     4
1070
   287
1070
     4
1070
   279
1070
     1
1070
    47
1040
0.6
1070
   144
1040
1.0
1070
   146
1040
0.5
1070
   173
1070
     0
1070
   284
1070
     8
1070
   340
1005
27
1070
   341
1005
28
1070
     5
1000
OPEN30
1070
     6
1000
OPEN30
1002
}
  0
DIMENSION
  5
44
330
2
100
AcDbEntity
  8
画層1
 62
     0
100
AcDbDimension
  2
*D20
 10
334.3
 20
503.3
 30
0.0
 11
206.8
 21
505.18
 31
0.0
 70
    32
  3
STANDARD_WS
100
AcDbAlignedDimension
 13
79.3
 23
465.3
 33
0.0
 14
334.3
 24
465.3
 34
0.0
100
AcDbRotatedDimension
1001
ACAD
1000
DSTYLE
1002
{
1070
    47
1040
0.6
1070
   144
1040
1.0
1070
   146
1040
0.5
1070
   173
1070
     0
1070
   284
1070
     8
1070
   340
1005
27
1070
   341
1005
28
1070
     5
1000
OPEN30
1070
     6
1000
OPEN30
1002
}
  0
DIMENSION
  5
51
330
2
100
AcDbEntity
  8
画層1
 62
     0
100
AcDbDimension
  2
*D22
 10
281.8
 20
477.3
 30
0.0
 11
206.8
 21
479.18
 31
0.0
 70
    32
  3
STANDARD_WS
100
AcDbAlignedDimension
 13
131.8
 23
446.8
 33
0.0
 14
281.8
 24
446.8
 34
0.0
100
AcDbRotatedDimension
1001
ACAD
1000
DSTYLE
1002
{
1070
    47
1040
0.6
1070
   144
1040
1.0
1070
   146
1040
0.5
1070
   173
1070
     0
1070
   284
1070
     8
1070
   340
1005
27
1070
   341
1005
28
1070
     5
1000
OPEN30
1070
     6
1000
OPEN30
1002
}
  0
CIRCLE
  5
5E
330
2
100
AcDbEntity
  8
画層1
  6
DASHED2
 62
     0
100
AcDbCircle
 10
206.8
 20
452.3
 30
0.0
 40
3.25
  0
LINE
  5
60
330
2
100
AcDbEntity
  8
画層1
 62
     0
100
AcDbLine
 10
201.8
 20
452.3
 30
0.0
 11
211.8
 21
452.3
 31
0.0
  0
LINE
  5
61
330
2
100
AcDbEntity
  8
画層1
  6
DASHED2
 62
     0
100
AcDbLine
 10
196.8
 20
464.3
 30
0.0
 11
216.8
 21
464.3
 31
0.0
  0
LINE
  5
62
330
2
100
AcDbEntity
  8
画層1
  6
CENTER
 62
     0
100
AcDbLine
 10
75.3
 20
265.3
 30
0.0
 11
338.3
 21
265.3
 31
0.0
  0
LINE
  5
64
330
2
100
AcDbEntity
  8
画層1
  6
DIVIDE
 62
     0
100
AcDbLine
 10
306.8
 20
424.3
 30
0.0
 11
106.8
 21
424.3
 31
0.0
  0
LINE
  5
66
330
2
100
AcDbEntity
  8
画層1
  6
DIVIDE
 62
     0
100
AcDbLine
 10
106.8
 20
490.3
 30
0.0
 11
306.8
 21
490.3
 31
0.0
  0
LINE
  5
67
330
2
100
AcDbEntity
  8
画層1
  6
DASHED2
 62
     0
100
AcDbLine
 10
79.3
 20
463.8
 30
0.0
 11
334.3
 21
463.8
 31
0.0
  0
LINE
  5
68
330
2
100
AcDbEntity
  8
画層1
 62
     0
100
AcDbLine
 10
79.3
 20
465.3
 30
0.0
 11
334.3
 21
465.3
 31
0.0
  0
CIRCLE
  5
69
330
2
100
AcDbEntity
  8
画層1
  6
DASHED2
 62
     0
100
AcDbCircle
 10
206.8
 20
78.3
 30
0.0
 40
3.25
  0
LINE
  5
6A
330
2
100
AcDbEntity
  8
画層1
 62
     0
100
AcDbLine
 10
201.8
 20
78.3
 30
0.0
 11
211.8
 21
78.3
 31
0.0
  0
LINE
  5
6B
330
2
100
AcDbEntity
  8
画層1
  6
DASHED2
 62
     0
100
AcDbLine
 10
196.8
 20
66.3
 30
0.0
 11
216.8
 21
66.3
 31
0.0
  0
LINE
  5
6C
330
2
100
AcDbEntity
  8
画層1
  6
DIVIDE
 62
     0
100
AcDbLine
 10
306.8
 20
106.3
 30
0.0
 11
106.8
 21
106.3
 31
0.0
  0
LINE
  5
6D
330
2
100
AcDbEntity
  8
画層1
  6
DIVIDE
 62
     0
100
AcDbLine
 10
106.8
 20
40.3
 30
0.0
 11
306.8
 21
40.3
 31
0.0
  0
LINE
  5
6E
330
2
100
AcDbEntity
  8
画層1
  6
DASHED2
 62
     0
100
AcDbLine
 10
79.3
 20
66.8
 30
0.0
 11
334.3
 21
66.8
 31
0.0
  0
LINE
  5
6F
330
2
100
AcDbEntity
  8
画層1
 62
     0
100
AcDbLine
 10
334.3
 20
65.3
 30
0.0
 11
79.3
 21
65.3
 31
0.0
  0
LINE
  5
70
330
2
100
AcDbEntity
  8
画層1
 62
     0
100
AcDbLine
 10
94.8
 20
87.8
 30
0.0
 11
94.8
 21
154.3
 31
0.0
  0
LINE
  5
71
330
2
100
AcDbEntity
  8
画層1
 62
     0
100
AcDbLine
 10
79.3
 20
65.3
 30
0.0
 11
79.3
 21
153.3
 31
0.0
  0
LINE
  5
72
330
2
100
AcDbEntity
  8
画層1
  6
CENTER
 62
     0
100
AcDbLine
 10
206.8
 20
494.3
 30
0.0
 11
206.8
 21
36.3
 31
0.0
  0
LINE
  5
73
330
2
100
AcDbEntity
  8
画層1
 62
     0
100
AcDbLine
 10
129.8
 20
92.3
 30
0.0
 11
129.8
 21
280.3
 31
0.0
  0
LINE
  5
74
330
2
100
AcDbEntity
  8
画層1
 62
     0
100
AcDbLine
 10
194.8
 20
280.3
 30
0.0
 11
194.8
 21
92.3
 31
0.0
  0
LINE
  5
75
330
2
100
AcDbEntity
  8
画層1
 62
     0
100
AcDbLine
 10
199.8
 20
295.8
 30
0.0
 11
199.8
 21
87.8
 31
0.0
  0
LINE
  5
76
330
2
100
AcDbEntity
  8
画層1
  6
DIVIDE
 62
     0
100
AcDbLine
 10
101.8
 20
101.3
 30
0.0
 11
101.8
 21
45.3
 31
0.0
  0
ARC
  5
77
330
2
100
AcDbEntity
  8
画層1
  6
DIVIDE
 62
     0
100
AcDbCircle
 10
106.8
 20
45.3
 30
0.0
 40
5.0
100
AcDbArc
 50
180.0
 51
270.0
  0
LINE
  5
78
330
2
100
AcDbEntity
  8
画層1
 62
     0
100
AcDbLine
 10
191.8
 20
89.3
 30
0.0
 11
132.8
 21
89.3
 31
0.0
  0
LINE
  5
79
330
2
100
AcDbEntity
  8
画層1
  6
DASHED2
 62
     0
100
AcDbLine
 10
126.8
 20
66.3
 30
0.0
 11
146.8
 21
66.3
 31
0.0
  0
LINE
  5
7A
330
2
100
AcDbEntity
  8
画層1
 62
     0
100
AcDbLine
 10
196.3
 20
84.3
 30
0.0
 11
98.3
 21
84.3
 31
0.0
  0
LINE
  5
7B
330
2
100
AcDbEntity
  8
画層1
  6
DASHED2
 62
     0
100
AcDbLine
 10
126.8
 20
106.3
 30
0.0
 11
126.8
 21
66.3
 31
0.0
  0
ARC
  5
7C
330
2
100
AcDbEntity
  8
画層1
  6
DIVIDE
 62
     0
100
AcDbCircle
 10
106.8
 20
101.3
 30
0.0
 40
5.0
100
AcDbArc
 50
90.0
 51
180.0
  0
ARC
  5
7D
330
2
100
AcDbEntity
  8
画層1
 62
     0
100
AcDbCircle
 10
84.3
 20
78.8
 30
0.0
 40
1.0
100
AcDbArc
 50
0.0
 51
90.0
  0
ARC
  5
7E
330
2
100
AcDbEntity
  8
画層1
 62
     0
100
AcDbCircle
 10
87.3
 20
78.8
 30
0.0
 40
1.0
100
AcDbArc
 50
90.0
 51
180.0
  0
CIRCLE
  5
7F
330
2
100
AcDbEntity
  8
画層1
 62
     0
100
AcDbCircle
 10
85.8
 20
80.3
 30
0.0
 40
3.0
  0
CIRCLE
  5
80
330
2
100
AcDbEntity
  8
画層1
 62
     0
100
AcDbCircle
 10
85.8
 20
80.3
 30
0.0
 40
4.0
  0
LINE
  5
81
330
2
100
AcDbEntity
  8
画層1
 62
     0
100
AcDbLine
 10
86.3
 20
78.8
 30
0.0
 11
86.3
 21
78.5
 31
0.0
  0
LINE
  5
82
330
2
100
AcDbEntity
  8
画層1
 62
     0
100
AcDbLine
 10
85.3
 20
78.5
 30
0.0
 11
85.3
 21
78.8
 31
0.0
  0
LINE
  5
83
330
2
100
AcDbEntity
  8
画層1
 62
     0
100
AcDbLine
 10
85.3
 20
78.5
 30
0.0
 11
86.3
 21
78.5
 31
0.0
  0
ARC
  5
84
330
2
100
AcDbEntity
  8
画層1
 62
     0
100
AcDbCircle
 10
98.3
 20
87.8
 30
0.0
 40
3.5
100
AcDbArc
 50
180.0
 51
270.0
  0
ARC
  5
85
330
2
100
AcDbEntity
  8
画層1
 62
     0
100
AcDbCircle
 10
87.3
 20
81.8
 30
0.0
 40
1.0
100
AcDbArc
 50
180.0
 51
270.0
  0
LINE
  5
86
330
2
100
AcDbEntity
  8
画層1
 62
     0
100
AcDbLine
 10
85.3
 20
82.1
 30
0.0
 11
86.3
 21
82.1
 31
0.0
  0
LINE
  5
87
330
2
100
AcDbEntity
  8
画層1
 62
     0
100
AcDbLine
 10
85.3
 20
81.8
 30
0.0
 11
85.3
 21
82.1
 31
0.0
  0
ARC
  5
88
330
2
100
AcDbEntity
  8
画層1
 62
     0
100
AcDbCircle
 10
84.3
 20
81.8
 30
0.0
 40
1.0
100
AcDbArc
 50
270.0
 51
0.0
  0
LINE
  5
89
330
2
100
AcDbEntity
  8
画層1
 62
     0
100
AcDbLine
 10
84.0
 20
79.8
 30
0.0
 11
84.0
 21
80.8
 31
0.0
  0
LINE
  5
8A
330
2
100
AcDbEntity
  8
画層1
 62
     0
100
AcDbLine
 10
84.3
 20
79.8
 30
0.0
 11
84.0
 21
79.8
 31
0.0
  0
LINE
  5
8B
330
2
100
AcDbEntity
  8
画層1
 62
     0
100
AcDbLine
 10
84.0
 20
80.8
 30
0.0
 11
84.3
 21
80.8
 31
0.0
  0
LINE
  5
8C
330
2
100
AcDbEntity
  8
画層1
 62
     0
100
AcDbLine
 10
86.3
 20
82.1
 30
0.0
 11
86.3
 21
81.8
 31
0.0
  0
LINE
  5
8D
330
2
100
AcDbEntity
  8
画層1
 62
     0
100
AcDbLine
 10
87.6
 20
79.8
 30
0.0
 11
87.6
 21
80.8
 31
0.0
  0
LINE
  5
8E
330
2
100
AcDbEntity
  8
画層1
 62
     0
100
AcDbLine
 10
87.3
 20
80.8
 30
0.0
 11
87.6
 21
80.8
 31
0.0
  0
LINE
  5
8F
330
2
100
AcDbEntity
  8
画層1
 62
     0
100
AcDbLine
 10
87.6
 20
79.8
 30
0.0
 11
87.3
 21
79.8
 31
0.0
  0
LINE
  5
90
330
2
100
AcDbEntity
  8
画層1
 62
     0
100
AcDbLine
 10
136.8
 20
83.3
 30
0.0
 11
136.8
 21
73.06
 31
0.0
  0
ARC
  5
91
330
2
100
AcDbEntity
  8
画層1
  6
DASHED2
 62
     0
100
AcDbCircle
 10
131.8
 20
75.3
 30
0.0
 40
4.5
100
AcDbArc
 50
0.0
 51
180.0
  0
CIRCLE
  5
92
330
2
100
AcDbEntity
  8
画層1
  6
DASHED2
 62
     0
100
AcDbCircle
 10
136.8
 20
78.3
 30
0.0
 40
3.25
  0
LINE
  5
93
330
2
100
AcDbEntity
  8
画層1
 62
     0
100
AcDbLine
 10
131.8
 20
82.3
 30
0.0
 11
131.8
 21
62.8
 31
0.0
  0
LINE
  5
94
330
2
100
AcDbEntity
  8
画層1
 62
     0
100
AcDbLine
 10
124.8
 20
75.3
 30
0.0
 11
138.8
 21
75.3
 31
0.0
  0
LINE
  5
95
330
2
100
AcDbEntity
  8
画層1
  6
DASHED2
 62
     0
100
AcDbLine
 10
127.3
 20
75.3
 30
0.0
 11
127.3
 21
66.8
 31
0.0
  0
LINE
  5
96
330
2
100
AcDbEntity
  8
画層1
  6
DASHED2
 62
     0
100
AcDbLine
 10
136.3
 20
75.3
 30
0.0
 11
136.3
 21
66.8
 31
0.0
  0
LINE
  5
97
330
2
100
AcDbEntity
  8
画層1
 62
     0
100
AcDbLine
 10
131.8
 20
78.3
 30
0.0
 11
141.8
 21
78.3
 31
0.0
  0
ARC
  5
98
330
2
100
AcDbEntity
  8
画層1
 62
     0
100
AcDbCircle
 10
132.8
 20
92.3
 30
0.0
 40
3.0
100
AcDbArc
 50
180.0
 51
270.0
  0
LINE
  5
99
330
2
100
AcDbEntity
  8
画層1
  6
DASHED2
 62
     0
100
AcDbLine
 10
146.8
 20
66.3
 30
0.0
 11
146.8
 21
106.3
 31
0.0
  0
LINE
  5
9A
330
2
100
AcDbEntity
  8
画層1
  6
DASHED2
 62
     0
100
AcDbLine
 10
196.8
 20
106.3
 30
0.0
 11
196.8
 21
66.3
 31
0.0
  0
MTEXT
  5
9B
330
2
100
AcDbEntity
  8
画層1
 62
     0
100
AcDbMText
 10
150.16
 20
80.62
 30
0.0
 40
5.0
 41
7.0
 71
     1
 72
     5
  1
Ｕ
  7
STYLE1
1001
ACAD
1000
MTEXTBEGIN
1070
    73
1070
     1
1070
    44
1040
1.0
1070
    74
1070
     0
1000
MTEXTEND
1000
MTEXTBEGIN
1070
    73
1070
     1
1070
    44
1040
1.0
1070
    74
1070
     0
1000
MTEXTEND
1000
MTEXTBEGIN
1070
    73
1070
     1
1070
    44
1040
1.0
1070
    74
1070
     0
1000
MTEXTEND
  0
ARC
  5
9C
330
2
100
AcDbEntity
  8
画層1
 62
     0
100
AcDbCircle
 10
191.8
 20
92.3
 30
0.0
 40
3.0
100
AcDbArc
 50
270.0
 51
0.0
  0
ARC
  5
9D
330
2
100
AcDbEntity
  8
画層1
 62
     0
100
AcDbCircle
 10
196.3
 20
87.8
 30
0.0
 40
3.5
100
AcDbArc
 50
270.0
 51
0.0
  0
LINE
  5
9E
330
2
100
AcDbEntity
  8
画層1
 62
     0
100
AcDbLine
 10
79.3
 20
262.3
 30
0.0
 11
79.3
 21
465.3
 31
0.0
  0
CIRCLE
  5
9F
330
2
100
AcDbEntity
  8
画層1
 62
     0
100
AcDbCircle
 10
111.8
 20
243.36
 30
0.0
 40
3.0
  0
LINE
  5
A0
330
2
100
AcDbEntity
  8
画層1
 62
     0
100
AcDbLine
 10
108.3
 20
239.86
 30
0.0
 11
108.3
 21
246.86
 31
0.0
  0
LINE
  5
A1
330
2
100
AcDbEntity
  8
画層1
 62
     0
100
AcDbLine
 10
115.3
 20
246.86
 30
0.0
 11
115.3
 21
239.86
 31
0.0
  0
LINE
  5
A2
330
2
100
AcDbEntity
  8
画層1
 62
     0
100
AcDbLine
 10
91.7
 20
260.3
 30
0.0
 11
91.7
 21
155.3
 31
0.0
  0
LINE
  5
A3
330
2
100
AcDbEntity
  8
画層1
 62
     0
100
AcDbLine
 10
93.3
 20
260.3
 30
0.0
 11
93.3
 21
155.3
 31
0.0
  0
LINE
  5
A4
330
2
100
AcDbEntity
  8
画層1
 62
     0
100
AcDbLine
 10
97.0
 20
260.3
 30
0.0
 11
97.0
 21
155.3
 31
0.0
  0
LINE
  5
A5
330
2
100
AcDbEntity
  8
画層1
 62
     0
100
AcDbLine
 10
106.4
 20
260.3
 30
0.0
 11
106.4
 21
155.3
 31
0.0
  0
LINE
  5
A6
330
2
100
AcDbEntity
  8
画層1
 62
     0
100
AcDbLine
 10
116.8
 20
154.3
 30
0.0
 11
116.8
 21
261.3
 31
0.0
  0
LINE
  5
A7
330
2
100
AcDbEntity
  8
画層1
 62
     0
100
AcDbLine
 10
115.8
 20
155.3
 30
0.0
 11
115.8
 21
260.3
 31
0.0
  0
LINE
  5
A8
330
2
100
AcDbEntity
  8
画層1
 62
     0
100
AcDbLine
 10
115.3
 20
199.86
 30
0.0
 11
115.3
 21
192.86
 31
0.0
  0
LINE
  5
A9
330
2
100
AcDbEntity
  8
画層1
 62
     0
100
AcDbLine
 10
108.3
 20
192.86
 30
0.0
 11
108.3
 21
199.86
 31
0.0
  0
ARC
  5
AA
330
2
100
AcDbEntity
  8
画層1
 62
     0
100
AcDbCircle
 10
110.3
 20
194.86
 30
0.0
 40
1.0
100
AcDbArc
 50
0.0
 51
90.0
  0
CIRCLE
  5
AB
330
2
100
AcDbEntity
  8
画層1
 62
     0
100
AcDbCircle
 10
111.8
 20
196.36
 30
0.0
 40
3.0
  0
ARC
  5
AC
330
2
100
AcDbEntity
  8
画層1
 62
     0
100
AcDbCircle
 10
113.3
 20
194.86
 30
0.0
 40
1.0
100
AcDbArc
 50
90.0
 51
180.0
  0
LINE
  5
AD
330
2
100
AcDbEntity
  8
画層1
 62
     0
100
AcDbLine
 10
111.3
 20
188.76
 30
0.0
 11
112.3
 21
188.76
 31
0.0
  0
LINE
  5
AE
330
2
100
AcDbEntity
  8
画層1
 62
     0
100
AcDbLine
 10
108.3
 20
190.46
 30
0.0
 11
115.3
 21
190.46
 31
0.0
  0
LINE
  5
AF
330
2
100
AcDbEntity
  8
画層1
 62
     0
100
AcDbLine
 10
115.3
 20
192.86
 30
0.0
 11
108.3
 21
192.86
 31
0.0
  0
LINE
  5
B0
330
2
100
AcDbEntity
  8
画層1
 62
     0
100
AcDbLine
 10
106.4
 20
190.96
 30
0.0
 11
115.8
 21
190.96
 31
0.0
  0
LINE
  5
B1
330
2
100
AcDbEntity
  8
画層1
 62
     0
100
AcDbLine
 10
106.4
 20
192.36
 30
0.0
 11
115.8
 21
192.36
 31
0.0
  0
LINE
  5
B2
330
2
100
AcDbEntity
  8
画層1
 62
     0
100
AcDbLine
 10
111.3
 20
194.56
 30
0.0
 11
112.3
 21
194.56
 31
0.0
  0
LINE
  5
B3
330
2
100
AcDbEntity
  8
画層1
 62
     0
100
AcDbLine
 10
111.3
 20
185.16
 30
0.0
 11
112.3
 21
185.16
 31
0.0
  0
LINE
  5
B4
330
2
100
AcDbEntity
  8
画層1
 62
     0
100
AcDbLine
 10
115.3
 20
183.46
 30
0.0
 11
108.3
 21
183.46
 31
0.0
  0
LINE
  5
B5
330
2
100
AcDbEntity
  8
画層1
 62
     0
100
AcDbLine
 10
111.3
 20
179.36
 30
0.0
 11
112.3
 21
179.36
 31
0.0
  0
LINE
  5
B6
330
2
100
AcDbEntity
  8
画層1
 62
     0
100
AcDbLine
 10
108.3
 20
181.06
 30
0.0
 11
115.3
 21
181.06
 31
0.0
  0
LINE
  5
B7
330
2
100
AcDbEntity
  8
画層1
 62
     0
100
AcDbLine
 10
106.4
 20
181.56
 30
0.0
 11
115.8
 21
181.56
 31
0.0
  0
LINE
  5
B8
330
2
100
AcDbEntity
  8
画層1
 62
     0
100
AcDbLine
 10
106.4
 20
182.96
 30
0.0
 11
115.8
 21
182.96
 31
0.0
  0
LINE
  5
B9
330
2
100
AcDbEntity
  8
画層1
 62
     0
100
AcDbLine
 10
111.3
 20
175.76
 30
0.0
 11
112.3
 21
175.76
 31
0.0
  0
LINE
  5
BA
330
2
100
AcDbEntity
  8
画層1
 62
     0
100
AcDbLine
 10
115.3
 20
174.06
 30
0.0
 11
108.3
 21
174.06
 31
0.0
  0
LINE
  5
BB
330
2
100
AcDbEntity
  8
画層1
 62
     0
100
AcDbLine
 10
106.4
 20
172.16
 30
0.0
 11
115.8
 21
172.16
 31
0.0
  0
LINE
  5
BC
330
2
100
AcDbEntity
  8
画層1
 62
     0
100
AcDbLine
 10
106.4
 20
173.56
 30
0.0
 11
115.8
 21
173.56
 31
0.0
  0
LINE
  5
BD
330
2
100
AcDbEntity
  8
画層1
 62
     0
100
AcDbLine
 10
111.3
 20
169.96
 30
0.0
 11
112.3
 21
169.96
 31
0.0
  0
LINE
  5
BE
330
2
100
AcDbEntity
  8
画層1
 62
     0
100
AcDbLine
 10
111.3
 20
166.36
 30
0.0
 11
112.3
 21
166.36
 31
0.0
  0
LINE
  5
BF
330
2
100
AcDbEntity
  8
画層1
 62
     0
100
AcDbLine
 10
108.3
 20
171.66
 30
0.0
 11
115.3
 21
171.66
 31
0.0
  0
CIRCLE
  5
C0
330
2
100
AcDbEntity
  8
画層1
 62
     0
100
AcDbCircle
 10
111.8
 20
177.56
 30
0.0
 40
3.0
  0
CIRCLE
  5
C1
330
2
100
AcDbEntity
  8
画層1
 62
     0
100
AcDbCircle
 10
111.8
 20
186.96
 30
0.0
 40
3.0
  0
LINE
  5
C2
330
2
100
AcDbEntity
  8
画層1
 62
     0
100
AcDbLine
 10
115.3
 20
164.66
 30
0.0
 11
108.3
 21
164.66
 31
0.0
  0
LINE
  5
C3
330
2
100
AcDbEntity
  8
画層1
 62
     0
100
AcDbLine
 10
106.4
 20
164.16
 30
0.0
 11
115.8
 21
164.16
 31
0.0
  0
LINE
  5
C4
330
2
100
AcDbEntity
  8
画層1
 62
     0
100
AcDbLine
 10
94.8
 20
154.3
 30
0.0
 11
116.8
 21
154.3
 31
0.0
  0
LINE
  5
C5
330
2
100
AcDbEntity
  8
画層1
 62
     0
100
AcDbLine
 10
81.3
 20
155.3
 30
0.0
 11
115.8
 21
155.3
 31
0.0
  0
CIRCLE
  5
C6
330
2
100
AcDbEntity
  8
画層1
 62
     0
100
AcDbCircle
 10
111.8
 20
168.16
 30
0.0
 40
3.0
  0
LINE
  5
C7
330
2
100
AcDbEntity
  8
画層1
 62
     0
100
AcDbLine
 10
105.9
 20
175.26
 30
0.0
 11
105.9
 21
168.26
 31
0.0
  0
LINE
  5
C8
330
2
100
AcDbEntity
  8
画層1
 62
     0
100
AcDbLine
 10
98.9
 20
168.26
 30
0.0
 11
98.9
 21
175.26
 31
0.0
  0
CIRCLE
  5
C9
330
2
100
AcDbEntity
  8
画層1
 62
     0
100
AcDbCircle
 10
102.4
 20
171.76
 30
0.0
 40
3.0
  0
ARC
  5
CA
330
2
100
AcDbEntity
  8
画層1
 62
     0
100
AcDbCircle
 10
81.3
 20
153.3
 30
0.0
 40
2.0
100
AcDbArc
 50
90.0
 51
180.0
  0
CIRCLE
  5
CB
330
2
100
AcDbEntity
  8
画層1
 62
     0
100
AcDbCircle
 10
102.4
 20
162.36
 30
0.0
 40
3.0
  0
LINE
  5
CC
330
2
100
AcDbEntity
  8
画層1
 62
     0
100
AcDbLine
 10
105.9
 20
165.86
 30
0.0
 11
105.9
 21
158.86
 31
0.0
  0
LINE
  5
CD
330
2
100
AcDbEntity
  8
画層1
 62
     0
100
AcDbLine
 10
98.9
 20
158.86
 30
0.0
 11
98.9
 21
165.86
 31
0.0
  0
LINE
  5
CE
330
2
100
AcDbEntity
  8
画層1
 62
     0
100
AcDbLine
 10
105.9
 20
158.86
 30
0.0
 11
98.9
 21
158.86
 31
0.0
  0
LINE
  5
CF
330
2
100
AcDbEntity
  8
画層1
 62
     0
100
AcDbLine
 10
97.0
 20
158.36
 30
0.0
 11
106.4
 21
158.36
 31
0.0
  0
ARC
  5
D0
330
2
100
AcDbEntity
  8
画層1
 62
     0
100
AcDbCircle
 10
103.9
 20
170.26
 30
0.0
 40
1.0
100
AcDbArc
 50
90.0
 51
180.0
  0
LINE
  5
D1
330
2
100
AcDbEntity
  8
画層1
 62
     0
100
AcDbLine
 10
105.9
 20
168.26
 30
0.0
 11
98.9
 21
168.26
 31
0.0
  0
LINE
  5
D2
330
2
100
AcDbEntity
  8
画層1
 62
     0
100
AcDbLine
 10
98.9
 20
165.86
 30
0.0
 11
105.9
 21
165.86
 31
0.0
  0
LINE
  5
D3
330
2
100
AcDbEntity
  8
画層1
 62
     0
100
AcDbLine
 10
97.0
 20
167.76
 30
0.0
 11
106.4
 21
167.76
 31
0.0
  0
LINE
  5
D4
330
2
100
AcDbEntity
  8
画層1
 62
     0
100
AcDbLine
 10
97.0
 20
166.36
 30
0.0
 11
106.4
 21
166.36
 31
0.0
  0
ARC
  5
D5
330
2
100
AcDbEntity
  8
画層1
 62
     0
100
AcDbCircle
 10
103.9
 20
163.86
 30
0.0
 40
1.0
100
AcDbArc
 50
180.0
 51
270.0
  0
ARC
  5
D6
330
2
100
AcDbEntity
  8
画層1
 62
     0
100
AcDbCircle
 10
103.9
 20
160.86
 30
0.0
 40
1.0
100
AcDbArc
 50
90.0
 51
180.0
  0
ARC
  5
D7
330
2
100
AcDbEntity
  8
画層1
 62
     0
100
AcDbCircle
 10
100.9
 20
163.86
 30
0.0
 40
1.0
100
AcDbArc
 50
270.0
 51
0.0
  0
ARC
  5
D8
330
2
100
AcDbEntity
  8
画層1
 62
     0
100
AcDbCircle
 10
100.9
 20
160.86
 30
0.0
 40
1.0
100
AcDbArc
 50
0.0
 51
90.0
  0
LINE
  5
D9
330
2
100
AcDbEntity
  8
画層1
 62
     0
100
AcDbLine
 10
100.9
 20
161.86
 30
0.0
 11
99.44
 21
161.86
 31
0.0
  0
LINE
  5
DA
330
2
100
AcDbEntity
  8
画層1
 62
     0
100
AcDbLine
 10
99.44
 20
162.86
 30
0.0
 11
100.9
 21
162.86
 31
0.0
  0
LINE
  5
DB
330
2
100
AcDbEntity
  8
画層1
 62
     0
100
AcDbLine
 10
102.9
 20
164.16
 30
0.0
 11
102.9
 21
163.86
 31
0.0
  0
LINE
  5
DC
330
2
100
AcDbEntity
  8
画層1
 62
     0
100
AcDbLine
 10
101.9
 20
163.86
 30
0.0
 11
101.9
 21
164.16
 31
0.0
  0
LINE
  5
DD
330
2
100
AcDbEntity
  8
画層1
 62
     0
100
AcDbLine
 10
101.9
 20
164.16
 30
0.0
 11
102.9
 21
164.16
 31
0.0
  0
LINE
  5
DE
330
2
100
AcDbEntity
  8
画層1
 62
     0
100
AcDbLine
 10
101.9
 20
160.56
 30
0.0
 11
101.9
 21
160.86
 31
0.0
  0
LINE
  5
DF
330
2
100
AcDbEntity
  8
画層1
 62
     0
100
AcDbLine
 10
102.9
 20
160.86
 30
0.0
 11
102.9
 21
160.56
 31
0.0
  0
LINE
  5
E0
330
2
100
AcDbEntity
  8
画層1
 62
     0
100
AcDbLine
 10
101.9
 20
160.56
 30
0.0
 11
102.9
 21
160.56
 31
0.0
  0
ARC
  5
E1
330
2
100
AcDbEntity
  8
画層1
 62
     0
100
AcDbCircle
 10
100.9
 20
170.26
 30
0.0
 40
1.0
100
AcDbArc
 50
0.0
 51
90.0
  0
LINE
  5
E2
330
2
100
AcDbEntity
  8
画層1
 62
     0
100
AcDbLine
 10
101.9
 20
169.96
 30
0.0
 11
101.9
 21
170.26
 31
0.0
  0
LINE
  5
E3
330
2
100
AcDbEntity
  8
画層1
 62
     0
100
AcDbLine
 10
102.9
 20
170.26
 30
0.0
 11
102.9
 21
169.96
 31
0.0
  0
LINE
  5
E4
330
2
100
AcDbEntity
  8
画層1
 62
     0
100
AcDbLine
 10
101.9
 20
169.96
 30
0.0
 11
102.9
 21
169.96
 31
0.0
  0
LINE
  5
E5
330
2
100
AcDbEntity
  8
画層1
 62
     0
100
AcDbLine
 10
100.9
 20
171.26
 30
0.0
 11
99.44
 21
171.26
 31
0.0
  0
LINE
  5
E6
330
2
100
AcDbEntity
  8
画層1
 62
     0
100
AcDbLine
 10
108.3
 20
164.66
 30
0.0
 11
108.3
 21
171.66
 31
0.0
  0
LINE
  5
E7
330
2
100
AcDbEntity
  8
画層1
 62
     0
100
AcDbLine
 10
105.36
 20
161.86
 30
0.0
 11
103.9
 21
161.86
 31
0.0
  0
LINE
  5
E8
330
2
100
AcDbEntity
  8
画層1
 62
     0
100
AcDbLine
 10
103.9
 20
162.86
 30
0.0
 11
105.36
 21
162.86
 31
0.0
  0
LINE
  5
E9
330
2
100
AcDbEntity
  8
画層1
 62
     0
100
AcDbLine
 10
105.36
 20
171.26
 30
0.0
 11
103.9
 21
171.26
 31
0.0
  0
LINE
  5
EA
330
2
100
AcDbEntity
  8
画層1
 62
     0
100
AcDbLine
 10
108.84
 20
168.66
 30
0.0
 11
110.3
 21
168.66
 31
0.0
  0
LINE
  5
EB
330
2
100
AcDbEntity
  8
画層1
 62
     0
100
AcDbLine
 10
110.3
 20
167.66
 30
0.0
 11
108.84
 21
167.66
 31
0.0
  0
LINE
  5
EC
330
2
100
AcDbEntity
  8
画層1
 62
     0
100
AcDbLine
 10
111.3
 20
169.66
 30
0.0
 11
111.3
 21
169.96
 31
0.0
  0
LINE
  5
ED
330
2
100
AcDbEntity
  8
画層1
 62
     0
100
AcDbLine
 10
111.3
 20
166.36
 30
0.0
 11
111.3
 21
166.66
 31
0.0
  0
ARC
  5
EE
330
2
100
AcDbEntity
  8
画層1
 62
     0
100
AcDbCircle
 10
110.3
 20
169.66
 30
0.0
 40
1.0
100
AcDbArc
 50
270.0
 51
0.0
  0
ARC
  5
EF
330
2
100
AcDbEntity
  8
画層1
 62
     0
100
AcDbCircle
 10
110.3
 20
166.66
 30
0.0
 40
1.0
100
AcDbArc
 50
0.0
 51
90.0
  0
LINE
  5
F0
330
2
100
AcDbEntity
  8
画層1
 62
     0
100
AcDbLine
 10
105.9
 20
184.66
 30
0.0
 11
105.9
 21
177.66
 31
0.0
  0
LINE
  5
F1
330
2
100
AcDbEntity
  8
画層1
 62
     0
100
AcDbLine
 10
98.9
 20
177.66
 30
0.0
 11
98.9
 21
184.66
 31
0.0
  0
CIRCLE
  5
F2
330
2
100
AcDbEntity
  8
画層1
 62
     0
100
AcDbCircle
 10
102.4
 20
181.16
 30
0.0
 40
3.0
  0
ARC
  5
F3
330
2
100
AcDbEntity
  8
画層1
 62
     0
100
AcDbCircle
 10
103.9
 20
182.66
 30
0.0
 40
1.0
100
AcDbArc
 50
180.0
 51
270.0
  0
LINE
  5
F4
330
2
100
AcDbEntity
  8
画層1
 62
     0
100
AcDbLine
 10
105.9
 20
177.66
 30
0.0
 11
98.9
 21
177.66
 31
0.0
  0
LINE
  5
F5
330
2
100
AcDbEntity
  8
画層1
 62
     0
100
AcDbLine
 10
98.9
 20
175.26
 30
0.0
 11
105.9
 21
175.26
 31
0.0
  0
ARC
  5
F6
330
2
100
AcDbEntity
  8
画層1
 62
     0
100
AcDbCircle
 10
103.9
 20
179.66
 30
0.0
 40
1.0
100
AcDbArc
 50
90.0
 51
180.0
  0
ARC
  5
F7
330
2
100
AcDbEntity
  8
画層1
 62
     0
100
AcDbCircle
 10
103.9
 20
173.26
 30
0.0
 40
1.0
100
AcDbArc
 50
180.0
 51
270.0
  0
LINE
  5
F8
330
2
100
AcDbEntity
  8
画層1
 62
     0
100
AcDbLine
 10
97.0
 20
177.16
 30
0.0
 11
106.4
 21
177.16
 31
0.0
  0
LINE
  5
F9
330
2
100
AcDbEntity
  8
画層1
 62
     0
100
AcDbLine
 10
97.0
 20
175.76
 30
0.0
 11
106.4
 21
175.76
 31
0.0
  0
LINE
  5
FA
330
2
100
AcDbEntity
  8
画層1
 62
     0
100
AcDbLine
 10
99.44
 20
172.26
 30
0.0
 11
100.9
 21
172.26
 31
0.0
  0
LINE
  5
FB
330
2
100
AcDbEntity
  8
画層1
 62
     0
100
AcDbLine
 10
102.9
 20
173.56
 30
0.0
 11
102.9
 21
173.26
 31
0.0
  0
LINE
  5
FC
330
2
100
AcDbEntity
  8
画層1
 62
     0
100
AcDbLine
 10
101.9
 20
173.26
 30
0.0
 11
101.9
 21
173.56
 31
0.0
  0
LINE
  5
FD
330
2
100
AcDbEntity
  8
画層1
 62
     0
100
AcDbLine
 10
101.9
 20
173.56
 30
0.0
 11
102.9
 21
173.56
 31
0.0
  0
ARC
  5
FE
330
2
100
AcDbEntity
  8
画層1
 62
     0
100
AcDbCircle
 10
100.9
 20
173.26
 30
0.0
 40
1.0
100
AcDbArc
 50
270.0
 51
0.0
  0
ARC
  5
FF
330
2
100
AcDbEntity
  8
画層1
 62
     0
100
AcDbCircle
 10
100.9
 20
182.66
 30
0.0
 40
1.0
100
AcDbArc
 50
270.0
 51
0.0
  0
ARC
  5
100
330
2
100
AcDbEntity
  8
画層1
 62
     0
100
AcDbCircle
 10
100.9
 20
179.66
 30
0.0
 40
1.0
100
AcDbArc
 50
0.0
 51
90.0
  0
LINE
  5
101
330
2
100
AcDbEntity
  8
画層1
 62
     0
100
AcDbLine
 10
100.9
 20
180.66
 30
0.0
 11
99.44
 21
180.66
 31
0.0
  0
LINE
  5
102
330
2
100
AcDbEntity
  8
画層1
 62
     0
100
AcDbLine
 10
99.44
 20
181.66
 30
0.0
 11
100.9
 21
181.66
 31
0.0
  0
LINE
  5
103
330
2
100
AcDbEntity
  8
画層1
 62
     0
100
AcDbLine
 10
101.9
 20
179.36
 30
0.0
 11
101.9
 21
179.66
 31
0.0
  0
LINE
  5
104
330
2
100
AcDbEntity
  8
画層1
 62
     0
100
AcDbLine
 10
102.9
 20
179.66
 30
0.0
 11
102.9
 21
179.36
 31
0.0
  0
LINE
  5
105
330
2
100
AcDbEntity
  8
画層1
 62
     0
100
AcDbLine
 10
101.9
 20
179.36
 30
0.0
 11
102.9
 21
179.36
 31
0.0
  0
LINE
  5
106
330
2
100
AcDbEntity
  8
画層1
 62
     0
100
AcDbLine
 10
102.9
 20
182.96
 30
0.0
 11
102.9
 21
182.66
 31
0.0
  0
LINE
  5
107
330
2
100
AcDbEntity
  8
画層1
 62
     0
100
AcDbLine
 10
101.9
 20
182.66
 30
0.0
 11
101.9
 21
182.96
 31
0.0
  0
LINE
  5
108
330
2
100
AcDbEntity
  8
画層1
 62
     0
100
AcDbLine
 10
101.9
 20
182.96
 30
0.0
 11
102.9
 21
182.96
 31
0.0
  0
LINE
  5
109
330
2
100
AcDbEntity
  8
画層1
 62
     0
100
AcDbLine
 10
108.3
 20
174.06
 30
0.0
 11
108.3
 21
181.06
 31
0.0
  0
LINE
  5
10A
330
2
100
AcDbEntity
  8
画層1
 62
     0
100
AcDbLine
 10
103.9
 20
172.26
 30
0.0
 11
105.36
 21
172.26
 31
0.0
  0
LINE
  5
10B
330
2
100
AcDbEntity
  8
画層1
 62
     0
100
AcDbLine
 10
110.3
 20
177.06
 30
0.0
 11
108.84
 21
177.06
 31
0.0
  0
LINE
  5
10C
330
2
100
AcDbEntity
  8
画層1
 62
     0
100
AcDbLine
 10
111.3
 20
175.76
 30
0.0
 11
111.3
 21
176.06
 31
0.0
  0
ARC
  5
10D
330
2
100
AcDbEntity
  8
画層1
 62
     0
100
AcDbCircle
 10
110.3
 20
176.06
 30
0.0
 40
1.0
100
AcDbArc
 50
0.0
 51
90.0
  0
LINE
  5
10E
330
2
100
AcDbEntity
  8
画層1
 62
     0
100
AcDbLine
 10
105.36
 20
180.66
 30
0.0
 11
103.9
 21
180.66
 31
0.0
  0
LINE
  5
10F
330
2
100
AcDbEntity
  8
画層1
 62
     0
100
AcDbLine
 10
103.9
 20
181.66
 30
0.0
 11
105.36
 21
181.66
 31
0.0
  0
LINE
  5
110
330
2
100
AcDbEntity
  8
画層1
 62
     0
100
AcDbLine
 10
108.84
 20
178.06
 30
0.0
 11
110.3
 21
178.06
 31
0.0
  0
LINE
  5
111
330
2
100
AcDbEntity
  8
画層1
 62
     0
100
AcDbLine
 10
111.3
 20
179.06
 30
0.0
 11
111.3
 21
179.36
 31
0.0
  0
ARC
  5
112
330
2
100
AcDbEntity
  8
画層1
 62
     0
100
AcDbCircle
 10
110.3
 20
179.06
 30
0.0
 40
1.0
100
AcDbArc
 50
270.0
 51
0.0
  0
ARC
  5
113
330
2
100
AcDbEntity
  8
画層1
 62
     0
100
AcDbCircle
 10
103.9
 20
189.06
 30
0.0
 40
1.0
100
AcDbArc
 50
90.0
 51
180.0
  0
ARC
  5
114
330
2
100
AcDbEntity
  8
画層1
 62
     0
100
AcDbCircle
 10
103.9
 20
192.06
 30
0.0
 40
1.0
100
AcDbArc
 50
180.0
 51
270.0
  0
LINE
  5
115
330
2
100
AcDbEntity
  8
画層1
 62
     0
100
AcDbLine
 10
98.9
 20
194.06
 30
0.0
 11
105.9
 21
194.06
 31
0.0
  0
LINE
  5
116
330
2
100
AcDbEntity
  8
画層1
 62
     0
100
AcDbLine
 10
97.0
 20
194.56
 30
0.0
 11
106.4
 21
194.56
 31
0.0
  0
LINE
  5
117
330
2
100
AcDbEntity
  8
画層1
 62
     0
100
AcDbLine
 10
105.9
 20
187.06
 30
0.0
 11
98.9
 21
187.06
 31
0.0
  0
LINE
  5
118
330
2
100
AcDbEntity
  8
画層1
 62
     0
100
AcDbLine
 10
98.9
 20
184.66
 30
0.0
 11
105.9
 21
184.66
 31
0.0
  0
LINE
  5
119
330
2
100
AcDbEntity
  8
画層1
 62
     0
100
AcDbLine
 10
97.0
 20
186.56
 30
0.0
 11
106.4
 21
186.56
 31
0.0
  0
LINE
  5
11A
330
2
100
AcDbEntity
  8
画層1
 62
     0
100
AcDbLine
 10
97.0
 20
185.16
 30
0.0
 11
106.4
 21
185.16
 31
0.0
  0
CIRCLE
  5
11B
330
2
100
AcDbEntity
  8
画層1
 62
     0
100
AcDbCircle
 10
102.4
 20
190.56
 30
0.0
 40
3.0
  0
ARC
  5
11C
330
2
100
AcDbEntity
  8
画層1
 62
     0
100
AcDbCircle
 10
100.9
 20
189.06
 30
0.0
 40
1.0
100
AcDbArc
 50
0.0
 51
90.0
  0
LINE
  5
11D
330
2
100
AcDbEntity
  8
画層1
 62
     0
100
AcDbLine
 10
98.9
 20
187.06
 30
0.0
 11
98.9
 21
194.06
 31
0.0
  0
LINE
  5
11E
330
2
100
AcDbEntity
  8
画層1
 62
     0
100
AcDbLine
 10
101.9
 20
188.76
 30
0.0
 11
101.9
 21
189.06
 31
0.0
  0
LINE
  5
11F
330
2
100
AcDbEntity
  8
画層1
 62
     0
100
AcDbLine
 10
102.9
 20
189.06
 30
0.0
 11
102.9
 21
188.76
 31
0.0
  0
LINE
  5
120
330
2
100
AcDbEntity
  8
画層1
 62
     0
100
AcDbLine
 10
101.9
 20
188.76
 30
0.0
 11
102.9
 21
188.76
 31
0.0
  0
ARC
  5
121
330
2
100
AcDbEntity
  8
画層1
 62
     0
100
AcDbCircle
 10
100.9
 20
192.06
 30
0.0
 40
1.0
100
AcDbArc
 50
270.0
 51
0.0
  0
LINE
  5
122
330
2
100
AcDbEntity
  8
画層1
 62
     0
100
AcDbLine
 10
100.9
 20
190.06
 30
0.0
 11
99.44
 21
190.06
 31
0.0
  0
LINE
  5
123
330
2
100
AcDbEntity
  8
画層1
 62
     0
100
AcDbLine
 10
99.44
 20
191.06
 30
0.0
 11
100.9
 21
191.06
 31
0.0
  0
LINE
  5
124
330
2
100
AcDbEntity
  8
画層1
 62
     0
100
AcDbLine
 10
102.9
 20
192.36
 30
0.0
 11
102.9
 21
192.06
 31
0.0
  0
LINE
  5
125
330
2
100
AcDbEntity
  8
画層1
 62
     0
100
AcDbLine
 10
101.9
 20
192.06
 30
0.0
 11
101.9
 21
192.36
 31
0.0
  0
LINE
  5
126
330
2
100
AcDbEntity
  8
画層1
 62
     0
100
AcDbLine
 10
101.9
 20
192.36
 30
0.0
 11
102.9
 21
192.36
 31
0.0
  0
LINE
  5
127
330
2
100
AcDbEntity
  8
画層1
 62
     0
100
AcDbLine
 10
105.9
 20
194.06
 30
0.0
 11
105.9
 21
187.06
 31
0.0
  0
LINE
  5
128
330
2
100
AcDbEntity
  8
画層1
 62
     0
100
AcDbLine
 10
108.3
 20
183.46
 30
0.0
 11
108.3
 21
190.46
 31
0.0
  0
LINE
  5
129
330
2
100
AcDbEntity
  8
画層1
 62
     0
100
AcDbLine
 10
108.84
 20
187.46
 30
0.0
 11
110.3
 21
187.46
 31
0.0
  0
LINE
  5
12A
330
2
100
AcDbEntity
  8
画層1
 62
     0
100
AcDbLine
 10
110.3
 20
186.46
 30
0.0
 11
108.84
 21
186.46
 31
0.0
  0
LINE
  5
12B
330
2
100
AcDbEntity
  8
画層1
 62
     0
100
AcDbLine
 10
111.3
 20
185.16
 30
0.0
 11
111.3
 21
185.46
 31
0.0
  0
ARC
  5
12C
330
2
100
AcDbEntity
  8
画層1
 62
     0
100
AcDbCircle
 10
110.3
 20
188.46
 30
0.0
 40
1.0
100
AcDbArc
 50
270.0
 51
0.0
  0
ARC
  5
12D
330
2
100
AcDbEntity
  8
画層1
 62
     0
100
AcDbCircle
 10
110.3
 20
185.46
 30
0.0
 40
1.0
100
AcDbArc
 50
0.0
 51
90.0
  0
LINE
  5
12E
330
2
100
AcDbEntity
  8
画層1
 62
     0
100
AcDbLine
 10
111.3
 20
188.46
 30
0.0
 11
111.3
 21
188.76
 31
0.0
  0
LINE
  5
12F
330
2
100
AcDbEntity
  8
画層1
 62
     0
100
AcDbLine
 10
105.36
 20
190.06
 30
0.0
 11
103.9
 21
190.06
 31
0.0
  0
LINE
  5
130
330
2
100
AcDbEntity
  8
画層1
 62
     0
100
AcDbLine
 10
103.9
 20
191.06
 30
0.0
 11
105.36
 21
191.06
 31
0.0
  0
LINE
  5
131
330
2
100
AcDbEntity
  8
画層1
 62
     0
100
AcDbLine
 10
111.3
 20
194.56
 30
0.0
 11
111.3
 21
194.86
 31
0.0
  0
LINE
  5
132
330
2
100
AcDbEntity
  8
画層1
 62
     0
100
AcDbLine
 10
115.3
 20
171.66
 30
0.0
 11
115.3
 21
164.66
 31
0.0
  0
LINE
  5
133
330
2
100
AcDbEntity
  8
画層1
 62
     0
100
AcDbLine
 10
112.3
 20
169.96
 30
0.0
 11
112.3
 21
169.66
 31
0.0
  0
LINE
  5
134
330
2
100
AcDbEntity
  8
画層1
 62
     0
100
AcDbLine
 10
113.3
 20
168.66
 30
0.0
 11
114.76
 21
168.66
 31
0.0
  0
LINE
  5
135
330
2
100
AcDbEntity
  8
画層1
 62
     0
100
AcDbLine
 10
114.76
 20
167.66
 30
0.0
 11
113.3
 21
167.66
 31
0.0
  0
LINE
  5
136
330
2
100
AcDbEntity
  8
画層1
 62
     0
100
AcDbLine
 10
112.3
 20
166.66
 30
0.0
 11
112.3
 21
166.36
 31
0.0
  0
ARC
  5
137
330
2
100
AcDbEntity
  8
画層1
 62
     0
100
AcDbCircle
 10
113.3
 20
169.66
 30
0.0
 40
1.0
100
AcDbArc
 50
180.0
 51
270.0
  0
ARC
  5
138
330
2
100
AcDbEntity
  8
画層1
 62
     0
100
AcDbCircle
 10
113.3
 20
166.66
 30
0.0
 40
1.0
100
AcDbArc
 50
90.0
 51
180.0
  0
LINE
  5
139
330
2
100
AcDbEntity
  8
画層1
 62
     0
100
AcDbLine
 10
115.3
 20
181.06
 30
0.0
 11
115.3
 21
174.06
 31
0.0
  0
LINE
  5
13A
330
2
100
AcDbEntity
  8
画層1
 62
     0
100
AcDbLine
 10
114.76
 20
177.06
 30
0.0
 11
113.3
 21
177.06
 31
0.0
  0
LINE
  5
13B
330
2
100
AcDbEntity
  8
画層1
 62
     0
100
AcDbLine
 10
112.3
 20
176.06
 30
0.0
 11
112.3
 21
175.76
 31
0.0
  0
ARC
  5
13C
330
2
100
AcDbEntity
  8
画層1
 62
     0
100
AcDbCircle
 10
113.3
 20
176.06
 30
0.0
 40
1.0
100
AcDbArc
 50
90.0
 51
180.0
  0
LINE
  5
13D
330
2
100
AcDbEntity
  8
画層1
 62
     0
100
AcDbLine
 10
112.3
 20
179.36
 30
0.0
 11
112.3
 21
179.06
 31
0.0
  0
LINE
  5
13E
330
2
100
AcDbEntity
  8
画層1
 62
     0
100
AcDbLine
 10
113.3
 20
178.06
 30
0.0
 11
114.76
 21
178.06
 31
0.0
  0
ARC
  5
13F
330
2
100
AcDbEntity
  8
画層1
 62
     0
100
AcDbCircle
 10
113.3
 20
179.06
 30
0.0
 40
1.0
100
AcDbArc
 50
180.0
 51
270.0
  0
LINE
  5
140
330
2
100
AcDbEntity
  8
画層1
 62
     0
100
AcDbLine
 10
115.3
 20
190.46
 30
0.0
 11
115.3
 21
183.46
 31
0.0
  0
LINE
  5
141
330
2
100
AcDbEntity
  8
画層1
 62
     0
100
AcDbLine
 10
113.3
 20
187.46
 30
0.0
 11
114.76
 21
187.46
 31
0.0
  0
LINE
  5
142
330
2
100
AcDbEntity
  8
画層1
 62
     0
100
AcDbLine
 10
114.76
 20
186.46
 30
0.0
 11
113.3
 21
186.46
 31
0.0
  0
LINE
  5
143
330
2
100
AcDbEntity
  8
画層1
 62
     0
100
AcDbLine
 10
112.3
 20
185.46
 30
0.0
 11
112.3
 21
185.16
 31
0.0
  0
ARC
  5
144
330
2
100
AcDbEntity
  8
画層1
 62
     0
100
AcDbCircle
 10
113.3
 20
188.46
 30
0.0
 40
1.0
100
AcDbArc
 50
180.0
 51
270.0
  0
ARC
  5
145
330
2
100
AcDbEntity
  8
画層1
 62
     0
100
AcDbCircle
 10
113.3
 20
185.46
 30
0.0
 40
1.0
100
AcDbArc
 50
90.0
 51
180.0
  0
LINE
  5
146
330
2
100
AcDbEntity
  8
画層1
 62
     0
100
AcDbLine
 10
112.3
 20
188.76
 30
0.0
 11
112.3
 21
188.46
 31
0.0
  0
LINE
  5
147
330
2
100
AcDbEntity
  8
画層1
 62
     0
100
AcDbLine
 10
112.3
 20
194.86
 30
0.0
 11
112.3
 21
194.56
 31
0.0
  0
LINE
  5
148
330
2
100
AcDbEntity
  8
画層1
 62
     0
100
AcDbLine
 10
111.3
 20
235.76
 30
0.0
 11
112.3
 21
235.76
 31
0.0
  0
LINE
  5
149
330
2
100
AcDbEntity
  8
画層1
 62
     0
100
AcDbLine
 10
108.3
 20
237.46
 30
0.0
 11
115.3
 21
237.46
 31
0.0
  0
LINE
  5
14A
330
2
100
AcDbEntity
  8
画層1
 62
     0
100
AcDbLine
 10
115.3
 20
239.86
 30
0.0
 11
108.3
 21
239.86
 31
0.0
  0
LINE
  5
14B
330
2
100
AcDbEntity
  8
画層1
 62
     0
100
AcDbLine
 10
106.4
 20
237.96
 30
0.0
 11
115.8
 21
237.96
 31
0.0
  0
LINE
  5
14C
330
2
100
AcDbEntity
  8
画層1
 62
     0
100
AcDbLine
 10
106.4
 20
239.36
 30
0.0
 11
115.8
 21
239.36
 31
0.0
  0
LINE
  5
14D
330
2
100
AcDbEntity
  8
画層1
 62
     0
100
AcDbLine
 10
111.3
 20
232.16
 30
0.0
 11
112.3
 21
232.16
 31
0.0
  0
LINE
  5
14E
330
2
100
AcDbEntity
  8
画層1
 62
     0
100
AcDbLine
 10
115.3
 20
230.46
 30
0.0
 11
108.3
 21
230.46
 31
0.0
  0
LINE
  5
14F
330
2
100
AcDbEntity
  8
画層1
 62
     0
100
AcDbLine
 10
111.3
 20
226.36
 30
0.0
 11
112.3
 21
226.36
 31
0.0
  0
LINE
  5
150
330
2
100
AcDbEntity
  8
画層1
 62
     0
100
AcDbLine
 10
108.3
 20
228.06
 30
0.0
 11
115.3
 21
228.06
 31
0.0
  0
LINE
  5
151
330
2
100
AcDbEntity
  8
画層1
 62
     0
100
AcDbLine
 10
106.4
 20
228.56
 30
0.0
 11
115.8
 21
228.56
 31
0.0
  0
LINE
  5
152
330
2
100
AcDbEntity
  8
画層1
 62
     0
100
AcDbLine
 10
106.4
 20
229.96
 30
0.0
 11
115.8
 21
229.96
 31
0.0
  0
LINE
  5
153
330
2
100
AcDbEntity
  8
画層1
 62
     0
100
AcDbLine
 10
111.3
 20
222.76
 30
0.0
 11
112.3
 21
222.76
 31
0.0
  0
LINE
  5
154
330
2
100
AcDbEntity
  8
画層1
 62
     0
100
AcDbLine
 10
108.3
 20
218.66
 30
0.0
 11
115.3
 21
218.66
 31
0.0
  0
LINE
  5
155
330
2
100
AcDbEntity
  8
画層1
 62
     0
100
AcDbLine
 10
115.3
 20
221.06
 30
0.0
 11
108.3
 21
221.06
 31
0.0
  0
LINE
  5
156
330
2
100
AcDbEntity
  8
画層1
 62
     0
100
AcDbLine
 10
106.4
 20
219.16
 30
0.0
 11
115.8
 21
219.16
 31
0.0
  0
LINE
  5
157
330
2
100
AcDbEntity
  8
画層1
 62
     0
100
AcDbLine
 10
106.4
 20
220.56
 30
0.0
 11
115.8
 21
220.56
 31
0.0
  0
CIRCLE
  5
158
330
2
100
AcDbEntity
  8
画層1
 62
     0
100
AcDbCircle
 10
111.8
 20
215.16
 30
0.0
 40
3.0
  0
LINE
  5
159
330
2
100
AcDbEntity
  8
画層1
 62
     0
100
AcDbLine
 10
111.3
 20
213.36
 30
0.0
 11
112.3
 21
213.36
 31
0.0
  0
LINE
  5
15A
330
2
100
AcDbEntity
  8
画層1
 62
     0
100
AcDbLine
 10
111.3
 20
216.96
 30
0.0
 11
112.3
 21
216.96
 31
0.0
  0
CIRCLE
  5
15B
330
2
100
AcDbEntity
  8
画層1
 62
     0
100
AcDbCircle
 10
111.8
 20
224.56
 30
0.0
 40
3.0
  0
CIRCLE
  5
15C
330
2
100
AcDbEntity
  8
画層1
 62
     0
100
AcDbCircle
 10
111.8
 20
233.96
 30
0.0
 40
3.0
  0
LINE
  5
15D
330
2
100
AcDbEntity
  8
画層1
 62
     0
100
AcDbLine
 10
111.3
 20
207.56
 30
0.0
 11
112.3
 21
207.56
 31
0.0
  0
LINE
  5
15E
330
2
100
AcDbEntity
  8
画層1
 62
     0
100
AcDbLine
 10
108.3
 20
209.26
 30
0.0
 11
115.3
 21
209.26
 31
0.0
  0
LINE
  5
15F
330
2
100
AcDbEntity
  8
画層1
 62
     0
100
AcDbLine
 10
115.3
 20
211.66
 30
0.0
 11
108.3
 21
211.66
 31
0.0
  0
LINE
  5
160
330
2
100
AcDbEntity
  8
画層1
 62
     0
100
AcDbLine
 10
106.4
 20
209.76
 30
0.0
 11
115.8
 21
209.76
 31
0.0
  0
LINE
  5
161
330
2
100
AcDbEntity
  8
画層1
 62
     0
100
AcDbLine
 10
106.4
 20
211.16
 30
0.0
 11
115.8
 21
211.16
 31
0.0
  0
LINE
  5
162
330
2
100
AcDbEntity
  8
画層1
 62
     0
100
AcDbLine
 10
111.3
 20
203.96
 30
0.0
 11
112.3
 21
203.96
 31
0.0
  0
LINE
  5
163
330
2
100
AcDbEntity
  8
画層1
 62
     0
100
AcDbLine
 10
115.3
 20
202.26
 30
0.0
 11
108.3
 21
202.26
 31
0.0
  0
LINE
  5
164
330
2
100
AcDbEntity
  8
画層1
 62
     0
100
AcDbLine
 10
106.4
 20
200.36
 30
0.0
 11
115.8
 21
200.36
 31
0.0
  0
LINE
  5
165
330
2
100
AcDbEntity
  8
画層1
 62
     0
100
AcDbLine
 10
106.4
 20
201.76
 30
0.0
 11
115.8
 21
201.76
 31
0.0
  0
CIRCLE
  5
166
330
2
100
AcDbEntity
  8
画層1
 62
     0
100
AcDbCircle
 10
111.8
 20
205.76
 30
0.0
 40
3.0
  0
LINE
  5
167
330
2
100
AcDbEntity
  8
画層1
 62
     0
100
AcDbLine
 10
111.3
 20
198.16
 30
0.0
 11
112.3
 21
198.16
 31
0.0
  0
LINE
  5
168
330
2
100
AcDbEntity
  8
画層1
 62
     0
100
AcDbLine
 10
108.3
 20
199.86
 30
0.0
 11
115.3
 21
199.86
 31
0.0
  0
LINE
  5
169
330
2
100
AcDbEntity
  8
画層1
 62
     0
100
AcDbLine
 10
105.9
 20
222.26
 30
0.0
 11
105.9
 21
215.26
 31
0.0
  0
ARC
  5
16A
330
2
100
AcDbEntity
  8
画層1
 62
     0
100
AcDbCircle
 10
100.9
 20
217.26
 30
0.0
 40
1.0
100
AcDbArc
 50
0.0
 51
90.0
  0
LINE
  5
16B
330
2
100
AcDbEntity
  8
画層1
 62
     0
100
AcDbLine
 10
98.9
 20
215.26
 30
0.0
 11
98.9
 21
222.26
 31
0.0
  0
CIRCLE
  5
16C
330
2
100
AcDbEntity
  8
画層1
 62
     0
100
AcDbCircle
 10
102.4
 20
218.76
 30
0.0
 40
3.0
  0
ARC
  5
16D
330
2
100
AcDbEntity
  8
画層1
 62
     0
100
AcDbCircle
 10
103.9
 20
217.26
 30
0.0
 40
1.0
100
AcDbArc
 50
90.0
 51
180.0
  0
LINE
  5
16E
330
2
100
AcDbEntity
  8
画層1
 62
     0
100
AcDbLine
 10
108.3
 20
211.66
 30
0.0
 11
108.3
 21
218.66
 31
0.0
  0
LINE
  5
16F
330
2
100
AcDbEntity
  8
画層1
 62
     0
100
AcDbLine
 10
108.3
 20
202.26
 30
0.0
 11
108.3
 21
209.26
 31
0.0
  0
ARC
  5
170
330
2
100
AcDbEntity
  8
画層1
 62
     0
100
AcDbCircle
 10
110.3
 20
207.26
 30
0.0
 40
1.0
100
AcDbArc
 50
270.0
 51
0.0
  0
LINE
  5
171
330
2
100
AcDbEntity
  8
画層1
 62
     0
100
AcDbLine
 10
105.9
 20
212.86
 30
0.0
 11
105.9
 21
205.86
 31
0.0
  0
LINE
  5
172
330
2
100
AcDbEntity
  8
画層1
 62
     0
100
AcDbLine
 10
98.9
 20
205.86
 30
0.0
 11
98.9
 21
212.86
 31
0.0
  0
CIRCLE
  5
173
330
2
100
AcDbEntity
  8
画層1
 62
     0
100
AcDbCircle
 10
102.4
 20
209.36
 30
0.0
 40
3.0
  0
CIRCLE
  5
174
330
2
100
AcDbEntity
  8
画層1
 62
     0
100
AcDbCircle
 10
102.4
 20
199.96
 30
0.0
 40
3.0
  0
LINE
  5
175
330
2
100
AcDbEntity
  8
画層1
 62
     0
100
AcDbLine
 10
105.9
 20
196.46
 30
0.0
 11
98.9
 21
196.46
 31
0.0
  0
LINE
  5
176
330
2
100
AcDbEntity
  8
画層1
 62
     0
100
AcDbLine
 10
98.9
 20
203.46
 30
0.0
 11
105.9
 21
203.46
 31
0.0
  0
ARC
  5
177
330
2
100
AcDbEntity
  8
画層1
 62
     0
100
AcDbCircle
 10
103.9
 20
198.46
 30
0.0
 40
1.0
100
AcDbArc
 50
90.0
 51
180.0
  0
ARC
  5
178
330
2
100
AcDbEntity
  8
画層1
 62
     0
100
AcDbCircle
 10
103.9
 20
201.46
 30
0.0
 40
1.0
100
AcDbArc
 50
180.0
 51
270.0
  0
LINE
  5
179
330
2
100
AcDbEntity
  8
画層1
 62
     0
100
AcDbLine
 10
97.0
 20
203.96
 30
0.0
 11
106.4
 21
203.96
 31
0.0
  0
LINE
  5
17A
330
2
100
AcDbEntity
  8
画層1
 62
     0
100
AcDbLine
 10
97.0
 20
195.96
 30
0.0
 11
106.4
 21
195.96
 31
0.0
  0
LINE
  5
17B
330
2
100
AcDbEntity
  8
画層1
 62
     0
100
AcDbLine
 10
105.9
 20
205.86
 30
0.0
 11
98.9
 21
205.86
 31
0.0
  0
LINE
  5
17C
330
2
100
AcDbEntity
  8
画層1
 62
     0
100
AcDbLine
 10
97.0
 20
205.36
 30
0.0
 11
106.4
 21
205.36
 31
0.0
  0
ARC
  5
17D
330
2
100
AcDbEntity
  8
画層1
 62
     0
100
AcDbCircle
 10
100.9
 20
201.46
 30
0.0
 40
1.0
100
AcDbArc
 50
270.0
 51
0.0
  0
LINE
  5
17E
330
2
100
AcDbEntity
  8
画層1
 62
     0
100
AcDbLine
 10
98.9
 20
196.46
 30
0.0
 11
98.9
 21
203.46
 31
0.0
  0
LINE
  5
17F
330
2
100
AcDbEntity
  8
画層1
 62
     0
100
AcDbLine
 10
99.44
 20
200.46
 30
0.0
 11
100.9
 21
200.46
 31
0.0
  0
ARC
  5
180
330
2
100
AcDbEntity
  8
画層1
 62
     0
100
AcDbCircle
 10
100.9
 20
198.46
 30
0.0
 40
1.0
100
AcDbArc
 50
0.0
 51
90.0
  0
LINE
  5
181
330
2
100
AcDbEntity
  8
画層1
 62
     0
100
AcDbLine
 10
100.9
 20
199.46
 30
0.0
 11
99.44
 21
199.46
 31
0.0
  0
LINE
  5
182
330
2
100
AcDbEntity
  8
画層1
 62
     0
100
AcDbLine
 10
101.9
 20
198.16
 30
0.0
 11
101.9
 21
198.46
 31
0.0
  0
LINE
  5
183
330
2
100
AcDbEntity
  8
画層1
 62
     0
100
AcDbLine
 10
102.9
 20
198.46
 30
0.0
 11
102.9
 21
198.16
 31
0.0
  0
LINE
  5
184
330
2
100
AcDbEntity
  8
画層1
 62
     0
100
AcDbLine
 10
101.9
 20
198.16
 30
0.0
 11
102.9
 21
198.16
 31
0.0
  0
LINE
  5
185
330
2
100
AcDbEntity
  8
画層1
 62
     0
100
AcDbLine
 10
102.9
 20
201.76
 30
0.0
 11
102.9
 21
201.46
 31
0.0
  0
LINE
  5
186
330
2
100
AcDbEntity
  8
画層1
 62
     0
100
AcDbLine
 10
101.9
 20
201.46
 30
0.0
 11
101.9
 21
201.76
 31
0.0
  0
LINE
  5
187
330
2
100
AcDbEntity
  8
画層1
 62
     0
100
AcDbLine
 10
101.9
 20
201.76
 30
0.0
 11
102.9
 21
201.76
 31
0.0
  0
LINE
  5
188
330
2
100
AcDbEntity
  8
画層1
 62
     0
100
AcDbLine
 10
105.9
 20
203.46
 30
0.0
 11
105.9
 21
196.46
 31
0.0
  0
LINE
  5
189
330
2
100
AcDbEntity
  8
画層1
 62
     0
100
AcDbLine
 10
103.9
 20
200.46
 30
0.0
 11
105.36
 21
200.46
 31
0.0
  0
LINE
  5
18A
330
2
100
AcDbEntity
  8
画層1
 62
     0
100
AcDbLine
 10
105.36
 20
199.46
 30
0.0
 11
103.9
 21
199.46
 31
0.0
  0
LINE
  5
18B
330
2
100
AcDbEntity
  8
画層1
 62
     0
100
AcDbLine
 10
108.84
 20
196.86
 30
0.0
 11
110.3
 21
196.86
 31
0.0
  0
LINE
  5
18C
330
2
100
AcDbEntity
  8
画層1
 62
     0
100
AcDbLine
 10
110.3
 20
195.86
 30
0.0
 11
108.84
 21
195.86
 31
0.0
  0
LINE
  5
18D
330
2
100
AcDbEntity
  8
画層1
 62
     0
100
AcDbLine
 10
111.3
 20
197.86
 30
0.0
 11
111.3
 21
198.16
 31
0.0
  0
ARC
  5
18E
330
2
100
AcDbEntity
  8
画層1
 62
     0
100
AcDbCircle
 10
110.3
 20
197.86
 30
0.0
 40
1.0
100
AcDbArc
 50
270.0
 51
0.0
  0
LINE
  5
18F
330
2
100
AcDbEntity
  8
画層1
 62
     0
100
AcDbLine
 10
110.3
 20
205.26
 30
0.0
 11
108.84
 21
205.26
 31
0.0
  0
LINE
  5
190
330
2
100
AcDbEntity
  8
画層1
 62
     0
100
AcDbLine
 10
111.3
 20
203.96
 30
0.0
 11
111.3
 21
204.26
 31
0.0
  0
LINE
  5
191
330
2
100
AcDbEntity
  8
画層1
 62
     0
100
AcDbLine
 10
108.84
 20
206.26
 30
0.0
 11
110.3
 21
206.26
 31
0.0
  0
ARC
  5
192
330
2
100
AcDbEntity
  8
画層1
 62
     0
100
AcDbCircle
 10
110.3
 20
204.26
 30
0.0
 40
1.0
100
AcDbArc
 50
0.0
 51
90.0
  0
LINE
  5
193
330
2
100
AcDbEntity
  8
画層1
 62
     0
100
AcDbLine
 10
105.9
 20
215.26
 30
0.0
 11
98.9
 21
215.26
 31
0.0
  0
LINE
  5
194
330
2
100
AcDbEntity
  8
画層1
 62
     0
100
AcDbLine
 10
98.9
 20
212.86
 30
0.0
 11
105.9
 21
212.86
 31
0.0
  0
LINE
  5
195
330
2
100
AcDbEntity
  8
画層1
 62
     0
100
AcDbLine
 10
97.0
 20
214.76
 30
0.0
 11
106.4
 21
214.76
 31
0.0
  0
LINE
  5
196
330
2
100
AcDbEntity
  8
画層1
 62
     0
100
AcDbLine
 10
97.0
 20
213.36
 30
0.0
 11
106.4
 21
213.36
 31
0.0
  0
ARC
  5
197
330
2
100
AcDbEntity
  8
画層1
 62
     0
100
AcDbCircle
 10
103.9
 20
207.86
 30
0.0
 40
1.0
100
AcDbArc
 50
90.0
 51
180.0
  0
ARC
  5
198
330
2
100
AcDbEntity
  8
画層1
 62
     0
100
AcDbCircle
 10
103.9
 20
210.86
 30
0.0
 40
1.0
100
AcDbArc
 50
180.0
 51
270.0
  0
ARC
  5
199
330
2
100
AcDbEntity
  8
画層1
 62
     0
100
AcDbCircle
 10
100.9
 20
207.86
 30
0.0
 40
1.0
100
AcDbArc
 50
0.0
 51
90.0
  0
ARC
  5
19A
330
2
100
AcDbEntity
  8
画層1
 62
     0
100
AcDbCircle
 10
100.9
 20
210.86
 30
0.0
 40
1.0
100
AcDbArc
 50
270.0
 51
0.0
  0
LINE
  5
19B
330
2
100
AcDbEntity
  8
画層1
 62
     0
100
AcDbLine
 10
100.9
 20
208.86
 30
0.0
 11
99.44
 21
208.86
 31
0.0
  0
LINE
  5
19C
330
2
100
AcDbEntity
  8
画層1
 62
     0
100
AcDbLine
 10
99.44
 20
209.86
 30
0.0
 11
100.9
 21
209.86
 31
0.0
  0
LINE
  5
19D
330
2
100
AcDbEntity
  8
画層1
 62
     0
100
AcDbLine
 10
102.9
 20
211.16
 30
0.0
 11
102.9
 21
210.86
 31
0.0
  0
LINE
  5
19E
330
2
100
AcDbEntity
  8
画層1
 62
     0
100
AcDbLine
 10
101.9
 20
210.86
 30
0.0
 11
101.9
 21
211.16
 31
0.0
  0
LINE
  5
19F
330
2
100
AcDbEntity
  8
画層1
 62
     0
100
AcDbLine
 10
101.9
 20
211.16
 30
0.0
 11
102.9
 21
211.16
 31
0.0
  0
LINE
  5
1A0
330
2
100
AcDbEntity
  8
画層1
 62
     0
100
AcDbLine
 10
101.9
 20
207.56
 30
0.0
 11
102.9
 21
207.56
 31
0.0
  0
LINE
  5
1A1
330
2
100
AcDbEntity
  8
画層1
 62
     0
100
AcDbLine
 10
101.9
 20
207.56
 30
0.0
 11
101.9
 21
207.86
 31
0.0
  0
LINE
  5
1A2
330
2
100
AcDbEntity
  8
画層1
 62
     0
100
AcDbLine
 10
102.9
 20
207.86
 30
0.0
 11
102.9
 21
207.56
 31
0.0
  0
LINE
  5
1A3
330
2
100
AcDbEntity
  8
画層1
 62
     0
100
AcDbLine
 10
101.9
 20
216.96
 30
0.0
 11
101.9
 21
217.26
 31
0.0
  0
LINE
  5
1A4
330
2
100
AcDbEntity
  8
画層1
 62
     0
100
AcDbLine
 10
102.9
 20
217.26
 30
0.0
 11
102.9
 21
216.96
 31
0.0
  0
LINE
  5
1A5
330
2
100
AcDbEntity
  8
画層1
 62
     0
100
AcDbLine
 10
101.9
 20
216.96
 30
0.0
 11
102.9
 21
216.96
 31
0.0
  0
LINE
  5
1A6
330
2
100
AcDbEntity
  8
画層1
 62
     0
100
AcDbLine
 10
105.36
 20
208.86
 30
0.0
 11
103.9
 21
208.86
 31
0.0
  0
LINE
  5
1A7
330
2
100
AcDbEntity
  8
画層1
 62
     0
100
AcDbLine
 10
103.9
 20
209.86
 30
0.0
 11
105.36
 21
209.86
 31
0.0
  0
LINE
  5
1A8
330
2
100
AcDbEntity
  8
画層1
 62
     0
100
AcDbLine
 10
111.3
 20
207.26
 30
0.0
 11
111.3
 21
207.56
 31
0.0
  0
LINE
  5
1A9
330
2
100
AcDbEntity
  8
画層1
 62
     0
100
AcDbLine
 10
111.3
 20
216.66
 30
0.0
 11
111.3
 21
216.96
 31
0.0
  0
LINE
  5
1AA
330
2
100
AcDbEntity
  8
画層1
 62
     0
100
AcDbLine
 10
108.84
 20
215.66
 30
0.0
 11
110.3
 21
215.66
 31
0.0
  0
LINE
  5
1AB
330
2
100
AcDbEntity
  8
画層1
 62
     0
100
AcDbLine
 10
110.3
 20
214.66
 30
0.0
 11
108.84
 21
214.66
 31
0.0
  0
LINE
  5
1AC
330
2
100
AcDbEntity
  8
画層1
 62
     0
100
AcDbLine
 10
111.3
 20
213.36
 30
0.0
 11
111.3
 21
213.66
 31
0.0
  0
ARC
  5
1AD
330
2
100
AcDbEntity
  8
画層1
 62
     0
100
AcDbCircle
 10
110.3
 20
216.66
 30
0.0
 40
1.0
100
AcDbArc
 50
270.0
 51
0.0
  0
ARC
  5
1AE
330
2
100
AcDbEntity
  8
画層1
 62
     0
100
AcDbCircle
 10
110.3
 20
213.66
 30
0.0
 40
1.0
100
AcDbArc
 50
0.0
 51
90.0
  0
LINE
  5
1AF
330
2
100
AcDbEntity
  8
画層1
 62
     0
100
AcDbLine
 10
105.9
 20
231.66
 30
0.0
 11
105.9
 21
224.66
 31
0.0
  0
LINE
  5
1B0
330
2
100
AcDbEntity
  8
画層1
 62
     0
100
AcDbLine
 10
102.9
 20
229.96
 30
0.0
 11
102.9
 21
229.66
 31
0.0
  0
LINE
  5
1B1
330
2
100
AcDbEntity
  8
画層1
 62
     0
100
AcDbLine
 10
101.9
 20
229.66
 30
0.0
 11
101.9
 21
229.96
 31
0.0
  0
LINE
  5
1B2
330
2
100
AcDbEntity
  8
画層1
 62
     0
100
AcDbLine
 10
98.9
 20
224.66
 30
0.0
 11
98.9
 21
231.66
 31
0.0
  0
CIRCLE
  5
1B3
330
2
100
AcDbEntity
  8
画層1
 62
     0
100
AcDbCircle
 10
102.4
 20
228.16
 30
0.0
 40
3.0
  0
ARC
  5
1B4
330
2
100
AcDbEntity
  8
画層1
 62
     0
100
AcDbCircle
 10
103.9
 20
229.66
 30
0.0
 40
1.0
100
AcDbArc
 50
180.0
 51
270.0
  0
LINE
  5
1B5
330
2
100
AcDbEntity
  8
画層1
 62
     0
100
AcDbLine
 10
105.9
 20
224.66
 30
0.0
 11
98.9
 21
224.66
 31
0.0
  0
LINE
  5
1B6
330
2
100
AcDbEntity
  8
画層1
 62
     0
100
AcDbLine
 10
98.9
 20
222.26
 30
0.0
 11
105.9
 21
222.26
 31
0.0
  0
ARC
  5
1B7
330
2
100
AcDbEntity
  8
画層1
 62
     0
100
AcDbCircle
 10
103.9
 20
226.66
 30
0.0
 40
1.0
100
AcDbArc
 50
90.0
 51
180.0
  0
ARC
  5
1B8
330
2
100
AcDbEntity
  8
画層1
 62
     0
100
AcDbCircle
 10
103.9
 20
220.26
 30
0.0
 40
1.0
100
AcDbArc
 50
180.0
 51
270.0
  0
LINE
  5
1B9
330
2
100
AcDbEntity
  8
画層1
 62
     0
100
AcDbLine
 10
97.0
 20
224.16
 30
0.0
 11
106.4
 21
224.16
 31
0.0
  0
LINE
  5
1BA
330
2
100
AcDbEntity
  8
画層1
 62
     0
100
AcDbLine
 10
97.0
 20
222.76
 30
0.0
 11
106.4
 21
222.76
 31
0.0
  0
ARC
  5
1BB
330
2
100
AcDbEntity
  8
画層1
 62
     0
100
AcDbCircle
 10
100.9
 20
220.26
 30
0.0
 40
1.0
100
AcDbArc
 50
270.0
 51
0.0
  0
LINE
  5
1BC
330
2
100
AcDbEntity
  8
画層1
 62
     0
100
AcDbLine
 10
99.44
 20
219.26
 30
0.0
 11
100.9
 21
219.26
 31
0.0
  0
LINE
  5
1BD
330
2
100
AcDbEntity
  8
画層1
 62
     0
100
AcDbLine
 10
102.9
 20
220.56
 30
0.0
 11
102.9
 21
220.26
 31
0.0
  0
LINE
  5
1BE
330
2
100
AcDbEntity
  8
画層1
 62
     0
100
AcDbLine
 10
101.9
 20
220.26
 30
0.0
 11
101.9
 21
220.56
 31
0.0
  0
LINE
  5
1BF
330
2
100
AcDbEntity
  8
画層1
 62
     0
100
AcDbLine
 10
101.9
 20
220.56
 30
0.0
 11
102.9
 21
220.56
 31
0.0
  0
LINE
  5
1C0
330
2
100
AcDbEntity
  8
画層1
 62
     0
100
AcDbLine
 10
100.9
 20
218.26
 30
0.0
 11
99.44
 21
218.26
 31
0.0
  0
ARC
  5
1C1
330
2
100
AcDbEntity
  8
画層1
 62
     0
100
AcDbCircle
 10
100.9
 20
229.66
 30
0.0
 40
1.0
100
AcDbArc
 50
270.0
 51
0.0
  0
ARC
  5
1C2
330
2
100
AcDbEntity
  8
画層1
 62
     0
100
AcDbCircle
 10
100.9
 20
226.66
 30
0.0
 40
1.0
100
AcDbArc
 50
0.0
 51
90.0
  0
LINE
  5
1C3
330
2
100
AcDbEntity
  8
画層1
 62
     0
100
AcDbLine
 10
100.9
 20
227.66
 30
0.0
 11
99.44
 21
227.66
 31
0.0
  0
LINE
  5
1C4
330
2
100
AcDbEntity
  8
画層1
 62
     0
100
AcDbLine
 10
101.9
 20
226.36
 30
0.0
 11
101.9
 21
226.66
 31
0.0
  0
LINE
  5
1C5
330
2
100
AcDbEntity
  8
画層1
 62
     0
100
AcDbLine
 10
102.9
 20
226.66
 30
0.0
 11
102.9
 21
226.36
 31
0.0
  0
LINE
  5
1C6
330
2
100
AcDbEntity
  8
画層1
 62
     0
100
AcDbLine
 10
101.9
 20
226.36
 30
0.0
 11
102.9
 21
226.36
 31
0.0
  0
LINE
  5
1C7
330
2
100
AcDbEntity
  8
画層1
 62
     0
100
AcDbLine
 10
99.44
 20
228.66
 30
0.0
 11
100.9
 21
228.66
 31
0.0
  0
LINE
  5
1C8
330
2
100
AcDbEntity
  8
画層1
 62
     0
100
AcDbLine
 10
108.3
 20
221.06
 30
0.0
 11
108.3
 21
228.06
 31
0.0
  0
ARC
  5
1C9
330
2
100
AcDbEntity
  8
画層1
 62
     0
100
AcDbCircle
 10
110.3
 20
223.06
 30
0.0
 40
1.0
100
AcDbArc
 50
0.0
 51
90.0
  0
LINE
  5
1CA
330
2
100
AcDbEntity
  8
画層1
 62
     0
100
AcDbLine
 10
103.9
 20
219.26
 30
0.0
 11
105.36
 21
219.26
 31
0.0
  0
LINE
  5
1CB
330
2
100
AcDbEntity
  8
画層1
 62
     0
100
AcDbLine
 10
105.36
 20
218.26
 30
0.0
 11
103.9
 21
218.26
 31
0.0
  0
LINE
  5
1CC
330
2
100
AcDbEntity
  8
画層1
 62
     0
100
AcDbLine
 10
111.3
 20
222.76
 30
0.0
 11
111.3
 21
223.06
 31
0.0
  0
LINE
  5
1CD
330
2
100
AcDbEntity
  8
画層1
 62
     0
100
AcDbLine
 10
105.36
 20
227.66
 30
0.0
 11
103.9
 21
227.66
 31
0.0
  0
LINE
  5
1CE
330
2
100
AcDbEntity
  8
画層1
 62
     0
100
AcDbLine
 10
103.9
 20
228.66
 30
0.0
 11
105.36
 21
228.66
 31
0.0
  0
LINE
  5
1CF
330
2
100
AcDbEntity
  8
画層1
 62
     0
100
AcDbLine
 10
108.84
 20
225.06
 30
0.0
 11
110.3
 21
225.06
 31
0.0
  0
LINE
  5
1D0
330
2
100
AcDbEntity
  8
画層1
 62
     0
100
AcDbLine
 10
110.3
 20
224.06
 30
0.0
 11
108.84
 21
224.06
 31
0.0
  0
LINE
  5
1D1
330
2
100
AcDbEntity
  8
画層1
 62
     0
100
AcDbLine
 10
111.3
 20
226.06
 30
0.0
 11
111.3
 21
226.36
 31
0.0
  0
ARC
  5
1D2
330
2
100
AcDbEntity
  8
画層1
 62
     0
100
AcDbCircle
 10
110.3
 20
226.06
 30
0.0
 40
1.0
100
AcDbArc
 50
270.0
 51
0.0
  0
ARC
  5
1D3
330
2
100
AcDbEntity
  8
画層1
 62
     0
100
AcDbCircle
 10
103.9
 20
239.06
 30
0.0
 40
1.0
100
AcDbArc
 50
180.0
 51
270.0
  0
ARC
  5
1D4
330
2
100
AcDbEntity
  8
画層1
 62
     0
100
AcDbCircle
 10
103.9
 20
236.06
 30
0.0
 40
1.0
100
AcDbArc
 50
90.0
 51
180.0
  0
LINE
  5
1D5
330
2
100
AcDbEntity
  8
画層1
 62
     0
100
AcDbLine
 10
98.9
 20
241.06
 30
0.0
 11
105.9
 21
241.06
 31
0.0
  0
LINE
  5
1D6
330
2
100
AcDbEntity
  8
画層1
 62
     0
100
AcDbLine
 10
98.9
 20
231.66
 30
0.0
 11
105.9
 21
231.66
 31
0.0
  0
LINE
  5
1D7
330
2
100
AcDbEntity
  8
画層1
 62
     0
100
AcDbLine
 10
105.9
 20
234.06
 30
0.0
 11
98.9
 21
234.06
 31
0.0
  0
LINE
  5
1D8
330
2
100
AcDbEntity
  8
画層1
 62
     0
100
AcDbLine
 10
97.0
 20
232.16
 30
0.0
 11
106.4
 21
232.16
 31
0.0
  0
LINE
  5
1D9
330
2
100
AcDbEntity
  8
画層1
 62
     0
100
AcDbLine
 10
97.0
 20
233.56
 30
0.0
 11
106.4
 21
233.56
 31
0.0
  0
CIRCLE
  5
1DA
330
2
100
AcDbEntity
  8
画層1
 62
     0
100
AcDbCircle
 10
102.4
 20
237.56
 30
0.0
 40
3.0
  0
LINE
  5
1DB
330
2
100
AcDbEntity
  8
画層1
 62
     0
100
AcDbLine
 10
98.9
 20
234.06
 30
0.0
 11
98.9
 21
241.06
 31
0.0
  0
LINE
  5
1DC
330
2
100
AcDbEntity
  8
画層1
 62
     0
100
AcDbLine
 10
101.9
 20
229.96
 30
0.0
 11
102.9
 21
229.96
 31
0.0
  0
ARC
  5
1DD
330
2
100
AcDbEntity
  8
画層1
 62
     0
100
AcDbCircle
 10
100.9
 20
239.06
 30
0.0
 40
1.0
100
AcDbArc
 50
270.0
 51
0.0
  0
ARC
  5
1DE
330
2
100
AcDbEntity
  8
画層1
 62
     0
100
AcDbCircle
 10
100.9
 20
236.06
 30
0.0
 40
1.0
100
AcDbArc
 50
0.0
 51
90.0
  0
LINE
  5
1DF
330
2
100
AcDbEntity
  8
画層1
 62
     0
100
AcDbLine
 10
99.44
 20
238.06
 30
0.0
 11
100.9
 21
238.06
 31
0.0
  0
LINE
  5
1E0
330
2
100
AcDbEntity
  8
画層1
 62
     0
100
AcDbLine
 10
100.9
 20
237.06
 30
0.0
 11
99.44
 21
237.06
 31
0.0
  0
LINE
  5
1E1
330
2
100
AcDbEntity
  8
画層1
 62
     0
100
AcDbLine
 10
101.9
 20
239.36
 30
0.0
 11
102.9
 21
239.36
 31
0.0
  0
LINE
  5
1E2
330
2
100
AcDbEntity
  8
画層1
 62
     0
100
AcDbLine
 10
101.9
 20
235.76
 30
0.0
 11
102.9
 21
235.76
 31
0.0
  0
LINE
  5
1E3
330
2
100
AcDbEntity
  8
画層1
 62
     0
100
AcDbLine
 10
101.9
 20
239.06
 30
0.0
 11
101.9
 21
239.36
 31
0.0
  0
LINE
  5
1E4
330
2
100
AcDbEntity
  8
画層1
 62
     0
100
AcDbLine
 10
102.9
 20
239.36
 30
0.0
 11
102.9
 21
239.06
 31
0.0
  0
LINE
  5
1E5
330
2
100
AcDbEntity
  8
画層1
 62
     0
100
AcDbLine
 10
102.9
 20
236.06
 30
0.0
 11
102.9
 21
235.76
 31
0.0
  0
LINE
  5
1E6
330
2
100
AcDbEntity
  8
画層1
 62
     0
100
AcDbLine
 10
101.9
 20
235.76
 30
0.0
 11
101.9
 21
236.06
 31
0.0
  0
LINE
  5
1E7
330
2
100
AcDbEntity
  8
画層1
 62
     0
100
AcDbLine
 10
111.3
 20
235.46
 30
0.0
 11
111.3
 21
235.76
 31
0.0
  0
LINE
  5
1E8
330
2
100
AcDbEntity
  8
画層1
 62
     0
100
AcDbLine
 10
105.9
 20
241.06
 30
0.0
 11
105.9
 21
234.06
 31
0.0
  0
LINE
  5
1E9
330
2
100
AcDbEntity
  8
画層1
 62
     0
100
AcDbLine
 10
108.3
 20
230.46
 30
0.0
 11
108.3
 21
237.46
 31
0.0
  0
LINE
  5
1EA
330
2
100
AcDbEntity
  8
画層1
 62
     0
100
AcDbLine
 10
108.84
 20
234.46
 30
0.0
 11
110.3
 21
234.46
 31
0.0
  0
LINE
  5
1EB
330
2
100
AcDbEntity
  8
画層1
 62
     0
100
AcDbLine
 10
110.3
 20
233.46
 30
0.0
 11
108.84
 21
233.46
 31
0.0
  0
LINE
  5
1EC
330
2
100
AcDbEntity
  8
画層1
 62
     0
100
AcDbLine
 10
111.3
 20
232.16
 30
0.0
 11
111.3
 21
232.46
 31
0.0
  0
ARC
  5
1ED
330
2
100
AcDbEntity
  8
画層1
 62
     0
100
AcDbCircle
 10
110.3
 20
232.46
 30
0.0
 40
1.0
100
AcDbArc
 50
0.0
 51
90.0
  0
ARC
  5
1EE
330
2
100
AcDbEntity
  8
画層1
 62
     0
100
AcDbCircle
 10
110.3
 20
235.46
 30
0.0
 40
1.0
100
AcDbArc
 50
270.0
 51
0.0
  0
LINE
  5
1EF
330
2
100
AcDbEntity
  8
画層1
 62
     0
100
AcDbLine
 10
103.9
 20
238.06
 30
0.0
 11
105.36
 21
238.06
 31
0.0
  0
LINE
  5
1F0
330
2
100
AcDbEntity
  8
画層1
 62
     0
100
AcDbLine
 10
105.36
 20
237.06
 30
0.0
 11
103.9
 21
237.06
 31
0.0
  0
CIRCLE
  5
1F1
330
2
100
AcDbEntity
  8
画層1
 62
     0
100
AcDbCircle
 10
135.8
 20
219.3
 30
0.0
 40
1.75
  0
LINE
  5
1F2
330
2
100
AcDbEntity
  8
画層1
 62
     0
100
AcDbLine
 10
115.3
 20
218.66
 30
0.0
 11
115.3
 21
211.66
 31
0.0
  0
LINE
  5
1F3
330
2
100
AcDbEntity
  8
画層1
 62
     0
100
AcDbLine
 10
115.3
 20
209.26
 30
0.0
 11
115.3
 21
202.26
 31
0.0
  0
ARC
  5
1F4
330
2
100
AcDbEntity
  8
画層1
 62
     0
100
AcDbCircle
 10
113.3
 20
207.26
 30
0.0
 40
1.0
100
AcDbArc
 50
180.0
 51
270.0
  0
LINE
  5
1F5
330
2
100
AcDbEntity
  8
画層1
 62
     0
100
AcDbLine
 10
112.3
 20
198.16
 30
0.0
 11
112.3
 21
197.86
 31
0.0
  0
LINE
  5
1F6
330
2
100
AcDbEntity
  8
画層1
 62
     0
100
AcDbLine
 10
113.3
 20
196.86
 30
0.0
 11
114.76
 21
196.86
 31
0.0
  0
LINE
  5
1F7
330
2
100
AcDbEntity
  8
画層1
 62
     0
100
AcDbLine
 10
114.76
 20
195.86
 30
0.0
 11
113.3
 21
195.86
 31
0.0
  0
ARC
  5
1F8
330
2
100
AcDbEntity
  8
画層1
 62
     0
100
AcDbCircle
 10
113.3
 20
197.86
 30
0.0
 40
1.0
100
AcDbArc
 50
180.0
 51
270.0
  0
LINE
  5
1F9
330
2
100
AcDbEntity
  8
画層1
 62
     0
100
AcDbLine
 10
114.76
 20
205.26
 30
0.0
 11
113.3
 21
205.26
 31
0.0
  0
LINE
  5
1FA
330
2
100
AcDbEntity
  8
画層1
 62
     0
100
AcDbLine
 10
112.3
 20
204.26
 30
0.0
 11
112.3
 21
203.96
 31
0.0
  0
LINE
  5
1FB
330
2
100
AcDbEntity
  8
画層1
 62
     0
100
AcDbLine
 10
113.3
 20
206.26
 30
0.0
 11
114.76
 21
206.26
 31
0.0
  0
ARC
  5
1FC
330
2
100
AcDbEntity
  8
画層1
 62
     0
100
AcDbCircle
 10
113.3
 20
204.26
 30
0.0
 40
1.0
100
AcDbArc
 50
90.0
 51
180.0
  0
LINE
  5
1FD
330
2
100
AcDbEntity
  8
画層1
 62
     0
100
AcDbLine
 10
112.3
 20
207.56
 30
0.0
 11
112.3
 21
207.26
 31
0.0
  0
LINE
  5
1FE
330
2
100
AcDbEntity
  8
画層1
 62
     0
100
AcDbLine
 10
112.3
 20
216.96
 30
0.0
 11
112.3
 21
216.66
 31
0.0
  0
LINE
  5
1FF
330
2
100
AcDbEntity
  8
画層1
 62
     0
100
AcDbLine
 10
113.3
 20
215.66
 30
0.0
 11
114.76
 21
215.66
 31
0.0
  0
LINE
  5
200
330
2
100
AcDbEntity
  8
画層1
 62
     0
100
AcDbLine
 10
114.76
 20
214.66
 30
0.0
 11
113.3
 21
214.66
 31
0.0
  0
LINE
  5
201
330
2
100
AcDbEntity
  8
画層1
 62
     0
100
AcDbLine
 10
112.3
 20
213.66
 30
0.0
 11
112.3
 21
213.36
 31
0.0
  0
ARC
  5
202
330
2
100
AcDbEntity
  8
画層1
 62
     0
100
AcDbCircle
 10
113.3
 20
216.66
 30
0.0
 40
1.0
100
AcDbArc
 50
180.0
 51
270.0
  0
ARC
  5
203
330
2
100
AcDbEntity
  8
画層1
 62
     0
100
AcDbCircle
 10
113.3
 20
213.66
 30
0.0
 40
1.0
100
AcDbArc
 50
90.0
 51
180.0
  0
CIRCLE
  5
204
330
2
100
AcDbEntity
  8
画層1
 62
     0
100
AcDbCircle
 10
135.8
 20
209.3
 30
0.0
 40
1.75
  0
LINE
  5
205
330
2
100
AcDbEntity
  8
画層1
 62
     0
100
AcDbLine
 10
115.3
 20
228.06
 30
0.0
 11
115.3
 21
221.06
 31
0.0
  0
ARC
  5
206
330
2
100
AcDbEntity
  8
画層1
 62
     0
100
AcDbCircle
 10
113.3
 20
223.06
 30
0.0
 40
1.0
100
AcDbArc
 50
90.0
 51
180.0
  0
LINE
  5
207
330
2
100
AcDbEntity
  8
画層1
 62
     0
100
AcDbLine
 10
112.3
 20
223.06
 30
0.0
 11
112.3
 21
222.76
 31
0.0
  0
LINE
  5
208
330
2
100
AcDbEntity
  8
画層1
 62
     0
100
AcDbLine
 10
112.3
 20
226.36
 30
0.0
 11
112.3
 21
226.06
 31
0.0
  0
LINE
  5
209
330
2
100
AcDbEntity
  8
画層1
 62
     0
100
AcDbLine
 10
113.3
 20
225.06
 30
0.0
 11
114.76
 21
225.06
 31
0.0
  0
LINE
  5
20A
330
2
100
AcDbEntity
  8
画層1
 62
     0
100
AcDbLine
 10
114.76
 20
224.06
 30
0.0
 11
113.3
 21
224.06
 31
0.0
  0
ARC
  5
20B
330
2
100
AcDbEntity
  8
画層1
 62
     0
100
AcDbCircle
 10
113.3
 20
226.06
 30
0.0
 40
1.0
100
AcDbArc
 50
180.0
 51
270.0
  0
LINE
  5
20C
330
2
100
AcDbEntity
  8
画層1
 62
     0
100
AcDbLine
 10
112.3
 20
235.76
 30
0.0
 11
112.3
 21
235.46
 31
0.0
  0
LINE
  5
20D
330
2
100
AcDbEntity
  8
画層1
 62
     0
100
AcDbLine
 10
115.3
 20
237.46
 30
0.0
 11
115.3
 21
230.46
 31
0.0
  0
LINE
  5
20E
330
2
100
AcDbEntity
  8
画層1
 62
     0
100
AcDbLine
 10
113.3
 20
234.46
 30
0.0
 11
114.76
 21
234.46
 31
0.0
  0
LINE
  5
20F
330
2
100
AcDbEntity
  8
画層1
 62
     0
100
AcDbLine
 10
114.76
 20
233.46
 30
0.0
 11
113.3
 21
233.46
 31
0.0
  0
LINE
  5
210
330
2
100
AcDbEntity
  8
画層1
 62
     0
100
AcDbLine
 10
112.3
 20
232.46
 30
0.0
 11
112.3
 21
232.16
 31
0.0
  0
ARC
  5
211
330
2
100
AcDbEntity
  8
画層1
 62
     0
100
AcDbCircle
 10
113.3
 20
232.46
 30
0.0
 40
1.0
100
AcDbArc
 50
90.0
 51
180.0
  0
ARC
  5
212
330
2
100
AcDbEntity
  8
画層1
 62
     0
100
AcDbCircle
 10
113.3
 20
235.46
 30
0.0
 40
1.0
100
AcDbArc
 50
180.0
 51
270.0
  0
CIRCLE
  5
213
330
2
100
AcDbEntity
  8
画層1
 62
     0
100
AcDbCircle
 10
135.8
 20
229.3
 30
0.0
 40
1.75
  0
CIRCLE
  5
214
330
2
100
AcDbEntity
  8
画層1
 62
     0
100
AcDbCircle
 10
135.8
 20
239.3
 30
0.0
 40
1.75
  0
CIRCLE
  5
215
330
2
100
AcDbEntity
  8
画層1
 62
     0
100
AcDbCircle
 10
155.8
 20
219.3
 30
0.0
 40
2.5
  0
CIRCLE
  5
216
330
2
100
AcDbEntity
  8
画層1
 62
     0
100
AcDbCircle
 10
155.8
 20
204.3
 30
0.0
 40
2.5
  0
CIRCLE
  5
217
330
2
100
AcDbEntity
  8
画層1
 62
     0
100
AcDbCircle
 10
155.8
 20
234.3
 30
0.0
 40
2.5
  0
LINE
  5
218
330
2
100
AcDbEntity
  8
画層1
 62
     0
100
AcDbLine
 10
132.8
 20
283.3
 30
0.0
 11
191.8
 21
283.3
 31
0.0
  0
LINE
  5
219
330
2
100
AcDbEntity
  8
画層1
 62
     0
100
AcDbLine
 10
98.3
 20
299.3
 30
0.0
 11
196.3
 21
299.3
 31
0.0
  0
LINE
  5
21A
330
2
100
AcDbEntity
  8
画層1
 62
     0
100
AcDbLine
 10
94.8
 20
261.3
 30
0.0
 11
94.8
 21
295.8
 31
0.0
  0
LINE
  5
21B
330
2
100
AcDbEntity
  8
画層1
 62
     0
100
AcDbLine
 10
116.8
 20
261.3
 30
0.0
 11
94.8
 21
261.3
 31
0.0
  0
LINE
  5
21C
330
2
100
AcDbEntity
  8
画層1
 62
     0
100
AcDbLine
 10
115.8
 20
260.3
 30
0.0
 11
81.3
 21
260.3
 31
0.0
  0
LINE
  5
21D
330
2
100
AcDbEntity
  8
画層1
 62
     0
100
AcDbLine
 10
111.3
 20
254.56
 30
0.0
 11
112.3
 21
254.56
 31
0.0
  0
LINE
  5
21E
330
2
100
AcDbEntity
  8
画層1
 62
     0
100
AcDbLine
 10
108.3
 20
256.26
 30
0.0
 11
115.3
 21
256.26
 31
0.0
  0
LINE
  5
21F
330
2
100
AcDbEntity
  8
画層1
 62
     0
100
AcDbLine
 10
106.4
 20
256.76
 30
0.0
 11
115.8
 21
256.76
 31
0.0
  0
LINE
  5
220
330
2
100
AcDbEntity
  8
画層1
 62
     0
100
AcDbLine
 10
111.3
 20
250.96
 30
0.0
 11
112.3
 21
250.96
 31
0.0
  0
LINE
  5
221
330
2
100
AcDbEntity
  8
画層1
 62
     0
100
AcDbLine
 10
115.3
 20
249.26
 30
0.0
 11
108.3
 21
249.26
 31
0.0
  0
LINE
  5
222
330
2
100
AcDbEntity
  8
画層1
 62
     0
100
AcDbLine
 10
108.3
 20
246.86
 30
0.0
 11
115.3
 21
246.86
 31
0.0
  0
LINE
  5
223
330
2
100
AcDbEntity
  8
画層1
 62
     0
100
AcDbLine
 10
106.4
 20
248.76
 30
0.0
 11
115.8
 21
248.76
 31
0.0
  0
LINE
  5
224
330
2
100
AcDbEntity
  8
画層1
 62
     0
100
AcDbLine
 10
106.4
 20
247.36
 30
0.0
 11
115.8
 21
247.36
 31
0.0
  0
CIRCLE
  5
225
330
2
100
AcDbEntity
  8
画層1
 62
     0
100
AcDbCircle
 10
111.8
 20
252.76
 30
0.0
 40
3.0
  0
LINE
  5
226
330
2
100
AcDbEntity
  8
画層1
 62
     0
100
AcDbLine
 10
111.3
 20
245.16
 30
0.0
 11
112.3
 21
245.16
 31
0.0
  0
LINE
  5
227
330
2
100
AcDbEntity
  8
画層1
 62
     0
100
AcDbLine
 10
111.3
 20
241.56
 30
0.0
 11
112.3
 21
241.56
 31
0.0
  0
ARC
  5
228
330
2
100
AcDbEntity
  8
画層1
 62
     0
100
AcDbCircle
 10
81.3
 20
262.3
 30
0.0
 40
2.0
100
AcDbArc
 50
180.0
 51
270.0
  0
LINE
  5
229
330
2
100
AcDbEntity
  8
画層1
 62
     0
100
AcDbLine
 10
108.3
 20
249.26
 30
0.0
 11
108.3
 21
256.26
 31
0.0
  0
CIRCLE
  5
22A
330
2
100
AcDbEntity
  8
画層1
 62
     0
100
AcDbCircle
 10
102.4
 20
246.96
 30
0.0
 40
3.0
  0
ARC
  5
22B
330
2
100
AcDbEntity
  8
画層1
 62
     0
100
AcDbCircle
 10
103.9
 20
245.46
 30
0.0
 40
1.0
100
AcDbArc
 50
90.0
 51
180.0
  0
ARC
  5
22C
330
2
100
AcDbEntity
  8
画層1
 62
     0
100
AcDbCircle
 10
103.9
 20
248.46
 30
0.0
 40
1.0
100
AcDbArc
 50
180.0
 51
270.0
  0
LINE
  5
22D
330
2
100
AcDbEntity
  8
画層1
 62
     0
100
AcDbLine
 10
105.9
 20
243.46
 30
0.0
 11
98.9
 21
243.46
 31
0.0
  0
LINE
  5
22E
330
2
100
AcDbEntity
  8
画層1
 62
     0
100
AcDbLine
 10
98.9
 20
250.46
 30
0.0
 11
105.9
 21
250.46
 31
0.0
  0
LINE
  5
22F
330
2
100
AcDbEntity
  8
画層1
 62
     0
100
AcDbLine
 10
97.0
 20
242.96
 30
0.0
 11
106.4
 21
242.96
 31
0.0
  0
LINE
  5
230
330
2
100
AcDbEntity
  8
画層1
 62
     0
100
AcDbLine
 10
97.0
 20
250.96
 30
0.0
 11
106.4
 21
250.96
 31
0.0
  0
LINE
  5
231
330
2
100
AcDbEntity
  8
画層1
 62
     0
100
AcDbLine
 10
97.0
 20
241.56
 30
0.0
 11
106.4
 21
241.56
 31
0.0
  0
LINE
  5
232
330
2
100
AcDbEntity
  8
画層1
 62
     0
100
AcDbLine
 10
98.9
 20
243.46
 30
0.0
 11
98.9
 21
250.46
 31
0.0
  0
LINE
  5
233
330
2
100
AcDbEntity
  8
画層1
 62
     0
100
AcDbLine
 10
101.9
 20
245.16
 30
0.0
 11
101.9
 21
245.46
 31
0.0
  0
LINE
  5
234
330
2
100
AcDbEntity
  8
画層1
 62
     0
100
AcDbLine
 10
102.9
 20
245.46
 30
0.0
 11
102.9
 21
245.16
 31
0.0
  0
LINE
  5
235
330
2
100
AcDbEntity
  8
画層1
 62
     0
100
AcDbLine
 10
101.9
 20
245.16
 30
0.0
 11
102.9
 21
245.16
 31
0.0
  0
LINE
  5
236
330
2
100
AcDbEntity
  8
画層1
 62
     0
100
AcDbLine
 10
100.9
 20
246.46
 30
0.0
 11
99.44
 21
246.46
 31
0.0
  0
ARC
  5
237
330
2
100
AcDbEntity
  8
画層1
 62
     0
100
AcDbCircle
 10
100.9
 20
245.46
 30
0.0
 40
1.0
100
AcDbArc
 50
0.0
 51
90.0
  0
LINE
  5
238
330
2
100
AcDbEntity
  8
画層1
 62
     0
100
AcDbLine
 10
102.9
 20
248.76
 30
0.0
 11
102.9
 21
248.46
 31
0.0
  0
LINE
  5
239
330
2
100
AcDbEntity
  8
画層1
 62
     0
100
AcDbLine
 10
101.9
 20
248.46
 30
0.0
 11
101.9
 21
248.76
 31
0.0
  0
LINE
  5
23A
330
2
100
AcDbEntity
  8
画層1
 62
     0
100
AcDbLine
 10
101.9
 20
248.76
 30
0.0
 11
102.9
 21
248.76
 31
0.0
  0
LINE
  5
23B
330
2
100
AcDbEntity
  8
画層1
 62
     0
100
AcDbLine
 10
99.44
 20
247.46
 30
0.0
 11
100.9
 21
247.46
 31
0.0
  0
ARC
  5
23C
330
2
100
AcDbEntity
  8
画層1
 62
     0
100
AcDbCircle
 10
100.9
 20
248.46
 30
0.0
 40
1.0
100
AcDbArc
 50
270.0
 51
0.0
  0
LINE
  5
23D
330
2
100
AcDbEntity
  8
画層1
 62
     0
100
AcDbLine
 10
105.9
 20
250.46
 30
0.0
 11
105.9
 21
243.46
 31
0.0
  0
LINE
  5
23E
330
2
100
AcDbEntity
  8
画層1
 62
     0
100
AcDbLine
 10
105.36
 20
246.46
 30
0.0
 11
103.9
 21
246.46
 31
0.0
  0
LINE
  5
23F
330
2
100
AcDbEntity
  8
画層1
 62
     0
100
AcDbLine
 10
110.3
 20
242.86
 30
0.0
 11
108.84
 21
242.86
 31
0.0
  0
LINE
  5
240
330
2
100
AcDbEntity
  8
画層1
 62
     0
100
AcDbLine
 10
108.84
 20
243.86
 30
0.0
 11
110.3
 21
243.86
 31
0.0
  0
LINE
  5
241
330
2
100
AcDbEntity
  8
画層1
 62
     0
100
AcDbLine
 10
111.3
 20
244.86
 30
0.0
 11
111.3
 21
245.16
 31
0.0
  0
ARC
  5
242
330
2
100
AcDbEntity
  8
画層1
 62
     0
100
AcDbCircle
 10
110.3
 20
241.86
 30
0.0
 40
1.0
100
AcDbArc
 50
0.0
 51
90.0
  0
ARC
  5
243
330
2
100
AcDbEntity
  8
画層1
 62
     0
100
AcDbCircle
 10
110.3
 20
244.86
 30
0.0
 40
1.0
100
AcDbArc
 50
270.0
 51
0.0
  0
LINE
  5
244
330
2
100
AcDbEntity
  8
画層1
 62
     0
100
AcDbLine
 10
111.3
 20
241.56
 30
0.0
 11
111.3
 21
241.86
 31
0.0
  0
LINE
  5
245
330
2
100
AcDbEntity
  8
画層1
 62
     0
100
AcDbLine
 10
103.9
 20
247.46
 30
0.0
 11
105.36
 21
247.46
 31
0.0
  0
LINE
  5
246
330
2
100
AcDbEntity
  8
画層1
 62
     0
100
AcDbLine
 10
111.3
 20
250.96
 30
0.0
 11
111.3
 21
251.26
 31
0.0
  0
LINE
  5
247
330
2
100
AcDbEntity
  8
画層1
 62
     0
100
AcDbLine
 10
110.3
 20
252.26
 30
0.0
 11
108.84
 21
252.26
 31
0.0
  0
ARC
  5
248
330
2
100
AcDbEntity
  8
画層1
 62
     0
100
AcDbCircle
 10
110.3
 20
251.26
 30
0.0
 40
1.0
100
AcDbArc
 50
0.0
 51
90.0
  0
LINE
  5
249
330
2
100
AcDbEntity
  8
画層1
 62
     0
100
AcDbLine
 10
111.3
 20
254.26
 30
0.0
 11
111.3
 21
254.56
 31
0.0
  0
LINE
  5
24A
330
2
100
AcDbEntity
  8
画層1
 62
     0
100
AcDbLine
 10
108.84
 20
253.26
 30
0.0
 11
110.3
 21
253.26
 31
0.0
  0
ARC
  5
24B
330
2
100
AcDbEntity
  8
画層1
 62
     0
100
AcDbCircle
 10
110.3
 20
254.26
 30
0.0
 40
1.0
100
AcDbArc
 50
270.0
 51
0.0
  0
ARC
  5
24C
330
2
100
AcDbEntity
  8
画層1
 62
     0
100
AcDbCircle
 10
84.3
 20
276.8
 30
0.0
 40
1.0
100
AcDbArc
 50
270.0
 51
0.0
  0
ARC
  5
24D
330
2
100
AcDbEntity
  8
画層1
 62
     0
100
AcDbCircle
 10
87.3
 20
276.8
 30
0.0
 40
1.0
100
AcDbArc
 50
180.0
 51
270.0
  0
CIRCLE
  5
24E
330
2
100
AcDbEntity
  8
画層1
 62
     0
100
AcDbCircle
 10
85.8
 20
275.3
 30
0.0
 40
3.0
  0
CIRCLE
  5
24F
330
2
100
AcDbEntity
  8
画層1
 62
     0
100
AcDbCircle
 10
85.8
 20
275.3
 30
0.0
 40
4.0
  0
ARC
  5
250
330
2
100
AcDbEntity
  8
画層1
 62
     0
100
AcDbCircle
 10
87.3
 20
273.8
 30
0.0
 40
1.0
100
AcDbArc
 50
90.0
 51
180.0
  0
LINE
  5
251
330
2
100
AcDbEntity
  8
画層1
 62
     0
100
AcDbLine
 10
86.3
 20
273.8
 30
0.0
 11
86.3
 21
273.5
 31
0.0
  0
LINE
  5
252
330
2
100
AcDbEntity
  8
画層1
 62
     0
100
AcDbLine
 10
85.3
 20
273.5
 30
0.0
 11
85.3
 21
273.8
 31
0.0
  0
LINE
  5
253
330
2
100
AcDbEntity
  8
画層1
 62
     0
100
AcDbLine
 10
85.3
 20
273.5
 30
0.0
 11
86.3
 21
273.5
 31
0.0
  0
ARC
  5
254
330
2
100
AcDbEntity
  8
画層1
 62
     0
100
AcDbCircle
 10
84.3
 20
273.8
 30
0.0
 40
1.0
100
AcDbArc
 50
0.0
 51
90.0
  0
LINE
  5
255
330
2
100
AcDbEntity
  8
画層1
 62
     0
100
AcDbLine
 10
84.0
 20
274.8
 30
0.0
 11
84.0
 21
275.8
 31
0.0
  0
LINE
  5
256
330
2
100
AcDbEntity
  8
画層1
 62
     0
100
AcDbLine
 10
84.3
 20
274.8
 30
0.0
 11
84.0
 21
274.8
 31
0.0
  0
LINE
  5
257
330
2
100
AcDbEntity
  8
画層1
 62
     0
100
AcDbLine
 10
84.0
 20
275.8
 30
0.0
 11
84.3
 21
275.8
 31
0.0
  0
LINE
  5
258
330
2
100
AcDbEntity
  8
画層1
 62
     0
100
AcDbLine
 10
87.6
 20
274.8
 30
0.0
 11
87.6
 21
275.8
 31
0.0
  0
LINE
  5
259
330
2
100
AcDbEntity
  8
画層1
 62
     0
100
AcDbLine
 10
87.3
 20
275.8
 30
0.0
 11
87.6
 21
275.8
 31
0.0
  0
LINE
  5
25A
330
2
100
AcDbEntity
  8
画層1
 62
     0
100
AcDbLine
 10
87.6
 20
274.8
 30
0.0
 11
87.3
 21
274.8
 31
0.0
  0
LINE
  5
25B
330
2
100
AcDbEntity
  8
画層1
 62
     0
100
AcDbLine
 10
85.3
 20
277.1
 30
0.0
 11
86.3
 21
277.1
 31
0.0
  0
LINE
  5
25C
330
2
100
AcDbEntity
  8
画層1
 62
     0
100
AcDbLine
 10
85.3
 20
276.8
 30
0.0
 11
85.3
 21
277.1
 31
0.0
  0
LINE
  5
25D
330
2
100
AcDbEntity
  8
画層1
 62
     0
100
AcDbLine
 10
86.3
 20
277.1
 30
0.0
 11
86.3
 21
276.8
 31
0.0
  0
LINE
  5
25E
330
2
100
AcDbEntity
  8
画層1
 62
     0
100
AcDbLine
 10
115.3
 20
256.26
 30
0.0
 11
115.3
 21
249.26
 31
0.0
  0
LINE
  5
25F
330
2
100
AcDbEntity
  8
画層1
 62
     0
100
AcDbLine
 10
114.76
 20
242.86
 30
0.0
 11
113.3
 21
242.86
 31
0.0
  0
LINE
  5
260
330
2
100
AcDbEntity
  8
画層1
 62
     0
100
AcDbLine
 10
113.3
 20
243.86
 30
0.0
 11
114.76
 21
243.86
 31
0.0
  0
LINE
  5
261
330
2
100
AcDbEntity
  8
画層1
 62
     0
100
AcDbLine
 10
112.3
 20
245.16
 30
0.0
 11
112.3
 21
244.86
 31
0.0
  0
LINE
  5
262
330
2
100
AcDbEntity
  8
画層1
 62
     0
100
AcDbLine
 10
112.3
 20
241.86
 30
0.0
 11
112.3
 21
241.56
 31
0.0
  0
ARC
  5
263
330
2
100
AcDbEntity
  8
画層1
 62
     0
100
AcDbCircle
 10
113.3
 20
241.86
 30
0.0
 40
1.0
100
AcDbArc
 50
90.0
 51
180.0
  0
ARC
  5
264
330
2
100
AcDbEntity
  8
画層1
 62
     0
100
AcDbCircle
 10
113.3
 20
244.86
 30
0.0
 40
1.0
100
AcDbArc
 50
180.0
 51
270.0
  0
LINE
  5
265
330
2
100
AcDbEntity
  8
画層1
 62
     0
100
AcDbLine
 10
112.3
 20
251.26
 30
0.0
 11
112.3
 21
250.96
 31
0.0
  0
LINE
  5
266
330
2
100
AcDbEntity
  8
画層1
 62
     0
100
AcDbLine
 10
114.76
 20
252.26
 30
0.0
 11
113.3
 21
252.26
 31
0.0
  0
ARC
  5
267
330
2
100
AcDbEntity
  8
画層1
 62
     0
100
AcDbCircle
 10
113.3
 20
251.26
 30
0.0
 40
1.0
100
AcDbArc
 50
90.0
 51
180.0
  0
LINE
  5
268
330
2
100
AcDbEntity
  8
画層1
 62
     0
100
AcDbLine
 10
112.3
 20
254.56
 30
0.0
 11
112.3
 21
254.26
 31
0.0
  0
LINE
  5
269
330
2
100
AcDbEntity
  8
画層1
 62
     0
100
AcDbLine
 10
113.3
 20
253.26
 30
0.0
 11
114.76
 21
253.26
 31
0.0
  0
ARC
  5
26A
330
2
100
AcDbEntity
  8
画層1
 62
     0
100
AcDbCircle
 10
113.3
 20
254.26
 30
0.0
 40
1.0
100
AcDbArc
 50
180.0
 51
270.0
  0
CIRCLE
  5
26B
330
2
100
AcDbEntity
  8
画層1
 62
     0
100
AcDbCircle
 10
135.8
 20
249.3
 30
0.0
 40
1.75
  0
ARC
  5
26C
330
2
100
AcDbEntity
  8
画層1
 62
     0
100
AcDbCircle
 10
132.8
 20
280.3
 30
0.0
 40
3.0
100
AcDbArc
 50
90.0
 51
180.0
  0
ARC
  5
26D
330
2
100
AcDbEntity
  8
画層1
 62
     0
100
AcDbCircle
 10
98.3
 20
295.8
 30
0.0
 40
3.5
100
AcDbArc
 50
90.0
 51
180.0
  0
CIRCLE
  5
26E
330
2
100
AcDbEntity
  8
画層1
 62
     0
100
AcDbCircle
 10
155.8
 20
249.3
 30
0.0
 40
2.5
  0
ARC
  5
26F
330
2
100
AcDbEntity
  8
画層1
 62
     0
100
AcDbCircle
 10
191.8
 20
280.3
 30
0.0
 40
3.0
100
AcDbArc
 50
0.0
 51
90.0
  0
ARC
  5
270
330
2
100
AcDbEntity
  8
画層1
 62
     0
100
AcDbCircle
 10
196.3
 20
295.8
 30
0.0
 40
3.5
100
AcDbArc
 50
0.0
 51
90.0
  0
DIMENSION
  5
271
330
2
100
AcDbEntity
  8
画層1
 62
     0
100
AcDbDimension
  2
*D21
 10
206.8
 20
411.3
 30
0.0
 11
171.8
 21
413.18
 31
0.0
 70
    32
  3
STANDARD_WS
100
AcDbAlignedDimension
 13
136.8
 23
459.56
 33
0.0
 14
206.8
 24
424.3
 34
0.0
100
AcDbRotatedDimension
1001
ACAD
1000
DSTYLE
1002
{
1070
    47
1040
0.6
1070
   144
1040
1.0
1070
   146
1040
0.5
1070
   173
1070
     0
1070
   284
1070
     8
1070
   340
1005
27
1070
   341
1005
28
1070
     5
1000
OPEN30
1070
     6
1000
OPEN30
1002
}
  0
LEADER
  5
27E
330
2
100
AcDbEntity
  8
画層1
 62
     0
100
AcDbLeader
  3
STANDARD_WS
 73
     0
 75
     1
 40
5.93
 41
24.49
 76
     3
 10
136.02
 20
449.14
 30
0.0
 10
124.67
 20
411.87
 30
0.0
 10
123.17
 20
411.87
 30
0.0
340
27F
213
-1.19626226462762
223
0.0
233
0.0
1001
ACAD
1000
DSTYLE
1002
{
1070
     6
1000
OPEN30
1070
    47
1040
0.6
1070
    77
1070
     2
1070
   144
1040
2.0
1070
   146
1040
0.5
1070
   147
1040
0.63
1070
   284
1070
     8
1070
   340
1005
27
1070
   341
1005
28
1070
   343
1005
28
1002
}
  0
MTEXT
  5
27F
102
{ACAD_REACTORS
330
27E
102
}
330
2
100
AcDbEntity
  8
画層1
 62
     0
100
AcDbMText
 10
123.74
 20
415.46
 30
0.0
 40
5.0
 41
0.0
 71
     6
 72
     1
  1
6-φ6.5
  7
STYLE1
1001
ACAD
1000
MTEXTBEGIN
1070
    73
1070
     1
1070
    44
1040
1.0
1070
    74
1070
     0
1000
MTEXTEND
1000
MTEXTBEGIN
1070
    73
1070
     1
1070
    44
1040
1.0
1070
    74
1070
     0
1000
MTEXTEND
1000
MTEXTBEGIN
1070
    73
1070
     1
1070
    44
1040
1.0
1070
    74
1070
     0
1000
MTEXTEND
  0
LINE
  5
280
330
2
100
AcDbEntity
  8
画層1
  6
DASHED2
 62
     0
100
AcDbLine
 10
196.8
 20
424.3
 30
0.0
 11
196.8
 21
464.3
 31
0.0
  0
LINE
  5
281
330
2
100
AcDbEntity
  8
画層1
  6
DASHED2
 62
     0
100
AcDbLine
 10
146.8
 20
464.3
 30
0.0
 11
146.8
 21
424.3
 31
0.0
  0
LINE
  5
282
330
2
100
AcDbEntity
  8
画層1
  6
DASHED2
 62
     0
100
AcDbLine
 10
126.8
 20
424.3
 30
0.0
 11
126.8
 21
464.3
 31
0.0
  0
ARC
  5
283
330
2
100
AcDbEntity
  8
画層1
  6
DIVIDE
 62
     0
100
AcDbCircle
 10
106.8
 20
429.3
 30
0.0
 40
5.0
100
AcDbArc
 50
180.0
 51
270.0
  0
MTEXT
  5
284
330
2
100
AcDbEntity
  8
画層1
 62
     0
100
AcDbMText
 10
101.94
 20
406.46
 30
0.0
 40
5.0
 41
0.0
 71
     4
 72
     1
  1
端子穴
  7
STYLE1
1001
ACAD
1000
MTEXTBEGIN
1070
    73
1070
     1
1070
    44
1040
1.0
1070
    74
1070
     0
1000
MTEXTEND
1000
MTEXTBEGIN
1070
    73
1070
     1
1070
    44
1040
1.0
1070
    74
1070
     0
1000
MTEXTEND
1000
MTEXTBEGIN
1070
    73
1070
     1
1070
    44
1040
1.0
1070
    74
1070
     0
1000
MTEXTEND
  0
LINE
  5
285
330
2
100
AcDbEntity
  8
画層1
  6
DASHED2
 62
     0
100
AcDbLine
 10
126.8
 20
464.3
 30
0.0
 11
146.8
 21
464.3
 31
0.0
  0
DIMENSION
  5
286
330
2
100
AcDbEntity
  8
画層1
 62
     0
100
AcDbDimension
  2
*D19
 10
114.8
 20
452.3
 30
0.0
 11
114.8
 21
472.6
 31
0.0
 70
   160
  3
STANDARD_WS
100
AcDbAlignedDimension
 13
131.8
 23
465.3
 33
0.0
 14
144.06
 24
452.3
 34
0.0
 50
90.0
100
AcDbRotatedDimension
1001
ACAD
1000
DSTYLE
1002
{
1070
    47
1040
0.6
1070
   144
1040
1.0
1070
   146
1040
0.5
1070
   173
1070
     0
1070
   284
1070
     8
1070
   340
1005
27
1070
   341
1005
28
1070
     5
1000
OPEN30
1070
     6
1000
OPEN30
1002
}
  0
LINE
  5
294
330
2
100
AcDbEntity
  8
画層1
  6
DIVIDE
 62
     0
100
AcDbLine
 10
101.8
 20
429.3
 30
0.0
 11
101.8
 21
485.3
 31
0.0
  0
LINE
  5
295
330
2
100
AcDbEntity
  8
画層1
 62
     0
100
AcDbLine
 10
87.6
 20
449.8
 30
0.0
 11
87.6
 21
450.8
 31
0.0
  0
LINE
  5
296
330
2
100
AcDbEntity
  8
画層1
 62
     0
100
AcDbLine
 10
84.0
 20
449.8
 30
0.0
 11
84.0
 21
450.8
 31
0.0
  0
CIRCLE
  5
297
330
2
100
AcDbEntity
  8
画層1
 62
     0
100
AcDbCircle
 10
85.8
 20
450.3
 30
0.0
 40
3.0
  0
CIRCLE
  5
298
330
2
100
AcDbEntity
  8
画層1
 62
     0
100
AcDbCircle
 10
85.8
 20
450.3
 30
0.0
 40
4.0
  0
ARC
  5
299
330
2
100
AcDbEntity
  8
画層1
 62
     0
100
AcDbCircle
 10
87.3
 20
448.8
 30
0.0
 40
1.0
100
AcDbArc
 50
90.0
 51
180.0
  0
LINE
  5
29A
330
2
100
AcDbEntity
  8
画層1
 62
     0
100
AcDbLine
 10
86.3
 20
448.8
 30
0.0
 11
86.3
 21
448.5
 31
0.0
  0
LINE
  5
29B
330
2
100
AcDbEntity
  8
画層1
 62
     0
100
AcDbLine
 10
85.3
 20
448.5
 30
0.0
 11
85.3
 21
448.8
 31
0.0
  0
LINE
  5
29C
330
2
100
AcDbEntity
  8
画層1
 62
     0
100
AcDbLine
 10
85.3
 20
448.5
 30
0.0
 11
86.3
 21
448.5
 31
0.0
  0
ARC
  5
29D
330
2
100
AcDbEntity
  8
画層1
 62
     0
100
AcDbCircle
 10
84.3
 20
448.8
 30
0.0
 40
1.0
100
AcDbArc
 50
0.0
 51
90.0
  0
LINE
  5
29E
330
2
100
AcDbEntity
  8
画層1
 62
     0
100
AcDbLine
 10
84.3
 20
449.8
 30
0.0
 11
84.0
 21
449.8
 31
0.0
  0
LINE
  5
29F
330
2
100
AcDbEntity
  8
画層1
 62
     0
100
AcDbLine
 10
87.6
 20
449.8
 30
0.0
 11
87.3
 21
449.8
 31
0.0
  0
ARC
  5
2A0
330
2
100
AcDbEntity
  8
画層1
 62
     0
100
AcDbCircle
 10
87.3
 20
451.8
 30
0.0
 40
1.0
100
AcDbArc
 50
180.0
 51
270.0
  0
LINE
  5
2A1
330
2
100
AcDbEntity
  8
画層1
 62
     0
100
AcDbLine
 10
85.3
 20
452.1
 30
0.0
 11
86.3
 21
452.1
 31
0.0
  0
LINE
  5
2A2
330
2
100
AcDbEntity
  8
画層1
 62
     0
100
AcDbLine
 10
85.3
 20
451.8
 30
0.0
 11
85.3
 21
452.1
 31
0.0
  0
ARC
  5
2A3
330
2
100
AcDbEntity
  8
画層1
 62
     0
100
AcDbCircle
 10
84.3
 20
451.8
 30
0.0
 40
1.0
100
AcDbArc
 50
270.0
 51
0.0
  0
LINE
  5
2A4
330
2
100
AcDbEntity
  8
画層1
 62
     0
100
AcDbLine
 10
84.0
 20
450.8
 30
0.0
 11
84.3
 21
450.8
 31
0.0
  0
LINE
  5
2A5
330
2
100
AcDbEntity
  8
画層1
 62
     0
100
AcDbLine
 10
86.3
 20
452.1
 30
0.0
 11
86.3
 21
451.8
 31
0.0
  0
LINE
  5
2A6
330
2
100
AcDbEntity
  8
画層1
 62
     0
100
AcDbLine
 10
87.3
 20
450.8
 30
0.0
 11
87.6
 21
450.8
 31
0.0
  0
CIRCLE
  5
2A7
330
2
100
AcDbEntity
  8
画層1
  6
DASHED2
 62
     0
100
AcDbCircle
 10
136.8
 20
452.3
 30
0.0
 40
3.25
  0
CIRCLE
  5
2A8
330
2
100
AcDbEntity
  8
画層1
  6
DASHED2
 62
     0
100
AcDbCircle
 10
131.8
 20
455.3
 30
0.0
 40
4.5
  0
LINE
  5
2A9
330
2
100
AcDbEntity
  8
画層1
 62
     0
100
AcDbLine
 10
124.8
 20
455.3
 30
0.0
 11
138.8
 21
455.3
 31
0.0
  0
ARC
  5
2AA
330
2
100
AcDbEntity
  8
画層1
  6
DIVIDE
 62
     0
100
AcDbCircle
 10
106.8
 20
485.3
 30
0.0
 40
5.0
100
AcDbArc
 50
90.0
 51
180.0
  0
MTEXT
  5
2AB
330
2
100
AcDbEntity
  8
画層1
 62
     0
100
AcDbMText
 10
150.16
 20
454.0
 30
0.0
 40
5.0
 41
7.0
 71
     1
 72
     5
  1
Ｒ
  7
STYLE1
1001
ACAD
1000
MTEXTBEGIN
1070
    73
1070
     1
1070
    44
1040
1.0
1070
    74
1070
     0
1000
MTEXTEND
1000
MTEXTBEGIN
1070
    73
1070
     1
1070
    44
1040
1.0
1070
    74
1070
     0
1000
MTEXTEND
1000
MTEXTBEGIN
1070
    73
1070
     1
1070
    44
1040
1.0
1070
    74
1070
     0
1000
MTEXTEND
  0
DIMENSION
  5
2AC
330
2
100
AcDbEntity
  8
画層1
 62
     0
100
AcDbDimension
  2
*D17
 10
362.8
 20
465.3
 30
0.0
 11
360.92
 21
265.3
 31
0.0
 70
    32
  3
STANDARD_WS
100
AcDbAlignedDimension
 13
334.3
 23
65.3
 33
0.0
 14
334.3
 24
465.3
 34
0.0
 50
90.0
100
AcDbRotatedDimension
1001
ACAD
1000
DSTYLE
1002
{
1070
    47
1040
0.6
1070
   144
1040
1.0
1070
   146
1040
0.5
1070
   173
1070
     0
1070
   284
1070
     8
1070
   340
1005
27
1070
   341
1005
28
1070
     5
1000
OPEN30
1070
     6
1000
OPEN30
1002
}
  0
DIMENSION
  5
2B9
330
2
100
AcDbEntity
  8
画層1
 62
     0
100
AcDbDimension
  2
*D16
 10
348.8
 20
75.3
 30
0.0
 11
346.92
 21
265.3
 31
0.0
 70
    32
  3
STANDARD_WS
100
AcDbAlignedDimension
 13
273.3
 23
455.3
 33
0.0
 14
273.3
 24
75.3
 34
0.0
 50
90.0
100
AcDbRotatedDimension
1001
ACAD
1000
DSTYLE
1002
{
1070
    47
1040
0.6
1070
   144
1040
1.0
1070
   146
1040
0.5
1070
   173
1070
     0
1070
   284
1070
     8
1070
   340
1005
27
1070
   341
1005
28
1070
     5
1000
OPEN30
1070
     6
1000
OPEN30
1002
}
  0
LINE
  5
2C6
330
2
100
AcDbEntity
  8
画層1
  6
DASHED2
 62
     0
100
AcDbLine
 10
668.2
 20
66.8
 30
0.0
 11
668.2
 21
463.8
 31
0.0
  0
LINE
  5
2C7
330
2
100
AcDbEntity
  8
画層1
 62
     0
100
AcDbLine
 10
436.9
 20
463.8
 30
0.0
 11
436.9
 21
66.8
 31
0.0
  0
LINE
  5
2C8
330
2
100
AcDbEntity
  8
画層1
 62
     0
100
AcDbLine
 10
435.3
 20
66.3
 30
0.0
 11
435.3
 21
464.3
 31
0.0
  0
LINE
  5
2C9
330
2
100
AcDbEntity
  8
画層1
 62
     0
100
AcDbLine
 10
434.3
 20
465.3
 30
0.0
 11
434.3
 21
65.3
 31
0.0
  0
LINE
  5
2CA
330
2
100
AcDbEntity
  8
画層1
 62
     0
100
AcDbLine
 10
334.3
 20
465.3
 30
0.0
 11
334.3
 21
65.3
 31
0.0
  0
LINE
  5
2CB
330
2
100
AcDbEntity
  8
画層1
 62
     0
100
AcDbLine
 10
435.3
 20
66.8
 30
0.0
 11
669.8
 21
66.8
 31
0.0
  0
DIMENSION
  5
2CC
330
2
100
AcDbEntity
  8
画層1
 62
     0
100
AcDbDimension
  2
*D18
 10
286.3
 20
27.3
 30
0.0
 11
297.22
 21
29.34
 31
0.0
 70
    32
  3
STANDARD_WS
100
AcDbAlignedDimension
 13
277.3
 23
66.8
 33
0.0
 14
286.3
 24
66.8
 34
0.0
100
AcDbRotatedDimension
1001
ACAD
1000
DSTYLE
1002
{
1070
     3
1000
2-<>キリカキ
1070
    47
1040
0.6
1070
   144
1040
1.0
1070
   146
1040
0.5
1070
   173
1070
     0
1070
   284
1070
     8
1070
   340
1005
27
1070
   341
1005
28
1070
     5
1000
OPEN30
1070
     6
1000
OPEN30
1002
}
  0
LINE
  5
2DA
330
2
100
AcDbEntity
  8
画層1
  6
DIVIDE
 62
     0
100
AcDbLine
 10
311.8
 20
45.3
 30
0.0
 11
311.8
 21
101.3
 31
0.0
  0
ARC
  5
2DB
330
2
100
AcDbEntity
  8
画層1
  6
DIVIDE
 62
     0
100
AcDbCircle
 10
306.8
 20
45.3
 30
0.0
 40
5.0
100
AcDbArc
 50
270.0
 51
0.0
  0
LINE
  5
2DC
330
2
100
AcDbEntity
  8
画層1
 62
     0
100
AcDbLine
 10
271.8
 20
78.42
 30
0.0
 11
281.8
 21
78.42
 31
0.0
  0
CIRCLE
  5
2DD
330
2
100
AcDbEntity
  8
画層1
  6
DASHED2
 62
     0
100
AcDbCircle
 10
276.8
 20
78.3
 30
0.0
 40
3.25
  0
LINE
  5
2DE
330
2
100
AcDbEntity
  8
画層1
  6
DASHED2
 62
     0
100
AcDbLine
 10
266.8
 20
66.3
 30
0.0
 11
286.8
 21
66.3
 31
0.0
  0
LINE
  5
2DF
330
2
100
AcDbEntity
  8
画層1
  6
DASHED2
 62
     0
100
AcDbLine
 10
216.8
 20
66.3
 30
0.0
 11
216.8
 21
106.3
 31
0.0
  0
LINE
  5
2E0
330
2
100
AcDbEntity
  8
画層1
  6
DASHED2
 62
     0
100
AcDbLine
 10
266.8
 20
106.3
 30
0.0
 11
266.8
 21
66.3
 31
0.0
  0
MTEXT
  5
2E1
330
2
100
AcDbEntity
  8
画層1
 62
     0
100
AcDbMText
 10
220.16
 20
80.62
 30
0.0
 40
5.0
 41
7.0
 71
     1
 72
     5
  1
Ｖ
  7
STYLE1
1001
ACAD
1000
MTEXTBEGIN
1070
    73
1070
     1
1070
    44
1040
1.0
1070
    74
1070
     0
1000
MTEXTEND
1000
MTEXTBEGIN
1070
    73
1070
     1
1070
    44
1040
1.0
1070
    74
1070
     0
1000
MTEXTEND
1000
MTEXTBEGIN
1070
    73
1070
     1
1070
    44
1040
1.0
1070
    74
1070
     0
1000
MTEXTEND
  0
MTEXT
  5
2E2
330
2
100
AcDbEntity
  8
画層1
 62
     0
100
AcDbMText
 10
258.16
 20
80.62
 30
0.0
 40
5.0
 41
7.0
 71
     1
 72
     5
  1
Ｗ
  7
STYLE1
1001
ACAD
1000
MTEXTBEGIN
1070
    73
1070
     1
1070
    44
1040
1.0
1070
    74
1070
     0
1000
MTEXTEND
1000
MTEXTBEGIN
1070
    73
1070
     1
1070
    44
1040
1.0
1070
    74
1070
     0
1000
MTEXTEND
1000
MTEXTBEGIN
1070
    73
1070
     1
1070
    44
1040
1.0
1070
    74
1070
     0
1000
MTEXTEND
  0
ARC
  5
2E3
330
2
100
AcDbEntity
  8
画層1
  6
DIVIDE
 62
     0
100
AcDbCircle
 10
306.8
 20
101.3
 30
0.0
 40
5.0
100
AcDbArc
 50
0.0
 51
90.0
  0
LINE
  5
2E4
330
2
100
AcDbEntity
  8
画層1
  6
DASHED2
 62
     0
100
AcDbLine
 10
286.8
 20
66.3
 30
0.0
 11
286.8
 21
106.3
 31
0.0
  0
LINE
  5
2E5
330
2
100
AcDbEntity
  8
画層1
 62
     0
100
AcDbLine
 10
276.8
 20
83.42
 30
0.0
 11
276.8
 21
73.18
 31
0.0
  0
ARC
  5
2E6
330
2
100
AcDbEntity
  8
画層1
  6
DASHED2
 62
     0
100
AcDbCircle
 10
281.8
 20
75.3
 30
0.0
 40
4.5
100
AcDbArc
 50
0.0
 51
180.0
  0
LINE
  5
2E7
330
2
100
AcDbEntity
  8
画層1
 62
     0
100
AcDbLine
 10
281.8
 20
82.3
 30
0.0
 11
281.8
 21
62.8
 31
0.0
  0
LINE
  5
2E8
330
2
100
AcDbEntity
  8
画層1
  6
DASHED2
 62
     0
100
AcDbLine
 10
286.3
 20
75.3
 30
0.0
 11
286.3
 21
66.8
 31
0.0
  0
LINE
  5
2E9
330
2
100
AcDbEntity
  8
画層1
  6
DASHED2
 62
     0
100
AcDbLine
 10
277.3
 20
75.3
 30
0.0
 11
277.3
 21
66.8
 31
0.0
  0
ARC
  5
2EA
330
2
100
AcDbEntity
  8
画層1
 62
     0
100
AcDbCircle
 10
326.3
 20
78.8
 30
0.0
 40
1.0
100
AcDbArc
 50
0.0
 51
90.0
  0
ARC
  5
2EB
330
2
100
AcDbEntity
  8
画層1
 62
     0
100
AcDbCircle
 10
329.3
 20
78.8
 30
0.0
 40
1.0
100
AcDbArc
 50
90.0
 51
180.0
  0
CIRCLE
  5
2EC
330
2
100
AcDbEntity
  8
画層1
 62
     0
100
AcDbCircle
 10
327.8
 20
80.3
 30
0.0
 40
3.0
  0
CIRCLE
  5
2ED
330
2
100
AcDbEntity
  8
画層1
 62
     0
100
AcDbCircle
 10
327.8
 20
80.3
 30
0.0
 40
4.0
  0
LINE
  5
2EE
330
2
100
AcDbEntity
  8
画層1
 62
     0
100
AcDbLine
 10
331.26
 20
78.3
 30
0.0
 11
334.3
 21
78.3
 31
0.0
  0
LINE
  5
2EF
330
2
100
AcDbEntity
  8
画層1
 62
     0
100
AcDbLine
 10
328.3
 20
78.8
 30
0.0
 11
328.3
 21
78.5
 31
0.0
  0
LINE
  5
2F0
330
2
100
AcDbEntity
  8
画層1
 62
     0
100
AcDbLine
 10
327.3
 20
78.5
 30
0.0
 11
327.3
 21
78.8
 31
0.0
  0
LINE
  5
2F1
330
2
100
AcDbEntity
  8
画層1
 62
     0
100
AcDbLine
 10
327.3
 20
78.5
 30
0.0
 11
328.3
 21
78.5
 31
0.0
  0
LINE
  5
2F2
330
2
100
AcDbEntity
  8
画層1
 62
     0
100
AcDbLine
 10
331.26
 20
82.3
 30
0.0
 11
334.3
 21
82.3
 31
0.0
  0
ARC
  5
2F3
330
2
100
AcDbEntity
  8
画層1
 62
     0
100
AcDbCircle
 10
329.3
 20
81.8
 30
0.0
 40
1.0
100
AcDbArc
 50
180.0
 51
270.0
  0
LINE
  5
2F4
330
2
100
AcDbEntity
  8
画層1
 62
     0
100
AcDbLine
 10
327.3
 20
82.1
 30
0.0
 11
328.3
 21
82.1
 31
0.0
  0
LINE
  5
2F5
330
2
100
AcDbEntity
  8
画層1
 62
     0
100
AcDbLine
 10
327.3
 20
81.8
 30
0.0
 11
327.3
 21
82.1
 31
0.0
  0
ARC
  5
2F6
330
2
100
AcDbEntity
  8
画層1
 62
     0
100
AcDbCircle
 10
326.3
 20
81.8
 30
0.0
 40
1.0
100
AcDbArc
 50
270.0
 51
0.0
  0
LINE
  5
2F7
330
2
100
AcDbEntity
  8
画層1
 62
     0
100
AcDbLine
 10
326.0
 20
79.8
 30
0.0
 11
326.0
 21
80.8
 31
0.0
  0
LINE
  5
2F8
330
2
100
AcDbEntity
  8
画層1
 62
     0
100
AcDbLine
 10
326.3
 20
79.8
 30
0.0
 11
326.0
 21
79.8
 31
0.0
  0
LINE
  5
2F9
330
2
100
AcDbEntity
  8
画層1
 62
     0
100
AcDbLine
 10
326.0
 20
80.8
 30
0.0
 11
326.3
 21
80.8
 31
0.0
  0
LINE
  5
2FA
330
2
100
AcDbEntity
  8
画層1
 62
     0
100
AcDbLine
 10
328.3
 20
82.1
 30
0.0
 11
328.3
 21
81.8
 31
0.0
  0
LINE
  5
2FB
330
2
100
AcDbEntity
  8
画層1
 62
     0
100
AcDbLine
 10
329.6
 20
79.8
 30
0.0
 11
329.6
 21
80.8
 31
0.0
  0
LINE
  5
2FC
330
2
100
AcDbEntity
  8
画層1
 62
     0
100
AcDbLine
 10
329.3
 20
80.8
 30
0.0
 11
329.6
 21
80.8
 31
0.0
  0
LINE
  5
2FD
330
2
100
AcDbEntity
  8
画層1
 62
     0
100
AcDbLine
 10
329.6
 20
79.8
 30
0.0
 11
329.3
 21
79.8
 31
0.0
  0
LINE
  5
2FE
330
2
100
AcDbEntity
  8
画層1
 62
     0
100
AcDbLine
 10
440.3
 20
79.6
 30
0.0
 11
439.5
 21
78.8
 31
0.0
  0
LINE
  5
2FF
330
2
100
AcDbEntity
  8
画層1
 62
     0
100
AcDbLine
 10
439.5
 20
81.8
 30
0.0
 11
440.3
 21
81.0
 31
0.0
  0
LINE
  5
300
330
2
100
AcDbEntity
  8
画層1
 62
     0
100
AcDbLine
 10
440.3
 20
79.6
 30
0.0
 11
436.9
 21
79.6
 31
0.0
  0
LINE
  5
301
330
2
100
AcDbEntity
  8
画層1
 62
     0
100
AcDbLine
 10
436.9
 20
81.0
 30
0.0
 11
440.3
 21
81.0
 31
0.0
  0
LINE
  5
302
330
2
100
AcDbEntity
  8
画層1
 62
     0
100
AcDbLine
 10
452.3
 20
66.3
 30
0.0
 11
435.3
 21
66.3
 31
0.0
  0
LINE
  5
303
330
2
100
AcDbEntity
  8
画層1
 62
     0
100
AcDbLine
 10
434.3
 20
65.3
 30
0.0
 11
452.3
 21
65.3
 31
0.0
  0
LINE
  5
304
330
2
100
AcDbEntity
  8
画層1
 62
     0
100
AcDbLine
 10
439.5
 20
81.8
 30
0.0
 11
439.5
 21
78.8
 31
0.0
  0
LINE
  5
305
330
2
100
AcDbEntity
  8
画層1
 62
     0
100
AcDbLine
 10
434.2
 20
84.1
 30
0.0
 11
434.2
 21
76.5
 31
0.0
  0
LINE
  5
306
330
2
100
AcDbEntity
  8
画層1
 62
     0
100
AcDbLine
 10
432.8
 20
81.9
 30
0.0
 11
432.8
 21
78.7
 31
0.0
  0
LINE
  5
307
330
2
100
AcDbEntity
  8
画層1
 62
     0
100
AcDbLine
 10
434.2
 20
76.5
 30
0.0
 11
434.3
 21
76.5
 31
0.0
  0
LINE
  5
308
330
2
100
AcDbEntity
  8
画層1
 62
     0
100
AcDbLine
 10
433.8
 20
77.7
 30
0.0
 11
434.2
 21
77.7
 31
0.0
  0
ARC
  5
309
330
2
100
AcDbEntity
  8
画層1
 62
     0
100
AcDbCircle
 10
433.8
 20
78.7
 30
0.0
 40
1.0
100
AcDbArc
 50
180.0
 51
270.0
  0
LINE
  5
30A
330
2
100
AcDbEntity
  8
画層1
 62
     0
100
AcDbLine
 10
439.5
 20
78.8
 30
0.0
 11
436.9
 21
78.8
 31
0.0
  0
LINE
  5
30B
330
2
100
AcDbEntity
  8
画層1
 62
     0
100
AcDbLine
 10
434.3
 20
84.1
 30
0.0
 11
434.2
 21
84.1
 31
0.0
  0
LINE
  5
30C
330
2
100
AcDbEntity
  8
画層1
 62
     0
100
AcDbLine
 10
434.2
 20
82.9
 30
0.0
 11
433.8
 21
82.9
 31
0.0
  0
LINE
  5
30D
330
2
100
AcDbEntity
  8
画層1
 62
     0
100
AcDbLine
 10
433.4
 20
79.9
 30
0.0
 11
433.4
 21
80.7
 31
0.0
  0
LINE
  5
30E
330
2
100
AcDbEntity
  8
画層1
 62
     0
100
AcDbLine
 10
433.4
 20
80.7
 30
0.0
 11
432.8
 21
80.7
 31
0.0
  0
LINE
  5
30F
330
2
100
AcDbEntity
  8
画層1
 62
     0
100
AcDbLine
 10
432.8
 20
79.9
 30
0.0
 11
433.4
 21
79.9
 31
0.0
  0
ARC
  5
310
330
2
100
AcDbEntity
  8
画層1
 62
     0
100
AcDbCircle
 10
433.8
 20
81.9
 30
0.0
 40
1.0
100
AcDbArc
 50
90.0
 51
180.0
  0
LINE
  5
311
330
2
100
AcDbEntity
  8
画層1
 62
     0
100
AcDbLine
 10
436.9
 20
81.8
 30
0.0
 11
439.5
 21
81.8
 31
0.0
  0
LINE
  5
312
330
2
100
AcDbEntity
  8
画層1
 62
     0
100
AcDbLine
 10
452.3
 20
65.3
 30
0.0
 11
452.3
 21
66.3
 31
0.0
  0
LINE
  5
313
330
2
100
AcDbEntity
  8
画層1
 62
     0
100
AcDbLine
 10
440.3
 20
81.0
 30
0.0
 11
440.3
 21
79.6
 31
0.0
  0
DIMENSION
  5
314
330
2
100
AcDbEntity
  8
画層1
 62
     0
100
AcDbDimension
  2
*D23
 10
514.8
 20
53.3
 30
0.0
 11
592.3
 21
55.18
 31
0.0
 70
    32
  3
STANDARD_WS
100
AcDbAlignedDimension
 13
669.8
 23
66.8
 33
0.0
 14
514.8
 24
66.3
 34
0.0
100
AcDbRotatedDimension
1001
ACAD
1000
DSTYLE
1002
{
1070
    47
1040
0.6
1070
   144
1040
1.0
1070
   146
1040
0.5
1070
   173
1070
     0
1070
   284
1070
     8
1070
   340
1005
27
1070
   341
1005
28
1070
     5
1000
OPEN30
1070
     6
1000
OPEN30
1002
}
  0
LINE
  5
321
330
2
100
AcDbEntity
  8
画層1
  6
DASHED2
 62
     0
100
AcDbLine
 10
516.8
 20
66.8
 30
0.0
 11
516.8
 21
106.3
 31
0.0
  0
LINE
  5
322
330
2
100
AcDbEntity
  8
画層1
  6
DASHED2
 62
     0
100
AcDbLine
 10
514.8
 20
106.3
 30
0.0
 11
514.8
 21
66.8
 31
0.0
  0
LINE
  5
323
330
2
100
AcDbEntity
  8
画層1
 62
     0
100
AcDbLine
 10
516.8
 20
66.3
 30
0.0
 11
516.8
 21
66.8
 31
0.0
  0
LINE
  5
324
330
2
100
AcDbEntity
  8
画層1
 62
     0
100
AcDbLine
 10
514.8
 20
66.3
 30
0.0
 11
516.8
 21
66.3
 31
0.0
  0
LINE
  5
325
330
2
100
AcDbEntity
  8
画層1
 62
     0
100
AcDbLine
 10
514.8
 20
66.8
 30
0.0
 11
514.8
 21
66.3
 31
0.0
  0
LINE
  5
326
330
2
100
AcDbEntity
  8
画層1
  6
CENTER
 62
     0
100
AcDbLine
 10
511.2
 20
78.3
 30
0.0
 11
520.4
 21
78.3
 31
0.0
  0
DIMENSION
  5
327
330
2
100
AcDbEntity
  8
画層1
 62
     0
100
AcDbDimension
  2
*D26
 10
496.8
 20
465.3
 30
0.0
 11
494.92
 21
477.8
 31
0.0
 70
    32
  3
STANDARD_WS
100
AcDbAlignedDimension
 13
510.8
 23
490.3
 33
0.0
 14
452.3
 24
465.3
 34
0.0
 50
90.0
100
AcDbRotatedDimension
1001
ACAD
1000
DSTYLE
1002
{
1070
    47
1040
0.6
1070
   144
1040
1.0
1070
   146
1040
0.5
1070
   173
1070
     0
1070
   284
1070
     8
1070
   340
1005
27
1070
   341
1005
28
1070
     5
1000
OPEN30
1070
     6
1000
OPEN30
1002
}
  0
DIMENSION
  5
334
330
2
100
AcDbEntity
  8
画層1
 62
     0
100
AcDbDimension
  2
*D25
 10
432.8
 20
503.3
 30
0.0
 11
551.3
 21
505.18
 31
0.0
 70
    32
  3
STANDARD_WS
100
AcDbAlignedDimension
 13
669.8
 23
463.8
 33
0.0
 14
432.8
 24
451.9
 34
0.0
100
AcDbRotatedDimension
1001
ACAD
1000
DSTYLE
1002
{
1070
    47
1040
0.6
1070
   144
1040
1.0
1070
   146
1040
0.5
1070
   173
1070
     0
1070
   284
1070
     8
1070
   340
1005
27
1070
   341
1005
28
1070
     5
1000
OPEN30
1070
     6
1000
OPEN30
1002
}
  0
LINE
  5
341
330
2
100
AcDbEntity
  8
画層1
  6
CENTER
 62
     0
100
AcDbLine
 10
428.8
 20
265.3
 30
0.0
 11
673.8
 21
265.3
 31
0.0
  0
LINE
  5
342
330
2
100
AcDbEntity
  8
画層1
 62
     0
100
AcDbLine
 10
669.8
 20
463.8
 30
0.0
 11
435.3
 21
463.8
 31
0.0
  0
ARC
  5
343
330
2
100
AcDbEntity
  8
画層1
 62
     0
100
AcDbCircle
 10
326.3
 20
263.8
 30
0.0
 40
1.0
100
AcDbArc
 50
0.0
 51
90.0
  0
ARC
  5
344
330
2
100
AcDbEntity
  8
画層1
 62
     0
100
AcDbCircle
 10
329.3
 20
263.8
 30
0.0
 40
1.0
100
AcDbArc
 50
90.0
 51
180.0
  0
CIRCLE
  5
345
330
2
100
AcDbEntity
  8
画層1
 62
     0
100
AcDbCircle
 10
327.8
 20
265.3
 30
0.0
 40
3.0
  0
CIRCLE
  5
346
330
2
100
AcDbEntity
  8
画層1
 62
     0
100
AcDbCircle
 10
327.8
 20
265.3
 30
0.0
 40
4.0
  0
LINE
  5
347
330
2
100
AcDbEntity
  8
画層1
 62
     0
100
AcDbLine
 10
331.26
 20
263.3
 30
0.0
 11
334.3
 21
263.3
 31
0.0
  0
LINE
  5
348
330
2
100
AcDbEntity
  8
画層1
 62
     0
100
AcDbLine
 10
328.3
 20
263.8
 30
0.0
 11
328.3
 21
263.5
 31
0.0
  0
LINE
  5
349
330
2
100
AcDbEntity
  8
画層1
 62
     0
100
AcDbLine
 10
327.3
 20
263.5
 30
0.0
 11
327.3
 21
263.8
 31
0.0
  0
LINE
  5
34A
330
2
100
AcDbEntity
  8
画層1
 62
     0
100
AcDbLine
 10
327.3
 20
263.5
 30
0.0
 11
328.3
 21
263.5
 31
0.0
  0
LINE
  5
34B
330
2
100
AcDbEntity
  8
画層1
 62
     0
100
AcDbLine
 10
331.26
 20
267.3
 30
0.0
 11
334.3
 21
267.3
 31
0.0
  0
ARC
  5
34C
330
2
100
AcDbEntity
  8
画層1
 62
     0
100
AcDbCircle
 10
329.3
 20
266.8
 30
0.0
 40
1.0
100
AcDbArc
 50
180.0
 51
270.0
  0
LINE
  5
34D
330
2
100
AcDbEntity
  8
画層1
 62
     0
100
AcDbLine
 10
327.3
 20
267.1
 30
0.0
 11
328.3
 21
267.1
 31
0.0
  0
LINE
  5
34E
330
2
100
AcDbEntity
  8
画層1
 62
     0
100
AcDbLine
 10
327.3
 20
266.8
 30
0.0
 11
327.3
 21
267.1
 31
0.0
  0
ARC
  5
34F
330
2
100
AcDbEntity
  8
画層1
 62
     0
100
AcDbCircle
 10
326.3
 20
266.8
 30
0.0
 40
1.0
100
AcDbArc
 50
270.0
 51
0.0
  0
LINE
  5
350
330
2
100
AcDbEntity
  8
画層1
 62
     0
100
AcDbLine
 10
326.0
 20
264.8
 30
0.0
 11
326.0
 21
265.8
 31
0.0
  0
LINE
  5
351
330
2
100
AcDbEntity
  8
画層1
 62
     0
100
AcDbLine
 10
326.3
 20
264.8
 30
0.0
 11
326.0
 21
264.8
 31
0.0
  0
LINE
  5
352
330
2
100
AcDbEntity
  8
画層1
 62
     0
100
AcDbLine
 10
326.0
 20
265.8
 30
0.0
 11
326.3
 21
265.8
 31
0.0
  0
LINE
  5
353
330
2
100
AcDbEntity
  8
画層1
 62
     0
100
AcDbLine
 10
328.3
 20
267.1
 30
0.0
 11
328.3
 21
266.8
 31
0.0
  0
LINE
  5
354
330
2
100
AcDbEntity
  8
画層1
 62
     0
100
AcDbLine
 10
329.6
 20
264.8
 30
0.0
 11
329.6
 21
265.8
 31
0.0
  0
LINE
  5
355
330
2
100
AcDbEntity
  8
画層1
 62
     0
100
AcDbLine
 10
329.3
 20
265.8
 30
0.0
 11
329.6
 21
265.8
 31
0.0
  0
LINE
  5
356
330
2
100
AcDbEntity
  8
画層1
 62
     0
100
AcDbLine
 10
329.6
 20
264.8
 30
0.0
 11
329.3
 21
264.8
 31
0.0
  0
LINE
  5
357
330
2
100
AcDbEntity
  8
画層1
 62
     0
100
AcDbLine
 10
440.3
 20
264.6
 30
0.0
 11
439.5
 21
263.8
 31
0.0
  0
LINE
  5
358
330
2
100
AcDbEntity
  8
画層1
 62
     0
100
AcDbLine
 10
439.5
 20
266.8
 30
0.0
 11
440.3
 21
266.0
 31
0.0
  0
LINE
  5
359
330
2
100
AcDbEntity
  8
画層1
 62
     0
100
AcDbLine
 10
440.3
 20
264.6
 30
0.0
 11
436.9
 21
264.6
 31
0.0
  0
LINE
  5
35A
330
2
100
AcDbEntity
  8
画層1
 62
     0
100
AcDbLine
 10
436.9
 20
266.0
 30
0.0
 11
440.3
 21
266.0
 31
0.0
  0
LINE
  5
35B
330
2
100
AcDbEntity
  8
画層1
 62
     0
100
AcDbLine
 10
439.5
 20
266.8
 30
0.0
 11
439.5
 21
263.8
 31
0.0
  0
LINE
  5
35C
330
2
100
AcDbEntity
  8
画層1
 62
     0
100
AcDbLine
 10
434.2
 20
269.1
 30
0.0
 11
434.2
 21
261.5
 31
0.0
  0
LINE
  5
35D
330
2
100
AcDbEntity
  8
画層1
 62
     0
100
AcDbLine
 10
432.8
 20
266.9
 30
0.0
 11
432.8
 21
263.7
 31
0.0
  0
LINE
  5
35E
330
2
100
AcDbEntity
  8
画層1
 62
     0
100
AcDbLine
 10
434.2
 20
261.5
 30
0.0
 11
434.3
 21
261.5
 31
0.0
  0
LINE
  5
35F
330
2
100
AcDbEntity
  8
画層1
 62
     0
100
AcDbLine
 10
433.8
 20
262.7
 30
0.0
 11
434.2
 21
262.7
 31
0.0
  0
ARC
  5
360
330
2
100
AcDbEntity
  8
画層1
 62
     0
100
AcDbCircle
 10
433.8
 20
263.7
 30
0.0
 40
1.0
100
AcDbArc
 50
180.0
 51
270.0
  0
LINE
  5
361
330
2
100
AcDbEntity
  8
画層1
 62
     0
100
AcDbLine
 10
439.5
 20
263.8
 30
0.0
 11
436.9
 21
263.8
 31
0.0
  0
LINE
  5
362
330
2
100
AcDbEntity
  8
画層1
 62
     0
100
AcDbLine
 10
434.3
 20
269.1
 30
0.0
 11
434.2
 21
269.1
 31
0.0
  0
LINE
  5
363
330
2
100
AcDbEntity
  8
画層1
 62
     0
100
AcDbLine
 10
434.2
 20
267.9
 30
0.0
 11
433.8
 21
267.9
 31
0.0
  0
LINE
  5
364
330
2
100
AcDbEntity
  8
画層1
 62
     0
100
AcDbLine
 10
433.4
 20
264.9
 30
0.0
 11
433.4
 21
265.7
 31
0.0
  0
LINE
  5
365
330
2
100
AcDbEntity
  8
画層1
 62
     0
100
AcDbLine
 10
433.4
 20
265.7
 30
0.0
 11
432.8
 21
265.7
 31
0.0
  0
LINE
  5
366
330
2
100
AcDbEntity
  8
画層1
 62
     0
100
AcDbLine
 10
432.8
 20
264.9
 30
0.0
 11
433.4
 21
264.9
 31
0.0
  0
ARC
  5
367
330
2
100
AcDbEntity
  8
画層1
 62
     0
100
AcDbCircle
 10
433.8
 20
266.9
 30
0.0
 40
1.0
100
AcDbArc
 50
90.0
 51
180.0
  0
LINE
  5
368
330
2
100
AcDbEntity
  8
画層1
 62
     0
100
AcDbLine
 10
436.9
 20
266.8
 30
0.0
 11
439.5
 21
266.8
 31
0.0
  0
LINE
  5
369
330
2
100
AcDbEntity
  8
画層1
 62
     0
100
AcDbLine
 10
440.3
 20
266.0
 30
0.0
 11
440.3
 21
264.6
 31
0.0
  0
LEADER
  5
36A
330
2
100
AcDbEntity
  8
画層1
 62
     0
100
AcDbLeader
  3
STANDARD_WS
 73
     0
 74
     0
 75
     1
 40
5.93
 41
17.32
 76
     3
 10
285.32
 20
458.1
 30
0.0
 10
344.43
 20
503.87
 30
0.0
 10
345.93
 20
503.87
 30
0.0
340
36B
1001
ACAD
1000
DSTYLE
1002
{
1070
     6
1000
OPEN30
1070
    47
1040
0.6
1070
    77
1070
     2
1070
   144
1040
2.0
1070
   146
1040
0.5
1070
   147
1040
0.63
1070
   284
1070
     8
1070
   340
1005
27
1070
   341
1005
28
1070
   343
1005
28
1002
}
  0
MTEXT
  5
36B
102
{ACAD_REACTORS
330
36A
102
}
330
2
100
AcDbEntity
  8
画層1
 62
     0
100
AcDbMText
 10
346.56
 20
507.46
 30
0.0
 40
5.0
 41
0.0
 71
     4
 72
     1
  1
2-φ9
  7
STYLE1
1001
ACAD
1000
MTEXTBEGIN
1070
    73
1070
     1
1070
    44
1040
1.0
1070
    74
1070
     0
1000
MTEXTEND
1000
MTEXTBEGIN
1070
    73
1070
     1
1070
    44
1040
1.0
1070
    74
1070
     0
1000
MTEXTEND
1000
MTEXTBEGIN
1070
    73
1070
     1
1070
    44
1040
1.0
1070
    74
1070
     0
1000
MTEXTEND
  0
ARC
  5
36C
330
2
100
AcDbEntity
  8
画層1
  6
DIVIDE
 62
     0
100
AcDbCircle
 10
306.8
 20
429.3
 30
0.0
 40
5.0
100
AcDbArc
 50
270.0
 51
0.0
  0
LINE
  5
36D
330
2
100
AcDbEntity
  8
画層1
  6
DASHED2
 62
     0
100
AcDbLine
 10
286.8
 20
464.3
 30
0.0
 11
286.8
 21
424.3
 31
0.0
  0
LINE
  5
36E
330
2
100
AcDbEntity
  8
画層1
  6
DASHED2
 62
     0
100
AcDbLine
 10
266.8
 20
424.3
 30
0.0
 11
266.8
 21
464.3
 31
0.0
  0
LINE
  5
36F
330
2
100
AcDbEntity
  8
画層1
  6
DASHED2
 62
     0
100
AcDbLine
 10
216.8
 20
464.3
 30
0.0
 11
216.8
 21
424.3
 31
0.0
  0
LINE
  5
370
330
2
100
AcDbEntity
  8
画層1
 62
     0
100
AcDbLine
 10
271.8
 20
452.3
 30
0.0
 11
281.8
 21
452.3
 31
0.0
  0
CIRCLE
  5
371
330
2
100
AcDbEntity
  8
画層1
  6
DASHED2
 62
     0
100
AcDbCircle
 10
276.8
 20
452.3
 30
0.0
 40
3.25
  0
LINE
  5
372
330
2
100
AcDbEntity
  8
画層1
  6
DASHED2
 62
     0
100
AcDbLine
 10
266.8
 20
464.3
 30
0.0
 11
286.8
 21
464.3
 31
0.0
  0
MTEXT
  5
373
330
2
100
AcDbEntity
  8
画層1
 62
     0
100
AcDbMText
 10
220.16
 20
454.0
 30
0.0
 40
5.0
 41
7.0
 71
     1
 72
     5
  1
Ｓ
  7
STYLE1
1001
ACAD
1000
MTEXTBEGIN
1070
    73
1070
     1
1070
    44
1040
1.0
1070
    74
1070
     0
1000
MTEXTEND
1000
MTEXTBEGIN
1070
    73
1070
     1
1070
    44
1040
1.0
1070
    74
1070
     0
1000
MTEXTEND
1000
MTEXTBEGIN
1070
    73
1070
     1
1070
    44
1040
1.0
1070
    74
1070
     0
1000
MTEXTEND
  0
MTEXT
  5
374
330
2
100
AcDbEntity
  8
画層1
 62
     0
100
AcDbMText
 10
257.98
 20
454.0
 30
0.0
 40
5.0
 41
7.0
 71
     1
 72
     5
  1
Ｔ
  7
STYLE1
1001
ACAD
1000
MTEXTBEGIN
1070
    73
1070
     1
1070
    44
1040
1.0
1070
    74
1070
     0
1000
MTEXTEND
1000
MTEXTBEGIN
1070
    73
1070
     1
1070
    44
1040
1.0
1070
    74
1070
     0
1000
MTEXTEND
1000
MTEXTBEGIN
1070
    73
1070
     1
1070
    44
1040
1.0
1070
    74
1070
     0
1000
MTEXTEND
  0
LINE
  5
375
330
2
100
AcDbEntity
  8
画層1
  6
DIVIDE
 62
     0
100
AcDbLine
 10
311.8
 20
485.3
 30
0.0
 11
311.8
 21
429.3
 31
0.0
  0
CIRCLE
  5
376
330
2
100
AcDbEntity
  8
画層1
  6
DASHED2
 62
     0
100
AcDbCircle
 10
281.8
 20
455.3
 30
0.0
 40
4.5
  0
LINE
  5
377
330
2
100
AcDbEntity
  8
画層1
 62
     0
100
AcDbLine
 10
329.6
 20
449.8
 30
0.0
 11
329.6
 21
450.8
 31
0.0
  0
LINE
  5
378
330
2
100
AcDbEntity
  8
画層1
 62
     0
100
AcDbLine
 10
326.0
 20
449.8
 30
0.0
 11
326.0
 21
450.8
 31
0.0
  0
CIRCLE
  5
379
330
2
100
AcDbEntity
  8
画層1
 62
     0
100
AcDbCircle
 10
327.8
 20
450.3
 30
0.0
 40
3.0
  0
CIRCLE
  5
37A
330
2
100
AcDbEntity
  8
画層1
 62
     0
100
AcDbCircle
 10
327.8
 20
450.3
 30
0.0
 40
4.0
  0
LINE
  5
37B
330
2
100
AcDbEntity
  8
画層1
 62
     0
100
AcDbLine
 10
331.26
 20
448.3
 30
0.0
 11
334.3
 21
448.3
 31
0.0
  0
ARC
  5
37C
330
2
100
AcDbEntity
  8
画層1
 62
     0
100
AcDbCircle
 10
329.3
 20
448.8
 30
0.0
 40
1.0
100
AcDbArc
 50
90.0
 51
180.0
  0
LINE
  5
37D
330
2
100
AcDbEntity
  8
画層1
 62
     0
100
AcDbLine
 10
328.3
 20
448.8
 30
0.0
 11
328.3
 21
448.5
 31
0.0
  0
LINE
  5
37E
330
2
100
AcDbEntity
  8
画層1
 62
     0
100
AcDbLine
 10
327.3
 20
448.5
 30
0.0
 11
327.3
 21
448.8
 31
0.0
  0
LINE
  5
37F
330
2
100
AcDbEntity
  8
画層1
 62
     0
100
AcDbLine
 10
327.3
 20
448.5
 30
0.0
 11
328.3
 21
448.5
 31
0.0
  0
ARC
  5
380
330
2
100
AcDbEntity
  8
画層1
 62
     0
100
AcDbCircle
 10
326.3
 20
448.8
 30
0.0
 40
1.0
100
AcDbArc
 50
0.0
 51
90.0
  0
LINE
  5
381
330
2
100
AcDbEntity
  8
画層1
 62
     0
100
AcDbLine
 10
326.3
 20
449.8
 30
0.0
 11
326.0
 21
449.8
 31
0.0
  0
LINE
  5
382
330
2
100
AcDbEntity
  8
画層1
 62
     0
100
AcDbLine
 10
329.6
 20
449.8
 30
0.0
 11
329.3
 21
449.8
 31
0.0
  0
LINE
  5
383
330
2
100
AcDbEntity
  8
画層1
 62
     0
100
AcDbLine
 10
331.26
 20
452.3
 30
0.0
 11
334.3
 21
452.3
 31
0.0
  0
ARC
  5
384
330
2
100
AcDbEntity
  8
画層1
 62
     0
100
AcDbCircle
 10
329.3
 20
451.8
 30
0.0
 40
1.0
100
AcDbArc
 50
180.0
 51
270.0
  0
LINE
  5
385
330
2
100
AcDbEntity
  8
画層1
 62
     0
100
AcDbLine
 10
327.3
 20
452.1
 30
0.0
 11
328.3
 21
452.1
 31
0.0
  0
LINE
  5
386
330
2
100
AcDbEntity
  8
画層1
 62
     0
100
AcDbLine
 10
327.3
 20
451.8
 30
0.0
 11
327.3
 21
452.1
 31
0.0
  0
ARC
  5
387
330
2
100
AcDbEntity
  8
画層1
 62
     0
100
AcDbCircle
 10
326.3
 20
451.8
 30
0.0
 40
1.0
100
AcDbArc
 50
270.0
 51
0.0
  0
LINE
  5
388
330
2
100
AcDbEntity
  8
画層1
 62
     0
100
AcDbLine
 10
326.0
 20
450.8
 30
0.0
 11
326.3
 21
450.8
 31
0.0
  0
LINE
  5
389
330
2
100
AcDbEntity
  8
画層1
 62
     0
100
AcDbLine
 10
328.3
 20
452.1
 30
0.0
 11
328.3
 21
451.8
 31
0.0
  0
LINE
  5
38A
330
2
100
AcDbEntity
  8
画層1
 62
     0
100
AcDbLine
 10
329.3
 20
450.8
 30
0.0
 11
329.6
 21
450.8
 31
0.0
  0
ARC
  5
38B
330
2
100
AcDbEntity
  8
画層1
  6
DIVIDE
 62
     0
100
AcDbCircle
 10
306.8
 20
485.3
 30
0.0
 40
5.0
100
AcDbArc
 50
0.0
 51
90.0
  0
MTEXT
  5
38C
330
2
100
AcDbEntity
  8
画層1
 62
     0
100
AcDbMText
 10
344.3
 20
498.46
 30
0.0
 40
5.0
 41
0.0
 71
     4
 72
     1
  1
取付穴
  7
STYLE1
1001
ACAD
1000
MTEXTBEGIN
1070
    73
1070
     1
1070
    44
1040
1.0
1070
    74
1070
     0
1000
MTEXTEND
1000
MTEXTBEGIN
1070
    73
1070
     1
1070
    44
1040
1.0
1070
    74
1070
     0
1000
MTEXTEND
1000
MTEXTBEGIN
1070
    73
1070
     1
1070
    44
1040
1.0
1070
    74
1070
     0
1000
MTEXTEND
  0
LINE
  5
38D
330
2
100
AcDbEntity
  8
画層1
 62
     0
100
AcDbLine
 10
440.3
 20
449.6
 30
0.0
 11
439.5
 21
448.8
 31
0.0
  0
LINE
  5
38E
330
2
100
AcDbEntity
  8
画層1
 62
     0
100
AcDbLine
 10
439.5
 20
451.8
 30
0.0
 11
440.3
 21
451.0
 31
0.0
  0
LINE
  5
38F
330
2
100
AcDbEntity
  8
画層1
 62
     0
100
AcDbLine
 10
440.3
 20
449.6
 30
0.0
 11
436.9
 21
449.6
 31
0.0
  0
LINE
  5
390
330
2
100
AcDbEntity
  8
画層1
 62
     0
100
AcDbLine
 10
436.9
 20
451.0
 30
0.0
 11
440.3
 21
451.0
 31
0.0
  0
LINE
  5
391
330
2
100
AcDbEntity
  8
画層1
 62
     0
100
AcDbLine
 10
452.3
 20
465.3
 30
0.0
 11
434.3
 21
465.3
 31
0.0
  0
LINE
  5
392
330
2
100
AcDbEntity
  8
画層1
 62
     0
100
AcDbLine
 10
435.3
 20
464.3
 30
0.0
 11
452.3
 21
464.3
 31
0.0
  0
LINE
  5
393
330
2
100
AcDbEntity
  8
画層1
 62
     0
100
AcDbLine
 10
433.4
 20
449.9
 30
0.0
 11
433.4
 21
450.7
 31
0.0
  0
LINE
  5
394
330
2
100
AcDbEntity
  8
画層1
 62
     0
100
AcDbLine
 10
439.5
 20
451.8
 30
0.0
 11
439.5
 21
448.8
 31
0.0
  0
LINE
  5
395
330
2
100
AcDbEntity
  8
画層1
 62
     0
100
AcDbLine
 10
434.2
 20
454.1
 30
0.0
 11
434.2
 21
446.5
 31
0.0
  0
LINE
  5
396
330
2
100
AcDbEntity
  8
画層1
 62
     0
100
AcDbLine
 10
432.8
 20
451.9
 30
0.0
 11
432.8
 21
448.7
 31
0.0
  0
LINE
  5
397
330
2
100
AcDbEntity
  8
画層1
 62
     0
100
AcDbLine
 10
434.2
 20
446.5
 30
0.0
 11
434.3
 21
446.5
 31
0.0
  0
LINE
  5
398
330
2
100
AcDbEntity
  8
画層1
 62
     0
100
AcDbLine
 10
433.8
 20
447.7
 30
0.0
 11
434.2
 21
447.7
 31
0.0
  0
ARC
  5
399
330
2
100
AcDbEntity
  8
画層1
 62
     0
100
AcDbCircle
 10
433.8
 20
448.7
 30
0.0
 40
1.0
100
AcDbArc
 50
180.0
 51
270.0
  0
LINE
  5
39A
330
2
100
AcDbEntity
  8
画層1
 62
     0
100
AcDbLine
 10
432.8
 20
449.9
 30
0.0
 11
433.4
 21
449.9
 31
0.0
  0
LINE
  5
39B
330
2
100
AcDbEntity
  8
画層1
 62
     0
100
AcDbLine
 10
439.5
 20
448.8
 30
0.0
 11
436.9
 21
448.8
 31
0.0
  0
LINE
  5
39C
330
2
100
AcDbEntity
  8
画層1
 62
     0
100
AcDbLine
 10
434.3
 20
454.1
 30
0.0
 11
434.2
 21
454.1
 31
0.0
  0
LINE
  5
39D
330
2
100
AcDbEntity
  8
画層1
 62
     0
100
AcDbLine
 10
434.2
 20
452.9
 30
0.0
 11
433.8
 21
452.9
 31
0.0
  0
LINE
  5
39E
330
2
100
AcDbEntity
  8
画層1
 62
     0
100
AcDbLine
 10
433.4
 20
450.7
 30
0.0
 11
432.8
 21
450.7
 31
0.0
  0
ARC
  5
39F
330
2
100
AcDbEntity
  8
画層1
 62
     0
100
AcDbCircle
 10
433.8
 20
451.9
 30
0.0
 40
1.0
100
AcDbArc
 50
90.0
 51
180.0
  0
LINE
  5
3A0
330
2
100
AcDbEntity
  8
画層1
 62
     0
100
AcDbLine
 10
436.9
 20
451.8
 30
0.0
 11
439.5
 21
451.8
 31
0.0
  0
LINE
  5
3A1
330
2
100
AcDbEntity
  8
画層1
 62
     0
100
AcDbLine
 10
440.3
 20
451.0
 30
0.0
 11
440.3
 21
449.6
 31
0.0
  0
LINE
  5
3A2
330
2
100
AcDbEntity
  8
画層1
 62
     0
100
AcDbLine
 10
452.3
 20
464.3
 30
0.0
 11
452.3
 21
465.3
 31
0.0
  0
DIMENSION
  5
3A3
330
2
100
AcDbEntity
  8
画層1
 62
     0
100
AcDbDimension
  2
*D24
 10
540.8
 20
477.3
 30
0.0
 11
605.3
 21
479.18
 31
0.0
 70
    32
  3
STANDARD_WS
100
AcDbAlignedDimension
 13
669.8
 23
463.8
 33
0.0
 14
540.8
 24
464.3
 34
0.0
100
AcDbRotatedDimension
1001
ACAD
1000
DSTYLE
1002
{
1070
    47
1040
0.6
1070
   144
1040
1.0
1070
   146
1040
0.5
1070
   173
1070
     0
1070
   284
1070
     8
1070
   340
1005
27
1070
   341
1005
28
1070
     5
1000
OPEN30
1070
     6
1000
OPEN30
1002
}
  0
LEADER
  5
3B0
330
2
100
AcDbEntity
  8
画層1
 62
     0
100
AcDbLeader
  3
STANDARD_WS
 73
     0
 74
     0
 75
     1
 40
6.47
 41
35.34
 76
     3
 10
511.76
 20
441.66
 30
0.0
 10
532.93
 20
411.6
 30
0.0
 10
534.43
 20
411.6
 30
0.0
340
3B5
1001
ACAD
1000
DSTYLE
1002
{
1070
     6
1000
DOTSMALL
1070
    47
1040
0.6
1070
    77
1070
     2
1070
   144
1040
2.0
1070
   146
1040
0.5
1070
   147
1040
0.63
1070
   284
1070
     8
1070
   340
1005
27
1070
   341
1005
3B1
1070
   343
1005
3B1
1002
}
  0
MTEXT
  5
3B5
102
{ACAD_REACTORS
330
3B0
102
}
330
2
100
AcDbEntity
  8
画層1
 62
     0
100
AcDbMText
 10
535.06
 20
415.46
 30
0.0
 40
5.0
 41
0.0
 71
     4
 72
     1
  1
端子カバー
  7
STYLE1
1001
ACAD
1000
MTEXTBEGIN
1070
    73
1070
     1
1070
    44
1040
1.0
1070
    74
1070
     0
1000
MTEXTEND
1000
MTEXTBEGIN
1070
    73
1070
     1
1070
    44
1040
1.0
1070
    74
1070
     0
1000
MTEXTEND
1000
MTEXTBEGIN
1070
    73
1070
     1
1070
    44
1040
1.0
1070
    74
1070
     0
1000
MTEXTEND
  0
LINE
  5
3B6
330
2
100
AcDbEntity
  8
画層1
  6
CENTER
 62
     0
100
AcDbLine
 10
510.8
 20
424.3
 30
0.0
 11
510.8
 21
490.3
 31
0.0
  0
LINE
  5
3B7
330
2
100
AcDbEntity
  8
画層1
  6
CENTER
 62
     0
100
AcDbLine
 10
512.8
 20
490.3
 30
0.0
 11
512.8
 21
424.3
 31
0.0
  0
LINE
  5
3B8
330
2
100
AcDbEntity
  8
画層1
  6
DASHED2
 62
     0
100
AcDbLine
 10
542.8
 20
463.8
 30
0.0
 11
542.8
 21
424.3
 31
0.0
  0
LINE
  5
3B9
330
2
100
AcDbEntity
  8
画層1
  6
DASHED2
 62
     0
100
AcDbLine
 10
540.8
 20
424.3
 30
0.0
 11
540.8
 21
463.8
 31
0.0
  0
LINE
  5
3BA
330
2
100
AcDbEntity
  8
画層1
  6
CENTER
 62
     0
100
AcDbLine
 10
512.8
 20
424.3
 30
0.0
 11
510.8
 21
424.3
 31
0.0
  0
LINE
  5
3BB
330
2
100
AcDbEntity
  8
画層1
  6
CENTER
 62
     0
100
AcDbLine
 10
537.2
 20
452.3
 30
0.0
 11
546.4
 21
452.3
 31
0.0
  0
LINE
  5
3BC
330
2
100
AcDbEntity
  8
画層1
  6
CENTER
 62
     0
100
AcDbLine
 10
510.8
 20
490.3
 30
0.0
 11
512.8
 21
490.3
 31
0.0
  0
LINE
  5
3BD
330
2
100
AcDbEntity
  8
画層1
 62
     0
100
AcDbLine
 10
540.8
 20
464.3
 30
0.0
 11
542.8
 21
464.3
 31
0.0
  0
LINE
  5
3BE
330
2
100
AcDbEntity
  8
画層1
 62
     0
100
AcDbLine
 10
540.8
 20
463.8
 30
0.0
 11
540.8
 21
464.3
 31
0.0
  0
LINE
  5
3BF
330
2
100
AcDbEntity
  8
画層1
 62
     0
100
AcDbLine
 10
542.8
 20
464.3
 30
0.0
 11
542.8
 21
463.8
 31
0.0
  0
LINE
  5
3C0
330
2
100
AcDbEntity
  8
画層1
 62
     0
100
AcDbLine
 10
669.8
 20
459.8
 30
0.0
 11
669.8
 21
463.8
 31
0.0
  0
ENDSEC
  0
SECTION
  2
OBJECTS
  0
DICTIONARY
  5
9
330
0
100
AcDbDictionary
  3
ACAD_GROUP
350
23
  3
ACAD_LAYOUT
350
D
  3
ACAD_MLINESTYLE
350
24
  3
ACAD_PLOTSETTINGS
350
25
  3
ACAD_PLOTSTYLENAME
350
8
  3
ACDBHEADERROUNDTRIPXREC
350
48A
  3
ACDBVARIABLEDICTIONARY
350
487
  0
DICTIONARY
  5
3
330
2
100
AcDbDictionary
280
     1
  3
ACAD_LAYOUTSELFREF
360
4AB
  0
DICTIONARY
  5
F
330
E
100
AcDbDictionary
280
     1
  3
ACAD_LAYOUTSELFREF
360
4AC
  0
DICTIONARY
  5
23
102
{ACAD_REACTORS
330
9
102
}
330
9
100
AcDbDictionary
  0
DICTIONARY
  5
D
102
{ACAD_REACTORS
330
9
102
}
330
9
100
AcDbDictionary
  0
DICTIONARY
  5
24
102
{ACAD_REACTORS
330
9
102
}
330
9
100
AcDbDictionary
  3
STANDARD
350
34
  0
DICTIONARY
  5
25
102
{ACAD_REACTORS
330
9
102
}
330
9
100
AcDbDictionary
  0
ACDBDICTIONARYWDFLT
  5
8
102
{ACAD_REACTORS
330
9
102
}
330
9
100
AcDbDictionary
281
     1
  3
Normal
350
7
100
AcDbDictionaryWithDefault
340
7
  0
DICTIONARY
  5
48A
102
{ACAD_REACTORS
330
9
102
}
330
9
100
AcDbDictionary
  3
CEPSNTYPE
350
494
  3
DIMSTYLEDATA
350
498
  3
FINGERPRINTGUID
350
495
  3
HYPERLINKBASE
350
48D
  3
INSUNITS
350
493
  3
LAYOUTDICT
350
48F
  3
LWETCUNION
350
492
  3
PLOTSETDICT
350
490
  3
PLOTSTYLNAMDICT
350
491
  3
PSVPSCALE
350
497
  3
PUCSBASE
350
49B
  3
PUCSORGBACK
350
4A1
  3
PUCSORGBOTTOM
350
49D
  3
PUCSORGFRONT
350
4A0
  3
PUCSORGLEFT
350
49E
  3
PUCSORGRIGHT
350
49F
  3
PUCSORGTOP
350
49C
  3
PUCSORTHOREF
350
499
  3
PUCSORTHOVIEW
350
49A
  3
STYLESHEET
350
48E
  3
TSTACKALIGN
350
48B
  3
TSTACKSIZE
350
48C
  3
UCSBASE
350
4A4
  3
UCSORGBACK
350
4AA
  3
UCSORGBOTTOM
350
4A6
  3
UCSORGFRONT
350
4A9
  3
UCSORGLEFT
350
4A7
  3
UCSORGRIGHT
350
4A8
  3
UCSORGTOP
350
4A5
  3
UCSORTHOREF
350
4A2
  3
UCSORTHOVIEW
350
4A3
  3
VERSIONGUID
350
496
  0
DICTIONARY
  5
487
102
{ACAD_REACTORS
330
9
102
}
330
9
100
AcDbDictionary
  3
DIMASSOC
350
488
  0
XRECORD
  5
4AB
102
{ACAD_REACTORS
330
3
102
}
330
3
100
AcDbXrecord
340
2
  0
XRECORD
  5
4AC
102
{ACAD_REACTORS
330
F
102
}
330
F
100
AcDbXrecord
340
E
  0
MLINESTYLE
  5
34
102
{ACAD_REACTORS
330
24
102
}
330
24
100
AcDbMlineStyle
  2
STANDARD
 70
     0
  3

 62
   256
 51
90.0
 52
90.0
 71
     2
 49
0.5
 62
   256
  6
BYLAYER
 49
-0.5
 62
   256
  6
BYLAYER
  0
ACDBPLACEHOLDER
  5
7
102
{ACAD_REACTORS
330
8
102
}
330
8
100
AcDbPlaceHolder
280
     0
  0
XRECORD
  5
494
102
{ACAD_REACTORS
330
48A
102
}
330
48A
100
AcDbXrecord
 90
        0
  0
XRECORD
  5
498
102
{ACAD_REACTORS
330
48A
102
}
330
48A
100
AcDbXrecord
1000
DSTYLE
1002
{
1070
   341
340
28
1070
   342
340
28
1070
   343
340
28
1070
   344
340
2E
1002
}
  0
XRECORD
  5
495
102
{ACAD_REACTORS
330
48A
102
}
330
48A
100
AcDbXrecord
  1
{12426522-B208-11D3-A790-004026173390}
  0
XRECORD
  5
48D
102
{ACAD_REACTORS
330
48A
102
}
330
48A
100
AcDbXrecord
  1

  0
XRECORD
  5
493
102
{ACAD_REACTORS
330
48A
102
}
330
48A
100
AcDbXrecord
 90
        0
  0
XRECORD
  5
48F
102
{ACAD_REACTORS
330
48A
102
}
330
48A
100
AcDbXrecord
340
D
  0
XRECORD
  5
492
102
{ACAD_REACTORS
330
48A
102
}
330
48A
100
AcDbXrecord
 90
    10781
  0
XRECORD
  5
490
102
{ACAD_REACTORS
330
48A
102
}
330
48A
100
AcDbXrecord
340
25
  0
XRECORD
  5
491
102
{ACAD_REACTORS
330
48A
102
}
330
48A
100
AcDbXrecord
340
8
  0
XRECORD
  5
497
102
{ACAD_REACTORS
330
48A
102
}
330
48A
100
AcDbXrecord
 40
0.0
  0
XRECORD
  5
49B
102
{ACAD_REACTORS
330
48A
102
}
330
48A
100
AcDbXrecord
340
0
  0
XRECORD
  5
4A1
102
{ACAD_REACTORS
330
48A
102
}
330
48A
100
AcDbXrecord
 10
0.0
 20
0.0
 30
0.0
  0
XRECORD
  5
49D
102
{ACAD_REACTORS
330
48A
102
}
330
48A
100
AcDbXrecord
 10
0.0
 20
0.0
 30
0.0
  0
XRECORD
  5
4A0
102
{ACAD_REACTORS
330
48A
102
}
330
48A
100
AcDbXrecord
 10
0.0
 20
0.0
 30
0.0
  0
XRECORD
  5
49E
102
{ACAD_REACTORS
330
48A
102
}
330
48A
100
AcDbXrecord
 10
0.0
 20
0.0
 30
0.0
  0
XRECORD
  5
49F
102
{ACAD_REACTORS
330
48A
102
}
330
48A
100
AcDbXrecord
 10
0.0
 20
0.0
 30
0.0
  0
XRECORD
  5
49C
102
{ACAD_REACTORS
330
48A
102
}
330
48A
100
AcDbXrecord
 10
0.0
 20
0.0
 30
0.0
  0
XRECORD
  5
499
102
{ACAD_REACTORS
330
48A
102
}
330
48A
100
AcDbXrecord
340
0
  0
XRECORD
  5
49A
102
{ACAD_REACTORS
330
48A
102
}
330
48A
100
AcDbXrecord
 70
     0
  0
XRECORD
  5
48E
102
{ACAD_REACTORS
330
48A
102
}
330
48A
100
AcDbXrecord
  1

  0
XRECORD
  5
48B
102
{ACAD_REACTORS
330
48A
102
}
330
48A
100
AcDbXrecord
 90
        1
  0
XRECORD
  5
48C
102
{ACAD_REACTORS
330
48A
102
}
330
48A
100
AcDbXrecord
 90
       70
  0
XRECORD
  5
4A4
102
{ACAD_REACTORS
330
48A
102
}
330
48A
100
AcDbXrecord
340
0
  0
XRECORD
  5
4AA
102
{ACAD_REACTORS
330
48A
102
}
330
48A
100
AcDbXrecord
 10
0.0
 20
0.0
 30
0.0
  0
XRECORD
  5
4A6
102
{ACAD_REACTORS
330
48A
102
}
330
48A
100
AcDbXrecord
 10
0.0
 20
0.0
 30
0.0
  0
XRECORD
  5
4A9
102
{ACAD_REACTORS
330
48A
102
}
330
48A
100
AcDbXrecord
 10
0.0
 20
0.0
 30
0.0
  0
XRECORD
  5
4A7
102
{ACAD_REACTORS
330
48A
102
}
330
48A
100
AcDbXrecord
 10
0.0
 20
0.0
 30
0.0
  0
XRECORD
  5
4A8
102
{ACAD_REACTORS
330
48A
102
}
330
48A
100
AcDbXrecord
 10
0.0
 20
0.0
 30
0.0
  0
XRECORD
  5
4A5
102
{ACAD_REACTORS
330
48A
102
}
330
48A
100
AcDbXrecord
 10
0.0
 20
0.0
 30
0.0
  0
XRECORD
  5
4A2
102
{ACAD_REACTORS
330
48A
102
}
330
48A
100
AcDbXrecord
340
0
  0
XRECORD
  5
4A3
102
{ACAD_REACTORS
330
48A
102
}
330
48A
100
AcDbXrecord
 70
     0
  0
XRECORD
  5
496
102
{ACAD_REACTORS
330
48A
102
}
330
48A
100
AcDbXrecord
  1
{B3E3E8EE-9963-4AC3-AA13-50CC64FEEFD6}
  0
DICTIONARYVAR
  5
488
102
{ACAD_REACTORS
330
487
102
}
330
487
100
DictionaryVariables
280
     0
  1
1
  0
ENDSEC
  0
EOF
