  0
SECTION
  2
HEADER
  9
$ACADVER
  1
AC1015
  9
$ACADMAINTVER
 70
     6
  9
$DWGCODEPAGE
  3
ANSI_932
  9
$INSBASE
 10
0.0
 20
0.0
 30
0.0
  9
$EXTMIN
 10
-218.48
 20
68.78
 30
0.0
  9
$EXTMAX
 10
323.62
 20
495.1518781725888
 30
0.0
  9
$LIMMIN
 10
0.0
 20
0.0
  9
$LIMMAX
 10
420.0
 20
297.0
  9
$ORTHOMODE
 70
     0
  9
$REGENMODE
 70
     1
  9
$FILLMODE
 70
     1
  9
$QTEXTMODE
 70
     0
  9
$MIRRTEXT
 70
     1
  9
$LTSCALE
 40
0.2
  9
$ATTMODE
 70
     1
  9
$TEXTSIZE
 40
2.5
  9
$TRACEWID
 40
1.0
  9
$TEXTSTYLE
  7
STYLE1
  9
$CLAYER
  8
画層1
  9
$CELTYPE
  6
BYLAYER
  9
$CECOLOR
 62
     0
  9
$CELTSCALE
 40
1.0
  9
$DISPSILH
 70
     0
  9
$DIMSCALE
 40
1.0
  9
$DIMASZ
 40
1.5
  9
$DIMEXO
 40
0.63
  9
$DIMDLI
 40
3.75
  9
$DIMRND
 40
0.0
  9
$DIMDLE
 40
0.0
  9
$DIMEXE
 40
1.25
  9
$DIMTP
 40
0.6
  9
$DIMTM
 40
0.0
  9
$DIMTXT
 40
2.5
  9
$DIMCEN
 40
2.5
  9
$DIMTSZ
 40
0.0
  9
$DIMTOL
 70
     0
  9
$DIMLIM
 70
     0
  9
$DIMTIH
 70
     0
  9
$DIMTOH
 70
     0
  9
$DIMSE1
 70
     0
  9
$DIMSE2
 70
     0
  9
$DIMTAD
 70
     1
  9
$DIMZIN
 70
     8
  9
$DIMBLK
  1
OPEN30
  9
$DIMASO
 70
     1
  9
$DIMSHO
 70
     1
  9
$DIMPOST
  1

  9
$DIMAPOST
  1

  9
$DIMALT
 70
     0
  9
$DIMALTD
 70
     4
  9
$DIMALTF
 40
0.04
  9
$DIMLFAC
 40
2.0
  9
$DIMTOFL
 70
     1
  9
$DIMTVP
 40
0.0
  9
$DIMTIX
 70
     0
  9
$DIMSOXD
 70
     0
  9
$DIMSAH
 70
     0
  9
$DIMBLK1
  1
OPEN30
  9
$DIMBLK2
  1
OPEN
  9
$DIMSTYLE
  2
STANDARD_WS
  9
$DIMCLRD
 70
     0
  9
$DIMCLRE
 70
     0
  9
$DIMCLRT
 70
     0
  9
$DIMTFAC
 40
0.5
  9
$DIMGAP
 40
0.63
  9
$DIMJUST
 70
     0
  9
$DIMSD1
 70
     0
  9
$DIMSD2
 70
     0
  9
$DIMTOLJ
 70
     1
  9
$DIMTZIN
 70
     8
  9
$DIMALTZ
 70
     0
  9
$DIMALTTZ
 70
     0
  9
$DIMUPT
 70
     0
  9
$DIMDEC
 70
     4
  9
$DIMTDEC
 70
     4
  9
$DIMALTU
 70
     8
  9
$DIMALTTD
 70
     4
  9
$DIMTXSTY
  7
STYLE1
  9
$DIMAUNIT
 70
     0
  9
$DIMADEC
 70
     0
  9
$DIMALTRND
 40
0.0
  9
$DIMAZIN
 70
     0
  9
$DIMDSEP
 70
    46
  9
$DIMATFIT
 70
     3
  9
$DIMFRAC
 70
     0
  9
$DIMLDRBLK
  1
OPEN30
  9
$DIMLUNIT
 70
     2
  9
$DIMLWD
 70
    -2
  9
$DIMLWE
 70
    -2
  9
$DIMTMOVE
 70
     0
  9
$LUNITS
 70
     2
  9
$LUPREC
 70
     4
  9
$SKETCHINC
 40
1.0
  9
$FILLETRAD
 40
1.0
  9
$AUNITS
 70
     0
  9
$AUPREC
 70
     0
  9
$MENU
  1
acad
  9
$ELEVATION
 40
0.0
  9
$PELEVATION
 40
0.0
  9
$THICKNESS
 40
0.0
  9
$LIMCHECK
 70
     0
  9
$CHAMFERA
 40
10.0
  9
$CHAMFERB
 40
10.0
  9
$CHAMFERC
 40
20.0
  9
$CHAMFERD
 40
0.0
  9
$SKPOLY
 70
     0
  9
$TDCREATE
 40
2450995.462150231
  9
$TDUCREATE
 40
2450995.087150231
  9
$TDUPDATE
 40
2451964.745158333
  9
$TDUUPDATE
 40
2451964.370158333
  9
$TDINDWG
 40
4.4091627315
  9
$TDUSRTIMER
 40
4.4091405093
  9
$USRTIMER
 70
     1
  9
$ANGBASE
 50
0.0
  9
$ANGDIR
 70
     0
  9
$PDMODE
 70
     0
  9
$PDSIZE
 40
0.0
  9
$PLINEWID
 40
10.0
  9
$SPLFRAME
 70
     0
  9
$SPLINETYPE
 70
     6
  9
$SPLINESEGS
 70
     8
  9
$HANDSEED
  5
4F5
  9
$SURFTAB1
 70
     6
  9
$SURFTAB2
 70
     6
  9
$SURFTYPE
 70
     6
  9
$SURFU
 70
     6
  9
$SURFV
 70
     6
  9
$UCSBASE
  2

  9
$UCSNAME
  2

  9
$UCSORG
 10
0.0
 20
0.0
 30
0.0
  9
$UCSXDIR
 10
1.0
 20
0.0
 30
0.0
  9
$UCSYDIR
 10
0.0
 20
1.0
 30
0.0
  9
$UCSORTHOREF
  2

  9
$UCSORTHOVIEW
 70
     0
  9
$UCSORGTOP
 10
0.0
 20
0.0
 30
0.0
  9
$UCSORGBOTTOM
 10
0.0
 20
0.0
 30
0.0
  9
$UCSORGLEFT
 10
0.0
 20
0.0
 30
0.0
  9
$UCSORGRIGHT
 10
0.0
 20
0.0
 30
0.0
  9
$UCSORGFRONT
 10
0.0
 20
0.0
 30
0.0
  9
$UCSORGBACK
 10
0.0
 20
0.0
 30
0.0
  9
$PUCSBASE
  2

  9
$PUCSNAME
  2

  9
$PUCSORG
 10
0.0
 20
0.0
 30
0.0
  9
$PUCSXDIR
 10
1.0
 20
0.0
 30
0.0
  9
$PUCSYDIR
 10
0.0
 20
1.0
 30
0.0
  9
$PUCSORTHOREF
  2

  9
$PUCSORTHOVIEW
 70
     0
  9
$PUCSORGTOP
 10
0.0
 20
0.0
 30
0.0
  9
$PUCSORGBOTTOM
 10
0.0
 20
0.0
 30
0.0
  9
$PUCSORGLEFT
 10
0.0
 20
0.0
 30
0.0
  9
$PUCSORGRIGHT
 10
0.0
 20
0.0
 30
0.0
  9
$PUCSORGFRONT
 10
0.0
 20
0.0
 30
0.0
  9
$PUCSORGBACK
 10
0.0
 20
0.0
 30
0.0
  9
$USERI1
 70
     0
  9
$USERI2
 70
     0
  9
$USERI3
 70
     0
  9
$USERI4
 70
     0
  9
$USERI5
 70
     0
  9
$USERR1
 40
0.0
  9
$USERR2
 40
0.0
  9
$USERR3
 40
0.0
  9
$USERR4
 40
0.0
  9
$USERR5
 40
0.0
  9
$WORLDVIEW
 70
     1
  9
$SHADEDGE
 70
     3
  9
$SHADEDIF
 70
    70
  9
$TILEMODE
 70
     1
  9
$MAXACTVP
 70
    48
  9
$PINSBASE
 10
0.0
 20
0.0
 30
0.0
  9
$PLIMCHECK
 70
     0
  9
$PEXTMIN
 10
1.000000000000000E+20
 20
1.000000000000000E+20
 30
1.000000000000000E+20
  9
$PEXTMAX
 10
-1.000000000000000E+20
 20
-1.000000000000000E+20
 30
-1.000000000000000E+20
  9
$PLIMMIN
 10
0.0
 20
0.0
  9
$PLIMMAX
 10
420.0
 20
297.0
  9
$UNITMODE
 70
     0
  9
$VISRETAIN
 70
     1
  9
$PLINEGEN
 70
     0
  9
$PSLTSCALE
 70
     1
  9
$TREEDEPTH
 70
  3020
  9
$CMLSTYLE
  2
STANDARD
  9
$CMLJUST
 70
     0
  9
$CMLSCALE
 40
20.0
  9
$PROXYGRAPHICS
 70
     1
  9
$MEASUREMENT
 70
     1
  9
$CELWEIGHT
370
    -1
  9
$ENDCAPS
280
     0
  9
$JOINSTYLE
280
     0
  9
$LWDISPLAY
290
     0
  9
$INSUNITS
 70
     0
  9
$HYPERLINKBASE
  1

  9
$STYLESHEET
  1

  9
$XEDIT
290
     1
  9
$CEPSNTYPE
380
     0
  9
$PSTYLEMODE
290
     1
  9
$FINGERPRINTGUID
  2
{12426522-B208-11D3-A790-004026173390}
  9
$VERSIONGUID
  2
{45B34157-09AF-11D5-8D55-0060949B1DAC}
  9
$EXTNAMES
290
     1
  9
$PSVPSCALE
 40
0.0
  9
$OLESTARTUP
290
     0
  0
ENDSEC
  0
SECTION
  2
CLASSES
  0
CLASS
  1
DICTIONARYVAR
  2
AcDbDictionaryVar
  3
AutoCAD 2000
 90
    32768
280
     0
281
     0
  0
CLASS
  1
LWPOLYLINE
  2
AcDbPolyline
  3
AutoCAD 2000
 90
    32768
280
     0
281
     1
  0
CLASS
  1
OLE2FRAME
  2
AcDbOle2Frame
  3
AutoCAD 2000
 90
    32768
280
     0
281
     1
  0
CLASS
  1
HATCH
  2
AcDbHatch
  3
AutoCAD 2000
 90
    32768
280
     0
281
     1
  0
CLASS
  1
ACDBDICTIONARYWDFLT
  2
AcDbDictionaryWithDefault
  3
AutoCAD 2000
 90
        0
280
     0
281
     0
  0
CLASS
  1
ACDBPLACEHOLDER
  2
AcDbPlaceHolder
  3
AutoCAD 2000
 90
        0
280
     0
281
     0
  0
CLASS
  1
LAYOUT
  2
AcDbLayout
  3
AutoCAD 2000
 90
        0
280
     0
281
     0
  0
CLASS
  1
LONG_TRANSACTION
  2
AcDbLongTransaction
  3
AutoCAD 2000
 90
    32768
280
     0
281
     0
  0
CLASS
  1
LWPOLYLINE
  2
AcDbPolyline
  3
AutoCAD 2000
 90
    32768
280
     0
281
     1
  0
CLASS
  1
HATCH
  2
AcDbHatch
  3
AutoCAD 2000
 90
    32768
280
     0
281
     1
  0
CLASS
  1
XRECORD
  2
AcDbXrecord
  3
AutoCAD 2000
 90
    32768
280
     0
281
     0
  0
CLASS
  1
LONG_TRANSACTION
  2
AcDbLongTransaction
  3
AutoCAD 2000
 90
    32768
280
     0
281
     0
  0
CLASS
  1
LWPOLYLINE
  2
AcDbPolyline
  3
AutoCAD 2000
 90
    32768
280
     0
281
     1
  0
CLASS
  1
HATCH
  2
AcDbHatch
  3
AutoCAD 2000
 90
    32768
280
     0
281
     1
  0
CLASS
  1
XRECORD
  2
AcDbXrecord
  3
AutoCAD 2000
 90
    32768
280
     0
281
     0
  0
CLASS
  1
LONG_TRANSACTION
  2
AcDbLongTransaction
  3
AutoCAD 2000
 90
    32768
280
     0
281
     0
  0
CLASS
  1
LWPOLYLINE
  2
AcDbPolyline
  3
AutoCAD 2000
 90
    32768
280
     0
281
     1
  0
CLASS
  1
HATCH
  2
AcDbHatch
  3
AutoCAD 2000
 90
    32768
280
     0
281
     1
  0
CLASS
  1
XRECORD
  2
AcDbXrecord
  3
AutoCAD 2000
 90
    32768
280
     0
281
     0
  0
CLASS
  1
LONG_TRANSACTION
  2
AcDbLongTransaction
  3
AutoCAD 2000
 90
    32768
280
     0
281
     0
  0
CLASS
  1
LWPOLYLINE
  2
AcDbPolyline
  3
AutoCAD 2000
 90
    32768
280
     0
281
     1
  0
CLASS
  1
HATCH
  2
AcDbHatch
  3
AutoCAD 2000
 90
    32768
280
     0
281
     1
  0
CLASS
  1
XRECORD
  2
AcDbXrecord
  3
AutoCAD 2000
 90
    32768
280
     0
281
     0
  0
ENDSEC
  0
SECTION
  2
TABLES
  0
TABLE
  2
VPORT
  5
1E
330
0
100
AcDbSymbolTable
 70
     2
  0
VPORT
  5
4F4
330
1E
100
AcDbSymbolTableRecord
100
AcDbViewportTableRecord
  2
*Active
 70
     0
 10
0.0
 20
0.0
 11
1.0
 21
1.0
 12
-97.17999999999996
 22
277.0196816720257
 13
0.0
 23
0.0
 14
1.0
 24
1.0
 15
2.0
 25
2.0
 16
0.0
 26
0.0
 36
1.0
 17
0.0
 27
0.0
 37
0.0
 40
544.0593633440514
 41
1.840236686390532
 42
50.0
 43
0.0
 44
0.0
 50
0.0
 51
0.0
 71
     0
 72
   100
 73
     1
 74
     1
 75
     0
 76
     0
 77
     0
 78
     0
281
     0
 65
     1
110
0.0
120
0.0
130
0.0
111
1.0
121
0.0
131
0.0
112
0.0
122
1.0
132
0.0
 79
     0
146
0.0
  0
ENDTAB
  0
TABLE
  2
LTYPE
  5
19
330
0
100
AcDbSymbolTable
 70
     4
  0
LTYPE
  5
1A
330
19
100
AcDbSymbolTableRecord
100
AcDbLinetypeTableRecord
  2
BYBLOCK
 70
     0
  3

 72
    65
 73
     0
 40
0.0
  0
LTYPE
  5
1B
330
19
100
AcDbSymbolTableRecord
100
AcDbLinetypeTableRecord
  2
BYLAYER
 70
     0
  3

 72
    65
 73
     0
 40
0.0
  0
LTYPE
  5
A
330
19
100
AcDbSymbolTableRecord
100
AcDbLinetypeTableRecord
  2
CONTINUOUS
 70
     0
  3
Solid line
 72
    65
 73
     0
 40
0.0
  0
LTYPE
  5
8D
330
19
100
AcDbSymbolTableRecord
100
AcDbLinetypeTableRecord
  2
DASHED2
 70
     0
  3
Dashed (.5x) _ _ _ _ _ _ _ _ _ _ _ _ _ _ _ _ _
 72
    65
 73
     2
 40
9.519999999999999
 49
6.349999999999999
 74
     0
 49
-3.18
 74
     0
  0
LTYPE
  5
66
330
19
100
AcDbSymbolTableRecord
100
AcDbLinetypeTableRecord
  2
CENTER
 70
     0
  3
Center ____ _ ____ _ ____ _ ____ _ ____ _ ____
 72
    65
 73
     4
 40
50.8
 49
31.75
 74
     0
 49
-6.349999999999999
 74
     0
 49
6.349999999999999
 74
     0
 49
-6.349999999999999
 74
     0
  0
LTYPE
  5
19A
330
19
100
AcDbSymbolTableRecord
100
AcDbLinetypeTableRecord
  2
DIVIDE
 70
     0
  3
Divide ____ . . ____ . . ____ . . ____ . . ____
 72
    65
 73
     6
 40
31.75
 49
12.7
 74
     0
 49
-6.349999999999999
 74
     0
 49
0.0
 74
     0
 49
-6.349999999999999
 74
     0
 49
0.0
 74
     0
 49
-6.349999999999999
 74
     0
  0
ENDTAB
  0
TABLE
  2
LAYER
  5
14
330
0
100
AcDbSymbolTable
 70
     3
  0
LAYER
  5
6
330
14
100
AcDbSymbolTableRecord
100
AcDbLayerTableRecord
  2
0
 70
     0
 62
     7
  6
CONTINUOUS
370
    -3
390
7
  0
LAYER
  5
3F
330
14
100
AcDbSymbolTableRecord
100
AcDbLayerTableRecord
  2
DEFPOINTS
 70
     0
 62
     7
  6
CONTINUOUS
290
     0
370
    -3
390
7
  0
LAYER
  5
26
330
14
100
AcDbSymbolTableRecord
100
AcDbLayerTableRecord
  2
画層1
 70
     0
 62
     7
  6
CONTINUOUS
370
    -3
390
7
  0
ENDTAB
  0
TABLE
  2
STYLE
  5
15
330
0
100
AcDbSymbolTable
 70
     2
  0
STYLE
  5
16
330
15
100
AcDbSymbolTableRecord
100
AcDbTextStyleTableRecord
  2
STANDARD
 70
     0
 40
2.5
 41
1.0
 50
0.0
 71
     0
 42
1.5
  3
MS PMincho.ttf
  4

1001
ACAD
1000
MS PMincho
1071
    32786
  0
STYLE
  5
27
330
15
100
AcDbSymbolTableRecord
100
AcDbTextStyleTableRecord
  2
STYLE1
 70
     0
 40
2.5
 41
1.0
 50
0.0
 71
     0
 42
2.5
  3
MS Gothic.ttf
  4

1001
ACAD
1000
MS Gothic
1071
    32817
  0
ENDTAB
  0
TABLE
  2
VIEW
  5
1C
330
0
100
AcDbSymbolTable
 70
     0
  0
ENDTAB
  0
TABLE
  2
UCS
  5
1D
330
0
100
AcDbSymbolTable
 70
     0
  0
ENDTAB
  0
TABLE
  2
APPID
  5
20
330
0
100
AcDbSymbolTable
 70
     1
  0
APPID
  5
17
330
20
100
AcDbSymbolTableRecord
100
AcDbRegAppTableRecord
  2
ACAD
 70
     0
  0
ENDTAB
  0
TABLE
  2
DIMSTYLE
  5
21
330
0
100
AcDbSymbolTable
 70
     1
100
AcDbDimStyleTable
 71
     0
  0
DIMSTYLE
105
35
102
{ACAD_REACTORS
330
17F
330
172
330
44
330
36
330
3FE
330
18C
330
386
330
68
330
75
330
12A
330
CC
330
E8
330
361
330
51
102
}
330
21
100
AcDbSymbolTableRecord
100
AcDbDimStyleTableRecord
  2
STANDARD_WS
 70
     0
 41
1.5
 42
0.63
 43
3.75
 44
1.25
 73
     0
 74
     0
 77
     1
 78
     8
140
2.5
141
2.5
143
0.04
147
0.63
171
     4
172
     1
173
     1
273
     8
274
     4
340
16
341
2E
343
2E
344
2E
  0
ENDTAB
  0
TABLE
  2
BLOCK_RECORD
  5
1
330
0
100
AcDbSymbolTable
 70
    31
  0
BLOCK_RECORD
  5
2
102
{ACAD_XDICTIONARY
360
3
102
}
330
1
100
AcDbSymbolTableRecord
100
AcDbBlockTableRecord
  2
*MODEL_SPACE
340
448
  0
BLOCK_RECORD
  5
E
102
{ACAD_XDICTIONARY
360
F
102
}
330
1
100
AcDbSymbolTableRecord
100
AcDbBlockTableRecord
  2
*PAPER_SPACE
340
449
  0
BLOCK_RECORD
  5
2E
330
1
100
AcDbSymbolTableRecord
100
AcDbBlockTableRecord
  2
_OPEN
340
0
  0
BLOCK_RECORD
  5
28
330
1
100
AcDbSymbolTableRecord
100
AcDbBlockTableRecord
  2
_OPEN30
340
0
102
{BLKREFS
331
38B
331
38C
331
6D
331
6E
331
7A
331
7B
331
130
331
131
331
D1
331
D2
331
ED
331
EE
331
177
331
178
331
184
331
185
331
191
331
192
331
366
331
367
331
56
331
57
331
49
331
4A
331
3B
331
3C
331
403
331
404
331
43E
331
43F
331
451
331
452
331
45D
331
45E
331
469
331
46A
331
475
331
476
331
482
331
483
331
48E
331
48F
331
49A
331
49B
331
4A6
331
4A7
331
4B1
331
4B2
331
4BB
331
4BC
331
4C7
331
4C8
331
4D3
331
4D4
331
4DF
331
4E0
331
4EB
331
4EC
102
}
  0
BLOCK_RECORD
  5
5F
330
1
100
AcDbSymbolTableRecord
100
AcDbBlockTableRecord
  2
_DOTSMALL
340
0
  0
BLOCK_RECORD
  5
387
330
1
100
AcDbSymbolTableRecord
100
AcDbBlockTableRecord
  2
*D3
340
0
  0
BLOCK_RECORD
  5
69
330
1
100
AcDbSymbolTableRecord
100
AcDbBlockTableRecord
  2
*D4
340
0
  0
BLOCK_RECORD
  5
76
330
1
100
AcDbSymbolTableRecord
100
AcDbBlockTableRecord
  2
*D5
340
0
  0
BLOCK_RECORD
  5
12B
330
1
100
AcDbSymbolTableRecord
100
AcDbBlockTableRecord
  2
*D6
340
0
  0
BLOCK_RECORD
  5
CD
330
1
100
AcDbSymbolTableRecord
100
AcDbBlockTableRecord
  2
*D7
340
0
  0
BLOCK_RECORD
  5
E9
330
1
100
AcDbSymbolTableRecord
100
AcDbBlockTableRecord
  2
*D8
340
0
  0
BLOCK_RECORD
  5
173
330
1
100
AcDbSymbolTableRecord
100
AcDbBlockTableRecord
  2
*D9
340
0
  0
BLOCK_RECORD
  5
180
330
1
100
AcDbSymbolTableRecord
100
AcDbBlockTableRecord
  2
*D10
340
0
  0
BLOCK_RECORD
  5
18D
330
1
100
AcDbSymbolTableRecord
100
AcDbBlockTableRecord
  2
*D11
340
0
  0
BLOCK_RECORD
  5
362
330
1
100
AcDbSymbolTableRecord
100
AcDbBlockTableRecord
  2
*D12
340
0
  0
BLOCK_RECORD
  5
52
330
1
100
AcDbSymbolTableRecord
100
AcDbBlockTableRecord
  2
*D13
340
0
  0
BLOCK_RECORD
  5
45
330
1
100
AcDbSymbolTableRecord
100
AcDbBlockTableRecord
  2
*D14
340
0
  0
BLOCK_RECORD
  5
37
330
1
100
AcDbSymbolTableRecord
100
AcDbBlockTableRecord
  2
*D15
340
0
  0
BLOCK_RECORD
  5
3FF
330
1
100
AcDbSymbolTableRecord
100
AcDbBlockTableRecord
  2
*D16
340
0
  0
BLOCK_RECORD
  5
43A
330
1
100
AcDbSymbolTableRecord
100
AcDbBlockTableRecord
  2
*D17
340
0
  0
BLOCK_RECORD
  5
44D
330
1
100
AcDbSymbolTableRecord
100
AcDbBlockTableRecord
  2
*D18
340
0
  0
BLOCK_RECORD
  5
459
330
1
100
AcDbSymbolTableRecord
100
AcDbBlockTableRecord
  2
*D19
340
0
  0
BLOCK_RECORD
  5
465
330
1
100
AcDbSymbolTableRecord
100
AcDbBlockTableRecord
  2
*D20
340
0
  0
BLOCK_RECORD
  5
471
330
1
100
AcDbSymbolTableRecord
100
AcDbBlockTableRecord
  2
*D21
340
0
  0
BLOCK_RECORD
  5
47D
330
1
100
AcDbSymbolTableRecord
100
AcDbBlockTableRecord
  2
*D22
340
0
  0
BLOCK_RECORD
  5
48A
330
1
100
AcDbSymbolTableRecord
100
AcDbBlockTableRecord
  2
*D23
340
0
  0
BLOCK_RECORD
  5
496
330
1
100
AcDbSymbolTableRecord
100
AcDbBlockTableRecord
  2
*D24
340
0
  0
BLOCK_RECORD
  5
4A2
330
1
100
AcDbSymbolTableRecord
100
AcDbBlockTableRecord
  2
*D25
340
0
  0
BLOCK_RECORD
  5
4B7
330
1
100
AcDbSymbolTableRecord
100
AcDbBlockTableRecord
  2
*D26
340
0
  0
BLOCK_RECORD
  5
4C3
330
1
100
AcDbSymbolTableRecord
100
AcDbBlockTableRecord
  2
*D27
340
0
  0
BLOCK_RECORD
  5
4CF
330
1
100
AcDbSymbolTableRecord
100
AcDbBlockTableRecord
  2
*D28
340
0
  0
BLOCK_RECORD
  5
4DB
330
1
100
AcDbSymbolTableRecord
100
AcDbBlockTableRecord
  2
*D29
340
0
  0
BLOCK_RECORD
  5
4E7
330
1
100
AcDbSymbolTableRecord
100
AcDbBlockTableRecord
  2
*D30
340
0
  0
ENDTAB
  0
ENDSEC
  0
SECTION
  2
BLOCKS
  0
BLOCK
  5
5
330
2
100
AcDbEntity
  8
0
100
AcDbBlockBegin
  2
*MODEL_SPACE
 70
     0
 10
0.0
 20
0.0
 30
0.0
  3
*MODEL_SPACE
  1

  0
ENDBLK
  5
B
330
2
100
AcDbEntity
  8
0
100
AcDbBlockEnd
  0
BLOCK
  5
11
330
E
100
AcDbEntity
 67
     1
  8
0
100
AcDbBlockBegin
  2
*PAPER_SPACE
 70
     0
 10
0.0
 20
0.0
 30
0.0
  3
*PAPER_SPACE
  1

  0
ENDBLK
  5
12
330
E
100
AcDbEntity
 67
     1
  8
0
100
AcDbBlockEnd
  0
BLOCK
  5
32
330
2E
100
AcDbEntity
  8
0
100
AcDbBlockBegin
  2
_OPEN
 70
     0
 10
0.0
 20
0.0
 30
0.0
  3
_OPEN
  1

  0
LINE
  5
2F
330
2E
100
AcDbEntity
  8
0
  6
ByBlock
 62
     0
100
AcDbLine
 10
-1.0
 20
0.17
 30
0.0
 11
0.0
 21
0.0
 31
0.0
  0
LINE
  5
30
330
2E
100
AcDbEntity
  8
0
  6
ByBlock
 62
     0
100
AcDbLine
 10
0.0
 20
0.0
 30
0.0
 11
-1.0
 21
-0.17
 31
0.0
  0
LINE
  5
31
330
2E
100
AcDbEntity
  8
0
  6
ByBlock
 62
     0
100
AcDbLine
 10
0.0
 20
0.0
 30
0.0
 11
-1.0
 21
0.0
 31
0.0
  0
ENDBLK
  5
33
330
2E
100
AcDbEntity
  8
0
100
AcDbBlockEnd
  0
BLOCK
  5
2C
330
28
100
AcDbEntity
  8
0
100
AcDbBlockBegin
  2
_OPEN30
 70
     0
 10
0.0
 20
0.0
 30
0.0
  3
_OPEN30
  1

  0
LINE
  5
29
330
28
100
AcDbEntity
  8
0
  6
ByBlock
 62
     0
100
AcDbLine
 10
-1.0
 20
0.27
 30
0.0
 11
0.0
 21
0.0
 31
0.0
  0
LINE
  5
2A
330
28
100
AcDbEntity
  8
0
  6
ByBlock
 62
     0
100
AcDbLine
 10
0.0
 20
0.0
 30
0.0
 11
-1.0
 21
-0.27
 31
0.0
  0
LINE
  5
2B
330
28
100
AcDbEntity
  8
0
  6
ByBlock
 62
     0
100
AcDbLine
 10
0.0
 20
0.0
 30
0.0
 11
-1.0
 21
0.0
 31
0.0
  0
ENDBLK
  5
2D
330
28
100
AcDbEntity
  8
0
100
AcDbBlockEnd
  0
BLOCK
  5
61
330
5F
100
AcDbEntity
  8
0
 62
     1
100
AcDbBlockBegin
  2
_DOTSMALL
 70
     0
 10
0.0
 20
0.0
 30
0.0
  3
_DOTSMALL
  1

  0
LWPOLYLINE
  5
60
330
5F
100
AcDbEntity
  8
画層1
 62
     0
100
AcDbPolyline
 90
        2
 70
     1
 43
0.5
 10
-0.06
 20
0.0
 42
1.0
 10
0.06
 20
0.0
 42
1.0
  0
ENDBLK
  5
62
330
5F
100
AcDbEntity
  8
0
 62
     1
100
AcDbBlockEnd
  0
BLOCK
  5
391
330
387
100
AcDbEntity
  8
0
 62
     1
100
AcDbBlockBegin
  2
*D3
 70
     1
 10
0.0
 20
0.0
 30
0.0
  3
*D3
  1

  0
LINE
  5
388
330
387
100
AcDbEntity
  8
画層1
 62
     0
100
AcDbLine
 10
-104.4799999999999
 20
423.8599999999999
 30
0.0
 11
-104.4799999999999
 21
390.48
 31
0.0
  0
LINE
  5
389
330
387
100
AcDbEntity
  8
画層1
 62
     0
100
AcDbLine
 10
-164.48
 20
433.86
 30
0.0
 11
-164.48
 21
390.48
 31
0.0
  0
LINE
  5
38A
330
387
100
AcDbEntity
  8
画層1
 62
     0
100
AcDbLine
 10
-105.98
 20
391.73
 30
0.0
 11
-162.9799999999999
 21
391.73
 31
0.0
  0
INSERT
  5
38B
330
387
100
AcDbEntity
  8
画層1
 62
     0
100
AcDbBlockReference
  2
_OPEN30
 10
-104.4799999999999
 20
391.73
 30
0.0
 41
1.5
 42
1.5
 43
1.5
  0
INSERT
  5
38C
330
387
100
AcDbEntity
  8
画層1
 62
     0
100
AcDbBlockReference
  2
_OPEN30
 10
-164.48
 20
391.73
 30
0.0
 41
1.5
 42
1.5
 43
1.5
 50
180.0
  0
MTEXT
  5
38D
330
387
100
AcDbEntity
  8
画層1
 62
     0
100
AcDbMText
 10
-134.4799999999999
 20
393.61
 30
0.0
 40
2.5
 41
0.0
 71
     5
 72
     1
  1
\A1;60
  7
STYLE1
 73
     1
 44
1.0
1001
ACAD
1000
MTEXTBEGIN
1070
    73
1070
     1
1070
    44
1040
1.0
1070
    74
1070
     0
1000
MTEXTEND
  0
POINT
  5
38E
330
387
100
AcDbEntity
  8
DEFPOINTS
 62
     0
100
AcDbPoint
 10
-104.4799999999999
 20
424.49
 30
0.0
  0
POINT
  5
38F
330
387
100
AcDbEntity
  8
DEFPOINTS
 62
     0
100
AcDbPoint
 10
-164.48
 20
434.4899999999999
 30
0.0
  0
POINT
  5
390
330
387
100
AcDbEntity
  8
DEFPOINTS
 62
     0
100
AcDbPoint
 10
-164.48
 20
391.73
 30
0.0
  0
ENDBLK
  5
392
330
387
100
AcDbEntity
  8
0
 62
     1
100
AcDbBlockEnd
  0
BLOCK
  5
73
330
69
100
AcDbEntity
  8
0
 62
     1
100
AcDbBlockBegin
  2
*D4
 70
     1
 10
0.0
 20
0.0
 30
0.0
  3
*D4
  1

  0
LINE
  5
6A
330
69
100
AcDbEntity
  8
画層1
 62
     0
100
AcDbLine
 10
-52.35
 20
433.7299999999999
 30
0.0
 11
20.76999999999999
 21
433.7299999999999
 31
0.0
  0
LINE
  5
6B
330
69
100
AcDbEntity
  8
画層1
 62
     0
100
AcDbLine
 10
-52.35
 20
93.73000000000001
 30
0.0
 11
20.76999999999999
 21
93.73000000000001
 31
0.0
  0
LINE
  5
6C
330
69
100
AcDbEntity
  8
画層1
 62
     0
100
AcDbLine
 10
19.51999999999999
 20
432.23
 30
0.0
 11
19.51999999999999
 21
95.23000000000001
 31
0.0
  0
INSERT
  5
6D
330
69
100
AcDbEntity
  8
画層1
 62
     0
100
AcDbBlockReference
  2
_OPEN30
 10
19.51999999999999
 20
433.7299999999999
 30
0.0
 41
1.5
 42
1.5
 43
1.5
 50
90.0
  0
INSERT
  5
6E
330
69
100
AcDbEntity
  8
画層1
 62
     0
100
AcDbBlockReference
  2
_OPEN30
 10
19.51999999999999
 20
93.73000000000001
 30
0.0
 41
1.5
 42
1.5
 43
1.5
 50
270.0
  0
MTEXT
  5
6F
330
69
100
AcDbEntity
  8
画層1
 62
     0
100
AcDbMText
 10
17.64
 20
263.73
 30
0.0
 40
2.5
 41
0.0
 71
     5
 72
     1
  1
\A1;340
  7
STYLE1
 11
0.0
 21
1.0
 31
0.0
 73
     1
 44
1.0
1001
ACAD
1000
MTEXTBEGIN
1070
    73
1070
     1
1070
    44
1040
1.0
1070
    74
1070
     0
1000
MTEXTEND
  0
POINT
  5
70
330
69
100
AcDbEntity
  8
DEFPOINTS
 62
     0
100
AcDbPoint
 10
-52.98
 20
433.7299999999999
 30
0.0
  0
POINT
  5
71
330
69
100
AcDbEntity
  8
DEFPOINTS
 62
     0
100
AcDbPoint
 10
-52.98
 20
93.73000000000001
 30
0.0
  0
POINT
  5
72
330
69
100
AcDbEntity
  8
DEFPOINTS
 62
     0
100
AcDbPoint
 10
19.51999999999999
 20
93.73000000000001
 30
0.0
  0
ENDBLK
  5
74
330
69
100
AcDbEntity
  8
0
 62
     1
100
AcDbBlockEnd
  0
BLOCK
  5
80
330
76
100
AcDbEntity
  8
0
 62
     1
100
AcDbBlockBegin
  2
*D5
 70
     1
 10
0.0
 20
0.0
 30
0.0
  3
*D5
  1

  0
LINE
  5
77
330
76
100
AcDbEntity
  8
画層1
 62
     0
100
AcDbLine
 10
6.15
 20
443.73
 30
0.0
 11
34.77
 21
443.73
 31
0.0
  0
LINE
  5
78
330
76
100
AcDbEntity
  8
画層1
 62
     0
100
AcDbLine
 10
6.15
 20
83.73000000000001
 30
0.0
 11
34.77
 21
83.73000000000001
 31
0.0
  0
LINE
  5
79
330
76
100
AcDbEntity
  8
画層1
 62
     0
100
AcDbLine
 10
33.52
 20
442.2299999999999
 30
0.0
 11
33.52
 21
85.23000000000001
 31
0.0
  0
INSERT
  5
7A
330
76
100
AcDbEntity
  8
画層1
 62
     0
100
AcDbBlockReference
  2
_OPEN30
 10
33.52
 20
443.73
 30
0.0
 41
1.5
 42
1.5
 43
1.5
 50
90.0
  0
INSERT
  5
7B
330
76
100
AcDbEntity
  8
画層1
 62
     0
100
AcDbBlockReference
  2
_OPEN30
 10
33.52
 20
83.73000000000001
 30
0.0
 41
1.5
 42
1.5
 43
1.5
 50
270.0
  0
MTEXT
  5
7C
330
76
100
AcDbEntity
  8
画層1
 62
     0
100
AcDbMText
 10
31.64
 20
263.73
 30
0.0
 40
2.5
 41
0.0
 71
     5
 72
     1
  1
\A1;360
  7
STYLE1
 11
0.0
 21
1.0
 31
0.0
 73
     1
 44
1.0
1001
ACAD
1000
MTEXTBEGIN
1070
    73
1070
     1
1070
    44
1040
1.0
1070
    74
1070
     0
1000
MTEXTEND
  0
POINT
  5
7D
330
76
100
AcDbEntity
  8
DEFPOINTS
 62
     0
100
AcDbPoint
 10
5.519999999999999
 20
443.73
 30
0.0
  0
POINT
  5
7E
330
76
100
AcDbEntity
  8
DEFPOINTS
 62
     0
100
AcDbPoint
 10
5.519999999999999
 20
83.73000000000001
 30
0.0
  0
POINT
  5
7F
330
76
100
AcDbEntity
  8
DEFPOINTS
 62
     0
100
AcDbPoint
 10
33.52
 20
83.73000000000001
 30
0.0
  0
ENDBLK
  5
81
330
76
100
AcDbEntity
  8
0
 62
     1
100
AcDbBlockEnd
  0
BLOCK
  5
136
330
12B
100
AcDbEntity
  8
0
 62
     1
100
AcDbBlockBegin
  2
*D6
 70
     1
 10
0.0
 20
0.0
 30
0.0
  3
*D6
  1

  0
LINE
  5
12C
330
12B
100
AcDbEntity
  8
画層1
 62
     0
100
AcDbLine
 10
-48.97999999999999
 20
84.59999999999999
 30
0.0
 11
-48.97999999999999
 21
68.78
 31
0.0
  0
LINE
  5
12D
330
12B
100
AcDbEntity
  8
画層1
 62
     0
100
AcDbLine
 10
-39.97999999999999
 20
84.59999999999999
 30
0.0
 11
-39.97999999999999
 21
68.78
 31
0.0
  0
LINE
  5
12E
330
12B
100
AcDbEntity
  8
画層1
 62
     0
100
AcDbLine
 10
-47.48
 20
70.03
 30
0.0
 11
-41.47999999999999
 21
70.03
 31
0.0
  0
LINE
  5
12F
330
12B
100
AcDbEntity
  8
画層1
 62
     0
100
AcDbLine
 10
-39.97999999999999
 20
70.03
 30
0.0
 11
-17.66
 21
70.03
 31
0.0
  0
INSERT
  5
130
330
12B
100
AcDbEntity
  8
画層1
 62
     0
100
AcDbBlockReference
  2
_OPEN30
 10
-48.97999999999999
 20
70.03
 30
0.0
 41
1.5
 42
1.5
 43
1.5
 50
180.0
  0
INSERT
  5
131
330
12B
100
AcDbEntity
  8
画層1
 62
     0
100
AcDbBlockReference
  2
_OPEN30
 10
-39.97999999999999
 20
70.03
 30
0.0
 41
1.5
 42
1.5
 43
1.5
  0
MTEXT
  5
132
330
12B
100
AcDbEntity
  8
画層1
 62
     0
100
AcDbMText
 10
-28.07
 20
72.23
 30
0.0
 40
2.5
 41
0.0
 71
     5
 72
     1
  1
\A1;2-9キリカキ
  7
STYLE1
 73
     1
 44
1.0
1001
ACAD
1000
MTEXTBEGIN
1070
    73
1070
     1
1070
    44
1040
1.0
1070
    74
1070
     0
1000
MTEXTEND
  0
POINT
  5
133
330
12B
100
AcDbEntity
  8
DEFPOINTS
 62
     0
100
AcDbPoint
 10
-48.97999999999999
 20
85.23000000000001
 30
0.0
  0
POINT
  5
134
330
12B
100
AcDbEntity
  8
DEFPOINTS
 62
     0
100
AcDbPoint
 10
-39.97999999999999
 20
85.23000000000001
 30
0.0
  0
POINT
  5
135
330
12B
100
AcDbEntity
  8
DEFPOINTS
 62
     0
100
AcDbPoint
 10
-39.97999999999999
 20
70.03
 30
0.0
  0
ENDBLK
  5
137
330
12B
100
AcDbEntity
  8
0
 62
     1
100
AcDbBlockEnd
  0
BLOCK
  5
D7
330
CD
100
AcDbEntity
  8
0
 62
     1
100
AcDbBlockBegin
  2
*D7
 70
     1
 10
0.0
 20
0.0
 30
0.0
  3
*D7
  1

  0
LINE
  5
CE
330
CD
100
AcDbEntity
  8
画層1
 62
     0
100
AcDbLine
 10
-104.4799999999999
 20
83.1
 30
0.0
 11
-104.4799999999999
 21
68.78
 31
0.0
  0
LINE
  5
CF
330
CD
100
AcDbEntity
  8
画層1
 62
     0
100
AcDbLine
 10
-88.48
 20
104.6
 30
0.0
 11
-88.48
 21
68.78
 31
0.0
  0
LINE
  5
D0
330
CD
100
AcDbEntity
  8
画層1
 62
     0
100
AcDbLine
 10
-102.98
 20
70.03
 30
0.0
 11
-89.98000000000001
 21
70.03
 31
0.0
  0
INSERT
  5
D1
330
CD
100
AcDbEntity
  8
画層1
 62
     0
100
AcDbBlockReference
  2
_OPEN30
 10
-104.4799999999999
 20
70.03
 30
0.0
 41
1.5
 42
1.5
 43
1.5
 50
180.0
  0
INSERT
  5
D2
330
CD
100
AcDbEntity
  8
画層1
 62
     0
100
AcDbBlockReference
  2
_OPEN30
 10
-88.48
 20
70.03
 30
0.0
 41
1.5
 42
1.5
 43
1.5
  0
MTEXT
  5
D3
330
CD
100
AcDbEntity
  8
画層1
 62
     0
100
AcDbMText
 10
-96.48000000000001
 20
71.90999999999999
 30
0.0
 40
2.5
 41
0.0
 71
     5
 72
     1
  1
\A1;16
  7
STYLE1
 73
     1
 44
1.0
1001
ACAD
1000
MTEXTBEGIN
1070
    73
1070
     1
1070
    44
1040
1.0
1070
    74
1070
     0
1000
MTEXTEND
  0
POINT
  5
D4
330
CD
100
AcDbEntity
  8
DEFPOINTS
 62
     0
100
AcDbPoint
 10
-104.4799999999999
 20
83.73000000000001
 30
0.0
  0
POINT
  5
D5
330
CD
100
AcDbEntity
  8
DEFPOINTS
 62
     0
100
AcDbPoint
 10
-88.48
 20
105.23
 30
0.0
  0
POINT
  5
D6
330
CD
100
AcDbEntity
  8
DEFPOINTS
 62
     0
100
AcDbPoint
 10
-88.48
 20
70.03
 30
0.0
  0
ENDBLK
  5
D8
330
CD
100
AcDbEntity
  8
0
 62
     1
100
AcDbBlockEnd
  0
BLOCK
  5
F3
330
E9
100
AcDbEntity
  8
0
 62
     1
100
AcDbBlockBegin
  2
*D8
 70
     1
 10
0.0
 20
0.0
 30
0.0
  3
*D8
  1

  0
LINE
  5
EA
330
E9
100
AcDbEntity
  8
画層1
 62
     0
100
AcDbLine
 10
-103.8499999999999
 20
83.73000000000001
 30
0.0
 11
-55.22999999999999
 21
83.73000000000001
 31
0.0
  0
LINE
  5
EB
330
E9
100
AcDbEntity
  8
画層1
 62
     0
100
AcDbLine
 10
-72.34999999999999
 20
100.73
 30
0.0
 11
-55.22999999999999
 21
100.73
 31
0.0
  0
LINE
  5
EC
330
E9
100
AcDbEntity
  8
画層1
 62
     0
100
AcDbLine
 10
-56.47999999999999
 20
85.23000000000001
 30
0.0
 11
-56.47999999999999
 21
99.23000000000001
 31
0.0
  0
INSERT
  5
ED
330
E9
100
AcDbEntity
  8
画層1
 62
     0
100
AcDbBlockReference
  2
_OPEN30
 10
-56.47999999999999
 20
83.73000000000001
 30
0.0
 41
1.5
 42
1.5
 43
1.5
 50
270.0
  0
INSERT
  5
EE
330
E9
100
AcDbEntity
  8
画層1
 62
     0
100
AcDbBlockReference
  2
_OPEN30
 10
-56.47999999999999
 20
100.73
 30
0.0
 41
1.5
 42
1.5
 43
1.5
 50
90.0
  0
MTEXT
  5
EF
330
E9
100
AcDbEntity
  8
画層1
 62
     0
100
AcDbMText
 10
-58.36
 20
92.23
 30
0.0
 40
2.5
 41
0.0
 71
     5
 72
     1
  1
\A1;17
  7
STYLE1
 11
0.0
 21
1.0
 31
0.0
 73
     1
 44
1.0
1001
ACAD
1000
MTEXTBEGIN
1070
    73
1070
     1
1070
    44
1040
1.0
1070
    74
1070
     0
1000
MTEXTEND
  0
POINT
  5
F0
330
E9
100
AcDbEntity
  8
DEFPOINTS
 62
     0
100
AcDbPoint
 10
-104.4799999999999
 20
83.73000000000001
 30
0.0
  0
POINT
  5
F1
330
E9
100
AcDbEntity
  8
DEFPOINTS
 62
     0
100
AcDbPoint
 10
-72.98
 20
100.73
 30
0.0
  0
POINT
  5
F2
330
E9
100
AcDbEntity
  8
DEFPOINTS
 62
     0
100
AcDbPoint
 10
-56.47999999999999
 20
100.73
 30
0.0
  0
ENDBLK
  5
F4
330
E9
100
AcDbEntity
  8
0
 62
     1
100
AcDbBlockEnd
  0
BLOCK
  5
17D
330
173
100
AcDbEntity
  8
0
 62
     1
100
AcDbBlockBegin
  2
*D9
 70
     1
 10
0.0
 20
0.0
 30
0.0
  3
*D9
  1

  0
LINE
  5
174
330
173
100
AcDbEntity
  8
画層1
 62
     0
100
AcDbLine
 10
-214.48
 20
444.3599999999999
 30
0.0
 11
-214.48
 21
492.98
 31
0.0
  0
LINE
  5
175
330
173
100
AcDbEntity
  8
画層1
 62
     0
100
AcDbLine
 10
5.519999999999999
 20
444.3599999999999
 30
0.0
 11
5.519999999999999
 21
492.98
 31
0.0
  0
LINE
  5
176
330
173
100
AcDbEntity
  8
画層1
 62
     0
100
AcDbLine
 10
-212.9799999999999
 20
491.73
 30
0.0
 11
4.019999999999999
 21
491.73
 31
0.0
  0
INSERT
  5
177
330
173
100
AcDbEntity
  8
画層1
 62
     0
100
AcDbBlockReference
  2
_OPEN30
 10
-214.48
 20
491.73
 30
0.0
 41
1.5
 42
1.5
 43
1.5
 50
180.0
  0
INSERT
  5
178
330
173
100
AcDbEntity
  8
画層1
 62
     0
100
AcDbBlockReference
  2
_OPEN30
 10
5.519999999999999
 20
491.73
 30
0.0
 41
1.5
 42
1.5
 43
1.5
  0
MTEXT
  5
179
330
173
100
AcDbEntity
  8
画層1
 62
     0
100
AcDbMText
 10
-104.4799999999999
 20
493.61
 30
0.0
 40
2.5
 41
0.0
 71
     5
 72
     1
  1
\A1;220
  7
STYLE1
 73
     1
 44
1.0
1001
ACAD
1000
MTEXTBEGIN
1070
    73
1070
     1
1070
    44
1040
1.0
1070
    74
1070
     0
1000
MTEXTEND
  0
POINT
  5
17A
330
173
100
AcDbEntity
  8
DEFPOINTS
 62
     0
100
AcDbPoint
 10
-214.48
 20
443.73
 30
0.0
  0
POINT
  5
17B
330
173
100
AcDbEntity
  8
DEFPOINTS
 62
     0
100
AcDbPoint
 10
5.519999999999999
 20
443.73
 30
0.0
  0
POINT
  5
17C
330
173
100
AcDbEntity
  8
DEFPOINTS
 62
     0
100
AcDbPoint
 10
5.519999999999999
 20
491.73
 30
0.0
  0
ENDBLK
  5
17E
330
173
100
AcDbEntity
  8
0
 62
     1
100
AcDbBlockEnd
  0
BLOCK
  5
18A
330
180
100
AcDbEntity
  8
0
 62
     1
100
AcDbBlockBegin
  2
*D10
 70
     1
 10
0.0
 20
0.0
 30
0.0
  3
*D10
  1

  0
LINE
  5
181
330
180
100
AcDbEntity
  8
画層1
 62
     0
100
AcDbLine
 10
-164.48
 20
429.86
 30
0.0
 11
-164.48
 21
478.98
 31
0.0
  0
LINE
  5
182
330
180
100
AcDbEntity
  8
画層1
 62
     0
100
AcDbLine
 10
-44.47999999999999
 20
429.86
 30
0.0
 11
-44.47999999999999
 21
478.98
 31
0.0
  0
LINE
  5
183
330
180
100
AcDbEntity
  8
画層1
 62
     0
100
AcDbLine
 10
-162.9799999999999
 20
477.73
 30
0.0
 11
-45.97999999999999
 21
477.73
 31
0.0
  0
INSERT
  5
184
330
180
100
AcDbEntity
  8
画層1
 62
     0
100
AcDbBlockReference
  2
_OPEN30
 10
-164.48
 20
477.73
 30
0.0
 41
1.5
 42
1.5
 43
1.5
 50
180.0
  0
INSERT
  5
185
330
180
100
AcDbEntity
  8
画層1
 62
     0
100
AcDbBlockReference
  2
_OPEN30
 10
-44.47999999999999
 20
477.73
 30
0.0
 41
1.5
 42
1.5
 43
1.5
  0
MTEXT
  5
186
330
180
100
AcDbEntity
  8
画層1
 62
     0
100
AcDbMText
 10
-104.4799999999999
 20
479.61
 30
0.0
 40
2.5
 41
0.0
 71
     5
 72
     1
  1
\A1;120
  7
STYLE1
 73
     1
 44
1.0
1001
ACAD
1000
MTEXTBEGIN
1070
    73
1070
     1
1070
    44
1040
1.0
1070
    74
1070
     0
1000
MTEXTEND
  0
POINT
  5
187
330
180
100
AcDbEntity
  8
DEFPOINTS
 62
     0
100
AcDbPoint
 10
-164.48
 20
429.23
 30
0.0
  0
POINT
  5
188
330
180
100
AcDbEntity
  8
DEFPOINTS
 62
     0
100
AcDbPoint
 10
-44.47999999999999
 20
429.23
 30
0.0
  0
POINT
  5
189
330
180
100
AcDbEntity
  8
DEFPOINTS
 62
     0
100
AcDbPoint
 10
-44.47999999999999
 20
477.73
 30
0.0
  0
ENDBLK
  5
18B
330
180
100
AcDbEntity
  8
0
 62
     1
100
AcDbBlockEnd
  0
BLOCK
  5
197
330
18D
100
AcDbEntity
  8
0
 62
     1
100
AcDbBlockBegin
  2
*D11
 70
     1
 10
0.0
 20
0.0
 30
0.0
  3
*D11
  1

  0
LINE
  5
18E
330
18D
100
AcDbEntity
  8
画層1
 62
     0
100
AcDbLine
 10
-44.47999999999999
 20
433.86
 30
0.0
 11
-44.47999999999999
 21
390.48
 31
0.0
  0
LINE
  5
18F
330
18D
100
AcDbEntity
  8
画層1
 62
     0
100
AcDbLine
 10
-104.4799999999999
 20
423.8599999999999
 30
0.0
 11
-104.4799999999999
 21
390.48
 31
0.0
  0
LINE
  5
190
330
18D
100
AcDbEntity
  8
画層1
 62
     0
100
AcDbLine
 10
-45.97999999999999
 20
391.73
 30
0.0
 11
-102.98
 21
391.73
 31
0.0
  0
INSERT
  5
191
330
18D
100
AcDbEntity
  8
画層1
 62
     0
100
AcDbBlockReference
  2
_OPEN30
 10
-44.47999999999999
 20
391.73
 30
0.0
 41
1.5
 42
1.5
 43
1.5
  0
INSERT
  5
192
330
18D
100
AcDbEntity
  8
画層1
 62
     0
100
AcDbBlockReference
  2
_OPEN30
 10
-104.4799999999999
 20
391.73
 30
0.0
 41
1.5
 42
1.5
 43
1.5
 50
180.0
  0
MTEXT
  5
193
330
18D
100
AcDbEntity
  8
画層1
 62
     0
100
AcDbMText
 10
-74.48
 20
393.61
 30
0.0
 40
2.5
 41
0.0
 71
     5
 72
     1
  1
\A1;60
  7
STYLE1
 73
     1
 44
1.0
1001
ACAD
1000
MTEXTBEGIN
1070
    73
1070
     1
1070
    44
1040
1.0
1070
    74
1070
     0
1000
MTEXTEND
  0
POINT
  5
194
330
18D
100
AcDbEntity
  8
DEFPOINTS
 62
     0
100
AcDbPoint
 10
-44.47999999999999
 20
434.4899999999999
 30
0.0
  0
POINT
  5
195
330
18D
100
AcDbEntity
  8
DEFPOINTS
 62
     0
100
AcDbPoint
 10
-104.4799999999999
 20
424.49
 30
0.0
  0
POINT
  5
196
330
18D
100
AcDbEntity
  8
DEFPOINTS
 62
     0
100
AcDbPoint
 10
-104.4799999999999
 20
391.73
 30
0.0
  0
ENDBLK
  5
198
330
18D
100
AcDbEntity
  8
0
 62
     1
100
AcDbBlockEnd
  0
BLOCK
  5
36C
330
362
100
AcDbEntity
  8
0
 62
     1
100
AcDbBlockBegin
  2
*D12
 70
     1
 10
0.0
 20
0.0
 30
0.0
  3
*D12
  1

  0
LINE
  5
363
330
362
100
AcDbEntity
  8
画層1
 62
     0
100
AcDbLine
 10
-165.11
 20
443.73
 30
0.0
 11
-183.7299999999999
 21
443.73
 31
0.0
  0
LINE
  5
364
330
362
100
AcDbEntity
  8
画層1
 62
     0
100
AcDbLine
 10
-158.3499999999999
 20
431.73
 30
0.0
 11
-183.7299999999999
 21
431.73
 31
0.0
  0
LINE
  5
365
330
362
100
AcDbEntity
  8
画層1
 62
     0
100
AcDbLine
 10
-182.4799999999999
 20
442.2299999999999
 30
0.0
 11
-182.4799999999999
 21
433.23
 31
0.0
  0
INSERT
  5
366
330
362
100
AcDbEntity
  8
画層1
 62
     0
100
AcDbBlockReference
  2
_OPEN30
 10
-182.4799999999999
 20
443.73
 30
0.0
 41
1.5
 42
1.5
 43
1.5
 50
90.0
  0
INSERT
  5
367
330
362
100
AcDbEntity
  8
画層1
 62
     0
100
AcDbBlockReference
  2
_OPEN30
 10
-182.4799999999999
 20
431.73
 30
0.0
 41
1.5
 42
1.5
 43
1.5
 50
270.0
  0
MTEXT
  5
368
330
362
100
AcDbEntity
  8
画層1
 62
     0
100
AcDbMText
 10
-184.36
 20
437.7299999999999
 30
0.0
 40
2.5
 41
0.0
 71
     5
 72
     1
  1
\A1;12
  7
STYLE1
 11
0.0
 21
1.0
 31
0.0
 73
     1
 44
1.0
1001
ACAD
1000
MTEXTBEGIN
1070
    73
1070
     1
1070
    44
1040
1.0
1070
    74
1070
     0
1000
MTEXTEND
  0
POINT
  5
369
330
362
100
AcDbEntity
  8
DEFPOINTS
 62
     0
100
AcDbPoint
 10
-164.48
 20
443.73
 30
0.0
  0
POINT
  5
36A
330
362
100
AcDbEntity
  8
DEFPOINTS
 62
     0
100
AcDbPoint
 10
-157.7199999999999
 20
431.73
 30
0.0
  0
POINT
  5
36B
330
362
100
AcDbEntity
  8
DEFPOINTS
 62
     0
100
AcDbPoint
 10
-182.4799999999999
 20
431.73
 30
0.0
  0
ENDBLK
  5
36D
330
362
100
AcDbEntity
  8
0
 62
     1
100
AcDbBlockEnd
  0
BLOCK
  5
5C
330
52
100
AcDbEntity
  8
0
 62
     1
100
AcDbBlockBegin
  2
*D13
 70
     1
 10
0.0
 20
0.0
 30
0.0
  3
*D13
  1

  0
LINE
  5
53
330
52
100
AcDbEntity
  8
画層1
 62
     0
100
AcDbLine
 10
319.0199999999999
 20
84.59999999999999
 30
0.0
 11
319.0199999999999
 21
68.78
 31
0.0
  0
LINE
  5
54
330
52
100
AcDbEntity
  8
画層1
 62
     0
100
AcDbLine
 10
164.02
 20
90.09999999999999
 30
0.0
 11
164.02
 21
68.78
 31
0.0
  0
LINE
  5
55
330
52
100
AcDbEntity
  8
画層1
 62
     0
100
AcDbLine
 10
317.5199999999999
 20
70.03
 30
0.0
 11
165.52
 21
70.03
 31
0.0
  0
INSERT
  5
56
330
52
100
AcDbEntity
  8
画層1
 62
     0
100
AcDbBlockReference
  2
_OPEN30
 10
319.0199999999999
 20
70.03
 30
0.0
 41
1.5
 42
1.5
 43
1.5
  0
INSERT
  5
57
330
52
100
AcDbEntity
  8
画層1
 62
     0
100
AcDbBlockReference
  2
_OPEN30
 10
164.02
 20
70.03
 30
0.0
 41
1.5
 42
1.5
 43
1.5
 50
180.0
  0
MTEXT
  5
58
330
52
100
AcDbEntity
  8
画層1
 62
     0
100
AcDbMText
 10
241.52
 20
71.90999999999999
 30
0.0
 40
2.5
 41
0.0
 71
     5
 72
     1
  1
\A1;155
  7
STYLE1
 73
     1
 44
1.0
1001
ACAD
1000
MTEXTBEGIN
1070
    73
1070
     1
1070
    44
1040
1.0
1070
    74
1070
     0
1000
MTEXTEND
  0
POINT
  5
59
330
52
100
AcDbEntity
  8
DEFPOINTS
 62
     0
100
AcDbPoint
 10
319.0199999999999
 20
85.23000000000001
 30
0.0
  0
POINT
  5
5A
330
52
100
AcDbEntity
  8
DEFPOINTS
 62
     0
100
AcDbPoint
 10
164.02
 20
90.73
 30
0.0
  0
POINT
  5
5B
330
52
100
AcDbEntity
  8
DEFPOINTS
 62
     0
100
AcDbPoint
 10
164.02
 20
70.03
 30
0.0
  0
ENDBLK
  5
5D
330
52
100
AcDbEntity
  8
0
 62
     1
100
AcDbBlockEnd
  0
BLOCK
  5
4F
330
45
100
AcDbEntity
  8
0
 62
     1
100
AcDbBlockBegin
  2
*D14
 70
     1
 10
0.0
 20
0.0
 30
0.0
  3
*D14
  1

  0
LINE
  5
46
330
45
100
AcDbEntity
  8
画層1
 62
     0
100
AcDbLine
 10
104.02
 20
425.9599999999999
 30
0.0
 11
104.02
 21
492.98
 31
0.0
  0
LINE
  5
47
330
45
100
AcDbEntity
  8
画層1
 62
     0
100
AcDbLine
 10
319.0199999999999
 20
442.86
 30
0.0
 11
319.0199999999999
 21
492.98
 31
0.0
  0
LINE
  5
48
330
45
100
AcDbEntity
  8
画層1
 62
     0
100
AcDbLine
 10
105.5199999999999
 20
491.73
 30
0.0
 11
317.5199999999999
 21
491.73
 31
0.0
  0
INSERT
  5
49
330
45
100
AcDbEntity
  8
画層1
 62
     0
100
AcDbBlockReference
  2
_OPEN30
 10
104.02
 20
491.73
 30
0.0
 41
1.5
 42
1.5
 43
1.5
 50
180.0
  0
INSERT
  5
4A
330
45
100
AcDbEntity
  8
画層1
 62
     0
100
AcDbBlockReference
  2
_OPEN30
 10
319.0199999999999
 20
491.73
 30
0.0
 41
1.5
 42
1.5
 43
1.5
  0
MTEXT
  5
4B
330
45
100
AcDbEntity
  8
画層1
 62
     0
100
AcDbMText
 10
211.52
 20
493.61
 30
0.0
 40
2.5
 41
0.0
 71
     5
 72
     1
  1
\A1;215
  7
STYLE1
 73
     1
 44
1.0
1001
ACAD
1000
MTEXTBEGIN
1070
    73
1070
     1
1070
    44
1040
1.0
1070
    74
1070
     0
1000
MTEXTEND
  0
POINT
  5
4C
330
45
100
AcDbEntity
  8
DEFPOINTS
 62
     0
100
AcDbPoint
 10
104.02
 20
425.33
 30
0.0
  0
POINT
  5
4D
330
45
100
AcDbEntity
  8
DEFPOINTS
 62
     0
100
AcDbPoint
 10
319.0199999999999
 20
442.2299999999999
 30
0.0
  0
POINT
  5
4E
330
45
100
AcDbEntity
  8
DEFPOINTS
 62
     0
100
AcDbPoint
 10
319.0199999999999
 20
491.73
 30
0.0
  0
ENDBLK
  5
50
330
45
100
AcDbEntity
  8
0
 62
     1
100
AcDbBlockEnd
  0
BLOCK
  5
42
330
37
100
AcDbEntity
  8
0
 62
     1
100
AcDbBlockBegin
  2
*D15
 70
     1
 10
0.0
 20
0.0
 30
0.0
  3
*D15
  1

  0
LINE
  5
38
330
37
100
AcDbEntity
  8
画層1
 62
     0
100
AcDbLine
 10
191.02
 20
442.36
 30
0.0
 11
191.02
 21
478.98
 31
0.0
  0
LINE
  5
39
330
37
100
AcDbEntity
  8
画層1
 62
     0
100
AcDbLine
 10
319.0199999999999
 20
442.86
 30
0.0
 11
319.0199999999999
 21
478.98
 31
0.0
  0
LINE
  5
3A
330
37
100
AcDbEntity
  8
画層1
 62
     0
100
AcDbLine
 10
192.52
 20
477.73
 30
0.0
 11
317.5199999999999
 21
477.73
 31
0.0
  0
INSERT
  5
3B
330
37
100
AcDbEntity
  8
画層1
 62
     0
100
AcDbBlockReference
  2
_OPEN30
 10
191.02
 20
477.73
 30
0.0
 41
1.5
 42
1.5
 43
1.5
 50
180.0
  0
INSERT
  5
3C
330
37
100
AcDbEntity
  8
画層1
 62
     0
100
AcDbBlockReference
  2
_OPEN30
 10
319.0199999999999
 20
477.73
 30
0.0
 41
1.5
 42
1.5
 43
1.5
  0
MTEXT
  5
3D
330
37
100
AcDbEntity
  8
画層1
 62
     0
100
AcDbMText
 10
255.02
 20
479.61
 30
0.0
 40
2.5
 41
0.0
 71
     5
 72
     1
  1
\A1;128
  7
STYLE1
 73
     1
 44
1.0
1001
ACAD
1000
MTEXTBEGIN
1070
    73
1070
     1
1070
    44
1040
1.0
1070
    74
1070
     0
1000
MTEXTEND
  0
POINT
  5
3E
330
37
100
AcDbEntity
  8
DEFPOINTS
 62
     0
100
AcDbPoint
 10
191.02
 20
441.73
 30
0.0
  0
POINT
  5
40
330
37
100
AcDbEntity
  8
DEFPOINTS
 62
     0
100
AcDbPoint
 10
319.0199999999999
 20
442.2299999999999
 30
0.0
  0
POINT
  5
41
330
37
100
AcDbEntity
  8
DEFPOINTS
 62
     0
100
AcDbPoint
 10
319.0199999999999
 20
477.73
 30
0.0
  0
ENDBLK
  5
43
330
37
100
AcDbEntity
  8
0
 62
     1
100
AcDbBlockEnd
  0
BLOCK
  5
409
330
3FF
100
AcDbEntity
  8
0
 62
     1
100
AcDbBlockBegin
  2
*D16
 70
     1
 10
0.0
 20
0.0
 30
0.0
  3
*D16
  1

  0
LINE
  5
400
330
3FF
100
AcDbEntity
  8
画層1
 62
     0
100
AcDbLine
 10
121.15
 20
443.73
 30
0.0
 11
146.77
 21
443.73
 31
0.0
  0
LINE
  5
401
330
3FF
100
AcDbEntity
  8
画層1
 62
     0
100
AcDbLine
 10
158.3899999999999
 20
463.73
 30
0.0
 11
144.27
 21
463.73
 31
0.0
  0
LINE
  5
402
330
3FF
100
AcDbEntity
  8
画層1
 62
     0
100
AcDbLine
 10
145.52
 20
445.23
 30
0.0
 11
145.52
 21
462.23
 31
0.0
  0
INSERT
  5
403
330
3FF
100
AcDbEntity
  8
画層1
 62
     0
100
AcDbBlockReference
  2
_OPEN30
 10
145.52
 20
443.73
 30
0.0
 41
1.5
 42
1.5
 43
1.5
 50
270.0
  0
INSERT
  5
404
330
3FF
100
AcDbEntity
  8
画層1
 62
     0
100
AcDbBlockReference
  2
_OPEN30
 10
145.52
 20
463.73
 30
0.0
 41
1.5
 42
1.5
 43
1.5
 50
90.0
  0
MTEXT
  5
405
330
3FF
100
AcDbEntity
  8
画層1
 62
     0
100
AcDbMText
 10
143.6399999999999
 20
453.73
 30
0.0
 40
2.5
 41
0.0
 71
     5
 72
     1
  1
\A1;20
  7
STYLE1
 11
0.0
 21
1.0
 31
0.0
 73
     1
 44
1.0
1001
ACAD
1000
MTEXTBEGIN
1070
    73
1070
     1
1070
    44
1040
1.0
1070
    74
1070
     0
1000
MTEXTEND
  0
POINT
  5
406
330
3FF
100
AcDbEntity
  8
DEFPOINTS
 62
     0
100
AcDbPoint
 10
120.52
 20
443.73
 30
0.0
  0
POINT
  5
407
330
3FF
100
AcDbEntity
  8
DEFPOINTS
 62
     0
100
AcDbPoint
 10
159.02
 20
463.73
 30
0.0
  0
POINT
  5
408
330
3FF
100
AcDbEntity
  8
DEFPOINTS
 62
     0
100
AcDbPoint
 10
145.52
 20
463.73
 30
0.0
  0
ENDBLK
  5
40A
330
3FF
100
AcDbEntity
  8
0
 62
     1
100
AcDbBlockEnd
  0
BLOCK
  5
444
330
43A
100
AcDbEntity
  8
0
 62
     1
100
AcDbBlockBegin
  2
*D17
 70
     1
 10
0.0
 20
0.0
 30
0.0
  3
*D17
  1

  0
LINE
  5
4AE
330
43A
100
AcDbEntity
  8
画層1
 62
     0
370
    -2
100
AcDbLine
 10
-104.4799999999999
 20
423.8599999999999
 30
0.0
 11
-104.4799999999999
 21
390.48
 31
0.0
  0
LINE
  5
4AF
330
43A
100
AcDbEntity
  8
画層1
 62
     0
370
    -2
100
AcDbLine
 10
-164.48
 20
433.86
 30
0.0
 11
-164.48
 21
390.48
 31
0.0
  0
LINE
  5
4B0
330
43A
100
AcDbEntity
  8
画層1
 62
     0
370
    -2
100
AcDbLine
 10
-105.98
 20
391.73
 30
0.0
 11
-162.9799999999999
 21
391.73
 31
0.0
  0
INSERT
  5
4B1
330
43A
100
AcDbEntity
  8
画層1
 62
     0
370
    -2
100
AcDbBlockReference
  2
_OPEN30
 10
-104.4799999999999
 20
391.73
 30
0.0
 41
1.5
 42
1.5
 43
1.5
  0
INSERT
  5
4B2
330
43A
100
AcDbEntity
  8
画層1
 62
     0
370
    -2
100
AcDbBlockReference
  2
_OPEN30
 10
-164.48
 20
391.73
 30
0.0
 41
1.5
 42
1.5
 43
1.5
 50
180.0
  0
MTEXT
  5
4B3
330
43A
100
AcDbEntity
  8
画層1
 62
     0
100
AcDbMText
 10
-134.4799999999999
 20
393.61
 30
0.0
 40
2.5
 41
0.0
 71
     5
 72
     1
  1
\A1;60
  7
STYLE1
 73
     1
 44
1.0
  0
POINT
  5
4B4
330
43A
100
AcDbEntity
  8
DEFPOINTS
 62
     0
100
AcDbPoint
 10
-104.4799999999999
 20
424.49
 30
0.0
  0
POINT
  5
4B5
330
43A
100
AcDbEntity
  8
DEFPOINTS
 62
     0
100
AcDbPoint
 10
-164.48
 20
434.4899999999999
 30
0.0
  0
POINT
  5
4B6
330
43A
100
AcDbEntity
  8
DEFPOINTS
 62
     0
100
AcDbPoint
 10
-164.48
 20
391.73
 30
0.0
  0
ENDBLK
  5
445
330
43A
100
AcDbEntity
  8
0
 62
     1
100
AcDbBlockEnd
  0
BLOCK
  5
457
330
44D
100
AcDbEntity
  8
0
 62
     1
100
AcDbBlockBegin
  2
*D18
 70
     1
 10
0.0
 20
0.0
 30
0.0
  3
*D18
  1

  0
LINE
  5
44E
330
44D
100
AcDbEntity
  8
画層1
 62
     0
370
    -2
100
AcDbLine
 10
6.149999999999999
 20
443.73
 30
0.0
 11
34.77000000000008
 21
443.73
 31
0.0
  0
LINE
  5
44F
330
44D
100
AcDbEntity
  8
画層1
 62
     0
370
    -2
100
AcDbLine
 10
6.149999999999999
 20
83.73000000000001
 30
0.0
 11
34.77
 21
83.72999999999999
 31
0.0
  0
LINE
  5
450
330
44D
100
AcDbEntity
  8
画層1
 62
     0
370
    -2
100
AcDbLine
 10
33.52000000000008
 20
442.2299999999999
 30
0.0
 11
33.52
 21
85.22999999999999
 31
0.0
  0
INSERT
  5
451
330
44D
100
AcDbEntity
  8
画層1
 62
     0
370
    -2
100
AcDbBlockReference
  2
_OPEN30
 10
33.52000000000008
 20
443.73
 30
0.0
 41
1.5
 42
1.5
 43
1.5
 50
90.0
  0
INSERT
  5
452
330
44D
100
AcDbEntity
  8
画層1
 62
     0
370
    -2
100
AcDbBlockReference
  2
_OPEN30
 10
33.52
 20
83.72999999999999
 30
0.0
 41
1.5
 42
1.5
 43
1.5
 50
270.0
  0
MTEXT
  5
453
330
44D
100
AcDbEntity
  8
画層1
 62
     0
100
AcDbMText
 10
31.64
 20
263.73
 30
0.0
 40
2.5
 41
0.0
 71
     5
 72
     1
  1
\A1;360
  7
STYLE1
 11
0.0000000000000001
 21
1.0
 31
0.0
 73
     1
 44
1.0
  0
POINT
  5
454
330
44D
100
AcDbEntity
  8
DEFPOINTS
 62
     0
100
AcDbPoint
 10
5.519999999999999
 20
443.73
 30
0.0
  0
POINT
  5
455
330
44D
100
AcDbEntity
  8
DEFPOINTS
 62
     0
100
AcDbPoint
 10
5.519999999999999
 20
83.73000000000001
 30
0.0
  0
POINT
  5
456
330
44D
100
AcDbEntity
  8
DEFPOINTS
 62
     0
100
AcDbPoint
 10
33.52
 20
83.72999999999999
 30
0.0
  0
ENDBLK
  5
458
330
44D
100
AcDbEntity
  8
0
 62
     1
100
AcDbBlockEnd
  0
BLOCK
  5
463
330
459
100
AcDbEntity
  8
0
 62
     1
100
AcDbBlockBegin
  2
*D19
 70
     1
 10
0.0
 20
0.0
 30
0.0
  3
*D19
  1

  0
LINE
  5
45A
330
459
100
AcDbEntity
  8
画層1
 62
     0
370
    -2
100
AcDbLine
 10
-52.34999999999999
 20
433.7299999999999
 30
0.0
 11
20.77000000000007
 21
433.7299999999999
 31
0.0
  0
LINE
  5
45B
330
459
100
AcDbEntity
  8
画層1
 62
     0
370
    -2
100
AcDbLine
 10
-52.34999999999999
 20
93.73000000000001
 30
0.0
 11
20.77
 21
93.72999999999999
 31
0.0
  0
LINE
  5
45C
330
459
100
AcDbEntity
  8
画層1
 62
     0
370
    -2
100
AcDbLine
 10
19.52000000000007
 20
432.23
 30
0.0
 11
19.51999999999999
 21
95.22999999999999
 31
0.0
  0
INSERT
  5
45D
330
459
100
AcDbEntity
  8
画層1
 62
     0
370
    -2
100
AcDbBlockReference
  2
_OPEN30
 10
19.52000000000007
 20
433.7299999999999
 30
0.0
 41
1.5
 42
1.5
 43
1.5
 50
90.0
  0
INSERT
  5
45E
330
459
100
AcDbEntity
  8
画層1
 62
     0
370
    -2
100
AcDbBlockReference
  2
_OPEN30
 10
19.51999999999999
 20
93.72999999999999
 30
0.0
 41
1.5
 42
1.5
 43
1.5
 50
270.0
  0
MTEXT
  5
45F
330
459
100
AcDbEntity
  8
画層1
 62
     0
100
AcDbMText
 10
17.63999999999999
 20
263.73
 30
0.0
 40
2.5
 41
0.0
 71
     5
 72
     1
  1
\A1;340
  7
STYLE1
 11
0.0000000000000001
 21
1.0
 31
0.0
 73
     1
 44
1.0
  0
POINT
  5
460
330
459
100
AcDbEntity
  8
DEFPOINTS
 62
     0
100
AcDbPoint
 10
-52.98
 20
433.7299999999999
 30
0.0
  0
POINT
  5
461
330
459
100
AcDbEntity
  8
DEFPOINTS
 62
     0
100
AcDbPoint
 10
-52.98
 20
93.73000000000001
 30
0.0
  0
POINT
  5
462
330
459
100
AcDbEntity
  8
DEFPOINTS
 62
     0
100
AcDbPoint
 10
19.51999999999999
 20
93.72999999999999
 30
0.0
  0
ENDBLK
  5
464
330
459
100
AcDbEntity
  8
0
 62
     1
100
AcDbBlockEnd
  0
BLOCK
  5
46F
330
465
100
AcDbEntity
  8
0
 62
     1
100
AcDbBlockBegin
  2
*D20
 70
     1
 10
0.0
 20
0.0
 30
0.0
  3
*D20
  1

  0
LINE
  5
466
330
465
100
AcDbEntity
  8
画層1
 62
     0
370
    -2
100
AcDbLine
 10
-103.85
 20
83.73000000000001
 30
0.0
 11
-55.22999999999999
 21
83.72999999999999
 31
0.0
  0
LINE
  5
467
330
465
100
AcDbEntity
  8
画層1
 62
     0
370
    -2
100
AcDbLine
 10
-72.35000000000001
 20
100.73
 30
0.0
 11
-55.22999999999999
 21
100.73
 31
0.0
  0
LINE
  5
468
330
465
100
AcDbEntity
  8
画層1
 62
     0
370
    -2
100
AcDbLine
 10
-56.47999999999999
 20
85.22999999999999
 30
0.0
 11
-56.47999999999999
 21
99.23000000000001
 31
0.0
  0
INSERT
  5
469
330
465
100
AcDbEntity
  8
画層1
 62
     0
370
    -2
100
AcDbBlockReference
  2
_OPEN30
 10
-56.47999999999999
 20
83.72999999999999
 30
0.0
 41
1.5
 42
1.5
 43
1.5
 50
270.0
  0
INSERT
  5
46A
330
465
100
AcDbEntity
  8
画層1
 62
     0
370
    -2
100
AcDbBlockReference
  2
_OPEN30
 10
-56.47999999999999
 20
100.73
 30
0.0
 41
1.5
 42
1.5
 43
1.5
 50
90.0
  0
MTEXT
  5
46B
330
465
100
AcDbEntity
  8
画層1
 62
     0
100
AcDbMText
 10
-58.36000000000002
 20
92.22999999999998
 30
0.0
 40
2.5
 41
0.0
 71
     5
 72
     1
  1
\A1;17
  7
STYLE1
 11
0.0000000000000001
 21
1.0
 31
0.0
 73
     1
 44
1.0
  0
POINT
  5
46C
330
465
100
AcDbEntity
  8
DEFPOINTS
 62
     0
100
AcDbPoint
 10
-104.4799999999999
 20
83.73000000000001
 30
0.0
  0
POINT
  5
46D
330
465
100
AcDbEntity
  8
DEFPOINTS
 62
     0
100
AcDbPoint
 10
-72.98
 20
100.73
 30
0.0
  0
POINT
  5
46E
330
465
100
AcDbEntity
  8
DEFPOINTS
 62
     0
100
AcDbPoint
 10
-56.47999999999999
 20
100.73
 30
0.0
  0
ENDBLK
  5
470
330
465
100
AcDbEntity
  8
0
 62
     1
100
AcDbBlockEnd
  0
BLOCK
  5
47B
330
471
100
AcDbEntity
  8
0
 62
     1
100
AcDbBlockBegin
  2
*D21
 70
     1
 10
0.0
 20
0.0
 30
0.0
  3
*D21
  1

  0
LINE
  5
472
330
471
100
AcDbEntity
  8
画層1
 62
     0
370
    -2
100
AcDbLine
 10
-104.4799999999999
 20
83.1
 30
0.0
 11
-104.4799999999999
 21
68.78
 31
0.0
  0
LINE
  5
473
330
471
100
AcDbEntity
  8
画層1
 62
     0
370
    -2
100
AcDbLine
 10
-88.48
 20
104.6
 30
0.0
 11
-88.48
 21
68.78
 31
0.0
  0
LINE
  5
474
330
471
100
AcDbEntity
  8
画層1
 62
     0
370
    -2
100
AcDbLine
 10
-102.98
 20
70.03
 30
0.0
 11
-89.98000000000001
 21
70.03
 31
0.0
  0
INSERT
  5
475
330
471
100
AcDbEntity
  8
画層1
 62
     0
370
    -2
100
AcDbBlockReference
  2
_OPEN30
 10
-104.4799999999999
 20
70.03
 30
0.0
 41
1.5
 42
1.5
 43
1.5
 50
180.0
  0
INSERT
  5
476
330
471
100
AcDbEntity
  8
画層1
 62
     0
370
    -2
100
AcDbBlockReference
  2
_OPEN30
 10
-88.48
 20
70.03
 30
0.0
 41
1.5
 42
1.5
 43
1.5
  0
MTEXT
  5
477
330
471
100
AcDbEntity
  8
画層1
 62
     0
100
AcDbMText
 10
-96.48000000000001
 20
71.90999999999999
 30
0.0
 40
2.5
 41
0.0
 71
     5
 72
     1
  1
\A1;16
  7
STYLE1
 73
     1
 44
1.0
  0
POINT
  5
478
330
471
100
AcDbEntity
  8
DEFPOINTS
 62
     0
100
AcDbPoint
 10
-104.4799999999999
 20
83.73000000000001
 30
0.0
  0
POINT
  5
479
330
471
100
AcDbEntity
  8
DEFPOINTS
 62
     0
100
AcDbPoint
 10
-88.48
 20
105.23
 30
0.0
  0
POINT
  5
47A
330
471
100
AcDbEntity
  8
DEFPOINTS
 62
     0
100
AcDbPoint
 10
-88.48
 20
70.03
 30
0.0
  0
ENDBLK
  5
47C
330
471
100
AcDbEntity
  8
0
 62
     1
100
AcDbBlockEnd
  0
BLOCK
  5
488
330
47D
100
AcDbEntity
  8
0
 62
     1
100
AcDbBlockBegin
  2
*D22
 70
     1
 10
0.0
 20
0.0
 30
0.0
  3
*D22
  1

  0
LINE
  5
47E
330
47D
100
AcDbEntity
  8
画層1
 62
     0
370
    -2
100
AcDbLine
 10
-48.97999999999999
 20
84.6
 30
0.0
 11
-48.97999999999999
 21
68.78
 31
0.0
  0
LINE
  5
47F
330
47D
100
AcDbEntity
  8
画層1
 62
     0
370
    -2
100
AcDbLine
 10
-39.97999999999999
 20
84.6
 30
0.0
 11
-39.97999999999999
 21
68.78
 31
0.0
  0
LINE
  5
480
330
47D
100
AcDbEntity
  8
画層1
 62
     0
370
    -2
100
AcDbLine
 10
-47.48
 20
70.03
 30
0.0
 11
-41.47999999999999
 21
70.03
 31
0.0
  0
LINE
  5
481
330
47D
100
AcDbEntity
  8
画層1
 62
     0
370
    -2
100
AcDbLine
 10
-39.97999999999999
 20
70.03
 30
0.0
 11
-19.6438578680203
 21
70.03
 31
0.0
  0
INSERT
  5
482
330
47D
100
AcDbEntity
  8
画層1
 62
     0
370
    -2
100
AcDbBlockReference
  2
_OPEN30
 10
-48.97999999999999
 20
70.03
 30
0.0
 41
1.5
 42
1.5
 43
1.5
 50
180.0
  0
INSERT
  5
483
330
47D
100
AcDbEntity
  8
画層1
 62
     0
370
    -2
100
AcDbBlockReference
  2
_OPEN30
 10
-39.97999999999999
 20
70.03
 30
0.0
 41
1.5
 42
1.5
 43
1.5
  0
MTEXT
  5
484
330
47D
100
AcDbEntity
  8
画層1
 62
     0
100
AcDbMText
 10
-29.06192893401014
 20
72.07497461928934
 30
0.0
 40
2.5
 41
0.0
 71
     5
 72
     1
  1
\A1;2-9キリカキ
  7
STYLE1
 73
     1
 44
1.0
  0
POINT
  5
485
330
47D
100
AcDbEntity
  8
DEFPOINTS
 62
     0
100
AcDbPoint
 10
-48.97999999999999
 20
85.23000000000001
 30
0.0
  0
POINT
  5
486
330
47D
100
AcDbEntity
  8
DEFPOINTS
 62
     0
100
AcDbPoint
 10
-39.97999999999999
 20
85.23000000000001
 30
0.0
  0
POINT
  5
487
330
47D
100
AcDbEntity
  8
DEFPOINTS
 62
     0
100
AcDbPoint
 10
-39.97999999999999
 20
70.03
 30
0.0
  0
ENDBLK
  5
489
330
47D
100
AcDbEntity
  8
0
 62
     1
100
AcDbBlockEnd
  0
BLOCK
  5
494
330
48A
100
AcDbEntity
  8
0
 62
     1
100
AcDbBlockBegin
  2
*D23
 70
     1
 10
0.0
 20
0.0
 30
0.0
  3
*D23
  1

  0
LINE
  5
48B
330
48A
100
AcDbEntity
  8
画層1
 62
     0
370
    -2
100
AcDbLine
 10
-44.47999999999999
 20
433.86
 30
0.0
 11
-44.47999999999999
 21
390.48
 31
0.0
  0
LINE
  5
48C
330
48A
100
AcDbEntity
  8
画層1
 62
     0
370
    -2
100
AcDbLine
 10
-104.4799999999999
 20
423.8599999999999
 30
0.0
 11
-104.4799999999999
 21
390.48
 31
0.0
  0
LINE
  5
48D
330
48A
100
AcDbEntity
  8
画層1
 62
     0
370
    -2
100
AcDbLine
 10
-45.97999999999999
 20
391.73
 30
0.0
 11
-102.98
 21
391.73
 31
0.0
  0
INSERT
  5
48E
330
48A
100
AcDbEntity
  8
画層1
 62
     0
370
    -2
100
AcDbBlockReference
  2
_OPEN30
 10
-44.47999999999999
 20
391.73
 30
0.0
 41
1.5
 42
1.5
 43
1.5
  0
INSERT
  5
48F
330
48A
100
AcDbEntity
  8
画層1
 62
     0
370
    -2
100
AcDbBlockReference
  2
_OPEN30
 10
-104.4799999999999
 20
391.73
 30
0.0
 41
1.5
 42
1.5
 43
1.5
 50
180.0
  0
MTEXT
  5
490
330
48A
100
AcDbEntity
  8
画層1
 62
     0
100
AcDbMText
 10
-74.48
 20
393.61
 30
0.0
 40
2.5
 41
0.0
 71
     5
 72
     1
  1
\A1;60
  7
STYLE1
 73
     1
 44
1.0
  0
POINT
  5
491
330
48A
100
AcDbEntity
  8
DEFPOINTS
 62
     0
100
AcDbPoint
 10
-44.47999999999999
 20
434.4899999999999
 30
0.0
  0
POINT
  5
492
330
48A
100
AcDbEntity
  8
DEFPOINTS
 62
     0
100
AcDbPoint
 10
-104.4799999999999
 20
424.49
 30
0.0
  0
POINT
  5
493
330
48A
100
AcDbEntity
  8
DEFPOINTS
 62
     0
100
AcDbPoint
 10
-104.4799999999999
 20
391.73
 30
0.0
  0
ENDBLK
  5
495
330
48A
100
AcDbEntity
  8
0
 62
     1
100
AcDbBlockEnd
  0
BLOCK
  5
4A0
330
496
100
AcDbEntity
  8
0
 62
     1
100
AcDbBlockBegin
  2
*D24
 70
     1
 10
0.0
 20
0.0
 30
0.0
  3
*D24
  1

  0
LINE
  5
497
330
496
100
AcDbEntity
  8
画層1
 62
     0
370
    -2
100
AcDbLine
 10
-164.48
 20
429.86
 30
0.0
 11
-164.48
 21
478.98
 31
0.0
  0
LINE
  5
498
330
496
100
AcDbEntity
  8
画層1
 62
     0
370
    -2
100
AcDbLine
 10
-44.47999999999999
 20
429.86
 30
0.0
 11
-44.47999999999999
 21
478.98
 31
0.0
  0
LINE
  5
499
330
496
100
AcDbEntity
  8
画層1
 62
     0
370
    -2
100
AcDbLine
 10
-162.9799999999999
 20
477.73
 30
0.0
 11
-45.97999999999999
 21
477.73
 31
0.0
  0
INSERT
  5
49A
330
496
100
AcDbEntity
  8
画層1
 62
     0
370
    -2
100
AcDbBlockReference
  2
_OPEN30
 10
-164.48
 20
477.73
 30
0.0
 41
1.5
 42
1.5
 43
1.5
 50
180.0
  0
INSERT
  5
49B
330
496
100
AcDbEntity
  8
画層1
 62
     0
370
    -2
100
AcDbBlockReference
  2
_OPEN30
 10
-44.47999999999999
 20
477.73
 30
0.0
 41
1.5
 42
1.5
 43
1.5
  0
MTEXT
  5
49C
330
496
100
AcDbEntity
  8
画層1
 62
     0
100
AcDbMText
 10
-104.4799999999999
 20
479.61
 30
0.0
 40
2.5
 41
0.0
 71
     5
 72
     1
  1
\A1;120
  7
STYLE1
 73
     1
 44
1.0
  0
POINT
  5
49D
330
496
100
AcDbEntity
  8
DEFPOINTS
 62
     0
100
AcDbPoint
 10
-164.48
 20
429.23
 30
0.0
  0
POINT
  5
49E
330
496
100
AcDbEntity
  8
DEFPOINTS
 62
     0
100
AcDbPoint
 10
-44.47999999999999
 20
429.23
 30
0.0
  0
POINT
  5
49F
330
496
100
AcDbEntity
  8
DEFPOINTS
 62
     0
100
AcDbPoint
 10
-44.47999999999999
 20
477.73
 30
0.0
  0
ENDBLK
  5
4A1
330
496
100
AcDbEntity
  8
0
 62
     1
100
AcDbBlockEnd
  0
BLOCK
  5
4AC
330
4A2
100
AcDbEntity
  8
0
 62
     1
100
AcDbBlockBegin
  2
*D25
 70
     1
 10
0.0
 20
0.0
 30
0.0
  3
*D25
  1

  0
LINE
  5
4A3
330
4A2
100
AcDbEntity
  8
画層1
 62
     0
370
    -2
100
AcDbLine
 10
-214.48
 20
444.3599999999999
 30
0.0
 11
-214.48
 21
492.98
 31
0.0
  0
LINE
  5
4A4
330
4A2
100
AcDbEntity
  8
画層1
 62
     0
370
    -2
100
AcDbLine
 10
5.519999999999999
 20
444.3599999999999
 30
0.0
 11
5.520000000000002
 21
492.98
 31
0.0
  0
LINE
  5
4A5
330
4A2
100
AcDbEntity
  8
画層1
 62
     0
370
    -2
100
AcDbLine
 10
-212.9799999999999
 20
491.73
 30
0.0
 11
4.020000000000002
 21
491.73
 31
0.0
  0
INSERT
  5
4A6
330
4A2
100
AcDbEntity
  8
画層1
 62
     0
370
    -2
100
AcDbBlockReference
  2
_OPEN30
 10
-214.48
 20
491.73
 30
0.0
 41
1.5
 42
1.5
 43
1.5
 50
180.0
  0
INSERT
  5
4A7
330
4A2
100
AcDbEntity
  8
画層1
 62
     0
370
    -2
100
AcDbBlockReference
  2
_OPEN30
 10
5.520000000000002
 20
491.73
 30
0.0
 41
1.5
 42
1.5
 43
1.5
  0
MTEXT
  5
4A8
330
4A2
100
AcDbEntity
  8
画層1
 62
     0
100
AcDbMText
 10
-104.4799999999999
 20
493.61
 30
0.0
 40
2.5
 41
0.0
 71
     5
 72
     1
  1
\A1;220
  7
STYLE1
 73
     1
 44
1.0
  0
POINT
  5
4A9
330
4A2
100
AcDbEntity
  8
DEFPOINTS
 62
     0
100
AcDbPoint
 10
-214.48
 20
443.73
 30
0.0
  0
POINT
  5
4AA
330
4A2
100
AcDbEntity
  8
DEFPOINTS
 62
     0
100
AcDbPoint
 10
5.519999999999999
 20
443.73
 30
0.0
  0
POINT
  5
4AB
330
4A2
100
AcDbEntity
  8
DEFPOINTS
 62
     0
100
AcDbPoint
 10
5.520000000000002
 20
491.73
 30
0.0
  0
ENDBLK
  5
4AD
330
4A2
100
AcDbEntity
  8
0
 62
     1
100
AcDbBlockEnd
  0
BLOCK
  5
4C1
330
4B7
100
AcDbEntity
  8
0
 62
     1
100
AcDbBlockBegin
  2
*D26
 70
     1
 10
0.0
 20
0.0
 30
0.0
  3
*D26
  1

  0
LINE
  5
4B8
330
4B7
100
AcDbEntity
  8
画層1
 62
     0
370
    -2
100
AcDbLine
 10
-165.1099999999999
 20
443.73
 30
0.0
 11
-183.7299999999999
 21
443.73
 31
0.0
  0
LINE
  5
4B9
330
4B7
100
AcDbEntity
  8
画層1
 62
     0
370
    -2
100
AcDbLine
 10
-158.3499999999999
 20
431.73
 30
0.0
 11
-183.7299999999999
 21
431.73
 31
0.0
  0
LINE
  5
4BA
330
4B7
100
AcDbEntity
  8
画層1
 62
     0
370
    -2
100
AcDbLine
 10
-182.4799999999999
 20
442.2299999999999
 30
0.0
 11
-182.4799999999999
 21
433.23
 31
0.0
  0
INSERT
  5
4BB
330
4B7
100
AcDbEntity
  8
画層1
 62
     0
370
    -2
100
AcDbBlockReference
  2
_OPEN30
 10
-182.4799999999999
 20
443.73
 30
0.0
 41
1.5
 42
1.5
 43
1.5
 50
90.0
  0
INSERT
  5
4BC
330
4B7
100
AcDbEntity
  8
画層1
 62
     0
370
    -2
100
AcDbBlockReference
  2
_OPEN30
 10
-182.4799999999999
 20
431.73
 30
0.0
 41
1.5
 42
1.5
 43
1.5
 50
270.0
  0
MTEXT
  5
4BD
330
4B7
100
AcDbEntity
  8
画層1
 62
     0
100
AcDbMText
 10
-184.36
 20
437.7299999999999
 30
0.0
 40
2.5
 41
0.0
 71
     5
 72
     1
  1
\A1;12
  7
STYLE1
 11
0.0000000000000001
 21
1.0
 31
0.0
 73
     1
 44
1.0
  0
POINT
  5
4BE
330
4B7
100
AcDbEntity
  8
DEFPOINTS
 62
     0
100
AcDbPoint
 10
-164.48
 20
443.73
 30
0.0
  0
POINT
  5
4BF
330
4B7
100
AcDbEntity
  8
DEFPOINTS
 62
     0
100
AcDbPoint
 10
-157.7199999999999
 20
431.73
 30
0.0
  0
POINT
  5
4C0
330
4B7
100
AcDbEntity
  8
DEFPOINTS
 62
     0
100
AcDbPoint
 10
-182.4799999999999
 20
431.73
 30
0.0
  0
ENDBLK
  5
4C2
330
4B7
100
AcDbEntity
  8
0
 62
     1
100
AcDbBlockEnd
  0
BLOCK
  5
4CD
330
4C3
100
AcDbEntity
  8
0
 62
     1
100
AcDbBlockBegin
  2
*D27
 70
     1
 10
0.0
 20
0.0
 30
0.0
  3
*D27
  1

  0
LINE
  5
4C4
330
4C3
100
AcDbEntity
  8
画層1
 62
     0
370
    -2
100
AcDbLine
 10
319.0199999999999
 20
84.6
 30
0.0
 11
319.0199999999999
 21
68.78
 31
0.0
  0
LINE
  5
4C5
330
4C3
100
AcDbEntity
  8
画層1
 62
     0
370
    -2
100
AcDbLine
 10
164.02
 20
90.10000000000001
 30
0.0
 11
164.02
 21
68.78
 31
0.0
  0
LINE
  5
4C6
330
4C3
100
AcDbEntity
  8
画層1
 62
     0
370
    -2
100
AcDbLine
 10
317.5199999999999
 20
70.03
 30
0.0
 11
165.52
 21
70.03
 31
0.0
  0
INSERT
  5
4C7
330
4C3
100
AcDbEntity
  8
画層1
 62
     0
370
    -2
100
AcDbBlockReference
  2
_OPEN30
 10
319.0199999999999
 20
70.03
 30
0.0
 41
1.5
 42
1.5
 43
1.5
  0
INSERT
  5
4C8
330
4C3
100
AcDbEntity
  8
画層1
 62
     0
370
    -2
100
AcDbBlockReference
  2
_OPEN30
 10
164.02
 20
70.03
 30
0.0
 41
1.5
 42
1.5
 43
1.5
 50
180.0
  0
MTEXT
  5
4C9
330
4C3
100
AcDbEntity
  8
画層1
 62
     0
100
AcDbMText
 10
241.52
 20
71.90999999999999
 30
0.0
 40
2.5
 41
0.0
 71
     5
 72
     1
  1
\A1;155
  7
STYLE1
 73
     1
 44
1.0
  0
POINT
  5
4CA
330
4C3
100
AcDbEntity
  8
DEFPOINTS
 62
     0
100
AcDbPoint
 10
319.0199999999999
 20
85.23000000000001
 30
0.0
  0
POINT
  5
4CB
330
4C3
100
AcDbEntity
  8
DEFPOINTS
 62
     0
100
AcDbPoint
 10
164.02
 20
90.73
 30
0.0
  0
POINT
  5
4CC
330
4C3
100
AcDbEntity
  8
DEFPOINTS
 62
     0
100
AcDbPoint
 10
164.02
 20
70.03
 30
0.0
  0
ENDBLK
  5
4CE
330
4C3
100
AcDbEntity
  8
0
 62
     1
100
AcDbBlockEnd
  0
BLOCK
  5
4D9
330
4CF
100
AcDbEntity
  8
0
 62
     1
100
AcDbBlockBegin
  2
*D28
 70
     1
 10
0.0
 20
0.0
 30
0.0
  3
*D28
  1

  0
LINE
  5
4D0
330
4CF
100
AcDbEntity
  8
画層1
 62
     0
370
    -2
100
AcDbLine
 10
104.02
 20
425.9599999999999
 30
0.0
 11
104.02
 21
492.98
 31
0.0
  0
LINE
  5
4D1
330
4CF
100
AcDbEntity
  8
画層1
 62
     0
370
    -2
100
AcDbLine
 10
319.0199999999999
 20
442.86
 30
0.0
 11
319.0199999999999
 21
492.98
 31
0.0
  0
LINE
  5
4D2
330
4CF
100
AcDbEntity
  8
画層1
 62
     0
370
    -2
100
AcDbLine
 10
105.5199999999999
 20
491.73
 30
0.0
 11
317.5199999999999
 21
491.73
 31
0.0
  0
INSERT
  5
4D3
330
4CF
100
AcDbEntity
  8
画層1
 62
     0
370
    -2
100
AcDbBlockReference
  2
_OPEN30
 10
104.02
 20
491.73
 30
0.0
 41
1.5
 42
1.5
 43
1.5
 50
180.0
  0
INSERT
  5
4D4
330
4CF
100
AcDbEntity
  8
画層1
 62
     0
370
    -2
100
AcDbBlockReference
  2
_OPEN30
 10
319.0199999999999
 20
491.73
 30
0.0
 41
1.5
 42
1.5
 43
1.5
  0
MTEXT
  5
4D5
330
4CF
100
AcDbEntity
  8
画層1
 62
     0
100
AcDbMText
 10
211.5199999999999
 20
493.61
 30
0.0
 40
2.5
 41
0.0
 71
     5
 72
     1
  1
\A1;215
  7
STYLE1
 73
     1
 44
1.0
  0
POINT
  5
4D6
330
4CF
100
AcDbEntity
  8
DEFPOINTS
 62
     0
100
AcDbPoint
 10
104.02
 20
425.33
 30
0.0
  0
POINT
  5
4D7
330
4CF
100
AcDbEntity
  8
DEFPOINTS
 62
     0
100
AcDbPoint
 10
319.0199999999999
 20
442.2299999999999
 30
0.0
  0
POINT
  5
4D8
330
4CF
100
AcDbEntity
  8
DEFPOINTS
 62
     0
100
AcDbPoint
 10
319.0199999999999
 20
491.73
 30
0.0
  0
ENDBLK
  5
4DA
330
4CF
100
AcDbEntity
  8
0
 62
     1
100
AcDbBlockEnd
  0
BLOCK
  5
4E5
330
4DB
100
AcDbEntity
  8
0
 62
     1
100
AcDbBlockBegin
  2
*D29
 70
     1
 10
0.0
 20
0.0
 30
0.0
  3
*D29
  1

  0
LINE
  5
4DC
330
4DB
100
AcDbEntity
  8
画層1
 62
     0
370
    -2
100
AcDbLine
 10
191.02
 20
442.36
 30
0.0
 11
191.02
 21
478.98
 31
0.0
  0
LINE
  5
4DD
330
4DB
100
AcDbEntity
  8
画層1
 62
     0
370
    -2
100
AcDbLine
 10
319.0199999999999
 20
442.86
 30
0.0
 11
319.0199999999999
 21
478.98
 31
0.0
  0
LINE
  5
4DE
330
4DB
100
AcDbEntity
  8
画層1
 62
     0
370
    -2
100
AcDbLine
 10
192.52
 20
477.73
 30
0.0
 11
317.5199999999999
 21
477.73
 31
0.0
  0
INSERT
  5
4DF
330
4DB
100
AcDbEntity
  8
画層1
 62
     0
370
    -2
100
AcDbBlockReference
  2
_OPEN30
 10
191.02
 20
477.73
 30
0.0
 41
1.5
 42
1.5
 43
1.5
 50
180.0
  0
INSERT
  5
4E0
330
4DB
100
AcDbEntity
  8
画層1
 62
     0
370
    -2
100
AcDbBlockReference
  2
_OPEN30
 10
319.0199999999999
 20
477.73
 30
0.0
 41
1.5
 42
1.5
 43
1.5
  0
MTEXT
  5
4E1
330
4DB
100
AcDbEntity
  8
画層1
 62
     0
100
AcDbMText
 10
255.0199999999999
 20
479.61
 30
0.0
 40
2.5
 41
0.0
 71
     5
 72
     1
  1
\A1;128
  7
STYLE1
 73
     1
 44
1.0
  0
POINT
  5
4E2
330
4DB
100
AcDbEntity
  8
DEFPOINTS
 62
     0
100
AcDbPoint
 10
191.02
 20
441.73
 30
0.0
  0
POINT
  5
4E3
330
4DB
100
AcDbEntity
  8
DEFPOINTS
 62
     0
100
AcDbPoint
 10
319.0199999999999
 20
442.2299999999999
 30
0.0
  0
POINT
  5
4E4
330
4DB
100
AcDbEntity
  8
DEFPOINTS
 62
     0
100
AcDbPoint
 10
319.0199999999999
 20
477.73
 30
0.0
  0
ENDBLK
  5
4E6
330
4DB
100
AcDbEntity
  8
0
 62
     1
100
AcDbBlockEnd
  0
BLOCK
  5
4F1
330
4E7
100
AcDbEntity
  8
0
 62
     1
100
AcDbBlockBegin
  2
*D30
 70
     1
 10
0.0
 20
0.0
 30
0.0
  3
*D30
  1

  0
LINE
  5
4E8
330
4E7
100
AcDbEntity
  8
画層1
 62
     0
370
    -2
100
AcDbLine
 10
121.15
 20
443.73
 30
0.0
 11
146.7699999999999
 21
443.7299999999999
 31
0.0
  0
LINE
  5
4E9
330
4E7
100
AcDbEntity
  8
画層1
 62
     0
370
    -2
100
AcDbLine
 10
158.39
 20
463.73
 30
0.0
 11
144.27
 21
463.73
 31
0.0
  0
LINE
  5
4EA
330
4E7
100
AcDbEntity
  8
画層1
 62
     0
370
    -2
100
AcDbLine
 10
145.5199999999999
 20
445.23
 30
0.0
 11
145.52
 21
462.23
 31
0.0
  0
INSERT
  5
4EB
330
4E7
100
AcDbEntity
  8
画層1
 62
     0
370
    -2
100
AcDbBlockReference
  2
_OPEN30
 10
145.5199999999999
 20
443.7299999999999
 30
0.0
 41
1.5
 42
1.5
 43
1.5
 50
270.0
  0
INSERT
  5
4EC
330
4E7
100
AcDbEntity
  8
画層1
 62
     0
370
    -2
100
AcDbBlockReference
  2
_OPEN30
 10
145.52
 20
463.73
 30
0.0
 41
1.5
 42
1.5
 43
1.5
 50
90.0
  0
MTEXT
  5
4ED
330
4E7
100
AcDbEntity
  8
画層1
 62
     0
100
AcDbMText
 10
143.6399999999999
 20
453.73
 30
0.0
 40
2.5
 41
0.0
 71
     5
 72
     1
  1
\A1;20
  7
STYLE1
 11
0.0000000000000001
 21
1.0
 31
0.0
 73
     1
 44
1.0
  0
POINT
  5
4EE
330
4E7
100
AcDbEntity
  8
DEFPOINTS
 62
     0
100
AcDbPoint
 10
120.52
 20
443.73
 30
0.0
  0
POINT
  5
4EF
330
4E7
100
AcDbEntity
  8
DEFPOINTS
 62
     0
100
AcDbPoint
 10
159.02
 20
463.73
 30
0.0
  0
POINT
  5
4F0
330
4E7
100
AcDbEntity
  8
DEFPOINTS
 62
     0
100
AcDbPoint
 10
145.52
 20
463.73
 30
0.0
  0
ENDBLK
  5
4F2
330
4E7
100
AcDbEntity
  8
0
 62
     1
100
AcDbBlockEnd
  0
ENDSEC
  0
SECTION
  2
ENTITIES
  0
DIMENSION
  5
36
330
2
100
AcDbEntity
  8
画層1
 62
     0
100
AcDbDimension
  2
*D29
 10
319.0199999999999
 20
477.73
 30
0.0
 11
255.0199999999999
 21
479.61
 31
0.0
 70
    32
 71
     5
 42
127.9999999999999
  3
STANDARD_WS
100
AcDbAlignedDimension
 13
191.02
 23
441.73
 33
0.0
 14
319.0199999999999
 24
442.2299999999999
 34
0.0
100
AcDbRotatedDimension
1001
ACAD
1000
DSTYLE
1002
{
1070
    47
1040
0.6
1070
   144
1040
1.0
1070
   146
1040
0.5
1070
   173
1070
     0
1070
   284
1070
     8
1070
   340
1005
27
1070
   341
1005
28
1070
     5
1000
OPEN30
1070
     6
1000
OPEN30
1002
}
  0
DIMENSION
  5
44
330
2
100
AcDbEntity
  8
画層1
 62
     0
100
AcDbDimension
  2
*D28
 10
319.0199999999999
 20
491.73
 30
0.0
 11
211.5199999999999
 21
493.61
 31
0.0
 70
    32
 71
     5
 42
215.0
  3
STANDARD_WS
100
AcDbAlignedDimension
 13
104.02
 23
425.33
 33
0.0
 14
319.0199999999999
 24
442.2299999999999
 34
0.0
100
AcDbRotatedDimension
1001
ACAD
1000
DSTYLE
1002
{
1070
    47
1040
0.6
1070
   144
1040
1.0
1070
   146
1040
0.5
1070
   173
1070
     0
1070
   284
1070
     8
1070
   340
1005
27
1070
   341
1005
28
1070
     5
1000
OPEN30
1070
     6
1000
OPEN30
1002
}
  0
DIMENSION
  5
51
330
2
100
AcDbEntity
  8
画層1
 62
     0
100
AcDbDimension
  2
*D27
 10
164.02
 20
70.03
 30
0.0
 11
241.52
 21
71.90999999999999
 31
0.0
 70
    32
 71
     5
 42
154.9999999999999
  3
STANDARD_WS
100
AcDbAlignedDimension
 13
319.0199999999999
 23
85.23000000000001
 33
0.0
 14
164.02
 24
90.73
 34
0.0
100
AcDbRotatedDimension
1001
ACAD
1000
DSTYLE
1002
{
1070
    47
1040
0.6
1070
   144
1040
1.0
1070
   146
1040
0.5
1070
   173
1070
     0
1070
   284
1070
     8
1070
   340
1005
27
1070
   341
1005
28
1070
     5
1000
OPEN30
1070
     6
1000
OPEN30
1002
}
  0
LEADER
  5
5E
330
2
100
AcDbEntity
  8
画層1
 62
     0
100
AcDbLeader
  3
STANDARD_WS
 73
     0
 74
     0
 75
     1
 40
6.469999999999999
 41
35.34
 76
     3
 10
160.1999999999999
 20
422.0899999999999
 30
0.0
 10
181.3499999999999
 20
392.0199999999999
 30
0.0
 10
182.85
 20
392.0199999999999
 30
0.0
340
63
1001
ACAD
1000
DSTYLE
1002
{
1070
     6
1000
DOTSMALL
1070
    47
1040
0.6
1070
    77
1070
     2
1070
   144
1040
2.0
1070
   146
1040
0.5
1070
   147
1040
0.63
1070
   284
1070
     8
1070
   340
1005
27
1070
   341
1005
5F
1070
   343
1005
5F
1002
}
  0
MTEXT
  5
63
102
{ACAD_REACTORS
330
5E
102
}
330
2
100
AcDbEntity
  8
画層1
 62
     0
100
AcDbMText
 10
183.4799999999999
 20
395.8899999999999
 30
0.0
 40
5.0
 41
0.0
 71
     4
 72
     1
  1
端子カバー
  7
STYLE1
 73
     1
 44
1.0
1001
ACAD
1000
MTEXTBEGIN
1070
    73
1070
     1
1070
    44
1040
1.0
1070
    74
1070
     0
1000
MTEXTEND
1000
MTEXTBEGIN
1070
    73
1070
     1
1070
    44
1040
1.0
1070
    74
1070
     0
1000
MTEXTEND
1000
MTEXTBEGIN
1070
    73
1070
     1
1070
    44
1040
1.0
1070
    74
1070
     0
1000
MTEXTEND
1000
MTEXTBEGIN
1070
    73
1070
     1
1070
    44
1040
1.0
1070
    74
1070
     0
1000
MTEXTEND
  0
LINE
  5
64
330
2
100
AcDbEntity
  8
画層1
 62
     0
100
AcDbLine
 10
106.5199999999999
 20
442.2299999999999
 30
0.0
 11
319.0199999999999
 21
442.2299999999999
 31
0.0
  0
LINE
  5
65
330
2
100
AcDbEntity
  8
画層1
  6
CENTER
 62
     0
100
AcDbLine
 10
105.5199999999999
 20
263.73
 30
0.0
 11
323.0199999999999
 21
263.73
 31
0.0
  0
LINE
  5
67
330
2
100
AcDbEntity
  8
画層1
 62
     0
100
AcDbLine
 10
319.0199999999999
 20
85.23000000000001
 30
0.0
 11
106.5199999999999
 21
85.23000000000001
 31
0.0
  0
DIMENSION
  5
68
330
2
100
AcDbEntity
  8
画層1
 62
     0
100
AcDbDimension
  2
*D19
 10
19.51999999999999
 20
93.72999999999999
 30
0.0
 11
17.63999999999999
 21
263.73
 31
0.0
 70
    32
 71
     5
 42
340.0
  3
STANDARD_WS
100
AcDbAlignedDimension
 13
-52.98
 23
433.7299999999999
 33
0.0
 14
-52.98
 24
93.73000000000001
 34
0.0
 50
90.0
100
AcDbRotatedDimension
1001
ACAD
1000
DSTYLE
1002
{
1070
    47
1040
0.6
1070
   144
1040
1.0
1070
   146
1040
0.5
1070
   173
1070
     0
1070
   284
1070
     8
1070
   340
1005
27
1070
   341
1005
28
1070
     5
1000
OPEN30
1070
     6
1000
OPEN30
1002
}
  0
DIMENSION
  5
75
330
2
100
AcDbEntity
  8
画層1
 62
     0
100
AcDbDimension
  2
*D18
 10
33.52
 20
83.72999999999999
 30
0.0
 11
31.64
 21
263.73
 31
0.0
 70
    32
 71
     5
 42
360.0
  3
STANDARD_WS
100
AcDbAlignedDimension
 13
5.519999999999999
 23
443.73
 33
0.0
 14
5.519999999999999
 24
83.73000000000001
 34
0.0
 50
90.0
100
AcDbRotatedDimension
1001
ACAD
1000
DSTYLE
1002
{
1070
    47
1040
0.6
1070
   144
1040
1.0
1070
   146
1040
0.5
1070
   173
1070
     0
1070
   284
1070
     8
1070
   340
1005
27
1070
   341
1005
28
1070
     5
1000
OPEN30
1070
     6
1000
OPEN30
1002
}
  0
LINE
  5
82
330
2
100
AcDbEntity
  8
画層1
 62
     0
100
AcDbLine
 10
108.12
 20
85.23000000000001
 30
0.0
 11
108.12
 21
442.2299999999999
 31
0.0
  0
LINE
  5
83
330
2
100
AcDbEntity
  8
画層1
 62
     0
100
AcDbLine
 10
106.5199999999999
 20
84.73
 30
0.0
 11
106.5199999999999
 21
442.73
 31
0.0
  0
LINE
  5
84
330
2
100
AcDbEntity
  8
画層1
 62
     0
100
AcDbLine
 10
105.5199999999999
 20
443.73
 30
0.0
 11
105.5199999999999
 21
83.73000000000001
 31
0.0
  0
LINE
  5
85
330
2
100
AcDbEntity
  8
画層1
 62
     0
100
AcDbLine
 10
-199.4799999999999
 20
99.23000000000001
 30
0.0
 11
-199.4799999999999
 21
165.73
 31
0.0
  0
LINE
  5
86
330
2
100
AcDbEntity
  8
画層1
 62
     0
100
AcDbLine
 10
-214.48
 20
83.73000000000001
 30
0.0
 11
-214.48
 21
164.7299999999999
 31
0.0
  0
LINE
  5
87
330
2
100
AcDbEntity
  8
画層1
  6
CENTER
 62
     0
100
AcDbLine
 10
-104.4799999999999
 20
467.73
 30
0.0
 11
-104.4799999999999
 21
79.73
 31
0.0
  0
LINE
  5
88
330
2
100
AcDbEntity
  8
画層1
 62
     0
100
AcDbLine
 10
-94.48
 20
307.23
 30
0.0
 11
-94.48
 21
99.23000000000001
 31
0.0
  0
LINE
  5
89
330
2
100
AcDbEntity
  8
画層1
 62
     0
100
AcDbLine
 10
-99.48
 20
291.73
 30
0.0
 11
-99.48
 21
103.73
 31
0.0
  0
LINE
  5
8A
330
2
100
AcDbEntity
  8
画層1
 62
     0
100
AcDbLine
 10
-164.48
 20
103.73
 30
0.0
 11
-164.48
 21
291.73
 31
0.0
  0
LINE
  5
8B
330
2
100
AcDbEntity
  8
画層1
 62
     0
100
AcDbLine
 10
5.519999999999999
 20
443.73
 30
0.0
 11
5.519999999999999
 21
83.73000000000001
 31
0.0
  0
LINE
  5
8C
330
2
100
AcDbEntity
  8
画層1
  6
DASHED2
 62
     0
100
AcDbLine
 10
5.519999999999999
 20
85.23000000000001
 30
0.0
 11
-214.48
 21
85.23000000000001
 31
0.0
  0
LINE
  5
8E
330
2
100
AcDbEntity
  8
画層1
 62
     0
100
AcDbLine
 10
5.519999999999999
 20
83.73000000000001
 30
0.0
 11
-214.48
 21
83.73000000000001
 31
0.0
  0
LINE
  5
8F
330
2
100
AcDbEntity
  8
画層1
 62
     0
100
AcDbLine
 10
-97.98000000000001
 20
95.73
 30
0.0
 11
-195.9799999999999
 21
95.73
 31
0.0
  0
LINE
  5
90
330
2
100
AcDbEntity
  8
画層1
 62
     0
100
AcDbLine
 10
-208.9799999999999
 20
101.93
 30
0.0
 11
-208.9799999999999
 21
102.2299999999999
 31
0.0
  0
LINE
  5
91
330
2
100
AcDbEntity
  8
画層1
 62
     0
100
AcDbLine
 10
-207.98
 20
102.2299999999999
 30
0.0
 11
-207.98
 21
101.93
 31
0.0
  0
CIRCLE
  5
92
330
2
100
AcDbEntity
  8
画層1
 62
     0
100
AcDbCircle
 10
-208.4799999999999
 20
103.73
 30
0.0
 40
4.0
  0
CIRCLE
  5
93
330
2
100
AcDbEntity
  8
画層1
 62
     0
100
AcDbCircle
 10
-208.4799999999999
 20
103.73
 30
0.0
 40
3.0
  0
ARC
  5
94
330
2
100
AcDbEntity
  8
画層1
 62
     0
100
AcDbCircle
 10
-195.9799999999999
 20
99.23000000000001
 30
0.0
 40
3.5
100
AcDbArc
 50
180.0
 51
270.0
  0
LINE
  5
95
330
2
100
AcDbEntity
  8
画層1
 62
     0
100
AcDbLine
 10
-208.9799999999999
 20
101.93
 30
0.0
 11
-207.98
 21
101.93
 31
0.0
  0
LINE
  5
96
330
2
100
AcDbEntity
  8
画層1
 62
     0
100
AcDbLine
 10
-208.9799999999999
 20
105.53
 30
0.0
 11
-207.98
 21
105.53
 31
0.0
  0
LINE
  5
97
330
2
100
AcDbEntity
  8
画層1
 62
     0
100
AcDbLine
 10
-210.28
 20
104.23
 30
0.0
 11
-209.98
 21
104.23
 31
0.0
  0
LINE
  5
98
330
2
100
AcDbEntity
  8
画層1
 62
     0
100
AcDbLine
 10
-209.98
 20
103.2299999999999
 30
0.0
 11
-210.28
 21
103.2299999999999
 31
0.0
  0
LINE
  5
99
330
2
100
AcDbEntity
  8
画層1
 62
     0
100
AcDbLine
 10
-210.28
 20
103.2299999999999
 30
0.0
 11
-210.28
 21
104.23
 31
0.0
  0
ARC
  5
9A
330
2
100
AcDbEntity
  8
画層1
 62
     0
100
AcDbCircle
 10
-209.98
 20
105.23
 30
0.0
 40
1.0
100
AcDbArc
 50
270.0
 51
0.0
  0
LINE
  5
9B
330
2
100
AcDbEntity
  8
画層1
 62
     0
100
AcDbLine
 10
-208.9799999999999
 20
105.23
 30
0.0
 11
-208.9799999999999
 21
105.53
 31
0.0
  0
ARC
  5
9C
330
2
100
AcDbEntity
  8
画層1
 62
     0
100
AcDbCircle
 10
-209.98
 20
102.2299999999999
 30
0.0
 40
1.0
100
AcDbArc
 50
0.0
 51
90.0
  0
LINE
  5
9D
330
2
100
AcDbEntity
  8
画層1
 62
     0
100
AcDbLine
 10
-206.68
 20
103.2299999999999
 30
0.0
 11
-206.9799999999999
 21
103.2299999999999
 31
0.0
  0
LINE
  5
9E
330
2
100
AcDbEntity
  8
画層1
 62
     0
100
AcDbLine
 10
-206.9799999999999
 20
104.23
 30
0.0
 11
-206.68
 21
104.23
 31
0.0
  0
LINE
  5
9F
330
2
100
AcDbEntity
  8
画層1
 62
     0
100
AcDbLine
 10
-206.68
 20
103.2299999999999
 30
0.0
 11
-206.68
 21
104.23
 31
0.0
  0
LINE
  5
A0
330
2
100
AcDbEntity
  8
画層1
 62
     0
100
AcDbLine
 10
-207.98
 20
105.53
 30
0.0
 11
-207.98
 21
105.23
 31
0.0
  0
ARC
  5
A1
330
2
100
AcDbEntity
  8
画層1
 62
     0
100
AcDbCircle
 10
-206.9799999999999
 20
105.23
 30
0.0
 40
1.0
100
AcDbArc
 50
180.0
 51
270.0
  0
ARC
  5
A2
330
2
100
AcDbEntity
  8
画層1
 62
     0
100
AcDbCircle
 10
-206.9799999999999
 20
102.2299999999999
 30
0.0
 40
1.0
100
AcDbArc
 50
90.0
 51
180.0
  0
LEADER
  5
A3
330
2
100
AcDbEntity
  8
画層1
 62
     0
100
AcDbLeader
  3
STANDARD_WS
 73
     0
 75
     1
 40
5.0
 41
13.73
 76
     3
 10
-106.12
 20
96.53
 30
0.0
 10
-118.6099999999999
 20
70.65999999999999
 30
0.0
 10
-120.11
 20
70.65999999999999
 30
0.0
340
A4
213
-1.19626226462762
223
0.0
233
0.0
1001
ACAD
1000
DSTYLE
1002
{
1070
     6
1000
OPEN30
1070
    47
1040
0.6
1070
    77
1070
     2
1070
   144
1040
2.0
1070
   146
1040
0.5
1070
   147
1040
0.63
1070
   284
1070
     8
1070
   340
1005
27
1070
   341
1005
28
1070
   343
1005
28
1002
}
  0
MTEXT
  5
A4
102
{ACAD_REACTORS
330
A3
102
}
330
2
100
AcDbEntity
  8
画層1
 62
     0
100
AcDbMText
 10
-119.54
 20
73.79000000000001
 30
0.0
 40
5.0
 41
0.0
 71
     6
 72
     1
  1
3-M5
  7
STYLE1
 73
     1
 44
1.0
1001
ACAD
1000
MTEXTBEGIN
1070
    73
1070
     1
1070
    44
1040
1.0
1070
    74
1070
     0
1000
MTEXTEND
1000
MTEXTBEGIN
1070
    73
1070
     1
1070
    44
1040
1.0
1070
    74
1070
     0
1000
MTEXTEND
1000
MTEXTBEGIN
1070
    73
1070
     1
1070
    44
1040
1.0
1070
    74
1070
     0
1000
MTEXTEND
1000
MTEXTBEGIN
1070
    73
1070
     1
1070
    44
1040
1.0
1070
    74
1070
     0
1000
MTEXTEND
  0
LINE
  5
A5
330
2
100
AcDbEntity
  8
画層1
  6
DASHED2
 62
     0
100
AcDbLine
 10
-117.9799999999999
 20
100.2299999999999
 30
0.0
 11
-118.9799999999999
 21
100.2299999999999
 31
0.0
  0
LINE
  5
A6
330
2
100
AcDbEntity
  8
画層1
  6
DASHED2
 62
     0
100
AcDbLine
 10
-118.9799999999999
 20
101.2299999999999
 30
0.0
 11
-117.9799999999999
 21
101.2299999999999
 31
0.0
  0
CIRCLE
  5
A7
330
2
100
AcDbEntity
  8
画層1
  6
DASHED2
 62
     0
100
AcDbCircle
 10
-120.48
 20
100.73
 30
0.0
 40
4.5
  0
MTEXT
  5
A8
330
2
100
AcDbEntity
  8
画層1
 62
     0
100
AcDbMText
 10
-124.04
 20
121.55
 30
0.0
 40
5.0
 41
72.66
 71
     1
 72
     5
  1
Ｕ   Ｖ   Ｗ
  7
STYLE1
 73
     1
 44
1.0
1001
ACAD
1000
MTEXTBEGIN
1070
    73
1070
     1
1070
    44
1040
1.0
1070
    74
1070
     0
1000
MTEXTEND
1000
MTEXTBEGIN
1070
    73
1070
     1
1070
    44
1040
1.0
1070
    74
1070
     0
1000
MTEXTEND
1000
MTEXTBEGIN
1070
    73
1070
     1
1070
    44
1040
1.0
1070
    74
1070
     0
1000
MTEXTEND
1000
MTEXTBEGIN
1070
    73
1070
     1
1070
    44
1040
1.0
1070
    74
1070
     0
1000
MTEXTEND
  0
LINE
  5
A9
330
2
100
AcDbEntity
  8
画層1
  6
DASHED2
 62
     0
100
AcDbLine
 10
-126.48
 20
93.23
 30
0.0
 11
-114.48
 21
93.23
 31
0.0
  0
LINE
  5
AA
330
2
100
AcDbEntity
  8
画層1
  6
DASHED2
 62
     0
100
AcDbLine
 10
-126.48
 20
108.23
 30
0.0
 11
-114.48
 21
108.23
 31
0.0
  0
LINE
  5
AB
330
2
100
AcDbEntity
  8
画層1
  6
DASHED2
 62
     0
100
AcDbLine
 10
-66.98
 20
86.23000000000001
 30
0.0
 11
-141.9799999999999
 21
86.23000000000001
 31
0.0
  0
LINE
  5
AC
330
2
100
AcDbEntity
  8
画層1
  6
DASHED2
 62
     0
100
AcDbLine
 10
-141.9799999999999
 20
115.23
 30
0.0
 11
-66.98
 21
115.23
 31
0.0
  0
LINE
  5
AD
330
2
100
AcDbEntity
  8
画層1
 62
     0
100
AcDbLine
 10
-102.48
 20
100.73
 30
0.0
 11
-161.4799999999999
 21
100.73
 31
0.0
  0
ARC
  5
AE
330
2
100
AcDbEntity
  8
画層1
  6
DASHED2
 62
     0
100
AcDbCircle
 10
-121.9799999999999
 20
102.2299999999999
 30
0.0
 40
1.0
100
AcDbArc
 50
270.0
 51
0.0
  0
ARC
  5
AF
330
2
100
AcDbEntity
  8
画層1
  6
DASHED2
 62
     0
100
AcDbCircle
 10
-118.9799999999999
 20
102.2299999999999
 30
0.0
 40
1.0
100
AcDbArc
 50
180.0
 51
270.0
  0
LINE
  5
B0
330
2
100
AcDbEntity
  8
画層1
 62
     0
100
AcDbLine
 10
-135.9799999999999
 20
103.73
 30
0.0
 11
-135.9799999999999
 21
97.73000000000001
 31
0.0
  0
LINE
  5
B1
330
2
100
AcDbEntity
  8
画層1
  6
DASHED2
 62
     0
100
AcDbLine
 10
-130.4799999999999
 20
93.23
 30
0.0
 11
-130.4799999999999
 21
108.23
 31
0.0
  0
LINE
  5
B2
330
2
100
AcDbEntity
  8
画層1
  6
DASHED2
 62
     0
100
AcDbLine
 10
-126.48
 20
108.23
 30
0.0
 11
-126.48
 21
93.23
 31
0.0
  0
LINE
  5
B3
330
2
100
AcDbEntity
  8
画層1
  6
DASHED2
 62
     0
100
AcDbLine
 10
-141.9799999999999
 20
86.23000000000001
 30
0.0
 11
-141.9799999999999
 21
115.23
 31
0.0
  0
ARC
  5
B4
330
2
100
AcDbEntity
  8
画層1
 62
     0
100
AcDbCircle
 10
-161.4799999999999
 20
103.73
 30
0.0
 40
3.0
100
AcDbArc
 50
180.0
 51
270.0
  0
ARC
  5
B5
330
2
100
AcDbEntity
  8
画層1
  6
DASHED2
 62
     0
100
AcDbCircle
 10
-164.48
 20
93.73000000000001
 30
0.0
 40
4.5
100
AcDbArc
 50
0.0
 51
180.0
  0
LINE
  5
B6
330
2
100
AcDbEntity
  8
画層1
 62
     0
100
AcDbLine
 10
-171.4799999999999
 20
93.73000000000001
 30
0.0
 11
-157.4799999999999
 21
93.73000000000001
 31
0.0
  0
LINE
  5
B7
330
2
100
AcDbEntity
  8
画層1
  6
DASHED2
 62
     0
100
AcDbLine
 10
-168.9799999999999
 20
93.73000000000001
 30
0.0
 11
-168.9799999999999
 21
85.23000000000001
 31
0.0
  0
LINE
  5
B8
330
2
100
AcDbEntity
  8
画層1
 62
     0
100
AcDbLine
 10
-164.48
 20
100.73
 30
0.0
 11
-164.48
 21
81.23000000000001
 31
0.0
  0
LINE
  5
B9
330
2
100
AcDbEntity
  8
画層1
  6
DASHED2
 62
     0
100
AcDbLine
 10
-159.9799999999999
 20
93.73000000000001
 30
0.0
 11
-159.9799999999999
 21
85.23000000000001
 31
0.0
  0
LINE
  5
BA
330
2
100
AcDbEntity
  8
画層1
 62
     0
100
AcDbLine
 10
-138.9799999999999
 20
100.73
 30
0.0
 11
-132.9799999999999
 21
100.73
 31
0.0
  0
LINE
  5
BB
330
2
100
AcDbEntity
  8
画層1
  6
DASHED2
 62
     0
100
AcDbLine
 10
-141.9799999999999
 20
93.23
 30
0.0
 11
-130.4799999999999
 21
93.23
 31
0.0
  0
LINE
  5
BC
330
2
100
AcDbEntity
  8
画層1
  6
DASHED2
 62
     0
100
AcDbLine
 10
-131.4799999999999
 20
93.23
 30
0.0
 11
-131.4799999999999
 21
86.23000000000001
 31
0.0
  0
LINE
  5
BD
330
2
100
AcDbEntity
  8
画層1
  6
DASHED2
 62
     0
100
AcDbLine
 10
-125.48
 20
93.23
 30
0.0
 11
-125.48
 21
86.23000000000001
 31
0.0
  0
LINE
  5
BE
330
2
100
AcDbEntity
  8
画層1
  6
DASHED2
 62
     0
100
AcDbLine
 10
-122.98
 20
101.2299999999999
 30
0.0
 11
-121.9799999999999
 21
101.2299999999999
 31
0.0
  0
LINE
  5
BF
330
2
100
AcDbEntity
  8
画層1
  6
DASHED2
 62
     0
100
AcDbLine
 10
-121.9799999999999
 20
100.2299999999999
 30
0.0
 11
-122.98
 21
100.2299999999999
 31
0.0
  0
LINE
  5
C0
330
2
100
AcDbEntity
  8
画層1
  6
DASHED2
 62
     0
100
AcDbLine
 10
-122.98
 20
100.2299999999999
 30
0.0
 11
-122.98
 21
101.2299999999999
 31
0.0
  0
ARC
  5
C1
330
2
100
AcDbEntity
  8
画層1
  6
DASHED2
 62
     0
100
AcDbCircle
 10
-118.9799999999999
 20
99.23000000000001
 30
0.0
 40
1.0
100
AcDbArc
 50
90.0
 51
180.0
  0
ARC
  5
C2
330
2
100
AcDbEntity
  8
画層1
  6
DASHED2
 62
     0
100
AcDbCircle
 10
-121.9799999999999
 20
99.23000000000001
 30
0.0
 40
1.0
100
AcDbArc
 50
0.0
 51
90.0
  0
LINE
  5
C3
330
2
100
AcDbEntity
  8
画層1
  6
DASHED2
 62
     0
100
AcDbLine
 10
-120.9799999999999
 20
98.23
 30
0.0
 11
-120.9799999999999
 21
99.23000000000001
 31
0.0
  0
LINE
  5
C4
330
2
100
AcDbEntity
  8
画層1
  6
DASHED2
 62
     0
100
AcDbLine
 10
-119.9799999999999
 20
98.23
 30
0.0
 11
-120.9799999999999
 21
98.23
 31
0.0
  0
LINE
  5
C5
330
2
100
AcDbEntity
  8
画層1
  6
DASHED2
 62
     0
100
AcDbLine
 10
-119.9799999999999
 20
99.23000000000001
 30
0.0
 11
-119.9799999999999
 21
98.23
 31
0.0
  0
LINE
  5
C6
330
2
100
AcDbEntity
  8
画層1
  6
DASHED2
 62
     0
100
AcDbLine
 10
-141.9799999999999
 20
108.23
 30
0.0
 11
-130.4799999999999
 21
108.23
 31
0.0
  0
LINE
  5
C7
330
2
100
AcDbEntity
  8
画層1
  6
DASHED2
 62
     0
100
AcDbLine
 10
-131.4799999999999
 20
115.23
 30
0.0
 11
-131.4799999999999
 21
108.23
 31
0.0
  0
LINE
  5
C8
330
2
100
AcDbEntity
  8
画層1
  6
DASHED2
 62
     0
100
AcDbLine
 10
-125.48
 20
115.23
 30
0.0
 11
-125.48
 21
108.23
 31
0.0
  0
LINE
  5
C9
330
2
100
AcDbEntity
  8
画層1
  6
DASHED2
 62
     0
100
AcDbLine
 10
-120.9799999999999
 20
103.2299999999999
 30
0.0
 11
-119.9799999999999
 21
103.2299999999999
 31
0.0
  0
LINE
  5
CA
330
2
100
AcDbEntity
  8
画層1
  6
DASHED2
 62
     0
100
AcDbLine
 10
-120.9799999999999
 20
102.2299999999999
 30
0.0
 11
-120.9799999999999
 21
103.2299999999999
 31
0.0
  0
LINE
  5
CB
330
2
100
AcDbEntity
  8
画層1
  6
DASHED2
 62
     0
100
AcDbLine
 10
-119.9799999999999
 20
103.2299999999999
 30
0.0
 11
-119.9799999999999
 21
102.2299999999999
 31
0.0
  0
DIMENSION
  5
CC
330
2
100
AcDbEntity
  8
画層1
 62
     0
100
AcDbDimension
  2
*D21
 10
-88.48
 20
70.03
 30
0.0
 11
-96.48000000000001
 21
71.90999999999999
 31
0.0
 70
    32
 71
     5
 42
16.0
  3
STANDARD_WS
100
AcDbAlignedDimension
 13
-104.4799999999999
 23
83.73000000000001
 33
0.0
 14
-88.48
 24
105.23
 34
0.0
100
AcDbRotatedDimension
1001
ACAD
1000
DSTYLE
1002
{
1070
    47
1040
0.6
1070
   144
1040
1.0
1070
   146
1040
0.5
1070
   173
1070
     0
1070
   284
1070
     8
1070
   340
1005
27
1070
   341
1005
28
1070
     5
1000
OPEN30
1070
     6
1000
OPEN30
1002
}
  0
ARC
  5
D9
330
2
100
AcDbEntity
  8
画層1
  6
DASHED2
 62
     0
100
AcDbCircle
 10
-86.98
 20
102.2299999999999
 30
0.0
 40
1.0
100
AcDbArc
 50
180.0
 51
270.0
  0
ARC
  5
DA
330
2
100
AcDbEntity
  8
画層1
  6
DASHED2
 62
     0
100
AcDbCircle
 10
-89.98000000000001
 20
102.2299999999999
 30
0.0
 40
1.0
100
AcDbArc
 50
270.0
 51
0.0
  0
LINE
  5
DB
330
2
100
AcDbEntity
  8
画層1
 62
     0
100
AcDbLine
 10
-72.98
 20
103.73
 30
0.0
 11
-72.98
 21
97.73000000000001
 31
0.0
  0
LINE
  5
DC
330
2
100
AcDbEntity
  8
画層1
  6
DASHED2
 62
     0
100
AcDbLine
 10
-78.48
 20
108.23
 30
0.0
 11
-78.48
 21
93.23
 31
0.0
  0
LINE
  5
DD
330
2
100
AcDbEntity
  8
画層1
  6
DASHED2
 62
     0
100
AcDbLine
 10
-82.48000000000001
 20
93.23
 30
0.0
 11
-82.48000000000001
 21
108.23
 31
0.0
  0
LINE
  5
DE
330
2
100
AcDbEntity
  8
画層1
  6
DASHED2
 62
     0
100
AcDbLine
 10
-66.98
 20
115.23
 30
0.0
 11
-66.98
 21
86.23000000000001
 31
0.0
  0
ARC
  5
DF
330
2
100
AcDbEntity
  8
画層1
  6
DASHED2
 62
     0
100
AcDbCircle
 10
-102.98
 20
102.2299999999999
 30
0.0
 40
1.0
100
AcDbArc
 50
180.0
 51
270.0
  0
ARC
  5
E0
330
2
100
AcDbEntity
  8
画層1
  6
DASHED2
 62
     0
100
AcDbCircle
 10
-105.98
 20
102.2299999999999
 30
0.0
 40
1.0
100
AcDbArc
 50
270.0
 51
0.0
  0
LINE
  5
E1
330
2
100
AcDbEntity
  8
画層1
  6
DASHED2
 62
     0
100
AcDbLine
 10
-94.48
 20
108.23
 30
0.0
 11
-94.48
 21
93.23
 31
0.0
  0
LINE
  5
E2
330
2
100
AcDbEntity
  8
画層1
  6
DASHED2
 62
     0
100
AcDbLine
 10
-110.48
 20
108.23
 30
0.0
 11
-110.48
 21
93.23
 31
0.0
  0
LINE
  5
E3
330
2
100
AcDbEntity
  8
画層1
  6
DASHED2
 62
     0
100
AcDbLine
 10
-98.48
 20
93.23
 30
0.0
 11
-98.48
 21
108.23
 31
0.0
  0
LINE
  5
E4
330
2
100
AcDbEntity
  8
画層1
  6
DASHED2
 62
     0
100
AcDbLine
 10
-114.48
 20
93.23
 30
0.0
 11
-114.48
 21
108.23
 31
0.0
  0
CIRCLE
  5
E5
330
2
100
AcDbEntity
  8
画層1
  6
DASHED2
 62
     0
100
AcDbCircle
 10
-104.4799999999999
 20
100.73
 30
0.0
 40
4.5
  0
ARC
  5
E6
330
2
100
AcDbEntity
  8
画層1
 62
     0
100
AcDbCircle
 10
-102.48
 20
103.73
 30
0.0
 40
3.0
100
AcDbArc
 50
270.0
 51
0.0
  0
CIRCLE
  5
E7
330
2
100
AcDbEntity
  8
画層1
  6
DASHED2
 62
     0
100
AcDbCircle
 10
-88.48
 20
100.73
 30
0.0
 40
4.5
  0
DIMENSION
  5
E8
330
2
100
AcDbEntity
  8
画層1
 62
     0
100
AcDbDimension
  2
*D20
 10
-56.47999999999999
 20
100.73
 30
0.0
 11
-58.36000000000002
 21
92.22999999999998
 31
0.0
 70
    32
 71
     5
 42
17.00000000000001
  3
STANDARD_WS
100
AcDbAlignedDimension
 13
-104.4799999999999
 23
83.73000000000001
 33
0.0
 14
-72.98
 24
100.73
 34
0.0
 50
90.0
100
AcDbRotatedDimension
1001
ACAD
1000
DSTYLE
1002
{
1070
    47
1040
0.6
1070
   144
1040
1.0
1070
   146
1040
0.5
1070
   173
1070
     0
1070
   284
1070
     8
1070
   340
1005
27
1070
   341
1005
28
1070
     5
1000
OPEN30
1070
     6
1000
OPEN30
1002
}
  0
LINE
  5
F5
330
2
100
AcDbEntity
  8
画層1
  6
DASHED2
 62
     0
100
AcDbLine
 10
-94.48
 20
93.23
 30
0.0
 11
-82.48000000000001
 21
93.23
 31
0.0
  0
LINE
  5
F6
330
2
100
AcDbEntity
  8
画層1
  6
DASHED2
 62
     0
100
AcDbLine
 10
-110.48
 20
93.23
 30
0.0
 11
-98.48
 21
93.23
 31
0.0
  0
LINE
  5
F7
330
2
100
AcDbEntity
  8
画層1
  6
DASHED2
 62
     0
100
AcDbLine
 10
-109.48
 20
93.23
 30
0.0
 11
-109.48
 21
86.23000000000001
 31
0.0
  0
LINE
  5
F8
330
2
100
AcDbEntity
  8
画層1
  6
DASHED2
 62
     0
100
AcDbLine
 10
-115.48
 20
93.23
 30
0.0
 11
-115.48
 21
86.23000000000001
 31
0.0
  0
LINE
  5
F9
330
2
100
AcDbEntity
  8
画層1
  6
DASHED2
 62
     0
100
AcDbLine
 10
-117.9799999999999
 20
101.2299999999999
 30
0.0
 11
-117.9799999999999
 21
100.2299999999999
 31
0.0
  0
ARC
  5
FA
330
2
100
AcDbEntity
  8
画層1
  6
DASHED2
 62
     0
100
AcDbCircle
 10
-105.98
 20
99.23000000000001
 30
0.0
 40
1.0
100
AcDbArc
 50
0.0
 51
90.0
  0
LINE
  5
FB
330
2
100
AcDbEntity
  8
画層1
  6
DASHED2
 62
     0
100
AcDbLine
 10
-105.98
 20
100.2299999999999
 30
0.0
 11
-106.98
 21
100.2299999999999
 31
0.0
  0
LINE
  5
FC
330
2
100
AcDbEntity
  8
画層1
  6
DASHED2
 62
     0
100
AcDbLine
 10
-106.98
 20
100.2299999999999
 30
0.0
 11
-106.98
 21
101.2299999999999
 31
0.0
  0
LINE
  5
FD
330
2
100
AcDbEntity
  8
画層1
  6
DASHED2
 62
     0
100
AcDbLine
 10
-106.98
 20
101.2299999999999
 30
0.0
 11
-105.98
 21
101.2299999999999
 31
0.0
  0
LINE
  5
FE
330
2
100
AcDbEntity
  8
画層1
  6
DASHED2
 62
     0
100
AcDbLine
 10
-102.98
 20
101.2299999999999
 30
0.0
 11
-101.98
 21
101.2299999999999
 31
0.0
  0
LINE
  5
FF
330
2
100
AcDbEntity
  8
画層1
  6
DASHED2
 62
     0
100
AcDbLine
 10
-101.98
 20
101.2299999999999
 30
0.0
 11
-101.98
 21
100.2299999999999
 31
0.0
  0
LINE
  5
100
330
2
100
AcDbEntity
  8
画層1
  6
DASHED2
 62
     0
100
AcDbLine
 10
-101.98
 20
100.2299999999999
 30
0.0
 11
-102.98
 21
100.2299999999999
 31
0.0
  0
LINE
  5
101
330
2
100
AcDbEntity
  8
画層1
  6
DASHED2
 62
     0
100
AcDbLine
 10
-103.98
 20
99.23000000000001
 30
0.0
 11
-103.98
 21
98.23
 31
0.0
  0
LINE
  5
102
330
2
100
AcDbEntity
  8
画層1
  6
DASHED2
 62
     0
100
AcDbLine
 10
-103.98
 20
98.23
 30
0.0
 11
-104.98
 21
98.23
 31
0.0
  0
LINE
  5
103
330
2
100
AcDbEntity
  8
画層1
  6
DASHED2
 62
     0
100
AcDbLine
 10
-104.98
 20
98.23
 30
0.0
 11
-104.98
 21
99.23000000000001
 31
0.0
  0
ARC
  5
104
330
2
100
AcDbEntity
  8
画層1
  6
DASHED2
 62
     0
100
AcDbCircle
 10
-102.98
 20
99.23000000000001
 30
0.0
 40
1.0
100
AcDbArc
 50
90.0
 51
180.0
  0
LINE
  5
105
330
2
100
AcDbEntity
  8
画層1
  6
DASHED2
 62
     0
100
AcDbLine
 10
-93.48
 20
93.23
 30
0.0
 11
-93.48
 21
86.23000000000001
 31
0.0
  0
LINE
  5
106
330
2
100
AcDbEntity
  8
画層1
  6
DASHED2
 62
     0
100
AcDbLine
 10
-99.48
 20
93.23
 30
0.0
 11
-99.48
 21
86.23000000000001
 31
0.0
  0
ARC
  5
107
330
2
100
AcDbEntity
  8
画層1
 62
     0
100
AcDbCircle
 10
-97.98000000000001
 20
99.23000000000001
 30
0.0
 40
3.5
100
AcDbArc
 50
270.0
 51
0.0
  0
ARC
  5
108
330
2
100
AcDbEntity
  8
画層1
  6
DASHED2
 62
     0
100
AcDbCircle
 10
-89.98000000000001
 20
99.23000000000001
 30
0.0
 40
1.0
100
AcDbArc
 50
0.0
 51
90.0
  0
LINE
  5
109
330
2
100
AcDbEntity
  8
画層1
  6
DASHED2
 62
     0
100
AcDbLine
 10
-89.98000000000001
 20
100.2299999999999
 30
0.0
 11
-90.98
 21
100.2299999999999
 31
0.0
  0
LINE
  5
10A
330
2
100
AcDbEntity
  8
画層1
  6
DASHED2
 62
     0
100
AcDbLine
 10
-90.98
 20
100.2299999999999
 30
0.0
 11
-90.98
 21
101.2299999999999
 31
0.0
  0
LINE
  5
10B
330
2
100
AcDbEntity
  8
画層1
  6
DASHED2
 62
     0
100
AcDbLine
 10
-90.98
 20
101.2299999999999
 30
0.0
 11
-89.98000000000001
 21
101.2299999999999
 31
0.0
  0
LINE
  5
10C
330
2
100
AcDbEntity
  8
画層1
  6
DASHED2
 62
     0
100
AcDbLine
 10
-86.98
 20
101.2299999999999
 30
0.0
 11
-85.98
 21
101.2299999999999
 31
0.0
  0
LINE
  5
10D
330
2
100
AcDbEntity
  8
画層1
  6
DASHED2
 62
     0
100
AcDbLine
 10
-85.98
 20
101.2299999999999
 30
0.0
 11
-85.98
 21
100.2299999999999
 31
0.0
  0
LINE
  5
10E
330
2
100
AcDbEntity
  8
画層1
  6
DASHED2
 62
     0
100
AcDbLine
 10
-85.98
 20
100.2299999999999
 30
0.0
 11
-86.98
 21
100.2299999999999
 31
0.0
  0
LINE
  5
10F
330
2
100
AcDbEntity
  8
画層1
  6
DASHED2
 62
     0
100
AcDbLine
 10
-87.98
 20
99.23000000000001
 30
0.0
 11
-87.98
 21
98.23
 31
0.0
  0
LINE
  5
110
330
2
100
AcDbEntity
  8
画層1
  6
DASHED2
 62
     0
100
AcDbLine
 10
-87.98
 20
98.23
 30
0.0
 11
-88.98000000000001
 21
98.23
 31
0.0
  0
LINE
  5
111
330
2
100
AcDbEntity
  8
画層1
  6
DASHED2
 62
     0
100
AcDbLine
 10
-88.98000000000001
 20
98.23
 30
0.0
 11
-88.98000000000001
 21
99.23000000000001
 31
0.0
  0
ARC
  5
112
330
2
100
AcDbEntity
  8
画層1
  6
DASHED2
 62
     0
100
AcDbCircle
 10
-86.98
 20
99.23000000000001
 30
0.0
 40
1.0
100
AcDbArc
 50
90.0
 51
180.0
  0
LINE
  5
113
330
2
100
AcDbEntity
  8
画層1
  6
DASHED2
 62
     0
100
AcDbLine
 10
-78.48
 20
93.23
 30
0.0
 11
-66.98
 21
93.23
 31
0.0
  0
LINE
  5
114
330
2
100
AcDbEntity
  8
画層1
  6
DASHED2
 62
     0
100
AcDbLine
 10
-77.48000000000001
 20
93.23
 30
0.0
 11
-77.48000000000001
 21
86.23000000000001
 31
0.0
  0
LINE
  5
115
330
2
100
AcDbEntity
  8
画層1
  6
DASHED2
 62
     0
100
AcDbLine
 10
-83.48
 20
93.23
 30
0.0
 11
-83.48
 21
86.23000000000001
 31
0.0
  0
LINE
  5
116
330
2
100
AcDbEntity
  8
画層1
 62
     0
100
AcDbLine
 10
-75.98
 20
100.73
 30
0.0
 11
-69.98000000000001
 21
100.73
 31
0.0
  0
LINE
  5
117
330
2
100
AcDbEntity
  8
画層1
  6
DASHED2
 62
     0
100
AcDbLine
 10
-94.48
 20
108.23
 30
0.0
 11
-82.48000000000001
 21
108.23
 31
0.0
  0
LINE
  5
118
330
2
100
AcDbEntity
  8
画層1
  6
DASHED2
 62
     0
100
AcDbLine
 10
-110.48
 20
108.23
 30
0.0
 11
-98.48
 21
108.23
 31
0.0
  0
LINE
  5
119
330
2
100
AcDbEntity
  8
画層1
  6
DASHED2
 62
     0
100
AcDbLine
 10
-109.48
 20
115.23
 30
0.0
 11
-109.48
 21
108.23
 31
0.0
  0
LINE
  5
11A
330
2
100
AcDbEntity
  8
画層1
  6
DASHED2
 62
     0
100
AcDbLine
 10
-115.48
 20
115.23
 30
0.0
 11
-115.48
 21
108.23
 31
0.0
  0
LINE
  5
11B
330
2
100
AcDbEntity
  8
画層1
  6
DASHED2
 62
     0
100
AcDbLine
 10
-104.98
 20
103.2299999999999
 30
0.0
 11
-103.98
 21
103.2299999999999
 31
0.0
  0
LINE
  5
11C
330
2
100
AcDbEntity
  8
画層1
  6
DASHED2
 62
     0
100
AcDbLine
 10
-103.98
 20
103.2299999999999
 30
0.0
 11
-103.98
 21
102.2299999999999
 31
0.0
  0
LINE
  5
11D
330
2
100
AcDbEntity
  8
画層1
  6
DASHED2
 62
     0
100
AcDbLine
 10
-104.98
 20
102.2299999999999
 30
0.0
 11
-104.98
 21
103.2299999999999
 31
0.0
  0
LINE
  5
11E
330
2
100
AcDbEntity
  8
画層1
  6
DASHED2
 62
     0
100
AcDbLine
 10
-93.48
 20
115.23
 30
0.0
 11
-93.48
 21
108.23
 31
0.0
  0
LINE
  5
11F
330
2
100
AcDbEntity
  8
画層1
  6
DASHED2
 62
     0
100
AcDbLine
 10
-99.48
 20
115.23
 30
0.0
 11
-99.48
 21
108.23
 31
0.0
  0
LINE
  5
120
330
2
100
AcDbEntity
  8
画層1
  6
DASHED2
 62
     0
100
AcDbLine
 10
-88.98000000000001
 20
103.2299999999999
 30
0.0
 11
-87.98
 21
103.2299999999999
 31
0.0
  0
LINE
  5
121
330
2
100
AcDbEntity
  8
画層1
  6
DASHED2
 62
     0
100
AcDbLine
 10
-87.98
 20
103.2299999999999
 30
0.0
 11
-87.98
 21
102.2299999999999
 31
0.0
  0
LINE
  5
122
330
2
100
AcDbEntity
  8
画層1
  6
DASHED2
 62
     0
100
AcDbLine
 10
-88.98000000000001
 20
102.2299999999999
 30
0.0
 11
-88.98000000000001
 21
103.2299999999999
 31
0.0
  0
LINE
  5
123
330
2
100
AcDbEntity
  8
画層1
  6
DASHED2
 62
     0
100
AcDbLine
 10
-78.48
 20
108.23
 30
0.0
 11
-66.98
 21
108.23
 31
0.0
  0
LINE
  5
124
330
2
100
AcDbEntity
  8
画層1
  6
DASHED2
 62
     0
100
AcDbLine
 10
-77.48000000000001
 20
115.23
 30
0.0
 11
-77.48000000000001
 21
108.23
 31
0.0
  0
LINE
  5
125
330
2
100
AcDbEntity
  8
画層1
  6
DASHED2
 62
     0
100
AcDbLine
 10
-83.48
 20
115.23
 30
0.0
 11
-83.48
 21
108.23
 31
0.0
  0
LINE
  5
126
330
2
100
AcDbEntity
  8
画層1
 62
     0
100
AcDbLine
 10
-0.98
 20
101.93
 30
0.0
 11
-0.98
 21
102.2299999999999
 31
0.0
  0
LINE
  5
127
330
2
100
AcDbEntity
  8
画層1
 62
     0
100
AcDbLine
 10
0.02
 20
102.2299999999999
 30
0.0
 11
0.02
 21
101.93
 31
0.0
  0
CIRCLE
  5
128
330
2
100
AcDbEntity
  8
画層1
 62
     0
100
AcDbCircle
 10
-0.48
 20
103.73
 30
0.0
 40
4.0
  0
CIRCLE
  5
129
330
2
100
AcDbEntity
  8
画層1
 62
     0
100
AcDbCircle
 10
-0.48
 20
103.73
 30
0.0
 40
3.0
  0
DIMENSION
  5
12A
330
2
100
AcDbEntity
  8
画層1
 62
     0
100
AcDbDimension
  2
*D22
 10
-39.97999999999999
 20
70.03
 30
0.0
 11
-29.06192893401014
 21
72.07497461928934
 31
0.0
 70
    32
 71
     5
 42
9.0
  3
STANDARD_WS
100
AcDbAlignedDimension
 13
-48.97999999999999
 23
85.23000000000001
 33
0.0
 14
-39.97999999999999
 24
85.23000000000001
 34
0.0
100
AcDbRotatedDimension
1001
ACAD
1000
DSTYLE
1002
{
1070
     3
1000
2-<>キリカキ
1070
    47
1040
0.6
1070
   144
1040
1.0
1070
   146
1040
0.5
1070
   173
1070
     0
1070
   284
1070
     8
1070
   340
1005
27
1070
   341
1005
28
1070
     5
1000
OPEN30
1070
     6
1000
OPEN30
1002
}
  0
LINE
  5
138
330
2
100
AcDbEntity
  8
画層1
  6
DASHED2
 62
     0
100
AcDbLine
 10
-39.97999999999999
 20
93.73000000000001
 30
0.0
 11
-39.97999999999999
 21
85.23000000000001
 31
0.0
  0
LINE
  5
139
330
2
100
AcDbEntity
  8
画層1
 62
     0
100
AcDbLine
 10
-44.47999999999999
 20
100.73
 30
0.0
 11
-44.47999999999999
 21
81.23000000000001
 31
0.0
  0
LINE
  5
13A
330
2
100
AcDbEntity
  8
画層1
  6
DASHED2
 62
     0
100
AcDbLine
 10
-48.97999999999999
 20
93.73000000000001
 30
0.0
 11
-48.97999999999999
 21
85.23000000000001
 31
0.0
  0
ARC
  5
13B
330
2
100
AcDbEntity
  8
画層1
  6
DASHED2
 62
     0
100
AcDbCircle
 10
-44.47999999999999
 20
93.73000000000001
 30
0.0
 40
4.5
100
AcDbArc
 50
0.0
 51
180.0
  0
LINE
  5
13C
330
2
100
AcDbEntity
  8
画層1
 62
     0
100
AcDbLine
 10
2.98
 20
101.73
 30
0.0
 11
5.519999999999999
 21
101.73
 31
0.0
  0
LINE
  5
13D
330
2
100
AcDbEntity
  8
画層1
 62
     0
100
AcDbLine
 10
-0.98
 20
101.93
 30
0.0
 11
0.02
 21
101.93
 31
0.0
  0
LINE
  5
13E
330
2
100
AcDbEntity
  8
画層1
 62
     0
100
AcDbLine
 10
2.98
 20
105.73
 30
0.0
 11
5.519999999999999
 21
105.73
 31
0.0
  0
ARC
  5
13F
330
2
100
AcDbEntity
  8
画層1
 62
     0
100
AcDbCircle
 10
1.02
 20
105.23
 30
0.0
 40
1.0
100
AcDbArc
 50
180.0
 51
270.0
  0
ARC
  5
140
330
2
100
AcDbEntity
  8
画層1
 62
     0
100
AcDbCircle
 10
1.02
 20
102.2299999999999
 30
0.0
 40
1.0
100
AcDbArc
 50
90.0
 51
180.0
  0
LINE
  5
141
330
2
100
AcDbEntity
  8
画層1
 62
     0
100
AcDbLine
 10
0.02
 20
105.53
 30
0.0
 11
0.02
 21
105.23
 31
0.0
  0
LINE
  5
142
330
2
100
AcDbEntity
  8
画層1
 62
     0
100
AcDbLine
 10
-2.279999999999999
 20
104.23
 30
0.0
 11
-1.98
 21
104.23
 31
0.0
  0
LINE
  5
143
330
2
100
AcDbEntity
  8
画層1
 62
     0
100
AcDbLine
 10
-1.98
 20
103.2299999999999
 30
0.0
 11
-2.279999999999999
 21
103.2299999999999
 31
0.0
  0
LINE
  5
144
330
2
100
AcDbEntity
  8
画層1
 62
     0
100
AcDbLine
 10
-2.279999999999999
 20
103.2299999999999
 30
0.0
 11
-2.279999999999999
 21
104.23
 31
0.0
  0
ARC
  5
145
330
2
100
AcDbEntity
  8
画層1
 62
     0
100
AcDbCircle
 10
-1.98
 20
105.23
 30
0.0
 40
1.0
100
AcDbArc
 50
270.0
 51
0.0
  0
LINE
  5
146
330
2
100
AcDbEntity
  8
画層1
 62
     0
100
AcDbLine
 10
-0.98
 20
105.23
 30
0.0
 11
-0.98
 21
105.53
 31
0.0
  0
LINE
  5
147
330
2
100
AcDbEntity
  8
画層1
 62
     0
100
AcDbLine
 10
-0.98
 20
105.53
 30
0.0
 11
0.02
 21
105.53
 31
0.0
  0
ARC
  5
148
330
2
100
AcDbEntity
  8
画層1
 62
     0
100
AcDbCircle
 10
-1.98
 20
102.2299999999999
 30
0.0
 40
1.0
100
AcDbArc
 50
0.0
 51
90.0
  0
LINE
  5
149
330
2
100
AcDbEntity
  8
画層1
 62
     0
100
AcDbLine
 10
1.32
 20
103.2299999999999
 30
0.0
 11
1.02
 21
103.2299999999999
 31
0.0
  0
LINE
  5
14A
330
2
100
AcDbEntity
  8
画層1
 62
     0
100
AcDbLine
 10
1.02
 20
104.23
 30
0.0
 11
1.32
 21
104.23
 31
0.0
  0
LINE
  5
14B
330
2
100
AcDbEntity
  8
画層1
 62
     0
100
AcDbLine
 10
1.32
 20
103.2299999999999
 30
0.0
 11
1.32
 21
104.23
 31
0.0
  0
LINE
  5
14C
330
2
100
AcDbEntity
  8
画層1
 62
     0
100
AcDbLine
 10
105.42
 20
107.53
 30
0.0
 11
105.42
 21
99.93000000000002
 31
0.0
  0
ARC
  5
14D
330
2
100
AcDbEntity
  8
画層1
 62
     0
100
AcDbCircle
 10
105.02
 20
102.1299999999999
 30
0.0
 40
1.0
100
AcDbArc
 50
180.0
 51
270.0
  0
LINE
  5
14E
330
2
100
AcDbEntity
  8
画層1
 62
     0
100
AcDbLine
 10
120.52
 20
84.73
 30
0.0
 11
106.5199999999999
 21
84.73
 31
0.0
  0
LINE
  5
14F
330
2
100
AcDbEntity
  8
画層1
 62
     0
100
AcDbLine
 10
105.5199999999999
 20
83.73000000000001
 30
0.0
 11
120.52
 21
83.73000000000001
 31
0.0
  0
LINE
  5
150
330
2
100
AcDbEntity
  8
画層1
 62
     0
100
AcDbLine
 10
105.02
 20
101.1299999999999
 30
0.0
 11
105.42
 21
101.1299999999999
 31
0.0
  0
LINE
  5
151
330
2
100
AcDbEntity
  8
画層1
 62
     0
100
AcDbLine
 10
105.42
 20
99.93000000000002
 30
0.0
 11
105.5199999999999
 21
99.93000000000002
 31
0.0
  0
LINE
  5
152
330
2
100
AcDbEntity
  8
画層1
 62
     0
100
AcDbLine
 10
120.52
 20
83.73000000000001
 30
0.0
 11
120.52
 21
84.73
 31
0.0
  0
LINE
  5
153
330
2
100
AcDbEntity
  8
画層1
 62
     0
100
AcDbLine
 10
104.62
 20
103.33
 30
0.0
 11
104.62
 21
104.1299999999999
 31
0.0
  0
LINE
  5
154
330
2
100
AcDbEntity
  8
画層1
 62
     0
100
AcDbLine
 10
105.42
 20
106.3299999999999
 30
0.0
 11
105.02
 21
106.3299999999999
 31
0.0
  0
LINE
  5
155
330
2
100
AcDbEntity
  8
画層1
 62
     0
100
AcDbLine
 10
105.5199999999999
 20
107.53
 30
0.0
 11
105.42
 21
107.53
 31
0.0
  0
LINE
  5
156
330
2
100
AcDbEntity
  8
画層1
 62
     0
100
AcDbLine
 10
104.02
 20
105.3299999999999
 30
0.0
 11
104.02
 21
102.1299999999999
 31
0.0
  0
ARC
  5
157
330
2
100
AcDbEntity
  8
画層1
 62
     0
100
AcDbCircle
 10
105.02
 20
105.3299999999999
 30
0.0
 40
1.0
100
AcDbArc
 50
90.0
 51
180.0
  0
LINE
  5
158
330
2
100
AcDbEntity
  8
画層1
 62
     0
100
AcDbLine
 10
104.02
 20
103.33
 30
0.0
 11
104.62
 21
103.33
 31
0.0
  0
LINE
  5
159
330
2
100
AcDbEntity
  8
画層1
 62
     0
100
AcDbLine
 10
104.62
 20
104.1299999999999
 30
0.0
 11
104.02
 21
104.1299999999999
 31
0.0
  0
LINE
  5
15A
330
2
100
AcDbEntity
  8
画層1
 62
     0
100
AcDbLine
 10
108.12
 20
104.43
 30
0.0
 11
111.5199999999999
 21
104.43
 31
0.0
  0
LINE
  5
15B
330
2
100
AcDbEntity
  8
画層1
 62
     0
100
AcDbLine
 10
111.5199999999999
 20
103.0299999999999
 30
0.0
 11
108.12
 21
103.0299999999999
 31
0.0
  0
LINE
  5
15C
330
2
100
AcDbEntity
  8
画層1
 62
     0
100
AcDbLine
 10
110.7199999999999
 20
105.23
 30
0.0
 11
111.5199999999999
 21
104.43
 31
0.0
  0
LINE
  5
15D
330
2
100
AcDbEntity
  8
画層1
 62
     0
100
AcDbLine
 10
108.12
 20
105.23
 30
0.0
 11
110.7199999999999
 21
105.23
 31
0.0
  0
LINE
  5
15E
330
2
100
AcDbEntity
  8
画層1
 62
     0
100
AcDbLine
 10
111.5199999999999
 20
104.43
 30
0.0
 11
111.5199999999999
 21
103.0299999999999
 31
0.0
  0
LINE
  5
15F
330
2
100
AcDbEntity
  8
画層1
 62
     0
100
AcDbLine
 10
110.7199999999999
 20
102.2299999999999
 30
0.0
 11
108.12
 21
102.2299999999999
 31
0.0
  0
LINE
  5
160
330
2
100
AcDbEntity
  8
画層1
 62
     0
100
AcDbLine
 10
111.5199999999999
 20
103.0299999999999
 30
0.0
 11
110.7199999999999
 21
102.2299999999999
 31
0.0
  0
LINE
  5
161
330
2
100
AcDbEntity
  8
画層1
 62
     0
100
AcDbLine
 10
110.7199999999999
 20
105.23
 30
0.0
 11
110.7199999999999
 21
102.2299999999999
 31
0.0
  0
LINE
  5
162
330
2
100
AcDbEntity
  8
画層1
  6
DASHED2
 62
     0
100
AcDbLine
 10
196.9199999999999
 20
112.7299999999999
 30
0.0
 11
196.9199999999999
 21
88.73000000000001
 31
0.0
  0
LINE
  5
163
330
2
100
AcDbEntity
  8
画層1
  6
DASHED2
 62
     0
100
AcDbLine
 10
175.9199999999999
 20
86.23000000000001
 30
0.0
 11
175.9199999999999
 21
115.23
 31
0.0
  0
LINE
  5
164
330
2
100
AcDbEntity
  8
画層1
  6
DASHED2
 62
     0
100
AcDbLine
 10
159.02
 20
103.2299999999999
 30
0.0
 11
159.02
 21
98.23
 31
0.0
  0
LINE
  5
165
330
2
100
AcDbEntity
  8
画層1
  6
DASHED2
 62
     0
100
AcDbLine
 10
162.02
 20
105.23
 30
0.0
 11
162.02
 21
96.23000000000001
 31
0.0
  0
LINE
  5
166
330
2
100
AcDbEntity
  8
画層1
  6
DASHED2
 62
     0
100
AcDbLine
 10
164.02
 20
110.73
 30
0.0
 11
164.02
 21
90.73
 31
0.0
  0
LINE
  5
167
330
2
100
AcDbEntity
  8
画層1
  6
DASHED2
 62
     0
100
AcDbLine
 10
155.02
 20
115.23
 30
0.0
 11
155.02
 21
86.23000000000001
 31
0.0
  0
LINE
  5
168
330
2
100
AcDbEntity
  8
画層1
  6
DASHED2
 62
     0
100
AcDbLine
 10
196.9199999999999
 20
88.73000000000001
 30
0.0
 11
175.9199999999999
 21
88.73000000000001
 31
0.0
  0
ARC
  5
169
330
2
100
AcDbEntity
  8
画層1
  6
DASHED2
 62
     0
100
AcDbCircle
 10
161.02
 20
98.23
 30
0.0
 40
2.0
100
AcDbArc
 50
180.0
 51
270.0
  0
LINE
  5
16A
330
2
100
AcDbEntity
  8
画層1
  6
DASHED2
 62
     0
100
AcDbLine
 10
155.02
 20
86.23000000000001
 30
0.0
 11
175.9199999999999
 21
86.23000000000001
 31
0.0
  0
LINE
  5
16B
330
2
100
AcDbEntity
  8
画層1
  6
DASHED2
 62
     0
100
AcDbLine
 10
164.02
 20
90.73
 30
0.0
 11
173.02
 21
86.23000000000001
 31
0.0
  0
LINE
  5
16C
330
2
100
AcDbEntity
  8
画層1
  6
DASHED2
 62
     0
100
AcDbLine
 10
161.02
 20
96.23000000000001
 30
0.0
 11
164.02
 21
96.23000000000001
 31
0.0
  0
LINE
  5
16D
330
2
100
AcDbEntity
  8
画層1
  6
DASHED2
 62
     0
100
AcDbLine
 10
175.9199999999999
 20
112.7299999999999
 30
0.0
 11
196.9199999999999
 21
112.7299999999999
 31
0.0
  0
ARC
  5
16E
330
2
100
AcDbEntity
  8
画層1
  6
DASHED2
 62
     0
100
AcDbCircle
 10
161.02
 20
103.2299999999999
 30
0.0
 40
2.0
100
AcDbArc
 50
90.0
 51
180.0
  0
LINE
  5
16F
330
2
100
AcDbEntity
  8
画層1
  6
DASHED2
 62
     0
100
AcDbLine
 10
175.9199999999999
 20
115.23
 30
0.0
 11
155.02
 21
115.23
 31
0.0
  0
LINE
  5
170
330
2
100
AcDbEntity
  8
画層1
  6
DASHED2
 62
     0
100
AcDbLine
 10
173.02
 20
115.23
 30
0.0
 11
164.02
 21
110.73
 31
0.0
  0
LINE
  5
171
330
2
100
AcDbEntity
  8
画層1
  6
DASHED2
 62
     0
100
AcDbLine
 10
161.02
 20
105.23
 30
0.0
 11
164.02
 21
105.23
 31
0.0
  0
DIMENSION
  5
172
330
2
100
AcDbEntity
  8
画層1
 62
     0
100
AcDbDimension
  2
*D25
 10
5.520000000000002
 20
491.73
 30
0.0
 11
-104.4799999999999
 21
493.61
 31
0.0
 70
    32
 71
     5
 42
220.0
  3
STANDARD_WS
100
AcDbAlignedDimension
 13
-214.48
 23
443.73
 33
0.0
 14
5.519999999999999
 24
443.73
 34
0.0
100
AcDbRotatedDimension
1001
ACAD
1000
DSTYLE
1002
{
1070
    47
1040
0.6
1070
   144
1040
1.0
1070
   146
1040
0.5
1070
   173
1070
     0
1070
   284
1070
     8
1070
   340
1005
27
1070
   341
1005
28
1070
     5
1000
OPEN30
1070
     6
1000
OPEN30
1002
}
  0
DIMENSION
  5
17F
330
2
100
AcDbEntity
  8
画層1
 62
     0
100
AcDbDimension
  2
*D24
 10
-44.47999999999999
 20
477.73
 30
0.0
 11
-104.4799999999999
 21
479.61
 31
0.0
 70
    32
 71
     5
 42
120.0
  3
STANDARD_WS
100
AcDbAlignedDimension
 13
-164.48
 23
429.23
 33
0.0
 14
-44.47999999999999
 24
429.23
 34
0.0
100
AcDbRotatedDimension
1001
ACAD
1000
DSTYLE
1002
{
1070
    47
1040
0.6
1070
   144
1040
1.0
1070
   146
1040
0.5
1070
   173
1070
     0
1070
   284
1070
     8
1070
   340
1005
27
1070
   341
1005
28
1070
     5
1000
OPEN30
1070
     6
1000
OPEN30
1002
}
  0
DIMENSION
  5
18C
330
2
100
AcDbEntity
  8
画層1
 62
     0
100
AcDbDimension
  2
*D23
 10
-104.4799999999999
 20
391.73
 30
0.0
 11
-74.48
 21
393.61
 31
0.0
 70
    32
 71
     5
 42
60.0
  3
STANDARD_WS
100
AcDbAlignedDimension
 13
-44.47999999999999
 23
434.4899999999999
 33
0.0
 14
-104.4799999999999
 24
424.49
 34
0.0
100
AcDbRotatedDimension
1001
ACAD
1000
DSTYLE
1002
{
1070
    47
1040
0.6
1070
   144
1040
1.0
1070
   146
1040
0.5
1070
   173
1070
     0
1070
   284
1070
     8
1070
   340
1005
27
1070
   341
1005
28
1070
     5
1000
OPEN30
1070
     6
1000
OPEN30
1002
}
  0
LINE
  5
199
330
2
100
AcDbEntity
  8
画層1
  6
DIVIDE
 62
     0
100
AcDbLine
 10
-19.48
 20
463.73
 30
0.0
 11
-189.48
 21
463.73
 31
0.0
  0
LINE
  5
19B
330
2
100
AcDbEntity
  8
画層1
  6
DASHED2
 62
     0
100
AcDbLine
 10
-54.48
 20
441.73
 30
0.0
 11
-34.47999999999999
 21
441.73
 31
0.0
  0
LINE
  5
19C
330
2
100
AcDbEntity
  8
画層1
  6
DIVIDE
 62
     0
100
AcDbLine
 10
-189.48
 20
405.73
 30
0.0
 11
-19.48
 21
405.73
 31
0.0
  0
LINE
  5
19D
330
2
100
AcDbEntity
  8
画層1
  6
DASHED2
 62
     0
100
AcDbLine
 10
-214.48
 20
442.2299999999999
 30
0.0
 11
5.519999999999999
 21
442.2299999999999
 31
0.0
  0
LINE
  5
19E
330
2
100
AcDbEntity
  8
画層1
 62
     0
100
AcDbLine
 10
-214.48
 20
443.73
 30
0.0
 11
5.519999999999999
 21
443.73
 31
0.0
  0
LINE
  5
19F
330
2
100
AcDbEntity
  8
画層1
  6
CENTER
 62
     0
100
AcDbLine
 10
-218.48
 20
263.73
 30
0.0
 11
9.519999999999999
 21
263.73
 31
0.0
  0
LINE
  5
1A0
330
2
100
AcDbEntity
  8
画層1
 62
     0
100
AcDbLine
 10
-214.48
 20
273.73
 30
0.0
 11
-214.48
 21
443.73
 31
0.0
  0
LINE
  5
1A1
330
2
100
AcDbEntity
  8
画層1
 62
     0
100
AcDbLine
 10
-187.88
 20
268.19
 30
0.0
 11
-178.4799999999999
 21
268.19
 31
0.0
  0
LINE
  5
1A2
330
2
100
AcDbEntity
  8
画層1
 62
     0
100
AcDbLine
 10
-185.9799999999999
 20
267.6899999999999
 30
0.0
 11
-178.9799999999999
 21
267.6899999999999
 31
0.0
  0
LINE
  5
1A3
330
2
100
AcDbEntity
  8
画層1
 62
     0
100
AcDbLine
 10
-195.9799999999999
 20
310.73
 30
0.0
 11
-97.98000000000001
 21
310.73
 31
0.0
  0
LINE
  5
1A4
330
2
100
AcDbEntity
  8
画層1
 62
     0
100
AcDbLine
 10
-177.4799999999999
 20
272.73
 30
0.0
 11
-199.4799999999999
 21
272.73
 31
0.0
  0
LINE
  5
1A5
330
2
100
AcDbEntity
  8
画層1
 62
     0
100
AcDbLine
 10
-178.4799999999999
 20
271.73
 30
0.0
 11
-212.48
 21
271.73
 31
0.0
  0
ARC
  5
1A6
330
2
100
AcDbEntity
  8
画層1
 62
     0
100
AcDbCircle
 10
-183.9799999999999
 20
256.29
 30
0.0
 40
1.0
100
AcDbArc
 50
270.0
 51
0.0
  0
ARC
  5
1A7
330
2
100
AcDbEntity
  8
画層1
 62
     0
100
AcDbCircle
 10
-183.9799999999999
 20
253.29
 30
0.0
 40
1.0
100
AcDbArc
 50
0.0
 51
90.0
  0
ARC
  5
1A8
330
2
100
AcDbEntity
  8
画層1
 62
     0
100
AcDbCircle
 10
-183.9799999999999
 20
262.69
 30
0.0
 40
1.0
100
AcDbArc
 50
0.0
 51
90.0
  0
LINE
  5
1A9
330
2
100
AcDbEntity
  8
画層1
 62
     0
100
AcDbLine
 10
-187.88
 20
258.79
 30
0.0
 11
-178.4799999999999
 21
258.79
 31
0.0
  0
LINE
  5
1AA
330
2
100
AcDbEntity
  8
画層1
 62
     0
100
AcDbLine
 10
-187.88
 20
260.19
 30
0.0
 11
-178.4799999999999
 21
260.19
 31
0.0
  0
LINE
  5
1AB
330
2
100
AcDbEntity
  8
画層1
 62
     0
100
AcDbLine
 10
-185.9799999999999
 20
258.29
 30
0.0
 11
-178.9799999999999
 21
258.29
 31
0.0
  0
LINE
  5
1AC
330
2
100
AcDbEntity
  8
画層1
 62
     0
100
AcDbLine
 10
-178.9799999999999
 20
260.6899999999999
 30
0.0
 11
-185.9799999999999
 21
260.6899999999999
 31
0.0
  0
ARC
  5
1AD
330
2
100
AcDbEntity
  8
画層1
 62
     0
100
AcDbCircle
 10
-183.9799999999999
 20
243.8899999999999
 30
0.0
 40
1.0
100
AcDbArc
 50
0.0
 51
90.0
  0
ARC
  5
1AE
330
2
100
AcDbEntity
  8
画層1
 62
     0
100
AcDbCircle
 10
-183.9799999999999
 20
246.89
 30
0.0
 40
1.0
100
AcDbArc
 50
270.0
 51
0.0
  0
LINE
  5
1AF
330
2
100
AcDbEntity
  8
画層1
 62
     0
100
AcDbLine
 10
-187.88
 20
250.7899999999999
 30
0.0
 11
-178.4799999999999
 21
250.7899999999999
 31
0.0
  0
LINE
  5
1B0
330
2
100
AcDbEntity
  8
画層1
 62
     0
100
AcDbLine
 10
-187.88
 20
249.39
 30
0.0
 11
-178.4799999999999
 21
249.39
 31
0.0
  0
LINE
  5
1B1
330
2
100
AcDbEntity
  8
画層1
 62
     0
100
AcDbLine
 10
-178.9799999999999
 20
251.29
 30
0.0
 11
-185.9799999999999
 21
251.29
 31
0.0
  0
LINE
  5
1B2
330
2
100
AcDbEntity
  8
画層1
 62
     0
100
AcDbLine
 10
-178.9799999999999
 20
241.8899999999999
 30
0.0
 11
-185.9799999999999
 21
241.8899999999999
 31
0.0
  0
LINE
  5
1B3
330
2
100
AcDbEntity
  8
画層1
 62
     0
100
AcDbLine
 10
-185.9799999999999
 20
248.89
 30
0.0
 11
-178.9799999999999
 21
248.89
 31
0.0
  0
CIRCLE
  5
1B4
330
2
100
AcDbEntity
  8
画層1
 62
     0
100
AcDbCircle
 10
-182.4799999999999
 20
245.3899999999999
 30
0.0
 40
3.0
  0
CIRCLE
  5
1B5
330
2
100
AcDbEntity
  8
画層1
 62
     0
100
AcDbCircle
 10
-182.4799999999999
 20
254.7899999999999
 30
0.0
 40
3.0
  0
ARC
  5
1B6
330
2
100
AcDbEntity
  8
画層1
 62
     0
100
AcDbCircle
 10
-183.9799999999999
 20
234.4899999999999
 30
0.0
 40
1.0
100
AcDbArc
 50
0.0
 51
90.0
  0
ARC
  5
1B7
330
2
100
AcDbEntity
  8
画層1
 62
     0
100
AcDbCircle
 10
-183.9799999999999
 20
237.49
 30
0.0
 40
1.0
100
AcDbArc
 50
270.0
 51
0.0
  0
LINE
  5
1B8
330
2
100
AcDbEntity
  8
画層1
 62
     0
100
AcDbLine
 10
-187.88
 20
241.3899999999999
 30
0.0
 11
-178.4799999999999
 21
241.3899999999999
 31
0.0
  0
LINE
  5
1B9
330
2
100
AcDbEntity
  8
画層1
 62
     0
100
AcDbLine
 10
-187.88
 20
231.99
 30
0.0
 11
-178.4799999999999
 21
231.99
 31
0.0
  0
LINE
  5
1BA
330
2
100
AcDbEntity
  8
画層1
 62
     0
100
AcDbLine
 10
-187.88
 20
239.99
 30
0.0
 11
-178.4799999999999
 21
239.99
 31
0.0
  0
LINE
  5
1BB
330
2
100
AcDbEntity
  8
画層1
 62
     0
100
AcDbLine
 10
-187.88
 20
230.59
 30
0.0
 11
-178.4799999999999
 21
230.59
 31
0.0
  0
LINE
  5
1BC
330
2
100
AcDbEntity
  8
画層1
 62
     0
100
AcDbLine
 10
-178.9799999999999
 20
232.4899999999999
 30
0.0
 11
-185.9799999999999
 21
232.4899999999999
 31
0.0
  0
LINE
  5
1BD
330
2
100
AcDbEntity
  8
画層1
 62
     0
100
AcDbLine
 10
-185.9799999999999
 20
239.49
 30
0.0
 11
-178.9799999999999
 21
239.49
 31
0.0
  0
LINE
  5
1BE
330
2
100
AcDbEntity
  8
画層1
 62
     0
100
AcDbLine
 10
-185.9799999999999
 20
230.0899999999999
 30
0.0
 11
-178.9799999999999
 21
230.0899999999999
 31
0.0
  0
CIRCLE
  5
1BF
330
2
100
AcDbEntity
  8
画層1
 62
     0
100
AcDbCircle
 10
-182.4799999999999
 20
235.99
 30
0.0
 40
3.0
  0
ARC
  5
1C0
330
2
100
AcDbEntity
  8
画層1
 62
     0
100
AcDbCircle
 10
-183.9799999999999
 20
225.09
 30
0.0
 40
1.0
100
AcDbArc
 50
0.0
 51
90.0
  0
ARC
  5
1C1
330
2
100
AcDbEntity
  8
画層1
 62
     0
100
AcDbCircle
 10
-183.9799999999999
 20
228.0899999999999
 30
0.0
 40
1.0
100
AcDbArc
 50
270.0
 51
0.0
  0
LINE
  5
1C2
330
2
100
AcDbEntity
  8
画層1
 62
     0
100
AcDbLine
 10
-187.88
 20
222.59
 30
0.0
 11
-178.4799999999999
 21
222.59
 31
0.0
  0
LINE
  5
1C3
330
2
100
AcDbEntity
  8
画層1
 62
     0
100
AcDbLine
 10
-187.88
 20
221.1899999999999
 30
0.0
 11
-178.4799999999999
 21
221.1899999999999
 31
0.0
  0
LINE
  5
1C4
330
2
100
AcDbEntity
  8
画層1
 62
     0
100
AcDbLine
 10
-178.9799999999999
 20
223.09
 30
0.0
 11
-185.9799999999999
 21
223.09
 31
0.0
  0
LINE
  5
1C5
330
2
100
AcDbEntity
  8
画層1
 62
     0
100
AcDbLine
 10
-185.9799999999999
 20
220.69
 30
0.0
 11
-178.9799999999999
 21
220.69
 31
0.0
  0
CIRCLE
  5
1C6
330
2
100
AcDbEntity
  8
画層1
 62
     0
100
AcDbCircle
 10
-182.4799999999999
 20
226.59
 30
0.0
 40
3.0
  0
ARC
  5
1C7
330
2
100
AcDbEntity
  8
画層1
 62
     0
100
AcDbCircle
 10
-183.9799999999999
 20
209.2899999999999
 30
0.0
 40
1.0
100
AcDbArc
 50
270.0
 51
0.0
  0
ARC
  5
1C8
330
2
100
AcDbEntity
  8
画層1
 62
     0
100
AcDbCircle
 10
-183.9799999999999
 20
215.6899999999999
 30
0.0
 40
1.0
100
AcDbArc
 50
0.0
 51
90.0
  0
LINE
  5
1C9
330
2
100
AcDbEntity
  8
画層1
 62
     0
100
AcDbLine
 10
-187.88
 20
213.1899999999999
 30
0.0
 11
-178.4799999999999
 21
213.1899999999999
 31
0.0
  0
LINE
  5
1CA
330
2
100
AcDbEntity
  8
画層1
 62
     0
100
AcDbLine
 10
-187.88
 20
211.79
 30
0.0
 11
-178.4799999999999
 21
211.79
 31
0.0
  0
LINE
  5
1CB
330
2
100
AcDbEntity
  8
画層1
 62
     0
100
AcDbLine
 10
-178.9799999999999
 20
213.69
 30
0.0
 11
-185.9799999999999
 21
213.69
 31
0.0
  0
LINE
  5
1CC
330
2
100
AcDbEntity
  8
画層1
 62
     0
100
AcDbLine
 10
-185.9799999999999
 20
211.2899999999999
 30
0.0
 11
-178.9799999999999
 21
211.2899999999999
 31
0.0
  0
ARC
  5
1CD
330
2
100
AcDbEntity
  8
画層1
 62
     0
100
AcDbCircle
 10
-183.9799999999999
 20
196.8899999999999
 30
0.0
 40
1.0
100
AcDbArc
 50
0.0
 51
90.0
  0
ARC
  5
1CE
330
2
100
AcDbEntity
  8
画層1
 62
     0
100
AcDbCircle
 10
-183.9799999999999
 20
199.8899999999999
 30
0.0
 40
1.0
100
AcDbArc
 50
270.0
 51
0.0
  0
LINE
  5
1CF
330
2
100
AcDbEntity
  8
画層1
 62
     0
100
AcDbLine
 10
-187.88
 20
203.79
 30
0.0
 11
-178.4799999999999
 21
203.79
 31
0.0
  0
LINE
  5
1D0
330
2
100
AcDbEntity
  8
画層1
 62
     0
100
AcDbLine
 10
-187.88
 20
202.3899999999999
 30
0.0
 11
-178.4799999999999
 21
202.3899999999999
 31
0.0
  0
LINE
  5
1D1
330
2
100
AcDbEntity
  8
画層1
 62
     0
100
AcDbLine
 10
-178.9799999999999
 20
204.2899999999999
 30
0.0
 11
-185.9799999999999
 21
204.2899999999999
 31
0.0
  0
LINE
  5
1D2
330
2
100
AcDbEntity
  8
画層1
 62
     0
100
AcDbLine
 10
-185.9799999999999
 20
201.8899999999999
 30
0.0
 11
-178.9799999999999
 21
201.8899999999999
 31
0.0
  0
CIRCLE
  5
1D3
330
2
100
AcDbEntity
  8
画層1
 62
     0
100
AcDbCircle
 10
-182.4799999999999
 20
198.39
 30
0.0
 40
3.0
  0
ARC
  5
1D4
330
2
100
AcDbEntity
  8
画層1
 62
     0
100
AcDbCircle
 10
-183.9799999999999
 20
206.2899999999999
 30
0.0
 40
1.0
100
AcDbArc
 50
0.0
 51
90.0
  0
CIRCLE
  5
1D5
330
2
100
AcDbEntity
  8
画層1
 62
     0
100
AcDbCircle
 10
-182.4799999999999
 20
207.79
 30
0.0
 40
3.0
  0
ARC
  5
1D6
330
2
100
AcDbEntity
  8
画層1
 62
     0
100
AcDbCircle
 10
-183.9799999999999
 20
187.49
 30
0.0
 40
1.0
100
AcDbArc
 50
0.0
 51
90.0
  0
ARC
  5
1D7
330
2
100
AcDbEntity
  8
画層1
 62
     0
100
AcDbCircle
 10
-183.9799999999999
 20
190.4899999999999
 30
0.0
 40
1.0
100
AcDbArc
 50
270.0
 51
0.0
  0
LINE
  5
1D8
330
2
100
AcDbEntity
  8
画層1
 62
     0
100
AcDbLine
 10
-187.88
 20
194.39
 30
0.0
 11
-178.4799999999999
 21
194.39
 31
0.0
  0
LINE
  5
1D9
330
2
100
AcDbEntity
  8
画層1
 62
     0
100
AcDbLine
 10
-187.88
 20
184.99
 30
0.0
 11
-178.4799999999999
 21
184.99
 31
0.0
  0
LINE
  5
1DA
330
2
100
AcDbEntity
  8
画層1
 62
     0
100
AcDbLine
 10
-187.88
 20
192.99
 30
0.0
 11
-178.4799999999999
 21
192.99
 31
0.0
  0
LINE
  5
1DB
330
2
100
AcDbEntity
  8
画層1
 62
     0
100
AcDbLine
 10
-187.88
 20
183.59
 30
0.0
 11
-178.4799999999999
 21
183.59
 31
0.0
  0
LINE
  5
1DC
330
2
100
AcDbEntity
  8
画層1
 62
     0
100
AcDbLine
 10
-178.9799999999999
 20
185.49
 30
0.0
 11
-185.9799999999999
 21
185.49
 31
0.0
  0
LINE
  5
1DD
330
2
100
AcDbEntity
  8
画層1
 62
     0
100
AcDbLine
 10
-185.9799999999999
 20
192.49
 30
0.0
 11
-178.9799999999999
 21
192.49
 31
0.0
  0
CIRCLE
  5
1DE
330
2
100
AcDbEntity
  8
画層1
 62
     0
100
AcDbCircle
 10
-182.4799999999999
 20
188.99
 30
0.0
 40
3.0
  0
LINE
  5
1DF
330
2
100
AcDbEntity
  8
画層1
 62
     0
100
AcDbLine
 10
-178.9799999999999
 20
194.8899999999999
 30
0.0
 11
-185.9799999999999
 21
194.8899999999999
 31
0.0
  0
LINE
  5
1E0
330
2
100
AcDbEntity
  8
画層1
 62
     0
100
AcDbLine
 10
-185.9799999999999
 20
183.0899999999999
 30
0.0
 11
-178.9799999999999
 21
183.0899999999999
 31
0.0
  0
ARC
  5
1E1
330
2
100
AcDbEntity
  8
画層1
 62
     0
100
AcDbCircle
 10
-183.9799999999999
 20
178.09
 30
0.0
 40
1.0
100
AcDbArc
 50
0.0
 51
90.0
  0
ARC
  5
1E2
330
2
100
AcDbEntity
  8
画層1
 62
     0
100
AcDbCircle
 10
-183.9799999999999
 20
181.09
 30
0.0
 40
1.0
100
AcDbArc
 50
270.0
 51
0.0
  0
LINE
  5
1E3
330
2
100
AcDbEntity
  8
画層1
 62
     0
100
AcDbLine
 10
-187.88
 20
175.59
 30
0.0
 11
-178.4799999999999
 21
175.59
 31
0.0
  0
LINE
  5
1E4
330
2
100
AcDbEntity
  8
画層1
 62
     0
100
AcDbLine
 10
-178.9799999999999
 20
176.09
 30
0.0
 11
-185.9799999999999
 21
176.09
 31
0.0
  0
CIRCLE
  5
1E5
330
2
100
AcDbEntity
  8
画層1
 62
     0
100
AcDbCircle
 10
-182.4799999999999
 20
179.59
 30
0.0
 40
3.0
  0
ARC
  5
1E6
330
2
100
AcDbEntity
  8
画層1
 62
     0
100
AcDbCircle
 10
-183.9799999999999
 20
218.69
 30
0.0
 40
1.0
100
AcDbArc
 50
270.0
 51
0.0
  0
CIRCLE
  5
1E7
330
2
100
AcDbEntity
  8
画層1
 62
     0
100
AcDbCircle
 10
-182.4799999999999
 20
217.1899999999999
 30
0.0
 40
3.0
  0
LINE
  5
1E8
330
2
100
AcDbEntity
  8
画層1
 62
     0
100
AcDbLine
 10
-199.4799999999999
 20
165.73
 30
0.0
 11
-177.4799999999999
 21
165.73
 31
0.0
  0
LINE
  5
1E9
330
2
100
AcDbEntity
  8
画層1
 62
     0
100
AcDbLine
 10
-212.48
 20
166.73
 30
0.0
 11
-178.4799999999999
 21
166.73
 31
0.0
  0
ARC
  5
1EA
330
2
100
AcDbEntity
  8
画層1
 62
     0
100
AcDbCircle
 10
-183.9799999999999
 20
265.6899999999999
 30
0.0
 40
1.0
100
AcDbArc
 50
270.0
 51
0.0
  0
CIRCLE
  5
1EB
330
2
100
AcDbEntity
  8
画層1
 62
     0
100
AcDbCircle
 10
-182.4799999999999
 20
264.19
 30
0.0
 40
3.0
  0
LINE
  5
1EC
330
2
100
AcDbEntity
  8
画層1
 62
     0
100
AcDbLine
 10
-188.3799999999999
 20
243.09
 30
0.0
 11
-188.3799999999999
 21
236.0899999999999
 31
0.0
  0
LINE
  5
1ED
330
2
100
AcDbEntity
  8
画層1
 62
     0
100
AcDbLine
 10
-192.3799999999999
 20
241.09
 30
0.0
 11
-192.3799999999999
 21
241.3899999999999
 31
0.0
  0
LINE
  5
1EE
330
2
100
AcDbEntity
  8
画層1
 62
     0
100
AcDbLine
 10
-191.3799999999999
 20
241.3899999999999
 30
0.0
 11
-191.3799999999999
 21
241.09
 31
0.0
  0
LINE
  5
1EF
330
2
100
AcDbEntity
  8
画層1
 62
     0
100
AcDbLine
 10
-195.38
 20
236.0899999999999
 30
0.0
 11
-195.38
 21
243.09
 31
0.0
  0
CIRCLE
  5
1F0
330
2
100
AcDbEntity
  8
画層1
 62
     0
100
AcDbCircle
 10
-191.88
 20
239.59
 30
0.0
 40
3.0
  0
LINE
  5
1F1
330
2
100
AcDbEntity
  8
画層1
 62
     0
100
AcDbLine
 10
-187.88
 20
271.73
 30
0.0
 11
-187.88
 21
166.73
 31
0.0
  0
LINE
  5
1F2
330
2
100
AcDbEntity
  8
画層1
 62
     0
100
AcDbLine
 10
-197.28
 20
271.73
 30
0.0
 11
-197.28
 21
166.73
 31
0.0
  0
LINE
  5
1F3
330
2
100
AcDbEntity
  8
画層1
 62
     0
100
AcDbLine
 10
-200.9799999999999
 20
271.73
 30
0.0
 11
-200.9799999999999
 21
166.73
 31
0.0
  0
LINE
  5
1F4
330
2
100
AcDbEntity
  8
画層1
 62
     0
100
AcDbLine
 10
-202.58
 20
271.73
 30
0.0
 11
-202.58
 21
166.73
 31
0.0
  0
LINE
  5
1F5
330
2
100
AcDbEntity
  8
画層1
 62
     0
100
AcDbLine
 10
-185.9799999999999
 20
194.8899999999999
 30
0.0
 11
-185.9799999999999
 21
201.8899999999999
 31
0.0
  0
LINE
  5
1F6
330
2
100
AcDbEntity
  8
画層1
 62
     0
100
AcDbLine
 10
-188.3799999999999
 20
196.09
 30
0.0
 11
-188.3799999999999
 21
189.09
 31
0.0
  0
LINE
  5
1F7
330
2
100
AcDbEntity
  8
画層1
 62
     0
100
AcDbLine
 10
-195.38
 20
189.09
 30
0.0
 11
-195.38
 21
196.09
 31
0.0
  0
CIRCLE
  5
1F8
330
2
100
AcDbEntity
  8
画層1
 62
     0
100
AcDbCircle
 10
-191.88
 20
192.59
 30
0.0
 40
3.0
  0
LINE
  5
1F9
330
2
100
AcDbEntity
  8
画層1
 62
     0
100
AcDbLine
 10
-188.3799999999999
 20
177.2899999999999
 30
0.0
 11
-188.3799999999999
 21
170.2899999999999
 31
0.0
  0
LINE
  5
1FA
330
2
100
AcDbEntity
  8
画層1
 62
     0
100
AcDbLine
 10
-195.38
 20
170.2899999999999
 30
0.0
 11
-195.38
 21
177.2899999999999
 31
0.0
  0
CIRCLE
  5
1FB
330
2
100
AcDbEntity
  8
画層1
 62
     0
100
AcDbCircle
 10
-191.88
 20
173.7899999999999
 30
0.0
 40
3.0
  0
ARC
  5
1FC
330
2
100
AcDbEntity
  8
画層1
 62
     0
100
AcDbCircle
 10
-212.48
 20
164.7299999999999
 30
0.0
 40
2.0
100
AcDbArc
 50
90.0
 51
180.0
  0
LINE
  5
1FD
330
2
100
AcDbEntity
  8
画層1
 62
     0
100
AcDbLine
 10
-197.28
 20
169.7899999999999
 30
0.0
 11
-187.88
 21
169.7899999999999
 31
0.0
  0
LINE
  5
1FE
330
2
100
AcDbEntity
  8
画層1
 62
     0
100
AcDbLine
 10
-188.3799999999999
 20
170.2899999999999
 30
0.0
 11
-195.38
 21
170.2899999999999
 31
0.0
  0
LINE
  5
1FF
330
2
100
AcDbEntity
  8
画層1
 62
     0
100
AcDbLine
 10
-188.3799999999999
 20
186.69
 30
0.0
 11
-188.3799999999999
 21
179.6899999999999
 31
0.0
  0
LINE
  5
200
330
2
100
AcDbEntity
  8
画層1
 62
     0
100
AcDbLine
 10
-195.38
 20
179.6899999999999
 30
0.0
 11
-195.38
 21
186.69
 31
0.0
  0
CIRCLE
  5
201
330
2
100
AcDbEntity
  8
画層1
 62
     0
100
AcDbCircle
 10
-191.88
 20
183.19
 30
0.0
 40
3.0
  0
LINE
  5
202
330
2
100
AcDbEntity
  8
画層1
 62
     0
100
AcDbLine
 10
-192.3799999999999
 20
171.99
 30
0.0
 11
-191.3799999999999
 21
171.99
 31
0.0
  0
LINE
  5
203
330
2
100
AcDbEntity
  8
画層1
 62
     0
100
AcDbLine
 10
-192.3799999999999
 20
175.59
 30
0.0
 11
-191.3799999999999
 21
175.59
 31
0.0
  0
LINE
  5
204
330
2
100
AcDbEntity
  8
画層1
 62
     0
100
AcDbLine
 10
-192.3799999999999
 20
181.3899999999999
 30
0.0
 11
-191.3799999999999
 21
181.3899999999999
 31
0.0
  0
LINE
  5
205
330
2
100
AcDbEntity
  8
画層1
 62
     0
100
AcDbLine
 10
-197.28
 20
177.7899999999999
 30
0.0
 11
-187.88
 21
177.7899999999999
 31
0.0
  0
LINE
  5
206
330
2
100
AcDbEntity
  8
画層1
 62
     0
100
AcDbLine
 10
-197.28
 20
179.19
 30
0.0
 11
-187.88
 21
179.19
 31
0.0
  0
LINE
  5
207
330
2
100
AcDbEntity
  8
画層1
 62
     0
100
AcDbLine
 10
-195.38
 20
177.2899999999999
 30
0.0
 11
-188.3799999999999
 21
177.2899999999999
 31
0.0
  0
LINE
  5
208
330
2
100
AcDbEntity
  8
画層1
 62
     0
100
AcDbLine
 10
-188.3799999999999
 20
179.6899999999999
 30
0.0
 11
-195.38
 21
179.6899999999999
 31
0.0
  0
LINE
  5
209
330
2
100
AcDbEntity
  8
画層1
 62
     0
100
AcDbLine
 10
-192.3799999999999
 20
171.99
 30
0.0
 11
-192.3799999999999
 21
172.2899999999999
 31
0.0
  0
LINE
  5
20A
330
2
100
AcDbEntity
  8
画層1
 62
     0
100
AcDbLine
 10
-192.3799999999999
 20
175.2899999999999
 30
0.0
 11
-192.3799999999999
 21
175.59
 31
0.0
  0
LINE
  5
20B
330
2
100
AcDbEntity
  8
画層1
 62
     0
100
AcDbLine
 10
-194.84
 20
174.2899999999999
 30
0.0
 11
-193.3799999999999
 21
174.2899999999999
 31
0.0
  0
LINE
  5
20C
330
2
100
AcDbEntity
  8
画層1
 62
     0
100
AcDbLine
 10
-193.3799999999999
 20
173.2899999999999
 30
0.0
 11
-194.84
 21
173.2899999999999
 31
0.0
  0
ARC
  5
20D
330
2
100
AcDbEntity
  8
画層1
 62
     0
100
AcDbCircle
 10
-193.3799999999999
 20
172.2899999999999
 30
0.0
 40
1.0
100
AcDbArc
 50
0.0
 51
90.0
  0
ARC
  5
20E
330
2
100
AcDbEntity
  8
画層1
 62
     0
100
AcDbCircle
 10
-193.3799999999999
 20
175.2899999999999
 30
0.0
 40
1.0
100
AcDbArc
 50
270.0
 51
0.0
  0
LINE
  5
20F
330
2
100
AcDbEntity
  8
画層1
 62
     0
100
AcDbLine
 10
-193.3799999999999
 20
182.69
 30
0.0
 11
-194.84
 21
182.69
 31
0.0
  0
LINE
  5
210
330
2
100
AcDbEntity
  8
画層1
 62
     0
100
AcDbLine
 10
-192.3799999999999
 20
181.3899999999999
 30
0.0
 11
-192.3799999999999
 21
181.69
 31
0.0
  0
ARC
  5
211
330
2
100
AcDbEntity
  8
画層1
 62
     0
100
AcDbCircle
 10
-193.3799999999999
 20
181.69
 30
0.0
 40
1.0
100
AcDbArc
 50
0.0
 51
90.0
  0
LINE
  5
212
330
2
100
AcDbEntity
  8
画層1
 62
     0
100
AcDbLine
 10
-185.9799999999999
 20
176.09
 30
0.0
 11
-185.9799999999999
 21
183.0899999999999
 31
0.0
  0
LINE
  5
213
330
2
100
AcDbEntity
  8
画層1
 62
     0
100
AcDbLine
 10
-190.38
 20
174.2899999999999
 30
0.0
 11
-188.9199999999999
 21
174.2899999999999
 31
0.0
  0
LINE
  5
214
330
2
100
AcDbEntity
  8
画層1
 62
     0
100
AcDbLine
 10
-188.9199999999999
 20
173.2899999999999
 30
0.0
 11
-190.38
 21
173.2899999999999
 31
0.0
  0
LINE
  5
215
330
2
100
AcDbEntity
  8
画層1
 62
     0
100
AcDbLine
 10
-191.3799999999999
 20
172.2899999999999
 30
0.0
 11
-191.3799999999999
 21
171.99
 31
0.0
  0
LINE
  5
216
330
2
100
AcDbEntity
  8
画層1
 62
     0
100
AcDbLine
 10
-191.3799999999999
 20
175.59
 30
0.0
 11
-191.3799999999999
 21
175.2899999999999
 31
0.0
  0
ARC
  5
217
330
2
100
AcDbEntity
  8
画層1
 62
     0
100
AcDbCircle
 10
-190.38
 20
172.2899999999999
 30
0.0
 40
1.0
100
AcDbArc
 50
90.0
 51
180.0
  0
ARC
  5
218
330
2
100
AcDbEntity
  8
画層1
 62
     0
100
AcDbCircle
 10
-190.38
 20
175.2899999999999
 30
0.0
 40
1.0
100
AcDbArc
 50
180.0
 51
270.0
  0
LINE
  5
219
330
2
100
AcDbEntity
  8
画層1
 62
     0
100
AcDbLine
 10
-188.9199999999999
 20
182.69
 30
0.0
 11
-190.38
 21
182.69
 31
0.0
  0
LINE
  5
21A
330
2
100
AcDbEntity
  8
画層1
 62
     0
100
AcDbLine
 10
-191.3799999999999
 20
181.69
 30
0.0
 11
-191.3799999999999
 21
181.3899999999999
 31
0.0
  0
ARC
  5
21B
330
2
100
AcDbEntity
  8
画層1
 62
     0
100
AcDbCircle
 10
-190.38
 20
181.69
 30
0.0
 40
1.0
100
AcDbArc
 50
90.0
 51
180.0
  0
LINE
  5
21C
330
2
100
AcDbEntity
  8
画層1
 62
     0
100
AcDbLine
 10
-183.9799999999999
 20
179.09
 30
0.0
 11
-185.44
 21
179.09
 31
0.0
  0
LINE
  5
21D
330
2
100
AcDbEntity
  8
画層1
 62
     0
100
AcDbLine
 10
-185.44
 20
180.09
 30
0.0
 11
-183.9799999999999
 21
180.09
 31
0.0
  0
LINE
  5
21E
330
2
100
AcDbEntity
  8
画層1
 62
     0
100
AcDbLine
 10
-192.3799999999999
 20
194.39
 30
0.0
 11
-191.3799999999999
 21
194.39
 31
0.0
  0
LINE
  5
21F
330
2
100
AcDbEntity
  8
画層1
 62
     0
100
AcDbLine
 10
-192.3799999999999
 20
184.99
 30
0.0
 11
-191.3799999999999
 21
184.99
 31
0.0
  0
LINE
  5
220
330
2
100
AcDbEntity
  8
画層1
 62
     0
100
AcDbLine
 10
-192.3799999999999
 20
190.7899999999999
 30
0.0
 11
-191.3799999999999
 21
190.7899999999999
 31
0.0
  0
LINE
  5
221
330
2
100
AcDbEntity
  8
画層1
 62
     0
100
AcDbLine
 10
-197.28
 20
187.19
 30
0.0
 11
-187.88
 21
187.19
 31
0.0
  0
LINE
  5
222
330
2
100
AcDbEntity
  8
画層1
 62
     0
100
AcDbLine
 10
-197.28
 20
188.59
 30
0.0
 11
-187.88
 21
188.59
 31
0.0
  0
LINE
  5
223
330
2
100
AcDbEntity
  8
画層1
 62
     0
100
AcDbLine
 10
-195.38
 20
186.69
 30
0.0
 11
-188.3799999999999
 21
186.69
 31
0.0
  0
LINE
  5
224
330
2
100
AcDbEntity
  8
画層1
 62
     0
100
AcDbLine
 10
-188.3799999999999
 20
189.09
 30
0.0
 11
-195.38
 21
189.09
 31
0.0
  0
LINE
  5
225
330
2
100
AcDbEntity
  8
画層1
 62
     0
100
AcDbLine
 10
-192.3799999999999
 20
184.6899999999999
 30
0.0
 11
-192.3799999999999
 21
184.99
 31
0.0
  0
LINE
  5
226
330
2
100
AcDbEntity
  8
画層1
 62
     0
100
AcDbLine
 10
-194.84
 20
183.6899999999999
 30
0.0
 11
-193.3799999999999
 21
183.6899999999999
 31
0.0
  0
ARC
  5
227
330
2
100
AcDbEntity
  8
画層1
 62
     0
100
AcDbCircle
 10
-193.3799999999999
 20
184.6899999999999
 30
0.0
 40
1.0
100
AcDbArc
 50
270.0
 51
0.0
  0
LINE
  5
228
330
2
100
AcDbEntity
  8
画層1
 62
     0
100
AcDbLine
 10
-192.3799999999999
 20
194.09
 30
0.0
 11
-192.3799999999999
 21
194.39
 31
0.0
  0
LINE
  5
229
330
2
100
AcDbEntity
  8
画層1
 62
     0
100
AcDbLine
 10
-192.3799999999999
 20
190.7899999999999
 30
0.0
 11
-192.3799999999999
 21
191.0899999999999
 31
0.0
  0
LINE
  5
22A
330
2
100
AcDbEntity
  8
画層1
 62
     0
100
AcDbLine
 10
-194.84
 20
193.09
 30
0.0
 11
-193.3799999999999
 21
193.09
 31
0.0
  0
LINE
  5
22B
330
2
100
AcDbEntity
  8
画層1
 62
     0
100
AcDbLine
 10
-193.3799999999999
 20
192.0899999999999
 30
0.0
 11
-194.84
 21
192.0899999999999
 31
0.0
  0
ARC
  5
22C
330
2
100
AcDbEntity
  8
画層1
 62
     0
100
AcDbCircle
 10
-193.3799999999999
 20
191.0899999999999
 30
0.0
 40
1.0
100
AcDbArc
 50
0.0
 51
90.0
  0
ARC
  5
22D
330
2
100
AcDbEntity
  8
画層1
 62
     0
100
AcDbCircle
 10
-193.3799999999999
 20
194.09
 30
0.0
 40
1.0
100
AcDbArc
 50
270.0
 51
0.0
  0
LINE
  5
22E
330
2
100
AcDbEntity
  8
画層1
 62
     0
100
AcDbLine
 10
-185.9799999999999
 20
185.49
 30
0.0
 11
-185.9799999999999
 21
192.49
 31
0.0
  0
LINE
  5
22F
330
2
100
AcDbEntity
  8
画層1
 62
     0
100
AcDbLine
 10
-190.38
 20
183.6899999999999
 30
0.0
 11
-188.9199999999999
 21
183.6899999999999
 31
0.0
  0
LINE
  5
230
330
2
100
AcDbEntity
  8
画層1
 62
     0
100
AcDbLine
 10
-191.3799999999999
 20
184.99
 30
0.0
 11
-191.3799999999999
 21
184.6899999999999
 31
0.0
  0
ARC
  5
231
330
2
100
AcDbEntity
  8
画層1
 62
     0
100
AcDbCircle
 10
-190.38
 20
184.6899999999999
 30
0.0
 40
1.0
100
AcDbArc
 50
180.0
 51
270.0
  0
LINE
  5
232
330
2
100
AcDbEntity
  8
画層1
 62
     0
100
AcDbLine
 10
-183.9799999999999
 20
188.49
 30
0.0
 11
-185.44
 21
188.49
 31
0.0
  0
LINE
  5
233
330
2
100
AcDbEntity
  8
画層1
 62
     0
100
AcDbLine
 10
-190.38
 20
193.09
 30
0.0
 11
-188.9199999999999
 21
193.09
 31
0.0
  0
LINE
  5
234
330
2
100
AcDbEntity
  8
画層1
 62
     0
100
AcDbLine
 10
-188.9199999999999
 20
192.0899999999999
 30
0.0
 11
-190.38
 21
192.0899999999999
 31
0.0
  0
LINE
  5
235
330
2
100
AcDbEntity
  8
画層1
 62
     0
100
AcDbLine
 10
-191.3799999999999
 20
194.39
 30
0.0
 11
-191.3799999999999
 21
194.09
 31
0.0
  0
LINE
  5
236
330
2
100
AcDbEntity
  8
画層1
 62
     0
100
AcDbLine
 10
-191.3799999999999
 20
191.0899999999999
 30
0.0
 11
-191.3799999999999
 21
190.7899999999999
 31
0.0
  0
ARC
  5
237
330
2
100
AcDbEntity
  8
画層1
 62
     0
100
AcDbCircle
 10
-190.38
 20
191.0899999999999
 30
0.0
 40
1.0
100
AcDbArc
 50
90.0
 51
180.0
  0
ARC
  5
238
330
2
100
AcDbEntity
  8
画層1
 62
     0
100
AcDbCircle
 10
-190.38
 20
194.09
 30
0.0
 40
1.0
100
AcDbArc
 50
180.0
 51
270.0
  0
LINE
  5
239
330
2
100
AcDbEntity
  8
画層1
 62
     0
100
AcDbLine
 10
-185.44
 20
189.4899999999999
 30
0.0
 11
-183.9799999999999
 21
189.4899999999999
 31
0.0
  0
LINE
  5
23A
330
2
100
AcDbEntity
  8
画層1
 62
     0
100
AcDbLine
 10
-188.3799999999999
 20
224.29
 30
0.0
 11
-188.3799999999999
 21
217.2899999999999
 31
0.0
  0
LINE
  5
23B
330
2
100
AcDbEntity
  8
画層1
 62
     0
100
AcDbLine
 10
-185.9799999999999
 20
213.69
 30
0.0
 11
-185.9799999999999
 21
220.69
 31
0.0
  0
LINE
  5
23C
330
2
100
AcDbEntity
  8
画層1
 62
     0
100
AcDbLine
 10
-195.38
 20
217.2899999999999
 30
0.0
 11
-195.38
 21
224.29
 31
0.0
  0
CIRCLE
  5
23D
330
2
100
AcDbEntity
  8
画層1
 62
     0
100
AcDbCircle
 10
-191.88
 20
220.7899999999999
 30
0.0
 40
3.0
  0
LINE
  5
23E
330
2
100
AcDbEntity
  8
画層1
 62
     0
100
AcDbLine
 10
-185.9799999999999
 20
204.2899999999999
 30
0.0
 11
-185.9799999999999
 21
211.2899999999999
 31
0.0
  0
LINE
  5
23F
330
2
100
AcDbEntity
  8
画層1
 62
     0
100
AcDbLine
 10
-192.3799999999999
 20
203.79
 30
0.0
 11
-191.3799999999999
 21
203.79
 31
0.0
  0
LINE
  5
240
330
2
100
AcDbEntity
  8
画層1
 62
     0
100
AcDbLine
 10
-192.3799999999999
 20
200.19
 30
0.0
 11
-191.3799999999999
 21
200.19
 31
0.0
  0
LINE
  5
241
330
2
100
AcDbEntity
  8
画層1
 62
     0
100
AcDbLine
 10
-197.28
 20
205.99
 30
0.0
 11
-187.88
 21
205.99
 31
0.0
  0
LINE
  5
242
330
2
100
AcDbEntity
  8
画層1
 62
     0
100
AcDbLine
 10
-195.38
 20
205.4899999999999
 30
0.0
 11
-188.3799999999999
 21
205.4899999999999
 31
0.0
  0
LINE
  5
243
330
2
100
AcDbEntity
  8
画層1
 62
     0
100
AcDbLine
 10
-197.28
 20
196.5899999999999
 30
0.0
 11
-187.88
 21
196.5899999999999
 31
0.0
  0
LINE
  5
244
330
2
100
AcDbEntity
  8
画層1
 62
     0
100
AcDbLine
 10
-197.28
 20
197.99
 30
0.0
 11
-187.88
 21
197.99
 31
0.0
  0
LINE
  5
245
330
2
100
AcDbEntity
  8
画層1
 62
     0
100
AcDbLine
 10
-195.38
 20
196.09
 30
0.0
 11
-188.3799999999999
 21
196.09
 31
0.0
  0
LINE
  5
246
330
2
100
AcDbEntity
  8
画層1
 62
     0
100
AcDbLine
 10
-188.3799999999999
 20
198.49
 30
0.0
 11
-195.38
 21
198.49
 31
0.0
  0
CIRCLE
  5
247
330
2
100
AcDbEntity
  8
画層1
 62
     0
100
AcDbCircle
 10
-191.88
 20
201.99
 30
0.0
 40
3.0
  0
ARC
  5
248
330
2
100
AcDbEntity
  8
画層1
 62
     0
100
AcDbCircle
 10
-193.3799999999999
 20
200.49
 30
0.0
 40
1.0
100
AcDbArc
 50
0.0
 51
90.0
  0
LINE
  5
249
330
2
100
AcDbEntity
  8
画層1
 62
     0
100
AcDbLine
 10
-195.38
 20
198.49
 30
0.0
 11
-195.38
 21
205.4899999999999
 31
0.0
  0
LINE
  5
24A
330
2
100
AcDbEntity
  8
画層1
 62
     0
100
AcDbLine
 10
-192.3799999999999
 20
200.19
 30
0.0
 11
-192.3799999999999
 21
200.49
 31
0.0
  0
LINE
  5
24B
330
2
100
AcDbEntity
  8
画層1
 62
     0
100
AcDbLine
 10
-192.3799999999999
 20
203.4899999999999
 30
0.0
 11
-192.3799999999999
 21
203.79
 31
0.0
  0
LINE
  5
24C
330
2
100
AcDbEntity
  8
画層1
 62
     0
100
AcDbLine
 10
-194.84
 20
202.49
 30
0.0
 11
-193.3799999999999
 21
202.49
 31
0.0
  0
LINE
  5
24D
330
2
100
AcDbEntity
  8
画層1
 62
     0
100
AcDbLine
 10
-193.3799999999999
 20
201.4899999999999
 30
0.0
 11
-194.84
 21
201.4899999999999
 31
0.0
  0
ARC
  5
24E
330
2
100
AcDbEntity
  8
画層1
 62
     0
100
AcDbCircle
 10
-193.3799999999999
 20
203.4899999999999
 30
0.0
 40
1.0
100
AcDbArc
 50
270.0
 51
0.0
  0
LINE
  5
24F
330
2
100
AcDbEntity
  8
画層1
 62
     0
100
AcDbLine
 10
-188.3799999999999
 20
205.4899999999999
 30
0.0
 11
-188.3799999999999
 21
198.49
 31
0.0
  0
ARC
  5
250
330
2
100
AcDbEntity
  8
画層1
 62
     0
100
AcDbCircle
 10
-190.38
 20
200.49
 30
0.0
 40
1.0
100
AcDbArc
 50
90.0
 51
180.0
  0
LINE
  5
251
330
2
100
AcDbEntity
  8
画層1
 62
     0
100
AcDbLine
 10
-191.3799999999999
 20
200.49
 30
0.0
 11
-191.3799999999999
 21
200.19
 31
0.0
  0
LINE
  5
252
330
2
100
AcDbEntity
  8
画層1
 62
     0
100
AcDbLine
 10
-183.9799999999999
 20
197.8899999999999
 30
0.0
 11
-185.44
 21
197.8899999999999
 31
0.0
  0
LINE
  5
253
330
2
100
AcDbEntity
  8
画層1
 62
     0
100
AcDbLine
 10
-185.44
 20
198.8899999999999
 30
0.0
 11
-183.9799999999999
 21
198.8899999999999
 31
0.0
  0
LINE
  5
254
330
2
100
AcDbEntity
  8
画層1
 62
     0
100
AcDbLine
 10
-190.38
 20
202.49
 30
0.0
 11
-188.9199999999999
 21
202.49
 31
0.0
  0
LINE
  5
255
330
2
100
AcDbEntity
  8
画層1
 62
     0
100
AcDbLine
 10
-188.9199999999999
 20
201.4899999999999
 30
0.0
 11
-190.38
 21
201.4899999999999
 31
0.0
  0
LINE
  5
256
330
2
100
AcDbEntity
  8
画層1
 62
     0
100
AcDbLine
 10
-191.3799999999999
 20
203.79
 30
0.0
 11
-191.3799999999999
 21
203.4899999999999
 31
0.0
  0
ARC
  5
257
330
2
100
AcDbEntity
  8
画層1
 62
     0
100
AcDbCircle
 10
-190.38
 20
203.4899999999999
 30
0.0
 40
1.0
100
AcDbArc
 50
180.0
 51
270.0
  0
LINE
  5
258
330
2
100
AcDbEntity
  8
画層1
 62
     0
100
AcDbLine
 10
-192.3799999999999
 20
213.1899999999999
 30
0.0
 11
-191.3799999999999
 21
213.1899999999999
 31
0.0
  0
LINE
  5
259
330
2
100
AcDbEntity
  8
画層1
 62
     0
100
AcDbLine
 10
-192.3799999999999
 20
209.5899999999999
 30
0.0
 11
-191.3799999999999
 21
209.5899999999999
 31
0.0
  0
LINE
  5
25A
330
2
100
AcDbEntity
  8
画層1
 62
     0
100
AcDbLine
 10
-197.28
 20
216.7899999999999
 30
0.0
 11
-187.88
 21
216.7899999999999
 31
0.0
  0
LINE
  5
25B
330
2
100
AcDbEntity
  8
画層1
 62
     0
100
AcDbLine
 10
-188.3799999999999
 20
217.2899999999999
 30
0.0
 11
-195.38
 21
217.2899999999999
 31
0.0
  0
LINE
  5
25C
330
2
100
AcDbEntity
  8
画層1
 62
     0
100
AcDbLine
 10
-197.28
 20
207.39
 30
0.0
 11
-187.88
 21
207.39
 31
0.0
  0
LINE
  5
25D
330
2
100
AcDbEntity
  8
画層1
 62
     0
100
AcDbLine
 10
-197.28
 20
215.3899999999999
 30
0.0
 11
-187.88
 21
215.3899999999999
 31
0.0
  0
LINE
  5
25E
330
2
100
AcDbEntity
  8
画層1
 62
     0
100
AcDbLine
 10
-195.38
 20
214.8899999999999
 30
0.0
 11
-188.3799999999999
 21
214.8899999999999
 31
0.0
  0
LINE
  5
25F
330
2
100
AcDbEntity
  8
画層1
 62
     0
100
AcDbLine
 10
-188.3799999999999
 20
207.8899999999999
 30
0.0
 11
-195.38
 21
207.8899999999999
 31
0.0
  0
CIRCLE
  5
260
330
2
100
AcDbEntity
  8
画層1
 62
     0
100
AcDbCircle
 10
-191.88
 20
211.39
 30
0.0
 40
3.0
  0
LINE
  5
261
330
2
100
AcDbEntity
  8
画層1
 62
     0
100
AcDbLine
 10
-195.38
 20
207.8899999999999
 30
0.0
 11
-195.38
 21
214.8899999999999
 31
0.0
  0
ARC
  5
262
330
2
100
AcDbEntity
  8
画層1
 62
     0
100
AcDbCircle
 10
-193.3799999999999
 20
212.8899999999999
 30
0.0
 40
1.0
100
AcDbArc
 50
270.0
 51
0.0
  0
LINE
  5
263
330
2
100
AcDbEntity
  8
画層1
 62
     0
100
AcDbLine
 10
-192.3799999999999
 20
209.5899999999999
 30
0.0
 11
-192.3799999999999
 21
209.8899999999999
 31
0.0
  0
LINE
  5
264
330
2
100
AcDbEntity
  8
画層1
 62
     0
100
AcDbLine
 10
-194.84
 20
211.89
 30
0.0
 11
-193.3799999999999
 21
211.89
 31
0.0
  0
LINE
  5
265
330
2
100
AcDbEntity
  8
画層1
 62
     0
100
AcDbLine
 10
-193.3799999999999
 20
210.8899999999999
 30
0.0
 11
-194.84
 21
210.8899999999999
 31
0.0
  0
ARC
  5
266
330
2
100
AcDbEntity
  8
画層1
 62
     0
100
AcDbCircle
 10
-193.3799999999999
 20
209.8899999999999
 30
0.0
 40
1.0
100
AcDbArc
 50
0.0
 51
90.0
  0
LINE
  5
267
330
2
100
AcDbEntity
  8
画層1
 62
     0
100
AcDbLine
 10
-192.3799999999999
 20
212.8899999999999
 30
0.0
 11
-192.3799999999999
 21
213.1899999999999
 31
0.0
  0
LINE
  5
268
330
2
100
AcDbEntity
  8
画層1
 62
     0
100
AcDbLine
 10
-188.3799999999999
 20
214.8899999999999
 30
0.0
 11
-188.3799999999999
 21
207.8899999999999
 31
0.0
  0
ARC
  5
269
330
2
100
AcDbEntity
  8
画層1
 62
     0
100
AcDbCircle
 10
-190.38
 20
212.8899999999999
 30
0.0
 40
1.0
100
AcDbArc
 50
180.0
 51
270.0
  0
LINE
  5
26A
330
2
100
AcDbEntity
  8
画層1
 62
     0
100
AcDbLine
 10
-190.38
 20
211.89
 30
0.0
 11
-188.9199999999999
 21
211.89
 31
0.0
  0
LINE
  5
26B
330
2
100
AcDbEntity
  8
画層1
 62
     0
100
AcDbLine
 10
-188.9199999999999
 20
210.8899999999999
 30
0.0
 11
-190.38
 21
210.8899999999999
 31
0.0
  0
LINE
  5
26C
330
2
100
AcDbEntity
  8
画層1
 62
     0
100
AcDbLine
 10
-191.3799999999999
 20
209.8899999999999
 30
0.0
 11
-191.3799999999999
 21
209.5899999999999
 31
0.0
  0
ARC
  5
26D
330
2
100
AcDbEntity
  8
画層1
 62
     0
100
AcDbCircle
 10
-190.38
 20
209.8899999999999
 30
0.0
 40
1.0
100
AcDbArc
 50
90.0
 51
180.0
  0
LINE
  5
26E
330
2
100
AcDbEntity
  8
画層1
 62
     0
100
AcDbLine
 10
-183.9799999999999
 20
207.2899999999999
 30
0.0
 11
-185.44
 21
207.2899999999999
 31
0.0
  0
LINE
  5
26F
330
2
100
AcDbEntity
  8
画層1
 62
     0
100
AcDbLine
 10
-185.44
 20
208.2899999999999
 30
0.0
 11
-183.9799999999999
 21
208.2899999999999
 31
0.0
  0
LINE
  5
270
330
2
100
AcDbEntity
  8
画層1
 62
     0
100
AcDbLine
 10
-191.3799999999999
 20
213.1899999999999
 30
0.0
 11
-191.3799999999999
 21
212.8899999999999
 31
0.0
  0
LINE
  5
271
330
2
100
AcDbEntity
  8
画層1
 62
     0
100
AcDbLine
 10
-185.44
 20
217.6899999999999
 30
0.0
 11
-183.9799999999999
 21
217.6899999999999
 31
0.0
  0
LINE
  5
272
330
2
100
AcDbEntity
  8
画層1
 62
     0
100
AcDbLine
 10
-183.9799999999999
 20
216.69
 30
0.0
 11
-185.44
 21
216.69
 31
0.0
  0
LINE
  5
273
330
2
100
AcDbEntity
  8
画層1
 62
     0
100
AcDbLine
 10
-188.3799999999999
 20
233.6899999999999
 30
0.0
 11
-188.3799999999999
 21
226.69
 31
0.0
  0
LINE
  5
274
330
2
100
AcDbEntity
  8
画層1
 62
     0
100
AcDbLine
 10
-185.9799999999999
 20
223.09
 30
0.0
 11
-185.9799999999999
 21
230.0899999999999
 31
0.0
  0
ARC
  5
275
330
2
100
AcDbEntity
  8
画層1
 62
     0
100
AcDbCircle
 10
-193.3799999999999
 20
228.69
 30
0.0
 40
1.0
100
AcDbArc
 50
0.0
 51
90.0
  0
LINE
  5
276
330
2
100
AcDbEntity
  8
画層1
 62
     0
100
AcDbLine
 10
-195.38
 20
226.69
 30
0.0
 11
-195.38
 21
233.6899999999999
 31
0.0
  0
ARC
  5
277
330
2
100
AcDbEntity
  8
画層1
 62
     0
100
AcDbCircle
 10
-190.38
 20
228.69
 30
0.0
 40
1.0
100
AcDbArc
 50
90.0
 51
180.0
  0
CIRCLE
  5
278
330
2
100
AcDbEntity
  8
画層1
 62
     0
100
AcDbCircle
 10
-191.88
 20
230.1899999999999
 30
0.0
 40
3.0
  0
LINE
  5
279
330
2
100
AcDbEntity
  8
画層1
 62
     0
100
AcDbLine
 10
-192.3799999999999
 20
228.39
 30
0.0
 11
-191.3799999999999
 21
228.39
 31
0.0
  0
LINE
  5
27A
330
2
100
AcDbEntity
  8
画層1
 62
     0
100
AcDbLine
 10
-192.3799999999999
 20
218.99
 30
0.0
 11
-191.3799999999999
 21
218.99
 31
0.0
  0
LINE
  5
27B
330
2
100
AcDbEntity
  8
画層1
 62
     0
100
AcDbLine
 10
-192.3799999999999
 20
222.59
 30
0.0
 11
-191.3799999999999
 21
222.59
 31
0.0
  0
LINE
  5
27C
330
2
100
AcDbEntity
  8
画層1
 62
     0
100
AcDbLine
 10
-197.28
 20
224.79
 30
0.0
 11
-187.88
 21
224.79
 31
0.0
  0
LINE
  5
27D
330
2
100
AcDbEntity
  8
画層1
 62
     0
100
AcDbLine
 10
-197.28
 20
226.19
 30
0.0
 11
-187.88
 21
226.19
 31
0.0
  0
LINE
  5
27E
330
2
100
AcDbEntity
  8
画層1
 62
     0
100
AcDbLine
 10
-195.38
 20
224.29
 30
0.0
 11
-188.3799999999999
 21
224.29
 31
0.0
  0
LINE
  5
27F
330
2
100
AcDbEntity
  8
画層1
 62
     0
100
AcDbLine
 10
-188.3799999999999
 20
226.69
 30
0.0
 11
-195.38
 21
226.69
 31
0.0
  0
LINE
  5
280
330
2
100
AcDbEntity
  8
画層1
 62
     0
100
AcDbLine
 10
-192.3799999999999
 20
218.99
 30
0.0
 11
-192.3799999999999
 21
219.2899999999999
 31
0.0
  0
LINE
  5
281
330
2
100
AcDbEntity
  8
画層1
 62
     0
100
AcDbLine
 10
-192.3799999999999
 20
222.29
 30
0.0
 11
-192.3799999999999
 21
222.59
 31
0.0
  0
LINE
  5
282
330
2
100
AcDbEntity
  8
画層1
 62
     0
100
AcDbLine
 10
-194.84
 20
221.2899999999999
 30
0.0
 11
-193.3799999999999
 21
221.2899999999999
 31
0.0
  0
LINE
  5
283
330
2
100
AcDbEntity
  8
画層1
 62
     0
100
AcDbLine
 10
-193.3799999999999
 20
220.29
 30
0.0
 11
-194.84
 21
220.29
 31
0.0
  0
ARC
  5
284
330
2
100
AcDbEntity
  8
画層1
 62
     0
100
AcDbCircle
 10
-193.3799999999999
 20
222.29
 30
0.0
 40
1.0
100
AcDbArc
 50
270.0
 51
0.0
  0
ARC
  5
285
330
2
100
AcDbEntity
  8
画層1
 62
     0
100
AcDbCircle
 10
-193.3799999999999
 20
219.2899999999999
 30
0.0
 40
1.0
100
AcDbArc
 50
0.0
 51
90.0
  0
LINE
  5
286
330
2
100
AcDbEntity
  8
画層1
 62
     0
100
AcDbLine
 10
-193.3799999999999
 20
229.6899999999999
 30
0.0
 11
-194.84
 21
229.6899999999999
 31
0.0
  0
LINE
  5
287
330
2
100
AcDbEntity
  8
画層1
 62
     0
100
AcDbLine
 10
-192.3799999999999
 20
228.39
 30
0.0
 11
-192.3799999999999
 21
228.69
 31
0.0
  0
LINE
  5
288
330
2
100
AcDbEntity
  8
画層1
 62
     0
100
AcDbLine
 10
-190.38
 20
221.2899999999999
 30
0.0
 11
-188.9199999999999
 21
221.2899999999999
 31
0.0
  0
LINE
  5
289
330
2
100
AcDbEntity
  8
画層1
 62
     0
100
AcDbLine
 10
-188.9199999999999
 20
220.29
 30
0.0
 11
-190.38
 21
220.29
 31
0.0
  0
LINE
  5
28A
330
2
100
AcDbEntity
  8
画層1
 62
     0
100
AcDbLine
 10
-191.3799999999999
 20
219.2899999999999
 30
0.0
 11
-191.3799999999999
 21
218.99
 31
0.0
  0
LINE
  5
28B
330
2
100
AcDbEntity
  8
画層1
 62
     0
100
AcDbLine
 10
-191.3799999999999
 20
222.59
 30
0.0
 11
-191.3799999999999
 21
222.29
 31
0.0
  0
ARC
  5
28C
330
2
100
AcDbEntity
  8
画層1
 62
     0
100
AcDbCircle
 10
-190.38
 20
222.29
 30
0.0
 40
1.0
100
AcDbArc
 50
180.0
 51
270.0
  0
ARC
  5
28D
330
2
100
AcDbEntity
  8
画層1
 62
     0
100
AcDbCircle
 10
-190.38
 20
219.2899999999999
 30
0.0
 40
1.0
100
AcDbArc
 50
90.0
 51
180.0
  0
LINE
  5
28E
330
2
100
AcDbEntity
  8
画層1
 62
     0
100
AcDbLine
 10
-188.9199999999999
 20
229.6899999999999
 30
0.0
 11
-190.38
 21
229.6899999999999
 31
0.0
  0
LINE
  5
28F
330
2
100
AcDbEntity
  8
画層1
 62
     0
100
AcDbLine
 10
-191.3799999999999
 20
228.69
 30
0.0
 11
-191.3799999999999
 21
228.39
 31
0.0
  0
LINE
  5
290
330
2
100
AcDbEntity
  8
画層1
 62
     0
100
AcDbLine
 10
-183.9799999999999
 20
226.0899999999999
 30
0.0
 11
-185.44
 21
226.0899999999999
 31
0.0
  0
LINE
  5
291
330
2
100
AcDbEntity
  8
画層1
 62
     0
100
AcDbLine
 10
-185.44
 20
227.09
 30
0.0
 11
-183.9799999999999
 21
227.09
 31
0.0
  0
LINE
  5
292
330
2
100
AcDbEntity
  8
画層1
 62
     0
100
AcDbLine
 10
-192.3799999999999
 20
231.99
 30
0.0
 11
-191.3799999999999
 21
231.99
 31
0.0
  0
LINE
  5
293
330
2
100
AcDbEntity
  8
画層1
 62
     0
100
AcDbLine
 10
-192.3799999999999
 20
237.7899999999999
 30
0.0
 11
-191.3799999999999
 21
237.7899999999999
 31
0.0
  0
LINE
  5
294
330
2
100
AcDbEntity
  8
画層1
 62
     0
100
AcDbLine
 10
-197.28
 20
234.1899999999999
 30
0.0
 11
-187.88
 21
234.1899999999999
 31
0.0
  0
LINE
  5
295
330
2
100
AcDbEntity
  8
画層1
 62
     0
100
AcDbLine
 10
-197.28
 20
235.59
 30
0.0
 11
-187.88
 21
235.59
 31
0.0
  0
LINE
  5
296
330
2
100
AcDbEntity
  8
画層1
 62
     0
100
AcDbLine
 10
-195.38
 20
233.6899999999999
 30
0.0
 11
-188.3799999999999
 21
233.6899999999999
 31
0.0
  0
LINE
  5
297
330
2
100
AcDbEntity
  8
画層1
 62
     0
100
AcDbLine
 10
-188.3799999999999
 20
236.0899999999999
 30
0.0
 11
-195.38
 21
236.0899999999999
 31
0.0
  0
LINE
  5
298
330
2
100
AcDbEntity
  8
画層1
 62
     0
100
AcDbLine
 10
-192.3799999999999
 20
231.6899999999999
 30
0.0
 11
-192.3799999999999
 21
231.99
 31
0.0
  0
LINE
  5
299
330
2
100
AcDbEntity
  8
画層1
 62
     0
100
AcDbLine
 10
-194.84
 20
230.69
 30
0.0
 11
-193.3799999999999
 21
230.69
 31
0.0
  0
ARC
  5
29A
330
2
100
AcDbEntity
  8
画層1
 62
     0
100
AcDbCircle
 10
-193.3799999999999
 20
231.6899999999999
 30
0.0
 40
1.0
100
AcDbArc
 50
270.0
 51
0.0
  0
LINE
  5
29B
330
2
100
AcDbEntity
  8
画層1
 62
     0
100
AcDbLine
 10
-194.84
 20
240.09
 30
0.0
 11
-193.3799999999999
 21
240.09
 31
0.0
  0
LINE
  5
29C
330
2
100
AcDbEntity
  8
画層1
 62
     0
100
AcDbLine
 10
-192.3799999999999
 20
237.7899999999999
 30
0.0
 11
-192.3799999999999
 21
238.09
 31
0.0
  0
LINE
  5
29D
330
2
100
AcDbEntity
  8
画層1
 62
     0
100
AcDbLine
 10
-193.3799999999999
 20
239.09
 30
0.0
 11
-194.84
 21
239.09
 31
0.0
  0
ARC
  5
29E
330
2
100
AcDbEntity
  8
画層1
 62
     0
100
AcDbCircle
 10
-193.3799999999999
 20
238.09
 30
0.0
 40
1.0
100
AcDbArc
 50
0.0
 51
90.0
  0
ARC
  5
29F
330
2
100
AcDbEntity
  8
画層1
 62
     0
100
AcDbCircle
 10
-193.3799999999999
 20
241.09
 30
0.0
 40
1.0
100
AcDbArc
 50
270.0
 51
0.0
  0
LINE
  5
2A0
330
2
100
AcDbEntity
  8
画層1
 62
     0
100
AcDbLine
 10
-185.9799999999999
 20
232.4899999999999
 30
0.0
 11
-185.9799999999999
 21
239.49
 31
0.0
  0
LINE
  5
2A1
330
2
100
AcDbEntity
  8
画層1
 62
     0
100
AcDbLine
 10
-190.38
 20
230.69
 30
0.0
 11
-188.9199999999999
 21
230.69
 31
0.0
  0
LINE
  5
2A2
330
2
100
AcDbEntity
  8
画層1
 62
     0
100
AcDbLine
 10
-191.3799999999999
 20
231.99
 30
0.0
 11
-191.3799999999999
 21
231.6899999999999
 31
0.0
  0
ARC
  5
2A3
330
2
100
AcDbEntity
  8
画層1
 62
     0
100
AcDbCircle
 10
-190.38
 20
231.6899999999999
 30
0.0
 40
1.0
100
AcDbArc
 50
180.0
 51
270.0
  0
LINE
  5
2A4
330
2
100
AcDbEntity
  8
画層1
 62
     0
100
AcDbLine
 10
-183.9799999999999
 20
235.49
 30
0.0
 11
-185.44
 21
235.49
 31
0.0
  0
LINE
  5
2A5
330
2
100
AcDbEntity
  8
画層1
 62
     0
100
AcDbLine
 10
-190.38
 20
240.09
 30
0.0
 11
-188.9199999999999
 21
240.09
 31
0.0
  0
LINE
  5
2A6
330
2
100
AcDbEntity
  8
画層1
 62
     0
100
AcDbLine
 10
-188.9199999999999
 20
239.09
 30
0.0
 11
-190.38
 21
239.09
 31
0.0
  0
LINE
  5
2A7
330
2
100
AcDbEntity
  8
画層1
 62
     0
100
AcDbLine
 10
-191.3799999999999
 20
238.09
 30
0.0
 11
-191.3799999999999
 21
237.7899999999999
 31
0.0
  0
ARC
  5
2A8
330
2
100
AcDbEntity
  8
画層1
 62
     0
100
AcDbCircle
 10
-190.38
 20
238.09
 30
0.0
 40
1.0
100
AcDbArc
 50
90.0
 51
180.0
  0
ARC
  5
2A9
330
2
100
AcDbEntity
  8
画層1
 62
     0
100
AcDbCircle
 10
-190.38
 20
241.09
 30
0.0
 40
1.0
100
AcDbArc
 50
180.0
 51
270.0
  0
LINE
  5
2AA
330
2
100
AcDbEntity
  8
画層1
 62
     0
100
AcDbLine
 10
-185.44
 20
236.49
 30
0.0
 11
-183.9799999999999
 21
236.49
 31
0.0
  0
LINE
  5
2AB
330
2
100
AcDbEntity
  8
画層1
 62
     0
100
AcDbLine
 10
-199.4799999999999
 20
272.73
 30
0.0
 11
-199.4799999999999
 21
307.23
 31
0.0
  0
LINE
  5
2AC
330
2
100
AcDbEntity
  8
画層1
 62
     0
100
AcDbLine
 10
-185.9799999999999
 20
260.6899999999999
 30
0.0
 11
-185.9799999999999
 21
267.6899999999999
 31
0.0
  0
LINE
  5
2AD
330
2
100
AcDbEntity
  8
画層1
 62
     0
100
AcDbLine
 10
-185.9799999999999
 20
251.29
 30
0.0
 11
-185.9799999999999
 21
258.29
 31
0.0
  0
LINE
  5
2AE
330
2
100
AcDbEntity
  8
画層1
 62
     0
100
AcDbLine
 10
-192.3799999999999
 20
247.19
 30
0.0
 11
-191.3799999999999
 21
247.19
 31
0.0
  0
LINE
  5
2AF
330
2
100
AcDbEntity
  8
画層1
 62
     0
100
AcDbLine
 10
-192.3799999999999
 20
250.7899999999999
 30
0.0
 11
-191.3799999999999
 21
250.7899999999999
 31
0.0
  0
LINE
  5
2B0
330
2
100
AcDbEntity
  8
画層1
 62
     0
100
AcDbLine
 10
-192.3799999999999
 20
241.3899999999999
 30
0.0
 11
-191.3799999999999
 21
241.3899999999999
 31
0.0
  0
LINE
  5
2B1
330
2
100
AcDbEntity
  8
画層1
 62
     0
100
AcDbLine
 10
-195.38
 20
252.49
 30
0.0
 11
-188.3799999999999
 21
252.49
 31
0.0
  0
LINE
  5
2B2
330
2
100
AcDbEntity
  8
画層1
 62
     0
100
AcDbLine
 10
-197.28
 20
244.9899999999999
 30
0.0
 11
-187.88
 21
244.9899999999999
 31
0.0
  0
LINE
  5
2B3
330
2
100
AcDbEntity
  8
画層1
 62
     0
100
AcDbLine
 10
-197.28
 20
243.59
 30
0.0
 11
-187.88
 21
243.59
 31
0.0
  0
LINE
  5
2B4
330
2
100
AcDbEntity
  8
画層1
 62
     0
100
AcDbLine
 10
-188.3799999999999
 20
245.49
 30
0.0
 11
-195.38
 21
245.49
 31
0.0
  0
LINE
  5
2B5
330
2
100
AcDbEntity
  8
画層1
 62
     0
100
AcDbLine
 10
-195.38
 20
243.09
 30
0.0
 11
-188.3799999999999
 21
243.09
 31
0.0
  0
CIRCLE
  5
2B6
330
2
100
AcDbEntity
  8
画層1
 62
     0
100
AcDbCircle
 10
-191.88
 20
248.99
 30
0.0
 40
3.0
  0
LINE
  5
2B7
330
2
100
AcDbEntity
  8
画層1
 62
     0
100
AcDbLine
 10
-195.38
 20
245.49
 30
0.0
 11
-195.38
 21
252.49
 31
0.0
  0
LINE
  5
2B8
330
2
100
AcDbEntity
  8
画層1
 62
     0
100
AcDbLine
 10
-192.3799999999999
 20
247.19
 30
0.0
 11
-192.3799999999999
 21
247.49
 31
0.0
  0
LINE
  5
2B9
330
2
100
AcDbEntity
  8
画層1
 62
     0
100
AcDbLine
 10
-192.3799999999999
 20
250.49
 30
0.0
 11
-192.3799999999999
 21
250.7899999999999
 31
0.0
  0
LINE
  5
2BA
330
2
100
AcDbEntity
  8
画層1
 62
     0
100
AcDbLine
 10
-193.3799999999999
 20
248.49
 30
0.0
 11
-194.84
 21
248.49
 31
0.0
  0
LINE
  5
2BB
330
2
100
AcDbEntity
  8
画層1
 62
     0
100
AcDbLine
 10
-194.84
 20
249.49
 30
0.0
 11
-193.3799999999999
 21
249.49
 31
0.0
  0
ARC
  5
2BC
330
2
100
AcDbEntity
  8
画層1
 62
     0
100
AcDbCircle
 10
-193.3799999999999
 20
247.49
 30
0.0
 40
1.0
100
AcDbArc
 50
0.0
 51
90.0
  0
ARC
  5
2BD
330
2
100
AcDbEntity
  8
画層1
 62
     0
100
AcDbCircle
 10
-193.3799999999999
 20
250.49
 30
0.0
 40
1.0
100
AcDbArc
 50
270.0
 51
0.0
  0
LINE
  5
2BE
330
2
100
AcDbEntity
  8
画層1
 62
     0
100
AcDbLine
 10
-185.9799999999999
 20
241.8899999999999
 30
0.0
 11
-185.9799999999999
 21
248.89
 31
0.0
  0
LINE
  5
2BF
330
2
100
AcDbEntity
  8
画層1
 62
     0
100
AcDbLine
 10
-188.3799999999999
 20
252.49
 30
0.0
 11
-188.3799999999999
 21
245.49
 31
0.0
  0
LINE
  5
2C0
330
2
100
AcDbEntity
  8
画層1
 62
     0
100
AcDbLine
 10
-183.9799999999999
 20
244.89
 30
0.0
 11
-185.44
 21
244.89
 31
0.0
  0
LINE
  5
2C1
330
2
100
AcDbEntity
  8
画層1
 62
     0
100
AcDbLine
 10
-185.44
 20
245.8899999999999
 30
0.0
 11
-183.9799999999999
 21
245.8899999999999
 31
0.0
  0
LINE
  5
2C2
330
2
100
AcDbEntity
  8
画層1
 62
     0
100
AcDbLine
 10
-188.9199999999999
 20
248.49
 30
0.0
 11
-190.38
 21
248.49
 31
0.0
  0
LINE
  5
2C3
330
2
100
AcDbEntity
  8
画層1
 62
     0
100
AcDbLine
 10
-190.38
 20
249.49
 30
0.0
 11
-188.9199999999999
 21
249.49
 31
0.0
  0
LINE
  5
2C4
330
2
100
AcDbEntity
  8
画層1
 62
     0
100
AcDbLine
 10
-191.3799999999999
 20
247.49
 30
0.0
 11
-191.3799999999999
 21
247.19
 31
0.0
  0
LINE
  5
2C5
330
2
100
AcDbEntity
  8
画層1
 62
     0
100
AcDbLine
 10
-191.3799999999999
 20
250.7899999999999
 30
0.0
 11
-191.3799999999999
 21
250.49
 31
0.0
  0
ARC
  5
2C6
330
2
100
AcDbEntity
  8
画層1
 62
     0
100
AcDbCircle
 10
-190.38
 20
247.49
 30
0.0
 40
1.0
100
AcDbArc
 50
90.0
 51
180.0
  0
ARC
  5
2C7
330
2
100
AcDbEntity
  8
画層1
 62
     0
100
AcDbCircle
 10
-190.38
 20
250.49
 30
0.0
 40
1.0
100
AcDbArc
 50
180.0
 51
270.0
  0
LINE
  5
2C8
330
2
100
AcDbEntity
  8
画層1
 62
     0
100
AcDbLine
 10
-192.3799999999999
 20
260.19
 30
0.0
 11
-191.3799999999999
 21
260.19
 31
0.0
  0
LINE
  5
2C9
330
2
100
AcDbEntity
  8
画層1
 62
     0
100
AcDbLine
 10
-192.3799999999999
 20
256.5899999999999
 30
0.0
 11
-191.3799999999999
 21
256.5899999999999
 31
0.0
  0
LINE
  5
2CA
330
2
100
AcDbEntity
  8
画層1
 62
     0
100
AcDbLine
 10
-197.28
 20
252.99
 30
0.0
 11
-187.88
 21
252.99
 31
0.0
  0
LINE
  5
2CB
330
2
100
AcDbEntity
  8
画層1
 62
     0
100
AcDbLine
 10
-197.28
 20
262.3899999999999
 30
0.0
 11
-187.88
 21
262.3899999999999
 31
0.0
  0
LINE
  5
2CC
330
2
100
AcDbEntity
  8
画層1
 62
     0
100
AcDbLine
 10
-197.28
 20
254.3899999999999
 30
0.0
 11
-187.88
 21
254.3899999999999
 31
0.0
  0
LINE
  5
2CD
330
2
100
AcDbEntity
  8
画層1
 62
     0
100
AcDbLine
 10
-195.38
 20
261.89
 30
0.0
 11
-188.3799999999999
 21
261.89
 31
0.0
  0
LINE
  5
2CE
330
2
100
AcDbEntity
  8
画層1
 62
     0
100
AcDbLine
 10
-188.3799999999999
 20
254.8899999999999
 30
0.0
 11
-195.38
 21
254.8899999999999
 31
0.0
  0
CIRCLE
  5
2CF
330
2
100
AcDbEntity
  8
画層1
 62
     0
100
AcDbCircle
 10
-191.88
 20
258.3899999999999
 30
0.0
 40
3.0
  0
ARC
  5
2D0
330
2
100
AcDbEntity
  8
画層1
 62
     0
100
AcDbCircle
 10
-193.3799999999999
 20
259.8899999999999
 30
0.0
 40
1.0
100
AcDbArc
 50
270.0
 51
0.0
  0
LINE
  5
2D1
330
2
100
AcDbEntity
  8
画層1
 62
     0
100
AcDbLine
 10
-195.38
 20
254.8899999999999
 30
0.0
 11
-195.38
 21
261.89
 31
0.0
  0
ARC
  5
2D2
330
2
100
AcDbEntity
  8
画層1
 62
     0
100
AcDbCircle
 10
-193.3799999999999
 20
256.8899999999999
 30
0.0
 40
1.0
100
AcDbArc
 50
0.0
 51
90.0
  0
LINE
  5
2D3
330
2
100
AcDbEntity
  8
画層1
 62
     0
100
AcDbLine
 10
-193.3799999999999
 20
257.8899999999999
 30
0.0
 11
-194.84
 21
257.8899999999999
 31
0.0
  0
LINE
  5
2D4
330
2
100
AcDbEntity
  8
画層1
 62
     0
100
AcDbLine
 10
-192.3799999999999
 20
256.5899999999999
 30
0.0
 11
-192.3799999999999
 21
256.8899999999999
 31
0.0
  0
LINE
  5
2D5
330
2
100
AcDbEntity
  8
画層1
 62
     0
100
AcDbLine
 10
-194.84
 20
258.8899999999999
 30
0.0
 11
-193.3799999999999
 21
258.8899999999999
 31
0.0
  0
LINE
  5
2D6
330
2
100
AcDbEntity
  8
画層1
 62
     0
100
AcDbLine
 10
-192.3799999999999
 20
259.8899999999999
 30
0.0
 11
-192.3799999999999
 21
260.19
 31
0.0
  0
LINE
  5
2D7
330
2
100
AcDbEntity
  8
画層1
 62
     0
100
AcDbLine
 10
-188.3799999999999
 20
261.89
 30
0.0
 11
-188.3799999999999
 21
254.8899999999999
 31
0.0
  0
ARC
  5
2D8
330
2
100
AcDbEntity
  8
画層1
 62
     0
100
AcDbCircle
 10
-190.38
 20
259.8899999999999
 30
0.0
 40
1.0
100
AcDbArc
 50
180.0
 51
270.0
  0
LINE
  5
2D9
330
2
100
AcDbEntity
  8
画層1
 62
     0
100
AcDbLine
 10
-188.9199999999999
 20
257.8899999999999
 30
0.0
 11
-190.38
 21
257.8899999999999
 31
0.0
  0
LINE
  5
2DA
330
2
100
AcDbEntity
  8
画層1
 62
     0
100
AcDbLine
 10
-191.3799999999999
 20
256.8899999999999
 30
0.0
 11
-191.3799999999999
 21
256.5899999999999
 31
0.0
  0
ARC
  5
2DB
330
2
100
AcDbEntity
  8
画層1
 62
     0
100
AcDbCircle
 10
-190.38
 20
256.8899999999999
 30
0.0
 40
1.0
100
AcDbArc
 50
90.0
 51
180.0
  0
LINE
  5
2DC
330
2
100
AcDbEntity
  8
画層1
 62
     0
100
AcDbLine
 10
-185.44
 20
255.29
 30
0.0
 11
-183.9799999999999
 21
255.29
 31
0.0
  0
LINE
  5
2DD
330
2
100
AcDbEntity
  8
画層1
 62
     0
100
AcDbLine
 10
-183.9799999999999
 20
254.2899999999999
 30
0.0
 11
-185.44
 21
254.2899999999999
 31
0.0
  0
LINE
  5
2DE
330
2
100
AcDbEntity
  8
画層1
 62
     0
100
AcDbLine
 10
-190.38
 20
258.8899999999999
 30
0.0
 11
-188.9199999999999
 21
258.8899999999999
 31
0.0
  0
LINE
  5
2DF
330
2
100
AcDbEntity
  8
画層1
 62
     0
100
AcDbLine
 10
-191.3799999999999
 20
260.19
 30
0.0
 11
-191.3799999999999
 21
259.8899999999999
 31
0.0
  0
LINE
  5
2E0
330
2
100
AcDbEntity
  8
画層1
 62
     0
100
AcDbLine
 10
-183.9799999999999
 20
263.69
 30
0.0
 11
-185.44
 21
263.69
 31
0.0
  0
ARC
  5
2E1
330
2
100
AcDbEntity
  8
画層1
 62
     0
100
AcDbCircle
 10
-212.48
 20
273.73
 30
0.0
 40
2.0
100
AcDbArc
 50
180.0
 51
270.0
  0
LINE
  5
2E2
330
2
100
AcDbEntity
  8
画層1
 62
     0
100
AcDbLine
 10
-185.44
 20
264.69
 30
0.0
 11
-183.9799999999999
 21
264.69
 31
0.0
  0
ARC
  5
2E3
330
2
100
AcDbEntity
  8
画層1
 62
     0
100
AcDbCircle
 10
-195.9799999999999
 20
307.23
 30
0.0
 40
3.5
100
AcDbArc
 50
90.0
 51
180.0
  0
CIRCLE
  5
2E4
330
2
100
AcDbEntity
  8
画層1
 62
     0
100
AcDbCircle
 10
-158.4799999999999
 20
240.7299999999999
 30
0.0
 40
1.75
  0
LINE
  5
2E5
330
2
100
AcDbEntity
  8
画層1
 62
     0
100
AcDbLine
 10
-177.4799999999999
 20
165.73
 30
0.0
 11
-177.4799999999999
 21
272.73
 31
0.0
  0
LINE
  5
2E6
330
2
100
AcDbEntity
  8
画層1
 62
     0
100
AcDbLine
 10
-178.4799999999999
 20
166.73
 30
0.0
 11
-178.4799999999999
 21
271.73
 31
0.0
  0
LINE
  5
2E7
330
2
100
AcDbEntity
  8
画層1
 62
     0
100
AcDbLine
 10
-178.9799999999999
 20
201.8899999999999
 30
0.0
 11
-178.9799999999999
 21
194.8899999999999
 31
0.0
  0
LINE
  5
2E8
330
2
100
AcDbEntity
  8
画層1
 62
     0
100
AcDbLine
 10
-178.9799999999999
 20
183.0899999999999
 30
0.0
 11
-178.9799999999999
 21
176.09
 31
0.0
  0
LINE
  5
2E9
330
2
100
AcDbEntity
  8
画層1
 62
     0
100
AcDbLine
 10
-179.52
 20
179.09
 30
0.0
 11
-180.9799999999999
 21
179.09
 31
0.0
  0
LINE
  5
2EA
330
2
100
AcDbEntity
  8
画層1
 62
     0
100
AcDbLine
 10
-180.9799999999999
 20
180.09
 30
0.0
 11
-179.52
 21
180.09
 31
0.0
  0
LINE
  5
2EB
330
2
100
AcDbEntity
  8
画層1
 62
     0
100
AcDbLine
 10
-181.9799999999999
 20
178.09
 30
0.0
 11
-181.9799999999999
 21
177.7899999999999
 31
0.0
  0
ARC
  5
2EC
330
2
100
AcDbEntity
  8
画層1
 62
     0
100
AcDbCircle
 10
-180.9799999999999
 20
178.09
 30
0.0
 40
1.0
100
AcDbArc
 50
90.0
 51
180.0
  0
LINE
  5
2ED
330
2
100
AcDbEntity
  8
画層1
 62
     0
100
AcDbLine
 10
-181.9799999999999
 20
181.3899999999999
 30
0.0
 11
-181.9799999999999
 21
181.09
 31
0.0
  0
ARC
  5
2EE
330
2
100
AcDbEntity
  8
画層1
 62
     0
100
AcDbCircle
 10
-180.9799999999999
 20
181.09
 30
0.0
 40
1.0
100
AcDbArc
 50
180.0
 51
270.0
  0
LINE
  5
2EF
330
2
100
AcDbEntity
  8
画層1
 62
     0
100
AcDbLine
 10
-182.9799999999999
 20
177.7899999999999
 30
0.0
 11
-182.9799999999999
 21
178.09
 31
0.0
  0
LINE
  5
2F0
330
2
100
AcDbEntity
  8
画層1
 62
     0
100
AcDbLine
 10
-182.9799999999999
 20
181.09
 30
0.0
 11
-182.9799999999999
 21
181.3899999999999
 31
0.0
  0
LINE
  5
2F1
330
2
100
AcDbEntity
  8
画層1
 62
     0
100
AcDbLine
 10
-182.9799999999999
 20
177.7899999999999
 30
0.0
 11
-181.9799999999999
 21
177.7899999999999
 31
0.0
  0
LINE
  5
2F2
330
2
100
AcDbEntity
  8
画層1
 62
     0
100
AcDbLine
 10
-182.9799999999999
 20
181.3899999999999
 30
0.0
 11
-181.9799999999999
 21
181.3899999999999
 31
0.0
  0
LINE
  5
2F3
330
2
100
AcDbEntity
  8
画層1
 62
     0
100
AcDbLine
 10
-178.9799999999999
 20
192.49
 30
0.0
 11
-178.9799999999999
 21
185.49
 31
0.0
  0
LINE
  5
2F4
330
2
100
AcDbEntity
  8
画層1
 62
     0
100
AcDbLine
 10
-179.52
 20
188.49
 30
0.0
 11
-180.9799999999999
 21
188.49
 31
0.0
  0
LINE
  5
2F5
330
2
100
AcDbEntity
  8
画層1
 62
     0
100
AcDbLine
 10
-181.9799999999999
 20
187.49
 30
0.0
 11
-181.9799999999999
 21
187.19
 31
0.0
  0
ARC
  5
2F6
330
2
100
AcDbEntity
  8
画層1
 62
     0
100
AcDbCircle
 10
-180.9799999999999
 20
187.49
 30
0.0
 40
1.0
100
AcDbArc
 50
90.0
 51
180.0
  0
LINE
  5
2F7
330
2
100
AcDbEntity
  8
画層1
 62
     0
100
AcDbLine
 10
-182.9799999999999
 20
187.19
 30
0.0
 11
-182.9799999999999
 21
187.49
 31
0.0
  0
LINE
  5
2F8
330
2
100
AcDbEntity
  8
画層1
 62
     0
100
AcDbLine
 10
-182.9799999999999
 20
187.19
 30
0.0
 11
-181.9799999999999
 21
187.19
 31
0.0
  0
LINE
  5
2F9
330
2
100
AcDbEntity
  8
画層1
 62
     0
100
AcDbLine
 10
-180.9799999999999
 20
189.4899999999999
 30
0.0
 11
-179.52
 21
189.4899999999999
 31
0.0
  0
LINE
  5
2FA
330
2
100
AcDbEntity
  8
画層1
 62
     0
100
AcDbLine
 10
-181.9799999999999
 20
190.7899999999999
 30
0.0
 11
-181.9799999999999
 21
190.4899999999999
 31
0.0
  0
ARC
  5
2FB
330
2
100
AcDbEntity
  8
画層1
 62
     0
100
AcDbCircle
 10
-180.9799999999999
 20
190.4899999999999
 30
0.0
 40
1.0
100
AcDbArc
 50
180.0
 51
270.0
  0
LINE
  5
2FC
330
2
100
AcDbEntity
  8
画層1
 62
     0
100
AcDbLine
 10
-182.9799999999999
 20
190.4899999999999
 30
0.0
 11
-182.9799999999999
 21
190.7899999999999
 31
0.0
  0
LINE
  5
2FD
330
2
100
AcDbEntity
  8
画層1
 62
     0
100
AcDbLine
 10
-182.9799999999999
 20
190.7899999999999
 30
0.0
 11
-181.9799999999999
 21
190.7899999999999
 31
0.0
  0
ARC
  5
2FE
330
2
100
AcDbEntity
  8
画層1
 62
     0
100
AcDbCircle
 10
-180.9799999999999
 20
218.69
 30
0.0
 40
1.0
100
AcDbArc
 50
180.0
 51
270.0
  0
LINE
  5
2FF
330
2
100
AcDbEntity
  8
画層1
 62
     0
100
AcDbLine
 10
-178.9799999999999
 20
220.69
 30
0.0
 11
-178.9799999999999
 21
213.69
 31
0.0
  0
ARC
  5
300
330
2
100
AcDbEntity
  8
画層1
 62
     0
100
AcDbCircle
 10
-180.9799999999999
 20
206.2899999999999
 30
0.0
 40
1.0
100
AcDbArc
 50
90.0
 51
180.0
  0
LINE
  5
301
330
2
100
AcDbEntity
  8
画層1
 62
     0
100
AcDbLine
 10
-178.9799999999999
 20
211.2899999999999
 30
0.0
 11
-178.9799999999999
 21
204.2899999999999
 31
0.0
  0
LINE
  5
302
330
2
100
AcDbEntity
  8
画層1
 62
     0
100
AcDbLine
 10
-179.52
 20
197.8899999999999
 30
0.0
 11
-180.9799999999999
 21
197.8899999999999
 31
0.0
  0
LINE
  5
303
330
2
100
AcDbEntity
  8
画層1
 62
     0
100
AcDbLine
 10
-180.9799999999999
 20
198.8899999999999
 30
0.0
 11
-179.52
 21
198.8899999999999
 31
0.0
  0
LINE
  5
304
330
2
100
AcDbEntity
  8
画層1
 62
     0
100
AcDbLine
 10
-181.9799999999999
 20
196.8899999999999
 30
0.0
 11
-181.9799999999999
 21
196.5899999999999
 31
0.0
  0
ARC
  5
305
330
2
100
AcDbEntity
  8
画層1
 62
     0
100
AcDbCircle
 10
-180.9799999999999
 20
196.8899999999999
 30
0.0
 40
1.0
100
AcDbArc
 50
90.0
 51
180.0
  0
LINE
  5
306
330
2
100
AcDbEntity
  8
画層1
 62
     0
100
AcDbLine
 10
-181.9799999999999
 20
200.19
 30
0.0
 11
-181.9799999999999
 21
199.8899999999999
 31
0.0
  0
ARC
  5
307
330
2
100
AcDbEntity
  8
画層1
 62
     0
100
AcDbCircle
 10
-180.9799999999999
 20
199.8899999999999
 30
0.0
 40
1.0
100
AcDbArc
 50
180.0
 51
270.0
  0
LINE
  5
308
330
2
100
AcDbEntity
  8
画層1
 62
     0
100
AcDbLine
 10
-182.9799999999999
 20
196.5899999999999
 30
0.0
 11
-182.9799999999999
 21
196.8899999999999
 31
0.0
  0
LINE
  5
309
330
2
100
AcDbEntity
  8
画層1
 62
     0
100
AcDbLine
 10
-182.9799999999999
 20
199.8899999999999
 30
0.0
 11
-182.9799999999999
 21
200.19
 31
0.0
  0
LINE
  5
30A
330
2
100
AcDbEntity
  8
画層1
 62
     0
100
AcDbLine
 10
-182.9799999999999
 20
196.5899999999999
 30
0.0
 11
-181.9799999999999
 21
196.5899999999999
 31
0.0
  0
LINE
  5
30B
330
2
100
AcDbEntity
  8
画層1
 62
     0
100
AcDbLine
 10
-182.9799999999999
 20
200.19
 30
0.0
 11
-181.9799999999999
 21
200.19
 31
0.0
  0
LINE
  5
30C
330
2
100
AcDbEntity
  8
画層1
 62
     0
100
AcDbLine
 10
-181.9799999999999
 20
206.2899999999999
 30
0.0
 11
-181.9799999999999
 21
205.99
 31
0.0
  0
LINE
  5
30D
330
2
100
AcDbEntity
  8
画層1
 62
     0
100
AcDbLine
 10
-182.9799999999999
 20
205.99
 30
0.0
 11
-182.9799999999999
 21
206.2899999999999
 31
0.0
  0
LINE
  5
30E
330
2
100
AcDbEntity
  8
画層1
 62
     0
100
AcDbLine
 10
-182.9799999999999
 20
205.99
 30
0.0
 11
-181.9799999999999
 21
205.99
 31
0.0
  0
LINE
  5
30F
330
2
100
AcDbEntity
  8
画層1
 62
     0
100
AcDbLine
 10
-179.52
 20
207.2899999999999
 30
0.0
 11
-180.9799999999999
 21
207.2899999999999
 31
0.0
  0
LINE
  5
310
330
2
100
AcDbEntity
  8
画層1
 62
     0
100
AcDbLine
 10
-180.9799999999999
 20
208.2899999999999
 30
0.0
 11
-179.52
 21
208.2899999999999
 31
0.0
  0
LINE
  5
311
330
2
100
AcDbEntity
  8
画層1
 62
     0
100
AcDbLine
 10
-181.9799999999999
 20
209.5899999999999
 30
0.0
 11
-181.9799999999999
 21
209.2899999999999
 31
0.0
  0
ARC
  5
312
330
2
100
AcDbEntity
  8
画層1
 62
     0
100
AcDbCircle
 10
-180.9799999999999
 20
209.2899999999999
 30
0.0
 40
1.0
100
AcDbArc
 50
180.0
 51
270.0
  0
LINE
  5
313
330
2
100
AcDbEntity
  8
画層1
 62
     0
100
AcDbLine
 10
-182.9799999999999
 20
209.2899999999999
 30
0.0
 11
-182.9799999999999
 21
209.5899999999999
 31
0.0
  0
LINE
  5
314
330
2
100
AcDbEntity
  8
画層1
 62
     0
100
AcDbLine
 10
-182.9799999999999
 20
209.5899999999999
 30
0.0
 11
-181.9799999999999
 21
209.5899999999999
 31
0.0
  0
LINE
  5
315
330
2
100
AcDbEntity
  8
画層1
 62
     0
100
AcDbLine
 10
-180.9799999999999
 20
217.6899999999999
 30
0.0
 11
-179.52
 21
217.6899999999999
 31
0.0
  0
LINE
  5
316
330
2
100
AcDbEntity
  8
画層1
 62
     0
100
AcDbLine
 10
-179.52
 20
216.69
 30
0.0
 11
-180.9799999999999
 21
216.69
 31
0.0
  0
LINE
  5
317
330
2
100
AcDbEntity
  8
画層1
 62
     0
100
AcDbLine
 10
-181.9799999999999
 20
215.6899999999999
 30
0.0
 11
-181.9799999999999
 21
215.3899999999999
 31
0.0
  0
ARC
  5
318
330
2
100
AcDbEntity
  8
画層1
 62
     0
100
AcDbCircle
 10
-180.9799999999999
 20
215.6899999999999
 30
0.0
 40
1.0
100
AcDbArc
 50
90.0
 51
180.0
  0
LINE
  5
319
330
2
100
AcDbEntity
  8
画層1
 62
     0
100
AcDbLine
 10
-182.9799999999999
 20
215.3899999999999
 30
0.0
 11
-182.9799999999999
 21
215.6899999999999
 31
0.0
  0
LINE
  5
31A
330
2
100
AcDbEntity
  8
画層1
 62
     0
100
AcDbLine
 10
-182.9799999999999
 20
215.3899999999999
 30
0.0
 11
-181.9799999999999
 21
215.3899999999999
 31
0.0
  0
LINE
  5
31B
330
2
100
AcDbEntity
  8
画層1
 62
     0
100
AcDbLine
 10
-178.9799999999999
 20
230.0899999999999
 30
0.0
 11
-178.9799999999999
 21
223.09
 31
0.0
  0
LINE
  5
31C
330
2
100
AcDbEntity
  8
画層1
 62
     0
100
AcDbLine
 10
-181.9799999999999
 20
218.99
 30
0.0
 11
-181.9799999999999
 21
218.69
 31
0.0
  0
LINE
  5
31D
330
2
100
AcDbEntity
  8
画層1
 62
     0
100
AcDbLine
 10
-182.9799999999999
 20
218.69
 30
0.0
 11
-182.9799999999999
 21
218.99
 31
0.0
  0
LINE
  5
31E
330
2
100
AcDbEntity
  8
画層1
 62
     0
100
AcDbLine
 10
-182.9799999999999
 20
218.99
 30
0.0
 11
-181.9799999999999
 21
218.99
 31
0.0
  0
LINE
  5
31F
330
2
100
AcDbEntity
  8
画層1
 62
     0
100
AcDbLine
 10
-179.52
 20
226.0899999999999
 30
0.0
 11
-180.9799999999999
 21
226.0899999999999
 31
0.0
  0
LINE
  5
320
330
2
100
AcDbEntity
  8
画層1
 62
     0
100
AcDbLine
 10
-180.9799999999999
 20
227.09
 30
0.0
 11
-179.52
 21
227.09
 31
0.0
  0
LINE
  5
321
330
2
100
AcDbEntity
  8
画層1
 62
     0
100
AcDbLine
 10
-181.9799999999999
 20
225.09
 30
0.0
 11
-181.9799999999999
 21
224.79
 31
0.0
  0
ARC
  5
322
330
2
100
AcDbEntity
  8
画層1
 62
     0
100
AcDbCircle
 10
-180.9799999999999
 20
225.09
 30
0.0
 40
1.0
100
AcDbArc
 50
90.0
 51
180.0
  0
ARC
  5
323
330
2
100
AcDbEntity
  8
画層1
 62
     0
100
AcDbCircle
 10
-180.9799999999999
 20
228.0899999999999
 30
0.0
 40
1.0
100
AcDbArc
 50
180.0
 51
270.0
  0
LINE
  5
324
330
2
100
AcDbEntity
  8
画層1
 62
     0
100
AcDbLine
 10
-181.9799999999999
 20
228.39
 30
0.0
 11
-181.9799999999999
 21
228.0899999999999
 31
0.0
  0
LINE
  5
325
330
2
100
AcDbEntity
  8
画層1
 62
     0
100
AcDbLine
 10
-182.9799999999999
 20
224.79
 30
0.0
 11
-182.9799999999999
 21
225.09
 31
0.0
  0
LINE
  5
326
330
2
100
AcDbEntity
  8
画層1
 62
     0
100
AcDbLine
 10
-182.9799999999999
 20
228.0899999999999
 30
0.0
 11
-182.9799999999999
 21
228.39
 31
0.0
  0
LINE
  5
327
330
2
100
AcDbEntity
  8
画層1
 62
     0
100
AcDbLine
 10
-182.9799999999999
 20
228.39
 30
0.0
 11
-181.9799999999999
 21
228.39
 31
0.0
  0
LINE
  5
328
330
2
100
AcDbEntity
  8
画層1
 62
     0
100
AcDbLine
 10
-182.9799999999999
 20
224.79
 30
0.0
 11
-181.9799999999999
 21
224.79
 31
0.0
  0
ARC
  5
329
330
2
100
AcDbEntity
  8
画層1
 62
     0
100
AcDbCircle
 10
-180.9799999999999
 20
234.4899999999999
 30
0.0
 40
1.0
100
AcDbArc
 50
90.0
 51
180.0
  0
LINE
  5
32A
330
2
100
AcDbEntity
  8
画層1
 62
     0
100
AcDbLine
 10
-178.9799999999999
 20
239.49
 30
0.0
 11
-178.9799999999999
 21
232.4899999999999
 31
0.0
  0
LINE
  5
32B
330
2
100
AcDbEntity
  8
画層1
 62
     0
100
AcDbLine
 10
-179.52
 20
235.49
 30
0.0
 11
-180.9799999999999
 21
235.49
 31
0.0
  0
LINE
  5
32C
330
2
100
AcDbEntity
  8
画層1
 62
     0
100
AcDbLine
 10
-181.9799999999999
 20
234.4899999999999
 30
0.0
 11
-181.9799999999999
 21
234.1899999999999
 31
0.0
  0
LINE
  5
32D
330
2
100
AcDbEntity
  8
画層1
 62
     0
100
AcDbLine
 10
-182.9799999999999
 20
234.1899999999999
 30
0.0
 11
-182.9799999999999
 21
234.4899999999999
 31
0.0
  0
LINE
  5
32E
330
2
100
AcDbEntity
  8
画層1
 62
     0
100
AcDbLine
 10
-182.9799999999999
 20
234.1899999999999
 30
0.0
 11
-181.9799999999999
 21
234.1899999999999
 31
0.0
  0
LINE
  5
32F
330
2
100
AcDbEntity
  8
画層1
 62
     0
100
AcDbLine
 10
-180.9799999999999
 20
236.49
 30
0.0
 11
-179.52
 21
236.49
 31
0.0
  0
LINE
  5
330
330
2
100
AcDbEntity
  8
画層1
 62
     0
100
AcDbLine
 10
-181.9799999999999
 20
237.7899999999999
 30
0.0
 11
-181.9799999999999
 21
237.49
 31
0.0
  0
ARC
  5
331
330
2
100
AcDbEntity
  8
画層1
 62
     0
100
AcDbCircle
 10
-180.9799999999999
 20
237.49
 30
0.0
 40
1.0
100
AcDbArc
 50
180.0
 51
270.0
  0
LINE
  5
332
330
2
100
AcDbEntity
  8
画層1
 62
     0
100
AcDbLine
 10
-182.9799999999999
 20
237.49
 30
0.0
 11
-182.9799999999999
 21
237.7899999999999
 31
0.0
  0
LINE
  5
333
330
2
100
AcDbEntity
  8
画層1
 62
     0
100
AcDbLine
 10
-182.9799999999999
 20
237.7899999999999
 30
0.0
 11
-181.9799999999999
 21
237.7899999999999
 31
0.0
  0
CIRCLE
  5
334
330
2
100
AcDbEntity
  8
画層1
 62
     0
100
AcDbCircle
 10
-158.4799999999999
 20
230.73
 30
0.0
 40
1.75
  0
CIRCLE
  5
335
330
2
100
AcDbEntity
  8
画層1
 62
     0
100
AcDbCircle
 10
-158.4799999999999
 20
220.73
 30
0.0
 40
1.75
  0
CIRCLE
  5
336
330
2
100
AcDbEntity
  8
画層1
 62
     0
100
AcDbCircle
 10
-138.48
 20
215.7299999999999
 30
0.0
 40
2.5
  0
CIRCLE
  5
337
330
2
100
AcDbEntity
  8
画層1
 62
     0
100
AcDbCircle
 10
-138.48
 20
230.73
 30
0.0
 40
2.5
  0
LINE
  5
338
330
2
100
AcDbEntity
  8
画層1
 62
     0
100
AcDbLine
 10
-161.4799999999999
 20
294.73
 30
0.0
 11
-102.48
 21
294.73
 31
0.0
  0
ARC
  5
339
330
2
100
AcDbEntity
  8
画層1
 62
     0
100
AcDbCircle
 10
-180.9799999999999
 20
265.6899999999999
 30
0.0
 40
1.0
100
AcDbArc
 50
180.0
 51
270.0
  0
LINE
  5
33A
330
2
100
AcDbEntity
  8
画層1
 62
     0
100
AcDbLine
 10
-178.9799999999999
 20
267.6899999999999
 30
0.0
 11
-178.9799999999999
 21
260.6899999999999
 31
0.0
  0
LINE
  5
33B
330
2
100
AcDbEntity
  8
画層1
 62
     0
100
AcDbLine
 10
-178.9799999999999
 20
258.29
 30
0.0
 11
-178.9799999999999
 21
251.29
 31
0.0
  0
LINE
  5
33C
330
2
100
AcDbEntity
  8
画層1
 62
     0
100
AcDbLine
 10
-181.9799999999999
 20
247.19
 30
0.0
 11
-181.9799999999999
 21
246.89
 31
0.0
  0
LINE
  5
33D
330
2
100
AcDbEntity
  8
画層1
 62
     0
100
AcDbLine
 10
-178.9799999999999
 20
248.89
 30
0.0
 11
-178.9799999999999
 21
241.8899999999999
 31
0.0
  0
LINE
  5
33E
330
2
100
AcDbEntity
  8
画層1
 62
     0
100
AcDbLine
 10
-182.9799999999999
 20
246.89
 30
0.0
 11
-182.9799999999999
 21
247.19
 31
0.0
  0
LINE
  5
33F
330
2
100
AcDbEntity
  8
画層1
 62
     0
100
AcDbLine
 10
-179.52
 20
244.89
 30
0.0
 11
-180.9799999999999
 21
244.89
 31
0.0
  0
LINE
  5
340
330
2
100
AcDbEntity
  8
画層1
 62
     0
100
AcDbLine
 10
-180.9799999999999
 20
245.8899999999999
 30
0.0
 11
-179.52
 21
245.8899999999999
 31
0.0
  0
LINE
  5
341
330
2
100
AcDbEntity
  8
画層1
 62
     0
100
AcDbLine
 10
-181.9799999999999
 20
243.8899999999999
 30
0.0
 11
-181.9799999999999
 21
243.59
 31
0.0
  0
ARC
  5
342
330
2
100
AcDbEntity
  8
画層1
 62
     0
100
AcDbCircle
 10
-180.9799999999999
 20
243.8899999999999
 30
0.0
 40
1.0
100
AcDbArc
 50
90.0
 51
180.0
  0
ARC
  5
343
330
2
100
AcDbEntity
  8
画層1
 62
     0
100
AcDbCircle
 10
-180.9799999999999
 20
246.89
 30
0.0
 40
1.0
100
AcDbArc
 50
180.0
 51
270.0
  0
LINE
  5
344
330
2
100
AcDbEntity
  8
画層1
 62
     0
100
AcDbLine
 10
-182.9799999999999
 20
243.59
 30
0.0
 11
-182.9799999999999
 21
243.8899999999999
 31
0.0
  0
LINE
  5
345
330
2
100
AcDbEntity
  8
画層1
 62
     0
100
AcDbLine
 10
-182.9799999999999
 20
243.59
 30
0.0
 11
-181.9799999999999
 21
243.59
 31
0.0
  0
LINE
  5
346
330
2
100
AcDbEntity
  8
画層1
 62
     0
100
AcDbLine
 10
-182.9799999999999
 20
247.19
 30
0.0
 11
-181.9799999999999
 21
247.19
 31
0.0
  0
LINE
  5
347
330
2
100
AcDbEntity
  8
画層1
 62
     0
100
AcDbLine
 10
-180.9799999999999
 20
255.29
 30
0.0
 11
-179.52
 21
255.29
 31
0.0
  0
LINE
  5
348
330
2
100
AcDbEntity
  8
画層1
 62
     0
100
AcDbLine
 10
-179.52
 20
254.2899999999999
 30
0.0
 11
-180.9799999999999
 21
254.2899999999999
 31
0.0
  0
LINE
  5
349
330
2
100
AcDbEntity
  8
画層1
 62
     0
100
AcDbLine
 10
-181.9799999999999
 20
256.5899999999999
 30
0.0
 11
-181.9799999999999
 21
256.29
 31
0.0
  0
ARC
  5
34A
330
2
100
AcDbEntity
  8
画層1
 62
     0
100
AcDbCircle
 10
-180.9799999999999
 20
256.29
 30
0.0
 40
1.0
100
AcDbArc
 50
180.0
 51
270.0
  0
ARC
  5
34B
330
2
100
AcDbEntity
  8
画層1
 62
     0
100
AcDbCircle
 10
-180.9799999999999
 20
253.29
 30
0.0
 40
1.0
100
AcDbArc
 50
90.0
 51
180.0
  0
LINE
  5
34C
330
2
100
AcDbEntity
  8
画層1
 62
     0
100
AcDbLine
 10
-182.9799999999999
 20
256.29
 30
0.0
 11
-182.9799999999999
 21
256.5899999999999
 31
0.0
  0
LINE
  5
34D
330
2
100
AcDbEntity
  8
画層1
 62
     0
100
AcDbLine
 10
-182.9799999999999
 20
256.5899999999999
 30
0.0
 11
-181.9799999999999
 21
256.5899999999999
 31
0.0
  0
LINE
  5
34E
330
2
100
AcDbEntity
  8
画層1
 62
     0
100
AcDbLine
 10
-182.9799999999999
 20
252.99
 30
0.0
 11
-181.9799999999999
 21
252.99
 31
0.0
  0
LINE
  5
34F
330
2
100
AcDbEntity
  8
画層1
 62
     0
100
AcDbLine
 10
-181.9799999999999
 20
253.29
 30
0.0
 11
-181.9799999999999
 21
252.99
 31
0.0
  0
LINE
  5
350
330
2
100
AcDbEntity
  8
画層1
 62
     0
100
AcDbLine
 10
-182.9799999999999
 20
252.99
 30
0.0
 11
-182.9799999999999
 21
253.29
 31
0.0
  0
LINE
  5
351
330
2
100
AcDbEntity
  8
画層1
 62
     0
100
AcDbLine
 10
-179.52
 20
263.69
 30
0.0
 11
-180.9799999999999
 21
263.69
 31
0.0
  0
LINE
  5
352
330
2
100
AcDbEntity
  8
画層1
 62
     0
100
AcDbLine
 10
-181.9799999999999
 20
262.69
 30
0.0
 11
-181.9799999999999
 21
262.3899999999999
 31
0.0
  0
ARC
  5
353
330
2
100
AcDbEntity
  8
画層1
 62
     0
100
AcDbCircle
 10
-180.9799999999999
 20
262.69
 30
0.0
 40
1.0
100
AcDbArc
 50
90.0
 51
180.0
  0
LINE
  5
354
330
2
100
AcDbEntity
  8
画層1
 62
     0
100
AcDbLine
 10
-182.9799999999999
 20
262.3899999999999
 30
0.0
 11
-182.9799999999999
 21
262.69
 31
0.0
  0
LINE
  5
355
330
2
100
AcDbEntity
  8
画層1
 62
     0
100
AcDbLine
 10
-182.9799999999999
 20
262.3899999999999
 30
0.0
 11
-181.9799999999999
 21
262.3899999999999
 31
0.0
  0
CIRCLE
  5
356
330
2
100
AcDbEntity
  8
画層1
 62
     0
100
AcDbCircle
 10
-158.4799999999999
 20
250.7299999999999
 30
0.0
 40
1.75
  0
CIRCLE
  5
357
330
2
100
AcDbEntity
  8
画層1
 62
     0
100
AcDbCircle
 10
-158.4799999999999
 20
260.73
 30
0.0
 40
1.75
  0
LINE
  5
358
330
2
100
AcDbEntity
  8
画層1
 62
     0
100
AcDbLine
 10
-180.9799999999999
 20
264.69
 30
0.0
 11
-179.52
 21
264.69
 31
0.0
  0
LINE
  5
359
330
2
100
AcDbEntity
  8
画層1
 62
     0
100
AcDbLine
 10
-181.9799999999999
 20
265.9899999999999
 30
0.0
 11
-181.9799999999999
 21
265.6899999999999
 31
0.0
  0
LINE
  5
35A
330
2
100
AcDbEntity
  8
画層1
 62
     0
100
AcDbLine
 10
-182.9799999999999
 20
265.6899999999999
 30
0.0
 11
-182.9799999999999
 21
265.9899999999999
 31
0.0
  0
LINE
  5
35B
330
2
100
AcDbEntity
  8
画層1
 62
     0
100
AcDbLine
 10
-182.9799999999999
 20
265.9899999999999
 30
0.0
 11
-181.9799999999999
 21
265.9899999999999
 31
0.0
  0
CIRCLE
  5
35C
330
2
100
AcDbEntity
  8
画層1
 62
     0
100
AcDbCircle
 10
-138.48
 20
245.73
 30
0.0
 40
2.5
  0
CIRCLE
  5
35D
330
2
100
AcDbEntity
  8
画層1
 62
     0
100
AcDbCircle
 10
-138.48
 20
260.73
 30
0.0
 40
2.5
  0
ARC
  5
35E
330
2
100
AcDbEntity
  8
画層1
 62
     0
100
AcDbCircle
 10
-161.4799999999999
 20
291.73
 30
0.0
 40
3.0
100
AcDbArc
 50
90.0
 51
180.0
  0
ARC
  5
35F
330
2
100
AcDbEntity
  8
画層1
 62
     0
100
AcDbCircle
 10
-97.98000000000001
 20
307.23
 30
0.0
 40
3.5
100
AcDbArc
 50
0.0
 51
90.0
  0
ARC
  5
360
330
2
100
AcDbEntity
  8
画層1
 62
     0
100
AcDbCircle
 10
-102.48
 20
291.73
 30
0.0
 40
3.0
100
AcDbArc
 50
0.0
 51
90.0
  0
DIMENSION
  5
361
330
2
100
AcDbEntity
  8
画層1
 62
     0
100
AcDbDimension
  2
*D26
 10
-182.4799999999999
 20
431.73
 30
0.0
 11
-184.36
 21
437.7299999999999
 31
0.0
 70
    32
 71
     5
 42
12.0
  3
STANDARD_WS
100
AcDbAlignedDimension
 13
-164.48
 23
443.73
 33
0.0
 14
-157.7199999999999
 24
431.73
 34
0.0
 50
90.0
100
AcDbRotatedDimension
1001
ACAD
1000
DSTYLE
1002
{
1070
    47
1040
0.6
1070
   144
1040
1.0
1070
   146
1040
0.5
1070
   173
1070
     0
1070
   284
1070
     8
1070
   340
1005
27
1070
   341
1005
28
1070
     5
1000
OPEN30
1070
     6
1000
OPEN30
1002
}
  0
LEADER
  5
36E
330
2
100
AcDbEntity
  8
画層1
 62
     0
100
AcDbLeader
  3
STANDARD_WS
 73
     0
 75
     1
 40
5.929999999999999
 41
24.58
 76
     3
 10
-165.28
 20
429.0899999999999
 30
0.0
 10
-178.61
 20
392.29
 30
0.0
 10
-180.11
 20
392.29
 30
0.0
340
36F
213
-1.19626226462762
223
0.0
233
0.0
1001
ACAD
1000
DSTYLE
1002
{
1070
     6
1000
OPEN30
1070
    47
1040
0.6
1070
    77
1070
     2
1070
   144
1040
2.0
1070
   146
1040
0.5
1070
   147
1040
0.63
1070
   284
1070
     8
1070
   340
1005
27
1070
   341
1005
28
1070
   343
1005
28
1002
}
  0
MTEXT
  5
36F
102
{ACAD_REACTORS
330
36E
102
}
330
2
100
AcDbEntity
  8
画層1
 62
     0
100
AcDbMText
 10
-179.5399999999999
 20
395.8899999999999
 30
0.0
 40
5.0
 41
0.0
 71
     6
 72
     1
  1
3-φ5.5
  7
STYLE1
 73
     1
 44
1.0
1001
ACAD
1000
MTEXTBEGIN
1070
    73
1070
     1
1070
    44
1040
1.0
1070
    74
1070
     0
1000
MTEXTEND
1000
MTEXTBEGIN
1070
    73
1070
     1
1070
    44
1040
1.0
1070
    74
1070
     0
1000
MTEXTEND
1000
MTEXTBEGIN
1070
    73
1070
     1
1070
    44
1040
1.0
1070
    74
1070
     0
1000
MTEXTEND
1000
MTEXTBEGIN
1070
    73
1070
     1
1070
    44
1040
1.0
1070
    74
1070
     0
1000
MTEXTEND
  0
MTEXT
  5
370
330
2
100
AcDbEntity
  8
画層1
 62
     0
100
AcDbMText
 10
-201.3399999999999
 20
386.89
 30
0.0
 40
5.0
 41
0.0
 71
     4
 72
     1
  1
端子穴
  7
STYLE1
 73
     1
 44
1.0
1001
ACAD
1000
MTEXTBEGIN
1070
    73
1070
     1
1070
    44
1040
1.0
1070
    74
1070
     0
1000
MTEXTEND
1000
MTEXTBEGIN
1070
    73
1070
     1
1070
    44
1040
1.0
1070
    74
1070
     0
1000
MTEXTEND
1000
MTEXTBEGIN
1070
    73
1070
     1
1070
    44
1040
1.0
1070
    74
1070
     0
1000
MTEXTEND
1000
MTEXTBEGIN
1070
    73
1070
     1
1070
    44
1040
1.0
1070
    74
1070
     0
1000
MTEXTEND
  0
CIRCLE
  5
371
330
2
100
AcDbEntity
  8
画層1
 62
     0
100
AcDbCircle
 10
-208.4799999999999
 20
423.73
 30
0.0
 40
4.0
  0
LINE
  5
372
330
2
100
AcDbEntity
  8
画層1
  6
DIVIDE
 62
     0
100
AcDbLine
 10
-194.4799999999999
 20
458.7299999999999
 30
0.0
 11
-194.4799999999999
 21
410.73
 31
0.0
  0
LINE
  5
373
330
2
100
AcDbEntity
  8
画層1
 62
     0
100
AcDbLine
 10
-208.9799999999999
 20
425.53
 30
0.0
 11
-207.98
 21
425.53
 31
0.0
  0
LINE
  5
374
330
2
100
AcDbEntity
  8
画層1
 62
     0
100
AcDbLine
 10
-208.9799999999999
 20
421.93
 30
0.0
 11
-207.98
 21
421.93
 31
0.0
  0
CIRCLE
  5
375
330
2
100
AcDbEntity
  8
画層1
 62
     0
100
AcDbCircle
 10
-208.4799999999999
 20
423.73
 30
0.0
 40
3.0
  0
LINE
  5
376
330
2
100
AcDbEntity
  8
画層1
 62
     0
100
AcDbLine
 10
-210.28
 20
424.23
 30
0.0
 11
-209.98
 21
424.23
 31
0.0
  0
LINE
  5
377
330
2
100
AcDbEntity
  8
画層1
 62
     0
100
AcDbLine
 10
-209.98
 20
423.23
 30
0.0
 11
-210.28
 21
423.23
 31
0.0
  0
LINE
  5
378
330
2
100
AcDbEntity
  8
画層1
 62
     0
100
AcDbLine
 10
-210.28
 20
423.23
 30
0.0
 11
-210.28
 21
424.23
 31
0.0
  0
ARC
  5
379
330
2
100
AcDbEntity
  8
画層1
 62
     0
100
AcDbCircle
 10
-209.98
 20
425.2299999999999
 30
0.0
 40
1.0
100
AcDbArc
 50
270.0
 51
0.0
  0
LINE
  5
37A
330
2
100
AcDbEntity
  8
画層1
 62
     0
100
AcDbLine
 10
-208.9799999999999
 20
425.2299999999999
 30
0.0
 11
-208.9799999999999
 21
425.53
 31
0.0
  0
ARC
  5
37B
330
2
100
AcDbEntity
  8
画層1
 62
     0
100
AcDbCircle
 10
-209.98
 20
422.23
 30
0.0
 40
1.0
100
AcDbArc
 50
0.0
 51
90.0
  0
LINE
  5
37C
330
2
100
AcDbEntity
  8
画層1
 62
     0
100
AcDbLine
 10
-208.9799999999999
 20
421.93
 30
0.0
 11
-208.9799999999999
 21
422.23
 31
0.0
  0
LINE
  5
37D
330
2
100
AcDbEntity
  8
画層1
 62
     0
100
AcDbLine
 10
-206.68
 20
423.23
 30
0.0
 11
-206.9799999999999
 21
423.23
 31
0.0
  0
LINE
  5
37E
330
2
100
AcDbEntity
  8
画層1
 62
     0
100
AcDbLine
 10
-206.9799999999999
 20
424.23
 30
0.0
 11
-206.68
 21
424.23
 31
0.0
  0
LINE
  5
37F
330
2
100
AcDbEntity
  8
画層1
 62
     0
100
AcDbLine
 10
-206.68
 20
423.23
 30
0.0
 11
-206.68
 21
424.23
 31
0.0
  0
LINE
  5
380
330
2
100
AcDbEntity
  8
画層1
 62
     0
100
AcDbLine
 10
-207.98
 20
425.53
 30
0.0
 11
-207.98
 21
425.2299999999999
 31
0.0
  0
LINE
  5
381
330
2
100
AcDbEntity
  8
画層1
 62
     0
100
AcDbLine
 10
-207.98
 20
422.23
 30
0.0
 11
-207.98
 21
421.93
 31
0.0
  0
ARC
  5
382
330
2
100
AcDbEntity
  8
画層1
 62
     0
100
AcDbCircle
 10
-206.9799999999999
 20
425.2299999999999
 30
0.0
 40
1.0
100
AcDbArc
 50
180.0
 51
270.0
  0
ARC
  5
383
330
2
100
AcDbEntity
  8
画層1
 62
     0
100
AcDbCircle
 10
-206.9799999999999
 20
422.23
 30
0.0
 40
1.0
100
AcDbArc
 50
90.0
 51
180.0
  0
ARC
  5
384
330
2
100
AcDbEntity
  8
画層1
  6
DIVIDE
 62
     0
100
AcDbCircle
 10
-189.48
 20
410.73
 30
0.0
 40
5.0
100
AcDbArc
 50
180.0
 51
270.0
  0
ARC
  5
385
330
2
100
AcDbEntity
  8
画層1
  6
DIVIDE
 62
     0
100
AcDbCircle
 10
-189.48
 20
458.7299999999999
 30
0.0
 40
5.0
100
AcDbArc
 50
90.0
 51
180.0
  0
DIMENSION
  5
386
330
2
100
AcDbEntity
  8
画層1
 62
     0
100
AcDbDimension
  2
*D17
 10
-164.48
 20
391.73
 30
0.0
 11
-134.4799999999999
 21
393.61
 31
0.0
 70
    32
 71
     5
 42
59.99999999999999
  3
STANDARD_WS
100
AcDbAlignedDimension
 13
-104.4799999999999
 23
424.49
 33
0.0
 14
-164.48
 24
434.4899999999999
 34
0.0
100
AcDbRotatedDimension
1001
ACAD
1000
DSTYLE
1002
{
1070
   287
1070
     4
1070
   287
1070
     4
1070
   287
1070
     4
1070
   287
1070
     4
1070
   279
1070
     1
1070
    47
1040
0.6
1070
   144
1040
1.0
1070
   146
1040
0.5
1070
   173
1070
     0
1070
   284
1070
     8
1070
   340
1005
27
1070
   341
1005
28
1070
     5
1000
OPEN30
1070
     6
1000
OPEN30
1002
}
  0
LINE
  5
393
330
2
100
AcDbEntity
  8
画層1
  6
DASHED2
 62
     0
100
AcDbLine
 10
-54.48
 20
405.73
 30
0.0
 11
-54.48
 21
441.73
 31
0.0
  0
LINE
  5
394
330
2
100
AcDbEntity
  8
画層1
  6
DASHED2
 62
     0
100
AcDbLine
 10
-114.48
 20
405.73
 30
0.0
 11
-114.48
 21
441.73
 31
0.0
  0
LINE
  5
395
330
2
100
AcDbEntity
  8
画層1
  6
DASHED2
 62
     0
100
AcDbLine
 10
-94.48
 20
441.73
 30
0.0
 11
-94.48
 21
405.73
 31
0.0
  0
LINE
  5
396
330
2
100
AcDbEntity
  8
画層1
  6
DASHED2
 62
     0
100
AcDbLine
 10
-154.4799999999999
 20
441.73
 30
0.0
 11
-154.4799999999999
 21
405.73
 31
0.0
  0
LINE
  5
397
330
2
100
AcDbEntity
  8
画層1
  6
DASHED2
 62
     0
100
AcDbLine
 10
-174.4799999999999
 20
405.73
 30
0.0
 11
-174.4799999999999
 21
441.73
 31
0.0
  0
MTEXT
  5
398
330
2
100
AcDbEntity
  8
画層1
 62
     0
100
AcDbMText
 10
-151.02
 20
434.71
 30
0.0
 40
5.0
 41
9.039999999999999
 71
     1
 72
     5
  1
R
  7
STYLE1
 73
     1
 44
1.0
1001
ACAD
1000
MTEXTBEGIN
1070
    73
1070
     1
1070
    44
1040
1.0
1070
    74
1070
     0
1000
MTEXTEND
1000
MTEXTBEGIN
1070
    73
1070
     1
1070
    44
1040
1.0
1070
    74
1070
     0
1000
MTEXTEND
1000
MTEXTBEGIN
1070
    73
1070
     1
1070
    44
1040
1.0
1070
    74
1070
     0
1000
MTEXTEND
1000
MTEXTBEGIN
1070
    73
1070
     1
1070
    44
1040
1.0
1070
    74
1070
     0
1000
MTEXTEND
  0
CIRCLE
  5
399
330
2
100
AcDbEntity
  8
画層1
  6
DASHED2
 62
     0
100
AcDbCircle
 10
-164.48
 20
433.7299999999999
 30
0.0
 40
4.5
  0
LINE
  5
39A
330
2
100
AcDbEntity
  8
画層1
 62
     0
100
AcDbLine
 10
-171.4799999999999
 20
433.7299999999999
 30
0.0
 11
-157.4799999999999
 21
433.7299999999999
 31
0.0
  0
LINE
  5
39B
330
2
100
AcDbEntity
  8
画層1
  6
DASHED2
 62
     0
100
AcDbLine
 10
-174.4799999999999
 20
441.73
 30
0.0
 11
-154.4799999999999
 21
441.73
 31
0.0
  0
CIRCLE
  5
39C
330
2
100
AcDbEntity
  8
画層1
  6
DASHED2
 62
     0
100
AcDbCircle
 10
-164.48
 20
431.73
 30
0.0
 40
2.75
  0
LINE
  5
39D
330
2
100
AcDbEntity
  8
画層1
 62
     0
100
AcDbLine
 10
-109.48
 20
431.73
 30
0.0
 11
-99.48
 21
431.73
 31
0.0
  0
LINE
  5
39E
330
2
100
AcDbEntity
  8
画層1
  6
DASHED2
 62
     0
100
AcDbLine
 10
-114.48
 20
441.73
 30
0.0
 11
-94.48
 21
441.73
 31
0.0
  0
CIRCLE
  5
39F
330
2
100
AcDbEntity
  8
画層1
  6
DASHED2
 62
     0
100
AcDbCircle
 10
-104.4799999999999
 20
431.73
 30
0.0
 40
2.75
  0
MTEXT
  5
3A0
330
2
100
AcDbEntity
  8
画層1
 62
     0
100
AcDbMText
 10
-91.94
 20
434.71
 30
0.0
 40
5.0
 41
9.039999999999999
 71
     1
 72
     5
  1
S
  7
STYLE1
 73
     1
 44
1.0
1001
ACAD
1000
MTEXTBEGIN
1070
    73
1070
     1
1070
    44
1040
1.0
1070
    74
1070
     0
1000
MTEXTEND
1000
MTEXTBEGIN
1070
    73
1070
     1
1070
    44
1040
1.0
1070
    74
1070
     0
1000
MTEXTEND
1000
MTEXTBEGIN
1070
    73
1070
     1
1070
    44
1040
1.0
1070
    74
1070
     0
1000
MTEXTEND
1000
MTEXTBEGIN
1070
    73
1070
     1
1070
    44
1040
1.0
1070
    74
1070
     0
1000
MTEXTEND
  0
ARC
  5
3A1
330
2
100
AcDbEntity
  8
画層1
 62
     0
100
AcDbCircle
 10
1.02
 20
265.23
 30
0.0
 40
1.0
100
AcDbArc
 50
180.0
 51
270.0
  0
ARC
  5
3A2
330
2
100
AcDbEntity
  8
画層1
 62
     0
100
AcDbCircle
 10
-1.98
 20
265.23
 30
0.0
 40
1.0
100
AcDbArc
 50
270.0
 51
0.0
  0
CIRCLE
  5
3A3
330
2
100
AcDbEntity
  8
画層1
 62
     0
100
AcDbCircle
 10
-0.48
 20
263.73
 30
0.0
 40
4.0
  0
CIRCLE
  5
3A4
330
2
100
AcDbEntity
  8
画層1
 62
     0
100
AcDbCircle
 10
-0.48
 20
263.73
 30
0.0
 40
3.0
  0
LINE
  5
3A5
330
2
100
AcDbEntity
  8
画層1
 62
     0
100
AcDbLine
 10
2.98
 20
261.73
 30
0.0
 11
5.519999999999999
 21
261.73
 31
0.0
  0
ARC
  5
3A6
330
2
100
AcDbEntity
  8
画層1
 62
     0
100
AcDbCircle
 10
1.02
 20
262.23
 30
0.0
 40
1.0
100
AcDbArc
 50
90.0
 51
180.0
  0
LINE
  5
3A7
330
2
100
AcDbEntity
  8
画層1
 62
     0
100
AcDbLine
 10
-2.279999999999999
 20
264.23
 30
0.0
 11
-1.98
 21
264.23
 31
0.0
  0
LINE
  5
3A8
330
2
100
AcDbEntity
  8
画層1
 62
     0
100
AcDbLine
 10
-1.98
 20
263.23
 30
0.0
 11
-2.279999999999999
 21
263.23
 31
0.0
  0
LINE
  5
3A9
330
2
100
AcDbEntity
  8
画層1
 62
     0
100
AcDbLine
 10
-2.279999999999999
 20
263.23
 30
0.0
 11
-2.279999999999999
 21
264.23
 31
0.0
  0
ARC
  5
3AA
330
2
100
AcDbEntity
  8
画層1
 62
     0
100
AcDbCircle
 10
-1.98
 20
262.23
 30
0.0
 40
1.0
100
AcDbArc
 50
0.0
 51
90.0
  0
LINE
  5
3AB
330
2
100
AcDbEntity
  8
画層1
 62
     0
100
AcDbLine
 10
-0.98
 20
261.9299999999999
 30
0.0
 11
0.02
 21
261.9299999999999
 31
0.0
  0
LINE
  5
3AC
330
2
100
AcDbEntity
  8
画層1
 62
     0
100
AcDbLine
 10
-0.98
 20
261.9299999999999
 30
0.0
 11
-0.98
 21
262.23
 31
0.0
  0
LINE
  5
3AD
330
2
100
AcDbEntity
  8
画層1
 62
     0
100
AcDbLine
 10
0.02
 20
262.23
 30
0.0
 11
0.02
 21
261.9299999999999
 31
0.0
  0
LINE
  5
3AE
330
2
100
AcDbEntity
  8
画層1
 62
     0
100
AcDbLine
 10
1.32
 20
263.23
 30
0.0
 11
1.02
 21
263.23
 31
0.0
  0
LINE
  5
3AF
330
2
100
AcDbEntity
  8
画層1
 62
     0
100
AcDbLine
 10
1.02
 20
264.23
 30
0.0
 11
1.32
 21
264.23
 31
0.0
  0
LINE
  5
3B0
330
2
100
AcDbEntity
  8
画層1
 62
     0
100
AcDbLine
 10
1.32
 20
263.23
 30
0.0
 11
1.32
 21
264.23
 31
0.0
  0
LINE
  5
3B1
330
2
100
AcDbEntity
  8
画層1
 62
     0
100
AcDbLine
 10
2.98
 20
265.73
 30
0.0
 11
5.519999999999999
 21
265.73
 31
0.0
  0
LINE
  5
3B2
330
2
100
AcDbEntity
  8
画層1
 62
     0
100
AcDbLine
 10
0.02
 20
265.5299999999999
 30
0.0
 11
0.02
 21
265.23
 31
0.0
  0
LINE
  5
3B3
330
2
100
AcDbEntity
  8
画層1
 62
     0
100
AcDbLine
 10
-0.98
 20
265.23
 30
0.0
 11
-0.98
 21
265.5299999999999
 31
0.0
  0
LINE
  5
3B4
330
2
100
AcDbEntity
  8
画層1
 62
     0
100
AcDbLine
 10
-0.98
 20
265.5299999999999
 30
0.0
 11
0.02
 21
265.5299999999999
 31
0.0
  0
LINE
  5
3B5
330
2
100
AcDbEntity
  8
画層1
 62
     0
100
AcDbLine
 10
110.7199999999999
 20
265.23
 30
0.0
 11
111.5199999999999
 21
264.43
 31
0.0
  0
LINE
  5
3B6
330
2
100
AcDbEntity
  8
画層1
 62
     0
100
AcDbLine
 10
110.7199999999999
 20
265.23
 30
0.0
 11
110.7199999999999
 21
262.23
 31
0.0
  0
LINE
  5
3B7
330
2
100
AcDbEntity
  8
画層1
 62
     0
100
AcDbLine
 10
105.42
 20
267.5299999999999
 30
0.0
 11
105.42
 21
259.9299999999999
 31
0.0
  0
LINE
  5
3B8
330
2
100
AcDbEntity
  8
画層1
 62
     0
100
AcDbLine
 10
104.02
 20
265.3299999999999
 30
0.0
 11
104.02
 21
262.13
 31
0.0
  0
LINE
  5
3B9
330
2
100
AcDbEntity
  8
画層1
 62
     0
100
AcDbLine
 10
104.62
 20
263.3299999999999
 30
0.0
 11
104.62
 21
264.13
 31
0.0
  0
LINE
  5
3BA
330
2
100
AcDbEntity
  8
画層1
 62
     0
100
AcDbLine
 10
105.02
 20
261.1299999999999
 30
0.0
 11
105.42
 21
261.1299999999999
 31
0.0
  0
LINE
  5
3BB
330
2
100
AcDbEntity
  8
画層1
 62
     0
100
AcDbLine
 10
105.42
 20
259.9299999999999
 30
0.0
 11
105.5199999999999
 21
259.9299999999999
 31
0.0
  0
LINE
  5
3BC
330
2
100
AcDbEntity
  8
画層1
 62
     0
100
AcDbLine
 10
104.02
 20
263.3299999999999
 30
0.0
 11
104.62
 21
263.3299999999999
 31
0.0
  0
LINE
  5
3BD
330
2
100
AcDbEntity
  8
画層1
 62
     0
100
AcDbLine
 10
104.62
 20
264.13
 30
0.0
 11
104.02
 21
264.13
 31
0.0
  0
ARC
  5
3BE
330
2
100
AcDbEntity
  8
画層1
 62
     0
100
AcDbCircle
 10
105.02
 20
262.13
 30
0.0
 40
1.0
100
AcDbArc
 50
180.0
 51
270.0
  0
LINE
  5
3BF
330
2
100
AcDbEntity
  8
画層1
 62
     0
100
AcDbLine
 10
108.12
 20
264.43
 30
0.0
 11
111.5199999999999
 21
264.43
 31
0.0
  0
LINE
  5
3C0
330
2
100
AcDbEntity
  8
画層1
 62
     0
100
AcDbLine
 10
111.5199999999999
 20
263.0299999999999
 30
0.0
 11
108.12
 21
263.0299999999999
 31
0.0
  0
LINE
  5
3C1
330
2
100
AcDbEntity
  8
画層1
 62
     0
100
AcDbLine
 10
111.5199999999999
 20
263.0299999999999
 30
0.0
 11
110.7199999999999
 21
262.23
 31
0.0
  0
LINE
  5
3C2
330
2
100
AcDbEntity
  8
画層1
 62
     0
100
AcDbLine
 10
110.7199999999999
 20
262.23
 30
0.0
 11
108.12
 21
262.23
 31
0.0
  0
LINE
  5
3C3
330
2
100
AcDbEntity
  8
画層1
 62
     0
100
AcDbLine
 10
111.5199999999999
 20
264.43
 30
0.0
 11
111.5199999999999
 21
263.0299999999999
 31
0.0
  0
LINE
  5
3C4
330
2
100
AcDbEntity
  8
画層1
 62
     0
100
AcDbLine
 10
105.42
 20
266.33
 30
0.0
 11
105.02
 21
266.33
 31
0.0
  0
LINE
  5
3C5
330
2
100
AcDbEntity
  8
画層1
 62
     0
100
AcDbLine
 10
105.5199999999999
 20
267.5299999999999
 30
0.0
 11
105.42
 21
267.5299999999999
 31
0.0
  0
ARC
  5
3C6
330
2
100
AcDbEntity
  8
画層1
 62
     0
100
AcDbCircle
 10
105.02
 20
265.3299999999999
 30
0.0
 40
1.0
100
AcDbArc
 50
90.0
 51
180.0
  0
LINE
  5
3C7
330
2
100
AcDbEntity
  8
画層1
 62
     0
100
AcDbLine
 10
108.12
 20
265.23
 30
0.0
 11
110.7199999999999
 21
265.23
 31
0.0
  0
CIRCLE
  5
3C8
330
2
100
AcDbEntity
  8
画層1
 62
     0
100
AcDbCircle
 10
-0.48
 20
423.73
 30
0.0
 40
4.0
  0
LINE
  5
3C9
330
2
100
AcDbEntity
  8
画層1
  6
DASHED2
 62
     0
100
AcDbLine
 10
-34.47999999999999
 20
441.73
 30
0.0
 11
-34.47999999999999
 21
405.73
 31
0.0
  0
LINE
  5
3CA
330
2
100
AcDbEntity
  8
画層1
  6
DIVIDE
 62
     0
100
AcDbLine
 10
-14.48
 20
410.73
 30
0.0
 11
-14.48
 21
458.7299999999999
 31
0.0
  0
CIRCLE
  5
3CB
330
2
100
AcDbEntity
  8
画層1
 62
     0
100
AcDbCircle
 10
-0.48
 20
423.73
 30
0.0
 40
3.0
  0
ARC
  5
3CC
330
2
100
AcDbEntity
  8
画層1
  6
DIVIDE
 62
     0
100
AcDbCircle
 10
-19.48
 20
410.73
 30
0.0
 40
5.0
100
AcDbArc
 50
270.0
 51
0.0
  0
LINE
  5
3CD
330
2
100
AcDbEntity
  8
画層1
 62
     0
100
AcDbLine
 10
2.98
 20
421.7299999999999
 30
0.0
 11
5.519999999999999
 21
421.7299999999999
 31
0.0
  0
LINE
  5
3CE
330
2
100
AcDbEntity
  8
画層1
 62
     0
100
AcDbLine
 10
2.98
 20
425.7299999999999
 30
0.0
 11
5.519999999999999
 21
425.7299999999999
 31
0.0
  0
ARC
  5
3CF
330
2
100
AcDbEntity
  8
画層1
 62
     0
100
AcDbCircle
 10
1.02
 20
425.2299999999999
 30
0.0
 40
1.0
100
AcDbArc
 50
180.0
 51
270.0
  0
ARC
  5
3D0
330
2
100
AcDbEntity
  8
画層1
 62
     0
100
AcDbCircle
 10
1.02
 20
422.23
 30
0.0
 40
1.0
100
AcDbArc
 50
90.0
 51
180.0
  0
LINE
  5
3D1
330
2
100
AcDbEntity
  8
画層1
 62
     0
100
AcDbLine
 10
0.02
 20
425.53
 30
0.0
 11
0.02
 21
425.2299999999999
 31
0.0
  0
LINE
  5
3D2
330
2
100
AcDbEntity
  8
画層1
 62
     0
100
AcDbLine
 10
-2.279999999999999
 20
424.23
 30
0.0
 11
-1.98
 21
424.23
 31
0.0
  0
LINE
  5
3D3
330
2
100
AcDbEntity
  8
画層1
 62
     0
100
AcDbLine
 10
-1.98
 20
423.23
 30
0.0
 11
-2.279999999999999
 21
423.23
 31
0.0
  0
LINE
  5
3D4
330
2
100
AcDbEntity
  8
画層1
 62
     0
100
AcDbLine
 10
-2.279999999999999
 20
423.23
 30
0.0
 11
-2.279999999999999
 21
424.23
 31
0.0
  0
ARC
  5
3D5
330
2
100
AcDbEntity
  8
画層1
 62
     0
100
AcDbCircle
 10
-1.98
 20
425.2299999999999
 30
0.0
 40
1.0
100
AcDbArc
 50
270.0
 51
0.0
  0
LINE
  5
3D6
330
2
100
AcDbEntity
  8
画層1
 62
     0
100
AcDbLine
 10
-0.98
 20
425.2299999999999
 30
0.0
 11
-0.98
 21
425.53
 31
0.0
  0
ARC
  5
3D7
330
2
100
AcDbEntity
  8
画層1
 62
     0
100
AcDbCircle
 10
-1.98
 20
422.23
 30
0.0
 40
1.0
100
AcDbArc
 50
0.0
 51
90.0
  0
LINE
  5
3D8
330
2
100
AcDbEntity
  8
画層1
 62
     0
100
AcDbLine
 10
-0.98
 20
425.53
 30
0.0
 11
0.02
 21
425.53
 31
0.0
  0
LINE
  5
3D9
330
2
100
AcDbEntity
  8
画層1
 62
     0
100
AcDbLine
 10
-0.98
 20
421.93
 30
0.0
 11
0.02
 21
421.93
 31
0.0
  0
LINE
  5
3DA
330
2
100
AcDbEntity
  8
画層1
 62
     0
100
AcDbLine
 10
-0.98
 20
421.93
 30
0.0
 11
-0.98
 21
422.23
 31
0.0
  0
LINE
  5
3DB
330
2
100
AcDbEntity
  8
画層1
 62
     0
100
AcDbLine
 10
0.02
 20
422.23
 30
0.0
 11
0.02
 21
421.93
 31
0.0
  0
LINE
  5
3DC
330
2
100
AcDbEntity
  8
画層1
 62
     0
100
AcDbLine
 10
1.32
 20
423.23
 30
0.0
 11
1.02
 21
423.23
 31
0.0
  0
LINE
  5
3DD
330
2
100
AcDbEntity
  8
画層1
 62
     0
100
AcDbLine
 10
1.02
 20
424.23
 30
0.0
 11
1.32
 21
424.23
 31
0.0
  0
LINE
  5
3DE
330
2
100
AcDbEntity
  8
画層1
 62
     0
100
AcDbLine
 10
1.32
 20
423.23
 30
0.0
 11
1.32
 21
424.23
 31
0.0
  0
LEADER
  5
3DF
330
2
100
AcDbEntity
  8
画層1
 62
     0
100
AcDbLeader
  3
STANDARD_WS
 73
     0
 74
     0
 75
     1
 40
5.929999999999999
 41
17.32
 76
     3
 10
-42.61999999999999
 20
437.83
 30
0.0
 10
-22.35
 20
478.29
 30
0.0
 10
-20.85
 20
478.29
 30
0.0
340
3E0
1001
ACAD
1000
DSTYLE
1002
{
1070
     6
1000
OPEN30
1070
    47
1040
0.6
1070
    77
1070
     2
1070
   144
1040
2.0
1070
   146
1040
0.5
1070
   147
1040
0.63
1070
   284
1070
     8
1070
   340
1005
27
1070
   341
1005
28
1070
   343
1005
28
1002
}
  0
MTEXT
  5
3E0
102
{ACAD_REACTORS
330
3DF
102
}
330
2
100
AcDbEntity
  8
画層1
 62
     0
100
AcDbMText
 10
-20.21999999999999
 20
481.89
 30
0.0
 40
5.0
 41
0.0
 71
     4
 72
     1
  1
2-φ9
  7
STYLE1
 73
     1
 44
1.0
1001
ACAD
1000
MTEXTBEGIN
1070
    73
1070
     1
1070
    44
1040
1.0
1070
    74
1070
     0
1000
MTEXTEND
1000
MTEXTBEGIN
1070
    73
1070
     1
1070
    44
1040
1.0
1070
    74
1070
     0
1000
MTEXTEND
1000
MTEXTBEGIN
1070
    73
1070
     1
1070
    44
1040
1.0
1070
    74
1070
     0
1000
MTEXTEND
1000
MTEXTBEGIN
1070
    73
1070
     1
1070
    44
1040
1.0
1070
    74
1070
     0
1000
MTEXTEND
  0
MTEXT
  5
3E1
330
2
100
AcDbEntity
  8
画層1
 62
     0
100
AcDbMText
 10
-22.48
 20
472.89
 30
0.0
 40
5.0
 41
0.0
 71
     4
 72
     1
  1
取付穴
  7
STYLE1
 73
     1
 44
1.0
1001
ACAD
1000
MTEXTBEGIN
1070
    73
1070
     1
1070
    44
1040
1.0
1070
    74
1070
     0
1000
MTEXTEND
1000
MTEXTBEGIN
1070
    73
1070
     1
1070
    44
1040
1.0
1070
    74
1070
     0
1000
MTEXTEND
1000
MTEXTBEGIN
1070
    73
1070
     1
1070
    44
1040
1.0
1070
    74
1070
     0
1000
MTEXTEND
1000
MTEXTBEGIN
1070
    73
1070
     1
1070
    44
1040
1.0
1070
    74
1070
     0
1000
MTEXTEND
  0
LINE
  5
3E2
330
2
100
AcDbEntity
  8
画層1
 62
     0
100
AcDbLine
 10
-49.48
 20
431.73
 30
0.0
 11
-39.48
 21
431.73
 31
0.0
  0
CIRCLE
  5
3E3
330
2
100
AcDbEntity
  8
画層1
  6
DASHED2
 62
     0
100
AcDbCircle
 10
-44.47999999999999
 20
433.7299999999999
 30
0.0
 40
4.5
  0
CIRCLE
  5
3E4
330
2
100
AcDbEntity
  8
画層1
  6
DASHED2
 62
     0
100
AcDbCircle
 10
-44.47999999999999
 20
431.73
 30
0.0
 40
2.75
  0
MTEXT
  5
3E5
330
2
100
AcDbEntity
  8
画層1
 62
     0
100
AcDbMText
 10
-31.28
 20
434.71
 30
0.0
 40
5.0
 41
9.039999999999999
 71
     1
 72
     5
  1
T
  7
STYLE1
 73
     1
 44
1.0
1001
ACAD
1000
MTEXTBEGIN
1070
    73
1070
     1
1070
    44
1040
1.0
1070
    74
1070
     0
1000
MTEXTEND
1000
MTEXTBEGIN
1070
    73
1070
     1
1070
    44
1040
1.0
1070
    74
1070
     0
1000
MTEXTEND
1000
MTEXTBEGIN
1070
    73
1070
     1
1070
    44
1040
1.0
1070
    74
1070
     0
1000
MTEXTEND
1000
MTEXTBEGIN
1070
    73
1070
     1
1070
    44
1040
1.0
1070
    74
1070
     0
1000
MTEXTEND
  0
ARC
  5
3E6
330
2
100
AcDbEntity
  8
画層1
  6
DIVIDE
 62
     0
100
AcDbCircle
 10
-19.48
 20
458.7299999999999
 30
0.0
 40
5.0
100
AcDbArc
 50
0.0
 51
90.0
  0
LINE
  5
3E7
330
2
100
AcDbEntity
  8
画層1
  6
DASHED2
 62
     0
100
AcDbLine
 10
193.02
 20
441.73
 30
0.0
 11
193.02
 21
405.73
 31
0.0
  0
LINE
  5
3E8
330
2
100
AcDbEntity
  8
画層1
  6
DASHED2
 62
     0
100
AcDbLine
 10
191.02
 20
405.73
 30
0.0
 11
191.02
 21
441.73
 31
0.0
  0
LINE
  5
3E9
330
2
100
AcDbEntity
  8
画層1
 62
     0
100
AcDbLine
 10
105.42
 20
427.5299999999999
 30
0.0
 11
105.42
 21
419.93
 31
0.0
  0
LINE
  5
3EA
330
2
100
AcDbEntity
  8
画層1
  6
DIVIDE
 62
     0
100
AcDbLine
 10
159.02
 20
405.73
 30
0.0
 11
159.02
 21
463.73
 31
0.0
  0
LINE
  5
3EB
330
2
100
AcDbEntity
  8
画層1
  6
DIVIDE
 62
     0
100
AcDbLine
 10
161.02
 20
463.73
 30
0.0
 11
161.02
 21
405.73
 31
0.0
  0
ARC
  5
3EC
330
2
100
AcDbEntity
  8
画層1
 62
     0
100
AcDbCircle
 10
105.02
 20
422.13
 30
0.0
 40
1.0
100
AcDbArc
 50
180.0
 51
270.0
  0
LINE
  5
3ED
330
2
100
AcDbEntity
  8
画層1
 62
     0
100
AcDbLine
 10
105.02
 20
421.1299999999999
 30
0.0
 11
105.42
 21
421.1299999999999
 31
0.0
  0
LINE
  5
3EE
330
2
100
AcDbEntity
  8
画層1
 62
     0
100
AcDbLine
 10
105.42
 20
419.93
 30
0.0
 11
105.5199999999999
 21
419.93
 31
0.0
  0
LINE
  5
3EF
330
2
100
AcDbEntity
  8
画層1
 62
     0
100
AcDbLine
 10
104.62
 20
423.3299999999999
 30
0.0
 11
104.62
 21
424.1299999999999
 31
0.0
  0
LINE
  5
3F0
330
2
100
AcDbEntity
  8
画層1
 62
     0
100
AcDbLine
 10
105.42
 20
426.33
 30
0.0
 11
105.02
 21
426.33
 31
0.0
  0
LINE
  5
3F1
330
2
100
AcDbEntity
  8
画層1
 62
     0
100
AcDbLine
 10
104.02
 20
425.33
 30
0.0
 11
104.02
 21
422.13
 31
0.0
  0
ARC
  5
3F2
330
2
100
AcDbEntity
  8
画層1
 62
     0
100
AcDbCircle
 10
105.02
 20
425.33
 30
0.0
 40
1.0
100
AcDbArc
 50
90.0
 51
180.0
  0
LINE
  5
3F3
330
2
100
AcDbEntity
  8
画層1
 62
     0
100
AcDbLine
 10
104.02
 20
423.3299999999999
 30
0.0
 11
104.62
 21
423.3299999999999
 31
0.0
  0
LINE
  5
3F4
330
2
100
AcDbEntity
  8
画層1
 62
     0
100
AcDbLine
 10
104.62
 20
424.1299999999999
 30
0.0
 11
104.02
 21
424.1299999999999
 31
0.0
  0
LINE
  5
3F5
330
2
100
AcDbEntity
  8
画層1
 62
     0
100
AcDbLine
 10
108.12
 20
424.4299999999999
 30
0.0
 11
111.5199999999999
 21
424.4299999999999
 31
0.0
  0
LINE
  5
3F6
330
2
100
AcDbEntity
  8
画層1
 62
     0
100
AcDbLine
 10
111.5199999999999
 20
423.0299999999999
 30
0.0
 11
108.12
 21
423.0299999999999
 31
0.0
  0
LINE
  5
3F7
330
2
100
AcDbEntity
  8
画層1
 62
     0
100
AcDbLine
 10
110.7199999999999
 20
425.2299999999999
 30
0.0
 11
111.5199999999999
 21
424.4299999999999
 31
0.0
  0
LINE
  5
3F8
330
2
100
AcDbEntity
  8
画層1
 62
     0
100
AcDbLine
 10
111.5199999999999
 20
423.0299999999999
 30
0.0
 11
110.7199999999999
 21
422.23
 31
0.0
  0
LINE
  5
3F9
330
2
100
AcDbEntity
  8
画層1
 62
     0
100
AcDbLine
 10
108.12
 20
425.2299999999999
 30
0.0
 11
110.7199999999999
 21
425.2299999999999
 31
0.0
  0
LINE
  5
3FA
330
2
100
AcDbEntity
  8
画層1
 62
     0
100
AcDbLine
 10
110.7199999999999
 20
422.23
 30
0.0
 11
108.12
 21
422.23
 31
0.0
  0
LINE
  5
3FB
330
2
100
AcDbEntity
  8
画層1
 62
     0
100
AcDbLine
 10
110.7199999999999
 20
425.2299999999999
 30
0.0
 11
110.7199999999999
 21
422.23
 31
0.0
  0
LINE
  5
3FC
330
2
100
AcDbEntity
  8
画層1
 62
     0
100
AcDbLine
 10
111.5199999999999
 20
424.4299999999999
 30
0.0
 11
111.5199999999999
 21
423.0299999999999
 31
0.0
  0
LINE
  5
3FD
330
2
100
AcDbEntity
  8
画層1
  6
DIVIDE
 62
     0
100
AcDbLine
 10
161.02
 20
405.73
 30
0.0
 11
159.02
 21
405.73
 31
0.0
  0
DIMENSION
  5
3FE
330
2
100
AcDbEntity
  8
画層1
 62
     0
100
AcDbDimension
  2
*D30
 10
145.52
 20
463.73
 30
0.0
 11
143.6399999999999
 21
453.73
 31
0.0
 70
    32
 71
     5
 42
20.00000000000005
  3
STANDARD_WS
100
AcDbAlignedDimension
 13
120.52
 23
443.73
 33
0.0
 14
159.02
 24
463.73
 34
0.0
 50
90.0
100
AcDbRotatedDimension
1001
ACAD
1000
DSTYLE
1002
{
1070
    47
1040
0.6
1070
   144
1040
1.0
1070
   146
1040
0.5
1070
   173
1070
     0
1070
   284
1070
     8
1070
   340
1005
27
1070
   341
1005
28
1070
     5
1000
OPEN30
1070
     6
1000
OPEN30
1002
}
  0
LINE
  5
40B
330
2
100
AcDbEntity
  8
画層1
 62
     0
100
AcDbLine
 10
120.52
 20
443.73
 30
0.0
 11
105.5199999999999
 21
443.73
 31
0.0
  0
LINE
  5
40C
330
2
100
AcDbEntity
  8
画層1
 62
     0
100
AcDbLine
 10
106.5199999999999
 20
442.73
 30
0.0
 11
120.52
 21
442.73
 31
0.0
  0
LINE
  5
40D
330
2
100
AcDbEntity
  8
画層1
 62
     0
100
AcDbLine
 10
105.5199999999999
 20
427.5299999999999
 30
0.0
 11
105.42
 21
427.5299999999999
 31
0.0
  0
LINE
  5
40E
330
2
100
AcDbEntity
  8
画層1
 62
     0
100
AcDbLine
 10
120.52
 20
442.73
 30
0.0
 11
120.52
 21
443.73
 31
0.0
  0
LINE
  5
40F
330
2
100
AcDbEntity
  8
画層1
  6
DIVIDE
 62
     0
100
AcDbLine
 10
159.02
 20
463.73
 30
0.0
 11
161.02
 21
463.73
 31
0.0
  0
LINE
  5
410
330
2
100
AcDbEntity
  8
画層1
  6
CENTER
 62
     0
100
AcDbLine
 10
187.4199999999999
 20
431.73
 30
0.0
 11
196.62
 21
431.73
 31
0.0
  0
LINE
  5
411
330
2
100
AcDbEntity
  8
画層1
  6
DASHED2
 62
     0
100
AcDbLine
 10
191.02
 20
441.73
 30
0.0
 11
193.02
 21
441.73
 31
0.0
  0
LINE
  5
412
330
2
100
AcDbEntity
  8
画層1
  6
DASHED2
 62
     0
100
AcDbLine
 10
317.42
 20
442.2299999999999
 30
0.0
 11
317.42
 21
85.23000000000001
 31
0.0
  0
LINE
  5
413
330
2
100
AcDbEntity
  8
画層1
 62
     0
100
AcDbLine
 10
319.0199999999999
 20
442.2299999999999
 30
0.0
 11
319.0199999999999
 21
85.23000000000001
 31
0.0
  0
LINE
  5
414
330
2
100
AcDbEntity
  8
画層1
  6
CENTER
 62
     0
100
AcDbLine
 10
314.42
 20
93.73000000000001
 30
0.0
 11
323.62
 21
93.73000000000001
 31
0.0
  0
LINE
  5
415
330
2
100
AcDbEntity
  8
画層1
  6
CENTER
 62
     0
100
AcDbLine
 10
314.42
 20
433.7299999999999
 30
0.0
 11
323.62
 21
433.7299999999999
 31
0.0
  0
ENDSEC
  0
SECTION
  2
OBJECTS
  0
DICTIONARY
  5
9
330
0
100
AcDbDictionary
281
     1
  3
ACAD_GROUP
350
23
  3
ACAD_LAYOUT
350
D
  3
ACAD_MLINESTYLE
350
24
  3
ACAD_PLOTSETTINGS
350
25
  3
ACAD_PLOTSTYLENAME
350
8
  3
DWGPROPS
350
4F3
  0
DICTIONARY
  5
3
330
2
100
AcDbDictionary
280
     1
281
     1
  3
ACAD_LAYOUTSELFREF
360
437
  0
DICTIONARY
  5
F
330
E
100
AcDbDictionary
280
     1
281
     1
  3
ACAD_LAYOUTSELFREF
360
438
  0
DICTIONARY
  5
23
102
{ACAD_REACTORS
330
9
102
}
330
9
100
AcDbDictionary
281
     1
  0
DICTIONARY
  5
D
102
{ACAD_REACTORS
330
9
102
}
330
9
100
AcDbDictionary
281
     1
  3
Model
350
448
  3
ﾚｲｱｳﾄ1
350
449
  0
DICTIONARY
  5
24
102
{ACAD_REACTORS
330
9
102
}
330
9
100
AcDbDictionary
281
     1
  3
STANDARD
350
34
  0
DICTIONARY
  5
25
102
{ACAD_REACTORS
330
9
102
}
330
9
100
AcDbDictionary
281
     1
  0
ACDBDICTIONARYWDFLT
  5
8
102
{ACAD_REACTORS
330
9
102
}
330
9
100
AcDbDictionary
281
     1
  3
Normal
350
7
100
AcDbDictionaryWithDefault
340
7
  0
XRECORD
  5
4F3
102
{ACAD_REACTORS
330
9
102
}
330
9
100
AcDbXrecord
280
     1
  1
DWGPROPS COOKIE
  2

  3

  4

  6

  7

  8

  9

300
=
301
=
302
=
303
=
304
=
305
=
306
=
307
=
308
=
309
=
 40
4.409162037037036
 41
2450995.462150231
 42
2451964.745158333
  1

 90
        0
  0
XRECORD
  5
437
102
{ACAD_REACTORS
330
3
102
}
330
3
100
AcDbXrecord
280
     1
340
2
  0
XRECORD
  5
438
102
{ACAD_REACTORS
330
F
102
}
330
F
100
AcDbXrecord
280
     1
340
E
  0
LAYOUT
  5
448
102
{ACAD_REACTORS
330
D
102
}
330
D
100
AcDbPlotSettings
  1

  2
EPSON MJ-6000C
  4

  6

 40
0.0
 41
0.0
 42
0.0
 43
0.0
 44
0.0
 45
0.0
 46
0.0
 47
0.0
 48
0.0
 49
0.0
140
0.0
141
0.0
142
1.0
143
1.0
 70
  1712
 72
     0
 73
     0
 74
     0
  7

 75
     0
147
1.0
148
0.0
149
0.0
100
AcDbLayout
  1
Model
 70
     1
 71
     0
 10
0.0
 20
0.0
 11
12.0
 21
9.0
 12
0.0
 22
0.0
 32
0.0
 14
0.0
 24
0.0
 34
0.0
 15
0.0
 25
0.0
 35
0.0
146
0.0
 13
0.0
 23
0.0
 33
0.0
 16
1.0
 26
0.0
 36
0.0
 17
0.0
 27
1.0
 37
0.0
 76
     0
330
2
  0
LAYOUT
  5
449
102
{ACAD_REACTORS
330
D
102
}
330
D
100
AcDbPlotSettings
  1

  2
EPSON MJ-6000C
  4

  6

 40
0.0
 41
0.0
 42
0.0
 43
0.0
 44
0.0
 45
0.0
 46
0.0
 47
0.0
 48
0.0
 49
0.0
140
0.0
141
0.0
142
1.0
143
1.0
 70
   688
 72
     0
 73
     0
 74
     5
  7

 75
    16
147
1.0
148
0.0
149
0.0
100
AcDbLayout
  1
ﾚｲｱｳﾄ1
 70
     1
 71
     1
 10
0.0
 20
0.0
 11
420.0
 21
297.0
 12
0.0
 22
0.0
 32
0.0
 14
1.000000000000000E+20
 24
1.000000000000000E+20
 34
1.000000000000000E+20
 15
-1.000000000000000E+20
 25
-1.000000000000000E+20
 35
-1.000000000000000E+20
146
0.0
 13
0.0
 23
0.0
 33
0.0
 16
1.0
 26
0.0
 36
0.0
 17
0.0
 27
1.0
 37
0.0
 76
     0
330
E
  0
MLINESTYLE
  5
34
102
{ACAD_REACTORS
330
24
102
}
330
24
100
AcDbMlineStyle
  2
STANDARD
 70
     0
  3

 62
   256
 51
90.0
 52
90.0
 71
     2
 49
0.5
 62
   256
  6
BYLAYER
 49
-0.5
 62
   256
  6
BYLAYER
  0
ACDBPLACEHOLDER
  5
7
102
{ACAD_REACTORS
330
8
102
}
330
8
  0
ENDSEC
  0
EOF
