  0
SECTION
  2
HEADER
  9
$ACADVER
  1
AC1015
  9
$ACADMAINTVER
 70
     6
  9
$DWGCODEPAGE
  3
ANSI_932
  9
$INSBASE
 10
0.0
 20
0.0
 30
0.0
  9
$EXTMIN
 10
-181.68
 20
72.34
 30
0.0
  9
$EXTMAX
 10
309.3199999999999
 20
439.0118781725888
 30
0.0
  9
$LIMMIN
 10
0.0
 20
0.0
  9
$LIMMAX
 10
420.0
 20
297.0
  9
$ORTHOMODE
 70
     0
  9
$REGENMODE
 70
     1
  9
$FILLMODE
 70
     1
  9
$QTEXTMODE
 70
     0
  9
$MIRRTEXT
 70
     1
  9
$LTSCALE
 40
0.2
  9
$ATTMODE
 70
     1
  9
$TEXTSIZE
 40
2.5
  9
$TRACEWID
 40
1.0
  9
$TEXTSTYLE
  7
STYLE1
  9
$CLAYER
  8
画層1
  9
$CELTYPE
  6
BYLAYER
  9
$CECOLOR
 62
     1
  9
$CELTSCALE
 40
1.0
  9
$DISPSILH
 70
     0
  9
$DIMSCALE
 40
1.0
  9
$DIMASZ
 40
1.5
  9
$DIMEXO
 40
0.63
  9
$DIMDLI
 40
3.75
  9
$DIMRND
 40
0.0
  9
$DIMDLE
 40
0.0
  9
$DIMEXE
 40
1.25
  9
$DIMTP
 40
0.6
  9
$DIMTM
 40
0.0
  9
$DIMTXT
 40
5.0
  9
$DIMCEN
 40
5.0
  9
$DIMTSZ
 40
0.0
  9
$DIMTOL
 70
     0
  9
$DIMLIM
 70
     0
  9
$DIMTIH
 70
     0
  9
$DIMTOH
 70
     0
  9
$DIMSE1
 70
     0
  9
$DIMSE2
 70
     0
  9
$DIMTAD
 70
     1
  9
$DIMZIN
 70
     8
  9
$DIMBLK
  1
OPEN30
  9
$DIMASO
 70
     1
  9
$DIMSHO
 70
     1
  9
$DIMPOST
  1

  9
$DIMAPOST
  1

  9
$DIMALT
 70
     0
  9
$DIMALTD
 70
     4
  9
$DIMALTF
 40
0.04
  9
$DIMLFAC
 40
1.0
  9
$DIMTOFL
 70
     1
  9
$DIMTVP
 40
0.0
  9
$DIMTIX
 70
     0
  9
$DIMSOXD
 70
     0
  9
$DIMSAH
 70
     0
  9
$DIMBLK1
  1

  9
$DIMBLK2
  1

  9
$DIMSTYLE
  2
STANDARD_WS
  9
$DIMCLRD
 70
     0
  9
$DIMCLRE
 70
     0
  9
$DIMCLRT
 70
     0
  9
$DIMTFAC
 40
0.5
  9
$DIMGAP
 40
0.63
  9
$DIMJUST
 70
     0
  9
$DIMSD1
 70
     0
  9
$DIMSD2
 70
     0
  9
$DIMTOLJ
 70
     1
  9
$DIMTZIN
 70
     8
  9
$DIMALTZ
 70
     0
  9
$DIMALTTZ
 70
     0
  9
$DIMUPT
 70
     0
  9
$DIMDEC
 70
     4
  9
$DIMTDEC
 70
     4
  9
$DIMALTU
 70
     8
  9
$DIMALTTD
 70
     4
  9
$DIMTXSTY
  7
STYLE1
  9
$DIMAUNIT
 70
     0
  9
$DIMADEC
 70
     0
  9
$DIMALTRND
 40
0.0
  9
$DIMAZIN
 70
     0
  9
$DIMDSEP
 70
    46
  9
$DIMATFIT
 70
     3
  9
$DIMFRAC
 70
     0
  9
$DIMLDRBLK
  1
OPEN30
  9
$DIMLUNIT
 70
     2
  9
$DIMLWD
 70
    -2
  9
$DIMLWE
 70
    -2
  9
$DIMTMOVE
 70
     0
  9
$LUNITS
 70
     2
  9
$LUPREC
 70
     4
  9
$SKETCHINC
 40
1.0
  9
$FILLETRAD
 40
0.5
  9
$AUNITS
 70
     0
  9
$AUPREC
 70
     0
  9
$MENU
  1
acad
  9
$ELEVATION
 40
0.0
  9
$PELEVATION
 40
0.0
  9
$THICKNESS
 40
0.0
  9
$LIMCHECK
 70
     0
  9
$CHAMFERA
 40
10.0
  9
$CHAMFERB
 40
10.0
  9
$CHAMFERC
 40
20.0
  9
$CHAMFERD
 40
0.0
  9
$SKPOLY
 70
     0
  9
$TDCREATE
 40
2450995.462150231
  9
$TDUCREATE
 40
2450995.087150231
  9
$TDUPDATE
 40
2451964.744618634
  9
$TDUUPDATE
 40
2451964.369618634
  9
$TDINDWG
 40
4.2258140046
  9
$TDUSRTIMER
 40
4.2258107639
  9
$USRTIMER
 70
     1
  9
$ANGBASE
 50
0.0
  9
$ANGDIR
 70
     0
  9
$PDMODE
 70
     0
  9
$PDSIZE
 40
0.0
  9
$PLINEWID
 40
10.0
  9
$SPLFRAME
 70
     0
  9
$SPLINETYPE
 70
     6
  9
$SPLINESEGS
 70
     8
  9
$HANDSEED
  5
478
  9
$SURFTAB1
 70
     6
  9
$SURFTAB2
 70
     6
  9
$SURFTYPE
 70
     6
  9
$SURFU
 70
     6
  9
$SURFV
 70
     6
  9
$UCSBASE
  2

  9
$UCSNAME
  2

  9
$UCSORG
 10
0.0
 20
0.0
 30
0.0
  9
$UCSXDIR
 10
1.0
 20
0.0
 30
0.0
  9
$UCSYDIR
 10
0.0
 20
1.0
 30
0.0
  9
$UCSORTHOREF
  2

  9
$UCSORTHOVIEW
 70
     0
  9
$UCSORGTOP
 10
0.0
 20
0.0
 30
0.0
  9
$UCSORGBOTTOM
 10
0.0
 20
0.0
 30
0.0
  9
$UCSORGLEFT
 10
0.0
 20
0.0
 30
0.0
  9
$UCSORGRIGHT
 10
0.0
 20
0.0
 30
0.0
  9
$UCSORGFRONT
 10
0.0
 20
0.0
 30
0.0
  9
$UCSORGBACK
 10
0.0
 20
0.0
 30
0.0
  9
$PUCSBASE
  2

  9
$PUCSNAME
  2

  9
$PUCSORG
 10
0.0
 20
0.0
 30
0.0
  9
$PUCSXDIR
 10
1.0
 20
0.0
 30
0.0
  9
$PUCSYDIR
 10
0.0
 20
1.0
 30
0.0
  9
$PUCSORTHOREF
  2

  9
$PUCSORTHOVIEW
 70
     0
  9
$PUCSORGTOP
 10
0.0
 20
0.0
 30
0.0
  9
$PUCSORGBOTTOM
 10
0.0
 20
0.0
 30
0.0
  9
$PUCSORGLEFT
 10
0.0
 20
0.0
 30
0.0
  9
$PUCSORGRIGHT
 10
0.0
 20
0.0
 30
0.0
  9
$PUCSORGFRONT
 10
0.0
 20
0.0
 30
0.0
  9
$PUCSORGBACK
 10
0.0
 20
0.0
 30
0.0
  9
$USERI1
 70
     0
  9
$USERI2
 70
     0
  9
$USERI3
 70
     0
  9
$USERI4
 70
     0
  9
$USERI5
 70
     0
  9
$USERR1
 40
0.0
  9
$USERR2
 40
0.0
  9
$USERR3
 40
0.0
  9
$USERR4
 40
0.0
  9
$USERR5
 40
0.0
  9
$WORLDVIEW
 70
     1
  9
$SHADEDGE
 70
     3
  9
$SHADEDIF
 70
    70
  9
$TILEMODE
 70
     1
  9
$MAXACTVP
 70
    48
  9
$PINSBASE
 10
0.0
 20
0.0
 30
0.0
  9
$PLIMCHECK
 70
     0
  9
$PEXTMIN
 10
27.84
 20
20.24999999999999
 30
0.0
  9
$PEXTMAX
 10
250.5999999999999
 20
182.21
 30
0.0
  9
$PLIMMIN
 10
-3.759999999999999
 20
-3.759999999999999
  9
$PLIMMAX
 10
293.2799999999999
 20
206.2899999999999
  9
$UNITMODE
 70
     0
  9
$VISRETAIN
 70
     1
  9
$PLINEGEN
 70
     0
  9
$PSLTSCALE
 70
     1
  9
$TREEDEPTH
 70
  3020
  9
$CMLSTYLE
  2
STANDARD
  9
$CMLJUST
 70
     0
  9
$CMLSCALE
 40
20.0
  9
$PROXYGRAPHICS
 70
     1
  9
$MEASUREMENT
 70
     1
  9
$CELWEIGHT
370
    -1
  9
$ENDCAPS
280
     0
  9
$JOINSTYLE
280
     0
  9
$LWDISPLAY
290
     0
  9
$INSUNITS
 70
     0
  9
$HYPERLINKBASE
  1

  9
$STYLESHEET
  1

  9
$XEDIT
290
     1
  9
$CEPSNTYPE
380
     0
  9
$PSTYLEMODE
290
     1
  9
$FINGERPRINTGUID
  2
{12426522-B208-11D3-A790-004026173390}
  9
$VERSIONGUID
  2
{45B34154-09AF-11D5-8D55-0060949B1DAC}
  9
$EXTNAMES
290
     1
  9
$PSVPSCALE
 40
0.0
  9
$OLESTARTUP
290
     0
  0
ENDSEC
  0
SECTION
  2
CLASSES
  0
CLASS
  1
DICTIONARYVAR
  2
AcDbDictionaryVar
  3
AutoCAD 2000
 90
    32768
280
     0
281
     0
  0
CLASS
  1
LWPOLYLINE
  2
AcDbPolyline
  3
AutoCAD 2000
 90
    32768
280
     0
281
     1
  0
CLASS
  1
OLE2FRAME
  2
AcDbOle2Frame
  3
AutoCAD 2000
 90
    32768
280
     0
281
     1
  0
CLASS
  1
HATCH
  2
AcDbHatch
  3
AutoCAD 2000
 90
    32768
280
     0
281
     1
  0
CLASS
  1
ACDBDICTIONARYWDFLT
  2
AcDbDictionaryWithDefault
  3
AutoCAD 2000
 90
        0
280
     0
281
     0
  0
CLASS
  1
ACDBPLACEHOLDER
  2
AcDbPlaceHolder
  3
AutoCAD 2000
 90
        0
280
     0
281
     0
  0
CLASS
  1
LAYOUT
  2
AcDbLayout
  3
AutoCAD 2000
 90
        0
280
     0
281
     0
  0
CLASS
  1
LONG_TRANSACTION
  2
AcDbLongTransaction
  3
AutoCAD 2000
 90
    32768
280
     0
281
     0
  0
CLASS
  1
LWPOLYLINE
  2
AcDbPolyline
  3
AutoCAD 2000
 90
    32768
280
     0
281
     1
  0
CLASS
  1
HATCH
  2
AcDbHatch
  3
AutoCAD 2000
 90
    32768
280
     0
281
     1
  0
CLASS
  1
XRECORD
  2
AcDbXrecord
  3
AutoCAD 2000
 90
    32768
280
     0
281
     0
  0
CLASS
  1
LONG_TRANSACTION
  2
AcDbLongTransaction
  3
AutoCAD 2000
 90
    32768
280
     0
281
     0
  0
CLASS
  1
LWPOLYLINE
  2
AcDbPolyline
  3
AutoCAD 2000
 90
    32768
280
     0
281
     1
  0
CLASS
  1
HATCH
  2
AcDbHatch
  3
AutoCAD 2000
 90
    32768
280
     0
281
     1
  0
CLASS
  1
XRECORD
  2
AcDbXrecord
  3
AutoCAD 2000
 90
    32768
280
     0
281
     0
  0
ENDSEC
  0
SECTION
  2
TABLES
  0
TABLE
  2
VPORT
  5
1E
330
0
100
AcDbSymbolTable
 70
     2
  0
VPORT
  5
477
330
1E
100
AcDbSymbolTableRecord
100
AcDbViewportTableRecord
  2
*Active
 70
     0
 10
0.0
 20
0.0
 11
1.0
 21
1.0
 12
130.21
 22
282.9788839228296
 13
0.0
 23
0.0
 14
1.0
 24
1.0
 15
2.0
 25
2.0
 16
0.0
 26
0.0
 36
1.0
 17
0.0
 27
0.0
 37
0.0
 40
515.0577678456592
 41
1.840236686390532
 42
50.0
 43
0.0
 44
0.0
 50
0.0
 51
0.0
 71
     0
 72
   100
 73
     1
 74
     1
 75
     0
 76
     0
 77
     0
 78
     0
281
     0
 65
     1
110
0.0
120
0.0
130
0.0
111
1.0
121
0.0
131
0.0
112
0.0
122
1.0
132
0.0
 79
     0
146
0.0
  0
ENDTAB
  0
TABLE
  2
LTYPE
  5
19
330
0
100
AcDbSymbolTable
 70
     3
  0
LTYPE
  5
1A
330
19
100
AcDbSymbolTableRecord
100
AcDbLinetypeTableRecord
  2
BYBLOCK
 70
     0
  3

 72
    65
 73
     0
 40
0.0
  0
LTYPE
  5
1B
330
19
100
AcDbSymbolTableRecord
100
AcDbLinetypeTableRecord
  2
BYLAYER
 70
     0
  3

 72
    65
 73
     0
 40
0.0
  0
LTYPE
  5
A
330
19
100
AcDbSymbolTableRecord
100
AcDbLinetypeTableRecord
  2
CONTINUOUS
 70
     0
  3
Solid line
 72
    65
 73
     0
 40
0.0
  0
LTYPE
  5
76
330
19
100
AcDbSymbolTableRecord
100
AcDbLinetypeTableRecord
  2
DASHED2
 70
     0
  3
Dashed (.5x) _ _ _ _ _ _ _ _ _ _ _ _ _ _ _ _ _
 72
    65
 73
     2
 40
9.519999999999999
 49
6.349999999999999
 74
     0
 49
-3.18
 74
     0
  0
LTYPE
  5
52
330
19
100
AcDbSymbolTableRecord
100
AcDbLinetypeTableRecord
  2
CENTER
 70
     0
  3
Center ____ _ ____ _ ____ _ ____ _ ____ _ ____
 72
    65
 73
     4
 40
50.8
 49
31.75
 74
     0
 49
-6.349999999999999
 74
     0
 49
6.349999999999999
 74
     0
 49
-6.349999999999999
 74
     0
  0
ENDTAB
  0
TABLE
  2
LAYER
  5
14
330
0
100
AcDbSymbolTable
 70
     3
  0
LAYER
  5
6
330
14
100
AcDbSymbolTableRecord
100
AcDbLayerTableRecord
  2
0
 70
     0
 62
     7
  6
CONTINUOUS
370
    -3
390
7
  0
LAYER
  5
3F
330
14
100
AcDbSymbolTableRecord
100
AcDbLayerTableRecord
  2
DEFPOINTS
 70
     0
 62
     7
  6
CONTINUOUS
290
     0
370
    -3
390
7
  0
LAYER
  5
2D
330
14
100
AcDbSymbolTableRecord
100
AcDbLayerTableRecord
  2
画層1
 70
     0
 62
     7
  6
CONTINUOUS
370
    -3
390
7
  0
ENDTAB
  0
TABLE
  2
STYLE
  5
15
330
0
100
AcDbSymbolTable
 70
     2
  0
STYLE
  5
16
330
15
100
AcDbSymbolTableRecord
100
AcDbTextStyleTableRecord
  2
STANDARD
 70
     0
 40
2.5
 41
1.0
 50
0.0
 71
     0
 42
1.5
  3
MS PMincho.ttf
  4

1001
ACAD
1000
MS PMincho
1071
    32786
  0
STYLE
  5
2E
330
15
100
AcDbSymbolTableRecord
100
AcDbTextStyleTableRecord
  2
STYLE1
 70
     0
 40
2.5
 41
1.0
 50
0.0
 71
     0
 42
2.5
  3
MS Gothic.ttf
  4

1001
ACAD
1000
MS Gothic
1071
    32817
  0
ENDTAB
  0
TABLE
  2
VIEW
  5
1C
330
0
100
AcDbSymbolTable
 70
     0
  0
ENDTAB
  0
TABLE
  2
UCS
  5
1D
330
0
100
AcDbSymbolTable
 70
     0
  0
ENDTAB
  0
TABLE
  2
APPID
  5
20
330
0
100
AcDbSymbolTable
 70
     1
  0
APPID
  5
17
330
20
100
AcDbSymbolTableRecord
100
AcDbRegAppTableRecord
  2
ACAD
 70
     0
  0
ENDTAB
  0
TABLE
  2
DIMSTYLE
  5
21
330
0
100
AcDbSymbolTable
 70
     1
100
AcDbDimStyleTable
 71
     0
  0
DIMSTYLE
105
22
102
{ACAD_REACTORS
330
188
330
195
330
62
330
55
330
8A
330
AE
330
12C
330
36
330
44
102
}
330
21
100
AcDbSymbolTableRecord
100
AcDbDimStyleTableRecord
  2
STANDARD_WS
 70
     0
 41
1.5
 42
0.63
 43
3.75
 44
1.25
 73
     0
 74
     0
 77
     1
 78
     8
140
2.5
141
2.5
143
0.04
147
0.63
171
     4
172
     1
173
     1
273
     8
274
     4
340
16
341
23
343
23
344
23
  0
ENDTAB
  0
TABLE
  2
BLOCK_RECORD
  5
1
330
0
100
AcDbSymbolTable
 70
    20
  0
BLOCK_RECORD
  5
2
102
{ACAD_XDICTIONARY
360
3
102
}
330
1
100
AcDbSymbolTableRecord
100
AcDbBlockTableRecord
  2
*MODEL_SPACE
340
403
  0
BLOCK_RECORD
  5
E
102
{ACAD_XDICTIONARY
360
F
102
}
330
1
100
AcDbSymbolTableRecord
100
AcDbBlockTableRecord
  2
*PAPER_SPACE
340
404
  0
BLOCK_RECORD
  5
23
330
1
100
AcDbSymbolTableRecord
100
AcDbBlockTableRecord
  2
_OPEN
340
0
  0
BLOCK_RECORD
  5
2F
330
1
100
AcDbSymbolTableRecord
100
AcDbBlockTableRecord
  2
_OPEN30
340
0
102
{BLKREFS
331
5A
331
5B
331
67
331
68
331
90
331
91
331
B3
331
B4
331
132
331
133
331
19A
331
19B
331
18D
331
18E
331
49
331
4A
331
3B
331
3C
331
40C
331
40D
331
418
331
419
331
424
331
425
331
431
331
432
331
43E
331
43F
331
44A
331
44B
331
456
331
457
331
462
331
463
331
46E
331
46F
102
}
  0
BLOCK_RECORD
  5
56
330
1
100
AcDbSymbolTableRecord
100
AcDbBlockTableRecord
  2
*D2
340
0
  0
BLOCK_RECORD
  5
63
330
1
100
AcDbSymbolTableRecord
100
AcDbBlockTableRecord
  2
*D3
340
0
  0
BLOCK_RECORD
  5
8B
330
1
100
AcDbSymbolTableRecord
100
AcDbBlockTableRecord
  2
*D4
340
0
  0
BLOCK_RECORD
  5
AF
330
1
100
AcDbSymbolTableRecord
100
AcDbBlockTableRecord
  2
*D5
340
0
  0
BLOCK_RECORD
  5
12D
330
1
100
AcDbSymbolTableRecord
100
AcDbBlockTableRecord
  2
*D6
340
0
  0
BLOCK_RECORD
  5
196
330
1
100
AcDbSymbolTableRecord
100
AcDbBlockTableRecord
  2
*D7
340
0
  0
BLOCK_RECORD
  5
189
330
1
100
AcDbSymbolTableRecord
100
AcDbBlockTableRecord
  2
*D8
340
0
  0
BLOCK_RECORD
  5
45
330
1
100
AcDbSymbolTableRecord
100
AcDbBlockTableRecord
  2
*D9
340
0
  0
BLOCK_RECORD
  5
37
330
1
100
AcDbSymbolTableRecord
100
AcDbBlockTableRecord
  2
*D10
340
0
  0
BLOCK_RECORD
  5
408
330
1
100
AcDbSymbolTableRecord
100
AcDbBlockTableRecord
  2
*D11
340
0
  0
BLOCK_RECORD
  5
414
330
1
100
AcDbSymbolTableRecord
100
AcDbBlockTableRecord
  2
*D12
340
0
  0
BLOCK_RECORD
  5
420
330
1
100
AcDbSymbolTableRecord
100
AcDbBlockTableRecord
  2
*D13
340
0
  0
BLOCK_RECORD
  5
42C
330
1
100
AcDbSymbolTableRecord
100
AcDbBlockTableRecord
  2
*D14
340
0
  0
BLOCK_RECORD
  5
439
330
1
100
AcDbSymbolTableRecord
100
AcDbBlockTableRecord
  2
*D15
340
0
  0
BLOCK_RECORD
  5
446
330
1
100
AcDbSymbolTableRecord
100
AcDbBlockTableRecord
  2
*D16
340
0
  0
BLOCK_RECORD
  5
452
330
1
100
AcDbSymbolTableRecord
100
AcDbBlockTableRecord
  2
*D17
340
0
  0
BLOCK_RECORD
  5
45E
330
1
100
AcDbSymbolTableRecord
100
AcDbBlockTableRecord
  2
*D18
340
0
  0
BLOCK_RECORD
  5
46A
330
1
100
AcDbSymbolTableRecord
100
AcDbBlockTableRecord
  2
*D19
340
0
  0
ENDTAB
  0
ENDSEC
  0
SECTION
  2
BLOCKS
  0
BLOCK
  5
5
330
2
100
AcDbEntity
  8
0
100
AcDbBlockBegin
  2
*MODEL_SPACE
 70
     0
 10
0.0
 20
0.0
 30
0.0
  3
*MODEL_SPACE
  1

  0
ENDBLK
  5
B
330
2
100
AcDbEntity
  8
0
100
AcDbBlockEnd
  0
BLOCK
  5
11
330
E
100
AcDbEntity
 67
     1
  8
0
100
AcDbBlockBegin
  2
*PAPER_SPACE
 70
     0
 10
0.0
 20
0.0
 30
0.0
  3
*PAPER_SPACE
  1

  0
ENDBLK
  5
12
330
E
100
AcDbEntity
 67
     1
  8
0
100
AcDbBlockEnd
  0
BLOCK
  5
27
330
23
100
AcDbEntity
  8
0
100
AcDbBlockBegin
  2
_OPEN
 70
     0
 10
0.0
 20
0.0
 30
0.0
  3
_OPEN
  1

  0
LINE
  5
24
330
23
100
AcDbEntity
  8
0
  6
ByBlock
 62
     0
100
AcDbLine
 10
-1.0
 20
0.17
 30
0.0
 11
0.0
 21
0.0
 31
0.0
  0
LINE
  5
25
330
23
100
AcDbEntity
  8
0
  6
ByBlock
 62
     0
100
AcDbLine
 10
0.0
 20
0.0
 30
0.0
 11
-1.0
 21
-0.17
 31
0.0
  0
LINE
  5
26
330
23
100
AcDbEntity
  8
0
  6
ByBlock
 62
     0
100
AcDbLine
 10
0.0
 20
0.0
 30
0.0
 11
-1.0
 21
0.0
 31
0.0
  0
ENDBLK
  5
28
330
23
100
AcDbEntity
  8
0
100
AcDbBlockEnd
  0
BLOCK
  5
33
330
2F
100
AcDbEntity
  8
0
100
AcDbBlockBegin
  2
_OPEN30
 70
     0
 10
0.0
 20
0.0
 30
0.0
  3
_OPEN30
  1

  0
LINE
  5
30
330
2F
100
AcDbEntity
  8
0
  6
ByBlock
 62
     0
100
AcDbLine
 10
-1.0
 20
0.27
 30
0.0
 11
0.0
 21
0.0
 31
0.0
  0
LINE
  5
31
330
2F
100
AcDbEntity
  8
0
  6
ByBlock
 62
     0
100
AcDbLine
 10
0.0
 20
0.0
 30
0.0
 11
-1.0
 21
-0.27
 31
0.0
  0
LINE
  5
32
330
2F
100
AcDbEntity
  8
0
  6
ByBlock
 62
     0
100
AcDbLine
 10
0.0
 20
0.0
 30
0.0
 11
-1.0
 21
0.0
 31
0.0
  0
ENDBLK
  5
34
330
2F
100
AcDbEntity
  8
0
100
AcDbBlockEnd
  0
BLOCK
  5
60
330
56
100
AcDbEntity
  8
0
 62
     1
100
AcDbBlockBegin
  2
*D2
 70
     1
 10
0.0
 20
0.0
 30
0.0
  3
*D2
  1

  0
LINE
  5
57
330
56
100
AcDbEntity
  8
画層1
 62
     0
100
AcDbLine
 10
22.94999999999999
 20
87.59
 30
0.0
 11
51.57
 21
87.59
 31
0.0
  0
LINE
  5
58
330
56
100
AcDbEntity
  8
画層1
 62
     0
100
AcDbLine
 10
22.94999999999999
 20
407.5899999999999
 30
0.0
 11
51.57
 21
407.5899999999999
 31
0.0
  0
LINE
  5
59
330
56
100
AcDbEntity
  8
画層1
 62
     0
100
AcDbLine
 10
50.32
 20
89.09
 30
0.0
 11
50.32
 21
406.09
 31
0.0
  0
INSERT
  5
5A
330
56
100
AcDbEntity
  8
画層1
 62
     0
100
AcDbBlockReference
  2
_OPEN30
 10
50.32
 20
87.59
 30
0.0
 41
1.5
 42
1.5
 43
1.5
 50
270.0
  0
INSERT
  5
5B
330
56
100
AcDbEntity
  8
画層1
 62
     0
100
AcDbBlockReference
  2
_OPEN30
 10
50.32
 20
407.5899999999999
 30
0.0
 41
1.5
 42
1.5
 43
1.5
 50
90.0
  0
MTEXT
  5
5C
330
56
100
AcDbEntity
  8
画層1
 62
     0
100
AcDbMText
 10
48.44
 20
247.59
 30
0.0
 40
2.5
 41
0.0
 71
     5
 72
     1
  1
\A1;320
  7
STYLE1
 11
0.0
 21
1.0
 31
0.0
 73
     1
 44
1.0
1001
ACAD
1000
MTEXTBEGIN
1070
    73
1070
     1
1070
    44
1040
1.0
1070
    74
1070
     0
1000
MTEXTEND
  0
POINT
  5
5D
330
56
100
AcDbEntity
  8
DEFPOINTS
 62
     0
100
AcDbPoint
 10
22.32
 20
87.59
 30
0.0
  0
POINT
  5
5E
330
56
100
AcDbEntity
  8
DEFPOINTS
 62
     0
100
AcDbPoint
 10
22.32
 20
407.5899999999999
 30
0.0
  0
POINT
  5
5F
330
56
100
AcDbEntity
  8
DEFPOINTS
 62
     0
100
AcDbPoint
 10
50.32
 20
407.5899999999999
 30
0.0
  0
ENDBLK
  5
61
330
56
100
AcDbEntity
  8
0
 62
     1
100
AcDbBlockEnd
  0
BLOCK
  5
6D
330
63
100
AcDbEntity
  8
0
 62
     1
100
AcDbBlockBegin
  2
*D3
 70
     1
 10
0.0
 20
0.0
 30
0.0
  3
*D3
  1

  0
LINE
  5
64
330
63
100
AcDbEntity
  8
画層1
 62
     0
100
AcDbLine
 10
-25.55
 20
397.5899999999999
 30
0.0
 11
37.57
 21
397.5899999999999
 31
0.0
  0
LINE
  5
65
330
63
100
AcDbEntity
  8
画層1
 62
     0
100
AcDbLine
 10
-25.55
 20
97.59
 30
0.0
 11
37.57
 21
97.59
 31
0.0
  0
LINE
  5
66
330
63
100
AcDbEntity
  8
画層1
 62
     0
100
AcDbLine
 10
36.32
 20
396.0899999999999
 30
0.0
 11
36.32
 21
99.09
 31
0.0
  0
INSERT
  5
67
330
63
100
AcDbEntity
  8
画層1
 62
     0
100
AcDbBlockReference
  2
_OPEN30
 10
36.32
 20
397.5899999999999
 30
0.0
 41
1.5
 42
1.5
 43
1.5
 50
90.0
  0
INSERT
  5
68
330
63
100
AcDbEntity
  8
画層1
 62
     0
100
AcDbBlockReference
  2
_OPEN30
 10
36.32
 20
97.59
 30
0.0
 41
1.5
 42
1.5
 43
1.5
 50
270.0
  0
MTEXT
  5
69
330
63
100
AcDbEntity
  8
画層1
 62
     0
100
AcDbMText
 10
34.43999999999999
 20
247.59
 30
0.0
 40
2.5
 41
0.0
 71
     5
 72
     1
  1
\A1;300
  7
STYLE1
 11
0.0
 21
1.0
 31
0.0
 73
     1
 44
1.0
1001
ACAD
1000
MTEXTBEGIN
1070
    73
1070
     1
1070
    44
1040
1.0
1070
    74
1070
     0
1000
MTEXTEND
  0
POINT
  5
6A
330
63
100
AcDbEntity
  8
DEFPOINTS
 62
     0
100
AcDbPoint
 10
-26.18
 20
397.5899999999999
 30
0.0
  0
POINT
  5
6B
330
63
100
AcDbEntity
  8
DEFPOINTS
 62
     0
100
AcDbPoint
 10
-26.18
 20
97.59
 30
0.0
  0
POINT
  5
6C
330
63
100
AcDbEntity
  8
DEFPOINTS
 62
     0
100
AcDbPoint
 10
36.32
 20
97.59
 30
0.0
  0
ENDBLK
  5
6E
330
63
100
AcDbEntity
  8
0
 62
     1
100
AcDbBlockEnd
  0
BLOCK
  5
96
330
8B
100
AcDbEntity
  8
0
 62
     1
100
AcDbBlockBegin
  2
*D4
 70
     1
 10
0.0
 20
0.0
 30
0.0
  3
*D4
  1

  0
LINE
  5
8C
330
8B
100
AcDbEntity
  8
画層1
 62
     0
100
AcDbLine
 10
-122.31
 20
87.59
 30
0.0
 11
-126.93
 21
87.59
 31
0.0
  0
LINE
  5
8D
330
8B
100
AcDbEntity
  8
画層1
 62
     0
100
AcDbLine
 10
-119.8099999999999
 20
98.59000000000001
 30
0.0
 11
-126.93
 21
98.59000000000001
 31
0.0
  0
LINE
  5
8E
330
8B
100
AcDbEntity
  8
画層1
 62
     0
100
AcDbLine
 10
-125.68
 20
97.09000000000001
 30
0.0
 11
-125.68
 21
89.09
 31
0.0
  0
LINE
  5
8F
330
8B
100
AcDbEntity
  8
画層1
 62
     0
100
AcDbLine
 10
-125.68
 20
87.59
 30
0.0
 11
-125.68
 21
78.14
 31
0.0
  0
INSERT
  5
90
330
8B
100
AcDbEntity
  8
画層1
 62
     0
100
AcDbBlockReference
  2
_OPEN30
 10
-125.68
 20
98.59000000000001
 30
0.0
 41
1.5
 42
1.5
 43
1.5
 50
90.0
  0
INSERT
  5
91
330
8B
100
AcDbEntity
  8
画層1
 62
     0
100
AcDbBlockReference
  2
_OPEN30
 10
-125.68
 20
87.59
 30
0.0
 41
1.5
 42
1.5
 43
1.5
 50
270.0
  0
MTEXT
  5
92
330
8B
100
AcDbEntity
  8
画層1
 62
     0
100
AcDbMText
 10
-127.56
 20
80.05
 30
0.0
 40
2.5
 41
0.0
 71
     5
 72
     1
  1
\A1;11
  7
STYLE1
 11
0.0
 21
1.0
 31
0.0
 73
     1
 44
1.0
1001
ACAD
1000
MTEXTBEGIN
1070
    73
1070
     1
1070
    44
1040
1.0
1070
    74
1070
     0
1000
MTEXTEND
  0
POINT
  5
93
330
8B
100
AcDbEntity
  8
DEFPOINTS
 62
     0
100
AcDbPoint
 10
-121.68
 20
87.59
 30
0.0
  0
POINT
  5
94
330
8B
100
AcDbEntity
  8
DEFPOINTS
 62
     0
100
AcDbPoint
 10
-119.18
 20
98.59000000000001
 30
0.0
  0
POINT
  5
95
330
8B
100
AcDbEntity
  8
DEFPOINTS
 62
     0
100
AcDbPoint
 10
-125.68
 20
98.59000000000001
 30
0.0
  0
ENDBLK
  5
97
330
8B
100
AcDbEntity
  8
0
 62
     1
100
AcDbBlockEnd
  0
BLOCK
  5
B9
330
AF
100
AcDbEntity
  8
0
 62
     1
100
AcDbBlockBegin
  2
*D5
 70
     1
 10
0.0
 20
0.0
 30
0.0
  3
*D5
  1

  0
LINE
  5
B0
330
AF
100
AcDbEntity
  8
画層1
 62
     0
100
AcDbLine
 10
-94.18000000000001
 20
101.4599999999999
 30
0.0
 11
-94.18000000000001
 21
72.34
 31
0.0
  0
LINE
  5
B1
330
AF
100
AcDbEntity
  8
画層1
 62
     0
100
AcDbLine
 10
-83.18000000000001
 20
101.4599999999999
 30
0.0
 11
-83.18000000000001
 21
72.34
 31
0.0
  0
LINE
  5
B2
330
AF
100
AcDbEntity
  8
画層1
 62
     0
100
AcDbLine
 10
-92.68
 20
73.59
 30
0.0
 11
-84.68000000000001
 21
73.59
 31
0.0
  0
INSERT
  5
B3
330
AF
100
AcDbEntity
  8
画層1
 62
     0
100
AcDbBlockReference
  2
_OPEN30
 10
-94.18000000000001
 20
73.59
 30
0.0
 41
1.5
 42
1.5
 43
1.5
 50
180.0
  0
INSERT
  5
B4
330
AF
100
AcDbEntity
  8
画層1
 62
     0
100
AcDbBlockReference
  2
_OPEN30
 10
-83.18000000000001
 20
73.59
 30
0.0
 41
1.5
 42
1.5
 43
1.5
  0
MTEXT
  5
B5
330
AF
100
AcDbEntity
  8
画層1
 62
     0
100
AcDbMText
 10
-88.68
 20
75.47
 30
0.0
 40
2.5
 41
0.0
 71
     5
 72
     1
  1
\A1;11
  7
STYLE1
 73
     1
 44
1.0
1001
ACAD
1000
MTEXTBEGIN
1070
    73
1070
     1
1070
    44
1040
1.0
1070
    74
1070
     0
1000
MTEXTEND
  0
POINT
  5
B6
330
AF
100
AcDbEntity
  8
DEFPOINTS
 62
     0
100
AcDbPoint
 10
-94.18000000000001
 20
102.09
 30
0.0
  0
POINT
  5
B7
330
AF
100
AcDbEntity
  8
DEFPOINTS
 62
     0
100
AcDbPoint
 10
-83.18000000000001
 20
102.09
 30
0.0
  0
POINT
  5
B8
330
AF
100
AcDbEntity
  8
DEFPOINTS
 62
     0
100
AcDbPoint
 10
-83.18000000000001
 20
73.59
 30
0.0
  0
ENDBLK
  5
BA
330
AF
100
AcDbEntity
  8
0
 62
     1
100
AcDbBlockEnd
  0
BLOCK
  5
138
330
12D
100
AcDbEntity
  8
0
 62
     1
100
AcDbBlockBegin
  2
*D6
 70
     1
 10
0.0
 20
0.0
 30
0.0
  3
*D6
  1

  0
LINE
  5
12E
330
12D
100
AcDbEntity
  8
画層1
 62
     0
100
AcDbLine
 10
-22.17999999999999
 20
88.95999999999999
 30
0.0
 11
-22.17999999999999
 21
72.34
 31
0.0
  0
LINE
  5
12F
330
12D
100
AcDbEntity
  8
画層1
 62
     0
100
AcDbLine
 10
-13.18
 20
88.95999999999999
 30
0.0
 11
-13.18
 21
72.34
 31
0.0
  0
LINE
  5
130
330
12D
100
AcDbEntity
  8
画層1
 62
     0
100
AcDbLine
 10
-20.68
 20
73.59
 30
0.0
 11
-14.67999999999999
 21
73.59
 31
0.0
  0
LINE
  5
131
330
12D
100
AcDbEntity
  8
画層1
 62
     0
100
AcDbLine
 10
-13.18
 20
73.59
 30
0.0
 11
9.14
 21
73.59
 31
0.0
  0
INSERT
  5
132
330
12D
100
AcDbEntity
  8
画層1
 62
     0
100
AcDbBlockReference
  2
_OPEN30
 10
-22.17999999999999
 20
73.59
 30
0.0
 41
1.5
 42
1.5
 43
1.5
 50
180.0
  0
INSERT
  5
133
330
12D
100
AcDbEntity
  8
画層1
 62
     0
100
AcDbBlockReference
  2
_OPEN30
 10
-13.18
 20
73.59
 30
0.0
 41
1.5
 42
1.5
 43
1.5
  0
MTEXT
  5
134
330
12D
100
AcDbEntity
  8
画層1
 62
     0
100
AcDbMText
 10
-1.27
 20
75.79
 30
0.0
 40
2.5
 41
0.0
 71
     5
 72
     1
  1
\A1;2-9キリカキ
  7
STYLE1
 73
     1
 44
1.0
1001
ACAD
1000
MTEXTBEGIN
1070
    73
1070
     1
1070
    44
1040
1.0
1070
    74
1070
     0
1000
MTEXTEND
  0
POINT
  5
135
330
12D
100
AcDbEntity
  8
DEFPOINTS
 62
     0
100
AcDbPoint
 10
-22.17999999999999
 20
89.59000000000001
 30
0.0
  0
POINT
  5
136
330
12D
100
AcDbEntity
  8
DEFPOINTS
 62
     0
100
AcDbPoint
 10
-13.18
 20
89.59000000000001
 30
0.0
  0
POINT
  5
137
330
12D
100
AcDbEntity
  8
DEFPOINTS
 62
     0
100
AcDbPoint
 10
-13.18
 20
73.59
 30
0.0
  0
ENDBLK
  5
139
330
12D
100
AcDbEntity
  8
0
 62
     1
100
AcDbBlockEnd
  0
BLOCK
  5
1A0
330
196
100
AcDbEntity
  8
0
 62
     1
100
AcDbBlockBegin
  2
*D7
 70
     1
 10
0.0
 20
0.0
 30
0.0
  3
*D7
  1

  0
LINE
  5
197
330
196
100
AcDbEntity
  8
画層1
 62
     0
100
AcDbLine
 10
-177.68
 20
408.22
 30
0.0
 11
-177.68
 21
436.84
 31
0.0
  0
LINE
  5
198
330
196
100
AcDbEntity
  8
画層1
 62
     0
100
AcDbLine
 10
22.32
 20
408.22
 30
0.0
 11
22.32
 21
436.84
 31
0.0
  0
LINE
  5
199
330
196
100
AcDbEntity
  8
画層1
 62
     0
100
AcDbLine
 10
-176.18
 20
435.59
 30
0.0
 11
20.82
 21
435.59
 31
0.0
  0
INSERT
  5
19A
330
196
100
AcDbEntity
  8
画層1
 62
     0
100
AcDbBlockReference
  2
_OPEN30
 10
-177.68
 20
435.59
 30
0.0
 41
1.5
 42
1.5
 43
1.5
 50
180.0
  0
INSERT
  5
19B
330
196
100
AcDbEntity
  8
画層1
 62
     0
100
AcDbBlockReference
  2
_OPEN30
 10
22.32
 20
435.59
 30
0.0
 41
1.5
 42
1.5
 43
1.5
  0
MTEXT
  5
19C
330
196
100
AcDbEntity
  8
画層1
 62
     0
100
AcDbMText
 10
-77.68
 20
437.47
 30
0.0
 40
2.5
 41
0.0
 71
     5
 72
     1
  1
\A1;200
  7
STYLE1
 73
     1
 44
1.0
1001
ACAD
1000
MTEXTBEGIN
1070
    73
1070
     1
1070
    44
1040
1.0
1070
    74
1070
     0
1000
MTEXTEND
  0
POINT
  5
19D
330
196
100
AcDbEntity
  8
DEFPOINTS
 62
     0
100
AcDbPoint
 10
-177.68
 20
407.5899999999999
 30
0.0
  0
POINT
  5
19E
330
196
100
AcDbEntity
  8
DEFPOINTS
 62
     0
100
AcDbPoint
 10
22.32
 20
407.5899999999999
 30
0.0
  0
POINT
  5
19F
330
196
100
AcDbEntity
  8
DEFPOINTS
 62
     0
100
AcDbPoint
 10
22.32
 20
435.59
 30
0.0
  0
ENDBLK
  5
1A1
330
196
100
AcDbEntity
  8
0
 62
     1
100
AcDbBlockEnd
  0
BLOCK
  5
193
330
189
100
AcDbEntity
  8
0
 62
     1
100
AcDbBlockBegin
  2
*D8
 70
     1
 10
0.0
 20
0.0
 30
0.0
  3
*D8
  1

  0
LINE
  5
18A
330
189
100
AcDbEntity
  8
画層1
 62
     0
100
AcDbLine
 10
-137.68
 20
389.72
 30
0.0
 11
-137.68
 21
422.8399999999999
 31
0.0
  0
LINE
  5
18B
330
189
100
AcDbEntity
  8
画層1
 62
     0
100
AcDbLine
 10
-17.67999999999999
 20
389.72
 30
0.0
 11
-17.67999999999999
 21
422.8399999999999
 31
0.0
  0
LINE
  5
18C
330
189
100
AcDbEntity
  8
画層1
 62
     0
100
AcDbLine
 10
-136.18
 20
421.5899999999999
 30
0.0
 11
-19.18
 21
421.5899999999999
 31
0.0
  0
INSERT
  5
18D
330
189
100
AcDbEntity
  8
画層1
 62
     0
100
AcDbBlockReference
  2
_OPEN30
 10
-137.68
 20
421.5899999999999
 30
0.0
 41
1.5
 42
1.5
 43
1.5
 50
180.0
  0
INSERT
  5
18E
330
189
100
AcDbEntity
  8
画層1
 62
     0
100
AcDbBlockReference
  2
_OPEN30
 10
-17.67999999999999
 20
421.5899999999999
 30
0.0
 41
1.5
 42
1.5
 43
1.5
  0
MTEXT
  5
18F
330
189
100
AcDbEntity
  8
画層1
 62
     0
100
AcDbMText
 10
-77.68
 20
423.47
 30
0.0
 40
2.5
 41
0.0
 71
     5
 72
     1
  1
\A1;120
  7
STYLE1
 73
     1
 44
1.0
1001
ACAD
1000
MTEXTBEGIN
1070
    73
1070
     1
1070
    44
1040
1.0
1070
    74
1070
     0
1000
MTEXTEND
  0
POINT
  5
190
330
189
100
AcDbEntity
  8
DEFPOINTS
 62
     0
100
AcDbPoint
 10
-137.68
 20
389.0899999999999
 30
0.0
  0
POINT
  5
191
330
189
100
AcDbEntity
  8
DEFPOINTS
 62
     0
100
AcDbPoint
 10
-17.67999999999999
 20
389.0899999999999
 30
0.0
  0
POINT
  5
192
330
189
100
AcDbEntity
  8
DEFPOINTS
 62
     0
100
AcDbPoint
 10
-17.67999999999999
 20
421.5899999999999
 30
0.0
  0
ENDBLK
  5
194
330
189
100
AcDbEntity
  8
0
 62
     1
100
AcDbBlockEnd
  0
BLOCK
  5
4F
330
45
100
AcDbEntity
  8
0
 62
     1
100
AcDbBlockBegin
  2
*D9
 70
     1
 10
0.0
 20
0.0
 30
0.0
  3
*D9
  1

  0
LINE
  5
46
330
45
100
AcDbEntity
  8
画層1
 62
     0
100
AcDbLine
 10
305.3199999999999
 20
88.46
 30
0.0
 11
305.3199999999999
 21
72.34
 31
0.0
  0
LINE
  5
47
330
45
100
AcDbEntity
  8
画層1
 62
     0
100
AcDbLine
 10
175.3199999999999
 20
88.95999999999999
 30
0.0
 11
175.3199999999999
 21
72.34
 31
0.0
  0
LINE
  5
48
330
45
100
AcDbEntity
  8
画層1
 62
     0
100
AcDbLine
 10
303.8199999999999
 20
73.59
 30
0.0
 11
176.82
 21
73.59
 31
0.0
  0
INSERT
  5
49
330
45
100
AcDbEntity
  8
画層1
 62
     0
100
AcDbBlockReference
  2
_OPEN30
 10
305.3199999999999
 20
73.59
 30
0.0
 41
1.5
 42
1.5
 43
1.5
  0
INSERT
  5
4A
330
45
100
AcDbEntity
  8
画層1
 62
     0
100
AcDbBlockReference
  2
_OPEN30
 10
175.3199999999999
 20
73.59
 30
0.0
 41
1.5
 42
1.5
 43
1.5
 50
180.0
  0
MTEXT
  5
4B
330
45
100
AcDbEntity
  8
画層1
 62
     0
100
AcDbMText
 10
240.32
 20
75.47
 30
0.0
 40
2.5
 41
0.0
 71
     5
 72
     1
  1
\A1;130
  7
STYLE1
 73
     1
 44
1.0
1001
ACAD
1000
MTEXTBEGIN
1070
    73
1070
     1
1070
    44
1040
1.0
1070
    74
1070
     0
1000
MTEXTEND
  0
POINT
  5
4C
330
45
100
AcDbEntity
  8
DEFPOINTS
 62
     0
100
AcDbPoint
 10
305.3199999999999
 20
89.09
 30
0.0
  0
POINT
  5
4D
330
45
100
AcDbEntity
  8
DEFPOINTS
 62
     0
100
AcDbPoint
 10
175.3199999999999
 20
89.59000000000001
 30
0.0
  0
POINT
  5
4E
330
45
100
AcDbEntity
  8
DEFPOINTS
 62
     0
100
AcDbPoint
 10
175.3199999999999
 20
73.59
 30
0.0
  0
ENDBLK
  5
50
330
45
100
AcDbEntity
  8
0
 62
     1
100
AcDbBlockEnd
  0
BLOCK
  5
42
330
37
100
AcDbEntity
  8
0
 62
     1
100
AcDbBlockBegin
  2
*D10
 70
     1
 10
0.0
 20
0.0
 30
0.0
  3
*D10
  1

  0
LINE
  5
38
330
37
100
AcDbEntity
  8
画層1
 62
     0
100
AcDbLine
 10
305.3199999999999
 20
406.72
 30
0.0
 11
305.3199999999999
 21
436.84
 31
0.0
  0
LINE
  5
39
330
37
100
AcDbEntity
  8
画層1
 62
     0
100
AcDbLine
 10
120.32
 20
394.8199999999999
 30
0.0
 11
120.32
 21
436.84
 31
0.0
  0
LINE
  5
3A
330
37
100
AcDbEntity
  8
画層1
 62
     0
100
AcDbLine
 10
303.8199999999999
 20
435.59
 30
0.0
 11
121.8199999999999
 21
435.59
 31
0.0
  0
INSERT
  5
3B
330
37
100
AcDbEntity
  8
画層1
 62
     0
100
AcDbBlockReference
  2
_OPEN30
 10
305.3199999999999
 20
435.59
 30
0.0
 41
1.5
 42
1.5
 43
1.5
  0
INSERT
  5
3C
330
37
100
AcDbEntity
  8
画層1
 62
     0
100
AcDbBlockReference
  2
_OPEN30
 10
120.32
 20
435.59
 30
0.0
 41
1.5
 42
1.5
 43
1.5
 50
180.0
  0
MTEXT
  5
3D
330
37
100
AcDbEntity
  8
画層1
 62
     0
100
AcDbMText
 10
212.82
 20
437.47
 30
0.0
 40
2.5
 41
0.0
 71
     5
 72
     1
  1
\A1;185
  7
STYLE1
 73
     1
 44
1.0
1001
ACAD
1000
MTEXTBEGIN
1070
    73
1070
     1
1070
    44
1040
1.0
1070
    74
1070
     0
1000
MTEXTEND
  0
POINT
  5
3E
330
37
100
AcDbEntity
  8
DEFPOINTS
 62
     0
100
AcDbPoint
 10
305.3199999999999
 20
406.09
 30
0.0
  0
POINT
  5
40
330
37
100
AcDbEntity
  8
DEFPOINTS
 62
     0
100
AcDbPoint
 10
120.32
 20
394.19
 30
0.0
  0
POINT
  5
41
330
37
100
AcDbEntity
  8
DEFPOINTS
 62
     0
100
AcDbPoint
 10
120.32
 20
435.59
 30
0.0
  0
ENDBLK
  5
43
330
37
100
AcDbEntity
  8
0
 62
     1
100
AcDbBlockEnd
  0
BLOCK
  5
412
330
408
100
AcDbEntity
  8
0
 62
     1
100
AcDbBlockBegin
  2
*D11
 70
     1
 10
0.0
 20
0.0
 30
0.0
  3
*D11
  1

  0
LINE
  5
409
330
408
100
AcDbEntity
  8
画層1
 62
     0
370
    -2
100
AcDbLine
 10
-25.55
 20
397.5899999999999
 30
0.0
 11
37.57000000000006
 21
397.5899999999999
 31
0.0
  0
LINE
  5
40A
330
408
100
AcDbEntity
  8
画層1
 62
     0
370
    -2
100
AcDbLine
 10
-25.55
 20
97.59
 30
0.0
 11
37.57
 21
97.59
 31
0.0
  0
LINE
  5
40B
330
408
100
AcDbEntity
  8
画層1
 62
     0
370
    -2
100
AcDbLine
 10
36.32000000000006
 20
396.0899999999999
 30
0.0
 11
36.32
 21
99.08999999999998
 31
0.0
  0
INSERT
  5
40C
330
408
100
AcDbEntity
  8
画層1
 62
     0
370
    -2
100
AcDbBlockReference
  2
_OPEN30
 10
36.32000000000006
 20
397.5899999999999
 30
0.0
 41
1.5
 42
1.5
 43
1.5
 50
90.0
  0
INSERT
  5
40D
330
408
100
AcDbEntity
  8
画層1
 62
     0
370
    -2
100
AcDbBlockReference
  2
_OPEN30
 10
36.32
 20
97.59
 30
0.0
 41
1.5
 42
1.5
 43
1.5
 50
270.0
  0
MTEXT
  5
40E
330
408
100
AcDbEntity
  8
画層1
 62
     0
100
AcDbMText
 10
34.43999999999999
 20
247.5899999999999
 30
0.0
 40
2.5
 41
0.0
 71
     5
 72
     1
  1
\A1;300
  7
STYLE1
 11
0.0000000000000001
 21
1.0
 31
0.0
 73
     1
 44
1.0
  0
POINT
  5
40F
330
408
100
AcDbEntity
  8
DEFPOINTS
 62
     0
100
AcDbPoint
 10
-26.18
 20
397.5899999999999
 30
0.0
  0
POINT
  5
410
330
408
100
AcDbEntity
  8
DEFPOINTS
 62
     0
100
AcDbPoint
 10
-26.18
 20
97.59
 30
0.0
  0
POINT
  5
411
330
408
100
AcDbEntity
  8
DEFPOINTS
 62
     0
100
AcDbPoint
 10
36.32
 20
97.59
 30
0.0
  0
ENDBLK
  5
413
330
408
100
AcDbEntity
  8
0
 62
     1
100
AcDbBlockEnd
  0
BLOCK
  5
41E
330
414
100
AcDbEntity
  8
0
 62
     1
100
AcDbBlockBegin
  2
*D12
 70
     1
 10
0.0
 20
0.0
 30
0.0
  3
*D12
  1

  0
LINE
  5
415
330
414
100
AcDbEntity
  8
画層1
 62
     0
370
    -2
100
AcDbLine
 10
22.94999999999999
 20
87.59
 30
0.0
 11
51.56999999999992
 21
87.58999999999998
 31
0.0
  0
LINE
  5
416
330
414
100
AcDbEntity
  8
画層1
 62
     0
370
    -2
100
AcDbLine
 10
22.94999999999999
 20
407.5899999999999
 30
0.0
 11
51.57
 21
407.5899999999999
 31
0.0
  0
LINE
  5
417
330
414
100
AcDbEntity
  8
画層1
 62
     0
370
    -2
100
AcDbLine
 10
50.31999999999992
 20
89.08999999999998
 30
0.0
 11
50.32
 21
406.09
 31
0.0
  0
INSERT
  5
418
330
414
100
AcDbEntity
  8
画層1
 62
     0
370
    -2
100
AcDbBlockReference
  2
_OPEN30
 10
50.31999999999992
 20
87.58999999999998
 30
0.0
 41
1.5
 42
1.5
 43
1.5
 50
270.0
  0
INSERT
  5
419
330
414
100
AcDbEntity
  8
画層1
 62
     0
370
    -2
100
AcDbBlockReference
  2
_OPEN30
 10
50.32
 20
407.5899999999999
 30
0.0
 41
1.5
 42
1.5
 43
1.5
 50
90.0
  0
MTEXT
  5
41A
330
414
100
AcDbEntity
  8
画層1
 62
     0
100
AcDbMText
 10
48.43999999999992
 20
247.5899999999999
 30
0.0
 40
2.5
 41
0.0
 71
     5
 72
     1
  1
\A1;320
  7
STYLE1
 11
0.0000000000000001
 21
1.0
 31
0.0
 73
     1
 44
1.0
  0
POINT
  5
41B
330
414
100
AcDbEntity
  8
DEFPOINTS
 62
     0
100
AcDbPoint
 10
22.32
 20
87.59
 30
0.0
  0
POINT
  5
41C
330
414
100
AcDbEntity
  8
DEFPOINTS
 62
     0
100
AcDbPoint
 10
22.32
 20
407.5899999999999
 30
0.0
  0
POINT
  5
41D
330
414
100
AcDbEntity
  8
DEFPOINTS
 62
     0
100
AcDbPoint
 10
50.32
 20
407.5899999999999
 30
0.0
  0
ENDBLK
  5
41F
330
414
100
AcDbEntity
  8
0
 62
     1
100
AcDbBlockEnd
  0
BLOCK
  5
42A
330
420
100
AcDbEntity
  8
0
 62
     1
100
AcDbBlockBegin
  2
*D13
 70
     1
 10
0.0
 20
0.0
 30
0.0
  3
*D13
  1

  0
LINE
  5
421
330
420
100
AcDbEntity
  8
画層1
 62
     0
370
    -2
100
AcDbLine
 10
-94.18000000000001
 20
101.46
 30
0.0
 11
-94.18000000000001
 21
72.34
 31
0.0
  0
LINE
  5
422
330
420
100
AcDbEntity
  8
画層1
 62
     0
370
    -2
100
AcDbLine
 10
-83.18000000000001
 20
101.46
 30
0.0
 11
-83.18000000000001
 21
72.34
 31
0.0
  0
LINE
  5
423
330
420
100
AcDbEntity
  8
画層1
 62
     0
370
    -2
100
AcDbLine
 10
-92.68
 20
73.59
 30
0.0
 11
-84.68000000000001
 21
73.59
 31
0.0
  0
INSERT
  5
424
330
420
100
AcDbEntity
  8
画層1
 62
     0
370
    -2
100
AcDbBlockReference
  2
_OPEN30
 10
-94.18000000000001
 20
73.59
 30
0.0
 41
1.5
 42
1.5
 43
1.5
 50
180.0
  0
INSERT
  5
425
330
420
100
AcDbEntity
  8
画層1
 62
     0
370
    -2
100
AcDbBlockReference
  2
_OPEN30
 10
-83.18000000000001
 20
73.59
 30
0.0
 41
1.5
 42
1.5
 43
1.5
  0
MTEXT
  5
426
330
420
100
AcDbEntity
  8
画層1
 62
     0
100
AcDbMText
 10
-88.68
 20
75.47
 30
0.0
 40
2.5
 41
0.0
 71
     5
 72
     1
  1
\A1;11
  7
STYLE1
 73
     1
 44
1.0
  0
POINT
  5
427
330
420
100
AcDbEntity
  8
DEFPOINTS
 62
     0
100
AcDbPoint
 10
-94.18000000000001
 20
102.09
 30
0.0
  0
POINT
  5
428
330
420
100
AcDbEntity
  8
DEFPOINTS
 62
     0
100
AcDbPoint
 10
-83.18000000000001
 20
102.09
 30
0.0
  0
POINT
  5
429
330
420
100
AcDbEntity
  8
DEFPOINTS
 62
     0
100
AcDbPoint
 10
-83.18000000000001
 20
73.59
 30
0.0
  0
ENDBLK
  5
42B
330
420
100
AcDbEntity
  8
0
 62
     1
100
AcDbBlockEnd
  0
BLOCK
  5
437
330
42C
100
AcDbEntity
  8
0
 62
     1
100
AcDbBlockBegin
  2
*D14
 70
     1
 10
0.0
 20
0.0
 30
0.0
  3
*D14
  1

  0
LINE
  5
42D
330
42C
100
AcDbEntity
  8
画層1
 62
     0
370
    -2
100
AcDbLine
 10
-122.31
 20
87.59
 30
0.0
 11
-126.9299999999999
 21
87.59
 31
0.0
  0
LINE
  5
42E
330
42C
100
AcDbEntity
  8
画層1
 62
     0
370
    -2
100
AcDbLine
 10
-119.8099999999999
 20
98.59000000000001
 30
0.0
 11
-126.9299999999999
 21
98.59000000000001
 31
0.0
  0
LINE
  5
42F
330
42C
100
AcDbEntity
  8
画層1
 62
     0
370
    -2
100
AcDbLine
 10
-125.6799999999999
 20
97.09000000000001
 30
0.0
 11
-125.6799999999999
 21
89.09
 31
0.0
  0
LINE
  5
430
330
42C
100
AcDbEntity
  8
画層1
 62
     0
370
    -2
100
AcDbLine
 10
-125.6799999999999
 20
87.59
 30
0.0
 11
-125.6799999999999
 21
78.27152284263961
 31
0.0
  0
INSERT
  5
431
330
42C
100
AcDbEntity
  8
画層1
 62
     0
370
    -2
100
AcDbBlockReference
  2
_OPEN30
 10
-125.6799999999999
 20
98.59000000000001
 30
0.0
 41
1.5
 42
1.5
 43
1.5
 50
90.0
  0
INSERT
  5
432
330
42C
100
AcDbEntity
  8
画層1
 62
     0
370
    -2
100
AcDbBlockReference
  2
_OPEN30
 10
-125.6799999999999
 20
87.59
 30
0.0
 41
1.5
 42
1.5
 43
1.5
 50
270.0
  0
MTEXT
  5
433
330
42C
100
AcDbEntity
  8
画層1
 62
     0
100
AcDbMText
 10
-127.56
 20
80.05
 30
0.0
 40
2.5
 41
0.0
 71
     5
 72
     1
  1
\A1;11
  7
STYLE1
 11
0.0000000000000001
 21
1.0
 31
0.0
 73
     1
 44
1.0
  0
POINT
  5
434
330
42C
100
AcDbEntity
  8
DEFPOINTS
 62
     0
100
AcDbPoint
 10
-121.68
 20
87.59
 30
0.0
  0
POINT
  5
435
330
42C
100
AcDbEntity
  8
DEFPOINTS
 62
     0
100
AcDbPoint
 10
-119.18
 20
98.59000000000001
 30
0.0
  0
POINT
  5
436
330
42C
100
AcDbEntity
  8
DEFPOINTS
 62
     0
100
AcDbPoint
 10
-125.6799999999999
 20
98.59000000000001
 30
0.0
  0
ENDBLK
  5
438
330
42C
100
AcDbEntity
  8
0
 62
     1
100
AcDbBlockEnd
  0
BLOCK
  5
444
330
439
100
AcDbEntity
  8
0
 62
     1
100
AcDbBlockBegin
  2
*D15
 70
     1
 10
0.0
 20
0.0
 30
0.0
  3
*D15
  1

  0
LINE
  5
43A
330
439
100
AcDbEntity
  8
画層1
 62
     0
370
    -2
100
AcDbLine
 10
-22.17999999999999
 20
88.96
 30
0.0
 11
-22.17999999999999
 21
72.34
 31
0.0
  0
LINE
  5
43B
330
439
100
AcDbEntity
  8
画層1
 62
     0
370
    -2
100
AcDbLine
 10
-13.18
 20
88.96
 30
0.0
 11
-13.18
 21
72.34
 31
0.0
  0
LINE
  5
43C
330
439
100
AcDbEntity
  8
画層1
 62
     0
370
    -2
100
AcDbLine
 10
-20.68
 20
73.59
 30
0.0
 11
-14.68
 21
73.59
 31
0.0
  0
LINE
  5
43D
330
439
100
AcDbEntity
  8
画層1
 62
     0
370
    -2
100
AcDbLine
 10
-13.18
 20
73.59
 30
0.0
 11
7.156142131979693
 21
73.59
 31
0.0
  0
INSERT
  5
43E
330
439
100
AcDbEntity
  8
画層1
 62
     0
370
    -2
100
AcDbBlockReference
  2
_OPEN30
 10
-22.17999999999999
 20
73.59
 30
0.0
 41
1.5
 42
1.5
 43
1.5
 50
180.0
  0
INSERT
  5
43F
330
439
100
AcDbEntity
  8
画層1
 62
     0
370
    -2
100
AcDbBlockReference
  2
_OPEN30
 10
-13.18
 20
73.59
 30
0.0
 41
1.5
 42
1.5
 43
1.5
  0
MTEXT
  5
440
330
439
100
AcDbEntity
  8
画層1
 62
     0
100
AcDbMText
 10
-2.261928934010153
 20
75.63497461928934
 30
0.0
 40
2.5
 41
0.0
 71
     5
 72
     1
  1
\A1;2-9キリカキ
  7
STYLE1
 73
     1
 44
1.0
  0
POINT
  5
441
330
439
100
AcDbEntity
  8
DEFPOINTS
 62
     0
100
AcDbPoint
 10
-22.17999999999999
 20
89.59000000000001
 30
0.0
  0
POINT
  5
442
330
439
100
AcDbEntity
  8
DEFPOINTS
 62
     0
100
AcDbPoint
 10
-13.18
 20
89.59000000000001
 30
0.0
  0
POINT
  5
443
330
439
100
AcDbEntity
  8
DEFPOINTS
 62
     0
100
AcDbPoint
 10
-13.18
 20
73.59
 30
0.0
  0
ENDBLK
  5
445
330
439
100
AcDbEntity
  8
0
 62
     1
100
AcDbBlockEnd
  0
BLOCK
  5
450
330
446
100
AcDbEntity
  8
0
 62
     1
100
AcDbBlockBegin
  2
*D16
 70
     1
 10
0.0
 20
0.0
 30
0.0
  3
*D16
  1

  0
LINE
  5
447
330
446
100
AcDbEntity
  8
画層1
 62
     0
370
    -2
100
AcDbLine
 10
-177.68
 20
408.2199999999999
 30
0.0
 11
-177.68
 21
436.84
 31
0.0
  0
LINE
  5
448
330
446
100
AcDbEntity
  8
画層1
 62
     0
370
    -2
100
AcDbLine
 10
22.32
 20
408.2199999999999
 30
0.0
 11
22.32
 21
436.84
 31
0.0
  0
LINE
  5
449
330
446
100
AcDbEntity
  8
画層1
 62
     0
370
    -2
100
AcDbLine
 10
-176.18
 20
435.59
 30
0.0
 11
20.82
 21
435.59
 31
0.0
  0
INSERT
  5
44A
330
446
100
AcDbEntity
  8
画層1
 62
     0
370
    -2
100
AcDbBlockReference
  2
_OPEN30
 10
-177.68
 20
435.59
 30
0.0
 41
1.5
 42
1.5
 43
1.5
 50
180.0
  0
INSERT
  5
44B
330
446
100
AcDbEntity
  8
画層1
 62
     0
370
    -2
100
AcDbBlockReference
  2
_OPEN30
 10
22.32
 20
435.59
 30
0.0
 41
1.5
 42
1.5
 43
1.5
  0
MTEXT
  5
44C
330
446
100
AcDbEntity
  8
画層1
 62
     0
100
AcDbMText
 10
-77.68
 20
437.4699999999999
 30
0.0
 40
2.5
 41
0.0
 71
     5
 72
     1
  1
\A1;200
  7
STYLE1
 73
     1
 44
1.0
  0
POINT
  5
44D
330
446
100
AcDbEntity
  8
DEFPOINTS
 62
     0
100
AcDbPoint
 10
-177.68
 20
407.5899999999999
 30
0.0
  0
POINT
  5
44E
330
446
100
AcDbEntity
  8
DEFPOINTS
 62
     0
100
AcDbPoint
 10
22.32
 20
407.5899999999999
 30
0.0
  0
POINT
  5
44F
330
446
100
AcDbEntity
  8
DEFPOINTS
 62
     0
100
AcDbPoint
 10
22.32
 20
435.59
 30
0.0
  0
ENDBLK
  5
451
330
446
100
AcDbEntity
  8
0
 62
     1
100
AcDbBlockEnd
  0
BLOCK
  5
45C
330
452
100
AcDbEntity
  8
0
 62
     1
100
AcDbBlockBegin
  2
*D17
 70
     1
 10
0.0
 20
0.0
 30
0.0
  3
*D17
  1

  0
LINE
  5
453
330
452
100
AcDbEntity
  8
画層1
 62
     0
370
    -2
100
AcDbLine
 10
-137.68
 20
389.7199999999999
 30
0.0
 11
-137.68
 21
422.8399999999999
 31
0.0
  0
LINE
  5
454
330
452
100
AcDbEntity
  8
画層1
 62
     0
370
    -2
100
AcDbLine
 10
-17.67999999999999
 20
389.7199999999999
 30
0.0
 11
-17.67999999999999
 21
422.8399999999999
 31
0.0
  0
LINE
  5
455
330
452
100
AcDbEntity
  8
画層1
 62
     0
370
    -2
100
AcDbLine
 10
-136.18
 20
421.5899999999999
 30
0.0
 11
-19.17999999999999
 21
421.5899999999999
 31
0.0
  0
INSERT
  5
456
330
452
100
AcDbEntity
  8
画層1
 62
     0
370
    -2
100
AcDbBlockReference
  2
_OPEN30
 10
-137.68
 20
421.5899999999999
 30
0.0
 41
1.5
 42
1.5
 43
1.5
 50
180.0
  0
INSERT
  5
457
330
452
100
AcDbEntity
  8
画層1
 62
     0
370
    -2
100
AcDbBlockReference
  2
_OPEN30
 10
-17.67999999999999
 20
421.5899999999999
 30
0.0
 41
1.5
 42
1.5
 43
1.5
  0
MTEXT
  5
458
330
452
100
AcDbEntity
  8
画層1
 62
     0
100
AcDbMText
 10
-77.68
 20
423.47
 30
0.0
 40
2.5
 41
0.0
 71
     5
 72
     1
  1
\A1;120
  7
STYLE1
 73
     1
 44
1.0
  0
POINT
  5
459
330
452
100
AcDbEntity
  8
DEFPOINTS
 62
     0
100
AcDbPoint
 10
-137.68
 20
389.0899999999999
 30
0.0
  0
POINT
  5
45A
330
452
100
AcDbEntity
  8
DEFPOINTS
 62
     0
100
AcDbPoint
 10
-17.67999999999999
 20
389.0899999999999
 30
0.0
  0
POINT
  5
45B
330
452
100
AcDbEntity
  8
DEFPOINTS
 62
     0
100
AcDbPoint
 10
-17.67999999999999
 20
421.5899999999999
 30
0.0
  0
ENDBLK
  5
45D
330
452
100
AcDbEntity
  8
0
 62
     1
100
AcDbBlockEnd
  0
BLOCK
  5
468
330
45E
100
AcDbEntity
  8
0
 62
     1
100
AcDbBlockBegin
  2
*D18
 70
     1
 10
0.0
 20
0.0
 30
0.0
  3
*D18
  1

  0
LINE
  5
45F
330
45E
100
AcDbEntity
  8
画層1
 62
     0
370
    -2
100
AcDbLine
 10
305.3199999999999
 20
88.46000000000001
 30
0.0
 11
305.3199999999999
 21
72.34
 31
0.0
  0
LINE
  5
460
330
45E
100
AcDbEntity
  8
画層1
 62
     0
370
    -2
100
AcDbLine
 10
175.3199999999999
 20
88.96
 30
0.0
 11
175.3199999999999
 21
72.34
 31
0.0
  0
LINE
  5
461
330
45E
100
AcDbEntity
  8
画層1
 62
     0
370
    -2
100
AcDbLine
 10
303.8199999999999
 20
73.59
 30
0.0
 11
176.82
 21
73.59
 31
0.0
  0
INSERT
  5
462
330
45E
100
AcDbEntity
  8
画層1
 62
     0
370
    -2
100
AcDbBlockReference
  2
_OPEN30
 10
305.3199999999999
 20
73.59
 30
0.0
 41
1.5
 42
1.5
 43
1.5
  0
INSERT
  5
463
330
45E
100
AcDbEntity
  8
画層1
 62
     0
370
    -2
100
AcDbBlockReference
  2
_OPEN30
 10
175.3199999999999
 20
73.59
 30
0.0
 41
1.5
 42
1.5
 43
1.5
 50
180.0
  0
MTEXT
  5
464
330
45E
100
AcDbEntity
  8
画層1
 62
     0
100
AcDbMText
 10
240.32
 20
75.47
 30
0.0
 40
2.5
 41
0.0
 71
     5
 72
     1
  1
\A1;130
  7
STYLE1
 73
     1
 44
1.0
  0
POINT
  5
465
330
45E
100
AcDbEntity
  8
DEFPOINTS
 62
     0
100
AcDbPoint
 10
305.3199999999999
 20
89.09
 30
0.0
  0
POINT
  5
466
330
45E
100
AcDbEntity
  8
DEFPOINTS
 62
     0
100
AcDbPoint
 10
175.3199999999999
 20
89.59000000000001
 30
0.0
  0
POINT
  5
467
330
45E
100
AcDbEntity
  8
DEFPOINTS
 62
     0
100
AcDbPoint
 10
175.3199999999999
 20
73.59
 30
0.0
  0
ENDBLK
  5
469
330
45E
100
AcDbEntity
  8
0
 62
     1
100
AcDbBlockEnd
  0
BLOCK
  5
474
330
46A
100
AcDbEntity
  8
0
 62
     1
100
AcDbBlockBegin
  2
*D19
 70
     1
 10
0.0
 20
0.0
 30
0.0
  3
*D19
  1

  0
LINE
  5
46B
330
46A
100
AcDbEntity
  8
画層1
 62
     0
370
    -2
100
AcDbLine
 10
305.3199999999999
 20
406.7199999999999
 30
0.0
 11
305.3199999999999
 21
436.84
 31
0.0
  0
LINE
  5
46C
330
46A
100
AcDbEntity
  8
画層1
 62
     0
370
    -2
100
AcDbLine
 10
120.32
 20
394.8199999999999
 30
0.0
 11
120.32
 21
436.84
 31
0.0
  0
LINE
  5
46D
330
46A
100
AcDbEntity
  8
画層1
 62
     0
370
    -2
100
AcDbLine
 10
303.8199999999999
 20
435.59
 30
0.0
 11
121.8199999999999
 21
435.59
 31
0.0
  0
INSERT
  5
46E
330
46A
100
AcDbEntity
  8
画層1
 62
     0
370
    -2
100
AcDbBlockReference
  2
_OPEN30
 10
305.3199999999999
 20
435.59
 30
0.0
 41
1.5
 42
1.5
 43
1.5
  0
INSERT
  5
46F
330
46A
100
AcDbEntity
  8
画層1
 62
     0
370
    -2
100
AcDbBlockReference
  2
_OPEN30
 10
120.32
 20
435.59
 30
0.0
 41
1.5
 42
1.5
 43
1.5
 50
180.0
  0
MTEXT
  5
470
330
46A
100
AcDbEntity
  8
画層1
 62
     0
100
AcDbMText
 10
212.82
 20
437.4699999999999
 30
0.0
 40
2.5
 41
0.0
 71
     5
 72
     1
  1
\A1;185
  7
STYLE1
 73
     1
 44
1.0
  0
POINT
  5
471
330
46A
100
AcDbEntity
  8
DEFPOINTS
 62
     0
100
AcDbPoint
 10
305.3199999999999
 20
406.09
 30
0.0
  0
POINT
  5
472
330
46A
100
AcDbEntity
  8
DEFPOINTS
 62
     0
100
AcDbPoint
 10
120.32
 20
394.19
 30
0.0
  0
POINT
  5
473
330
46A
100
AcDbEntity
  8
DEFPOINTS
 62
     0
100
AcDbPoint
 10
120.32
 20
435.59
 30
0.0
  0
ENDBLK
  5
475
330
46A
100
AcDbEntity
  8
0
 62
     1
100
AcDbBlockEnd
  0
ENDSEC
  0
SECTION
  2
ENTITIES
  0
DIMENSION
  5
36
330
2
100
AcDbEntity
  8
画層1
 62
     0
100
AcDbDimension
  2
*D19
 10
120.32
 20
435.59
 30
0.0
 11
212.82
 21
437.4699999999999
 31
0.0
 70
    32
 71
     5
 42
185.0
  3
STANDARD_WS
100
AcDbAlignedDimension
 13
305.3199999999999
 23
406.09
 33
0.0
 14
120.32
 24
394.19
 34
0.0
100
AcDbRotatedDimension
1001
ACAD
1000
DSTYLE
1002
{
1070
    47
1040
0.6
1070
   144
1040
1.0
1070
   146
1040
0.5
1070
   173
1070
     0
1070
   284
1070
     8
1070
   340
1005
2E
1070
   341
1005
2F
1070
     5
1000
OPEN30
1070
     6
1000
OPEN30
1002
}
  0
DIMENSION
  5
44
330
2
100
AcDbEntity
  8
画層1
 62
     0
100
AcDbDimension
  2
*D18
 10
175.3199999999999
 20
73.59
 30
0.0
 11
240.32
 21
75.47
 31
0.0
 70
    32
 71
     5
 42
130.0
  3
STANDARD_WS
100
AcDbAlignedDimension
 13
305.3199999999999
 23
89.09
 33
0.0
 14
175.3199999999999
 24
89.59000000000001
 34
0.0
100
AcDbRotatedDimension
1001
ACAD
1000
DSTYLE
1002
{
1070
    47
1040
0.6
1070
   144
1040
1.0
1070
   146
1040
0.5
1070
   173
1070
     0
1070
   284
1070
     8
1070
   340
1005
2E
1070
   341
1005
2F
1070
     5
1000
OPEN30
1070
     6
1000
OPEN30
1002
}
  0
LINE
  5
51
330
2
100
AcDbEntity
  8
画層1
  6
CENTER
 62
     0
100
AcDbLine
 10
116.32
 20
247.59
 30
0.0
 11
309.3199999999999
 21
247.59
 31
0.0
  0
LINE
  5
53
330
2
100
AcDbEntity
  8
画層1
 62
     0
100
AcDbLine
 10
123.3199999999999
 20
406.09
 30
0.0
 11
305.3199999999999
 21
406.09
 31
0.0
  0
LINE
  5
54
330
2
100
AcDbEntity
  8
画層1
 62
     0
100
AcDbLine
 10
305.3199999999999
 20
89.09
 30
0.0
 11
123.3199999999999
 21
89.09
 31
0.0
  0
DIMENSION
  5
55
330
2
100
AcDbEntity
  8
画層1
 62
     0
100
AcDbDimension
  2
*D12
 10
50.32
 20
407.5899999999999
 30
0.0
 11
48.43999999999992
 21
247.5899999999999
 31
0.0
 70
    32
 71
     5
 42
320.0
  3
STANDARD_WS
100
AcDbAlignedDimension
 13
22.32
 23
87.59
 33
0.0
 14
22.32
 24
407.5899999999999
 34
0.0
 50
90.0
100
AcDbRotatedDimension
1001
ACAD
1000
DSTYLE
1002
{
1070
    47
1040
0.6
1070
   144
1040
1.0
1070
   146
1040
0.5
1070
   173
1070
     0
1070
   284
1070
     8
1070
   340
1005
2E
1070
   341
1005
2F
1070
     5
1000
OPEN30
1070
     6
1000
OPEN30
1002
}
  0
DIMENSION
  5
62
330
2
100
AcDbEntity
  8
画層1
 62
     0
100
AcDbDimension
  2
*D11
 10
36.32
 20
97.59
 30
0.0
 11
34.43999999999999
 21
247.5899999999999
 31
0.0
 70
    32
 71
     5
 42
300.0
  3
STANDARD_WS
100
AcDbAlignedDimension
 13
-26.18
 23
397.5899999999999
 33
0.0
 14
-26.18
 24
97.59
 34
0.0
 50
90.0
100
AcDbRotatedDimension
1001
ACAD
1000
DSTYLE
1002
{
1070
    47
1040
0.6
1070
   144
1040
1.0
1070
   146
1040
0.5
1070
   173
1070
     0
1070
   284
1070
     8
1070
   340
1005
2E
1070
   341
1005
2F
1070
     5
1000
OPEN30
1070
     6
1000
OPEN30
1002
}
  0
LINE
  5
6F
330
2
100
AcDbEntity
  8
画層1
 62
     0
100
AcDbLine
 10
124.92
 20
89.09
 30
0.0
 11
124.92
 21
406.09
 31
0.0
  0
LINE
  5
70
330
2
100
AcDbEntity
  8
画層1
 62
     0
100
AcDbLine
 10
123.3199999999999
 20
88.58999999999999
 30
0.0
 11
123.3199999999999
 21
406.59
 31
0.0
  0
LINE
  5
71
330
2
100
AcDbEntity
  8
画層1
 62
     0
100
AcDbLine
 10
122.32
 20
407.5899999999999
 30
0.0
 11
122.32
 21
87.59
 31
0.0
  0
LINE
  5
72
330
2
100
AcDbEntity
  8
画層1
  6
CENTER
 62
     0
100
AcDbLine
 10
-77.68
 20
411.5899999999999
 30
0.0
 11
-77.68
 21
83.58999999999999
 31
0.0
  0
LINE
  5
73
330
2
100
AcDbEntity
  8
画層1
 62
     0
100
AcDbLine
 10
-177.68
 20
87.59
 30
0.0
 11
-177.68
 21
234.5899999999999
 31
0.0
  0
LINE
  5
74
330
2
100
AcDbEntity
  8
画層1
 62
     0
100
AcDbLine
 10
22.32
 20
407.5899999999999
 30
0.0
 11
22.32
 21
87.59
 31
0.0
  0
CIRCLE
  5
75
330
2
100
AcDbEntity
  8
画層1
  6
DASHED2
 62
     0
100
AcDbCircle
 10
-50.18
 20
98.59000000000001
 30
0.0
 40
3.5
  0
MTEXT
  5
77
330
2
100
AcDbEntity
  8
画層1
 62
     0
100
AcDbMText
 10
-106.34
 20
115.59
 30
0.0
 40
5.0
 41
72.66
 71
     1
 72
     5
  1
Ｒ{\H0.4x;  }Ｓ{\H0.4x;  }Ｔ{\H0.4x;  }Ｕ{\H0.4x;  }Ｖ{\H0.4x;  }Ｗ
  7
STYLE1
 73
     1
 44
1.0
1001
ACAD
1000
MTEXTBEGIN
1070
    73
1070
     1
1070
    44
1040
1.0
1070
    74
1070
     0
1000
MTEXTEND
1000
MTEXTBEGIN
1070
    73
1070
     1
1070
    44
1040
1.0
1070
    74
1070
     0
1000
MTEXTEND
  0
LINE
  5
78
330
2
100
AcDbEntity
  8
画層1
  6
DASHED2
 62
     0
100
AcDbLine
 10
-122.68
 20
107.59
 30
0.0
 11
-32.68
 21
107.59
 31
0.0
  0
LINE
  5
79
330
2
100
AcDbEntity
  8
画層1
  6
DASHED2
 62
     0
100
AcDbLine
 10
-32.68
 20
89.59000000000001
 30
0.0
 11
-122.68
 21
89.59000000000001
 31
0.0
  0
LINE
  5
7A
330
2
100
AcDbEntity
  8
画層1
  6
DASHED2
 62
     0
100
AcDbLine
 10
-177.68
 20
89.09
 30
0.0
 11
22.32
 21
89.09
 31
0.0
  0
LINE
  5
7B
330
2
100
AcDbEntity
  8
画層1
 62
     0
100
AcDbLine
 10
22.32
 20
87.59
 30
0.0
 11
-177.68
 21
87.59
 31
0.0
  0
LINE
  5
7C
330
2
100
AcDbEntity
  8
画層1
 62
     0
100
AcDbLine
 10
-119.18
 20
98.59000000000001
 30
0.0
 11
-113.18
 21
98.59000000000001
 31
0.0
  0
LINE
  5
7D
330
2
100
AcDbEntity
  8
画層1
  6
DASHED2
 62
     0
100
AcDbLine
 10
-122.68
 20
89.59000000000001
 30
0.0
 11
-122.68
 21
107.59
 31
0.0
  0
LINE
  5
7E
330
2
100
AcDbEntity
  8
画層1
  6
CENTER
 62
     0
100
AcDbLine
 10
-137.68
 20
106.0899999999999
 30
0.0
 11
-137.68
 21
83.58999999999999
 31
0.0
  0
LINE
  5
7F
330
2
100
AcDbEntity
  8
画層1
 62
     0
100
AcDbLine
 10
-170.88
 20
102.09
 30
0.0
 11
-170.88
 21
103.09
 31
0.0
  0
ARC
  5
80
330
2
100
AcDbEntity
  8
画層1
 62
     0
100
AcDbCircle
 10
-174.18
 20
101.09
 30
0.0
 40
1.0
100
AcDbArc
 50
0.0
 51
90.0
  0
LINE
  5
81
330
2
100
AcDbEntity
  8
画層1
 62
     0
100
AcDbLine
 10
-174.4799999999999
 20
102.09
 30
0.0
 11
-174.4799999999999
 21
103.09
 31
0.0
  0
ARC
  5
82
330
2
100
AcDbEntity
  8
画層1
 62
     0
100
AcDbCircle
 10
-171.18
 20
101.09
 30
0.0
 40
1.0
100
AcDbArc
 50
90.0
 51
180.0
  0
CIRCLE
  5
83
330
2
100
AcDbEntity
  8
画層1
 62
     0
100
AcDbCircle
 10
-172.68
 20
102.59
 30
0.0
 40
4.0
  0
CIRCLE
  5
84
330
2
100
AcDbEntity
  8
画層1
 62
     0
100
AcDbCircle
 10
-172.68
 20
102.59
 30
0.0
 40
3.0
  0
LINE
  5
85
330
2
100
AcDbEntity
  8
画層1
 62
     0
100
AcDbLine
 10
-174.18
 20
102.09
 30
0.0
 11
-174.4799999999999
 21
102.09
 31
0.0
  0
LINE
  5
86
330
2
100
AcDbEntity
  8
画層1
 62
     0
100
AcDbLine
 10
-173.1799999999999
 20
100.79
 30
0.0
 11
-172.1799999999999
 21
100.79
 31
0.0
  0
LINE
  5
87
330
2
100
AcDbEntity
  8
画層1
 62
     0
100
AcDbLine
 10
-173.1799999999999
 20
100.79
 30
0.0
 11
-173.1799999999999
 21
101.09
 31
0.0
  0
LINE
  5
88
330
2
100
AcDbEntity
  8
画層1
 62
     0
100
AcDbLine
 10
-172.1799999999999
 20
101.09
 30
0.0
 11
-172.1799999999999
 21
100.79
 31
0.0
  0
LINE
  5
89
330
2
100
AcDbEntity
  8
画層1
 62
     0
100
AcDbLine
 10
-170.88
 20
102.09
 30
0.0
 11
-171.18
 21
102.09
 31
0.0
  0
DIMENSION
  5
8A
330
2
100
AcDbEntity
  8
画層1
 62
     0
100
AcDbDimension
  2
*D14
 10
-125.6799999999999
 20
98.59000000000001
 30
0.0
 11
-125.68
 21
80.05
 31
0.0
 70
   160
 71
     5
 42
11.0
  3
STANDARD_WS
100
AcDbAlignedDimension
 13
-121.68
 23
87.59
 33
0.0
 14
-119.18
 24
98.59000000000001
 34
0.0
 50
90.0
100
AcDbRotatedDimension
1001
ACAD
1000
DSTYLE
1002
{
1070
    47
1040
0.6
1070
   144
1040
1.0
1070
   146
1040
0.5
1070
   173
1070
     0
1070
   284
1070
     8
1070
   340
1005
2E
1070
   341
1005
2F
1070
     5
1000
OPEN30
1070
     6
1000
OPEN30
1002
}
  0
LINE
  5
98
330
2
100
AcDbEntity
  8
画層1
  6
CENTER
 62
     0
100
AcDbLine
 10
-144.68
 20
97.59
 30
0.0
 11
-132.68
 21
97.59
 31
0.0
  0
ARC
  5
99
330
2
100
AcDbEntity
  8
画層1
  6
DASHED2
 62
     0
100
AcDbCircle
 10
-137.68
 20
97.59
 30
0.0
 40
4.5
100
AcDbArc
 50
0.0
 51
180.0
  0
LINE
  5
9A
330
2
100
AcDbEntity
  8
画層1
  6
DASHED2
 62
     0
100
AcDbLine
 10
-142.18
 20
89.59000000000001
 30
0.0
 11
-142.18
 21
97.59
 31
0.0
  0
LINE
  5
9B
330
2
100
AcDbEntity
  8
画層1
  6
DASHED2
 62
     0
100
AcDbLine
 10
-133.18
 20
89.59000000000001
 30
0.0
 11
-133.18
 21
97.59
 31
0.0
  0
ARC
  5
9C
330
2
100
AcDbEntity
  8
画層1
 62
     0
100
AcDbCircle
 10
-171.18
 20
104.09
 30
0.0
 40
1.0
100
AcDbArc
 50
180.0
 51
270.0
  0
LINE
  5
9D
330
2
100
AcDbEntity
  8
画層1
 62
     0
100
AcDbLine
 10
-172.1799999999999
 20
104.39
 30
0.0
 11
-172.1799999999999
 21
104.09
 31
0.0
  0
LINE
  5
9E
330
2
100
AcDbEntity
  8
画層1
 62
     0
100
AcDbLine
 10
-173.1799999999999
 20
104.09
 30
0.0
 11
-173.1799999999999
 21
104.39
 31
0.0
  0
ARC
  5
9F
330
2
100
AcDbEntity
  8
画層1
 62
     0
100
AcDbCircle
 10
-174.18
 20
104.09
 30
0.0
 40
1.0
100
AcDbArc
 50
270.0
 51
0.0
  0
LINE
  5
A0
330
2
100
AcDbEntity
  8
画層1
 62
     0
100
AcDbLine
 10
-174.4799999999999
 20
103.09
 30
0.0
 11
-174.18
 21
103.09
 31
0.0
  0
LINE
  5
A1
330
2
100
AcDbEntity
  8
画層1
 62
     0
100
AcDbLine
 10
-173.1799999999999
 20
104.39
 30
0.0
 11
-172.1799999999999
 21
104.39
 31
0.0
  0
LINE
  5
A2
330
2
100
AcDbEntity
  8
画層1
 62
     0
100
AcDbLine
 10
-171.18
 20
103.09
 30
0.0
 11
-170.88
 21
103.09
 31
0.0
  0
LINE
  5
A3
330
2
100
AcDbEntity
  8
画層1
  6
DASHED2
 62
     0
100
AcDbLine
 10
-54.18
 20
100.65
 30
0.0
 11
-54.18
 21
107.59
 31
0.0
  0
LINE
  5
A4
330
2
100
AcDbEntity
  8
画層1
  6
DASHED2
 62
     0
100
AcDbLine
 10
-65.18
 20
100.65
 30
0.0
 11
-65.18
 21
107.59
 31
0.0
  0
LINE
  5
A5
330
2
100
AcDbEntity
  8
画層1
  6
DASHED2
 62
     0
100
AcDbLine
 10
-57.17999999999999
 20
107.59
 30
0.0
 11
-57.17999999999999
 21
100.65
 31
0.0
  0
LINE
  5
A6
330
2
100
AcDbEntity
  8
画層1
  6
DASHED2
 62
     0
100
AcDbLine
 10
-68.18000000000001
 20
107.59
 30
0.0
 11
-68.18000000000001
 21
100.65
 31
0.0
  0
LINE
  5
A7
330
2
100
AcDbEntity
  8
画層1
  6
DASHED2
 62
     0
100
AcDbLine
 10
-76.18000000000001
 20
100.65
 30
0.0
 11
-76.18000000000001
 21
107.59
 31
0.0
  0
LINE
  5
A8
330
2
100
AcDbEntity
  8
画層1
  6
DASHED2
 62
     0
100
AcDbLine
 10
-79.18000000000001
 20
107.59
 30
0.0
 11
-79.18000000000001
 21
100.65
 31
0.0
  0
LINE
  5
A9
330
2
100
AcDbEntity
  8
画層1
  6
DASHED2
 62
     0
100
AcDbLine
 10
-98.18000000000001
 20
100.65
 30
0.0
 11
-98.18000000000001
 21
107.59
 31
0.0
  0
LINE
  5
AA
330
2
100
AcDbEntity
  8
画層1
  6
DASHED2
 62
     0
100
AcDbLine
 10
-90.18
 20
107.59
 30
0.0
 11
-90.18
 21
100.65
 31
0.0
  0
LINE
  5
AB
330
2
100
AcDbEntity
  8
画層1
  6
DASHED2
 62
     0
100
AcDbLine
 10
-87.18000000000001
 20
100.65
 30
0.0
 11
-87.18000000000001
 21
107.59
 31
0.0
  0
LINE
  5
AC
330
2
100
AcDbEntity
  8
画層1
  6
DASHED2
 62
     0
100
AcDbLine
 10
-101.18
 20
107.59
 30
0.0
 11
-101.18
 21
100.65
 31
0.0
  0
LINE
  5
AD
330
2
100
AcDbEntity
  8
画層1
  6
DASHED2
 62
     0
100
AcDbLine
 10
-109.18
 20
100.65
 30
0.0
 11
-109.18
 21
107.59
 31
0.0
  0
DIMENSION
  5
AE
330
2
100
AcDbEntity
  8
画層1
 62
     0
100
AcDbDimension
  2
*D13
 10
-83.18000000000001
 20
73.59
 30
0.0
 11
-88.68
 21
75.47
 31
0.0
 70
    32
 71
     5
 42
11.0
  3
STANDARD_WS
100
AcDbAlignedDimension
 13
-94.18000000000001
 23
102.09
 33
0.0
 14
-83.18000000000001
 24
102.09
 34
0.0
100
AcDbRotatedDimension
1001
ACAD
1000
DSTYLE
1002
{
1070
    47
1040
0.6
1070
   144
1040
1.0
1070
   146
1040
0.5
1070
   173
1070
     0
1070
   284
1070
     8
1070
   340
1005
2E
1070
   341
1005
2F
1070
     5
1000
OPEN30
1070
     6
1000
OPEN30
1002
}
  0
CIRCLE
  5
BB
330
2
100
AcDbEntity
  8
画層1
  6
DASHED2
 62
     0
100
AcDbCircle
 10
-83.18000000000001
 20
98.59000000000001
 30
0.0
 40
3.5
  0
CIRCLE
  5
BC
330
2
100
AcDbEntity
  8
画層1
  6
DASHED2
 62
     0
100
AcDbCircle
 10
-105.18
 20
98.59000000000001
 30
0.0
 40
3.5
  0
LINE
  5
BD
330
2
100
AcDbEntity
  8
画層1
  6
DASHED2
 62
     0
100
AcDbLine
 10
-109.18
 20
96.53
 30
0.0
 11
-109.18
 21
89.59000000000001
 31
0.0
  0
LINE
  5
BE
330
2
100
AcDbEntity
  8
画層1
 62
     0
100
AcDbLine
 10
-116.18
 20
101.59
 30
0.0
 11
-116.18
 21
95.59000000000001
 31
0.0
  0
ARC
  5
BF
330
2
100
AcDbEntity
  8
画層1
  6
DASHED2
 62
     0
100
AcDbCircle
 10
-106.68
 20
97.09000000000001
 30
0.0
 40
1.0
100
AcDbArc
 50
0.0
 51
90.0
  0
ARC
  5
C0
330
2
100
AcDbEntity
  8
画層1
  6
DASHED2
 62
     0
100
AcDbCircle
 10
-106.68
 20
100.09
 30
0.0
 40
1.0
100
AcDbArc
 50
270.0
 51
0.0
  0
LINE
  5
C1
330
2
100
AcDbEntity
  8
画層1
  6
DASHED2
 62
     0
100
AcDbLine
 10
-107.18
 20
98.09000000000001
 30
0.0
 11
-107.18
 21
99.09
 31
0.0
  0
ARC
  5
C2
330
2
100
AcDbEntity
  8
画層1
  6
DASHED2
 62
     0
100
AcDbCircle
 10
-105.18
 20
98.59000000000001
 30
0.0
 40
4.5
100
AcDbArc
 50
152.7299999999999
 51
207.27
  0
LINE
  5
C3
330
2
100
AcDbEntity
  8
画層1
  6
DASHED2
 62
     0
100
AcDbLine
 10
-107.18
 20
99.09
 30
0.0
 11
-106.68
 21
99.09
 31
0.0
  0
LINE
  5
C4
330
2
100
AcDbEntity
  8
画層1
  6
DASHED2
 62
     0
100
AcDbLine
 10
-106.68
 20
98.09000000000001
 30
0.0
 11
-107.18
 21
98.09000000000001
 31
0.0
  0
LINE
  5
C5
330
2
100
AcDbEntity
  8
画層1
  6
DASHED2
 62
     0
100
AcDbLine
 10
-104.68
 20
100.59
 30
0.0
 11
-104.68
 21
100.09
 31
0.0
  0
LINE
  5
C6
330
2
100
AcDbEntity
  8
画層1
  6
DASHED2
 62
     0
100
AcDbLine
 10
-105.68
 20
100.09
 30
0.0
 11
-105.68
 21
100.59
 31
0.0
  0
LINE
  5
C7
330
2
100
AcDbEntity
  8
画層1
  6
DASHED2
 62
     0
100
AcDbLine
 10
-105.68
 20
100.59
 30
0.0
 11
-104.68
 21
100.59
 31
0.0
  0
LINE
  5
C8
330
2
100
AcDbEntity
  8
画層1
  6
DASHED2
 62
     0
100
AcDbLine
 10
-105.68
 20
96.59
 30
0.0
 11
-105.68
 21
97.09000000000001
 31
0.0
  0
LINE
  5
C9
330
2
100
AcDbEntity
  8
画層1
  6
DASHED2
 62
     0
100
AcDbLine
 10
-104.68
 20
97.09000000000001
 30
0.0
 11
-104.68
 21
96.59
 31
0.0
  0
ARC
  5
CA
330
2
100
AcDbEntity
  8
画層1
  6
DASHED2
 62
     0
100
AcDbCircle
 10
-103.68
 20
97.09000000000001
 30
0.0
 40
1.0
100
AcDbArc
 50
90.0
 51
180.0
  0
LINE
  5
CB
330
2
100
AcDbEntity
  8
画層1
  6
DASHED2
 62
     0
100
AcDbLine
 10
-105.68
 20
96.59
 30
0.0
 11
-104.68
 21
96.59
 31
0.0
  0
LINE
  5
CC
330
2
100
AcDbEntity
  8
画層1
  6
DASHED2
 62
     0
100
AcDbLine
 10
-103.68
 20
99.09
 30
0.0
 11
-103.18
 21
99.09
 31
0.0
  0
LINE
  5
CD
330
2
100
AcDbEntity
  8
画層1
  6
DASHED2
 62
     0
100
AcDbLine
 10
-103.18
 20
98.09000000000001
 30
0.0
 11
-103.18
 21
99.09
 31
0.0
  0
LINE
  5
CE
330
2
100
AcDbEntity
  8
画層1
  6
DASHED2
 62
     0
100
AcDbLine
 10
-103.18
 20
98.09000000000001
 30
0.0
 11
-103.68
 21
98.09000000000001
 31
0.0
  0
ARC
  5
CF
330
2
100
AcDbEntity
  8
画層1
  6
DASHED2
 62
     0
100
AcDbCircle
 10
-103.68
 20
100.09
 30
0.0
 40
1.0
100
AcDbArc
 50
180.0
 51
270.0
  0
LINE
  5
D0
330
2
100
AcDbEntity
  8
画層1
  6
DASHED2
 62
     0
100
AcDbLine
 10
-90.18
 20
96.53
 30
0.0
 11
-90.18
 21
89.59000000000001
 31
0.0
  0
LINE
  5
D1
330
2
100
AcDbEntity
  8
画層1
  6
DASHED2
 62
     0
100
AcDbLine
 10
-87.18000000000001
 20
96.53
 30
0.0
 11
-87.18000000000001
 21
89.59000000000001
 31
0.0
  0
LINE
  5
D2
330
2
100
AcDbEntity
  8
画層1
  6
DASHED2
 62
     0
100
AcDbLine
 10
-98.18000000000001
 20
96.53
 30
0.0
 11
-98.18000000000001
 21
89.59000000000001
 31
0.0
  0
LINE
  5
D3
330
2
100
AcDbEntity
  8
画層1
  6
DASHED2
 62
     0
100
AcDbLine
 10
-101.18
 20
96.53
 30
0.0
 11
-101.18
 21
89.59000000000001
 31
0.0
  0
ARC
  5
D4
330
2
100
AcDbEntity
  8
画層1
  6
DASHED2
 62
     0
100
AcDbCircle
 10
-92.68
 20
97.09000000000001
 30
0.0
 40
1.0
100
AcDbArc
 50
90.0
 51
180.0
  0
ARC
  5
D5
330
2
100
AcDbEntity
  8
画層1
  6
DASHED2
 62
     0
100
AcDbCircle
 10
-92.68
 20
100.09
 30
0.0
 40
1.0
100
AcDbArc
 50
180.0
 51
270.0
  0
CIRCLE
  5
D6
330
2
100
AcDbEntity
  8
画層1
  6
DASHED2
 62
     0
100
AcDbCircle
 10
-94.18000000000001
 20
98.59000000000001
 30
0.0
 40
3.5
  0
ARC
  5
D7
330
2
100
AcDbEntity
  8
画層1
  6
DASHED2
 62
     0
100
AcDbCircle
 10
-105.18
 20
98.59000000000001
 30
0.0
 40
4.5
100
AcDbArc
 50
332.73
 51
27.27
  0
ARC
  5
D8
330
2
100
AcDbEntity
  8
画層1
  6
DASHED2
 62
     0
100
AcDbCircle
 10
-94.18000000000001
 20
98.59000000000001
 30
0.0
 40
4.5
100
AcDbArc
 50
152.7299999999999
 51
207.27
  0
LINE
  5
D9
330
2
100
AcDbEntity
  8
画層1
  6
DASHED2
 62
     0
100
AcDbLine
 10
-93.68
 20
100.59
 30
0.0
 11
-93.68
 21
100.09
 31
0.0
  0
LINE
  5
DA
330
2
100
AcDbEntity
  8
画層1
  6
DASHED2
 62
     0
100
AcDbLine
 10
-94.68000000000001
 20
100.09
 30
0.0
 11
-94.68000000000001
 21
100.59
 31
0.0
  0
LINE
  5
DB
330
2
100
AcDbEntity
  8
画層1
  6
DASHED2
 62
     0
100
AcDbLine
 10
-94.68000000000001
 20
100.59
 30
0.0
 11
-93.68
 21
100.59
 31
0.0
  0
ARC
  5
DC
330
2
100
AcDbEntity
  8
画層1
  6
DASHED2
 62
     0
100
AcDbCircle
 10
-95.68000000000001
 20
97.09000000000001
 30
0.0
 40
1.0
100
AcDbArc
 50
0.0
 51
90.0
  0
LINE
  5
DD
330
2
100
AcDbEntity
  8
画層1
  6
DASHED2
 62
     0
100
AcDbLine
 10
-94.68000000000001
 20
96.59
 30
0.0
 11
-94.68000000000001
 21
97.09000000000001
 31
0.0
  0
LINE
  5
DE
330
2
100
AcDbEntity
  8
画層1
  6
DASHED2
 62
     0
100
AcDbLine
 10
-93.68
 20
97.09000000000001
 30
0.0
 11
-93.68
 21
96.59
 31
0.0
  0
LINE
  5
DF
330
2
100
AcDbEntity
  8
画層1
  6
DASHED2
 62
     0
100
AcDbLine
 10
-94.68000000000001
 20
96.59
 30
0.0
 11
-93.68
 21
96.59
 31
0.0
  0
LINE
  5
E0
330
2
100
AcDbEntity
  8
画層1
  6
DASHED2
 62
     0
100
AcDbLine
 10
-96.18000000000002
 20
99.09
 30
0.0
 11
-95.68000000000001
 21
99.09
 31
0.0
  0
LINE
  5
E1
330
2
100
AcDbEntity
  8
画層1
  6
DASHED2
 62
     0
100
AcDbLine
 10
-96.18000000000002
 20
98.09000000000001
 30
0.0
 11
-96.18000000000002
 21
99.09
 31
0.0
  0
LINE
  5
E2
330
2
100
AcDbEntity
  8
画層1
  6
DASHED2
 62
     0
100
AcDbLine
 10
-95.68000000000001
 20
98.09000000000001
 30
0.0
 11
-96.18000000000002
 21
98.09000000000001
 31
0.0
  0
ARC
  5
E3
330
2
100
AcDbEntity
  8
画層1
  6
DASHED2
 62
     0
100
AcDbCircle
 10
-95.68000000000001
 20
100.09
 30
0.0
 40
1.0
100
AcDbArc
 50
270.0
 51
0.0
  0
ARC
  5
E4
330
2
100
AcDbEntity
  8
画層1
  6
DASHED2
 62
     0
100
AcDbCircle
 10
-94.18000000000001
 20
98.59000000000001
 30
0.0
 40
4.5
100
AcDbArc
 50
332.73
 51
27.27
  0
LINE
  5
E5
330
2
100
AcDbEntity
  8
画層1
  6
DASHED2
 62
     0
100
AcDbLine
 10
-92.68
 20
99.09
 30
0.0
 11
-92.18000000000001
 21
99.09
 31
0.0
  0
LINE
  5
E6
330
2
100
AcDbEntity
  8
画層1
  6
DASHED2
 62
     0
100
AcDbLine
 10
-92.18000000000001
 20
98.09000000000001
 30
0.0
 11
-92.18000000000001
 21
99.09
 31
0.0
  0
LINE
  5
E7
330
2
100
AcDbEntity
  8
画層1
  6
DASHED2
 62
     0
100
AcDbLine
 10
-92.18000000000001
 20
98.09000000000001
 30
0.0
 11
-92.68
 21
98.09000000000001
 31
0.0
  0
ARC
  5
E8
330
2
100
AcDbEntity
  8
画層1
  6
DASHED2
 62
     0
100
AcDbCircle
 10
-83.18000000000001
 20
98.59000000000001
 30
0.0
 40
4.5
100
AcDbArc
 50
152.7299999999999
 51
207.27
  0
LEADER
  5
E9
330
2
100
AcDbEntity
  8
画層1
 62
     0
100
AcDbLeader
  3
STANDARD_WS
 73
     0
 74
     0
 75
     1
 40
5.0
 41
13.81
 76
     3
 10
-82.36
 20
95.19
 30
0.0
 10
-75.06
 20
74.22
 30
0.0
 10
-73.56
 20
74.22
 30
0.0
340
EA
213
2.330712171673666
223
0.0
233
0.0
1001
ACAD
1000
DSTYLE
1002
{
1070
     6
1000
OPEN30
1070
    47
1040
0.6
1070
    77
1070
     2
1070
   144
1040
2.0
1070
   146
1040
0.5
1070
   147
1040
0.63
1070
   284
1070
     8
1070
   340
1005
2E
1070
   341
1005
2F
1070
   343
1005
2F
1002
}
  0
MTEXT
  5
EA
102
{ACAD_REACTORS
330
E9
102
}
330
2
100
AcDbEntity
  8
画層1
 62
     0
100
AcDbMText
 10
-75.26
 20
77.34999999999999
 30
0.0
 40
5.0
 41
0.0
 71
     4
 72
     1
  1
6-M4
  7
STYLE1
 73
     1
 44
1.0
1001
ACAD
1000
MTEXTBEGIN
1070
    73
1070
     1
1070
    44
1040
1.0
1070
    74
1070
     0
1000
MTEXTEND
1000
MTEXTBEGIN
1070
    73
1070
     1
1070
    44
1040
1.0
1070
    74
1070
     0
1000
MTEXTEND
  0
CIRCLE
  5
EB
330
2
100
AcDbEntity
  8
画層1
  6
DASHED2
 62
     0
100
AcDbCircle
 10
-72.18
 20
98.59000000000001
 30
0.0
 40
3.5
  0
LINE
  5
EC
330
2
100
AcDbEntity
  8
画層1
  6
DASHED2
 62
     0
100
AcDbLine
 10
-76.18000000000001
 20
96.53
 30
0.0
 11
-76.18000000000001
 21
89.59000000000001
 31
0.0
  0
LINE
  5
ED
330
2
100
AcDbEntity
  8
画層1
  6
DASHED2
 62
     0
100
AcDbLine
 10
-79.18000000000001
 20
96.53
 30
0.0
 11
-79.18000000000001
 21
89.59000000000001
 31
0.0
  0
LINE
  5
EE
330
2
100
AcDbEntity
  8
画層1
  6
DASHED2
 62
     0
100
AcDbLine
 10
-81.68000000000001
 20
99.09
 30
0.0
 11
-81.18
 21
99.09
 31
0.0
  0
LINE
  5
EF
330
2
100
AcDbEntity
  8
画層1
  6
DASHED2
 62
     0
100
AcDbLine
 10
-81.18
 20
98.09000000000001
 30
0.0
 11
-81.68000000000001
 21
98.09000000000001
 31
0.0
  0
LINE
  5
F0
330
2
100
AcDbEntity
  8
画層1
  6
DASHED2
 62
     0
100
AcDbLine
 10
-82.68
 20
100.59
 30
0.0
 11
-82.68
 21
100.09
 31
0.0
  0
LINE
  5
F1
330
2
100
AcDbEntity
  8
画層1
  6
DASHED2
 62
     0
100
AcDbLine
 10
-83.68
 20
100.09
 30
0.0
 11
-83.68
 21
100.59
 31
0.0
  0
LINE
  5
F2
330
2
100
AcDbEntity
  8
画層1
  6
DASHED2
 62
     0
100
AcDbLine
 10
-83.68
 20
100.59
 30
0.0
 11
-82.68
 21
100.59
 31
0.0
  0
ARC
  5
F3
330
2
100
AcDbEntity
  8
画層1
  6
DASHED2
 62
     0
100
AcDbCircle
 10
-84.68000000000001
 20
97.09000000000001
 30
0.0
 40
1.0
100
AcDbArc
 50
0.0
 51
90.0
  0
LINE
  5
F4
330
2
100
AcDbEntity
  8
画層1
  6
DASHED2
 62
     0
100
AcDbLine
 10
-83.68
 20
96.59
 30
0.0
 11
-83.68
 21
97.09000000000001
 31
0.0
  0
LINE
  5
F5
330
2
100
AcDbEntity
  8
画層1
  6
DASHED2
 62
     0
100
AcDbLine
 10
-82.68
 20
97.09000000000001
 30
0.0
 11
-82.68
 21
96.59
 31
0.0
  0
LINE
  5
F6
330
2
100
AcDbEntity
  8
画層1
  6
DASHED2
 62
     0
100
AcDbLine
 10
-83.68
 20
96.59
 30
0.0
 11
-82.68
 21
96.59
 31
0.0
  0
LINE
  5
F7
330
2
100
AcDbEntity
  8
画層1
  6
DASHED2
 62
     0
100
AcDbLine
 10
-85.18
 20
99.09
 30
0.0
 11
-84.68000000000001
 21
99.09
 31
0.0
  0
LINE
  5
F8
330
2
100
AcDbEntity
  8
画層1
  6
DASHED2
 62
     0
100
AcDbLine
 10
-85.18
 20
98.09000000000001
 30
0.0
 11
-85.18
 21
99.09
 31
0.0
  0
LINE
  5
F9
330
2
100
AcDbEntity
  8
画層1
  6
DASHED2
 62
     0
100
AcDbLine
 10
-84.68000000000001
 20
98.09000000000001
 30
0.0
 11
-85.18
 21
98.09000000000001
 31
0.0
  0
ARC
  5
FA
330
2
100
AcDbEntity
  8
画層1
  6
DASHED2
 62
     0
100
AcDbCircle
 10
-84.68000000000001
 20
100.09
 30
0.0
 40
1.0
100
AcDbArc
 50
270.0
 51
0.0
  0
ARC
  5
FB
330
2
100
AcDbEntity
  8
画層1
  6
DASHED2
 62
     0
100
AcDbCircle
 10
-81.68000000000001
 20
97.09000000000001
 30
0.0
 40
1.0
100
AcDbArc
 50
90.0
 51
180.0
  0
ARC
  5
FC
330
2
100
AcDbEntity
  8
画層1
  6
DASHED2
 62
     0
100
AcDbCircle
 10
-81.68000000000001
 20
100.09
 30
0.0
 40
1.0
100
AcDbArc
 50
180.0
 51
270.0
  0
LINE
  5
FD
330
2
100
AcDbEntity
  8
画層1
  6
DASHED2
 62
     0
100
AcDbLine
 10
-81.18
 20
98.09000000000001
 30
0.0
 11
-81.18
 21
99.09
 31
0.0
  0
ARC
  5
FE
330
2
100
AcDbEntity
  8
画層1
  6
DASHED2
 62
     0
100
AcDbCircle
 10
-83.18000000000001
 20
98.59000000000001
 30
0.0
 40
4.5
100
AcDbArc
 50
332.73
 51
27.27
  0
ARC
  5
FF
330
2
100
AcDbEntity
  8
画層1
  6
DASHED2
 62
     0
100
AcDbCircle
 10
-73.68000000000001
 20
97.09000000000001
 30
0.0
 40
1.0
100
AcDbArc
 50
0.0
 51
90.0
  0
ARC
  5
100
330
2
100
AcDbEntity
  8
画層1
  6
DASHED2
 62
     0
100
AcDbCircle
 10
-73.68000000000001
 20
100.09
 30
0.0
 40
1.0
100
AcDbArc
 50
270.0
 51
0.0
  0
LINE
  5
101
330
2
100
AcDbEntity
  8
画層1
  6
DASHED2
 62
     0
100
AcDbLine
 10
-74.18000000000001
 20
98.09000000000001
 30
0.0
 11
-74.18000000000001
 21
99.09
 31
0.0
  0
ARC
  5
102
330
2
100
AcDbEntity
  8
画層1
  6
DASHED2
 62
     0
100
AcDbCircle
 10
-72.18
 20
98.59000000000001
 30
0.0
 40
4.5
100
AcDbArc
 50
152.7299999999999
 51
207.27
  0
LINE
  5
103
330
2
100
AcDbEntity
  8
画層1
  6
DASHED2
 62
     0
100
AcDbLine
 10
-74.18000000000001
 20
99.09
 30
0.0
 11
-73.68000000000001
 21
99.09
 31
0.0
  0
LINE
  5
104
330
2
100
AcDbEntity
  8
画層1
  6
DASHED2
 62
     0
100
AcDbLine
 10
-73.68000000000001
 20
98.09000000000001
 30
0.0
 11
-74.18000000000001
 21
98.09000000000001
 31
0.0
  0
LINE
  5
105
330
2
100
AcDbEntity
  8
画層1
  6
DASHED2
 62
     0
100
AcDbLine
 10
-71.68000000000001
 20
100.59
 30
0.0
 11
-71.68000000000001
 21
100.09
 31
0.0
  0
LINE
  5
106
330
2
100
AcDbEntity
  8
画層1
  6
DASHED2
 62
     0
100
AcDbLine
 10
-72.68
 20
100.09
 30
0.0
 11
-72.68
 21
100.59
 31
0.0
  0
LINE
  5
107
330
2
100
AcDbEntity
  8
画層1
  6
DASHED2
 62
     0
100
AcDbLine
 10
-72.68
 20
100.59
 30
0.0
 11
-71.68000000000001
 21
100.59
 31
0.0
  0
LINE
  5
108
330
2
100
AcDbEntity
  8
画層1
  6
DASHED2
 62
     0
100
AcDbLine
 10
-72.68
 20
96.59
 30
0.0
 11
-72.68
 21
97.09000000000001
 31
0.0
  0
LINE
  5
109
330
2
100
AcDbEntity
  8
画層1
  6
DASHED2
 62
     0
100
AcDbLine
 10
-71.68000000000001
 20
97.09000000000001
 30
0.0
 11
-71.68000000000001
 21
96.59
 31
0.0
  0
ARC
  5
10A
330
2
100
AcDbEntity
  8
画層1
  6
DASHED2
 62
     0
100
AcDbCircle
 10
-70.68000000000001
 20
97.09000000000001
 30
0.0
 40
1.0
100
AcDbArc
 50
90.0
 51
180.0
  0
LINE
  5
10B
330
2
100
AcDbEntity
  8
画層1
  6
DASHED2
 62
     0
100
AcDbLine
 10
-72.68
 20
96.59
 30
0.0
 11
-71.68000000000001
 21
96.59
 31
0.0
  0
LINE
  5
10C
330
2
100
AcDbEntity
  8
画層1
  6
DASHED2
 62
     0
100
AcDbLine
 10
-70.68000000000001
 20
99.09
 30
0.0
 11
-70.18
 21
99.09
 31
0.0
  0
LINE
  5
10D
330
2
100
AcDbEntity
  8
画層1
  6
DASHED2
 62
     0
100
AcDbLine
 10
-70.18
 20
98.09000000000001
 30
0.0
 11
-70.18
 21
99.09
 31
0.0
  0
LINE
  5
10E
330
2
100
AcDbEntity
  8
画層1
  6
DASHED2
 62
     0
100
AcDbLine
 10
-70.18
 20
98.09000000000001
 30
0.0
 11
-70.68000000000001
 21
98.09000000000001
 31
0.0
  0
ARC
  5
10F
330
2
100
AcDbEntity
  8
画層1
  6
DASHED2
 62
     0
100
AcDbCircle
 10
-70.68000000000001
 20
100.09
 30
0.0
 40
1.0
100
AcDbArc
 50
180.0
 51
270.0
  0
LINE
  5
110
330
2
100
AcDbEntity
  8
画層1
  6
DASHED2
 62
     0
100
AcDbLine
 10
-54.18
 20
96.53
 30
0.0
 11
-54.18
 21
89.59000000000001
 31
0.0
  0
LINE
  5
111
330
2
100
AcDbEntity
  8
画層1
  6
DASHED2
 62
     0
100
AcDbLine
 10
-57.17999999999999
 20
96.53
 30
0.0
 11
-57.17999999999999
 21
89.59000000000001
 31
0.0
  0
LINE
  5
112
330
2
100
AcDbEntity
  8
画層1
  6
DASHED2
 62
     0
100
AcDbLine
 10
-65.18
 20
96.53
 30
0.0
 11
-65.18
 21
89.59000000000001
 31
0.0
  0
LINE
  5
113
330
2
100
AcDbEntity
  8
画層1
  6
DASHED2
 62
     0
100
AcDbLine
 10
-68.18000000000001
 20
96.53
 30
0.0
 11
-68.18000000000001
 21
89.59000000000001
 31
0.0
  0
LINE
  5
114
330
2
100
AcDbEntity
  8
画層1
  6
DASHED2
 62
     0
100
AcDbLine
 10
-61.68
 20
100.59
 30
0.0
 11
-60.68
 21
100.59
 31
0.0
  0
ARC
  5
115
330
2
100
AcDbEntity
  8
画層1
  6
DASHED2
 62
     0
100
AcDbCircle
 10
-59.67999999999999
 20
97.09000000000001
 30
0.0
 40
1.0
100
AcDbArc
 50
90.0
 51
180.0
  0
LINE
  5
116
330
2
100
AcDbEntity
  8
画層1
  6
DASHED2
 62
     0
100
AcDbLine
 10
-61.68
 20
96.59
 30
0.0
 11
-60.68
 21
96.59
 31
0.0
  0
ARC
  5
117
330
2
100
AcDbEntity
  8
画層1
  6
DASHED2
 62
     0
100
AcDbCircle
 10
-59.67999999999999
 20
100.09
 30
0.0
 40
1.0
100
AcDbArc
 50
180.0
 51
270.0
  0
CIRCLE
  5
118
330
2
100
AcDbEntity
  8
画層1
  6
DASHED2
 62
     0
100
AcDbCircle
 10
-61.18
 20
98.59000000000001
 30
0.0
 40
3.5
  0
ARC
  5
119
330
2
100
AcDbEntity
  8
画層1
  6
DASHED2
 62
     0
100
AcDbCircle
 10
-61.18
 20
98.59000000000001
 30
0.0
 40
4.5
100
AcDbArc
 50
152.7299999999999
 51
207.27
  0
ARC
  5
11A
330
2
100
AcDbEntity
  8
画層1
  6
DASHED2
 62
     0
100
AcDbCircle
 10
-72.18
 20
98.59000000000001
 30
0.0
 40
4.5
100
AcDbArc
 50
332.73
 51
27.27
  0
LINE
  5
11B
330
2
100
AcDbEntity
  8
画層1
  6
DASHED2
 62
     0
100
AcDbLine
 10
-61.68
 20
100.09
 30
0.0
 11
-61.68
 21
100.59
 31
0.0
  0
ARC
  5
11C
330
2
100
AcDbEntity
  8
画層1
  6
DASHED2
 62
     0
100
AcDbCircle
 10
-62.68
 20
97.09000000000001
 30
0.0
 40
1.0
100
AcDbArc
 50
0.0
 51
90.0
  0
LINE
  5
11D
330
2
100
AcDbEntity
  8
画層1
  6
DASHED2
 62
     0
100
AcDbLine
 10
-61.68
 20
96.59
 30
0.0
 11
-61.68
 21
97.09000000000001
 31
0.0
  0
LINE
  5
11E
330
2
100
AcDbEntity
  8
画層1
  6
DASHED2
 62
     0
100
AcDbLine
 10
-63.18
 20
99.09
 30
0.0
 11
-62.68
 21
99.09
 31
0.0
  0
LINE
  5
11F
330
2
100
AcDbEntity
  8
画層1
  6
DASHED2
 62
     0
100
AcDbLine
 10
-63.18
 20
98.09000000000001
 30
0.0
 11
-63.18
 21
99.09
 31
0.0
  0
LINE
  5
120
330
2
100
AcDbEntity
  8
画層1
  6
DASHED2
 62
     0
100
AcDbLine
 10
-62.68
 20
98.09000000000001
 30
0.0
 11
-63.18
 21
98.09000000000001
 31
0.0
  0
ARC
  5
121
330
2
100
AcDbEntity
  8
画層1
  6
DASHED2
 62
     0
100
AcDbCircle
 10
-62.68
 20
100.09
 30
0.0
 40
1.0
100
AcDbArc
 50
270.0
 51
0.0
  0
ARC
  5
122
330
2
100
AcDbEntity
  8
画層1
  6
DASHED2
 62
     0
100
AcDbCircle
 10
-61.18
 20
98.59000000000001
 30
0.0
 40
4.5
100
AcDbArc
 50
332.73
 51
27.27
  0
LINE
  5
123
330
2
100
AcDbEntity
  8
画層1
  6
DASHED2
 62
     0
100
AcDbLine
 10
-60.68
 20
100.59
 30
0.0
 11
-60.68
 21
100.09
 31
0.0
  0
LINE
  5
124
330
2
100
AcDbEntity
  8
画層1
  6
DASHED2
 62
     0
100
AcDbLine
 10
-60.68
 20
97.09000000000001
 30
0.0
 11
-60.68
 21
96.59
 31
0.0
  0
LINE
  5
125
330
2
100
AcDbEntity
  8
画層1
  6
DASHED2
 62
     0
100
AcDbLine
 10
-59.67999999999999
 20
99.09
 30
0.0
 11
-59.18
 21
99.09
 31
0.0
  0
LINE
  5
126
330
2
100
AcDbEntity
  8
画層1
  6
DASHED2
 62
     0
100
AcDbLine
 10
-59.18
 20
98.09000000000001
 30
0.0
 11
-59.18
 21
99.09
 31
0.0
  0
LINE
  5
127
330
2
100
AcDbEntity
  8
画層1
  6
DASHED2
 62
     0
100
AcDbLine
 10
-59.18
 20
98.09000000000001
 30
0.0
 11
-59.67999999999999
 21
98.09000000000001
 31
0.0
  0
ARC
  5
128
330
2
100
AcDbEntity
  8
画層1
  6
DASHED2
 62
     0
100
AcDbCircle
 10
-50.18
 20
98.59000000000001
 30
0.0
 40
4.5
100
AcDbArc
 50
152.7299999999999
 51
207.27
  0
LINE
  5
129
330
2
100
AcDbEntity
  8
画層1
  6
DASHED2
 62
     0
100
AcDbLine
 10
-32.68
 20
107.59
 30
0.0
 11
-32.68
 21
89.59000000000001
 31
0.0
  0
LINE
  5
12A
330
2
100
AcDbEntity
  8
画層1
  6
CENTER
 62
     0
100
AcDbLine
 10
-17.67999999999999
 20
106.0899999999999
 30
0.0
 11
-17.67999999999999
 21
83.58999999999999
 31
0.0
  0
LINE
  5
12B
330
2
100
AcDbEntity
  8
画層1
  6
DASHED2
 62
     0
100
AcDbLine
 10
-46.18
 20
107.59
 30
0.0
 11
-46.18
 21
100.65
 31
0.0
  0
DIMENSION
  5
12C
330
2
100
AcDbEntity
  8
画層1
 62
     0
100
AcDbDimension
  2
*D15
 10
-13.18
 20
73.59
 30
0.0
 11
-2.261928934010153
 21
75.63497461928934
 31
0.0
 70
    32
 71
     5
 42
9.0
  3
STANDARD_WS
100
AcDbAlignedDimension
 13
-22.17999999999999
 23
89.59000000000001
 33
0.0
 14
-13.18
 24
89.59000000000001
 34
0.0
100
AcDbRotatedDimension
1001
ACAD
1000
DSTYLE
1002
{
1070
     3
1000
2-<>キリカキ
1070
    47
1040
0.6
1070
   144
1040
1.0
1070
   146
1040
0.5
1070
   173
1070
     0
1070
   284
1070
     8
1070
   340
1005
2E
1070
   341
1005
2F
1070
     5
1000
OPEN30
1070
     6
1000
OPEN30
1002
}
  0
ARC
  5
13A
330
2
100
AcDbEntity
  8
画層1
  6
DASHED2
 62
     0
100
AcDbCircle
 10
-17.67999999999999
 20
97.59
 30
0.0
 40
4.5
100
AcDbArc
 50
0.0
 51
180.0
  0
LINE
  5
13B
330
2
100
AcDbEntity
  8
画層1
  6
DASHED2
 62
     0
100
AcDbLine
 10
-46.18
 20
96.53
 30
0.0
 11
-46.18
 21
89.59000000000001
 31
0.0
  0
LINE
  5
13C
330
2
100
AcDbEntity
  8
画層1
  6
DASHED2
 62
     0
100
AcDbLine
 10
-48.68
 20
99.09
 30
0.0
 11
-48.18
 21
99.09
 31
0.0
  0
LINE
  5
13D
330
2
100
AcDbEntity
  8
画層1
  6
DASHED2
 62
     0
100
AcDbLine
 10
-48.18
 20
98.09000000000001
 30
0.0
 11
-48.68
 21
98.09000000000001
 31
0.0
  0
LINE
  5
13E
330
2
100
AcDbEntity
  8
画層1
  6
DASHED2
 62
     0
100
AcDbLine
 10
-49.67999999999999
 20
100.59
 30
0.0
 11
-49.67999999999999
 21
100.09
 31
0.0
  0
LINE
  5
13F
330
2
100
AcDbEntity
  8
画層1
  6
DASHED2
 62
     0
100
AcDbLine
 10
-50.68
 20
100.09
 30
0.0
 11
-50.68
 21
100.59
 31
0.0
  0
LINE
  5
140
330
2
100
AcDbEntity
  8
画層1
  6
DASHED2
 62
     0
100
AcDbLine
 10
-50.68
 20
100.59
 30
0.0
 11
-49.67999999999999
 21
100.59
 31
0.0
  0
ARC
  5
141
330
2
100
AcDbEntity
  8
画層1
  6
DASHED2
 62
     0
100
AcDbCircle
 10
-51.68
 20
97.09000000000001
 30
0.0
 40
1.0
100
AcDbArc
 50
0.0
 51
90.0
  0
LINE
  5
142
330
2
100
AcDbEntity
  8
画層1
  6
DASHED2
 62
     0
100
AcDbLine
 10
-50.68
 20
96.59
 30
0.0
 11
-50.68
 21
97.09000000000001
 31
0.0
  0
LINE
  5
143
330
2
100
AcDbEntity
  8
画層1
  6
DASHED2
 62
     0
100
AcDbLine
 10
-49.67999999999999
 20
97.09000000000001
 30
0.0
 11
-49.67999999999999
 21
96.59
 31
0.0
  0
LINE
  5
144
330
2
100
AcDbEntity
  8
画層1
  6
DASHED2
 62
     0
100
AcDbLine
 10
-50.68
 20
96.59
 30
0.0
 11
-49.67999999999999
 21
96.59
 31
0.0
  0
LINE
  5
145
330
2
100
AcDbEntity
  8
画層1
  6
DASHED2
 62
     0
100
AcDbLine
 10
-52.17999999999999
 20
99.09
 30
0.0
 11
-51.68
 21
99.09
 31
0.0
  0
LINE
  5
146
330
2
100
AcDbEntity
  8
画層1
  6
DASHED2
 62
     0
100
AcDbLine
 10
-52.17999999999999
 20
98.09000000000001
 30
0.0
 11
-52.17999999999999
 21
99.09
 31
0.0
  0
LINE
  5
147
330
2
100
AcDbEntity
  8
画層1
  6
DASHED2
 62
     0
100
AcDbLine
 10
-51.68
 20
98.09000000000001
 30
0.0
 11
-52.17999999999999
 21
98.09000000000001
 31
0.0
  0
ARC
  5
148
330
2
100
AcDbEntity
  8
画層1
  6
DASHED2
 62
     0
100
AcDbCircle
 10
-51.68
 20
100.09
 30
0.0
 40
1.0
100
AcDbArc
 50
270.0
 51
0.0
  0
ARC
  5
149
330
2
100
AcDbEntity
  8
画層1
  6
DASHED2
 62
     0
100
AcDbCircle
 10
-48.68
 20
97.09000000000001
 30
0.0
 40
1.0
100
AcDbArc
 50
90.0
 51
180.0
  0
ARC
  5
14A
330
2
100
AcDbEntity
  8
画層1
  6
DASHED2
 62
     0
100
AcDbCircle
 10
-48.68
 20
100.09
 30
0.0
 40
1.0
100
AcDbArc
 50
180.0
 51
270.0
  0
LINE
  5
14B
330
2
100
AcDbEntity
  8
画層1
  6
DASHED2
 62
     0
100
AcDbLine
 10
-48.18
 20
98.09000000000001
 30
0.0
 11
-48.18
 21
99.09
 31
0.0
  0
ARC
  5
14C
330
2
100
AcDbEntity
  8
画層1
  6
DASHED2
 62
     0
100
AcDbCircle
 10
-50.18
 20
98.59000000000001
 30
0.0
 40
4.5
100
AcDbArc
 50
332.73
 51
27.27
  0
LINE
  5
14D
330
2
100
AcDbEntity
  8
画層1
 62
     0
100
AcDbLine
 10
-39.18
 20
101.59
 30
0.0
 11
-39.18
 21
95.59000000000001
 31
0.0
  0
LINE
  5
14E
330
2
100
AcDbEntity
  8
画層1
 62
     0
100
AcDbLine
 10
-42.17999999999999
 20
98.59000000000001
 30
0.0
 11
-36.18
 21
98.59000000000001
 31
0.0
  0
LINE
  5
14F
330
2
100
AcDbEntity
  8
画層1
  6
DASHED2
 62
     0
100
AcDbLine
 10
-22.17999999999999
 20
89.59000000000001
 30
0.0
 11
-22.17999999999999
 21
97.59
 31
0.0
  0
LINE
  5
150
330
2
100
AcDbEntity
  8
画層1
  6
DASHED2
 62
     0
100
AcDbLine
 10
-13.18
 20
89.59000000000001
 30
0.0
 11
-13.18
 21
97.59
 31
0.0
  0
ARC
  5
151
330
2
100
AcDbEntity
  8
画層1
 62
     0
100
AcDbCircle
 10
18.82
 20
101.09
 30
0.0
 40
1.0
100
AcDbArc
 50
90.0
 51
180.0
  0
LINE
  5
152
330
2
100
AcDbEntity
  8
画層1
 62
     0
100
AcDbLine
 10
19.12
 20
102.09
 30
0.0
 11
19.12
 21
103.09
 31
0.0
  0
LINE
  5
153
330
2
100
AcDbEntity
  8
画層1
 62
     0
100
AcDbLine
 10
15.52
 20
102.09
 30
0.0
 11
15.52
 21
103.09
 31
0.0
  0
ARC
  5
154
330
2
100
AcDbEntity
  8
画層1
 62
     0
100
AcDbCircle
 10
15.82
 20
101.09
 30
0.0
 40
1.0
100
AcDbArc
 50
0.0
 51
90.0
  0
CIRCLE
  5
155
330
2
100
AcDbEntity
  8
画層1
 62
     0
100
AcDbCircle
 10
17.32
 20
102.59
 30
0.0
 40
4.0
  0
CIRCLE
  5
156
330
2
100
AcDbEntity
  8
画層1
 62
     0
100
AcDbCircle
 10
17.32
 20
102.59
 30
0.0
 40
3.0
  0
LINE
  5
157
330
2
100
AcDbEntity
  8
画層1
 62
     0
100
AcDbLine
 10
22.32
 20
100.59
 30
0.0
 11
20.78
 21
100.59
 31
0.0
  0
LINE
  5
158
330
2
100
AcDbEntity
  8
画層1
 62
     0
100
AcDbLine
 10
16.82
 20
100.79
 30
0.0
 11
17.82
 21
100.79
 31
0.0
  0
LINE
  5
159
330
2
100
AcDbEntity
  8
画層1
 62
     0
100
AcDbLine
 10
16.82
 20
100.79
 30
0.0
 11
16.82
 21
101.09
 31
0.0
  0
LINE
  5
15A
330
2
100
AcDbEntity
  8
画層1
 62
     0
100
AcDbLine
 10
15.82
 20
102.09
 30
0.0
 11
15.52
 21
102.09
 31
0.0
  0
LINE
  5
15B
330
2
100
AcDbEntity
  8
画層1
 62
     0
100
AcDbLine
 10
19.12
 20
102.09
 30
0.0
 11
18.82
 21
102.09
 31
0.0
  0
LINE
  5
15C
330
2
100
AcDbEntity
  8
画層1
 62
     0
100
AcDbLine
 10
17.82
 20
101.09
 30
0.0
 11
17.82
 21
100.79
 31
0.0
  0
LINE
  5
15D
330
2
100
AcDbEntity
  8
画層1
 62
     0
100
AcDbLine
 10
22.32
 20
104.59
 30
0.0
 11
20.78
 21
104.59
 31
0.0
  0
LINE
  5
15E
330
2
100
AcDbEntity
  8
画層1
 62
     0
100
AcDbLine
 10
16.82
 20
104.39
 30
0.0
 11
17.82
 21
104.39
 31
0.0
  0
LINE
  5
15F
330
2
100
AcDbEntity
  8
画層1
 62
     0
100
AcDbLine
 10
16.82
 20
104.09
 30
0.0
 11
16.82
 21
104.39
 31
0.0
  0
LINE
  5
160
330
2
100
AcDbEntity
  8
画層1
 62
     0
100
AcDbLine
 10
15.52
 20
103.09
 30
0.0
 11
15.82
 21
103.09
 31
0.0
  0
ARC
  5
161
330
2
100
AcDbEntity
  8
画層1
 62
     0
100
AcDbCircle
 10
15.82
 20
104.09
 30
0.0
 40
1.0
100
AcDbArc
 50
270.0
 51
0.0
  0
LINE
  5
162
330
2
100
AcDbEntity
  8
画層1
 62
     0
100
AcDbLine
 10
17.82
 20
104.39
 30
0.0
 11
17.82
 21
104.09
 31
0.0
  0
ARC
  5
163
330
2
100
AcDbEntity
  8
画層1
 62
     0
100
AcDbCircle
 10
18.82
 20
104.09
 30
0.0
 40
1.0
100
AcDbArc
 50
180.0
 51
270.0
  0
LINE
  5
164
330
2
100
AcDbEntity
  8
画層1
 62
     0
100
AcDbLine
 10
18.82
 20
103.09
 30
0.0
 11
19.12
 21
103.09
 31
0.0
  0
LINE
  5
165
330
2
100
AcDbEntity
  8
画層1
 62
     0
100
AcDbLine
 10
128.3199999999999
 20
103.29
 30
0.0
 11
128.3199999999999
 21
101.8899999999999
 31
0.0
  0
LINE
  5
166
330
2
100
AcDbEntity
  8
画層1
 62
     0
100
AcDbLine
 10
127.5199999999999
 20
104.09
 30
0.0
 11
127.5199999999999
 21
101.09
 31
0.0
  0
LINE
  5
167
330
2
100
AcDbEntity
  8
画層1
 62
     0
100
AcDbLine
 10
120.32
 20
104.19
 30
0.0
 11
120.32
 21
100.99
 31
0.0
  0
LINE
  5
168
330
2
100
AcDbEntity
  8
画層1
 62
     0
100
AcDbLine
 10
121.72
 20
106.39
 30
0.0
 11
121.72
 21
98.79000000000001
 31
0.0
  0
LINE
  5
169
330
2
100
AcDbEntity
  8
画層1
 62
     0
100
AcDbLine
 10
128.3199999999999
 20
101.8899999999999
 30
0.0
 11
124.92
 21
101.8899999999999
 31
0.0
  0
LINE
  5
16A
330
2
100
AcDbEntity
  8
画層1
 62
     0
100
AcDbLine
 10
128.3199999999999
 20
101.8899999999999
 30
0.0
 11
127.5199999999999
 21
101.09
 31
0.0
  0
LINE
  5
16B
330
2
100
AcDbEntity
  8
画層1
 62
     0
100
AcDbLine
 10
137.3199999999999
 20
88.58999999999999
 30
0.0
 11
123.3199999999999
 21
88.58999999999999
 31
0.0
  0
LINE
  5
16C
330
2
100
AcDbEntity
  8
画層1
 62
     0
100
AcDbLine
 10
122.32
 20
87.59
 30
0.0
 11
137.3199999999999
 21
87.59
 31
0.0
  0
LINE
  5
16D
330
2
100
AcDbEntity
  8
画層1
 62
     0
100
AcDbLine
 10
121.32
 20
99.99
 30
0.0
 11
121.72
 21
99.99
 31
0.0
  0
LINE
  5
16E
330
2
100
AcDbEntity
  8
画層1
 62
     0
100
AcDbLine
 10
121.72
 20
98.79000000000001
 30
0.0
 11
122.32
 21
98.79000000000001
 31
0.0
  0
ARC
  5
16F
330
2
100
AcDbEntity
  8
画層1
 62
     0
100
AcDbCircle
 10
121.32
 20
100.99
 30
0.0
 40
1.0
100
AcDbArc
 50
180.0
 51
270.0
  0
LINE
  5
170
330
2
100
AcDbEntity
  8
画層1
 62
     0
100
AcDbLine
 10
127.5199999999999
 20
101.09
 30
0.0
 11
124.92
 21
101.09
 31
0.0
  0
LINE
  5
171
330
2
100
AcDbEntity
  8
画層1
 62
     0
100
AcDbLine
 10
137.3199999999999
 20
87.59
 30
0.0
 11
137.3199999999999
 21
88.58999999999999
 31
0.0
  0
LINE
  5
172
330
2
100
AcDbEntity
  8
画層1
 62
     0
100
AcDbLine
 10
127.5199999999999
 20
104.09
 30
0.0
 11
128.3199999999999
 21
103.29
 31
0.0
  0
LINE
  5
173
330
2
100
AcDbEntity
  8
画層1
 62
     0
100
AcDbLine
 10
124.92
 20
103.29
 30
0.0
 11
128.3199999999999
 21
103.29
 31
0.0
  0
LINE
  5
174
330
2
100
AcDbEntity
  8
画層1
 62
     0
100
AcDbLine
 10
121.72
 20
105.19
 30
0.0
 11
121.32
 21
105.19
 31
0.0
  0
ARC
  5
175
330
2
100
AcDbEntity
  8
画層1
 62
     0
100
AcDbCircle
 10
121.32
 20
104.19
 30
0.0
 40
1.0
100
AcDbArc
 50
90.0
 51
180.0
  0
LINE
  5
176
330
2
100
AcDbEntity
  8
画層1
 62
     0
100
AcDbLine
 10
120.32
 20
102.19
 30
0.0
 11
120.92
 21
102.19
 31
0.0
  0
LINE
  5
177
330
2
100
AcDbEntity
  8
画層1
 62
     0
100
AcDbLine
 10
120.92
 20
102.19
 30
0.0
 11
120.92
 21
102.99
 31
0.0
  0
LINE
  5
178
330
2
100
AcDbEntity
  8
画層1
 62
     0
100
AcDbLine
 10
120.92
 20
102.99
 30
0.0
 11
120.32
 21
102.99
 31
0.0
  0
LINE
  5
179
330
2
100
AcDbEntity
  8
画層1
 62
     0
100
AcDbLine
 10
122.32
 20
106.39
 30
0.0
 11
121.72
 21
106.39
 31
0.0
  0
LINE
  5
17A
330
2
100
AcDbEntity
  8
画層1
 62
     0
100
AcDbLine
 10
124.92
 20
104.09
 30
0.0
 11
127.5199999999999
 21
104.09
 31
0.0
  0
LINE
  5
17B
330
2
100
AcDbEntity
  8
画層1
  6
DASHED2
 62
     0
100
AcDbLine
 10
185.32
 20
107.59
 30
0.0
 11
185.32
 21
89.59000000000001
 31
0.0
  0
ARC
  5
17C
330
2
100
AcDbEntity
  8
画層1
  6
DASHED2
 62
     0
100
AcDbCircle
 10
173.32
 20
101.09
 30
0.0
 40
1.0
100
AcDbArc
 50
90.0
 51
180.0
  0
LINE
  5
17D
330
2
100
AcDbEntity
  8
画層1
  6
DASHED2
 62
     0
100
AcDbLine
 10
175.3199999999999
 20
107.59
 30
0.0
 11
175.3199999999999
 21
89.59000000000001
 31
0.0
  0
LINE
  5
17E
330
2
100
AcDbEntity
  8
画層1
  6
DASHED2
 62
     0
100
AcDbLine
 10
170.32
 20
89.59000000000001
 30
0.0
 11
170.32
 21
107.59
 31
0.0
  0
LINE
  5
17F
330
2
100
AcDbEntity
  8
画層1
  6
DASHED2
 62
     0
100
AcDbLine
 10
185.32
 20
89.59000000000001
 30
0.0
 11
170.32
 21
89.59000000000001
 31
0.0
  0
LINE
  5
180
330
2
100
AcDbEntity
  8
画層1
  6
DASHED2
 62
     0
100
AcDbLine
 10
172.32
 20
101.09
 30
0.0
 11
172.32
 21
96.09000000000001
 31
0.0
  0
ARC
  5
181
330
2
100
AcDbEntity
  8
画層1
  6
DASHED2
 62
     0
100
AcDbCircle
 10
173.32
 20
96.09000000000001
 30
0.0
 40
1.0
100
AcDbArc
 50
180.0
 51
270.0
  0
LINE
  5
182
330
2
100
AcDbEntity
  8
画層1
  6
DASHED2
 62
     0
100
AcDbLine
 10
173.32
 20
95.09
 30
0.0
 11
175.3199999999999
 21
95.09
 31
0.0
  0
LINE
  5
183
330
2
100
AcDbEntity
  8
画層1
  6
DASHED2
 62
     0
100
AcDbLine
 10
172.9199999999999
 20
98.19
 30
0.0
 11
172.32
 21
98.19
 31
0.0
  0
LINE
  5
184
330
2
100
AcDbEntity
  8
画層1
  6
DASHED2
 62
     0
100
AcDbLine
 10
172.32
 20
98.99
 30
0.0
 11
172.9199999999999
 21
98.99
 31
0.0
  0
LINE
  5
185
330
2
100
AcDbEntity
  8
画層1
  6
DASHED2
 62
     0
100
AcDbLine
 10
172.9199999999999
 20
98.99
 30
0.0
 11
172.9199999999999
 21
98.19
 31
0.0
  0
LINE
  5
186
330
2
100
AcDbEntity
  8
画層1
  6
DASHED2
 62
     0
100
AcDbLine
 10
175.3199999999999
 20
102.09
 30
0.0
 11
173.32
 21
102.09
 31
0.0
  0
LINE
  5
187
330
2
100
AcDbEntity
  8
画層1
  6
DASHED2
 62
     0
100
AcDbLine
 10
170.32
 20
107.59
 30
0.0
 11
185.32
 21
107.59
 31
0.0
  0
DIMENSION
  5
188
330
2
100
AcDbEntity
  8
画層1
 62
     0
100
AcDbDimension
  2
*D17
 10
-17.67999999999999
 20
421.5899999999999
 30
0.0
 11
-77.68
 21
423.47
 31
0.0
 70
    32
 71
     5
 42
120.0
  3
STANDARD_WS
100
AcDbAlignedDimension
 13
-137.68
 23
389.0899999999999
 33
0.0
 14
-17.67999999999999
 24
389.0899999999999
 34
0.0
100
AcDbRotatedDimension
1001
ACAD
1000
DSTYLE
1002
{
1070
    47
1040
0.6
1070
   144
1040
1.0
1070
   146
1040
0.5
1070
   173
1070
     0
1070
   284
1070
     8
1070
   340
1005
2E
1070
   341
1005
2F
1070
     5
1000
OPEN30
1070
     6
1000
OPEN30
1002
}
  0
DIMENSION
  5
195
330
2
100
AcDbEntity
  8
画層1
 62
     0
100
AcDbDimension
  2
*D16
 10
22.32
 20
435.59
 30
0.0
 11
-77.68
 21
437.4699999999999
 31
0.0
 70
    32
 71
     5
 42
200.0
  3
STANDARD_WS
100
AcDbAlignedDimension
 13
-177.68
 23
407.5899999999999
 33
0.0
 14
22.32
 24
407.5899999999999
 34
0.0
100
AcDbRotatedDimension
1001
ACAD
1000
DSTYLE
1002
{
1070
    47
1040
0.6
1070
   144
1040
1.0
1070
   146
1040
0.5
1070
   173
1070
     0
1070
   284
1070
     8
1070
   340
1005
2E
1070
   341
1005
2F
1070
     5
1000
OPEN30
1070
     6
1000
OPEN30
1002
}
  0
LINE
  5
1A2
330
2
100
AcDbEntity
  8
画層1
  6
CENTER
 62
     0
100
AcDbLine
 10
-181.68
 20
247.59
 30
0.0
 11
26.32
 21
247.59
 31
0.0
  0
LINE
  5
1A3
330
2
100
AcDbEntity
  8
画層1
  6
DASHED2
 62
     0
100
AcDbLine
 10
-177.68
 20
406.09
 30
0.0
 11
22.32
 21
406.09
 31
0.0
  0
LINE
  5
1A4
330
2
100
AcDbEntity
  8
画層1
 62
     0
100
AcDbLine
 10
-177.68
 20
407.5899999999999
 30
0.0
 11
22.32
 21
407.5899999999999
 31
0.0
  0
LINE
  5
1A5
330
2
100
AcDbEntity
  8
画層1
 62
     0
100
AcDbLine
 10
-144.18
 20
337.55
 30
0.0
 11
-144.18
 21
330.55
 31
0.0
  0
LINE
  5
1A6
330
2
100
AcDbEntity
  8
画層1
 62
     0
100
AcDbLine
 10
-151.18
 20
330.55
 30
0.0
 11
-151.18
 21
337.55
 31
0.0
  0
CIRCLE
  5
1A7
330
2
100
AcDbEntity
  8
画層1
 62
     0
100
AcDbCircle
 10
-147.68
 20
334.05
 30
0.0
 40
3.0
  0
LINE
  5
1A8
330
2
100
AcDbEntity
  8
画層1
 62
     0
100
AcDbLine
 10
-143.68
 20
340.05
 30
0.0
 11
-143.68
 21
237.65
 31
0.0
  0
LINE
  5
1A9
330
2
100
AcDbEntity
  8
画層1
 62
     0
100
AcDbLine
 10
-162.48
 20
341.5899999999999
 30
0.0
 11
-162.48
 21
236.5899999999999
 31
0.0
  0
LINE
  5
1AA
330
2
100
AcDbEntity
  8
画層1
 62
     0
100
AcDbLine
 10
-153.08
 20
341.5899999999999
 30
0.0
 11
-153.08
 21
236.5899999999999
 31
0.0
  0
LINE
  5
1AB
330
2
100
AcDbEntity
  8
画層1
 62
     0
100
AcDbLine
 10
-142.68
 20
235.59
 30
0.0
 11
-142.68
 21
342.5899999999999
 31
0.0
  0
LINE
  5
1AC
330
2
100
AcDbEntity
  8
画層1
 62
     0
100
AcDbLine
 10
-143.68
 20
236.5899999999999
 30
0.0
 11
-143.68
 21
341.5899999999999
 31
0.0
  0
LINE
  5
1AD
330
2
100
AcDbEntity
  8
画層1
 62
     0
100
AcDbLine
 10
-167.28
 20
341.5899999999999
 30
0.0
 11
-167.28
 21
236.5899999999999
 31
0.0
  0
LINE
  5
1AE
330
2
100
AcDbEntity
  8
画層1
 62
     0
100
AcDbLine
 10
-165.68
 20
341.5899999999999
 30
0.0
 11
-165.68
 21
236.5899999999999
 31
0.0
  0
LINE
  5
1AF
330
2
100
AcDbEntity
  8
画層1
 62
     0
100
AcDbLine
 10
-129.68
 20
173.5899999999999
 30
0.0
 11
-129.68
 21
361.5899999999999
 31
0.0
  0
LINE
  5
1B0
330
2
100
AcDbEntity
  8
画層1
 62
     0
100
AcDbLine
 10
-64.68
 20
361.5899999999999
 30
0.0
 11
-64.68
 21
173.5899999999999
 31
0.0
  0
LINE
  5
1B1
330
2
100
AcDbEntity
  8
画層1
 62
     0
100
AcDbLine
 10
-59.67999999999999
 20
377.0899999999999
 30
0.0
 11
-59.67999999999999
 21
169.09
 31
0.0
  0
CIRCLE
  5
1B2
330
2
100
AcDbEntity
  8
画層1
 62
     0
100
AcDbCircle
 10
-157.08
 20
243.65
 30
0.0
 40
3.0
  0
LINE
  5
1B3
330
2
100
AcDbEntity
  8
画層1
 62
     0
100
AcDbLine
 10
-160.58
 20
240.1499999999999
 30
0.0
 11
-160.58
 21
247.15
 31
0.0
  0
LINE
  5
1B4
330
2
100
AcDbEntity
  8
画層1
 62
     0
100
AcDbLine
 10
-153.58
 20
247.15
 30
0.0
 11
-153.58
 21
240.1499999999999
 31
0.0
  0
LINE
  5
1B5
330
2
100
AcDbEntity
  8
画層1
 62
     0
100
AcDbLine
 10
-67.68
 20
170.5899999999999
 30
0.0
 11
-126.68
 21
170.5899999999999
 31
0.0
  0
LINE
  5
1B6
330
2
100
AcDbEntity
  8
画層1
 62
     0
100
AcDbLine
 10
-63.18
 20
165.59
 30
0.0
 11
-161.18
 21
165.59
 31
0.0
  0
LINE
  5
1B7
330
2
100
AcDbEntity
  8
画層1
 62
     0
100
AcDbLine
 10
-164.6799999999999
 20
169.09
 30
0.0
 11
-164.6799999999999
 21
235.59
 31
0.0
  0
ARC
  5
1B8
330
2
100
AcDbEntity
  8
画層1
 62
     0
100
AcDbCircle
 10
-161.18
 20
169.09
 30
0.0
 40
3.5
100
AcDbArc
 50
180.0
 51
270.0
  0
ARC
  5
1B9
330
2
100
AcDbEntity
  8
画層1
 62
     0
100
AcDbCircle
 10
-126.68
 20
173.5899999999999
 30
0.0
 40
3.0
100
AcDbArc
 50
180.0
 51
270.0
  0
LINE
  5
1BA
330
2
100
AcDbEntity
  8
画層1
 62
     0
100
AcDbLine
 10
-164.6799999999999
 20
235.59
 30
0.0
 11
-142.68
 21
235.59
 31
0.0
  0
LINE
  5
1BB
330
2
100
AcDbEntity
  8
画層1
 62
     0
100
AcDbLine
 10
-175.68
 20
236.5899999999999
 30
0.0
 11
-143.68
 21
236.5899999999999
 31
0.0
  0
ARC
  5
1BC
330
2
100
AcDbEntity
  8
画層1
 62
     0
100
AcDbCircle
 10
-175.68
 20
234.5899999999999
 30
0.0
 40
2.0
100
AcDbArc
 50
90.0
 51
180.0
  0
LINE
  5
1BD
330
2
100
AcDbEntity
  8
画層1
 62
     0
100
AcDbLine
 10
-153.58
 20
240.1499999999999
 30
0.0
 11
-160.58
 21
240.1499999999999
 31
0.0
  0
LINE
  5
1BE
330
2
100
AcDbEntity
  8
画層1
 62
     0
100
AcDbLine
 10
-162.48
 20
239.65
 30
0.0
 11
-153.08
 21
239.65
 31
0.0
  0
ARC
  5
1BF
330
2
100
AcDbEntity
  8
画層1
 62
     0
100
AcDbCircle
 10
-67.68
 20
173.5899999999999
 30
0.0
 40
3.0
100
AcDbArc
 50
270.0
 51
0.0
  0
ARC
  5
1C0
330
2
100
AcDbEntity
  8
画層1
 62
     0
100
AcDbCircle
 10
-63.18
 20
169.09
 30
0.0
 40
3.5
100
AcDbArc
 50
270.0
 51
0.0
  0
ARC
  5
1C1
330
2
100
AcDbEntity
  8
画層1
 62
     0
100
AcDbCircle
 10
-146.18
 20
288.55
 30
0.0
 40
1.0
100
AcDbArc
 50
180.0
 51
270.0
  0
LINE
  5
1C2
330
2
100
AcDbEntity
  8
画層1
 62
     0
100
AcDbLine
 10
-144.18
 20
290.5499999999999
 30
0.0
 11
-144.18
 21
283.55
 31
0.0
  0
ARC
  5
1C3
330
2
100
AcDbEntity
  8
画層1
 62
     0
100
AcDbCircle
 10
-149.18
 20
288.55
 30
0.0
 40
1.0
100
AcDbArc
 50
270.0
 51
0.0
  0
LINE
  5
1C4
330
2
100
AcDbEntity
  8
画層1
 62
     0
100
AcDbLine
 10
-153.58
 20
294.1499999999999
 30
0.0
 11
-153.58
 21
287.1499999999999
 31
0.0
  0
LINE
  5
1C5
330
2
100
AcDbEntity
  8
画層1
 62
     0
100
AcDbLine
 10
-160.58
 20
287.1499999999999
 30
0.0
 11
-160.58
 21
294.1499999999999
 31
0.0
  0
CIRCLE
  5
1C6
330
2
100
AcDbEntity
  8
画層1
 62
     0
100
AcDbCircle
 10
-157.08
 20
290.6499999999999
 30
0.0
 40
3.0
  0
LINE
  5
1C7
330
2
100
AcDbEntity
  8
画層1
 62
     0
100
AcDbLine
 10
-151.18
 20
283.55
 30
0.0
 11
-151.18
 21
290.5499999999999
 31
0.0
  0
CIRCLE
  5
1C8
330
2
100
AcDbEntity
  8
画層1
 62
     0
100
AcDbCircle
 10
-147.68
 20
287.05
 30
0.0
 40
3.0
  0
LINE
  5
1C9
330
2
100
AcDbEntity
  8
画層1
 62
     0
100
AcDbLine
 10
-151.18
 20
281.1499999999999
 30
0.0
 11
-144.18
 21
281.1499999999999
 31
0.0
  0
LINE
  5
1CA
330
2
100
AcDbEntity
  8
画層1
 62
     0
100
AcDbLine
 10
-144.18
 20
283.55
 30
0.0
 11
-151.18
 21
283.55
 31
0.0
  0
LINE
  5
1CB
330
2
100
AcDbEntity
  8
画層1
 62
     0
100
AcDbLine
 10
-153.08
 20
281.6499999999999
 30
0.0
 11
-143.68
 21
281.6499999999999
 31
0.0
  0
LINE
  5
1CC
330
2
100
AcDbEntity
  8
画層1
 62
     0
100
AcDbLine
 10
-153.08
 20
283.05
 30
0.0
 11
-143.68
 21
283.05
 31
0.0
  0
LINE
  5
1CD
330
2
100
AcDbEntity
  8
画層1
 62
     0
100
AcDbLine
 10
-151.18
 20
271.75
 30
0.0
 11
-144.18
 21
271.75
 31
0.0
  0
LINE
  5
1CE
330
2
100
AcDbEntity
  8
画層1
 62
     0
100
AcDbLine
 10
-144.18
 20
264.7499999999999
 30
0.0
 11
-151.18
 21
264.7499999999999
 31
0.0
  0
LINE
  5
1CF
330
2
100
AcDbEntity
  8
画層1
 62
     0
100
AcDbLine
 10
-144.18
 20
274.1499999999999
 30
0.0
 11
-151.18
 21
274.1499999999999
 31
0.0
  0
LINE
  5
1D0
330
2
100
AcDbEntity
  8
画層1
 62
     0
100
AcDbLine
 10
-151.18
 20
252.95
 30
0.0
 11
-144.18
 21
252.95
 31
0.0
  0
LINE
  5
1D1
330
2
100
AcDbEntity
  8
画層1
 62
     0
100
AcDbLine
 10
-151.18
 20
262.35
 30
0.0
 11
-144.18
 21
262.35
 31
0.0
  0
LINE
  5
1D2
330
2
100
AcDbEntity
  8
画層1
 62
     0
100
AcDbLine
 10
-144.18
 20
255.35
 30
0.0
 11
-151.18
 21
255.35
 31
0.0
  0
LINE
  5
1D3
330
2
100
AcDbEntity
  8
画層1
 62
     0
100
AcDbLine
 10
-153.08
 20
253.4499999999999
 30
0.0
 11
-143.68
 21
253.4499999999999
 31
0.0
  0
LINE
  5
1D4
330
2
100
AcDbEntity
  8
画層1
 62
     0
100
AcDbLine
 10
-153.08
 20
262.85
 30
0.0
 11
-143.68
 21
262.85
 31
0.0
  0
LINE
  5
1D5
330
2
100
AcDbEntity
  8
画層1
 62
     0
100
AcDbLine
 10
-153.08
 20
254.85
 30
0.0
 11
-143.68
 21
254.85
 31
0.0
  0
LINE
  5
1D6
330
2
100
AcDbEntity
  8
画層1
 62
     0
100
AcDbLine
 10
-153.08
 20
264.25
 30
0.0
 11
-143.68
 21
264.25
 31
0.0
  0
LINE
  5
1D7
330
2
100
AcDbEntity
  8
画層1
 62
     0
100
AcDbLine
 10
-153.08
 20
272.25
 30
0.0
 11
-143.68
 21
272.25
 31
0.0
  0
LINE
  5
1D8
330
2
100
AcDbEntity
  8
画層1
 62
     0
100
AcDbLine
 10
-153.08
 20
273.6499999999999
 30
0.0
 11
-143.68
 21
273.6499999999999
 31
0.0
  0
LINE
  5
1D9
330
2
100
AcDbEntity
  8
画層1
 62
     0
100
AcDbLine
 10
-144.18
 20
245.9499999999999
 30
0.0
 11
-151.18
 21
245.9499999999999
 31
0.0
  0
LINE
  5
1DA
330
2
100
AcDbEntity
  8
画層1
 62
     0
100
AcDbLine
 10
-153.08
 20
245.4499999999999
 30
0.0
 11
-143.68
 21
245.4499999999999
 31
0.0
  0
CIRCLE
  5
1DB
330
2
100
AcDbEntity
  8
画層1
 62
     0
100
AcDbCircle
 10
-157.08
 20
262.4499999999999
 30
0.0
 40
3.0
  0
LINE
  5
1DC
330
2
100
AcDbEntity
  8
画層1
 62
     0
100
AcDbLine
 10
-160.58
 20
258.95
 30
0.0
 11
-160.58
 21
265.9499999999999
 31
0.0
  0
LINE
  5
1DD
330
2
100
AcDbEntity
  8
画層1
 62
     0
100
AcDbLine
 10
-153.58
 20
265.9499999999999
 30
0.0
 11
-153.58
 21
258.95
 31
0.0
  0
LINE
  5
1DE
330
2
100
AcDbEntity
  8
画層1
 62
     0
100
AcDbLine
 10
-151.18
 20
245.9499999999999
 30
0.0
 11
-151.18
 21
252.95
 31
0.0
  0
CIRCLE
  5
1DF
330
2
100
AcDbEntity
  8
画層1
 62
     0
100
AcDbCircle
 10
-157.08
 20
253.0499999999999
 30
0.0
 40
3.0
  0
LINE
  5
1E0
330
2
100
AcDbEntity
  8
画層1
 62
     0
100
AcDbLine
 10
-160.58
 20
249.55
 30
0.0
 11
-160.58
 21
256.55
 31
0.0
  0
LINE
  5
1E1
330
2
100
AcDbEntity
  8
画層1
 62
     0
100
AcDbLine
 10
-153.58
 20
256.55
 30
0.0
 11
-153.58
 21
249.55
 31
0.0
  0
LINE
  5
1E2
330
2
100
AcDbEntity
  8
画層1
 62
     0
100
AcDbLine
 10
-158.58
 20
252.55
 30
0.0
 11
-160.04
 21
252.55
 31
0.0
  0
LINE
  5
1E3
330
2
100
AcDbEntity
  8
画層1
 62
     0
100
AcDbLine
 10
-158.58
 20
243.15
 30
0.0
 11
-160.04
 21
243.15
 31
0.0
  0
LINE
  5
1E4
330
2
100
AcDbEntity
  8
画層1
 62
     0
100
AcDbLine
 10
-160.04
 20
244.15
 30
0.0
 11
-158.58
 21
244.15
 31
0.0
  0
LINE
  5
1E5
330
2
100
AcDbEntity
  8
画層1
 62
     0
100
AcDbLine
 10
-153.58
 20
249.55
 30
0.0
 11
-160.58
 21
249.55
 31
0.0
  0
LINE
  5
1E6
330
2
100
AcDbEntity
  8
画層1
 62
     0
100
AcDbLine
 10
-160.58
 20
247.15
 30
0.0
 11
-153.58
 21
247.15
 31
0.0
  0
LINE
  5
1E7
330
2
100
AcDbEntity
  8
画層1
 62
     0
100
AcDbLine
 10
-162.48
 20
249.05
 30
0.0
 11
-153.08
 21
249.05
 31
0.0
  0
LINE
  5
1E8
330
2
100
AcDbEntity
  8
画層1
 62
     0
100
AcDbLine
 10
-162.48
 20
247.65
 30
0.0
 11
-153.08
 21
247.65
 31
0.0
  0
LINE
  5
1E9
330
2
100
AcDbEntity
  8
画層1
 62
     0
100
AcDbLine
 10
-154.12
 20
243.15
 30
0.0
 11
-155.58
 21
243.15
 31
0.0
  0
LINE
  5
1EA
330
2
100
AcDbEntity
  8
画層1
 62
     0
100
AcDbLine
 10
-155.58
 20
244.15
 30
0.0
 11
-154.12
 21
244.15
 31
0.0
  0
ARC
  5
1EB
330
2
100
AcDbEntity
  8
画層1
 62
     0
100
AcDbCircle
 10
-158.58
 20
245.15
 30
0.0
 40
1.0
100
AcDbArc
 50
270.0
 51
0.0
  0
ARC
  5
1EC
330
2
100
AcDbEntity
  8
画層1
 62
     0
100
AcDbCircle
 10
-158.58
 20
242.1499999999999
 30
0.0
 40
1.0
100
AcDbArc
 50
0.0
 51
90.0
  0
LINE
  5
1ED
330
2
100
AcDbEntity
  8
画層1
 62
     0
100
AcDbLine
 10
-156.58
 20
245.4499999999999
 30
0.0
 11
-156.58
 21
245.15
 31
0.0
  0
LINE
  5
1EE
330
2
100
AcDbEntity
  8
画層1
 62
     0
100
AcDbLine
 10
-157.58
 20
245.15
 30
0.0
 11
-157.58
 21
245.4499999999999
 31
0.0
  0
LINE
  5
1EF
330
2
100
AcDbEntity
  8
画層1
 62
     0
100
AcDbLine
 10
-157.58
 20
245.4499999999999
 30
0.0
 11
-156.58
 21
245.4499999999999
 31
0.0
  0
LINE
  5
1F0
330
2
100
AcDbEntity
  8
画層1
 62
     0
100
AcDbLine
 10
-157.58
 20
241.8499999999999
 30
0.0
 11
-157.58
 21
242.1499999999999
 31
0.0
  0
LINE
  5
1F1
330
2
100
AcDbEntity
  8
画層1
 62
     0
100
AcDbLine
 10
-156.58
 20
242.1499999999999
 30
0.0
 11
-156.58
 21
241.8499999999999
 31
0.0
  0
LINE
  5
1F2
330
2
100
AcDbEntity
  8
画層1
 62
     0
100
AcDbLine
 10
-157.58
 20
241.8499999999999
 30
0.0
 11
-156.58
 21
241.8499999999999
 31
0.0
  0
ARC
  5
1F3
330
2
100
AcDbEntity
  8
画層1
 62
     0
100
AcDbCircle
 10
-155.58
 20
245.15
 30
0.0
 40
1.0
100
AcDbArc
 50
180.0
 51
270.0
  0
ARC
  5
1F4
330
2
100
AcDbEntity
  8
画層1
 62
     0
100
AcDbCircle
 10
-155.58
 20
242.1499999999999
 30
0.0
 40
1.0
100
AcDbArc
 50
90.0
 51
180.0
  0
LINE
  5
1F5
330
2
100
AcDbEntity
  8
画層1
 62
     0
100
AcDbLine
 10
-154.12
 20
252.55
 30
0.0
 11
-155.58
 21
252.55
 31
0.0
  0
LINE
  5
1F6
330
2
100
AcDbEntity
  8
画層1
 62
     0
100
AcDbLine
 10
-157.58
 20
251.25
 30
0.0
 11
-157.58
 21
251.55
 31
0.0
  0
LINE
  5
1F7
330
2
100
AcDbEntity
  8
画層1
 62
     0
100
AcDbLine
 10
-156.58
 20
251.55
 30
0.0
 11
-156.58
 21
251.25
 31
0.0
  0
LINE
  5
1F8
330
2
100
AcDbEntity
  8
画層1
 62
     0
100
AcDbLine
 10
-157.58
 20
251.25
 30
0.0
 11
-156.58
 21
251.25
 31
0.0
  0
ARC
  5
1F9
330
2
100
AcDbEntity
  8
画層1
 62
     0
100
AcDbCircle
 10
-158.58
 20
251.55
 30
0.0
 40
1.0
100
AcDbArc
 50
0.0
 51
90.0
  0
ARC
  5
1FA
330
2
100
AcDbEntity
  8
画層1
 62
     0
100
AcDbCircle
 10
-155.58
 20
251.55
 30
0.0
 40
1.0
100
AcDbArc
 50
90.0
 51
180.0
  0
LINE
  5
1FB
330
2
100
AcDbEntity
  8
画層1
 62
     0
100
AcDbLine
 10
-158.58
 20
261.9499999999999
 30
0.0
 11
-160.04
 21
261.9499999999999
 31
0.0
  0
LINE
  5
1FC
330
2
100
AcDbEntity
  8
画層1
 62
     0
100
AcDbLine
 10
-160.04
 20
262.9499999999999
 30
0.0
 11
-158.58
 21
262.9499999999999
 31
0.0
  0
LINE
  5
1FD
330
2
100
AcDbEntity
  8
画層1
 62
     0
100
AcDbLine
 10
-160.04
 20
253.55
 30
0.0
 11
-158.58
 21
253.55
 31
0.0
  0
LINE
  5
1FE
330
2
100
AcDbEntity
  8
画層1
 62
     0
100
AcDbLine
 10
-153.58
 20
258.95
 30
0.0
 11
-160.58
 21
258.95
 31
0.0
  0
LINE
  5
1FF
330
2
100
AcDbEntity
  8
画層1
 62
     0
100
AcDbLine
 10
-160.58
 20
256.55
 30
0.0
 11
-153.58
 21
256.55
 31
0.0
  0
LINE
  5
200
330
2
100
AcDbEntity
  8
画層1
 62
     0
100
AcDbLine
 10
-162.48
 20
258.4499999999999
 30
0.0
 11
-153.08
 21
258.4499999999999
 31
0.0
  0
LINE
  5
201
330
2
100
AcDbEntity
  8
画層1
 62
     0
100
AcDbLine
 10
-162.48
 20
257.05
 30
0.0
 11
-153.08
 21
257.05
 31
0.0
  0
LINE
  5
202
330
2
100
AcDbEntity
  8
画層1
 62
     0
100
AcDbLine
 10
-151.18
 20
255.35
 30
0.0
 11
-151.18
 21
262.35
 31
0.0
  0
LINE
  5
203
330
2
100
AcDbEntity
  8
画層1
 62
     0
100
AcDbLine
 10
-155.58
 20
253.55
 30
0.0
 11
-154.12
 21
253.55
 31
0.0
  0
ARC
  5
204
330
2
100
AcDbEntity
  8
画層1
 62
     0
100
AcDbCircle
 10
-158.58
 20
254.55
 30
0.0
 40
1.0
100
AcDbArc
 50
270.0
 51
0.0
  0
LINE
  5
205
330
2
100
AcDbEntity
  8
画層1
 62
     0
100
AcDbLine
 10
-156.58
 20
254.85
 30
0.0
 11
-156.58
 21
254.55
 31
0.0
  0
LINE
  5
206
330
2
100
AcDbEntity
  8
画層1
 62
     0
100
AcDbLine
 10
-157.58
 20
254.55
 30
0.0
 11
-157.58
 21
254.85
 31
0.0
  0
LINE
  5
207
330
2
100
AcDbEntity
  8
画層1
 62
     0
100
AcDbLine
 10
-157.58
 20
254.85
 30
0.0
 11
-156.58
 21
254.85
 31
0.0
  0
ARC
  5
208
330
2
100
AcDbEntity
  8
画層1
 62
     0
100
AcDbCircle
 10
-155.58
 20
254.55
 30
0.0
 40
1.0
100
AcDbArc
 50
180.0
 51
270.0
  0
LINE
  5
209
330
2
100
AcDbEntity
  8
画層1
 62
     0
100
AcDbLine
 10
-154.12
 20
261.9499999999999
 30
0.0
 11
-155.58
 21
261.9499999999999
 31
0.0
  0
LINE
  5
20A
330
2
100
AcDbEntity
  8
画層1
 62
     0
100
AcDbLine
 10
-155.58
 20
262.9499999999999
 30
0.0
 11
-154.12
 21
262.9499999999999
 31
0.0
  0
LINE
  5
20B
330
2
100
AcDbEntity
  8
画層1
 62
     0
100
AcDbLine
 10
-156.58
 20
264.25
 30
0.0
 11
-156.58
 21
263.9499999999999
 31
0.0
  0
LINE
  5
20C
330
2
100
AcDbEntity
  8
画層1
 62
     0
100
AcDbLine
 10
-157.58
 20
263.9499999999999
 30
0.0
 11
-157.58
 21
264.25
 31
0.0
  0
LINE
  5
20D
330
2
100
AcDbEntity
  8
画層1
 62
     0
100
AcDbLine
 10
-157.58
 20
264.25
 30
0.0
 11
-156.58
 21
264.25
 31
0.0
  0
ARC
  5
20E
330
2
100
AcDbEntity
  8
画層1
 62
     0
100
AcDbCircle
 10
-158.58
 20
260.95
 30
0.0
 40
1.0
100
AcDbArc
 50
0.0
 51
90.0
  0
LINE
  5
20F
330
2
100
AcDbEntity
  8
画層1
 62
     0
100
AcDbLine
 10
-157.58
 20
260.65
 30
0.0
 11
-157.58
 21
260.95
 31
0.0
  0
LINE
  5
210
330
2
100
AcDbEntity
  8
画層1
 62
     0
100
AcDbLine
 10
-156.58
 20
260.95
 30
0.0
 11
-156.58
 21
260.65
 31
0.0
  0
LINE
  5
211
330
2
100
AcDbEntity
  8
画層1
 62
     0
100
AcDbLine
 10
-157.58
 20
260.65
 30
0.0
 11
-156.58
 21
260.65
 31
0.0
  0
ARC
  5
212
330
2
100
AcDbEntity
  8
画層1
 62
     0
100
AcDbCircle
 10
-155.58
 20
260.95
 30
0.0
 40
1.0
100
AcDbArc
 50
90.0
 51
180.0
  0
ARC
  5
213
330
2
100
AcDbEntity
  8
画層1
 62
     0
100
AcDbCircle
 10
-158.58
 20
263.9499999999999
 30
0.0
 40
1.0
100
AcDbArc
 50
270.0
 51
0.0
  0
ARC
  5
214
330
2
100
AcDbEntity
  8
画層1
 62
     0
100
AcDbCircle
 10
-155.58
 20
263.9499999999999
 30
0.0
 40
1.0
100
AcDbArc
 50
180.0
 51
270.0
  0
LINE
  5
215
330
2
100
AcDbEntity
  8
画層1
 62
     0
100
AcDbLine
 10
-151.18
 20
274.1499999999999
 30
0.0
 11
-151.18
 21
281.1499999999999
 31
0.0
  0
LINE
  5
216
330
2
100
AcDbEntity
  8
画層1
 62
     0
100
AcDbLine
 10
-160.58
 20
275.35
 30
0.0
 11
-153.58
 21
275.35
 31
0.0
  0
LINE
  5
217
330
2
100
AcDbEntity
  8
画層1
 62
     0
100
AcDbLine
 10
-162.48
 20
275.85
 30
0.0
 11
-153.08
 21
275.85
 31
0.0
  0
LINE
  5
218
330
2
100
AcDbEntity
  8
画層1
 62
     0
100
AcDbLine
 10
-158.58
 20
271.35
 30
0.0
 11
-160.04
 21
271.35
 31
0.0
  0
LINE
  5
219
330
2
100
AcDbEntity
  8
画層1
 62
     0
100
AcDbLine
 10
-160.04
 20
272.35
 30
0.0
 11
-158.58
 21
272.35
 31
0.0
  0
CIRCLE
  5
21A
330
2
100
AcDbEntity
  8
画層1
 62
     0
100
AcDbCircle
 10
-157.08
 20
271.85
 30
0.0
 40
3.0
  0
LINE
  5
21B
330
2
100
AcDbEntity
  8
画層1
 62
     0
100
AcDbLine
 10
-153.58
 20
268.35
 30
0.0
 11
-160.58
 21
268.35
 31
0.0
  0
LINE
  5
21C
330
2
100
AcDbEntity
  8
画層1
 62
     0
100
AcDbLine
 10
-160.58
 20
265.9499999999999
 30
0.0
 11
-153.58
 21
265.9499999999999
 31
0.0
  0
LINE
  5
21D
330
2
100
AcDbEntity
  8
画層1
 62
     0
100
AcDbLine
 10
-162.48
 20
267.85
 30
0.0
 11
-153.08
 21
267.85
 31
0.0
  0
LINE
  5
21E
330
2
100
AcDbEntity
  8
画層1
 62
     0
100
AcDbLine
 10
-162.48
 20
266.4499999999999
 30
0.0
 11
-153.08
 21
266.4499999999999
 31
0.0
  0
LINE
  5
21F
330
2
100
AcDbEntity
  8
画層1
 62
     0
100
AcDbLine
 10
-160.58
 20
268.35
 30
0.0
 11
-160.58
 21
275.35
 31
0.0
  0
LINE
  5
220
330
2
100
AcDbEntity
  8
画層1
 62
     0
100
AcDbLine
 10
-151.18
 20
264.7499999999999
 30
0.0
 11
-151.18
 21
271.75
 31
0.0
  0
LINE
  5
221
330
2
100
AcDbEntity
  8
画層1
 62
     0
100
AcDbLine
 10
-157.58
 20
270.05
 30
0.0
 11
-157.58
 21
270.35
 31
0.0
  0
LINE
  5
222
330
2
100
AcDbEntity
  8
画層1
 62
     0
100
AcDbLine
 10
-156.58
 20
270.35
 30
0.0
 11
-156.58
 21
270.05
 31
0.0
  0
LINE
  5
223
330
2
100
AcDbEntity
  8
画層1
 62
     0
100
AcDbLine
 10
-153.58
 20
275.35
 30
0.0
 11
-153.58
 21
268.35
 31
0.0
  0
LINE
  5
224
330
2
100
AcDbEntity
  8
画層1
 62
     0
100
AcDbLine
 10
-157.58
 20
270.05
 30
0.0
 11
-156.58
 21
270.05
 31
0.0
  0
LINE
  5
225
330
2
100
AcDbEntity
  8
画層1
 62
     0
100
AcDbLine
 10
-154.12
 20
271.35
 30
0.0
 11
-155.58
 21
271.35
 31
0.0
  0
LINE
  5
226
330
2
100
AcDbEntity
  8
画層1
 62
     0
100
AcDbLine
 10
-155.58
 20
272.35
 30
0.0
 11
-154.12
 21
272.35
 31
0.0
  0
ARC
  5
227
330
2
100
AcDbEntity
  8
画層1
 62
     0
100
AcDbCircle
 10
-158.58
 20
270.35
 30
0.0
 40
1.0
100
AcDbArc
 50
0.0
 51
90.0
  0
ARC
  5
228
330
2
100
AcDbEntity
  8
画層1
 62
     0
100
AcDbCircle
 10
-158.58
 20
273.35
 30
0.0
 40
1.0
100
AcDbArc
 50
270.0
 51
0.0
  0
LINE
  5
229
330
2
100
AcDbEntity
  8
画層1
 62
     0
100
AcDbLine
 10
-156.58
 20
273.6499999999999
 30
0.0
 11
-156.58
 21
273.35
 31
0.0
  0
LINE
  5
22A
330
2
100
AcDbEntity
  8
画層1
 62
     0
100
AcDbLine
 10
-157.58
 20
273.35
 30
0.0
 11
-157.58
 21
273.6499999999999
 31
0.0
  0
LINE
  5
22B
330
2
100
AcDbEntity
  8
画層1
 62
     0
100
AcDbLine
 10
-157.58
 20
273.6499999999999
 30
0.0
 11
-156.58
 21
273.6499999999999
 31
0.0
  0
ARC
  5
22C
330
2
100
AcDbEntity
  8
画層1
 62
     0
100
AcDbCircle
 10
-155.58
 20
270.35
 30
0.0
 40
1.0
100
AcDbArc
 50
90.0
 51
180.0
  0
ARC
  5
22D
330
2
100
AcDbEntity
  8
画層1
 62
     0
100
AcDbCircle
 10
-155.58
 20
273.35
 30
0.0
 40
1.0
100
AcDbArc
 50
180.0
 51
270.0
  0
LINE
  5
22E
330
2
100
AcDbEntity
  8
画層1
 62
     0
100
AcDbLine
 10
-153.58
 20
287.1499999999999
 30
0.0
 11
-160.58
 21
287.1499999999999
 31
0.0
  0
LINE
  5
22F
330
2
100
AcDbEntity
  8
画層1
 62
     0
100
AcDbLine
 10
-162.48
 20
286.6499999999999
 30
0.0
 11
-153.08
 21
286.6499999999999
 31
0.0
  0
LINE
  5
230
330
2
100
AcDbEntity
  8
画層1
 62
     0
100
AcDbLine
 10
-158.58
 20
280.75
 30
0.0
 11
-160.04
 21
280.75
 31
0.0
  0
LINE
  5
231
330
2
100
AcDbEntity
  8
画層1
 62
     0
100
AcDbLine
 10
-160.04
 20
281.7499999999999
 30
0.0
 11
-158.58
 21
281.7499999999999
 31
0.0
  0
CIRCLE
  5
232
330
2
100
AcDbEntity
  8
画層1
 62
     0
100
AcDbCircle
 10
-157.08
 20
281.25
 30
0.0
 40
3.0
  0
LINE
  5
233
330
2
100
AcDbEntity
  8
画層1
 62
     0
100
AcDbLine
 10
-153.58
 20
277.7499999999999
 30
0.0
 11
-160.58
 21
277.7499999999999
 31
0.0
  0
LINE
  5
234
330
2
100
AcDbEntity
  8
画層1
 62
     0
100
AcDbLine
 10
-160.58
 20
284.75
 30
0.0
 11
-153.58
 21
284.75
 31
0.0
  0
LINE
  5
235
330
2
100
AcDbEntity
  8
画層1
 62
     0
100
AcDbLine
 10
-162.48
 20
285.25
 30
0.0
 11
-153.08
 21
285.25
 31
0.0
  0
LINE
  5
236
330
2
100
AcDbEntity
  8
画層1
 62
     0
100
AcDbLine
 10
-162.48
 20
277.2499999999999
 30
0.0
 11
-153.08
 21
277.2499999999999
 31
0.0
  0
LINE
  5
237
330
2
100
AcDbEntity
  8
画層1
 62
     0
100
AcDbLine
 10
-160.58
 20
277.7499999999999
 30
0.0
 11
-160.58
 21
284.75
 31
0.0
  0
LINE
  5
238
330
2
100
AcDbEntity
  8
画層1
 62
     0
100
AcDbLine
 10
-153.58
 20
284.75
 30
0.0
 11
-153.58
 21
277.7499999999999
 31
0.0
  0
ARC
  5
239
330
2
100
AcDbEntity
  8
画層1
 62
     0
100
AcDbCircle
 10
-158.58
 20
282.75
 30
0.0
 40
1.0
100
AcDbArc
 50
270.0
 51
0.0
  0
ARC
  5
23A
330
2
100
AcDbEntity
  8
画層1
 62
     0
100
AcDbCircle
 10
-155.58
 20
282.75
 30
0.0
 40
1.0
100
AcDbArc
 50
180.0
 51
270.0
  0
LINE
  5
23B
330
2
100
AcDbEntity
  8
画層1
 62
     0
100
AcDbLine
 10
-154.12
 20
280.75
 30
0.0
 11
-155.58
 21
280.75
 31
0.0
  0
LINE
  5
23C
330
2
100
AcDbEntity
  8
画層1
 62
     0
100
AcDbLine
 10
-155.58
 20
281.7499999999999
 30
0.0
 11
-154.12
 21
281.7499999999999
 31
0.0
  0
ARC
  5
23D
330
2
100
AcDbEntity
  8
画層1
 62
     0
100
AcDbCircle
 10
-158.58
 20
279.7499999999999
 30
0.0
 40
1.0
100
AcDbArc
 50
0.0
 51
90.0
  0
LINE
  5
23E
330
2
100
AcDbEntity
  8
画層1
 62
     0
100
AcDbLine
 10
-157.58
 20
279.4499999999999
 30
0.0
 11
-157.58
 21
279.7499999999999
 31
0.0
  0
LINE
  5
23F
330
2
100
AcDbEntity
  8
画層1
 62
     0
100
AcDbLine
 10
-156.58
 20
279.7499999999999
 30
0.0
 11
-156.58
 21
279.4499999999999
 31
0.0
  0
LINE
  5
240
330
2
100
AcDbEntity
  8
画層1
 62
     0
100
AcDbLine
 10
-157.58
 20
279.4499999999999
 30
0.0
 11
-156.58
 21
279.4499999999999
 31
0.0
  0
ARC
  5
241
330
2
100
AcDbEntity
  8
画層1
 62
     0
100
AcDbCircle
 10
-155.58
 20
279.7499999999999
 30
0.0
 40
1.0
100
AcDbArc
 50
90.0
 51
180.0
  0
LINE
  5
242
330
2
100
AcDbEntity
  8
画層1
 62
     0
100
AcDbLine
 10
-156.58
 20
283.05
 30
0.0
 11
-156.58
 21
282.75
 31
0.0
  0
LINE
  5
243
330
2
100
AcDbEntity
  8
画層1
 62
     0
100
AcDbLine
 10
-157.58
 20
282.75
 30
0.0
 11
-157.58
 21
283.05
 31
0.0
  0
LINE
  5
244
330
2
100
AcDbEntity
  8
画層1
 62
     0
100
AcDbLine
 10
-157.58
 20
283.05
 30
0.0
 11
-156.58
 21
283.05
 31
0.0
  0
LINE
  5
245
330
2
100
AcDbEntity
  8
画層1
 62
     0
100
AcDbLine
 10
-144.18
 20
252.95
 30
0.0
 11
-144.18
 21
245.9499999999999
 31
0.0
  0
CIRCLE
  5
246
330
2
100
AcDbEntity
  8
画層1
 62
     0
100
AcDbCircle
 10
-147.68
 20
249.4499999999999
 30
0.0
 40
3.0
  0
ARC
  5
247
330
2
100
AcDbEntity
  8
画層1
 62
     0
100
AcDbCircle
 10
-146.18
 20
250.95
 30
0.0
 40
1.0
100
AcDbArc
 50
180.0
 51
270.0
  0
ARC
  5
248
330
2
100
AcDbEntity
  8
画層1
 62
     0
100
AcDbCircle
 10
-146.18
 20
247.9499999999999
 30
0.0
 40
1.0
100
AcDbArc
 50
90.0
 51
180.0
  0
LINE
  5
249
330
2
100
AcDbEntity
  8
画層1
 62
     0
100
AcDbLine
 10
-147.1799999999999
 20
251.25
 30
0.0
 11
-147.1799999999999
 21
250.95
 31
0.0
  0
LINE
  5
24A
330
2
100
AcDbEntity
  8
画層1
 62
     0
100
AcDbLine
 10
-147.1799999999999
 20
247.9499999999999
 30
0.0
 11
-147.1799999999999
 21
247.65
 31
0.0
  0
LINE
  5
24B
330
2
100
AcDbEntity
  8
画層1
 62
     0
100
AcDbLine
 10
-150.64
 20
249.9499999999999
 30
0.0
 11
-149.18
 21
249.9499999999999
 31
0.0
  0
LINE
  5
24C
330
2
100
AcDbEntity
  8
画層1
 62
     0
100
AcDbLine
 10
-149.18
 20
248.95
 30
0.0
 11
-150.64
 21
248.95
 31
0.0
  0
ARC
  5
24D
330
2
100
AcDbEntity
  8
画層1
 62
     0
100
AcDbCircle
 10
-149.18
 20
250.95
 30
0.0
 40
1.0
100
AcDbArc
 50
270.0
 51
0.0
  0
LINE
  5
24E
330
2
100
AcDbEntity
  8
画層1
 62
     0
100
AcDbLine
 10
-148.1799999999999
 20
250.95
 30
0.0
 11
-148.1799999999999
 21
251.25
 31
0.0
  0
ARC
  5
24F
330
2
100
AcDbEntity
  8
画層1
 62
     0
100
AcDbCircle
 10
-149.18
 20
247.9499999999999
 30
0.0
 40
1.0
100
AcDbArc
 50
0.0
 51
90.0
  0
LINE
  5
250
330
2
100
AcDbEntity
  8
画層1
 62
     0
100
AcDbLine
 10
-148.1799999999999
 20
247.65
 30
0.0
 11
-148.1799999999999
 21
247.9499999999999
 31
0.0
  0
LINE
  5
251
330
2
100
AcDbEntity
  8
画層1
 62
     0
100
AcDbLine
 10
-148.1799999999999
 20
251.25
 30
0.0
 11
-147.1799999999999
 21
251.25
 31
0.0
  0
LINE
  5
252
330
2
100
AcDbEntity
  8
画層1
 62
     0
100
AcDbLine
 10
-148.1799999999999
 20
247.65
 30
0.0
 11
-147.1799999999999
 21
247.65
 31
0.0
  0
LINE
  5
253
330
2
100
AcDbEntity
  8
画層1
 62
     0
100
AcDbLine
 10
-146.18
 20
249.9499999999999
 30
0.0
 11
-144.72
 21
249.9499999999999
 31
0.0
  0
LINE
  5
254
330
2
100
AcDbEntity
  8
画層1
 62
     0
100
AcDbLine
 10
-144.72
 20
248.95
 30
0.0
 11
-146.18
 21
248.95
 31
0.0
  0
LINE
  5
255
330
2
100
AcDbEntity
  8
画層1
 62
     0
100
AcDbLine
 10
-144.18
 20
262.35
 30
0.0
 11
-144.18
 21
255.35
 31
0.0
  0
CIRCLE
  5
256
330
2
100
AcDbEntity
  8
画層1
 62
     0
100
AcDbCircle
 10
-147.68
 20
258.85
 30
0.0
 40
3.0
  0
ARC
  5
257
330
2
100
AcDbEntity
  8
画層1
 62
     0
100
AcDbCircle
 10
-146.18
 20
257.35
 30
0.0
 40
1.0
100
AcDbArc
 50
90.0
 51
180.0
  0
LINE
  5
258
330
2
100
AcDbEntity
  8
画層1
 62
     0
100
AcDbLine
 10
-147.1799999999999
 20
257.35
 30
0.0
 11
-147.1799999999999
 21
257.05
 31
0.0
  0
LINE
  5
259
330
2
100
AcDbEntity
  8
画層1
 62
     0
100
AcDbLine
 10
-149.18
 20
258.35
 30
0.0
 11
-150.64
 21
258.35
 31
0.0
  0
ARC
  5
25A
330
2
100
AcDbEntity
  8
画層1
 62
     0
100
AcDbCircle
 10
-149.18
 20
257.35
 30
0.0
 40
1.0
100
AcDbArc
 50
0.0
 51
90.0
  0
LINE
  5
25B
330
2
100
AcDbEntity
  8
画層1
 62
     0
100
AcDbLine
 10
-148.1799999999999
 20
257.05
 30
0.0
 11
-148.1799999999999
 21
257.35
 31
0.0
  0
LINE
  5
25C
330
2
100
AcDbEntity
  8
画層1
 62
     0
100
AcDbLine
 10
-148.1799999999999
 20
257.05
 30
0.0
 11
-147.1799999999999
 21
257.05
 31
0.0
  0
LINE
  5
25D
330
2
100
AcDbEntity
  8
画層1
 62
     0
100
AcDbLine
 10
-144.72
 20
258.35
 30
0.0
 11
-146.18
 21
258.35
 31
0.0
  0
ARC
  5
25E
330
2
100
AcDbEntity
  8
画層1
 62
     0
100
AcDbCircle
 10
-146.18
 20
260.35
 30
0.0
 40
1.0
100
AcDbArc
 50
180.0
 51
270.0
  0
LINE
  5
25F
330
2
100
AcDbEntity
  8
画層1
 62
     0
100
AcDbLine
 10
-147.1799999999999
 20
260.65
 30
0.0
 11
-147.1799999999999
 21
260.35
 31
0.0
  0
LINE
  5
260
330
2
100
AcDbEntity
  8
画層1
 62
     0
100
AcDbLine
 10
-150.64
 20
259.35
 30
0.0
 11
-149.18
 21
259.35
 31
0.0
  0
ARC
  5
261
330
2
100
AcDbEntity
  8
画層1
 62
     0
100
AcDbCircle
 10
-149.18
 20
260.35
 30
0.0
 40
1.0
100
AcDbArc
 50
270.0
 51
0.0
  0
LINE
  5
262
330
2
100
AcDbEntity
  8
画層1
 62
     0
100
AcDbLine
 10
-148.1799999999999
 20
260.35
 30
0.0
 11
-148.1799999999999
 21
260.65
 31
0.0
  0
LINE
  5
263
330
2
100
AcDbEntity
  8
画層1
 62
     0
100
AcDbLine
 10
-148.1799999999999
 20
260.65
 30
0.0
 11
-147.1799999999999
 21
260.65
 31
0.0
  0
LINE
  5
264
330
2
100
AcDbEntity
  8
画層1
 62
     0
100
AcDbLine
 10
-146.18
 20
259.35
 30
0.0
 11
-144.72
 21
259.35
 31
0.0
  0
LINE
  5
265
330
2
100
AcDbEntity
  8
画層1
 62
     0
100
AcDbLine
 10
-147.1799999999999
 20
276.1499999999999
 30
0.0
 11
-147.1799999999999
 21
275.85
 31
0.0
  0
LINE
  5
266
330
2
100
AcDbEntity
  8
画層1
 62
     0
100
AcDbLine
 10
-148.1799999999999
 20
275.85
 30
0.0
 11
-148.1799999999999
 21
276.1499999999999
 31
0.0
  0
LINE
  5
267
330
2
100
AcDbEntity
  8
画層1
 62
     0
100
AcDbLine
 10
-144.18
 20
281.1499999999999
 30
0.0
 11
-144.18
 21
274.1499999999999
 31
0.0
  0
CIRCLE
  5
268
330
2
100
AcDbEntity
  8
画層1
 62
     0
100
AcDbCircle
 10
-147.68
 20
277.6499999999999
 30
0.0
 40
3.0
  0
LINE
  5
269
330
2
100
AcDbEntity
  8
画層1
 62
     0
100
AcDbLine
 10
-144.18
 20
271.75
 30
0.0
 11
-144.18
 21
264.7499999999999
 31
0.0
  0
CIRCLE
  5
26A
330
2
100
AcDbEntity
  8
画層1
 62
     0
100
AcDbCircle
 10
-147.68
 20
268.25
 30
0.0
 40
3.0
  0
ARC
  5
26B
330
2
100
AcDbEntity
  8
画層1
 62
     0
100
AcDbCircle
 10
-146.18
 20
269.75
 30
0.0
 40
1.0
100
AcDbArc
 50
180.0
 51
270.0
  0
ARC
  5
26C
330
2
100
AcDbEntity
  8
画層1
 62
     0
100
AcDbCircle
 10
-146.18
 20
266.7499999999999
 30
0.0
 40
1.0
100
AcDbArc
 50
90.0
 51
180.0
  0
LINE
  5
26D
330
2
100
AcDbEntity
  8
画層1
 62
     0
100
AcDbLine
 10
-147.1799999999999
 20
270.05
 30
0.0
 11
-147.1799999999999
 21
269.75
 31
0.0
  0
LINE
  5
26E
330
2
100
AcDbEntity
  8
画層1
 62
     0
100
AcDbLine
 10
-147.1799999999999
 20
266.7499999999999
 30
0.0
 11
-147.1799999999999
 21
266.4499999999999
 31
0.0
  0
LINE
  5
26F
330
2
100
AcDbEntity
  8
画層1
 62
     0
100
AcDbLine
 10
-150.64
 20
268.75
 30
0.0
 11
-149.18
 21
268.75
 31
0.0
  0
LINE
  5
270
330
2
100
AcDbEntity
  8
画層1
 62
     0
100
AcDbLine
 10
-149.18
 20
267.75
 30
0.0
 11
-150.64
 21
267.75
 31
0.0
  0
ARC
  5
271
330
2
100
AcDbEntity
  8
画層1
 62
     0
100
AcDbCircle
 10
-149.18
 20
269.75
 30
0.0
 40
1.0
100
AcDbArc
 50
270.0
 51
0.0
  0
LINE
  5
272
330
2
100
AcDbEntity
  8
画層1
 62
     0
100
AcDbLine
 10
-148.1799999999999
 20
269.75
 30
0.0
 11
-148.1799999999999
 21
270.05
 31
0.0
  0
ARC
  5
273
330
2
100
AcDbEntity
  8
画層1
 62
     0
100
AcDbCircle
 10
-149.18
 20
266.7499999999999
 30
0.0
 40
1.0
100
AcDbArc
 50
0.0
 51
90.0
  0
LINE
  5
274
330
2
100
AcDbEntity
  8
画層1
 62
     0
100
AcDbLine
 10
-148.1799999999999
 20
266.4499999999999
 30
0.0
 11
-148.1799999999999
 21
266.7499999999999
 31
0.0
  0
LINE
  5
275
330
2
100
AcDbEntity
  8
画層1
 62
     0
100
AcDbLine
 10
-148.1799999999999
 20
270.05
 30
0.0
 11
-147.1799999999999
 21
270.05
 31
0.0
  0
LINE
  5
276
330
2
100
AcDbEntity
  8
画層1
 62
     0
100
AcDbLine
 10
-148.1799999999999
 20
266.4499999999999
 30
0.0
 11
-147.1799999999999
 21
266.4499999999999
 31
0.0
  0
LINE
  5
277
330
2
100
AcDbEntity
  8
画層1
 62
     0
100
AcDbLine
 10
-146.18
 20
268.75
 30
0.0
 11
-144.72
 21
268.75
 31
0.0
  0
LINE
  5
278
330
2
100
AcDbEntity
  8
画層1
 62
     0
100
AcDbLine
 10
-144.72
 20
267.75
 30
0.0
 11
-146.18
 21
267.75
 31
0.0
  0
LINE
  5
279
330
2
100
AcDbEntity
  8
画層1
 62
     0
100
AcDbLine
 10
-148.1799999999999
 20
275.85
 30
0.0
 11
-147.1799999999999
 21
275.85
 31
0.0
  0
ARC
  5
27A
330
2
100
AcDbEntity
  8
画層1
 62
     0
100
AcDbCircle
 10
-146.18
 20
276.1499999999999
 30
0.0
 40
1.0
100
AcDbArc
 50
90.0
 51
180.0
  0
ARC
  5
27B
330
2
100
AcDbEntity
  8
画層1
 62
     0
100
AcDbCircle
 10
-146.18
 20
279.1499999999999
 30
0.0
 40
1.0
100
AcDbArc
 50
180.0
 51
270.0
  0
LINE
  5
27C
330
2
100
AcDbEntity
  8
画層1
 62
     0
100
AcDbLine
 10
-147.1799999999999
 20
279.4499999999999
 30
0.0
 11
-147.1799999999999
 21
279.1499999999999
 31
0.0
  0
ARC
  5
27D
330
2
100
AcDbEntity
  8
画層1
 62
     0
100
AcDbCircle
 10
-149.18
 20
276.1499999999999
 30
0.0
 40
1.0
100
AcDbArc
 50
0.0
 51
90.0
  0
LINE
  5
27E
330
2
100
AcDbEntity
  8
画層1
 62
     0
100
AcDbLine
 10
-150.64
 20
278.1499999999999
 30
0.0
 11
-149.18
 21
278.1499999999999
 31
0.0
  0
LINE
  5
27F
330
2
100
AcDbEntity
  8
画層1
 62
     0
100
AcDbLine
 10
-149.18
 20
277.1499999999999
 30
0.0
 11
-150.64
 21
277.1499999999999
 31
0.0
  0
ARC
  5
280
330
2
100
AcDbEntity
  8
画層1
 62
     0
100
AcDbCircle
 10
-149.18
 20
279.1499999999999
 30
0.0
 40
1.0
100
AcDbArc
 50
270.0
 51
0.0
  0
LINE
  5
281
330
2
100
AcDbEntity
  8
画層1
 62
     0
100
AcDbLine
 10
-148.1799999999999
 20
279.1499999999999
 30
0.0
 11
-148.1799999999999
 21
279.4499999999999
 31
0.0
  0
LINE
  5
282
330
2
100
AcDbEntity
  8
画層1
 62
     0
100
AcDbLine
 10
-148.1799999999999
 20
279.4499999999999
 30
0.0
 11
-147.1799999999999
 21
279.4499999999999
 31
0.0
  0
LINE
  5
283
330
2
100
AcDbEntity
  8
画層1
 62
     0
100
AcDbLine
 10
-146.18
 20
278.1499999999999
 30
0.0
 11
-144.72
 21
278.1499999999999
 31
0.0
  0
LINE
  5
284
330
2
100
AcDbEntity
  8
画層1
 62
     0
100
AcDbLine
 10
-144.72
 20
277.1499999999999
 30
0.0
 11
-146.18
 21
277.1499999999999
 31
0.0
  0
ARC
  5
285
330
2
100
AcDbEntity
  8
画層1
 62
     0
100
AcDbCircle
 10
-146.18
 20
285.55
 30
0.0
 40
1.0
100
AcDbArc
 50
90.0
 51
180.0
  0
LINE
  5
286
330
2
100
AcDbEntity
  8
画層1
 62
     0
100
AcDbLine
 10
-147.1799999999999
 20
285.55
 30
0.0
 11
-147.1799999999999
 21
285.25
 31
0.0
  0
LINE
  5
287
330
2
100
AcDbEntity
  8
画層1
 62
     0
100
AcDbLine
 10
-150.64
 20
287.55
 30
0.0
 11
-149.18
 21
287.55
 31
0.0
  0
LINE
  5
288
330
2
100
AcDbEntity
  8
画層1
 62
     0
100
AcDbLine
 10
-149.18
 20
286.55
 30
0.0
 11
-150.64
 21
286.55
 31
0.0
  0
LINE
  5
289
330
2
100
AcDbEntity
  8
画層1
 62
     0
100
AcDbLine
 10
-148.1799999999999
 20
285.25
 30
0.0
 11
-148.1799999999999
 21
285.55
 31
0.0
  0
ARC
  5
28A
330
2
100
AcDbEntity
  8
画層1
 62
     0
100
AcDbCircle
 10
-149.18
 20
285.55
 30
0.0
 40
1.0
100
AcDbArc
 50
0.0
 51
90.0
  0
LINE
  5
28B
330
2
100
AcDbEntity
  8
画層1
 62
     0
100
AcDbLine
 10
-148.1799999999999
 20
285.25
 30
0.0
 11
-147.1799999999999
 21
285.25
 31
0.0
  0
LINE
  5
28C
330
2
100
AcDbEntity
  8
画層1
 62
     0
100
AcDbLine
 10
-146.18
 20
287.55
 30
0.0
 11
-144.72
 21
287.55
 31
0.0
  0
LINE
  5
28D
330
2
100
AcDbEntity
  8
画層1
 62
     0
100
AcDbLine
 10
-144.72
 20
286.55
 30
0.0
 11
-146.18
 21
286.55
 31
0.0
  0
LINE
  5
28E
330
2
100
AcDbEntity
  8
画層1
 62
     0
100
AcDbLine
 10
-144.18
 20
330.55
 30
0.0
 11
-151.18
 21
330.55
 31
0.0
  0
LINE
  5
28F
330
2
100
AcDbEntity
  8
画層1
 62
     0
100
AcDbLine
 10
-151.18
 20
328.1499999999999
 30
0.0
 11
-144.18
 21
328.1499999999999
 31
0.0
  0
LINE
  5
290
330
2
100
AcDbEntity
  8
画層1
 62
     0
100
AcDbLine
 10
-153.08
 20
330.0499999999999
 30
0.0
 11
-143.68
 21
330.0499999999999
 31
0.0
  0
LINE
  5
291
330
2
100
AcDbEntity
  8
画層1
 62
     0
100
AcDbLine
 10
-153.08
 20
328.6499999999999
 30
0.0
 11
-143.68
 21
328.6499999999999
 31
0.0
  0
LINE
  5
292
330
2
100
AcDbEntity
  8
画層1
 62
     0
100
AcDbLine
 10
-151.18
 20
318.75
 30
0.0
 11
-144.18
 21
318.75
 31
0.0
  0
LINE
  5
293
330
2
100
AcDbEntity
  8
画層1
 62
     0
100
AcDbLine
 10
-144.18
 20
311.75
 30
0.0
 11
-151.18
 21
311.75
 31
0.0
  0
LINE
  5
294
330
2
100
AcDbEntity
  8
画層1
 62
     0
100
AcDbLine
 10
-144.18
 20
321.15
 30
0.0
 11
-151.18
 21
321.15
 31
0.0
  0
LINE
  5
295
330
2
100
AcDbEntity
  8
画層1
 62
     0
100
AcDbLine
 10
-151.18
 20
299.9499999999999
 30
0.0
 11
-144.18
 21
299.9499999999999
 31
0.0
  0
LINE
  5
296
330
2
100
AcDbEntity
  8
画層1
 62
     0
100
AcDbLine
 10
-151.18
 20
309.35
 30
0.0
 11
-144.18
 21
309.35
 31
0.0
  0
LINE
  5
297
330
2
100
AcDbEntity
  8
画層1
 62
     0
100
AcDbLine
 10
-144.18
 20
302.35
 30
0.0
 11
-151.18
 21
302.35
 31
0.0
  0
LINE
  5
298
330
2
100
AcDbEntity
  8
画層1
 62
     0
100
AcDbLine
 10
-153.08
 20
300.45
 30
0.0
 11
-143.68
 21
300.45
 31
0.0
  0
LINE
  5
299
330
2
100
AcDbEntity
  8
画層1
 62
     0
100
AcDbLine
 10
-153.08
 20
309.85
 30
0.0
 11
-143.68
 21
309.85
 31
0.0
  0
LINE
  5
29A
330
2
100
AcDbEntity
  8
画層1
 62
     0
100
AcDbLine
 10
-153.08
 20
301.85
 30
0.0
 11
-143.68
 21
301.85
 31
0.0
  0
LINE
  5
29B
330
2
100
AcDbEntity
  8
画層1
 62
     0
100
AcDbLine
 10
-153.08
 20
319.2499999999999
 30
0.0
 11
-143.68
 21
319.2499999999999
 31
0.0
  0
LINE
  5
29C
330
2
100
AcDbEntity
  8
画層1
 62
     0
100
AcDbLine
 10
-153.08
 20
311.25
 30
0.0
 11
-143.68
 21
311.25
 31
0.0
  0
LINE
  5
29D
330
2
100
AcDbEntity
  8
画層1
 62
     0
100
AcDbLine
 10
-153.08
 20
320.6499999999999
 30
0.0
 11
-143.68
 21
320.6499999999999
 31
0.0
  0
LINE
  5
29E
330
2
100
AcDbEntity
  8
画層1
 62
     0
100
AcDbLine
 10
-151.18
 20
290.5499999999999
 30
0.0
 11
-144.18
 21
290.5499999999999
 31
0.0
  0
LINE
  5
29F
330
2
100
AcDbEntity
  8
画層1
 62
     0
100
AcDbLine
 10
-144.18
 20
292.9499999999999
 30
0.0
 11
-151.18
 21
292.9499999999999
 31
0.0
  0
LINE
  5
2A0
330
2
100
AcDbEntity
  8
画層1
 62
     0
100
AcDbLine
 10
-153.08
 20
291.05
 30
0.0
 11
-143.68
 21
291.05
 31
0.0
  0
LINE
  5
2A1
330
2
100
AcDbEntity
  8
画層1
 62
     0
100
AcDbLine
 10
-153.08
 20
292.45
 30
0.0
 11
-143.68
 21
292.45
 31
0.0
  0
ARC
  5
2A2
330
2
100
AcDbEntity
  8
画層1
 62
     0
100
AcDbCircle
 10
-158.58
 20
310.95
 30
0.0
 40
1.0
100
AcDbArc
 50
270.0
 51
0.0
  0
CIRCLE
  5
2A3
330
2
100
AcDbEntity
  8
画層1
 62
     0
100
AcDbCircle
 10
-157.08
 20
309.45
 30
0.0
 40
3.0
  0
LINE
  5
2A4
330
2
100
AcDbEntity
  8
画層1
 62
     0
100
AcDbLine
 10
-160.58
 20
305.9499999999999
 30
0.0
 11
-160.58
 21
312.95
 31
0.0
  0
LINE
  5
2A5
330
2
100
AcDbEntity
  8
画層1
 62
     0
100
AcDbLine
 10
-153.58
 20
312.95
 30
0.0
 11
-153.58
 21
305.9499999999999
 31
0.0
  0
ARC
  5
2A6
330
2
100
AcDbEntity
  8
画層1
 62
     0
100
AcDbCircle
 10
-155.58
 20
310.95
 30
0.0
 40
1.0
100
AcDbArc
 50
180.0
 51
270.0
  0
ARC
  5
2A7
330
2
100
AcDbEntity
  8
画層1
 62
     0
100
AcDbCircle
 10
-158.58
 20
298.55
 30
0.0
 40
1.0
100
AcDbArc
 50
0.0
 51
90.0
  0
ARC
  5
2A8
330
2
100
AcDbEntity
  8
画層1
 62
     0
100
AcDbCircle
 10
-155.58
 20
298.55
 30
0.0
 40
1.0
100
AcDbArc
 50
90.0
 51
180.0
  0
LINE
  5
2A9
330
2
100
AcDbEntity
  8
画層1
 62
     0
100
AcDbLine
 10
-151.18
 20
292.9499999999999
 30
0.0
 11
-151.18
 21
299.9499999999999
 31
0.0
  0
CIRCLE
  5
2AA
330
2
100
AcDbEntity
  8
画層1
 62
     0
100
AcDbCircle
 10
-157.08
 20
300.05
 30
0.0
 40
3.0
  0
LINE
  5
2AB
330
2
100
AcDbEntity
  8
画層1
 62
     0
100
AcDbLine
 10
-160.58
 20
296.55
 30
0.0
 11
-160.58
 21
303.55
 31
0.0
  0
LINE
  5
2AC
330
2
100
AcDbEntity
  8
画層1
 62
     0
100
AcDbLine
 10
-153.58
 20
303.55
 30
0.0
 11
-153.58
 21
296.55
 31
0.0
  0
LINE
  5
2AD
330
2
100
AcDbEntity
  8
画層1
 62
     0
100
AcDbLine
 10
-158.58
 20
290.15
 30
0.0
 11
-160.04
 21
290.15
 31
0.0
  0
LINE
  5
2AE
330
2
100
AcDbEntity
  8
画層1
 62
     0
100
AcDbLine
 10
-160.04
 20
291.1499999999999
 30
0.0
 11
-158.58
 21
291.1499999999999
 31
0.0
  0
LINE
  5
2AF
330
2
100
AcDbEntity
  8
画層1
 62
     0
100
AcDbLine
 10
-153.58
 20
296.55
 30
0.0
 11
-160.58
 21
296.55
 31
0.0
  0
LINE
  5
2B0
330
2
100
AcDbEntity
  8
画層1
 62
     0
100
AcDbLine
 10
-160.58
 20
294.1499999999999
 30
0.0
 11
-153.58
 21
294.1499999999999
 31
0.0
  0
LINE
  5
2B1
330
2
100
AcDbEntity
  8
画層1
 62
     0
100
AcDbLine
 10
-162.48
 20
296.05
 30
0.0
 11
-153.08
 21
296.05
 31
0.0
  0
LINE
  5
2B2
330
2
100
AcDbEntity
  8
画層1
 62
     0
100
AcDbLine
 10
-162.48
 20
294.6499999999999
 30
0.0
 11
-153.08
 21
294.6499999999999
 31
0.0
  0
LINE
  5
2B3
330
2
100
AcDbEntity
  8
画層1
 62
     0
100
AcDbLine
 10
-154.12
 20
290.15
 30
0.0
 11
-155.58
 21
290.15
 31
0.0
  0
LINE
  5
2B4
330
2
100
AcDbEntity
  8
画層1
 62
     0
100
AcDbLine
 10
-155.58
 20
291.1499999999999
 30
0.0
 11
-154.12
 21
291.1499999999999
 31
0.0
  0
ARC
  5
2B5
330
2
100
AcDbEntity
  8
画層1
 62
     0
100
AcDbCircle
 10
-158.58
 20
289.1499999999999
 30
0.0
 40
1.0
100
AcDbArc
 50
0.0
 51
90.0
  0
ARC
  5
2B6
330
2
100
AcDbEntity
  8
画層1
 62
     0
100
AcDbCircle
 10
-158.58
 20
292.1499999999999
 30
0.0
 40
1.0
100
AcDbArc
 50
270.0
 51
0.0
  0
LINE
  5
2B7
330
2
100
AcDbEntity
  8
画層1
 62
     0
100
AcDbLine
 10
-156.58
 20
292.45
 30
0.0
 11
-156.58
 21
292.1499999999999
 31
0.0
  0
LINE
  5
2B8
330
2
100
AcDbEntity
  8
画層1
 62
     0
100
AcDbLine
 10
-157.58
 20
292.1499999999999
 30
0.0
 11
-157.58
 21
292.45
 31
0.0
  0
LINE
  5
2B9
330
2
100
AcDbEntity
  8
画層1
 62
     0
100
AcDbLine
 10
-157.58
 20
292.45
 30
0.0
 11
-156.58
 21
292.45
 31
0.0
  0
LINE
  5
2BA
330
2
100
AcDbEntity
  8
画層1
 62
     0
100
AcDbLine
 10
-157.58
 20
288.85
 30
0.0
 11
-156.58
 21
288.85
 31
0.0
  0
LINE
  5
2BB
330
2
100
AcDbEntity
  8
画層1
 62
     0
100
AcDbLine
 10
-157.58
 20
288.85
 30
0.0
 11
-157.58
 21
289.1499999999999
 31
0.0
  0
LINE
  5
2BC
330
2
100
AcDbEntity
  8
画層1
 62
     0
100
AcDbLine
 10
-156.58
 20
289.1499999999999
 30
0.0
 11
-156.58
 21
288.85
 31
0.0
  0
ARC
  5
2BD
330
2
100
AcDbEntity
  8
画層1
 62
     0
100
AcDbCircle
 10
-155.58
 20
289.1499999999999
 30
0.0
 40
1.0
100
AcDbArc
 50
90.0
 51
180.0
  0
ARC
  5
2BE
330
2
100
AcDbEntity
  8
画層1
 62
     0
100
AcDbCircle
 10
-155.58
 20
292.1499999999999
 30
0.0
 40
1.0
100
AcDbArc
 50
180.0
 51
270.0
  0
LINE
  5
2BF
330
2
100
AcDbEntity
  8
画層1
 62
     0
100
AcDbLine
 10
-157.58
 20
298.2499999999999
 30
0.0
 11
-157.58
 21
298.55
 31
0.0
  0
LINE
  5
2C0
330
2
100
AcDbEntity
  8
画層1
 62
     0
100
AcDbLine
 10
-156.58
 20
298.55
 30
0.0
 11
-156.58
 21
298.2499999999999
 31
0.0
  0
LINE
  5
2C1
330
2
100
AcDbEntity
  8
画層1
 62
     0
100
AcDbLine
 10
-157.58
 20
298.2499999999999
 30
0.0
 11
-156.58
 21
298.2499999999999
 31
0.0
  0
LINE
  5
2C2
330
2
100
AcDbEntity
  8
画層1
 62
     0
100
AcDbLine
 10
-160.04
 20
309.9499999999999
 30
0.0
 11
-158.58
 21
309.9499999999999
 31
0.0
  0
LINE
  5
2C3
330
2
100
AcDbEntity
  8
画層1
 62
     0
100
AcDbLine
 10
-158.58
 20
308.95
 30
0.0
 11
-160.04
 21
308.95
 31
0.0
  0
LINE
  5
2C4
330
2
100
AcDbEntity
  8
画層1
 62
     0
100
AcDbLine
 10
-158.58
 20
299.55
 30
0.0
 11
-160.04
 21
299.55
 31
0.0
  0
LINE
  5
2C5
330
2
100
AcDbEntity
  8
画層1
 62
     0
100
AcDbLine
 10
-160.04
 20
300.55
 30
0.0
 11
-158.58
 21
300.55
 31
0.0
  0
LINE
  5
2C6
330
2
100
AcDbEntity
  8
画層1
 62
     0
100
AcDbLine
 10
-153.58
 20
305.9499999999999
 30
0.0
 11
-160.58
 21
305.9499999999999
 31
0.0
  0
LINE
  5
2C7
330
2
100
AcDbEntity
  8
画層1
 62
     0
100
AcDbLine
 10
-160.58
 20
303.55
 30
0.0
 11
-153.58
 21
303.55
 31
0.0
  0
LINE
  5
2C8
330
2
100
AcDbEntity
  8
画層1
 62
     0
100
AcDbLine
 10
-162.48
 20
305.4499999999999
 30
0.0
 11
-153.08
 21
305.4499999999999
 31
0.0
  0
LINE
  5
2C9
330
2
100
AcDbEntity
  8
画層1
 62
     0
100
AcDbLine
 10
-162.48
 20
304.05
 30
0.0
 11
-153.08
 21
304.05
 31
0.0
  0
LINE
  5
2CA
330
2
100
AcDbEntity
  8
画層1
 62
     0
100
AcDbLine
 10
-151.18
 20
302.35
 30
0.0
 11
-151.18
 21
309.35
 31
0.0
  0
LINE
  5
2CB
330
2
100
AcDbEntity
  8
画層1
 62
     0
100
AcDbLine
 10
-154.12
 20
299.55
 30
0.0
 11
-155.58
 21
299.55
 31
0.0
  0
LINE
  5
2CC
330
2
100
AcDbEntity
  8
画層1
 62
     0
100
AcDbLine
 10
-155.58
 20
300.55
 30
0.0
 11
-154.12
 21
300.55
 31
0.0
  0
ARC
  5
2CD
330
2
100
AcDbEntity
  8
画層1
 62
     0
100
AcDbCircle
 10
-158.58
 20
301.55
 30
0.0
 40
1.0
100
AcDbArc
 50
270.0
 51
0.0
  0
LINE
  5
2CE
330
2
100
AcDbEntity
  8
画層1
 62
     0
100
AcDbLine
 10
-156.58
 20
301.85
 30
0.0
 11
-156.58
 21
301.55
 31
0.0
  0
LINE
  5
2CF
330
2
100
AcDbEntity
  8
画層1
 62
     0
100
AcDbLine
 10
-157.58
 20
301.55
 30
0.0
 11
-157.58
 21
301.85
 31
0.0
  0
LINE
  5
2D0
330
2
100
AcDbEntity
  8
画層1
 62
     0
100
AcDbLine
 10
-157.58
 20
301.85
 30
0.0
 11
-156.58
 21
301.85
 31
0.0
  0
ARC
  5
2D1
330
2
100
AcDbEntity
  8
画層1
 62
     0
100
AcDbCircle
 10
-155.58
 20
301.55
 30
0.0
 40
1.0
100
AcDbArc
 50
180.0
 51
270.0
  0
LINE
  5
2D2
330
2
100
AcDbEntity
  8
画層1
 62
     0
100
AcDbLine
 10
-155.58
 20
309.9499999999999
 30
0.0
 11
-154.12
 21
309.9499999999999
 31
0.0
  0
LINE
  5
2D3
330
2
100
AcDbEntity
  8
画層1
 62
     0
100
AcDbLine
 10
-154.12
 20
308.95
 30
0.0
 11
-155.58
 21
308.95
 31
0.0
  0
ARC
  5
2D4
330
2
100
AcDbEntity
  8
画層1
 62
     0
100
AcDbCircle
 10
-158.58
 20
307.9499999999999
 30
0.0
 40
1.0
100
AcDbArc
 50
0.0
 51
90.0
  0
LINE
  5
2D5
330
2
100
AcDbEntity
  8
画層1
 62
     0
100
AcDbLine
 10
-157.58
 20
307.6499999999999
 30
0.0
 11
-157.58
 21
307.9499999999999
 31
0.0
  0
LINE
  5
2D6
330
2
100
AcDbEntity
  8
画層1
 62
     0
100
AcDbLine
 10
-156.58
 20
307.9499999999999
 30
0.0
 11
-156.58
 21
307.6499999999999
 31
0.0
  0
LINE
  5
2D7
330
2
100
AcDbEntity
  8
画層1
 62
     0
100
AcDbLine
 10
-157.58
 20
307.6499999999999
 30
0.0
 11
-156.58
 21
307.6499999999999
 31
0.0
  0
ARC
  5
2D8
330
2
100
AcDbEntity
  8
画層1
 62
     0
100
AcDbCircle
 10
-155.58
 20
307.9499999999999
 30
0.0
 40
1.0
100
AcDbArc
 50
90.0
 51
180.0
  0
LINE
  5
2D9
330
2
100
AcDbEntity
  8
画層1
 62
     0
100
AcDbLine
 10
-151.18
 20
321.15
 30
0.0
 11
-151.18
 21
328.1499999999999
 31
0.0
  0
LINE
  5
2DA
330
2
100
AcDbEntity
  8
画層1
 62
     0
100
AcDbLine
 10
-160.58
 20
322.35
 30
0.0
 11
-153.58
 21
322.35
 31
0.0
  0
LINE
  5
2DB
330
2
100
AcDbEntity
  8
画層1
 62
     0
100
AcDbLine
 10
-160.04
 20
319.35
 30
0.0
 11
-158.58
 21
319.35
 31
0.0
  0
LINE
  5
2DC
330
2
100
AcDbEntity
  8
画層1
 62
     0
100
AcDbLine
 10
-158.58
 20
318.35
 30
0.0
 11
-160.04
 21
318.35
 31
0.0
  0
LINE
  5
2DD
330
2
100
AcDbEntity
  8
画層1
 62
     0
100
AcDbLine
 10
-160.58
 20
312.95
 30
0.0
 11
-153.58
 21
312.95
 31
0.0
  0
LINE
  5
2DE
330
2
100
AcDbEntity
  8
画層1
 62
     0
100
AcDbLine
 10
-153.58
 20
315.35
 30
0.0
 11
-160.58
 21
315.35
 31
0.0
  0
LINE
  5
2DF
330
2
100
AcDbEntity
  8
画層1
 62
     0
100
AcDbLine
 10
-162.48
 20
313.45
 30
0.0
 11
-153.08
 21
313.45
 31
0.0
  0
LINE
  5
2E0
330
2
100
AcDbEntity
  8
画層1
 62
     0
100
AcDbLine
 10
-162.48
 20
314.85
 30
0.0
 11
-153.08
 21
314.85
 31
0.0
  0
CIRCLE
  5
2E1
330
2
100
AcDbEntity
  8
画層1
 62
     0
100
AcDbCircle
 10
-157.08
 20
318.85
 30
0.0
 40
3.0
  0
LINE
  5
2E2
330
2
100
AcDbEntity
  8
画層1
 62
     0
100
AcDbLine
 10
-160.58
 20
315.35
 30
0.0
 11
-160.58
 21
322.35
 31
0.0
  0
LINE
  5
2E3
330
2
100
AcDbEntity
  8
画層1
 62
     0
100
AcDbLine
 10
-151.18
 20
311.75
 30
0.0
 11
-151.18
 21
318.75
 31
0.0
  0
LINE
  5
2E4
330
2
100
AcDbEntity
  8
画層1
 62
     0
100
AcDbLine
 10
-153.58
 20
322.35
 30
0.0
 11
-153.58
 21
315.35
 31
0.0
  0
LINE
  5
2E5
330
2
100
AcDbEntity
  8
画層1
 62
     0
100
AcDbLine
 10
-156.58
 20
311.25
 30
0.0
 11
-156.58
 21
310.95
 31
0.0
  0
LINE
  5
2E6
330
2
100
AcDbEntity
  8
画層1
 62
     0
100
AcDbLine
 10
-157.58
 20
310.95
 30
0.0
 11
-157.58
 21
311.25
 31
0.0
  0
LINE
  5
2E7
330
2
100
AcDbEntity
  8
画層1
 62
     0
100
AcDbLine
 10
-157.58
 20
311.25
 30
0.0
 11
-156.58
 21
311.25
 31
0.0
  0
LINE
  5
2E8
330
2
100
AcDbEntity
  8
画層1
 62
     0
100
AcDbLine
 10
-155.58
 20
319.35
 30
0.0
 11
-154.12
 21
319.35
 31
0.0
  0
LINE
  5
2E9
330
2
100
AcDbEntity
  8
画層1
 62
     0
100
AcDbLine
 10
-154.12
 20
318.35
 30
0.0
 11
-155.58
 21
318.35
 31
0.0
  0
ARC
  5
2EA
330
2
100
AcDbEntity
  8
画層1
 62
     0
100
AcDbCircle
 10
-158.58
 20
320.35
 30
0.0
 40
1.0
100
AcDbArc
 50
270.0
 51
0.0
  0
ARC
  5
2EB
330
2
100
AcDbEntity
  8
画層1
 62
     0
100
AcDbCircle
 10
-158.58
 20
317.35
 30
0.0
 40
1.0
100
AcDbArc
 50
0.0
 51
90.0
  0
LINE
  5
2EC
330
2
100
AcDbEntity
  8
画層1
 62
     0
100
AcDbLine
 10
-157.58
 20
320.6499999999999
 30
0.0
 11
-156.58
 21
320.6499999999999
 31
0.0
  0
LINE
  5
2ED
330
2
100
AcDbEntity
  8
画層1
 62
     0
100
AcDbLine
 10
-157.58
 20
317.05
 30
0.0
 11
-156.58
 21
317.05
 31
0.0
  0
LINE
  5
2EE
330
2
100
AcDbEntity
  8
画層1
 62
     0
100
AcDbLine
 10
-157.58
 20
320.35
 30
0.0
 11
-157.58
 21
320.6499999999999
 31
0.0
  0
LINE
  5
2EF
330
2
100
AcDbEntity
  8
画層1
 62
     0
100
AcDbLine
 10
-156.58
 20
320.6499999999999
 30
0.0
 11
-156.58
 21
320.35
 31
0.0
  0
LINE
  5
2F0
330
2
100
AcDbEntity
  8
画層1
 62
     0
100
AcDbLine
 10
-156.58
 20
317.35
 30
0.0
 11
-156.58
 21
317.05
 31
0.0
  0
LINE
  5
2F1
330
2
100
AcDbEntity
  8
画層1
 62
     0
100
AcDbLine
 10
-157.58
 20
317.05
 30
0.0
 11
-157.58
 21
317.35
 31
0.0
  0
ARC
  5
2F2
330
2
100
AcDbEntity
  8
画層1
 62
     0
100
AcDbCircle
 10
-155.58
 20
320.35
 30
0.0
 40
1.0
100
AcDbArc
 50
180.0
 51
270.0
  0
ARC
  5
2F3
330
2
100
AcDbEntity
  8
画層1
 62
     0
100
AcDbCircle
 10
-155.58
 20
317.35
 30
0.0
 40
1.0
100
AcDbArc
 50
90.0
 51
180.0
  0
LINE
  5
2F4
330
2
100
AcDbEntity
  8
画層1
 62
     0
100
AcDbLine
 10
-158.58
 20
327.7499999999999
 30
0.0
 11
-160.04
 21
327.7499999999999
 31
0.0
  0
LINE
  5
2F5
330
2
100
AcDbEntity
  8
画層1
 62
     0
100
AcDbLine
 10
-160.04
 20
328.75
 30
0.0
 11
-158.58
 21
328.75
 31
0.0
  0
CIRCLE
  5
2F6
330
2
100
AcDbEntity
  8
画層1
 62
     0
100
AcDbCircle
 10
-157.08
 20
328.25
 30
0.0
 40
3.0
  0
LINE
  5
2F7
330
2
100
AcDbEntity
  8
画層1
 62
     0
100
AcDbLine
 10
-153.58
 20
324.75
 30
0.0
 11
-160.58
 21
324.75
 31
0.0
  0
LINE
  5
2F8
330
2
100
AcDbEntity
  8
画層1
 62
     0
100
AcDbLine
 10
-160.58
 20
331.7499999999999
 30
0.0
 11
-153.58
 21
331.7499999999999
 31
0.0
  0
LINE
  5
2F9
330
2
100
AcDbEntity
  8
画層1
 62
     0
100
AcDbLine
 10
-162.48
 20
324.25
 30
0.0
 11
-153.08
 21
324.25
 31
0.0
  0
LINE
  5
2FA
330
2
100
AcDbEntity
  8
画層1
 62
     0
100
AcDbLine
 10
-162.48
 20
332.25
 30
0.0
 11
-153.08
 21
332.25
 31
0.0
  0
LINE
  5
2FB
330
2
100
AcDbEntity
  8
画層1
 62
     0
100
AcDbLine
 10
-162.48
 20
322.85
 30
0.0
 11
-153.08
 21
322.85
 31
0.0
  0
LINE
  5
2FC
330
2
100
AcDbEntity
  8
画層1
 62
     0
100
AcDbLine
 10
-160.58
 20
324.75
 30
0.0
 11
-160.58
 21
331.7499999999999
 31
0.0
  0
LINE
  5
2FD
330
2
100
AcDbEntity
  8
画層1
 62
     0
100
AcDbLine
 10
-153.58
 20
331.7499999999999
 30
0.0
 11
-153.58
 21
324.75
 31
0.0
  0
LINE
  5
2FE
330
2
100
AcDbEntity
  8
画層1
 62
     0
100
AcDbLine
 10
-154.12
 20
327.7499999999999
 30
0.0
 11
-155.58
 21
327.7499999999999
 31
0.0
  0
LINE
  5
2FF
330
2
100
AcDbEntity
  8
画層1
 62
     0
100
AcDbLine
 10
-157.58
 20
326.4499999999999
 30
0.0
 11
-157.58
 21
326.75
 31
0.0
  0
LINE
  5
300
330
2
100
AcDbEntity
  8
画層1
 62
     0
100
AcDbLine
 10
-156.58
 20
326.75
 30
0.0
 11
-156.58
 21
326.4499999999999
 31
0.0
  0
LINE
  5
301
330
2
100
AcDbEntity
  8
画層1
 62
     0
100
AcDbLine
 10
-157.58
 20
326.4499999999999
 30
0.0
 11
-156.58
 21
326.4499999999999
 31
0.0
  0
ARC
  5
302
330
2
100
AcDbEntity
  8
画層1
 62
     0
100
AcDbCircle
 10
-158.58
 20
326.75
 30
0.0
 40
1.0
100
AcDbArc
 50
0.0
 51
90.0
  0
ARC
  5
303
330
2
100
AcDbEntity
  8
画層1
 62
     0
100
AcDbCircle
 10
-155.58
 20
326.75
 30
0.0
 40
1.0
100
AcDbArc
 50
90.0
 51
180.0
  0
LINE
  5
304
330
2
100
AcDbEntity
  8
画層1
 62
     0
100
AcDbLine
 10
-155.58
 20
328.75
 30
0.0
 11
-154.12
 21
328.75
 31
0.0
  0
LINE
  5
305
330
2
100
AcDbEntity
  8
画層1
 62
     0
100
AcDbLine
 10
-156.58
 20
330.0499999999999
 30
0.0
 11
-156.58
 21
329.7499999999999
 31
0.0
  0
LINE
  5
306
330
2
100
AcDbEntity
  8
画層1
 62
     0
100
AcDbLine
 10
-157.58
 20
329.7499999999999
 30
0.0
 11
-157.58
 21
330.0499999999999
 31
0.0
  0
LINE
  5
307
330
2
100
AcDbEntity
  8
画層1
 62
     0
100
AcDbLine
 10
-157.58
 20
330.0499999999999
 30
0.0
 11
-156.58
 21
330.0499999999999
 31
0.0
  0
ARC
  5
308
330
2
100
AcDbEntity
  8
画層1
 62
     0
100
AcDbCircle
 10
-158.58
 20
329.7499999999999
 30
0.0
 40
1.0
100
AcDbArc
 50
270.0
 51
0.0
  0
ARC
  5
309
330
2
100
AcDbEntity
  8
画層1
 62
     0
100
AcDbCircle
 10
-155.58
 20
329.7499999999999
 30
0.0
 40
1.0
100
AcDbArc
 50
180.0
 51
270.0
  0
CIRCLE
  5
30A
330
2
100
AcDbEntity
  8
画層1
 62
     0
100
AcDbCircle
 10
-123.68
 20
310.5899999999999
 30
0.0
 40
1.75
  0
LINE
  5
30B
330
2
100
AcDbEntity
  8
画層1
 62
     0
100
AcDbLine
 10
-144.18
 20
299.9499999999999
 30
0.0
 11
-144.18
 21
292.9499999999999
 31
0.0
  0
CIRCLE
  5
30C
330
2
100
AcDbEntity
  8
画層1
 62
     0
100
AcDbCircle
 10
-147.68
 20
296.45
 30
0.0
 40
3.0
  0
LINE
  5
30D
330
2
100
AcDbEntity
  8
画層1
 62
     0
100
AcDbLine
 10
-147.1799999999999
 20
288.85
 30
0.0
 11
-147.1799999999999
 21
288.55
 31
0.0
  0
LINE
  5
30E
330
2
100
AcDbEntity
  8
画層1
 62
     0
100
AcDbLine
 10
-148.1799999999999
 20
288.55
 30
0.0
 11
-148.1799999999999
 21
288.85
 31
0.0
  0
LINE
  5
30F
330
2
100
AcDbEntity
  8
画層1
 62
     0
100
AcDbLine
 10
-148.1799999999999
 20
288.85
 30
0.0
 11
-147.1799999999999
 21
288.85
 31
0.0
  0
ARC
  5
310
330
2
100
AcDbEntity
  8
画層1
 62
     0
100
AcDbCircle
 10
-146.18
 20
297.9499999999999
 30
0.0
 40
1.0
100
AcDbArc
 50
180.0
 51
270.0
  0
ARC
  5
311
330
2
100
AcDbEntity
  8
画層1
 62
     0
100
AcDbCircle
 10
-146.18
 20
294.95
 30
0.0
 40
1.0
100
AcDbArc
 50
90.0
 51
180.0
  0
LINE
  5
312
330
2
100
AcDbEntity
  8
画層1
 62
     0
100
AcDbLine
 10
-148.1799999999999
 20
298.2499999999999
 30
0.0
 11
-147.1799999999999
 21
298.2499999999999
 31
0.0
  0
LINE
  5
313
330
2
100
AcDbEntity
  8
画層1
 62
     0
100
AcDbLine
 10
-147.1799999999999
 20
294.95
 30
0.0
 11
-147.1799999999999
 21
294.6499999999999
 31
0.0
  0
LINE
  5
314
330
2
100
AcDbEntity
  8
画層1
 62
     0
100
AcDbLine
 10
-150.64
 20
296.95
 30
0.0
 11
-149.18
 21
296.95
 31
0.0
  0
LINE
  5
315
330
2
100
AcDbEntity
  8
画層1
 62
     0
100
AcDbLine
 10
-149.18
 20
295.9499999999999
 30
0.0
 11
-150.64
 21
295.9499999999999
 31
0.0
  0
ARC
  5
316
330
2
100
AcDbEntity
  8
画層1
 62
     0
100
AcDbCircle
 10
-149.18
 20
297.9499999999999
 30
0.0
 40
1.0
100
AcDbArc
 50
270.0
 51
0.0
  0
ARC
  5
317
330
2
100
AcDbEntity
  8
画層1
 62
     0
100
AcDbCircle
 10
-149.18
 20
294.95
 30
0.0
 40
1.0
100
AcDbArc
 50
0.0
 51
90.0
  0
LINE
  5
318
330
2
100
AcDbEntity
  8
画層1
 62
     0
100
AcDbLine
 10
-148.1799999999999
 20
294.6499999999999
 30
0.0
 11
-148.1799999999999
 21
294.95
 31
0.0
  0
LINE
  5
319
330
2
100
AcDbEntity
  8
画層1
 62
     0
100
AcDbLine
 10
-148.1799999999999
 20
294.6499999999999
 30
0.0
 11
-147.1799999999999
 21
294.6499999999999
 31
0.0
  0
LINE
  5
31A
330
2
100
AcDbEntity
  8
画層1
 62
     0
100
AcDbLine
 10
-148.1799999999999
 20
297.9499999999999
 30
0.0
 11
-148.1799999999999
 21
298.2499999999999
 31
0.0
  0
LINE
  5
31B
330
2
100
AcDbEntity
  8
画層1
 62
     0
100
AcDbLine
 10
-147.1799999999999
 20
298.2499999999999
 30
0.0
 11
-147.1799999999999
 21
297.9499999999999
 31
0.0
  0
LINE
  5
31C
330
2
100
AcDbEntity
  8
画層1
 62
     0
100
AcDbLine
 10
-146.18
 20
296.95
 30
0.0
 11
-144.72
 21
296.95
 31
0.0
  0
LINE
  5
31D
330
2
100
AcDbEntity
  8
画層1
 62
     0
100
AcDbLine
 10
-144.72
 20
295.9499999999999
 30
0.0
 11
-146.18
 21
295.9499999999999
 31
0.0
  0
LINE
  5
31E
330
2
100
AcDbEntity
  8
画層1
 62
     0
100
AcDbLine
 10
-144.18
 20
309.35
 30
0.0
 11
-144.18
 21
302.35
 31
0.0
  0
ARC
  5
31F
330
2
100
AcDbEntity
  8
画層1
 62
     0
100
AcDbCircle
 10
-146.18
 20
304.35
 30
0.0
 40
1.0
100
AcDbArc
 50
90.0
 51
180.0
  0
ARC
  5
320
330
2
100
AcDbEntity
  8
画層1
 62
     0
100
AcDbCircle
 10
-149.18
 20
304.35
 30
0.0
 40
1.0
100
AcDbArc
 50
0.0
 51
90.0
  0
CIRCLE
  5
321
330
2
100
AcDbEntity
  8
画層1
 62
     0
100
AcDbCircle
 10
-147.68
 20
305.85
 30
0.0
 40
3.0
  0
LINE
  5
322
330
2
100
AcDbEntity
  8
画層1
 62
     0
100
AcDbLine
 10
-147.1799999999999
 20
304.35
 30
0.0
 11
-147.1799999999999
 21
304.05
 31
0.0
  0
LINE
  5
323
330
2
100
AcDbEntity
  8
画層1
 62
     0
100
AcDbLine
 10
-148.1799999999999
 20
304.05
 30
0.0
 11
-148.1799999999999
 21
304.35
 31
0.0
  0
LINE
  5
324
330
2
100
AcDbEntity
  8
画層1
 62
     0
100
AcDbLine
 10
-148.1799999999999
 20
304.05
 30
0.0
 11
-147.1799999999999
 21
304.05
 31
0.0
  0
ARC
  5
325
330
2
100
AcDbEntity
  8
画層1
 62
     0
100
AcDbCircle
 10
-146.18
 20
307.35
 30
0.0
 40
1.0
100
AcDbArc
 50
180.0
 51
270.0
  0
LINE
  5
326
330
2
100
AcDbEntity
  8
画層1
 62
     0
100
AcDbLine
 10
-147.1799999999999
 20
307.6499999999999
 30
0.0
 11
-147.1799999999999
 21
307.35
 31
0.0
  0
LINE
  5
327
330
2
100
AcDbEntity
  8
画層1
 62
     0
100
AcDbLine
 10
-150.64
 20
306.35
 30
0.0
 11
-149.18
 21
306.35
 31
0.0
  0
LINE
  5
328
330
2
100
AcDbEntity
  8
画層1
 62
     0
100
AcDbLine
 10
-149.18
 20
305.35
 30
0.0
 11
-150.64
 21
305.35
 31
0.0
  0
ARC
  5
329
330
2
100
AcDbEntity
  8
画層1
 62
     0
100
AcDbCircle
 10
-149.18
 20
307.35
 30
0.0
 40
1.0
100
AcDbArc
 50
270.0
 51
0.0
  0
LINE
  5
32A
330
2
100
AcDbEntity
  8
画層1
 62
     0
100
AcDbLine
 10
-148.1799999999999
 20
307.35
 30
0.0
 11
-148.1799999999999
 21
307.6499999999999
 31
0.0
  0
LINE
  5
32B
330
2
100
AcDbEntity
  8
画層1
 62
     0
100
AcDbLine
 10
-148.1799999999999
 20
307.6499999999999
 30
0.0
 11
-147.1799999999999
 21
307.6499999999999
 31
0.0
  0
LINE
  5
32C
330
2
100
AcDbEntity
  8
画層1
 62
     0
100
AcDbLine
 10
-146.18
 20
306.35
 30
0.0
 11
-144.72
 21
306.35
 31
0.0
  0
LINE
  5
32D
330
2
100
AcDbEntity
  8
画層1
 62
     0
100
AcDbLine
 10
-144.72
 20
305.35
 30
0.0
 11
-146.18
 21
305.35
 31
0.0
  0
CIRCLE
  5
32E
330
2
100
AcDbEntity
  8
画層1
 62
     0
100
AcDbCircle
 10
-123.68
 20
300.59
 30
0.0
 40
1.75
  0
CIRCLE
  5
32F
330
2
100
AcDbEntity
  8
画層1
 62
     0
100
AcDbCircle
 10
-123.68
 20
290.5899999999999
 30
0.0
 40
1.75
  0
CIRCLE
  5
330
330
2
100
AcDbEntity
  8
画層1
 62
     0
100
AcDbCircle
 10
-147.68
 20
324.6499999999999
 30
0.0
 40
3.0
  0
LINE
  5
331
330
2
100
AcDbEntity
  8
画層1
 62
     0
100
AcDbLine
 10
-144.18
 20
328.1499999999999
 30
0.0
 11
-144.18
 21
321.15
 31
0.0
  0
LINE
  5
332
330
2
100
AcDbEntity
  8
画層1
 62
     0
100
AcDbLine
 10
-144.18
 20
318.75
 30
0.0
 11
-144.18
 21
311.75
 31
0.0
  0
ARC
  5
333
330
2
100
AcDbEntity
  8
画層1
 62
     0
100
AcDbCircle
 10
-146.18
 20
316.7499999999999
 30
0.0
 40
1.0
100
AcDbArc
 50
180.0
 51
270.0
  0
ARC
  5
334
330
2
100
AcDbEntity
  8
画層1
 62
     0
100
AcDbCircle
 10
-149.18
 20
316.7499999999999
 30
0.0
 40
1.0
100
AcDbArc
 50
270.0
 51
0.0
  0
CIRCLE
  5
335
330
2
100
AcDbEntity
  8
画層1
 62
     0
100
AcDbCircle
 10
-147.68
 20
315.2499999999999
 30
0.0
 40
3.0
  0
ARC
  5
336
330
2
100
AcDbEntity
  8
画層1
 62
     0
100
AcDbCircle
 10
-146.18
 20
313.75
 30
0.0
 40
1.0
100
AcDbArc
 50
90.0
 51
180.0
  0
LINE
  5
337
330
2
100
AcDbEntity
  8
画層1
 62
     0
100
AcDbLine
 10
-147.1799999999999
 20
313.75
 30
0.0
 11
-147.1799999999999
 21
313.45
 31
0.0
  0
LINE
  5
338
330
2
100
AcDbEntity
  8
画層1
 62
     0
100
AcDbLine
 10
-150.64
 20
315.75
 30
0.0
 11
-149.18
 21
315.75
 31
0.0
  0
LINE
  5
339
330
2
100
AcDbEntity
  8
画層1
 62
     0
100
AcDbLine
 10
-149.18
 20
314.7499999999999
 30
0.0
 11
-150.64
 21
314.7499999999999
 31
0.0
  0
ARC
  5
33A
330
2
100
AcDbEntity
  8
画層1
 62
     0
100
AcDbCircle
 10
-149.18
 20
313.75
 30
0.0
 40
1.0
100
AcDbArc
 50
0.0
 51
90.0
  0
LINE
  5
33B
330
2
100
AcDbEntity
  8
画層1
 62
     0
100
AcDbLine
 10
-148.1799999999999
 20
313.45
 30
0.0
 11
-148.1799999999999
 21
313.75
 31
0.0
  0
LINE
  5
33C
330
2
100
AcDbEntity
  8
画層1
 62
     0
100
AcDbLine
 10
-148.1799999999999
 20
313.45
 30
0.0
 11
-147.1799999999999
 21
313.45
 31
0.0
  0
LINE
  5
33D
330
2
100
AcDbEntity
  8
画層1
 62
     0
100
AcDbLine
 10
-146.18
 20
315.75
 30
0.0
 11
-144.72
 21
315.75
 31
0.0
  0
LINE
  5
33E
330
2
100
AcDbEntity
  8
画層1
 62
     0
100
AcDbLine
 10
-144.72
 20
314.7499999999999
 30
0.0
 11
-146.18
 21
314.7499999999999
 31
0.0
  0
LINE
  5
33F
330
2
100
AcDbEntity
  8
画層1
 62
     0
100
AcDbLine
 10
-147.1799999999999
 20
317.05
 30
0.0
 11
-147.1799999999999
 21
316.7499999999999
 31
0.0
  0
LINE
  5
340
330
2
100
AcDbEntity
  8
画層1
 62
     0
100
AcDbLine
 10
-148.1799999999999
 20
316.7499999999999
 30
0.0
 11
-148.1799999999999
 21
317.05
 31
0.0
  0
LINE
  5
341
330
2
100
AcDbEntity
  8
画層1
 62
     0
100
AcDbLine
 10
-148.1799999999999
 20
317.05
 30
0.0
 11
-147.1799999999999
 21
317.05
 31
0.0
  0
ARC
  5
342
330
2
100
AcDbEntity
  8
画層1
 62
     0
100
AcDbCircle
 10
-146.18
 20
323.15
 30
0.0
 40
1.0
100
AcDbArc
 50
90.0
 51
180.0
  0
ARC
  5
343
330
2
100
AcDbEntity
  8
画層1
 62
     0
100
AcDbCircle
 10
-146.18
 20
326.1499999999999
 30
0.0
 40
1.0
100
AcDbArc
 50
180.0
 51
270.0
  0
LINE
  5
344
330
2
100
AcDbEntity
  8
画層1
 62
     0
100
AcDbLine
 10
-147.1799999999999
 20
323.15
 30
0.0
 11
-147.1799999999999
 21
322.85
 31
0.0
  0
LINE
  5
345
330
2
100
AcDbEntity
  8
画層1
 62
     0
100
AcDbLine
 10
-147.1799999999999
 20
326.4499999999999
 30
0.0
 11
-147.1799999999999
 21
326.1499999999999
 31
0.0
  0
ARC
  5
346
330
2
100
AcDbEntity
  8
画層1
 62
     0
100
AcDbCircle
 10
-149.18
 20
323.15
 30
0.0
 40
1.0
100
AcDbArc
 50
0.0
 51
90.0
  0
LINE
  5
347
330
2
100
AcDbEntity
  8
画層1
 62
     0
100
AcDbLine
 10
-148.1799999999999
 20
322.85
 30
0.0
 11
-148.1799999999999
 21
323.15
 31
0.0
  0
LINE
  5
348
330
2
100
AcDbEntity
  8
画層1
 62
     0
100
AcDbLine
 10
-149.18
 20
324.1499999999999
 30
0.0
 11
-150.64
 21
324.1499999999999
 31
0.0
  0
LINE
  5
349
330
2
100
AcDbEntity
  8
画層1
 62
     0
100
AcDbLine
 10
-150.64
 20
325.15
 30
0.0
 11
-149.18
 21
325.15
 31
0.0
  0
ARC
  5
34A
330
2
100
AcDbEntity
  8
画層1
 62
     0
100
AcDbCircle
 10
-149.18
 20
326.1499999999999
 30
0.0
 40
1.0
100
AcDbArc
 50
270.0
 51
0.0
  0
LINE
  5
34B
330
2
100
AcDbEntity
  8
画層1
 62
     0
100
AcDbLine
 10
-148.1799999999999
 20
326.1499999999999
 30
0.0
 11
-148.1799999999999
 21
326.4499999999999
 31
0.0
  0
LINE
  5
34C
330
2
100
AcDbEntity
  8
画層1
 62
     0
100
AcDbLine
 10
-148.1799999999999
 20
322.85
 30
0.0
 11
-147.1799999999999
 21
322.85
 31
0.0
  0
LINE
  5
34D
330
2
100
AcDbEntity
  8
画層1
 62
     0
100
AcDbLine
 10
-148.1799999999999
 20
326.4499999999999
 30
0.0
 11
-147.1799999999999
 21
326.4499999999999
 31
0.0
  0
LINE
  5
34E
330
2
100
AcDbEntity
  8
画層1
 62
     0
100
AcDbLine
 10
-144.72
 20
324.1499999999999
 30
0.0
 11
-146.18
 21
324.1499999999999
 31
0.0
  0
LINE
  5
34F
330
2
100
AcDbEntity
  8
画層1
 62
     0
100
AcDbLine
 10
-146.18
 20
325.15
 30
0.0
 11
-144.72
 21
325.15
 31
0.0
  0
ARC
  5
350
330
2
100
AcDbEntity
  8
画層1
 62
     0
100
AcDbCircle
 10
-146.18
 20
332.55
 30
0.0
 40
1.0
100
AcDbArc
 50
90.0
 51
180.0
  0
LINE
  5
351
330
2
100
AcDbEntity
  8
画層1
 62
     0
100
AcDbLine
 10
-147.1799999999999
 20
332.55
 30
0.0
 11
-147.1799999999999
 21
332.25
 31
0.0
  0
LINE
  5
352
330
2
100
AcDbEntity
  8
画層1
 62
     0
100
AcDbLine
 10
-149.18
 20
333.55
 30
0.0
 11
-150.64
 21
333.55
 31
0.0
  0
LINE
  5
353
330
2
100
AcDbEntity
  8
画層1
 62
     0
100
AcDbLine
 10
-148.1799999999999
 20
332.25
 30
0.0
 11
-148.1799999999999
 21
332.55
 31
0.0
  0
ARC
  5
354
330
2
100
AcDbEntity
  8
画層1
 62
     0
100
AcDbCircle
 10
-149.18
 20
332.55
 30
0.0
 40
1.0
100
AcDbArc
 50
0.0
 51
90.0
  0
LINE
  5
355
330
2
100
AcDbEntity
  8
画層1
 62
     0
100
AcDbLine
 10
-148.1799999999999
 20
332.25
 30
0.0
 11
-147.1799999999999
 21
332.25
 31
0.0
  0
LINE
  5
356
330
2
100
AcDbEntity
  8
画層1
 62
     0
100
AcDbLine
 10
-144.72
 20
333.55
 30
0.0
 11
-146.18
 21
333.55
 31
0.0
  0
CIRCLE
  5
357
330
2
100
AcDbEntity
  8
画層1
 62
     0
100
AcDbCircle
 10
-123.68
 20
320.5899999999999
 30
0.0
 40
1.75
  0
CIRCLE
  5
358
330
2
100
AcDbEntity
  8
画層1
 62
     0
100
AcDbCircle
 10
-123.68
 20
330.5899999999999
 30
0.0
 40
1.75
  0
CIRCLE
  5
359
330
2
100
AcDbEntity
  8
画層1
 62
     0
100
AcDbCircle
 10
-103.68
 20
285.5899999999999
 30
0.0
 40
2.5
  0
CIRCLE
  5
35A
330
2
100
AcDbEntity
  8
画層1
 62
     0
100
AcDbCircle
 10
-103.68
 20
300.59
 30
0.0
 40
2.5
  0
CIRCLE
  5
35B
330
2
100
AcDbEntity
  8
画層1
 62
     0
100
AcDbCircle
 10
-103.68
 20
330.5899999999999
 30
0.0
 40
2.5
  0
CIRCLE
  5
35C
330
2
100
AcDbEntity
  8
画層1
 62
     0
100
AcDbCircle
 10
-103.68
 20
315.5899999999999
 30
0.0
 40
2.5
  0
LINE
  5
35D
330
2
100
AcDbEntity
  8
画層1
 62
     0
100
AcDbLine
 10
-126.68
 20
364.5899999999999
 30
0.0
 11
-67.68
 21
364.5899999999999
 31
0.0
  0
LINE
  5
35E
330
2
100
AcDbEntity
  8
画層1
 62
     0
100
AcDbLine
 10
-161.18
 20
380.5899999999999
 30
0.0
 11
-63.18
 21
380.5899999999999
 31
0.0
  0
LINE
  5
35F
330
2
100
AcDbEntity
  8
画層1
 62
     0
100
AcDbLine
 10
-177.68
 20
343.5899999999999
 30
0.0
 11
-177.68
 21
407.5899999999999
 31
0.0
  0
ARC
  5
360
330
2
100
AcDbEntity
  8
画層1
 62
     0
100
AcDbCircle
 10
-161.18
 20
377.0899999999999
 30
0.0
 40
3.5
100
AcDbArc
 50
90.0
 51
180.0
  0
LINE
  5
361
330
2
100
AcDbEntity
  8
画層1
 62
     0
100
AcDbLine
 10
-151.18
 20
337.55
 30
0.0
 11
-144.18
 21
337.55
 31
0.0
  0
LINE
  5
362
330
2
100
AcDbEntity
  8
画層1
 62
     0
100
AcDbLine
 10
-153.08
 20
338.05
 30
0.0
 11
-143.68
 21
338.05
 31
0.0
  0
LINE
  5
363
330
2
100
AcDbEntity
  8
画層1
 62
     0
100
AcDbLine
 10
-142.68
 20
342.5899999999999
 30
0.0
 11
-164.6799999999999
 21
342.5899999999999
 31
0.0
  0
LINE
  5
364
330
2
100
AcDbEntity
  8
画層1
 62
     0
100
AcDbLine
 10
-143.68
 20
341.5899999999999
 30
0.0
 11
-175.68
 21
341.5899999999999
 31
0.0
  0
LINE
  5
365
330
2
100
AcDbEntity
  8
画層1
 62
     0
100
AcDbLine
 10
-164.6799999999999
 20
342.5899999999999
 30
0.0
 11
-164.6799999999999
 21
377.0899999999999
 31
0.0
  0
ARC
  5
366
330
2
100
AcDbEntity
  8
画層1
 62
     0
100
AcDbCircle
 10
-175.68
 20
343.5899999999999
 30
0.0
 40
2.0
100
AcDbArc
 50
180.0
 51
270.0
  0
ARC
  5
367
330
2
100
AcDbEntity
  8
画層1
 62
     0
100
AcDbCircle
 10
-146.18
 20
335.55
 30
0.0
 40
1.0
100
AcDbArc
 50
180.0
 51
270.0
  0
LINE
  5
368
330
2
100
AcDbEntity
  8
画層1
 62
     0
100
AcDbLine
 10
-147.1799999999999
 20
335.85
 30
0.0
 11
-147.1799999999999
 21
335.55
 31
0.0
  0
LINE
  5
369
330
2
100
AcDbEntity
  8
画層1
 62
     0
100
AcDbLine
 10
-148.1799999999999
 20
335.55
 30
0.0
 11
-148.1799999999999
 21
335.85
 31
0.0
  0
ARC
  5
36A
330
2
100
AcDbEntity
  8
画層1
 62
     0
100
AcDbCircle
 10
-149.18
 20
335.55
 30
0.0
 40
1.0
100
AcDbArc
 50
270.0
 51
0.0
  0
LINE
  5
36B
330
2
100
AcDbEntity
  8
画層1
 62
     0
100
AcDbLine
 10
-150.64
 20
334.55
 30
0.0
 11
-149.18
 21
334.55
 31
0.0
  0
LINE
  5
36C
330
2
100
AcDbEntity
  8
画層1
 62
     0
100
AcDbLine
 10
-148.1799999999999
 20
335.85
 30
0.0
 11
-147.1799999999999
 21
335.85
 31
0.0
  0
LINE
  5
36D
330
2
100
AcDbEntity
  8
画層1
 62
     0
100
AcDbLine
 10
-146.18
 20
334.55
 30
0.0
 11
-144.72
 21
334.55
 31
0.0
  0
ARC
  5
36E
330
2
100
AcDbEntity
  8
画層1
 62
     0
100
AcDbCircle
 10
-126.68
 20
361.5899999999999
 30
0.0
 40
3.0
100
AcDbArc
 50
90.0
 51
180.0
  0
LINE
  5
36F
330
2
100
AcDbEntity
  8
画層1
 62
     0
100
AcDbLine
 10
-170.88
 20
392.0899999999999
 30
0.0
 11
-170.88
 21
393.0899999999999
 31
0.0
  0
ARC
  5
370
330
2
100
AcDbEntity
  8
画層1
 62
     0
100
AcDbCircle
 10
-174.18
 20
391.0899999999999
 30
0.0
 40
1.0
100
AcDbArc
 50
0.0
 51
90.0
  0
LINE
  5
371
330
2
100
AcDbEntity
  8
画層1
 62
     0
100
AcDbLine
 10
-174.4799999999999
 20
392.0899999999999
 30
0.0
 11
-174.4799999999999
 21
393.0899999999999
 31
0.0
  0
ARC
  5
372
330
2
100
AcDbEntity
  8
画層1
 62
     0
100
AcDbCircle
 10
-171.18
 20
391.0899999999999
 30
0.0
 40
1.0
100
AcDbArc
 50
90.0
 51
180.0
  0
CIRCLE
  5
373
330
2
100
AcDbEntity
  8
画層1
 62
     0
100
AcDbCircle
 10
-172.68
 20
392.59
 30
0.0
 40
3.0
  0
CIRCLE
  5
374
330
2
100
AcDbEntity
  8
画層1
 62
     0
100
AcDbCircle
 10
-172.68
 20
392.59
 30
0.0
 40
4.0
  0
LINE
  5
375
330
2
100
AcDbEntity
  8
画層1
 62
     0
100
AcDbLine
 10
-174.18
 20
392.0899999999999
 30
0.0
 11
-174.4799999999999
 21
392.0899999999999
 31
0.0
  0
LINE
  5
376
330
2
100
AcDbEntity
  8
画層1
 62
     0
100
AcDbLine
 10
-173.1799999999999
 20
390.79
 30
0.0
 11
-172.1799999999999
 21
390.79
 31
0.0
  0
LINE
  5
377
330
2
100
AcDbEntity
  8
画層1
 62
     0
100
AcDbLine
 10
-172.1799999999999
 20
391.0899999999999
 30
0.0
 11
-172.1799999999999
 21
390.79
 31
0.0
  0
LINE
  5
378
330
2
100
AcDbEntity
  8
画層1
 62
     0
100
AcDbLine
 10
-173.1799999999999
 20
390.79
 30
0.0
 11
-173.1799999999999
 21
391.0899999999999
 31
0.0
  0
LINE
  5
379
330
2
100
AcDbEntity
  8
画層1
 62
     0
100
AcDbLine
 10
-170.88
 20
392.0899999999999
 30
0.0
 11
-171.18
 21
392.0899999999999
 31
0.0
  0
ARC
  5
37A
330
2
100
AcDbEntity
  8
画層1
 62
     0
100
AcDbCircle
 10
-171.18
 20
394.0899999999999
 30
0.0
 40
1.0
100
AcDbArc
 50
180.0
 51
270.0
  0
LINE
  5
37B
330
2
100
AcDbEntity
  8
画層1
 62
     0
100
AcDbLine
 10
-172.1799999999999
 20
394.3899999999999
 30
0.0
 11
-172.1799999999999
 21
394.0899999999999
 31
0.0
  0
LINE
  5
37C
330
2
100
AcDbEntity
  8
画層1
 62
     0
100
AcDbLine
 10
-173.1799999999999
 20
394.0899999999999
 30
0.0
 11
-173.1799999999999
 21
394.3899999999999
 31
0.0
  0
ARC
  5
37D
330
2
100
AcDbEntity
  8
画層1
 62
     0
100
AcDbCircle
 10
-174.18
 20
394.0899999999999
 30
0.0
 40
1.0
100
AcDbArc
 50
270.0
 51
0.0
  0
LINE
  5
37E
330
2
100
AcDbEntity
  8
画層1
 62
     0
100
AcDbLine
 10
-174.4799999999999
 20
393.0899999999999
 30
0.0
 11
-174.18
 21
393.0899999999999
 31
0.0
  0
LINE
  5
37F
330
2
100
AcDbEntity
  8
画層1
 62
     0
100
AcDbLine
 10
-173.1799999999999
 20
394.3899999999999
 30
0.0
 11
-172.1799999999999
 21
394.3899999999999
 31
0.0
  0
LINE
  5
380
330
2
100
AcDbEntity
  8
画層1
 62
     0
100
AcDbLine
 10
-171.18
 20
393.0899999999999
 30
0.0
 11
-170.88
 21
393.0899999999999
 31
0.0
  0
CIRCLE
  5
381
330
2
100
AcDbEntity
  8
画層1
  6
DASHED2
 62
     0
100
AcDbCircle
 10
-137.68
 20
397.5899999999999
 30
0.0
 40
4.5
  0
LINE
  5
382
330
2
100
AcDbEntity
  8
画層1
 62
     0
100
AcDbLine
 10
-144.68
 20
397.5899999999999
 30
0.0
 11
-130.68
 21
397.5899999999999
 31
0.0
  0
ARC
  5
383
330
2
100
AcDbEntity
  8
画層1
 62
     0
100
AcDbCircle
 10
-63.18
 20
377.0899999999999
 30
0.0
 40
3.5
100
AcDbArc
 50
0.0
 51
90.0
  0
ARC
  5
384
330
2
100
AcDbEntity
  8
画層1
 62
     0
100
AcDbCircle
 10
-67.68
 20
361.5899999999999
 30
0.0
 40
3.0
100
AcDbArc
 50
0.0
 51
90.0
  0
LINE
  5
385
330
2
100
AcDbEntity
  8
画層1
 62
     0
100
AcDbLine
 10
22.32
 20
245.59
 30
0.0
 11
20.78
 21
245.59
 31
0.0
  0
LINE
  5
386
330
2
100
AcDbEntity
  8
画層1
 62
     0
100
AcDbLine
 10
22.32
 20
249.59
 30
0.0
 11
20.78
 21
249.59
 31
0.0
  0
ARC
  5
387
330
2
100
AcDbEntity
  8
画層1
 62
     0
100
AcDbCircle
 10
18.82
 20
246.09
 30
0.0
 40
1.0
100
AcDbArc
 50
90.0
 51
180.0
  0
LINE
  5
388
330
2
100
AcDbEntity
  8
画層1
 62
     0
100
AcDbLine
 10
19.12
 20
247.0899999999999
 30
0.0
 11
19.12
 21
248.09
 31
0.0
  0
LINE
  5
389
330
2
100
AcDbEntity
  8
画層1
 62
     0
100
AcDbLine
 10
15.52
 20
247.0899999999999
 30
0.0
 11
15.52
 21
248.09
 31
0.0
  0
ARC
  5
38A
330
2
100
AcDbEntity
  8
画層1
 62
     0
100
AcDbCircle
 10
15.82
 20
246.09
 30
0.0
 40
1.0
100
AcDbArc
 50
0.0
 51
90.0
  0
CIRCLE
  5
38B
330
2
100
AcDbEntity
  8
画層1
 62
     0
100
AcDbCircle
 10
17.32
 20
247.59
 30
0.0
 40
4.0
  0
CIRCLE
  5
38C
330
2
100
AcDbEntity
  8
画層1
 62
     0
100
AcDbCircle
 10
17.32
 20
247.59
 30
0.0
 40
3.0
  0
LINE
  5
38D
330
2
100
AcDbEntity
  8
画層1
 62
     0
100
AcDbLine
 10
16.82
 20
245.7899999999999
 30
0.0
 11
17.82
 21
245.7899999999999
 31
0.0
  0
LINE
  5
38E
330
2
100
AcDbEntity
  8
画層1
 62
     0
100
AcDbLine
 10
16.82
 20
245.7899999999999
 30
0.0
 11
16.82
 21
246.09
 31
0.0
  0
LINE
  5
38F
330
2
100
AcDbEntity
  8
画層1
 62
     0
100
AcDbLine
 10
15.82
 20
247.0899999999999
 30
0.0
 11
15.52
 21
247.0899999999999
 31
0.0
  0
LINE
  5
390
330
2
100
AcDbEntity
  8
画層1
 62
     0
100
AcDbLine
 10
19.12
 20
247.0899999999999
 30
0.0
 11
18.82
 21
247.0899999999999
 31
0.0
  0
LINE
  5
391
330
2
100
AcDbEntity
  8
画層1
 62
     0
100
AcDbLine
 10
17.82
 20
246.09
 30
0.0
 11
17.82
 21
245.7899999999999
 31
0.0
  0
LINE
  5
392
330
2
100
AcDbEntity
  8
画層1
 62
     0
100
AcDbLine
 10
16.82
 20
249.39
 30
0.0
 11
17.82
 21
249.39
 31
0.0
  0
LINE
  5
393
330
2
100
AcDbEntity
  8
画層1
 62
     0
100
AcDbLine
 10
16.82
 20
249.0899999999999
 30
0.0
 11
16.82
 21
249.39
 31
0.0
  0
LINE
  5
394
330
2
100
AcDbEntity
  8
画層1
 62
     0
100
AcDbLine
 10
15.52
 20
248.09
 30
0.0
 11
15.82
 21
248.09
 31
0.0
  0
ARC
  5
395
330
2
100
AcDbEntity
  8
画層1
 62
     0
100
AcDbCircle
 10
15.82
 20
249.0899999999999
 30
0.0
 40
1.0
100
AcDbArc
 50
270.0
 51
0.0
  0
LINE
  5
396
330
2
100
AcDbEntity
  8
画層1
 62
     0
100
AcDbLine
 10
17.82
 20
249.39
 30
0.0
 11
17.82
 21
249.0899999999999
 31
0.0
  0
ARC
  5
397
330
2
100
AcDbEntity
  8
画層1
 62
     0
100
AcDbCircle
 10
18.82
 20
249.0899999999999
 30
0.0
 40
1.0
100
AcDbArc
 50
180.0
 51
270.0
  0
LINE
  5
398
330
2
100
AcDbEntity
  8
画層1
 62
     0
100
AcDbLine
 10
18.82
 20
248.09
 30
0.0
 11
19.12
 21
248.09
 31
0.0
  0
LINE
  5
399
330
2
100
AcDbEntity
  8
画層1
 62
     0
100
AcDbLine
 10
128.3199999999999
 20
246.89
 30
0.0
 11
127.5199999999999
 21
246.09
 31
0.0
  0
LINE
  5
39A
330
2
100
AcDbEntity
  8
画層1
 62
     0
100
AcDbLine
 10
127.5199999999999
 20
249.0899999999999
 30
0.0
 11
128.3199999999999
 21
248.2899999999999
 31
0.0
  0
LINE
  5
39B
330
2
100
AcDbEntity
  8
画層1
 62
     0
100
AcDbLine
 10
128.3199999999999
 20
246.89
 30
0.0
 11
124.92
 21
246.89
 31
0.0
  0
LINE
  5
39C
330
2
100
AcDbEntity
  8
画層1
 62
     0
100
AcDbLine
 10
124.92
 20
248.2899999999999
 30
0.0
 11
128.3199999999999
 21
248.2899999999999
 31
0.0
  0
LINE
  5
39D
330
2
100
AcDbEntity
  8
画層1
 62
     0
100
AcDbLine
 10
127.5199999999999
 20
249.0899999999999
 30
0.0
 11
127.5199999999999
 21
246.09
 31
0.0
  0
LINE
  5
39E
330
2
100
AcDbEntity
  8
画層1
 62
     0
100
AcDbLine
 10
121.72
 20
251.39
 30
0.0
 11
121.72
 21
243.7899999999999
 31
0.0
  0
LINE
  5
39F
330
2
100
AcDbEntity
  8
画層1
 62
     0
100
AcDbLine
 10
120.32
 20
249.19
 30
0.0
 11
120.32
 21
245.99
 31
0.0
  0
LINE
  5
3A0
330
2
100
AcDbEntity
  8
画層1
 62
     0
100
AcDbLine
 10
121.32
 20
244.9899999999999
 30
0.0
 11
121.72
 21
244.9899999999999
 31
0.0
  0
ARC
  5
3A1
330
2
100
AcDbEntity
  8
画層1
 62
     0
100
AcDbCircle
 10
121.32
 20
245.99
 30
0.0
 40
1.0
100
AcDbArc
 50
180.0
 51
270.0
  0
LINE
  5
3A2
330
2
100
AcDbEntity
  8
画層1
 62
     0
100
AcDbLine
 10
121.72
 20
243.7899999999999
 30
0.0
 11
122.32
 21
243.7899999999999
 31
0.0
  0
LINE
  5
3A3
330
2
100
AcDbEntity
  8
画層1
 62
     0
100
AcDbLine
 10
127.5199999999999
 20
246.09
 30
0.0
 11
124.92
 21
246.09
 31
0.0
  0
LINE
  5
3A4
330
2
100
AcDbEntity
  8
画層1
 62
     0
100
AcDbLine
 10
121.72
 20
250.19
 30
0.0
 11
121.32
 21
250.19
 31
0.0
  0
ARC
  5
3A5
330
2
100
AcDbEntity
  8
画層1
 62
     0
100
AcDbCircle
 10
121.32
 20
249.19
 30
0.0
 40
1.0
100
AcDbArc
 50
90.0
 51
180.0
  0
LINE
  5
3A6
330
2
100
AcDbEntity
  8
画層1
 62
     0
100
AcDbLine
 10
120.32
 20
247.19
 30
0.0
 11
120.92
 21
247.19
 31
0.0
  0
LINE
  5
3A7
330
2
100
AcDbEntity
  8
画層1
 62
     0
100
AcDbLine
 10
120.92
 20
247.19
 30
0.0
 11
120.92
 21
247.99
 31
0.0
  0
LINE
  5
3A8
330
2
100
AcDbEntity
  8
画層1
 62
     0
100
AcDbLine
 10
120.92
 20
247.99
 30
0.0
 11
120.32
 21
247.99
 31
0.0
  0
LINE
  5
3A9
330
2
100
AcDbEntity
  8
画層1
 62
     0
100
AcDbLine
 10
122.32
 20
251.39
 30
0.0
 11
121.72
 21
251.39
 31
0.0
  0
LINE
  5
3AA
330
2
100
AcDbEntity
  8
画層1
 62
     0
100
AcDbLine
 10
124.92
 20
249.0899999999999
 30
0.0
 11
127.5199999999999
 21
249.0899999999999
 31
0.0
  0
LINE
  5
3AB
330
2
100
AcDbEntity
  8
画層1
 62
     0
100
AcDbLine
 10
128.3199999999999
 20
248.2899999999999
 30
0.0
 11
128.3199999999999
 21
246.89
 31
0.0
  0
MTEXT
  5
3AC
102
{ACAD_REACTORS
330
3AD
102
}
330
2
100
AcDbEntity
  8
画層1
 62
     0
100
AcDbMText
 10
0.58
 20
425.75
 30
0.0
 40
5.0
 41
0.0
 71
     4
 72
     1
  1
2-φ9
  7
STYLE1
 73
     1
 44
1.0
1001
ACAD
1000
MTEXTBEGIN
1070
    73
1070
     1
1070
    44
1040
1.0
1070
    74
1070
     0
1000
MTEXTEND
1000
MTEXTBEGIN
1070
    73
1070
     1
1070
    44
1040
1.0
1070
    74
1070
     0
1000
MTEXTEND
  0
LEADER
  5
3AD
330
2
100
AcDbEntity
  8
画層1
 62
     0
100
AcDbLeader
  3
STANDARD_WS
 73
     0
 74
     0
 75
     1
 40
5.929999999999999
 41
17.32
 76
     3
 10
-15.41999999999999
 20
401.47
 30
0.0
 10
-1.55
 20
422.16
 30
0.0
 10
-0.05
 20
422.16
 30
0.0
340
3AC
1001
ACAD
1000
DSTYLE
1002
{
1070
     6
1000
OPEN30
1070
    47
1040
0.6
1070
    77
1070
     2
1070
   144
1040
2.0
1070
   146
1040
0.5
1070
   147
1040
0.63
1070
   284
1070
     8
1070
   340
1005
2E
1070
   341
1005
2F
1070
   343
1005
2F
1002
}
  0
MTEXT
  5
3AE
330
2
100
AcDbEntity
  8
画層1
 62
     0
100
AcDbMText
 10
-1.679999999999999
 20
416.75
 30
0.0
 40
5.0
 41
0.0
 71
     4
 72
     1
  1
取付穴
  7
STYLE1
 73
     1
 44
1.0
1001
ACAD
1000
MTEXTBEGIN
1070
    73
1070
     1
1070
    44
1040
1.0
1070
    74
1070
     0
1000
MTEXTEND
1000
MTEXTBEGIN
1070
    73
1070
     1
1070
    44
1040
1.0
1070
    74
1070
     0
1000
MTEXTEND
  0
CIRCLE
  5
3AF
330
2
100
AcDbEntity
  8
画層1
  6
DASHED2
 62
     0
100
AcDbCircle
 10
-17.67999999999999
 20
397.5899999999999
 30
0.0
 40
4.5
  0
ARC
  5
3B0
330
2
100
AcDbEntity
  8
画層1
 62
     0
100
AcDbCircle
 10
18.82
 20
391.0899999999999
 30
0.0
 40
1.0
100
AcDbArc
 50
90.0
 51
180.0
  0
LINE
  5
3B1
330
2
100
AcDbEntity
  8
画層1
 62
     0
100
AcDbLine
 10
19.12
 20
392.0899999999999
 30
0.0
 11
19.12
 21
393.0899999999999
 31
0.0
  0
LINE
  5
3B2
330
2
100
AcDbEntity
  8
画層1
 62
     0
100
AcDbLine
 10
15.52
 20
392.0899999999999
 30
0.0
 11
15.52
 21
393.0899999999999
 31
0.0
  0
ARC
  5
3B3
330
2
100
AcDbEntity
  8
画層1
 62
     0
100
AcDbCircle
 10
15.82
 20
391.0899999999999
 30
0.0
 40
1.0
100
AcDbArc
 50
0.0
 51
90.0
  0
CIRCLE
  5
3B4
330
2
100
AcDbEntity
  8
画層1
 62
     0
100
AcDbCircle
 10
17.32
 20
392.59
 30
0.0
 40
4.0
  0
CIRCLE
  5
3B5
330
2
100
AcDbEntity
  8
画層1
 62
     0
100
AcDbCircle
 10
17.32
 20
392.59
 30
0.0
 40
3.0
  0
LINE
  5
3B6
330
2
100
AcDbEntity
  8
画層1
 62
     0
100
AcDbLine
 10
22.32
 20
390.5899999999999
 30
0.0
 11
20.78
 21
390.5899999999999
 31
0.0
  0
LINE
  5
3B7
330
2
100
AcDbEntity
  8
画層1
 62
     0
100
AcDbLine
 10
16.82
 20
390.79
 30
0.0
 11
17.82
 21
390.79
 31
0.0
  0
LINE
  5
3B8
330
2
100
AcDbEntity
  8
画層1
 62
     0
100
AcDbLine
 10
15.82
 20
392.0899999999999
 30
0.0
 11
15.52
 21
392.0899999999999
 31
0.0
  0
LINE
  5
3B9
330
2
100
AcDbEntity
  8
画層1
 62
     0
100
AcDbLine
 10
16.82
 20
390.79
 30
0.0
 11
16.82
 21
391.0899999999999
 31
0.0
  0
LINE
  5
3BA
330
2
100
AcDbEntity
  8
画層1
 62
     0
100
AcDbLine
 10
19.12
 20
392.0899999999999
 30
0.0
 11
18.82
 21
392.0899999999999
 31
0.0
  0
LINE
  5
3BB
330
2
100
AcDbEntity
  8
画層1
 62
     0
100
AcDbLine
 10
17.82
 20
391.0899999999999
 30
0.0
 11
17.82
 21
390.79
 31
0.0
  0
LINE
  5
3BC
330
2
100
AcDbEntity
  8
画層1
 62
     0
100
AcDbLine
 10
22.32
 20
394.5899999999999
 30
0.0
 11
20.78
 21
394.5899999999999
 31
0.0
  0
LINE
  5
3BD
330
2
100
AcDbEntity
  8
画層1
 62
     0
100
AcDbLine
 10
16.82
 20
394.3899999999999
 30
0.0
 11
17.82
 21
394.3899999999999
 31
0.0
  0
LINE
  5
3BE
330
2
100
AcDbEntity
  8
画層1
 62
     0
100
AcDbLine
 10
16.82
 20
394.0899999999999
 30
0.0
 11
16.82
 21
394.3899999999999
 31
0.0
  0
LINE
  5
3BF
330
2
100
AcDbEntity
  8
画層1
 62
     0
100
AcDbLine
 10
15.52
 20
393.0899999999999
 30
0.0
 11
15.82
 21
393.0899999999999
 31
0.0
  0
ARC
  5
3C0
330
2
100
AcDbEntity
  8
画層1
 62
     0
100
AcDbCircle
 10
15.82
 20
394.0899999999999
 30
0.0
 40
1.0
100
AcDbArc
 50
270.0
 51
0.0
  0
LINE
  5
3C1
330
2
100
AcDbEntity
  8
画層1
 62
     0
100
AcDbLine
 10
17.82
 20
394.3899999999999
 30
0.0
 11
17.82
 21
394.0899999999999
 31
0.0
  0
ARC
  5
3C2
330
2
100
AcDbEntity
  8
画層1
 62
     0
100
AcDbCircle
 10
18.82
 20
394.0899999999999
 30
0.0
 40
1.0
100
AcDbArc
 50
180.0
 51
270.0
  0
LINE
  5
3C3
330
2
100
AcDbEntity
  8
画層1
 62
     0
100
AcDbLine
 10
18.82
 20
393.0899999999999
 30
0.0
 11
19.12
 21
393.0899999999999
 31
0.0
  0
LINE
  5
3C4
330
2
100
AcDbEntity
  8
画層1
 62
     0
100
AcDbLine
 10
128.3199999999999
 20
391.8899999999999
 30
0.0
 11
127.5199999999999
 21
391.0899999999999
 31
0.0
  0
LINE
  5
3C5
330
2
100
AcDbEntity
  8
画層1
 62
     0
100
AcDbLine
 10
127.5199999999999
 20
394.0899999999999
 30
0.0
 11
128.3199999999999
 21
393.29
 31
0.0
  0
LINE
  5
3C6
330
2
100
AcDbEntity
  8
画層1
 62
     0
100
AcDbLine
 10
128.3199999999999
 20
391.8899999999999
 30
0.0
 11
124.92
 21
391.8899999999999
 31
0.0
  0
LINE
  5
3C7
330
2
100
AcDbEntity
  8
画層1
 62
     0
100
AcDbLine
 10
124.92
 20
393.29
 30
0.0
 11
128.3199999999999
 21
393.29
 31
0.0
  0
LINE
  5
3C8
330
2
100
AcDbEntity
  8
画層1
 62
     0
100
AcDbLine
 10
127.5199999999999
 20
394.0899999999999
 30
0.0
 11
127.5199999999999
 21
391.0899999999999
 31
0.0
  0
LINE
  5
3C9
330
2
100
AcDbEntity
  8
画層1
 62
     0
100
AcDbLine
 10
120.32
 20
394.19
 30
0.0
 11
120.32
 21
390.99
 31
0.0
  0
LINE
  5
3CA
330
2
100
AcDbEntity
  8
画層1
 62
     0
100
AcDbLine
 10
121.72
 20
396.3899999999999
 30
0.0
 11
121.72
 21
388.79
 31
0.0
  0
LINE
  5
3CB
330
2
100
AcDbEntity
  8
画層1
 62
     0
100
AcDbLine
 10
121.72
 20
388.79
 30
0.0
 11
122.32
 21
388.79
 31
0.0
  0
ARC
  5
3CC
330
2
100
AcDbEntity
  8
画層1
 62
     0
100
AcDbCircle
 10
121.32
 20
390.99
 30
0.0
 40
1.0
100
AcDbArc
 50
180.0
 51
270.0
  0
LINE
  5
3CD
330
2
100
AcDbEntity
  8
画層1
 62
     0
100
AcDbLine
 10
121.32
 20
389.99
 30
0.0
 11
121.72
 21
389.99
 31
0.0
  0
LINE
  5
3CE
330
2
100
AcDbEntity
  8
画層1
 62
     0
100
AcDbLine
 10
127.5199999999999
 20
391.0899999999999
 30
0.0
 11
124.92
 21
391.0899999999999
 31
0.0
  0
LINE
  5
3CF
330
2
100
AcDbEntity
  8
画層1
 62
     0
100
AcDbLine
 10
122.32
 20
396.3899999999999
 30
0.0
 11
121.72
 21
396.3899999999999
 31
0.0
  0
LINE
  5
3D0
330
2
100
AcDbEntity
  8
画層1
 62
     0
100
AcDbLine
 10
121.72
 20
395.19
 30
0.0
 11
121.32
 21
395.19
 31
0.0
  0
LINE
  5
3D1
330
2
100
AcDbEntity
  8
画層1
 62
     0
100
AcDbLine
 10
120.92
 20
392.99
 30
0.0
 11
120.32
 21
392.99
 31
0.0
  0
LINE
  5
3D2
330
2
100
AcDbEntity
  8
画層1
 62
     0
100
AcDbLine
 10
120.92
 20
392.1899999999999
 30
0.0
 11
120.92
 21
392.99
 31
0.0
  0
LINE
  5
3D3
330
2
100
AcDbEntity
  8
画層1
 62
     0
100
AcDbLine
 10
120.32
 20
392.1899999999999
 30
0.0
 11
120.92
 21
392.1899999999999
 31
0.0
  0
ARC
  5
3D4
330
2
100
AcDbEntity
  8
画層1
 62
     0
100
AcDbCircle
 10
121.32
 20
394.19
 30
0.0
 40
1.0
100
AcDbArc
 50
90.0
 51
180.0
  0
LINE
  5
3D5
330
2
100
AcDbEntity
  8
画層1
 62
     0
100
AcDbLine
 10
124.92
 20
394.0899999999999
 30
0.0
 11
127.5199999999999
 21
394.0899999999999
 31
0.0
  0
LINE
  5
3D6
330
2
100
AcDbEntity
  8
画層1
 62
     0
100
AcDbLine
 10
128.3199999999999
 20
393.29
 30
0.0
 11
128.3199999999999
 21
391.8899999999999
 31
0.0
  0
LINE
  5
3D7
330
2
100
AcDbEntity
  8
画層1
 62
     0
100
AcDbLine
 10
123.3199999999999
 20
406.59
 30
0.0
 11
137.3199999999999
 21
406.59
 31
0.0
  0
LINE
  5
3D8
330
2
100
AcDbEntity
  8
画層1
 62
     0
100
AcDbLine
 10
137.3199999999999
 20
407.5899999999999
 30
0.0
 11
122.32
 21
407.5899999999999
 31
0.0
  0
LINE
  5
3D9
330
2
100
AcDbEntity
  8
画層1
 62
     0
100
AcDbLine
 10
137.3199999999999
 20
406.59
 30
0.0
 11
137.3199999999999
 21
407.5899999999999
 31
0.0
  0
LINE
  5
3DA
330
2
100
AcDbEntity
  8
画層1
  6
DASHED2
 62
     0
100
AcDbLine
 10
303.72
 20
406.09
 30
0.0
 11
303.72
 21
89.09
 31
0.0
  0
LINE
  5
3DB
330
2
100
AcDbEntity
  8
画層1
 62
     0
100
AcDbLine
 10
305.3199999999999
 20
406.09
 30
0.0
 11
305.3199999999999
 21
89.09
 31
0.0
  0
LINE
  5
3DC
330
2
100
AcDbEntity
  8
画層1
  6
CENTER
 62
     0
100
AcDbLine
 10
300.12
 20
97.59
 30
0.0
 11
309.3199999999999
 21
97.59
 31
0.0
  0
LINE
  5
3DD
330
2
100
AcDbEntity
  8
画層1
  6
CENTER
 62
     0
100
AcDbLine
 10
300.12
 20
397.5899999999999
 30
0.0
 11
309.3199999999999
 21
397.5899999999999
 31
0.0
  0
ENDSEC
  0
SECTION
  2
OBJECTS
  0
DICTIONARY
  5
9
330
0
100
AcDbDictionary
281
     1
  3
ACAD_GROUP
350
2A
  3
ACAD_LAYOUT
350
D
  3
ACAD_MLINESTYLE
350
2B
  3
ACAD_PLOTSETTINGS
350
2C
  3
ACAD_PLOTSTYLENAME
350
8
  3
DWGPROPS
350
476
  0
DICTIONARY
  5
3
330
2
100
AcDbDictionary
280
     1
281
     1
  3
ACAD_LAYOUTSELFREF
360
3FF
  0
DICTIONARY
  5
F
330
E
100
AcDbDictionary
280
     1
281
     1
  3
ACAD_LAYOUTSELFREF
360
400
  0
DICTIONARY
  5
2A
102
{ACAD_REACTORS
330
9
102
}
330
9
100
AcDbDictionary
281
     1
  0
DICTIONARY
  5
D
102
{ACAD_REACTORS
330
9
102
}
330
9
100
AcDbDictionary
281
     1
  3
Model
350
403
  3
ﾚｲｱｳﾄ1
350
404
  0
DICTIONARY
  5
2B
102
{ACAD_REACTORS
330
9
102
}
330
9
100
AcDbDictionary
281
     1
  3
STANDARD
350
35
  0
DICTIONARY
  5
2C
102
{ACAD_REACTORS
330
9
102
}
330
9
100
AcDbDictionary
281
     1
  0
ACDBDICTIONARYWDFLT
  5
8
102
{ACAD_REACTORS
330
9
102
}
330
9
100
AcDbDictionary
281
     1
  3
Normal
350
7
100
AcDbDictionaryWithDefault
340
7
  0
XRECORD
  5
476
102
{ACAD_REACTORS
330
9
102
}
330
9
100
AcDbXrecord
280
     1
  1
DWGPROPS COOKIE
  2

  3

  4

  6

  7

  8

  9

300
=
301
=
302
=
303
=
304
=
305
=
306
=
307
=
308
=
309
=
 40
4.225813425925926
 41
2450995.462150231
 42
2451964.744618634
  1

 90
        0
  0
XRECORD
  5
3FF
102
{ACAD_REACTORS
330
3
102
}
330
3
100
AcDbXrecord
280
     1
340
2
  0
XRECORD
  5
400
102
{ACAD_REACTORS
330
F
102
}
330
F
100
AcDbXrecord
280
     1
340
E
  0
LAYOUT
  5
403
102
{ACAD_REACTORS
330
D
102
}
330
D
100
AcDbPlotSettings
  1

  2
EPSON MJ-6000C
  4

  6

 40
0.0
 41
0.0
 42
0.0
 43
0.0
 44
0.0
 45
0.0
 46
0.0
 47
0.0
 48
0.0
 49
0.0
140
0.0
141
0.0
142
1.0
143
1.0
 70
  1712
 72
     0
 73
     0
 74
     0
  7

 75
     0
147
1.0
148
0.0
149
0.0
100
AcDbLayout
  1
Model
 70
     1
 71
     0
 10
0.0
 20
0.0
 11
12.0
 21
9.0
 12
0.0
 22
0.0
 32
0.0
 14
0.0
 24
0.0
 34
0.0
 15
0.0
 25
0.0
 35
0.0
146
0.0
 13
0.0
 23
0.0
 33
0.0
 16
1.0
 26
0.0
 36
0.0
 17
0.0
 27
1.0
 37
0.0
 76
     0
330
2
  0
LAYOUT
  5
404
102
{ACAD_REACTORS
330
D
102
}
330
D
100
AcDbPlotSettings
  1

  2
EPSON MJ-6000C
  4

  6

 40
0.0
 41
0.0
 42
0.0
 43
0.0
 44
0.0
 45
0.0
 46
0.0
 47
0.0
 48
0.0
 49
0.0
140
0.0
141
0.0
142
1.0
143
1.0
 70
   688
 72
     0
 73
     0
 74
     5
  7

 75
    16
147
1.0
148
0.0
149
0.0
100
AcDbLayout
  1
ﾚｲｱｳﾄ1
 70
     1
 71
     1
 10
-3.759999999999999
 20
-3.759999999999999
 11
293.2799999999999
 21
206.2899999999999
 12
0.0
 22
0.0
 32
0.0
 14
27.84
 24
20.24999999999999
 34
0.0
 15
250.5999999999999
 25
182.21
 35
0.0
146
0.0
 13
0.0
 23
0.0
 33
0.0
 16
1.0
 26
0.0
 36
0.0
 17
0.0
 27
1.0
 37
0.0
 76
     0
330
E
  0
MLINESTYLE
  5
35
102
{ACAD_REACTORS
330
2B
102
}
330
2B
100
AcDbMlineStyle
  2
STANDARD
 70
     0
  3

 62
   256
 51
90.0
 52
90.0
 71
     2
 49
0.5
 62
   256
  6
BYLAYER
 49
-0.5
 62
   256
  6
BYLAYER
  0
ACDBPLACEHOLDER
  5
7
102
{ACAD_REACTORS
330
8
102
}
330
8
  0
ENDSEC
  0
EOF
