  0
SECTION
  2
HEADER
  9
$ACADVER
  1
AC1015
  9
$ACADMAINTVER
 70
     6
  9
$DWGCODEPAGE
  3
ANSI_932
  9
$INSBASE
 10
0.0
 20
0.0
 30
0.0
  9
$EXTMIN
 10
21.49999999999999
 20
2.5
 30
0.0
  9
$EXTMAX
 10
737.5
 20
535.6718781725887
 30
0.0
  9
$LIMMIN
 10
0.0
 20
0.0
  9
$LIMMAX
 10
420.0
 20
297.0
  9
$ORTHOMODE
 70
     0
  9
$REGENMODE
 70
     1
  9
$FILLMODE
 70
     1
  9
$QTEXTMODE
 70
     0
  9
$MIRRTEXT
 70
     1
  9
$LTSCALE
 40
0.2
  9
$ATTMODE
 70
     1
  9
$TEXTSIZE
 40
2.5
  9
$TRACEWID
 40
1.0
  9
$TEXTSTYLE
  7
STYLE1
  9
$CLAYER
  8
画層1
  9
$CELTYPE
  6
BYLAYER
  9
$CECOLOR
 62
     1
  9
$CELTSCALE
 40
1.0
  9
$DISPSILH
 70
     0
  9
$DIMSCALE
 40
1.0
  9
$DIMASZ
 40
1.5
  9
$DIMEXO
 40
0.63
  9
$DIMDLI
 40
3.75
  9
$DIMRND
 40
0.0
  9
$DIMDLE
 40
0.0
  9
$DIMEXE
 40
1.25
  9
$DIMTP
 40
0.6
  9
$DIMTM
 40
0.0
  9
$DIMTXT
 40
2.5
  9
$DIMCEN
 40
2.5
  9
$DIMTSZ
 40
0.0
  9
$DIMTOL
 70
     0
  9
$DIMLIM
 70
     0
  9
$DIMTIH
 70
     0
  9
$DIMTOH
 70
     0
  9
$DIMSE1
 70
     0
  9
$DIMSE2
 70
     0
  9
$DIMTAD
 70
     1
  9
$DIMZIN
 70
     8
  9
$DIMBLK
  1
OPEN30
  9
$DIMASO
 70
     1
  9
$DIMSHO
 70
     1
  9
$DIMPOST
  1

  9
$DIMAPOST
  1

  9
$DIMALT
 70
     0
  9
$DIMALTD
 70
     4
  9
$DIMALTF
 40
0.04
  9
$DIMLFAC
 40
2.0
  9
$DIMTOFL
 70
     1
  9
$DIMTVP
 40
0.0
  9
$DIMTIX
 70
     0
  9
$DIMSOXD
 70
     0
  9
$DIMSAH
 70
     0
  9
$DIMBLK1
  1
OPEN30
  9
$DIMBLK2
  1
OPEN
  9
$DIMSTYLE
  2
STANDARD_WS
  9
$DIMCLRD
 70
     0
  9
$DIMCLRE
 70
     0
  9
$DIMCLRT
 70
     0
  9
$DIMTFAC
 40
0.5
  9
$DIMGAP
 40
0.63
  9
$DIMJUST
 70
     0
  9
$DIMSD1
 70
     0
  9
$DIMSD2
 70
     0
  9
$DIMTOLJ
 70
     1
  9
$DIMTZIN
 70
     8
  9
$DIMALTZ
 70
     0
  9
$DIMALTTZ
 70
     0
  9
$DIMUPT
 70
     0
  9
$DIMDEC
 70
     4
  9
$DIMTDEC
 70
     4
  9
$DIMALTU
 70
     8
  9
$DIMALTTD
 70
     4
  9
$DIMTXSTY
  7
STYLE1
  9
$DIMAUNIT
 70
     0
  9
$DIMADEC
 70
     0
  9
$DIMALTRND
 40
0.0
  9
$DIMAZIN
 70
     0
  9
$DIMDSEP
 70
    46
  9
$DIMATFIT
 70
     3
  9
$DIMFRAC
 70
     0
  9
$DIMLDRBLK
  1
OPEN30
  9
$DIMLUNIT
 70
     2
  9
$DIMLWD
 70
    -2
  9
$DIMLWE
 70
    -2
  9
$DIMTMOVE
 70
     0
  9
$LUNITS
 70
     2
  9
$LUPREC
 70
     4
  9
$SKETCHINC
 40
1.0
  9
$FILLETRAD
 40
2.5
  9
$AUNITS
 70
     0
  9
$AUPREC
 70
     0
  9
$MENU
  1
acad
  9
$ELEVATION
 40
0.0
  9
$PELEVATION
 40
0.0
  9
$THICKNESS
 40
0.0
  9
$LIMCHECK
 70
     0
  9
$CHAMFERA
 40
10.0
  9
$CHAMFERB
 40
10.0
  9
$CHAMFERC
 40
20.0
  9
$CHAMFERD
 40
0.0
  9
$SKPOLY
 70
     0
  9
$TDCREATE
 40
2450995.462150231
  9
$TDUCREATE
 40
2450995.087150231
  9
$TDUPDATE
 40
2451964.722699305
  9
$TDUUPDATE
 40
2451964.347699305
  9
$TDINDWG
 40
4.8958122685
  9
$TDUSRTIMER
 40
4.8958122685
  9
$USRTIMER
 70
     1
  9
$ANGBASE
 50
0.0
  9
$ANGDIR
 70
     0
  9
$PDMODE
 70
     0
  9
$PDSIZE
 40
0.0
  9
$PLINEWID
 40
10.0
  9
$SPLFRAME
 70
     0
  9
$SPLINETYPE
 70
     6
  9
$SPLINESEGS
 70
     8
  9
$HANDSEED
  5
4A8
  9
$SURFTAB1
 70
     6
  9
$SURFTAB2
 70
     6
  9
$SURFTYPE
 70
     6
  9
$SURFU
 70
     6
  9
$SURFV
 70
     6
  9
$UCSBASE
  2

  9
$UCSNAME
  2

  9
$UCSORG
 10
0.0
 20
0.0
 30
0.0
  9
$UCSXDIR
 10
1.0
 20
0.0
 30
0.0
  9
$UCSYDIR
 10
0.0
 20
1.0
 30
0.0
  9
$UCSORTHOREF
  2

  9
$UCSORTHOVIEW
 70
     0
  9
$UCSORGTOP
 10
0.0
 20
0.0
 30
0.0
  9
$UCSORGBOTTOM
 10
0.0
 20
0.0
 30
0.0
  9
$UCSORGLEFT
 10
0.0
 20
0.0
 30
0.0
  9
$UCSORGRIGHT
 10
0.0
 20
0.0
 30
0.0
  9
$UCSORGFRONT
 10
0.0
 20
0.0
 30
0.0
  9
$UCSORGBACK
 10
0.0
 20
0.0
 30
0.0
  9
$PUCSBASE
  2

  9
$PUCSNAME
  2

  9
$PUCSORG
 10
0.0
 20
0.0
 30
0.0
  9
$PUCSXDIR
 10
1.0
 20
0.0
 30
0.0
  9
$PUCSYDIR
 10
0.0
 20
1.0
 30
0.0
  9
$PUCSORTHOREF
  2

  9
$PUCSORTHOVIEW
 70
     0
  9
$PUCSORGTOP
 10
0.0
 20
0.0
 30
0.0
  9
$PUCSORGBOTTOM
 10
0.0
 20
0.0
 30
0.0
  9
$PUCSORGLEFT
 10
0.0
 20
0.0
 30
0.0
  9
$PUCSORGRIGHT
 10
0.0
 20
0.0
 30
0.0
  9
$PUCSORGFRONT
 10
0.0
 20
0.0
 30
0.0
  9
$PUCSORGBACK
 10
0.0
 20
0.0
 30
0.0
  9
$USERI1
 70
     0
  9
$USERI2
 70
     0
  9
$USERI3
 70
     0
  9
$USERI4
 70
     0
  9
$USERI5
 70
     0
  9
$USERR1
 40
0.0
  9
$USERR2
 40
0.0
  9
$USERR3
 40
0.0
  9
$USERR4
 40
0.0
  9
$USERR5
 40
0.0
  9
$WORLDVIEW
 70
     1
  9
$SHADEDGE
 70
     3
  9
$SHADEDIF
 70
    70
  9
$TILEMODE
 70
     1
  9
$MAXACTVP
 70
    48
  9
$PINSBASE
 10
0.0
 20
0.0
 30
0.0
  9
$PLIMCHECK
 70
     0
  9
$PEXTMIN
 10
1.000000000000000E+20
 20
1.000000000000000E+20
 30
1.000000000000000E+20
  9
$PEXTMAX
 10
-1.000000000000000E+20
 20
-1.000000000000000E+20
 30
-1.000000000000000E+20
  9
$PLIMMIN
 10
0.0
 20
0.0
  9
$PLIMMAX
 10
420.0
 20
297.0
  9
$UNITMODE
 70
     0
  9
$VISRETAIN
 70
     1
  9
$PLINEGEN
 70
     0
  9
$PSLTSCALE
 70
     1
  9
$TREEDEPTH
 70
  3020
  9
$CMLSTYLE
  2
STANDARD
  9
$CMLJUST
 70
     0
  9
$CMLSCALE
 40
20.0
  9
$PROXYGRAPHICS
 70
     1
  9
$MEASUREMENT
 70
     1
  9
$CELWEIGHT
370
    -1
  9
$ENDCAPS
280
     0
  9
$JOINSTYLE
280
     0
  9
$LWDISPLAY
290
     0
  9
$INSUNITS
 70
     0
  9
$HYPERLINKBASE
  1

  9
$STYLESHEET
  1

  9
$XEDIT
290
     1
  9
$CEPSNTYPE
380
     0
  9
$PSTYLEMODE
290
     1
  9
$FINGERPRINTGUID
  2
{12426522-B208-11D3-A790-004026173390}
  9
$VERSIONGUID
  2
{45B34151-09AF-11D5-8D55-0060949B1DAC}
  9
$EXTNAMES
290
     1
  9
$PSVPSCALE
 40
0.0
  9
$OLESTARTUP
290
     0
  0
ENDSEC
  0
SECTION
  2
CLASSES
  0
CLASS
  1
DICTIONARYVAR
  2
AcDbDictionaryVar
  3
AutoCAD 2000
 90
    32768
280
     0
281
     0
  0
CLASS
  1
LWPOLYLINE
  2
AcDbPolyline
  3
AutoCAD 2000
 90
    32768
280
     0
281
     1
  0
CLASS
  1
OLE2FRAME
  2
AcDbOle2Frame
  3
AutoCAD 2000
 90
    32768
280
     0
281
     1
  0
CLASS
  1
HATCH
  2
AcDbHatch
  3
AutoCAD 2000
 90
    32768
280
     0
281
     1
  0
CLASS
  1
ACDBDICTIONARYWDFLT
  2
AcDbDictionaryWithDefault
  3
AutoCAD 2000
 90
        0
280
     0
281
     0
  0
CLASS
  1
ACDBPLACEHOLDER
  2
AcDbPlaceHolder
  3
AutoCAD 2000
 90
        0
280
     0
281
     0
  0
CLASS
  1
LAYOUT
  2
AcDbLayout
  3
AutoCAD 2000
 90
        0
280
     0
281
     0
  0
CLASS
  1
LONG_TRANSACTION
  2
AcDbLongTransaction
  3
AutoCAD 2000
 90
    32768
280
     0
281
     0
  0
CLASS
  1
LWPOLYLINE
  2
AcDbPolyline
  3
AutoCAD 2000
 90
    32768
280
     0
281
     1
  0
CLASS
  1
HATCH
  2
AcDbHatch
  3
AutoCAD 2000
 90
    32768
280
     0
281
     1
  0
CLASS
  1
XRECORD
  2
AcDbXrecord
  3
AutoCAD 2000
 90
    32768
280
     0
281
     0
  0
CLASS
  1
LONG_TRANSACTION
  2
AcDbLongTransaction
  3
AutoCAD 2000
 90
    32768
280
     0
281
     0
  0
CLASS
  1
LWPOLYLINE
  2
AcDbPolyline
  3
AutoCAD 2000
 90
    32768
280
     0
281
     1
  0
CLASS
  1
HATCH
  2
AcDbHatch
  3
AutoCAD 2000
 90
    32768
280
     0
281
     1
  0
CLASS
  1
XRECORD
  2
AcDbXrecord
  3
AutoCAD 2000
 90
    32768
280
     0
281
     0
  0
ENDSEC
  0
SECTION
  2
TABLES
  0
TABLE
  2
VPORT
  5
1E
330
0
100
AcDbSymbolTable
 70
     3
  0
VPORT
  5
4A7
330
1E
100
AcDbSymbolTableRecord
100
AcDbViewportTableRecord
  2
*Active
 70
     0
 10
0.0
 20
0.0
 11
1.0
 21
1.0
 12
327.2700301083049
 22
509.1812609477536
 13
0.0
 23
0.0
 14
1.0
 24
1.0
 15
2.0
 25
2.0
 16
0.0
 26
0.0
 36
1.0
 17
0.0
 27
0.0
 37
0.0
 40
311.3047905750263
 41
1.840236686390532
 42
50.0
 43
0.0
 44
0.0
 50
0.0
 51
0.0
 71
     0
 72
   100
 73
     1
 74
     1
 75
     0
 76
     0
 77
     0
 78
     0
281
     0
 65
     1
110
0.0
120
0.0
130
0.0
111
1.0
121
0.0
131
0.0
112
0.0
122
1.0
132
0.0
 79
     0
146
0.0
  0
ENDTAB
  0
TABLE
  2
LTYPE
  5
19
330
0
100
AcDbSymbolTable
 70
     4
  0
LTYPE
  5
1A
330
19
100
AcDbSymbolTableRecord
100
AcDbLinetypeTableRecord
  2
BYBLOCK
 70
     0
  3

 72
    65
 73
     0
 40
0.0
  0
LTYPE
  5
1B
330
19
100
AcDbSymbolTableRecord
100
AcDbLinetypeTableRecord
  2
BYLAYER
 70
     0
  3

 72
    65
 73
     0
 40
0.0
  0
LTYPE
  5
A
330
19
100
AcDbSymbolTableRecord
100
AcDbLinetypeTableRecord
  2
CONTINUOUS
 70
     0
  3
Solid line
 72
    65
 73
     0
 40
0.0
  0
LTYPE
  5
60
330
19
100
AcDbSymbolTableRecord
100
AcDbLinetypeTableRecord
  2
DASHED2
 70
     0
  3
Dashed (.5x) _ _ _ _ _ _ _ _ _ _ _ _ _ _ _ _ _
 72
    65
 73
     2
 40
9.519999999999999
 49
6.349999999999999
 74
     0
 49
-3.18
 74
     0
  0
LTYPE
  5
6B
330
19
100
AcDbSymbolTableRecord
100
AcDbLinetypeTableRecord
  2
CENTER
 70
     0
  3
Center ____ _ ____ _ ____ _ ____ _ ____ _ ____
 72
    65
 73
     4
 40
50.8
 49
31.75
 74
     0
 49
-6.349999999999999
 74
     0
 49
6.349999999999999
 74
     0
 49
-6.349999999999999
 74
     0
  0
LTYPE
  5
64
330
19
100
AcDbSymbolTableRecord
100
AcDbLinetypeTableRecord
  2
DIVIDE
 70
     0
  3
Divide ____ . . ____ . . ____ . . ____ . . ____
 72
    65
 73
     6
 40
31.75
 49
12.7
 74
     0
 49
-6.349999999999999
 74
     0
 49
0.0
 74
     0
 49
-6.349999999999999
 74
     0
 49
0.0
 74
     0
 49
-6.349999999999999
 74
     0
  0
ENDTAB
  0
TABLE
  2
LAYER
  5
14
330
0
100
AcDbSymbolTable
 70
     3
  0
LAYER
  5
6
330
14
100
AcDbSymbolTableRecord
100
AcDbLayerTableRecord
  2
0
 70
     0
 62
     7
  6
CONTINUOUS
370
    -3
390
7
  0
LAYER
  5
3F
330
14
100
AcDbSymbolTableRecord
100
AcDbLayerTableRecord
  2
DEFPOINTS
 70
     0
 62
     7
  6
CONTINUOUS
290
     0
370
    -3
390
7
  0
LAYER
  5
26
330
14
100
AcDbSymbolTableRecord
100
AcDbLayerTableRecord
  2
画層1
 70
     0
 62
     7
  6
CONTINUOUS
370
    -3
390
7
  0
ENDTAB
  0
TABLE
  2
STYLE
  5
15
330
0
100
AcDbSymbolTable
 70
     2
  0
STYLE
  5
16
330
15
100
AcDbSymbolTableRecord
100
AcDbTextStyleTableRecord
  2
STANDARD
 70
     0
 40
2.5
 41
1.0
 50
0.0
 71
     0
 42
1.5
  3
MS PMincho.ttf
  4

1001
ACAD
1000
MS PMincho
1071
    32786
  0
STYLE
  5
27
330
15
100
AcDbSymbolTableRecord
100
AcDbTextStyleTableRecord
  2
STYLE1
 70
     0
 40
2.5
 41
1.0
 50
0.0
 71
     0
 42
2.5
  3
MS Gothic.ttf
  4

1001
ACAD
1000
MS Gothic
1071
    32817
  0
ENDTAB
  0
TABLE
  2
VIEW
  5
1C
330
0
100
AcDbSymbolTable
 70
     0
  0
ENDTAB
  0
TABLE
  2
UCS
  5
1D
330
0
100
AcDbSymbolTable
 70
     0
  0
ENDTAB
  0
TABLE
  2
APPID
  5
20
330
0
100
AcDbSymbolTable
 70
     1
  0
APPID
  5
17
330
20
100
AcDbSymbolTableRecord
100
AcDbRegAppTableRecord
  2
ACAD
 70
     0
  0
ENDTAB
  0
TABLE
  2
DIMSTYLE
  5
21
330
0
100
AcDbSymbolTable
 70
     1
100
AcDbDimStyleTable
 71
     0
  0
DIMSTYLE
105
35
102
{ACAD_REACTORS
330
51
330
44
330
378
330
35A
330
2AD
330
2A0
330
36
330
368
330
288
330
315
330
3BC
330
2FD
330
322
102
}
330
21
100
AcDbSymbolTableRecord
100
AcDbDimStyleTableRecord
  2
STANDARD_WS
 70
     0
 41
1.5
 42
0.63
 43
3.75
 44
1.25
 73
     0
 74
     0
 77
     1
 78
     8
140
2.5
141
2.5
143
0.04
147
0.63
171
     4
172
     1
173
     1
273
     8
274
     4
340
16
341
2E
343
2E
344
2E
  0
ENDTAB
  0
TABLE
  2
BLOCK_RECORD
  5
1
330
0
100
AcDbSymbolTable
 70
    28
  0
BLOCK_RECORD
  5
2
102
{ACAD_XDICTIONARY
360
3
102
}
330
1
100
AcDbSymbolTableRecord
100
AcDbBlockTableRecord
  2
*MODEL_SPACE
340
404
  0
BLOCK_RECORD
  5
E
102
{ACAD_XDICTIONARY
360
F
102
}
330
1
100
AcDbSymbolTableRecord
100
AcDbBlockTableRecord
  2
*PAPER_SPACE
340
405
  0
BLOCK_RECORD
  5
2E
330
1
100
AcDbSymbolTableRecord
100
AcDbBlockTableRecord
  2
_OPEN
340
0
  0
BLOCK_RECORD
  5
28
330
1
100
AcDbSymbolTableRecord
100
AcDbBlockTableRecord
  2
_OPEN30
340
0
102
{BLKREFS
331
2B2
331
2B3
331
49
331
4A
331
28E
331
28F
331
3B
331
3C
331
56
331
57
331
36D
331
36E
331
35F
331
360
331
37E
331
37F
331
2A5
331
2A6
331
302
331
303
331
3C1
331
3C2
331
31A
331
31B
331
327
331
328
331
3FA
331
3FB
331
40D
331
40E
331
419
331
41A
331
426
331
427
331
432
331
433
331
43E
331
43F
331
449
331
44A
331
454
331
455
331
460
331
461
331
46C
331
46D
331
478
331
479
331
484
331
485
331
490
331
491
331
49C
331
49D
102
}
  0
BLOCK_RECORD
  5
2AE
330
1
100
AcDbSymbolTableRecord
100
AcDbBlockTableRecord
  2
*D2
340
0
  0
BLOCK_RECORD
  5
45
330
1
100
AcDbSymbolTableRecord
100
AcDbBlockTableRecord
  2
*D3
340
0
  0
BLOCK_RECORD
  5
289
330
1
100
AcDbSymbolTableRecord
100
AcDbBlockTableRecord
  2
*D4
340
0
  0
BLOCK_RECORD
  5
37
330
1
100
AcDbSymbolTableRecord
100
AcDbBlockTableRecord
  2
*D5
340
0
  0
BLOCK_RECORD
  5
52
330
1
100
AcDbSymbolTableRecord
100
AcDbBlockTableRecord
  2
*D6
340
0
  0
BLOCK_RECORD
  5
369
330
1
100
AcDbSymbolTableRecord
100
AcDbBlockTableRecord
  2
*D7
340
0
  0
BLOCK_RECORD
  5
35B
330
1
100
AcDbSymbolTableRecord
100
AcDbBlockTableRecord
  2
*D8
340
0
  0
BLOCK_RECORD
  5
379
330
1
100
AcDbSymbolTableRecord
100
AcDbBlockTableRecord
  2
*D9
340
0
  0
BLOCK_RECORD
  5
2A1
330
1
100
AcDbSymbolTableRecord
100
AcDbBlockTableRecord
  2
*D10
340
0
  0
BLOCK_RECORD
  5
2FE
330
1
100
AcDbSymbolTableRecord
100
AcDbBlockTableRecord
  2
*D11
340
0
  0
BLOCK_RECORD
  5
3BD
330
1
100
AcDbSymbolTableRecord
100
AcDbBlockTableRecord
  2
*D12
340
0
  0
BLOCK_RECORD
  5
316
330
1
100
AcDbSymbolTableRecord
100
AcDbBlockTableRecord
  2
*D13
340
0
  0
BLOCK_RECORD
  5
323
330
1
100
AcDbSymbolTableRecord
100
AcDbBlockTableRecord
  2
*D14
340
0
  0
BLOCK_RECORD
  5
3F6
330
1
100
AcDbSymbolTableRecord
100
AcDbBlockTableRecord
  2
*D15
340
0
  0
BLOCK_RECORD
  5
409
330
1
100
AcDbSymbolTableRecord
100
AcDbBlockTableRecord
  2
*D16
340
0
  0
BLOCK_RECORD
  5
415
330
1
100
AcDbSymbolTableRecord
100
AcDbBlockTableRecord
  2
*D17
340
0
  0
BLOCK_RECORD
  5
421
330
1
100
AcDbSymbolTableRecord
100
AcDbBlockTableRecord
  2
*D18
340
0
  0
BLOCK_RECORD
  5
42E
330
1
100
AcDbSymbolTableRecord
100
AcDbBlockTableRecord
  2
*D19
340
0
  0
BLOCK_RECORD
  5
43A
330
1
100
AcDbSymbolTableRecord
100
AcDbBlockTableRecord
  2
*D20
340
0
  0
BLOCK_RECORD
  5
44F
330
1
100
AcDbSymbolTableRecord
100
AcDbBlockTableRecord
  2
*D21
340
0
  0
BLOCK_RECORD
  5
45C
330
1
100
AcDbSymbolTableRecord
100
AcDbBlockTableRecord
  2
*D22
340
0
  0
BLOCK_RECORD
  5
468
330
1
100
AcDbSymbolTableRecord
100
AcDbBlockTableRecord
  2
*D23
340
0
  0
BLOCK_RECORD
  5
474
330
1
100
AcDbSymbolTableRecord
100
AcDbBlockTableRecord
  2
*D24
340
0
  0
BLOCK_RECORD
  5
480
330
1
100
AcDbSymbolTableRecord
100
AcDbBlockTableRecord
  2
*D25
340
0
  0
BLOCK_RECORD
  5
48C
330
1
100
AcDbSymbolTableRecord
100
AcDbBlockTableRecord
  2
*D26
340
0
  0
BLOCK_RECORD
  5
498
330
1
100
AcDbSymbolTableRecord
100
AcDbBlockTableRecord
  2
*D27
340
0
  0
ENDTAB
  0
ENDSEC
  0
SECTION
  2
BLOCKS
  0
BLOCK
  5
5
330
2
100
AcDbEntity
  8
0
100
AcDbBlockBegin
  2
*MODEL_SPACE
 70
     0
 10
0.0
 20
0.0
 30
0.0
  3
*MODEL_SPACE
  1

  0
ENDBLK
  5
B
330
2
100
AcDbEntity
  8
0
100
AcDbBlockEnd
  0
BLOCK
  5
11
330
E
100
AcDbEntity
 67
     1
  8
0
100
AcDbBlockBegin
  2
*PAPER_SPACE
 70
     0
 10
0.0
 20
0.0
 30
0.0
  3
*PAPER_SPACE
  1

  0
ENDBLK
  5
12
330
E
100
AcDbEntity
 67
     1
  8
0
100
AcDbBlockEnd
  0
BLOCK
  5
32
330
2E
100
AcDbEntity
  8
0
100
AcDbBlockBegin
  2
_OPEN
 70
     0
 10
0.0
 20
0.0
 30
0.0
  3
_OPEN
  1

  0
LINE
  5
2F
330
2E
100
AcDbEntity
  8
0
  6
ByBlock
 62
     0
100
AcDbLine
 10
-1.0
 20
0.17
 30
0.0
 11
0.0
 21
0.0
 31
0.0
  0
LINE
  5
30
330
2E
100
AcDbEntity
  8
0
  6
ByBlock
 62
     0
100
AcDbLine
 10
0.0
 20
0.0
 30
0.0
 11
-1.0
 21
-0.17
 31
0.0
  0
LINE
  5
31
330
2E
100
AcDbEntity
  8
0
  6
ByBlock
 62
     0
100
AcDbLine
 10
0.0
 20
0.0
 30
0.0
 11
-1.0
 21
0.0
 31
0.0
  0
ENDBLK
  5
33
330
2E
100
AcDbEntity
  8
0
100
AcDbBlockEnd
  0
BLOCK
  5
2C
330
28
100
AcDbEntity
  8
0
100
AcDbBlockBegin
  2
_OPEN30
 70
     0
 10
0.0
 20
0.0
 30
0.0
  3
_OPEN30
  1

  0
LINE
  5
29
330
28
100
AcDbEntity
  8
0
  6
ByBlock
 62
     0
100
AcDbLine
 10
-1.0
 20
0.27
 30
0.0
 11
0.0
 21
0.0
 31
0.0
  0
LINE
  5
2A
330
28
100
AcDbEntity
  8
0
  6
ByBlock
 62
     0
100
AcDbLine
 10
0.0
 20
0.0
 30
0.0
 11
-1.0
 21
-0.27
 31
0.0
  0
LINE
  5
2B
330
28
100
AcDbEntity
  8
0
  6
ByBlock
 62
     0
100
AcDbLine
 10
0.0
 20
0.0
 30
0.0
 11
-1.0
 21
0.0
 31
0.0
  0
ENDBLK
  5
2D
330
28
100
AcDbEntity
  8
0
100
AcDbBlockEnd
  0
BLOCK
  5
2B8
330
2AE
100
AcDbEntity
  8
0
 62
     1
100
AcDbBlockBegin
  2
*D2
 70
     1
 10
0.0
 20
0.0
 30
0.0
  3
*D2
  1

  0
LINE
  5
2AF
330
2AE
100
AcDbEntity
  8
画層1
 62
     0
100
AcDbLine
 10
330.63
 20
472.25
 30
0.0
 11
411.7499999999999
 21
472.25
 31
0.0
  0
LINE
  5
2B0
330
2AE
100
AcDbEntity
  8
画層1
 62
     0
100
AcDbLine
 10
326.63
 20
27.25
 30
0.0
 11
411.7499999999999
 21
27.25
 31
0.0
  0
LINE
  5
2B1
330
2AE
100
AcDbEntity
  8
画層1
 62
     0
100
AcDbLine
 10
410.5
 20
470.75
 30
0.0
 11
410.5
 21
28.75
 31
0.0
  0
INSERT
  5
2B2
330
2AE
100
AcDbEntity
  8
画層1
 62
     0
100
AcDbBlockReference
  2
_OPEN30
 10
410.5
 20
472.25
 30
0.0
 41
1.5
 42
1.5
 43
1.5
 50
90.0
  0
INSERT
  5
2B3
330
2AE
100
AcDbEntity
  8
画層1
 62
     0
100
AcDbBlockReference
  2
_OPEN30
 10
410.5
 20
27.25
 30
0.0
 41
1.5
 42
1.5
 43
1.5
 50
270.0
  0
MTEXT
  5
2B4
330
2AE
100
AcDbEntity
  8
画層1
 62
     0
100
AcDbMText
 10
408.6199999999999
 20
249.75
 30
0.0
 40
2.5
 41
0.0
 71
     5
 72
     1
  1
\A1;445
  7
STYLE1
 11
0.0
 21
1.0
 31
0.0
 73
     1
 44
1.0
1001
ACAD
1000
MTEXTBEGIN
1070
    73
1070
     1
1070
    44
1040
1.0
1070
    74
1070
     0
1000
MTEXTEND
  0
POINT
  5
2B5
330
2AE
100
AcDbEntity
  8
DEFPOINTS
 62
     0
100
AcDbPoint
 10
330.0
 20
472.25
 30
0.0
  0
POINT
  5
2B6
330
2AE
100
AcDbEntity
  8
DEFPOINTS
 62
     0
100
AcDbPoint
 10
326.0
 20
27.25
 30
0.0
  0
POINT
  5
2B7
330
2AE
100
AcDbEntity
  8
DEFPOINTS
 62
     0
100
AcDbPoint
 10
410.5
 20
27.25
 30
0.0
  0
ENDBLK
  5
2B9
330
2AE
100
AcDbEntity
  8
0
 62
     1
100
AcDbBlockEnd
  0
BLOCK
  5
4F
330
45
100
AcDbEntity
  8
0
 62
     1
100
AcDbBlockBegin
  2
*D3
 70
     1
 10
0.0
 20
0.0
 30
0.0
  3
*D3
  1

  0
LINE
  5
46
330
45
100
AcDbEntity
  8
画層1
 62
     0
100
AcDbLine
 10
25.5
 20
485.88
 30
0.0
 11
25.5
 21
533.4999999999999
 31
0.0
  0
LINE
  5
47
330
45
100
AcDbEntity
  8
画層1
 62
     0
100
AcDbLine
 10
395.5
 20
485.88
 30
0.0
 11
395.5
 21
533.4999999999999
 31
0.0
  0
LINE
  5
48
330
45
100
AcDbEntity
  8
画層1
 62
     0
100
AcDbLine
 10
27.0
 20
532.2499999999999
 30
0.0
 11
394.0
 21
532.2499999999999
 31
0.0
  0
INSERT
  5
49
330
45
100
AcDbEntity
  8
画層1
 62
     0
100
AcDbBlockReference
  2
_OPEN30
 10
25.5
 20
532.2499999999999
 30
0.0
 41
1.5
 42
1.5
 43
1.5
 50
180.0
  0
INSERT
  5
4A
330
45
100
AcDbEntity
  8
画層1
 62
     0
100
AcDbBlockReference
  2
_OPEN30
 10
395.5
 20
532.2499999999999
 30
0.0
 41
1.5
 42
1.5
 43
1.5
  0
MTEXT
  5
4B
330
45
100
AcDbEntity
  8
画層1
 62
     0
100
AcDbMText
 10
210.4999999999999
 20
534.13
 30
0.0
 40
2.5
 41
0.0
 71
     5
 72
     1
  1
\A1;370
  7
STYLE1
 73
     1
 44
1.0
1001
ACAD
1000
MTEXTBEGIN
1070
    73
1070
     1
1070
    44
1040
1.0
1070
    74
1070
     0
1000
MTEXTEND
  0
POINT
  5
4C
330
45
100
AcDbEntity
  8
DEFPOINTS
 62
     0
100
AcDbPoint
 10
25.5
 20
485.25
 30
0.0
  0
POINT
  5
4D
330
45
100
AcDbEntity
  8
DEFPOINTS
 62
     0
100
AcDbPoint
 10
395.5
 20
485.25
 30
0.0
  0
POINT
  5
4E
330
45
100
AcDbEntity
  8
DEFPOINTS
 62
     0
100
AcDbPoint
 10
395.5
 20
532.2499999999999
 30
0.0
  0
ENDBLK
  5
50
330
45
100
AcDbEntity
  8
0
 62
     1
100
AcDbBlockEnd
  0
BLOCK
  5
294
330
289
100
AcDbEntity
  8
0
 62
     1
100
AcDbBlockBegin
  2
*D4
 70
     1
 10
0.0
 20
0.0
 30
0.0
  3
*D4
  1

  0
LINE
  5
28A
330
289
100
AcDbEntity
  8
画層1
 62
     0
100
AcDbLine
 10
86.12999999999999
 20
485.25
 30
0.0
 11
143.75
 21
485.25
 31
0.0
  0
LINE
  5
28B
330
289
100
AcDbEntity
  8
画層1
 62
     0
100
AcDbLine
 10
101.6299999999999
 20
470.2499999999999
 30
0.0
 11
143.75
 21
470.2499999999999
 31
0.0
  0
LINE
  5
28C
330
289
100
AcDbEntity
  8
画層1
 62
     0
100
AcDbLine
 10
142.5
 20
471.75
 30
0.0
 11
142.5
 21
483.75
 31
0.0
  0
LINE
  5
28D
330
289
100
AcDbEntity
  8
画層1
 62
     0
100
AcDbLine
 10
142.5
 20
485.25
 30
0.0
 11
142.5
 21
494.7099999999999
 31
0.0
  0
INSERT
  5
28E
330
289
100
AcDbEntity
  8
画層1
 62
     0
100
AcDbBlockReference
  2
_OPEN30
 10
142.5
 20
470.2499999999999
 30
0.0
 41
1.5
 42
1.5
 43
1.5
 50
270.0
  0
INSERT
  5
28F
330
289
100
AcDbEntity
  8
画層1
 62
     0
100
AcDbBlockReference
  2
_OPEN30
 10
142.5
 20
485.25
 30
0.0
 41
1.5
 42
1.5
 43
1.5
 50
90.0
  0
MTEXT
  5
290
330
289
100
AcDbEntity
  8
画層1
 62
     0
100
AcDbMText
 10
140.62
 20
492.55
 30
0.0
 40
2.5
 41
0.0
 71
     5
 72
     1
  1
\A1;15
  7
STYLE1
 11
0.0
 21
1.0
 31
0.0
 73
     1
 44
1.0
1001
ACAD
1000
MTEXTBEGIN
1070
    73
1070
     1
1070
    44
1040
1.0
1070
    74
1070
     0
1000
MTEXTEND
  0
POINT
  5
291
330
289
100
AcDbEntity
  8
DEFPOINTS
 62
     0
100
AcDbPoint
 10
85.5
 20
485.25
 30
0.0
  0
POINT
  5
292
330
289
100
AcDbEntity
  8
DEFPOINTS
 62
     0
100
AcDbPoint
 10
101.0
 20
470.2499999999999
 30
0.0
  0
POINT
  5
293
330
289
100
AcDbEntity
  8
DEFPOINTS
 62
     0
100
AcDbPoint
 10
142.5
 20
470.2499999999999
 30
0.0
  0
ENDBLK
  5
295
330
289
100
AcDbEntity
  8
0
 62
     1
100
AcDbBlockEnd
  0
BLOCK
  5
42
330
37
100
AcDbEntity
  8
0
 62
     1
100
AcDbBlockBegin
  2
*D5
 70
     1
 10
0.0
 20
0.0
 30
0.0
  3
*D5
  1

  0
LINE
  5
38
330
37
100
AcDbEntity
  8
画層1
 62
     0
100
AcDbLine
 10
110.4999999999999
 20
479.1199999999999
 30
0.0
 11
110.4999999999999
 21
418.0
 31
0.0
  0
LINE
  5
39
330
37
100
AcDbEntity
  8
画層1
 62
     0
100
AcDbLine
 10
210.4999999999999
 20
475.1199999999999
 30
0.0
 11
210.4999999999999
 21
418.0
 31
0.0
  0
LINE
  5
3A
330
37
100
AcDbEntity
  8
画層1
 62
     0
100
AcDbLine
 10
112.0
 20
419.2499999999999
 30
0.0
 11
209.0
 21
419.2499999999999
 31
0.0
  0
INSERT
  5
3B
330
37
100
AcDbEntity
  8
画層1
 62
     0
100
AcDbBlockReference
  2
_OPEN30
 10
110.4999999999999
 20
419.2499999999999
 30
0.0
 41
1.5
 42
1.5
 43
1.5
 50
180.0
  0
INSERT
  5
3C
330
37
100
AcDbEntity
  8
画層1
 62
     0
100
AcDbBlockReference
  2
_OPEN30
 10
210.4999999999999
 20
419.2499999999999
 30
0.0
 41
1.5
 42
1.5
 43
1.5
  0
MTEXT
  5
3D
330
37
100
AcDbEntity
  8
画層1
 62
     0
100
AcDbMText
 10
160.4999999999999
 20
421.1299999999999
 30
0.0
 40
2.5
 41
0.0
 71
     5
 72
     1
  1
\A1;100
  7
STYLE1
 73
     1
 44
1.0
1001
ACAD
1000
MTEXTBEGIN
1070
    73
1070
     1
1070
    44
1040
1.0
1070
    74
1070
     0
1000
MTEXTEND
  0
POINT
  5
3E
330
37
100
AcDbEntity
  8
DEFPOINTS
 62
     0
100
AcDbPoint
 10
110.4999999999999
 20
479.75
 30
0.0
  0
POINT
  5
40
330
37
100
AcDbEntity
  8
DEFPOINTS
 62
     0
100
AcDbPoint
 10
210.4999999999999
 20
475.75
 30
0.0
  0
POINT
  5
41
330
37
100
AcDbEntity
  8
DEFPOINTS
 62
     0
100
AcDbPoint
 10
210.4999999999999
 20
419.2499999999999
 30
0.0
  0
ENDBLK
  5
43
330
37
100
AcDbEntity
  8
0
 62
     1
100
AcDbBlockEnd
  0
BLOCK
  5
5C
330
52
100
AcDbEntity
  8
0
 62
     1
100
AcDbBlockBegin
  2
*D6
 70
     1
 10
0.0
 20
0.0
 30
0.0
  3
*D6
  1

  0
LINE
  5
53
330
52
100
AcDbEntity
  8
画層1
 62
     0
100
AcDbLine
 10
85.5
 20
438.8799999999999
 30
0.0
 11
85.5
 21
513.0
 31
0.0
  0
LINE
  5
54
330
52
100
AcDbEntity
  8
画層1
 62
     0
100
AcDbLine
 10
335.4999999999999
 20
438.8799999999999
 30
0.0
 11
335.4999999999999
 21
513.0
 31
0.0
  0
LINE
  5
55
330
52
100
AcDbEntity
  8
画層1
 62
     0
100
AcDbLine
 10
87.0
 20
511.7499999999999
 30
0.0
 11
334.0
 21
511.7499999999999
 31
0.0
  0
INSERT
  5
56
330
52
100
AcDbEntity
  8
画層1
 62
     0
100
AcDbBlockReference
  2
_OPEN30
 10
85.5
 20
511.7499999999999
 30
0.0
 41
1.5
 42
1.5
 43
1.5
 50
180.0
  0
INSERT
  5
57
330
52
100
AcDbEntity
  8
画層1
 62
     0
100
AcDbBlockReference
  2
_OPEN30
 10
335.4999999999999
 20
511.7499999999999
 30
0.0
 41
1.5
 42
1.5
 43
1.5
  0
MTEXT
  5
58
330
52
100
AcDbEntity
  8
画層1
 62
     0
100
AcDbMText
 10
210.4999999999999
 20
513.63
 30
0.0
 40
2.5
 41
0.0
 71
     5
 72
     1
  1
\A1;250
  7
STYLE1
 73
     1
 44
1.0
1001
ACAD
1000
MTEXTBEGIN
1070
    73
1070
     1
1070
    44
1040
1.0
1070
    74
1070
     0
1000
MTEXTEND
  0
POINT
  5
59
330
52
100
AcDbEntity
  8
DEFPOINTS
 62
     0
100
AcDbPoint
 10
85.5
 20
438.25
 30
0.0
  0
POINT
  5
5A
330
52
100
AcDbEntity
  8
DEFPOINTS
 62
     0
100
AcDbPoint
 10
335.4999999999999
 20
438.25
 30
0.0
  0
POINT
  5
5B
330
52
100
AcDbEntity
  8
DEFPOINTS
 62
     0
100
AcDbPoint
 10
335.4999999999999
 20
511.7499999999999
 30
0.0
  0
ENDBLK
  5
5D
330
52
100
AcDbEntity
  8
0
 62
     1
100
AcDbBlockEnd
  0
BLOCK
  5
373
330
369
100
AcDbEntity
  8
0
 62
     1
100
AcDbBlockBegin
  2
*D7
 70
     1
 10
0.0
 20
0.0
 30
0.0
  3
*D7
  1

  0
LINE
  5
36A
330
369
100
AcDbEntity
  8
画層1
 62
     0
100
AcDbLine
 10
210.4999999999999
 20
475.1199999999999
 30
0.0
 11
210.4999999999999
 21
418.0
 31
0.0
  0
LINE
  5
36B
330
369
100
AcDbEntity
  8
画層1
 62
     0
100
AcDbLine
 10
310.4999999999999
 20
479.1199999999999
 30
0.0
 11
310.4999999999999
 21
418.0
 31
0.0
  0
LINE
  5
36C
330
369
100
AcDbEntity
  8
画層1
 62
     0
100
AcDbLine
 10
212.0
 20
419.2499999999999
 30
0.0
 11
309.0
 21
419.2499999999999
 31
0.0
  0
INSERT
  5
36D
330
369
100
AcDbEntity
  8
画層1
 62
     0
100
AcDbBlockReference
  2
_OPEN30
 10
210.4999999999999
 20
419.2499999999999
 30
0.0
 41
1.5
 42
1.5
 43
1.5
 50
180.0
  0
INSERT
  5
36E
330
369
100
AcDbEntity
  8
画層1
 62
     0
100
AcDbBlockReference
  2
_OPEN30
 10
310.4999999999999
 20
419.2499999999999
 30
0.0
 41
1.5
 42
1.5
 43
1.5
  0
MTEXT
  5
36F
330
369
100
AcDbEntity
  8
画層1
 62
     0
100
AcDbMText
 10
260.4999999999999
 20
421.1299999999999
 30
0.0
 40
2.5
 41
0.0
 71
     5
 72
     1
  1
\A1;100
  7
STYLE1
 73
     1
 44
1.0
1001
ACAD
1000
MTEXTBEGIN
1070
    73
1070
     1
1070
    44
1040
1.0
1070
    74
1070
     0
1000
MTEXTEND
  0
POINT
  5
370
330
369
100
AcDbEntity
  8
DEFPOINTS
 62
     0
100
AcDbPoint
 10
210.4999999999999
 20
475.75
 30
0.0
  0
POINT
  5
371
330
369
100
AcDbEntity
  8
DEFPOINTS
 62
     0
100
AcDbPoint
 10
310.4999999999999
 20
479.75
 30
0.0
  0
POINT
  5
372
330
369
100
AcDbEntity
  8
DEFPOINTS
 62
     0
100
AcDbPoint
 10
310.4999999999999
 20
419.2499999999999
 30
0.0
  0
ENDBLK
  5
374
330
369
100
AcDbEntity
  8
0
 62
     1
100
AcDbBlockEnd
  0
BLOCK
  5
365
330
35B
100
AcDbEntity
  8
0
 62
     1
100
AcDbBlockBegin
  2
*D8
 70
     1
 10
0.0
 20
0.0
 30
0.0
  3
*D8
  1

  0
LINE
  5
35C
330
35B
100
AcDbEntity
  8
画層1
 62
     0
100
AcDbLine
 10
326.63
 20
472.25
 30
0.0
 11
361.75
 21
472.25
 31
0.0
  0
LINE
  5
35D
330
35B
100
AcDbEntity
  8
画層1
 62
     0
100
AcDbLine
 10
319.6299999999999
 20
454.75
 30
0.0
 11
361.75
 21
454.75
 31
0.0
  0
LINE
  5
35E
330
35B
100
AcDbEntity
  8
画層1
 62
     0
100
AcDbLine
 10
360.4999999999999
 20
470.75
 30
0.0
 11
360.4999999999999
 21
456.25
 31
0.0
  0
INSERT
  5
35F
330
35B
100
AcDbEntity
  8
画層1
 62
     0
100
AcDbBlockReference
  2
_OPEN30
 10
360.4999999999999
 20
472.25
 30
0.0
 41
1.5
 42
1.5
 43
1.5
 50
90.0
  0
INSERT
  5
360
330
35B
100
AcDbEntity
  8
画層1
 62
     0
100
AcDbBlockReference
  2
_OPEN30
 10
360.4999999999999
 20
454.75
 30
0.0
 41
1.5
 42
1.5
 43
1.5
 50
270.0
  0
MTEXT
  5
361
330
35B
100
AcDbEntity
  8
画層1
 62
     0
100
AcDbMText
 10
358.62
 20
463.4999999999999
 30
0.0
 40
2.5
 41
0.0
 71
     5
 72
     1
  1
\A1;17.5
  7
STYLE1
 11
0.0
 21
1.0
 31
0.0
 73
     1
 44
1.0
1001
ACAD
1000
MTEXTBEGIN
1070
    73
1070
     1
1070
    44
1040
1.0
1070
    74
1070
     0
1000
MTEXTEND
  0
POINT
  5
362
330
35B
100
AcDbEntity
  8
DEFPOINTS
 62
     0
100
AcDbPoint
 10
326.0
 20
472.25
 30
0.0
  0
POINT
  5
363
330
35B
100
AcDbEntity
  8
DEFPOINTS
 62
     0
100
AcDbPoint
 10
319.0
 20
454.75
 30
0.0
  0
POINT
  5
364
330
35B
100
AcDbEntity
  8
DEFPOINTS
 62
     0
100
AcDbPoint
 10
360.4999999999999
 20
454.75
 30
0.0
  0
ENDBLK
  5
366
330
35B
100
AcDbEntity
  8
0
 62
     1
100
AcDbBlockEnd
  0
BLOCK
  5
384
330
379
100
AcDbEntity
  8
0
 62
     1
100
AcDbBlockBegin
  2
*D9
 70
     1
 10
0.0
 20
0.0
 30
0.0
  3
*D9
  1

  0
LINE
  5
37A
330
379
100
AcDbEntity
  8
画層1
 62
     0
100
AcDbLine
 10
330.0
 20
472.8799999999999
 30
0.0
 11
330.0
 21
499.0
 31
0.0
  0
LINE
  5
37B
330
379
100
AcDbEntity
  8
画層1
 62
     0
100
AcDbLine
 10
341.0
 20
472.8799999999999
 30
0.0
 11
341.0
 21
499.0
 31
0.0
  0
LINE
  5
37C
330
379
100
AcDbEntity
  8
画層1
 62
     0
100
AcDbLine
 10
339.5
 20
497.75
 30
0.0
 11
331.4999999999999
 21
497.75
 31
0.0
  0
LINE
  5
37D
330
379
100
AcDbEntity
  8
画層1
 62
     0
100
AcDbLine
 10
330.0
 20
497.75
 30
0.0
 11
298.26
 21
497.75
 31
0.0
  0
INSERT
  5
37E
330
379
100
AcDbEntity
  8
画層1
 62
     0
100
AcDbBlockReference
  2
_OPEN30
 10
341.0
 20
497.75
 30
0.0
 41
1.5
 42
1.5
 43
1.5
  0
INSERT
  5
37F
330
379
100
AcDbEntity
  8
画層1
 62
     0
100
AcDbBlockReference
  2
_OPEN30
 10
330.0
 20
497.75
 30
0.0
 41
1.5
 42
1.5
 43
1.5
 50
180.0
  0
MTEXT
  5
380
330
379
100
AcDbEntity
  8
画層1
 62
     0
100
AcDbMText
 10
307.8399999999999
 20
499.99
 30
0.0
 40
2.5
 41
0.0
 71
     5
 72
     1
  1
\A1;2-11取付穴
  7
STYLE1
 73
     1
 44
1.0
1001
ACAD
1000
MTEXTBEGIN
1070
    73
1070
     1
1070
    44
1040
1.0
1070
    74
1070
     0
1000
MTEXTEND
  0
POINT
  5
381
330
379
100
AcDbEntity
  8
DEFPOINTS
 62
     0
100
AcDbPoint
 10
330.0
 20
472.25
 30
0.0
  0
POINT
  5
382
330
379
100
AcDbEntity
  8
DEFPOINTS
 62
     0
100
AcDbPoint
 10
341.0
 20
472.25
 30
0.0
  0
POINT
  5
383
330
379
100
AcDbEntity
  8
DEFPOINTS
 62
     0
100
AcDbPoint
 10
341.0
 20
497.75
 30
0.0
  0
ENDBLK
  5
385
330
379
100
AcDbEntity
  8
0
 62
     1
100
AcDbBlockEnd
  0
BLOCK
  5
2AB
330
2A1
100
AcDbEntity
  8
0
 62
     1
100
AcDbBlockBegin
  2
*D10
 70
     1
 10
0.0
 20
0.0
 30
0.0
  3
*D10
  1

  0
LINE
  5
2A2
330
2A1
100
AcDbEntity
  8
画層1
 62
     0
100
AcDbLine
 10
396.1299999999999
 20
485.25
 30
0.0
 11
425.75
 21
485.25
 31
0.0
  0
LINE
  5
2A3
330
2A1
100
AcDbEntity
  8
画層1
 62
     0
100
AcDbLine
 10
396.1299999999999
 20
14.25
 30
0.0
 11
425.75
 21
14.25
 31
0.0
  0
LINE
  5
2A4
330
2A1
100
AcDbEntity
  8
画層1
 62
     0
100
AcDbLine
 10
424.5
 20
483.75
 30
0.0
 11
424.5
 21
15.75
 31
0.0
  0
INSERT
  5
2A5
330
2A1
100
AcDbEntity
  8
画層1
 62
     0
100
AcDbBlockReference
  2
_OPEN30
 10
424.5
 20
485.25
 30
0.0
 41
1.5
 42
1.5
 43
1.5
 50
90.0
  0
INSERT
  5
2A6
330
2A1
100
AcDbEntity
  8
画層1
 62
     0
100
AcDbBlockReference
  2
_OPEN30
 10
424.5
 20
14.25
 30
0.0
 41
1.5
 42
1.5
 43
1.5
 50
270.0
  0
MTEXT
  5
2A7
330
2A1
100
AcDbEntity
  8
画層1
 62
     0
100
AcDbMText
 10
422.62
 20
249.75
 30
0.0
 40
2.5
 41
0.0
 71
     5
 72
     1
  1
\A1;471
  7
STYLE1
 11
0.0
 21
1.0
 31
0.0
 73
     1
 44
1.0
1001
ACAD
1000
MTEXTBEGIN
1070
    73
1070
     1
1070
    44
1040
1.0
1070
    74
1070
     0
1000
MTEXTEND
  0
POINT
  5
2A8
330
2A1
100
AcDbEntity
  8
DEFPOINTS
 62
     0
100
AcDbPoint
 10
395.5
 20
485.25
 30
0.0
  0
POINT
  5
2A9
330
2A1
100
AcDbEntity
  8
DEFPOINTS
 62
     0
100
AcDbPoint
 10
395.5
 20
14.25
 30
0.0
  0
POINT
  5
2AA
330
2A1
100
AcDbEntity
  8
DEFPOINTS
 62
     0
100
AcDbPoint
 10
424.5
 20
14.25
 30
0.0
  0
ENDBLK
  5
2AC
330
2A1
100
AcDbEntity
  8
0
 62
     1
100
AcDbBlockEnd
  0
BLOCK
  5
308
330
2FE
100
AcDbEntity
  8
0
 62
     1
100
AcDbBlockBegin
  2
*D11
 70
     1
 10
0.0
 20
0.0
 30
0.0
  3
*D11
  1

  0
LINE
  5
2FF
330
2FE
100
AcDbEntity
  8
画層1
 62
     0
100
AcDbLine
 10
733.4999999999999
 20
15.12
 30
0.0
 11
733.4999999999999
 21
2.5
 31
0.0
  0
LINE
  5
300
330
2FE
100
AcDbEntity
  8
画層1
 62
     0
100
AcDbLine
 10
575.4999999999999
 20
14.61999999999999
 30
0.0
 11
575.4999999999999
 21
2.5
 31
0.0
  0
LINE
  5
301
330
2FE
100
AcDbEntity
  8
画層1
 62
     0
100
AcDbLine
 10
732.0
 20
3.75
 30
0.0
 11
577.0
 21
3.75
 31
0.0
  0
INSERT
  5
302
330
2FE
100
AcDbEntity
  8
画層1
 62
     0
100
AcDbBlockReference
  2
_OPEN30
 10
733.4999999999999
 20
3.75
 30
0.0
 41
1.5
 42
1.5
 43
1.5
  0
INSERT
  5
303
330
2FE
100
AcDbEntity
  8
画層1
 62
     0
100
AcDbBlockReference
  2
_OPEN30
 10
575.4999999999999
 20
3.75
 30
0.0
 41
1.5
 42
1.5
 43
1.5
 50
180.0
  0
MTEXT
  5
304
330
2FE
100
AcDbEntity
  8
画層1
 62
     0
100
AcDbMText
 10
654.4999999999999
 20
5.629999999999999
 30
0.0
 40
2.5
 41
0.0
 71
     5
 72
     1
  1
\A1;158
  7
STYLE1
 73
     1
 44
1.0
1001
ACAD
1000
MTEXTBEGIN
1070
    73
1070
     1
1070
    44
1040
1.0
1070
    74
1070
     0
1000
MTEXTEND
  0
POINT
  5
305
330
2FE
100
AcDbEntity
  8
DEFPOINTS
 62
     0
100
AcDbPoint
 10
733.4999999999999
 20
15.75
 30
0.0
  0
POINT
  5
306
330
2FE
100
AcDbEntity
  8
DEFPOINTS
 62
     0
100
AcDbPoint
 10
575.4999999999999
 20
15.25
 30
0.0
  0
POINT
  5
307
330
2FE
100
AcDbEntity
  8
DEFPOINTS
 62
     0
100
AcDbPoint
 10
575.4999999999999
 20
3.75
 30
0.0
  0
ENDBLK
  5
309
330
2FE
100
AcDbEntity
  8
0
 62
     1
100
AcDbBlockEnd
  0
BLOCK
  5
3C7
330
3BD
100
AcDbEntity
  8
0
 62
     1
100
AcDbBlockBegin
  2
*D12
 70
     1
 10
0.0
 20
0.0
 30
0.0
  3
*D12
  1

  0
LINE
  5
3BE
330
3BD
100
AcDbEntity
  8
画層1
 62
     0
100
AcDbLine
 10
733.4999999999999
 20
484.3799999999999
 30
0.0
 11
733.4999999999999
 21
513.0
 31
0.0
  0
LINE
  5
3BF
330
3BD
100
AcDbEntity
  8
画層1
 62
     0
100
AcDbLine
 10
575.4999999999999
 20
484.8799999999999
 30
0.0
 11
575.4999999999999
 21
513.0
 31
0.0
  0
LINE
  5
3C0
330
3BD
100
AcDbEntity
  8
画層1
 62
     0
100
AcDbLine
 10
732.0
 20
511.7499999999999
 30
0.0
 11
577.0
 21
511.7499999999999
 31
0.0
  0
INSERT
  5
3C1
330
3BD
100
AcDbEntity
  8
画層1
 62
     0
100
AcDbBlockReference
  2
_OPEN30
 10
733.4999999999999
 20
511.7499999999999
 30
0.0
 41
1.5
 42
1.5
 43
1.5
  0
INSERT
  5
3C2
330
3BD
100
AcDbEntity
  8
画層1
 62
     0
100
AcDbBlockReference
  2
_OPEN30
 10
575.4999999999999
 20
511.7499999999999
 30
0.0
 41
1.5
 42
1.5
 43
1.5
 50
180.0
  0
MTEXT
  5
3C3
330
3BD
100
AcDbEntity
  8
画層1
 62
     0
100
AcDbMText
 10
654.4999999999999
 20
513.63
 30
0.0
 40
2.5
 41
0.0
 71
     5
 72
     1
  1
\A1;158
  7
STYLE1
 73
     1
 44
1.0
1001
ACAD
1000
MTEXTBEGIN
1070
    73
1070
     1
1070
    44
1040
1.0
1070
    74
1070
     0
1000
MTEXTEND
  0
POINT
  5
3C4
330
3BD
100
AcDbEntity
  8
DEFPOINTS
 62
     0
100
AcDbPoint
 10
733.4999999999999
 20
483.75
 30
0.0
  0
POINT
  5
3C5
330
3BD
100
AcDbEntity
  8
DEFPOINTS
 62
     0
100
AcDbPoint
 10
575.4999999999999
 20
484.25
 30
0.0
  0
POINT
  5
3C6
330
3BD
100
AcDbEntity
  8
DEFPOINTS
 62
     0
100
AcDbPoint
 10
575.4999999999999
 20
511.7499999999999
 30
0.0
  0
ENDBLK
  5
3C8
330
3BD
100
AcDbEntity
  8
0
 62
     1
100
AcDbBlockEnd
  0
BLOCK
  5
320
330
316
100
AcDbEntity
  8
0
 62
     1
100
AcDbBlockBegin
  2
*D13
 70
     1
 10
0.0
 20
0.0
 30
0.0
  3
*D13
  1

  0
LINE
  5
317
330
316
100
AcDbEntity
  8
画層1
 62
     0
100
AcDbLine
 10
433.4999999999999
 20
452.88
 30
0.0
 11
433.4999999999999
 21
533.4999999999999
 31
0.0
  0
LINE
  5
318
330
316
100
AcDbEntity
  8
画層1
 62
     0
100
AcDbLine
 10
733.4999999999999
 20
484.3799999999999
 30
0.0
 11
733.4999999999999
 21
533.4999999999999
 31
0.0
  0
LINE
  5
319
330
316
100
AcDbEntity
  8
画層1
 62
     0
100
AcDbLine
 10
435.0
 20
532.2499999999999
 30
0.0
 11
732.0
 21
532.2499999999999
 31
0.0
  0
INSERT
  5
31A
330
316
100
AcDbEntity
  8
画層1
 62
     0
100
AcDbBlockReference
  2
_OPEN30
 10
433.4999999999999
 20
532.2499999999999
 30
0.0
 41
1.5
 42
1.5
 43
1.5
 50
180.0
  0
INSERT
  5
31B
330
316
100
AcDbEntity
  8
画層1
 62
     0
100
AcDbBlockReference
  2
_OPEN30
 10
733.4999999999999
 20
532.2499999999999
 30
0.0
 41
1.5
 42
1.5
 43
1.5
  0
MTEXT
  5
31C
330
316
100
AcDbEntity
  8
画層1
 62
     0
100
AcDbMText
 10
583.4999999999999
 20
534.13
 30
0.0
 40
2.5
 41
0.0
 71
     5
 72
     1
  1
\A1;300
  7
STYLE1
 73
     1
 44
1.0
1001
ACAD
1000
MTEXTBEGIN
1070
    73
1070
     1
1070
    44
1040
1.0
1070
    74
1070
     0
1000
MTEXTEND
  0
POINT
  5
31D
330
316
100
AcDbEntity
  8
DEFPOINTS
 62
     0
100
AcDbPoint
 10
433.4999999999999
 20
452.2499999999999
 30
0.0
  0
POINT
  5
31E
330
316
100
AcDbEntity
  8
DEFPOINTS
 62
     0
100
AcDbPoint
 10
733.4999999999999
 20
483.75
 30
0.0
  0
POINT
  5
31F
330
316
100
AcDbEntity
  8
DEFPOINTS
 62
     0
100
AcDbPoint
 10
733.4999999999999
 20
532.2499999999999
 30
0.0
  0
ENDBLK
  5
321
330
316
100
AcDbEntity
  8
0
 62
     1
100
AcDbBlockEnd
  0
BLOCK
  5
32D
330
323
100
AcDbEntity
  8
0
 62
     1
100
AcDbBlockBegin
  2
*D14
 70
     1
 10
0.0
 20
0.0
 30
0.0
  3
*D14
  1

  0
LINE
  5
324
330
323
100
AcDbEntity
  8
画層1
 62
     0
100
AcDbLine
 10
541.87
 20
525.25
 30
0.0
 11
525.25
 21
525.25
 31
0.0
  0
LINE
  5
325
330
323
100
AcDbEntity
  8
画層1
 62
     0
100
AcDbLine
 10
465.1299999999999
 20
485.25
 30
0.0
 11
527.7499999999999
 21
485.25
 31
0.0
  0
LINE
  5
326
330
323
100
AcDbEntity
  8
画層1
 62
     0
100
AcDbLine
 10
526.4999999999999
 20
523.7499999999999
 30
0.0
 11
526.4999999999999
 21
486.7499999999999
 31
0.0
  0
INSERT
  5
327
330
323
100
AcDbEntity
  8
画層1
 62
     0
100
AcDbBlockReference
  2
_OPEN30
 10
526.4999999999999
 20
525.25
 30
0.0
 41
1.5
 42
1.5
 43
1.5
 50
90.0
  0
INSERT
  5
328
330
323
100
AcDbEntity
  8
画層1
 62
     0
100
AcDbBlockReference
  2
_OPEN30
 10
526.4999999999999
 20
485.25
 30
0.0
 41
1.5
 42
1.5
 43
1.5
 50
270.0
  0
MTEXT
  5
329
330
323
100
AcDbEntity
  8
画層1
 62
     0
100
AcDbMText
 10
524.6199999999999
 20
505.25
 30
0.0
 40
2.5
 41
0.0
 71
     5
 72
     1
  1
\A1;40
  7
STYLE1
 11
0.0
 21
1.0
 31
0.0
 73
     1
 44
1.0
1001
ACAD
1000
MTEXTBEGIN
1070
    73
1070
     1
1070
    44
1040
1.0
1070
    74
1070
     0
1000
MTEXTEND
  0
POINT
  5
32A
330
323
100
AcDbEntity
  8
DEFPOINTS
 62
     0
100
AcDbPoint
 10
542.4999999999999
 20
525.25
 30
0.0
  0
POINT
  5
32B
330
323
100
AcDbEntity
  8
DEFPOINTS
 62
     0
100
AcDbPoint
 10
464.5
 20
485.25
 30
0.0
  0
POINT
  5
32C
330
323
100
AcDbEntity
  8
DEFPOINTS
 62
     0
100
AcDbPoint
 10
526.4999999999999
 20
485.25
 30
0.0
  0
ENDBLK
  5
32E
330
323
100
AcDbEntity
  8
0
 62
     1
100
AcDbBlockEnd
  0
BLOCK
  5
400
330
3F6
100
AcDbEntity
  8
0
 62
     1
100
AcDbBlockBegin
  2
*D15
 70
     1
 10
0.0
 20
0.0
 30
0.0
  3
*D15
  1

  0
LINE
  5
446
330
3F6
100
AcDbEntity
  8
画層1
 62
     0
370
    -2
100
AcDbLine
 10
210.4999999999999
 20
475.1199999999999
 30
0.0
 11
210.4999999999999
 21
418.0
 31
0.0
  0
LINE
  5
447
330
3F6
100
AcDbEntity
  8
画層1
 62
     0
370
    -2
100
AcDbLine
 10
310.4999999999999
 20
479.1199999999999
 30
0.0
 11
310.4999999999999
 21
418.0
 31
0.0
  0
LINE
  5
448
330
3F6
100
AcDbEntity
  8
画層1
 62
     0
370
    -2
100
AcDbLine
 10
212.0
 20
419.2499999999999
 30
0.0
 11
309.0
 21
419.2499999999999
 31
0.0
  0
INSERT
  5
449
330
3F6
100
AcDbEntity
  8
画層1
 62
     0
370
    -2
100
AcDbBlockReference
  2
_OPEN30
 10
210.4999999999999
 20
419.2499999999999
 30
0.0
 41
1.5
 42
1.5
 43
1.5
 50
180.0
  0
INSERT
  5
44A
330
3F6
100
AcDbEntity
  8
画層1
 62
     0
370
    -2
100
AcDbBlockReference
  2
_OPEN30
 10
310.4999999999999
 20
419.2499999999999
 30
0.0
 41
1.5
 42
1.5
 43
1.5
  0
MTEXT
  5
44B
330
3F6
100
AcDbEntity
  8
画層1
 62
     0
100
AcDbMText
 10
260.4999999999999
 20
421.1299999999999
 30
0.0
 40
2.5
 41
0.0
 71
     5
 72
     1
  1
\A1;100
  7
STYLE1
 73
     1
 44
1.0
  0
POINT
  5
44C
330
3F6
100
AcDbEntity
  8
DEFPOINTS
 62
     0
100
AcDbPoint
 10
210.4999999999999
 20
475.75
 30
0.0
  0
POINT
  5
44D
330
3F6
100
AcDbEntity
  8
DEFPOINTS
 62
     0
100
AcDbPoint
 10
310.4999999999999
 20
479.75
 30
0.0
  0
POINT
  5
44E
330
3F6
100
AcDbEntity
  8
DEFPOINTS
 62
     0
100
AcDbPoint
 10
310.4999999999999
 20
419.2499999999999
 30
0.0
  0
ENDBLK
  5
401
330
3F6
100
AcDbEntity
  8
0
 62
     1
100
AcDbBlockEnd
  0
BLOCK
  5
413
330
409
100
AcDbEntity
  8
0
 62
     1
100
AcDbBlockBegin
  2
*D16
 70
     1
 10
0.0
 20
0.0
 30
0.0
  3
*D16
  1

  0
LINE
  5
40A
330
409
100
AcDbEntity
  8
画層1
 62
     0
370
    -2
100
AcDbLine
 10
330.63
 20
472.25
 30
0.0
 11
411.7500000000001
 21
472.2499999999999
 31
0.0
  0
LINE
  5
40B
330
409
100
AcDbEntity
  8
画層1
 62
     0
370
    -2
100
AcDbLine
 10
326.63
 20
27.25
 30
0.0
 11
411.7499999999999
 21
27.24999999999997
 31
0.0
  0
LINE
  5
40C
330
409
100
AcDbEntity
  8
画層1
 62
     0
370
    -2
100
AcDbLine
 10
410.5000000000001
 20
470.7499999999999
 30
0.0
 11
410.5
 21
28.74999999999997
 31
0.0
  0
INSERT
  5
40D
330
409
100
AcDbEntity
  8
画層1
 62
     0
370
    -2
100
AcDbBlockReference
  2
_OPEN30
 10
410.5000000000001
 20
472.2499999999999
 30
0.0
 41
1.5
 42
1.5
 43
1.5
 50
90.0
  0
INSERT
  5
40E
330
409
100
AcDbEntity
  8
画層1
 62
     0
370
    -2
100
AcDbBlockReference
  2
_OPEN30
 10
410.5
 20
27.24999999999997
 30
0.0
 41
1.5
 42
1.5
 43
1.5
 50
270.0
  0
MTEXT
  5
40F
330
409
100
AcDbEntity
  8
画層1
 62
     0
100
AcDbMText
 10
408.6199999999999
 20
249.75
 30
0.0
 40
2.5
 41
0.0
 71
     5
 72
     1
  1
\A1;445
  7
STYLE1
 11
0.0000000000000001
 21
1.0
 31
0.0
 73
     1
 44
1.0
  0
POINT
  5
410
330
409
100
AcDbEntity
  8
DEFPOINTS
 62
     0
100
AcDbPoint
 10
330.0
 20
472.25
 30
0.0
  0
POINT
  5
411
330
409
100
AcDbEntity
  8
DEFPOINTS
 62
     0
100
AcDbPoint
 10
326.0
 20
27.25
 30
0.0
  0
POINT
  5
412
330
409
100
AcDbEntity
  8
DEFPOINTS
 62
     0
100
AcDbPoint
 10
410.5
 20
27.24999999999997
 30
0.0
  0
ENDBLK
  5
414
330
409
100
AcDbEntity
  8
0
 62
     1
100
AcDbBlockEnd
  0
BLOCK
  5
41F
330
415
100
AcDbEntity
  8
0
 62
     1
100
AcDbBlockBegin
  2
*D17
 70
     1
 10
0.0
 20
0.0
 30
0.0
  3
*D17
  1

  0
LINE
  5
416
330
415
100
AcDbEntity
  8
画層1
 62
     0
370
    -2
100
AcDbLine
 10
25.5
 20
485.88
 30
0.0
 11
25.5
 21
533.4999999999999
 31
0.0
  0
LINE
  5
417
330
415
100
AcDbEntity
  8
画層1
 62
     0
370
    -2
100
AcDbLine
 10
395.5
 20
485.88
 30
0.0
 11
395.5
 21
533.4999999999999
 31
0.0
  0
LINE
  5
418
330
415
100
AcDbEntity
  8
画層1
 62
     0
370
    -2
100
AcDbLine
 10
27.0
 20
532.2499999999999
 30
0.0
 11
394.0
 21
532.2499999999999
 31
0.0
  0
INSERT
  5
419
330
415
100
AcDbEntity
  8
画層1
 62
     0
370
    -2
100
AcDbBlockReference
  2
_OPEN30
 10
25.5
 20
532.2499999999999
 30
0.0
 41
1.5
 42
1.5
 43
1.5
 50
180.0
  0
INSERT
  5
41A
330
415
100
AcDbEntity
  8
画層1
 62
     0
370
    -2
100
AcDbBlockReference
  2
_OPEN30
 10
395.5
 20
532.2499999999999
 30
0.0
 41
1.5
 42
1.5
 43
1.5
  0
MTEXT
  5
41B
330
415
100
AcDbEntity
  8
画層1
 62
     0
100
AcDbMText
 10
210.4999999999999
 20
534.13
 30
0.0
 40
2.5
 41
0.0
 71
     5
 72
     1
  1
\A1;370
  7
STYLE1
 73
     1
 44
1.0
  0
POINT
  5
41C
330
415
100
AcDbEntity
  8
DEFPOINTS
 62
     0
100
AcDbPoint
 10
25.5
 20
485.25
 30
0.0
  0
POINT
  5
41D
330
415
100
AcDbEntity
  8
DEFPOINTS
 62
     0
100
AcDbPoint
 10
395.5
 20
485.25
 30
0.0
  0
POINT
  5
41E
330
415
100
AcDbEntity
  8
DEFPOINTS
 62
     0
100
AcDbPoint
 10
395.5
 20
532.2499999999999
 30
0.0
  0
ENDBLK
  5
420
330
415
100
AcDbEntity
  8
0
 62
     1
100
AcDbBlockEnd
  0
BLOCK
  5
42C
330
421
100
AcDbEntity
  8
0
 62
     1
100
AcDbBlockBegin
  2
*D18
 70
     1
 10
0.0
 20
0.0
 30
0.0
  3
*D18
  1

  0
LINE
  5
422
330
421
100
AcDbEntity
  8
画層1
 62
     0
370
    -2
100
AcDbLine
 10
86.12999999999999
 20
485.25
 30
0.0
 11
143.75
 21
485.2499999999999
 31
0.0
  0
LINE
  5
423
330
421
100
AcDbEntity
  8
画層1
 62
     0
370
    -2
100
AcDbLine
 10
101.6299999999999
 20
470.2499999999999
 30
0.0
 11
143.75
 21
470.2499999999999
 31
0.0
  0
LINE
  5
424
330
421
100
AcDbEntity
  8
画層1
 62
     0
370
    -2
100
AcDbLine
 10
142.5
 20
471.7499999999999
 30
0.0
 11
142.5
 21
483.7499999999999
 31
0.0
  0
LINE
  5
425
330
421
100
AcDbEntity
  8
画層1
 62
     0
370
    -2
100
AcDbLine
 10
142.5
 20
485.2499999999999
 30
0.0
 11
142.5
 21
494.5505583756344
 31
0.0
  0
INSERT
  5
426
330
421
100
AcDbEntity
  8
画層1
 62
     0
370
    -2
100
AcDbBlockReference
  2
_OPEN30
 10
142.5
 20
470.2499999999999
 30
0.0
 41
1.5
 42
1.5
 43
1.5
 50
270.0
  0
INSERT
  5
427
330
421
100
AcDbEntity
  8
画層1
 62
     0
370
    -2
100
AcDbBlockReference
  2
_OPEN30
 10
142.5
 20
485.2499999999999
 30
0.0
 41
1.5
 42
1.5
 43
1.5
 50
90.0
  0
MTEXT
  5
428
330
421
100
AcDbEntity
  8
画層1
 62
     0
100
AcDbMText
 10
140.62
 20
492.55
 30
0.0
 40
2.5
 41
0.0
 71
     5
 72
     1
  1
\A1;15
  7
STYLE1
 11
0.0000000000000001
 21
1.0
 31
0.0
 73
     1
 44
1.0
  0
POINT
  5
429
330
421
100
AcDbEntity
  8
DEFPOINTS
 62
     0
100
AcDbPoint
 10
85.5
 20
485.25
 30
0.0
  0
POINT
  5
42A
330
421
100
AcDbEntity
  8
DEFPOINTS
 62
     0
100
AcDbPoint
 10
101.0
 20
470.2499999999999
 30
0.0
  0
POINT
  5
42B
330
421
100
AcDbEntity
  8
DEFPOINTS
 62
     0
100
AcDbPoint
 10
142.5
 20
470.2499999999999
 30
0.0
  0
ENDBLK
  5
42D
330
421
100
AcDbEntity
  8
0
 62
     1
100
AcDbBlockEnd
  0
BLOCK
  5
438
330
42E
100
AcDbEntity
  8
0
 62
     1
100
AcDbBlockBegin
  2
*D19
 70
     1
 10
0.0
 20
0.0
 30
0.0
  3
*D19
  1

  0
LINE
  5
42F
330
42E
100
AcDbEntity
  8
画層1
 62
     0
370
    -2
100
AcDbLine
 10
85.5
 20
438.8799999999999
 30
0.0
 11
85.5
 21
513.0
 31
0.0
  0
LINE
  5
430
330
42E
100
AcDbEntity
  8
画層1
 62
     0
370
    -2
100
AcDbLine
 10
335.4999999999999
 20
438.8799999999999
 30
0.0
 11
335.4999999999999
 21
513.0
 31
0.0
  0
LINE
  5
431
330
42E
100
AcDbEntity
  8
画層1
 62
     0
370
    -2
100
AcDbLine
 10
87.0
 20
511.7499999999999
 30
0.0
 11
334.0
 21
511.7499999999999
 31
0.0
  0
INSERT
  5
432
330
42E
100
AcDbEntity
  8
画層1
 62
     0
370
    -2
100
AcDbBlockReference
  2
_OPEN30
 10
85.5
 20
511.7499999999999
 30
0.0
 41
1.5
 42
1.5
 43
1.5
 50
180.0
  0
INSERT
  5
433
330
42E
100
AcDbEntity
  8
画層1
 62
     0
370
    -2
100
AcDbBlockReference
  2
_OPEN30
 10
335.4999999999999
 20
511.7499999999999
 30
0.0
 41
1.5
 42
1.5
 43
1.5
  0
MTEXT
  5
434
330
42E
100
AcDbEntity
  8
画層1
 62
     0
100
AcDbMText
 10
210.4999999999999
 20
513.63
 30
0.0
 40
2.5
 41
0.0
 71
     5
 72
     1
  1
\A1;250
  7
STYLE1
 73
     1
 44
1.0
  0
POINT
  5
435
330
42E
100
AcDbEntity
  8
DEFPOINTS
 62
     0
100
AcDbPoint
 10
85.5
 20
438.25
 30
0.0
  0
POINT
  5
436
330
42E
100
AcDbEntity
  8
DEFPOINTS
 62
     0
100
AcDbPoint
 10
335.4999999999999
 20
438.25
 30
0.0
  0
POINT
  5
437
330
42E
100
AcDbEntity
  8
DEFPOINTS
 62
     0
100
AcDbPoint
 10
335.4999999999999
 20
511.7499999999999
 30
0.0
  0
ENDBLK
  5
439
330
42E
100
AcDbEntity
  8
0
 62
     1
100
AcDbBlockEnd
  0
BLOCK
  5
444
330
43A
100
AcDbEntity
  8
0
 62
     1
100
AcDbBlockBegin
  2
*D20
 70
     1
 10
0.0
 20
0.0
 30
0.0
  3
*D20
  1

  0
LINE
  5
43B
330
43A
100
AcDbEntity
  8
画層1
 62
     0
370
    -2
100
AcDbLine
 10
110.4999999999999
 20
479.1199999999999
 30
0.0
 11
110.4999999999999
 21
418.0
 31
0.0
  0
LINE
  5
43C
330
43A
100
AcDbEntity
  8
画層1
 62
     0
370
    -2
100
AcDbLine
 10
210.4999999999999
 20
475.1199999999999
 30
0.0
 11
210.4999999999999
 21
418.0
 31
0.0
  0
LINE
  5
43D
330
43A
100
AcDbEntity
  8
画層1
 62
     0
370
    -2
100
AcDbLine
 10
112.0
 20
419.2499999999999
 30
0.0
 11
209.0
 21
419.2499999999999
 31
0.0
  0
INSERT
  5
43E
330
43A
100
AcDbEntity
  8
画層1
 62
     0
370
    -2
100
AcDbBlockReference
  2
_OPEN30
 10
110.4999999999999
 20
419.2499999999999
 30
0.0
 41
1.5
 42
1.5
 43
1.5
 50
180.0
  0
INSERT
  5
43F
330
43A
100
AcDbEntity
  8
画層1
 62
     0
370
    -2
100
AcDbBlockReference
  2
_OPEN30
 10
210.4999999999999
 20
419.2499999999999
 30
0.0
 41
1.5
 42
1.5
 43
1.5
  0
MTEXT
  5
440
330
43A
100
AcDbEntity
  8
画層1
 62
     0
100
AcDbMText
 10
160.4999999999999
 20
421.1299999999999
 30
0.0
 40
2.5
 41
0.0
 71
     5
 72
     1
  1
\A1;100
  7
STYLE1
 73
     1
 44
1.0
  0
POINT
  5
441
330
43A
100
AcDbEntity
  8
DEFPOINTS
 62
     0
100
AcDbPoint
 10
110.4999999999999
 20
479.75
 30
0.0
  0
POINT
  5
442
330
43A
100
AcDbEntity
  8
DEFPOINTS
 62
     0
100
AcDbPoint
 10
210.4999999999999
 20
475.75
 30
0.0
  0
POINT
  5
443
330
43A
100
AcDbEntity
  8
DEFPOINTS
 62
     0
100
AcDbPoint
 10
210.4999999999999
 20
419.2499999999999
 30
0.0
  0
ENDBLK
  5
445
330
43A
100
AcDbEntity
  8
0
 62
     1
100
AcDbBlockEnd
  0
BLOCK
  5
45A
330
44F
100
AcDbEntity
  8
0
 62
     1
100
AcDbBlockBegin
  2
*D21
 70
     1
 10
0.0
 20
0.0
 30
0.0
  3
*D21
  1

  0
LINE
  5
450
330
44F
100
AcDbEntity
  8
画層1
 62
     0
370
    -2
100
AcDbLine
 10
330.0
 20
472.8799999999999
 30
0.0
 11
330.0
 21
499.0
 31
0.0
  0
LINE
  5
451
330
44F
100
AcDbEntity
  8
画層1
 62
     0
370
    -2
100
AcDbLine
 10
341.0
 20
472.8799999999999
 30
0.0
 11
341.0
 21
499.0
 31
0.0
  0
LINE
  5
452
330
44F
100
AcDbEntity
  8
画層1
 62
     0
370
    -2
100
AcDbLine
 10
339.5
 20
497.75
 30
0.0
 11
331.4999999999999
 21
497.75
 31
0.0
  0
LINE
  5
453
330
44F
100
AcDbEntity
  8
画層1
 62
     0
370
    -2
100
AcDbLine
 10
330.0
 20
497.75
 30
0.0
 11
299.1643147208121
 21
497.75
 31
0.0
  0
INSERT
  5
454
330
44F
100
AcDbEntity
  8
画層1
 62
     0
370
    -2
100
AcDbBlockReference
  2
_OPEN30
 10
341.0
 20
497.75
 30
0.0
 41
1.5
 42
1.5
 43
1.5
  0
INSERT
  5
455
330
44F
100
AcDbEntity
  8
画層1
 62
     0
370
    -2
100
AcDbBlockReference
  2
_OPEN30
 10
330.0
 20
497.75
 30
0.0
 41
1.5
 42
1.5
 43
1.5
 50
180.0
  0
MTEXT
  5
456
330
44F
100
AcDbEntity
  8
画層1
 62
     0
100
AcDbMText
 10
307.8399999999999
 20
499.8267005076142
 30
0.0
 40
2.5
 41
0.0
 71
     5
 72
     1
  1
\A1;2-11取付穴
  7
STYLE1
 73
     1
 44
1.0
  0
POINT
  5
457
330
44F
100
AcDbEntity
  8
DEFPOINTS
 62
     0
100
AcDbPoint
 10
330.0
 20
472.25
 30
0.0
  0
POINT
  5
458
330
44F
100
AcDbEntity
  8
DEFPOINTS
 62
     0
100
AcDbPoint
 10
341.0
 20
472.25
 30
0.0
  0
POINT
  5
459
330
44F
100
AcDbEntity
  8
DEFPOINTS
 62
     0
100
AcDbPoint
 10
341.0
 20
497.75
 30
0.0
  0
ENDBLK
  5
45B
330
44F
100
AcDbEntity
  8
0
 62
     1
100
AcDbBlockEnd
  0
BLOCK
  5
466
330
45C
100
AcDbEntity
  8
0
 62
     1
100
AcDbBlockBegin
  2
*D22
 70
     1
 10
0.0
 20
0.0
 30
0.0
  3
*D22
  1

  0
LINE
  5
45D
330
45C
100
AcDbEntity
  8
画層1
 62
     0
370
    -2
100
AcDbLine
 10
326.63
 20
472.25
 30
0.0
 11
361.75
 21
472.25
 31
0.0
  0
LINE
  5
45E
330
45C
100
AcDbEntity
  8
画層1
 62
     0
370
    -2
100
AcDbLine
 10
319.6299999999999
 20
454.75
 30
0.0
 11
361.75
 21
454.75
 31
0.0
  0
LINE
  5
45F
330
45C
100
AcDbEntity
  8
画層1
 62
     0
370
    -2
100
AcDbLine
 10
360.4999999999999
 20
470.75
 30
0.0
 11
360.4999999999999
 21
456.25
 31
0.0
  0
INSERT
  5
460
330
45C
100
AcDbEntity
  8
画層1
 62
     0
370
    -2
100
AcDbBlockReference
  2
_OPEN30
 10
360.4999999999999
 20
472.25
 30
0.0
 41
1.5
 42
1.5
 43
1.5
 50
90.0
  0
INSERT
  5
461
330
45C
100
AcDbEntity
  8
画層1
 62
     0
370
    -2
100
AcDbBlockReference
  2
_OPEN30
 10
360.4999999999999
 20
454.75
 30
0.0
 41
1.5
 42
1.5
 43
1.5
 50
270.0
  0
MTEXT
  5
462
330
45C
100
AcDbEntity
  8
画層1
 62
     0
100
AcDbMText
 10
358.6199999999998
 20
463.5
 30
0.0
 40
2.5
 41
0.0
 71
     5
 72
     1
  1
\A1;17.5
  7
STYLE1
 11
0.0000000000000001
 21
1.0
 31
0.0
 73
     1
 44
1.0
  0
POINT
  5
463
330
45C
100
AcDbEntity
  8
DEFPOINTS
 62
     0
100
AcDbPoint
 10
326.0
 20
472.25
 30
0.0
  0
POINT
  5
464
330
45C
100
AcDbEntity
  8
DEFPOINTS
 62
     0
100
AcDbPoint
 10
319.0
 20
454.75
 30
0.0
  0
POINT
  5
465
330
45C
100
AcDbEntity
  8
DEFPOINTS
 62
     0
100
AcDbPoint
 10
360.4999999999999
 20
454.75
 30
0.0
  0
ENDBLK
  5
467
330
45C
100
AcDbEntity
  8
0
 62
     1
100
AcDbBlockEnd
  0
BLOCK
  5
472
330
468
100
AcDbEntity
  8
0
 62
     1
100
AcDbBlockBegin
  2
*D23
 70
     1
 10
0.0
 20
0.0
 30
0.0
  3
*D23
  1

  0
LINE
  5
469
330
468
100
AcDbEntity
  8
画層1
 62
     0
370
    -2
100
AcDbLine
 10
396.1299999999999
 20
485.25
 30
0.0
 11
425.7500000000001
 21
485.25
 31
0.0
  0
LINE
  5
46A
330
468
100
AcDbEntity
  8
画層1
 62
     0
370
    -2
100
AcDbLine
 10
396.1299999999999
 20
14.24999999999999
 30
0.0
 11
425.75
 21
14.24999999999999
 31
0.0
  0
LINE
  5
46B
330
468
100
AcDbEntity
  8
画層1
 62
     0
370
    -2
100
AcDbLine
 10
424.5
 20
483.75
 30
0.0
 11
424.5
 21
15.74999999999999
 31
0.0
  0
INSERT
  5
46C
330
468
100
AcDbEntity
  8
画層1
 62
     0
370
    -2
100
AcDbBlockReference
  2
_OPEN30
 10
424.5
 20
485.25
 30
0.0
 41
1.5
 42
1.5
 43
1.5
 50
90.0
  0
INSERT
  5
46D
330
468
100
AcDbEntity
  8
画層1
 62
     0
370
    -2
100
AcDbBlockReference
  2
_OPEN30
 10
424.5
 20
14.24999999999999
 30
0.0
 41
1.5
 42
1.5
 43
1.5
 50
270.0
  0
MTEXT
  5
46E
330
468
100
AcDbEntity
  8
画層1
 62
     0
100
AcDbMText
 10
422.62
 20
249.75
 30
0.0
 40
2.5
 41
0.0
 71
     5
 72
     1
  1
\A1;471
  7
STYLE1
 11
0.0000000000000001
 21
1.0
 31
0.0
 73
     1
 44
1.0
  0
POINT
  5
46F
330
468
100
AcDbEntity
  8
DEFPOINTS
 62
     0
100
AcDbPoint
 10
395.5
 20
485.25
 30
0.0
  0
POINT
  5
470
330
468
100
AcDbEntity
  8
DEFPOINTS
 62
     0
100
AcDbPoint
 10
395.5
 20
14.25
 30
0.0
  0
POINT
  5
471
330
468
100
AcDbEntity
  8
DEFPOINTS
 62
     0
100
AcDbPoint
 10
424.5
 20
14.24999999999999
 30
0.0
  0
ENDBLK
  5
473
330
468
100
AcDbEntity
  8
0
 62
     1
100
AcDbBlockEnd
  0
BLOCK
  5
47E
330
474
100
AcDbEntity
  8
0
 62
     1
100
AcDbBlockBegin
  2
*D24
 70
     1
 10
0.0
 20
0.0
 30
0.0
  3
*D24
  1

  0
LINE
  5
475
330
474
100
AcDbEntity
  8
画層1
 62
     0
370
    -2
100
AcDbLine
 10
733.4999999999999
 20
15.12
 30
0.0
 11
733.4999999999999
 21
2.5
 31
0.0
  0
LINE
  5
476
330
474
100
AcDbEntity
  8
画層1
 62
     0
370
    -2
100
AcDbLine
 10
575.4999999999999
 20
14.61999999999999
 30
0.0
 11
575.4999999999999
 21
2.5
 31
0.0
  0
LINE
  5
477
330
474
100
AcDbEntity
  8
画層1
 62
     0
370
    -2
100
AcDbLine
 10
732.0
 20
3.75
 30
0.0
 11
577.0
 21
3.75
 31
0.0
  0
INSERT
  5
478
330
474
100
AcDbEntity
  8
画層1
 62
     0
370
    -2
100
AcDbBlockReference
  2
_OPEN30
 10
733.4999999999999
 20
3.75
 30
0.0
 41
1.5
 42
1.5
 43
1.5
  0
INSERT
  5
479
330
474
100
AcDbEntity
  8
画層1
 62
     0
370
    -2
100
AcDbBlockReference
  2
_OPEN30
 10
575.4999999999999
 20
3.75
 30
0.0
 41
1.5
 42
1.5
 43
1.5
 50
180.0
  0
MTEXT
  5
47A
330
474
100
AcDbEntity
  8
画層1
 62
     0
100
AcDbMText
 10
654.4999999999999
 20
5.629999999999999
 30
0.0
 40
2.5
 41
0.0
 71
     5
 72
     1
  1
\A1;158
  7
STYLE1
 73
     1
 44
1.0
  0
POINT
  5
47B
330
474
100
AcDbEntity
  8
DEFPOINTS
 62
     0
100
AcDbPoint
 10
733.4999999999999
 20
15.75
 30
0.0
  0
POINT
  5
47C
330
474
100
AcDbEntity
  8
DEFPOINTS
 62
     0
100
AcDbPoint
 10
575.4999999999999
 20
15.25
 30
0.0
  0
POINT
  5
47D
330
474
100
AcDbEntity
  8
DEFPOINTS
 62
     0
100
AcDbPoint
 10
575.4999999999999
 20
3.75
 30
0.0
  0
ENDBLK
  5
47F
330
474
100
AcDbEntity
  8
0
 62
     1
100
AcDbBlockEnd
  0
BLOCK
  5
48A
330
480
100
AcDbEntity
  8
0
 62
     1
100
AcDbBlockBegin
  2
*D25
 70
     1
 10
0.0
 20
0.0
 30
0.0
  3
*D25
  1

  0
LINE
  5
481
330
480
100
AcDbEntity
  8
画層1
 62
     0
370
    -2
100
AcDbLine
 10
733.4999999999999
 20
484.3799999999999
 30
0.0
 11
733.4999999999999
 21
513.0
 31
0.0
  0
LINE
  5
482
330
480
100
AcDbEntity
  8
画層1
 62
     0
370
    -2
100
AcDbLine
 10
575.4999999999999
 20
484.8799999999999
 30
0.0
 11
575.4999999999999
 21
513.0
 31
0.0
  0
LINE
  5
483
330
480
100
AcDbEntity
  8
画層1
 62
     0
370
    -2
100
AcDbLine
 10
732.0
 20
511.7499999999999
 30
0.0
 11
577.0
 21
511.7499999999999
 31
0.0
  0
INSERT
  5
484
330
480
100
AcDbEntity
  8
画層1
 62
     0
370
    -2
100
AcDbBlockReference
  2
_OPEN30
 10
733.4999999999999
 20
511.7499999999999
 30
0.0
 41
1.5
 42
1.5
 43
1.5
  0
INSERT
  5
485
330
480
100
AcDbEntity
  8
画層1
 62
     0
370
    -2
100
AcDbBlockReference
  2
_OPEN30
 10
575.4999999999999
 20
511.7499999999999
 30
0.0
 41
1.5
 42
1.5
 43
1.5
 50
180.0
  0
MTEXT
  5
486
330
480
100
AcDbEntity
  8
画層1
 62
     0
100
AcDbMText
 10
654.4999999999999
 20
513.63
 30
0.0
 40
2.5
 41
0.0
 71
     5
 72
     1
  1
\A1;158
  7
STYLE1
 73
     1
 44
1.0
  0
POINT
  5
487
330
480
100
AcDbEntity
  8
DEFPOINTS
 62
     0
100
AcDbPoint
 10
733.4999999999999
 20
483.75
 30
0.0
  0
POINT
  5
488
330
480
100
AcDbEntity
  8
DEFPOINTS
 62
     0
100
AcDbPoint
 10
575.4999999999999
 20
484.25
 30
0.0
  0
POINT
  5
489
330
480
100
AcDbEntity
  8
DEFPOINTS
 62
     0
100
AcDbPoint
 10
575.4999999999999
 20
511.7499999999999
 30
0.0
  0
ENDBLK
  5
48B
330
480
100
AcDbEntity
  8
0
 62
     1
100
AcDbBlockEnd
  0
BLOCK
  5
496
330
48C
100
AcDbEntity
  8
0
 62
     1
100
AcDbBlockBegin
  2
*D26
 70
     1
 10
0.0
 20
0.0
 30
0.0
  3
*D26
  1

  0
LINE
  5
48D
330
48C
100
AcDbEntity
  8
画層1
 62
     0
370
    -2
100
AcDbLine
 10
433.4999999999999
 20
452.88
 30
0.0
 11
433.4999999999999
 21
533.4999999999999
 31
0.0
  0
LINE
  5
48E
330
48C
100
AcDbEntity
  8
画層1
 62
     0
370
    -2
100
AcDbLine
 10
733.4999999999999
 20
484.3799999999999
 30
0.0
 11
733.4999999999999
 21
533.4999999999999
 31
0.0
  0
LINE
  5
48F
330
48C
100
AcDbEntity
  8
画層1
 62
     0
370
    -2
100
AcDbLine
 10
435.0
 20
532.2499999999999
 30
0.0
 11
732.0
 21
532.2499999999999
 31
0.0
  0
INSERT
  5
490
330
48C
100
AcDbEntity
  8
画層1
 62
     0
370
    -2
100
AcDbBlockReference
  2
_OPEN30
 10
433.4999999999999
 20
532.2499999999999
 30
0.0
 41
1.5
 42
1.5
 43
1.5
 50
180.0
  0
INSERT
  5
491
330
48C
100
AcDbEntity
  8
画層1
 62
     0
370
    -2
100
AcDbBlockReference
  2
_OPEN30
 10
733.4999999999999
 20
532.2499999999999
 30
0.0
 41
1.5
 42
1.5
 43
1.5
  0
MTEXT
  5
492
330
48C
100
AcDbEntity
  8
画層1
 62
     0
100
AcDbMText
 10
583.4999999999999
 20
534.13
 30
0.0
 40
2.5
 41
0.0
 71
     5
 72
     1
  1
\A1;300
  7
STYLE1
 73
     1
 44
1.0
  0
POINT
  5
493
330
48C
100
AcDbEntity
  8
DEFPOINTS
 62
     0
100
AcDbPoint
 10
433.4999999999999
 20
452.2499999999999
 30
0.0
  0
POINT
  5
494
330
48C
100
AcDbEntity
  8
DEFPOINTS
 62
     0
100
AcDbPoint
 10
733.4999999999999
 20
483.75
 30
0.0
  0
POINT
  5
495
330
48C
100
AcDbEntity
  8
DEFPOINTS
 62
     0
100
AcDbPoint
 10
733.4999999999999
 20
532.2499999999999
 30
0.0
  0
ENDBLK
  5
497
330
48C
100
AcDbEntity
  8
0
 62
     1
100
AcDbBlockEnd
  0
BLOCK
  5
4A2
330
498
100
AcDbEntity
  8
0
 62
     1
100
AcDbBlockBegin
  2
*D27
 70
     1
 10
0.0
 20
0.0
 30
0.0
  3
*D27
  1

  0
LINE
  5
499
330
498
100
AcDbEntity
  8
画層1
 62
     0
370
    -2
100
AcDbLine
 10
541.87
 20
525.25
 30
0.0
 11
525.25
 21
525.25
 31
0.0
  0
LINE
  5
49A
330
498
100
AcDbEntity
  8
画層1
 62
     0
370
    -2
100
AcDbLine
 10
465.1299999999999
 20
485.25
 30
0.0
 11
527.7499999999999
 21
485.25
 31
0.0
  0
LINE
  5
49B
330
498
100
AcDbEntity
  8
画層1
 62
     0
370
    -2
100
AcDbLine
 10
526.4999999999999
 20
523.7499999999999
 30
0.0
 11
526.4999999999999
 21
486.7499999999999
 31
0.0
  0
INSERT
  5
49C
330
498
100
AcDbEntity
  8
画層1
 62
     0
370
    -2
100
AcDbBlockReference
  2
_OPEN30
 10
526.4999999999999
 20
525.25
 30
0.0
 41
1.5
 42
1.5
 43
1.5
 50
90.0
  0
INSERT
  5
49D
330
498
100
AcDbEntity
  8
画層1
 62
     0
370
    -2
100
AcDbBlockReference
  2
_OPEN30
 10
526.4999999999999
 20
485.25
 30
0.0
 41
1.5
 42
1.5
 43
1.5
 50
270.0
  0
MTEXT
  5
49E
330
498
100
AcDbEntity
  8
画層1
 62
     0
100
AcDbMText
 10
524.6199999999999
 20
505.2500000000001
 30
0.0
 40
2.5
 41
0.0
 71
     5
 72
     1
  1
\A1;40
  7
STYLE1
 11
0.0000000000000001
 21
1.0
 31
0.0
 73
     1
 44
1.0
  0
POINT
  5
49F
330
498
100
AcDbEntity
  8
DEFPOINTS
 62
     0
100
AcDbPoint
 10
542.4999999999999
 20
525.25
 30
0.0
  0
POINT
  5
4A0
330
498
100
AcDbEntity
  8
DEFPOINTS
 62
     0
100
AcDbPoint
 10
464.5
 20
485.25
 30
0.0
  0
POINT
  5
4A1
330
498
100
AcDbEntity
  8
DEFPOINTS
 62
     0
100
AcDbPoint
 10
526.4999999999999
 20
485.25
 30
0.0
  0
ENDBLK
  5
4A3
330
498
100
AcDbEntity
  8
0
 62
     1
100
AcDbBlockEnd
  0
ENDSEC
  0
SECTION
  2
ENTITIES
  0
DIMENSION
  5
36
330
2
100
AcDbEntity
  8
画層1
 62
     0
100
AcDbDimension
  2
*D20
 10
210.4999999999999
 20
419.2499999999999
 30
0.0
 11
160.4999999999999
 21
421.1299999999999
 31
0.0
 70
    32
 71
     5
 42
100.0
  3
STANDARD_WS
100
AcDbAlignedDimension
 13
110.4999999999999
 23
479.75
 33
0.0
 14
210.4999999999999
 24
475.75
 34
0.0
100
AcDbRotatedDimension
1001
ACAD
1000
DSTYLE
1002
{
1070
    47
1040
0.6
1070
   144
1040
1.0
1070
   146
1040
0.5
1070
   173
1070
     0
1070
   284
1070
     8
1070
   340
1005
27
1070
   341
1005
28
1070
     5
1000
OPEN30
1070
     6
1000
OPEN30
1002
}
  0
DIMENSION
  5
44
330
2
100
AcDbEntity
  8
画層1
 62
     0
100
AcDbDimension
  2
*D17
 10
395.5
 20
532.2499999999999
 30
0.0
 11
210.4999999999999
 21
534.13
 31
0.0
 70
    32
 71
     5
 42
370.0
  3
STANDARD_WS
100
AcDbAlignedDimension
 13
25.5
 23
485.25
 33
0.0
 14
395.5
 24
485.25
 34
0.0
100
AcDbRotatedDimension
1001
ACAD
1000
DSTYLE
1002
{
1070
    47
1040
0.6
1070
   144
1040
1.0
1070
   146
1040
0.5
1070
   173
1070
     0
1070
   284
1070
     8
1070
   340
1005
27
1070
   341
1005
28
1070
     5
1000
OPEN30
1070
     6
1000
OPEN30
1002
}
  0
DIMENSION
  5
51
330
2
100
AcDbEntity
  8
画層1
 62
     0
100
AcDbDimension
  2
*D19
 10
335.4999999999999
 20
511.7499999999999
 30
0.0
 11
210.4999999999999
 21
513.63
 31
0.0
 70
    32
 71
     5
 42
250.0
  3
STANDARD_WS
100
AcDbAlignedDimension
 13
85.5
 23
438.25
 33
0.0
 14
335.4999999999999
 24
438.25
 34
0.0
100
AcDbRotatedDimension
1001
ACAD
1000
DSTYLE
1002
{
1070
    47
1040
0.6
1070
   144
1040
1.0
1070
   146
1040
0.5
1070
   173
1070
     0
1070
   284
1070
     8
1070
   340
1005
27
1070
   341
1005
28
1070
     5
1000
OPEN30
1070
     6
1000
OPEN30
1002
}
  0
LINE
  5
5E
330
2
100
AcDbEntity
  8
画層1
 62
     0
100
AcDbLine
 10
203.5
 20
470.2499999999999
 30
0.0
 11
217.5
 21
470.2499999999999
 31
0.0
  0
LINE
  5
5F
330
2
100
AcDbEntity
  8
画層1
  6
DASHED2
 62
     0
100
AcDbLine
 10
195.5
 20
484.25
 30
0.0
 11
225.4999999999999
 21
484.25
 31
0.0
  0
CIRCLE
  5
61
330
2
100
AcDbEntity
  8
画層1
 62
     0
100
AcDbCircle
 10
210.4999999999999
 20
389.7499999999999
 30
0.0
 40
15.0
  0
CIRCLE
  5
62
330
2
100
AcDbEntity
  8
画層1
  6
DASHED2
 62
     0
100
AcDbCircle
 10
210.4999999999999
 20
470.2499999999999
 30
0.0
 40
5.5
  0
LINE
  5
63
330
2
100
AcDbEntity
  8
画層1
  6
DIVIDE
 62
     0
100
AcDbLine
 10
360.4999999999999
 20
435.25
 30
0.0
 11
60.5
 21
435.25
 31
0.0
  0
LINE
  5
65
330
2
100
AcDbEntity
  8
画層1
  6
DIVIDE
 62
     0
100
AcDbLine
 10
60.5
 20
525.25
 30
0.0
 11
360.4999999999999
 21
525.25
 31
0.0
  0
LINE
  5
66
330
2
100
AcDbEntity
  8
画層1
 62
     0
100
AcDbLine
 10
203.5
 20
29.37
 30
0.0
 11
217.5
 21
29.37
 31
0.0
  0
CIRCLE
  5
67
330
2
100
AcDbEntity
  8
画層1
  6
DASHED2
 62
     0
100
AcDbCircle
 10
210.4999999999999
 20
29.25
 30
0.0
 40
5.5
  0
LINE
  5
68
330
2
100
AcDbEntity
  8
画層1
  6
DASHED2
 62
     0
100
AcDbLine
 10
195.5
 20
15.25
 30
0.0
 11
225.4999999999999
 21
15.25
 31
0.0
  0
LINE
  5
69
330
2
100
AcDbEntity
  8
画層1
  6
DIVIDE
 62
     0
100
AcDbLine
 10
360.4999999999999
 20
64.25
 30
0.0
 11
60.5
 21
64.25
 31
0.0
  0
LINE
  5
6A
330
2
100
AcDbEntity
  8
画層1
  6
CENTER
 62
     0
100
AcDbLine
 10
21.49999999999999
 20
249.75
 30
0.0
 11
399.5
 21
249.75
 31
0.0
  0
LINE
  5
6C
330
2
100
AcDbEntity
  8
画層1
  6
DASHED2
 62
     0
100
AcDbLine
 10
395.5
 20
15.75
 30
0.0
 11
25.5
 21
15.75
 31
0.0
  0
LINE
  5
6D
330
2
100
AcDbEntity
  8
画層1
  6
DASHED2
 62
     0
100
AcDbLine
 10
25.5
 20
483.75
 30
0.0
 11
395.5
 21
483.75
 31
0.0
  0
LINE
  5
6E
330
2
100
AcDbEntity
  8
画層1
 62
     0
100
AcDbLine
 10
395.5
 20
14.25
 30
0.0
 11
25.5
 21
14.25
 31
0.0
  0
LINE
  5
6F
330
2
100
AcDbEntity
  8
画層1
 62
     0
100
AcDbLine
 10
25.5
 20
485.25
 30
0.0
 11
395.5
 21
485.25
 31
0.0
  0
LINE
  5
70
330
2
100
AcDbEntity
  8
画層1
 62
     0
100
AcDbLine
 10
145.5
 20
269.75
 30
0.0
 11
145.5
 21
61.75
 31
0.0
  0
LINE
  5
71
330
2
100
AcDbEntity
  8
画層1
 62
     0
100
AcDbLine
 10
140.5
 20
254.2499999999999
 30
0.0
 11
140.5
 21
66.25
 31
0.0
  0
LINE
  5
72
330
2
100
AcDbEntity
  8
画層1
 62
     0
100
AcDbLine
 10
61.0
 20
155.01
 30
0.0
 11
61.0
 21
148.01
 31
0.0
  0
LINE
  5
73
330
2
100
AcDbEntity
  8
画層1
 62
     0
100
AcDbLine
 10
54.0
 20
148.01
 30
0.0
 11
54.0
 21
155.01
 31
0.0
  0
LINE
  5
74
330
2
100
AcDbEntity
  8
画層1
 62
     0
100
AcDbLine
 10
51.6
 20
149.21
 30
0.0
 11
51.6
 21
142.21
 31
0.0
  0
LINE
  5
75
330
2
100
AcDbEntity
  8
画層1
 62
     0
100
AcDbLine
 10
44.59999999999999
 20
142.21
 30
0.0
 11
44.59999999999999
 21
149.21
 31
0.0
  0
CIRCLE
  5
76
330
2
100
AcDbEntity
  8
画層1
 62
     0
100
AcDbCircle
 10
48.1
 20
145.71
 30
0.0
 40
3.0
  0
LINE
  5
77
330
2
100
AcDbEntity
  8
画層1
 62
     0
100
AcDbLine
 10
62.5
 20
128.2499999999999
 30
0.0
 11
62.5
 21
235.25
 31
0.0
  0
LINE
  5
78
330
2
100
AcDbEntity
  8
画層1
 62
     0
100
AcDbLine
 10
52.1
 20
234.25
 30
0.0
 11
52.1
 21
129.2499999999999
 31
0.0
  0
LINE
  5
79
330
2
100
AcDbEntity
  8
画層1
 62
     0
100
AcDbLine
 10
42.7
 20
234.25
 30
0.0
 11
42.7
 21
129.2499999999999
 31
0.0
  0
LINE
  5
7A
330
2
100
AcDbEntity
  8
画層1
 62
     0
100
AcDbLine
 10
38.5
 20
234.25
 30
0.0
 11
38.5
 21
129.2499999999999
 31
0.0
  0
LINE
  5
7B
330
2
100
AcDbEntity
  8
画層1
 62
     0
100
AcDbLine
 10
36.5
 20
234.25
 30
0.0
 11
36.5
 21
129.2499999999999
 31
0.0
  0
LINE
  5
7C
330
2
100
AcDbEntity
  8
画層1
 62
     0
100
AcDbLine
 10
61.5
 20
129.2499999999999
 30
0.0
 11
61.5
 21
234.25
 31
0.0
  0
LINE
  5
7D
330
2
100
AcDbEntity
  8
画層1
 62
     0
100
AcDbLine
 10
75.5
 20
66.25
 30
0.0
 11
75.5
 21
254.2499999999999
 31
0.0
  0
LINE
  5
7E
330
2
100
AcDbEntity
  8
画層1
 62
     0
100
AcDbLine
 10
78.5
 20
27.37
 30
0.0
 11
92.5
 21
27.37
 31
0.0
  0
LINE
  5
7F
330
2
100
AcDbEntity
  8
画層1
 62
     0
100
AcDbLine
 10
137.5
 20
63.25
 30
0.0
 11
78.5
 21
63.25
 31
0.0
  0
LINE
  5
80
330
2
100
AcDbEntity
  8
画層1
 62
     0
100
AcDbLine
 10
142.0
 20
58.25
 30
0.0
 11
44.0
 21
58.25
 31
0.0
  0
LINE
  5
81
330
2
100
AcDbEntity
  8
画層1
  6
DIVIDE
 62
     0
100
AcDbLine
 10
55.5
 20
59.25
 30
0.0
 11
55.5
 21
7.75
 31
0.0
  0
LINE
  5
82
330
2
100
AcDbEntity
  8
画層1
 62
     0
100
AcDbLine
 10
25.5
 20
14.75
 30
0.0
 11
25.5
 21
127.2499999999999
 31
0.0
  0
LINE
  5
83
330
2
100
AcDbEntity
  8
画層1
 62
     0
100
AcDbLine
 10
30.0
 20
49.25
 30
0.0
 11
29.0
 21
49.25
 31
0.0
  0
LINE
  5
84
330
2
100
AcDbEntity
  8
画層1
 62
     0
100
AcDbLine
 10
29.0
 20
50.25
 30
0.0
 11
30.0
 21
50.25
 31
0.0
  0
CIRCLE
  5
85
330
2
100
AcDbEntity
  8
画層1
 62
     0
100
AcDbCircle
 10
31.5
 20
49.75
 30
0.0
 40
3.5
  0
CIRCLE
  5
86
330
2
100
AcDbEntity
  8
画層1
 62
     0
100
AcDbCircle
 10
31.5
 20
49.75
 30
0.0
 40
5.0
  0
LINE
  5
87
330
2
100
AcDbEntity
  8
画層1
 62
     0
100
AcDbLine
 10
29.0
 20
49.25
 30
0.0
 11
29.0
 21
50.25
 31
0.0
  0
LINE
  5
88
330
2
100
AcDbEntity
  8
画層1
 62
     0
100
AcDbLine
 10
34.0
 20
50.25
 30
0.0
 11
34.0
 21
49.25
 31
0.0
  0
LINE
  5
89
330
2
100
AcDbEntity
  8
画層1
 62
     0
100
AcDbLine
 10
34.0
 20
49.25
 30
0.0
 11
33.0
 21
49.25
 31
0.0
  0
LINE
  5
8A
330
2
100
AcDbEntity
  8
画層1
 62
     0
100
AcDbLine
 10
32.0
 20
48.25
 30
0.0
 11
32.0
 21
47.25
 31
0.0
  0
LINE
  5
8B
330
2
100
AcDbEntity
  8
画層1
 62
     0
100
AcDbLine
 10
32.0
 20
47.25
 30
0.0
 11
31.0
 21
47.25
 31
0.0
  0
LINE
  5
8C
330
2
100
AcDbEntity
  8
画層1
 62
     0
100
AcDbLine
 10
31.0
 20
47.25
 30
0.0
 11
31.0
 21
48.25
 31
0.0
  0
ARC
  5
8D
330
2
100
AcDbEntity
  8
画層1
 62
     0
100
AcDbCircle
 10
30.0
 20
48.25
 30
0.0
 40
1.0
100
AcDbArc
 50
0.0
 51
90.0
  0
ARC
  5
8E
330
2
100
AcDbEntity
  8
画層1
 62
     0
100
AcDbCircle
 10
33.0
 20
48.25
 30
0.0
 40
1.0
100
AcDbArc
 50
90.0
 51
180.0
  0
LINE
  5
8F
330
2
100
AcDbEntity
  8
画層1
 62
     0
100
AcDbLine
 10
33.0
 20
50.25
 30
0.0
 11
34.0
 21
50.25
 31
0.0
  0
LINE
  5
90
330
2
100
AcDbEntity
  8
画層1
 62
     0
100
AcDbLine
 10
32.0
 20
52.25
 30
0.0
 11
32.0
 21
51.25
 31
0.0
  0
LINE
  5
91
330
2
100
AcDbEntity
  8
画層1
 62
     0
100
AcDbLine
 10
31.0
 20
51.25
 30
0.0
 11
31.0
 21
52.25
 31
0.0
  0
LINE
  5
92
330
2
100
AcDbEntity
  8
画層1
 62
     0
100
AcDbLine
 10
31.0
 20
52.25
 30
0.0
 11
32.0
 21
52.25
 31
0.0
  0
ARC
  5
93
330
2
100
AcDbEntity
  8
画層1
 62
     0
100
AcDbCircle
 10
33.0
 20
51.25
 30
0.0
 40
1.0
100
AcDbArc
 50
180.0
 51
270.0
  0
ARC
  5
94
330
2
100
AcDbEntity
  8
画層1
 62
     0
100
AcDbCircle
 10
30.0
 20
51.25
 30
0.0
 40
1.0
100
AcDbArc
 50
270.0
 51
0.0
  0
LINE
  5
95
330
2
100
AcDbEntity
  8
画層1
 62
     0
100
AcDbLine
 10
40.49999999999999
 20
61.75
 30
0.0
 11
40.49999999999999
 21
128.2499999999999
 31
0.0
  0
ARC
  5
96
330
2
100
AcDbEntity
  8
画層1
 62
     0
100
AcDbCircle
 10
44.0
 20
61.75
 30
0.0
 40
3.5
100
AcDbArc
 50
180.0
 51
270.0
  0
ARC
  5
97
330
2
100
AcDbEntity
  8
画層1
  6
DIVIDE
 62
     0
100
AcDbCircle
 10
60.5
 20
59.25
 30
0.0
 40
5.0
100
AcDbArc
 50
90.0
 51
180.0
  0
ARC
  5
98
330
2
100
AcDbEntity
  8
画層1
 62
     0
100
AcDbCircle
 10
78.5
 20
66.25
 30
0.0
 40
3.0
100
AcDbArc
 50
180.0
 51
270.0
  0
LINE
  5
99
330
2
100
AcDbEntity
  8
画層1
 62
     0
100
AcDbLine
 10
46.6
 20
145.21
 30
0.0
 11
45.14
 21
145.21
 31
0.0
  0
LINE
  5
9A
330
2
100
AcDbEntity
  8
画層1
 62
     0
100
AcDbLine
 10
45.14
 20
146.21
 30
0.0
 11
46.6
 21
146.21
 31
0.0
  0
LINE
  5
9B
330
2
100
AcDbEntity
  8
画層1
 62
     0
100
AcDbLine
 10
45.14
 20
136.81
 30
0.0
 11
46.6
 21
136.81
 31
0.0
  0
LINE
  5
9C
330
2
100
AcDbEntity
  8
画層1
 62
     0
100
AcDbLine
 10
46.6
 20
135.81
 30
0.0
 11
45.14
 21
135.81
 31
0.0
  0
LINE
  5
9D
330
2
100
AcDbEntity
  8
画層1
 62
     0
100
AcDbLine
 10
42.7
 20
140.31
 30
0.0
 11
52.1
 21
140.31
 31
0.0
  0
LINE
  5
9E
330
2
100
AcDbEntity
  8
画層1
 62
     0
100
AcDbLine
 10
42.7
 20
141.71
 30
0.0
 11
52.1
 21
141.71
 31
0.0
  0
LINE
  5
9F
330
2
100
AcDbEntity
  8
画層1
 62
     0
100
AcDbLine
 10
44.59999999999999
 20
139.81
 30
0.0
 11
51.6
 21
139.81
 31
0.0
  0
LINE
  5
A0
330
2
100
AcDbEntity
  8
画層1
 62
     0
100
AcDbLine
 10
51.6
 20
142.21
 30
0.0
 11
44.59999999999999
 21
142.21
 31
0.0
  0
CIRCLE
  5
A1
330
2
100
AcDbEntity
  8
画層1
 62
     0
100
AcDbCircle
 10
48.1
 20
136.3099999999999
 30
0.0
 40
3.0
  0
LINE
  5
A2
330
2
100
AcDbEntity
  8
画層1
 62
     0
100
AcDbLine
 10
42.7
 20
132.3099999999999
 30
0.0
 11
52.1
 21
132.3099999999999
 31
0.0
  0
LINE
  5
A3
330
2
100
AcDbEntity
  8
画層1
 62
     0
100
AcDbLine
 10
51.6
 20
132.81
 30
0.0
 11
44.59999999999999
 21
132.81
 31
0.0
  0
LINE
  5
A4
330
2
100
AcDbEntity
  8
画層1
 62
     0
100
AcDbLine
 10
40.49999999999999
 20
128.2499999999999
 30
0.0
 11
62.5
 21
128.2499999999999
 31
0.0
  0
LINE
  5
A5
330
2
100
AcDbEntity
  8
画層1
 62
     0
100
AcDbLine
 10
27.5
 20
129.2499999999999
 30
0.0
 11
61.5
 21
129.2499999999999
 31
0.0
  0
ARC
  5
A6
330
2
100
AcDbEntity
  8
画層1
 62
     0
100
AcDbCircle
 10
27.5
 20
127.2499999999999
 30
0.0
 40
2.0
100
AcDbArc
 50
90.0
 51
180.0
  0
LINE
  5
A7
330
2
100
AcDbEntity
  8
画層1
 62
     0
100
AcDbLine
 10
44.59999999999999
 20
132.81
 30
0.0
 11
44.59999999999999
 21
139.81
 31
0.0
  0
LINE
  5
A8
330
2
100
AcDbEntity
  8
画層1
 62
     0
100
AcDbLine
 10
51.6
 20
139.81
 30
0.0
 11
51.6
 21
132.81
 31
0.0
  0
ARC
  5
A9
330
2
100
AcDbEntity
  8
画層1
 62
     0
100
AcDbCircle
 10
46.6
 20
137.81
 30
0.0
 40
1.0
100
AcDbArc
 50
270.0
 51
0.0
  0
ARC
  5
AA
330
2
100
AcDbEntity
  8
画層1
 62
     0
100
AcDbCircle
 10
49.6
 20
137.81
 30
0.0
 40
1.0
100
AcDbArc
 50
180.0
 51
270.0
  0
LINE
  5
AB
330
2
100
AcDbEntity
  8
画層1
 62
     0
100
AcDbLine
 10
49.6
 20
136.81
 30
0.0
 11
51.06
 21
136.81
 31
0.0
  0
LINE
  5
AC
330
2
100
AcDbEntity
  8
画層1
 62
     0
100
AcDbLine
 10
51.06
 20
135.81
 30
0.0
 11
49.6
 21
135.81
 31
0.0
  0
LINE
  5
AD
330
2
100
AcDbEntity
  8
画層1
 62
     0
100
AcDbLine
 10
47.6
 20
134.5099999999999
 30
0.0
 11
48.6
 21
134.5099999999999
 31
0.0
  0
LINE
  5
AE
330
2
100
AcDbEntity
  8
画層1
 62
     0
100
AcDbLine
 10
48.6
 20
134.81
 30
0.0
 11
48.6
 21
134.5099999999999
 31
0.0
  0
LINE
  5
AF
330
2
100
AcDbEntity
  8
画層1
 62
     0
100
AcDbLine
 10
47.6
 20
134.5099999999999
 30
0.0
 11
47.6
 21
134.81
 31
0.0
  0
ARC
  5
B0
330
2
100
AcDbEntity
  8
画層1
 62
     0
100
AcDbCircle
 10
46.6
 20
134.81
 30
0.0
 40
1.0
100
AcDbArc
 50
0.0
 51
90.0
  0
ARC
  5
B1
330
2
100
AcDbEntity
  8
画層1
 62
     0
100
AcDbCircle
 10
49.6
 20
134.81
 30
0.0
 40
1.0
100
AcDbArc
 50
90.0
 51
180.0
  0
LINE
  5
B2
330
2
100
AcDbEntity
  8
画層1
 62
     0
100
AcDbLine
 10
54.0
 20
145.61
 30
0.0
 11
61.0
 21
145.61
 31
0.0
  0
LINE
  5
B3
330
2
100
AcDbEntity
  8
画層1
 62
     0
100
AcDbLine
 10
52.1
 20
147.5099999999999
 30
0.0
 11
61.5
 21
147.5099999999999
 31
0.0
  0
LINE
  5
B4
330
2
100
AcDbEntity
  8
画層1
 62
     0
100
AcDbLine
 10
52.1
 20
146.11
 30
0.0
 11
61.5
 21
146.11
 31
0.0
  0
LINE
  5
B5
330
2
100
AcDbEntity
  8
画層1
 62
     0
100
AcDbLine
 10
61.0
 20
148.01
 30
0.0
 11
54.0
 21
148.01
 31
0.0
  0
LINE
  5
B6
330
2
100
AcDbEntity
  8
画層1
 62
     0
100
AcDbLine
 10
52.1
 20
138.11
 30
0.0
 11
61.5
 21
138.11
 31
0.0
  0
LINE
  5
B7
330
2
100
AcDbEntity
  8
画層1
 62
     0
100
AcDbLine
 10
61.0
 20
138.61
 30
0.0
 11
54.0
 21
138.61
 31
0.0
  0
LINE
  5
B8
330
2
100
AcDbEntity
  8
画層1
 62
     0
100
AcDbLine
 10
54.0
 20
138.61
 30
0.0
 11
54.0
 21
145.61
 31
0.0
  0
LINE
  5
B9
330
2
100
AcDbEntity
  8
画層1
 62
     0
100
AcDbLine
 10
47.6
 20
138.11
 30
0.0
 11
48.6
 21
138.11
 31
0.0
  0
LINE
  5
BA
330
2
100
AcDbEntity
  8
画層1
 62
     0
100
AcDbLine
 10
47.6
 20
137.81
 30
0.0
 11
47.6
 21
138.11
 31
0.0
  0
LINE
  5
BB
330
2
100
AcDbEntity
  8
画層1
 62
     0
100
AcDbLine
 10
48.6
 20
138.11
 30
0.0
 11
48.6
 21
137.81
 31
0.0
  0
LINE
  5
BC
330
2
100
AcDbEntity
  8
画層1
 62
     0
100
AcDbLine
 10
51.06
 20
145.21
 30
0.0
 11
49.6
 21
145.21
 31
0.0
  0
LINE
  5
BD
330
2
100
AcDbEntity
  8
画層1
 62
     0
100
AcDbLine
 10
49.6
 20
146.21
 30
0.0
 11
51.06
 21
146.21
 31
0.0
  0
ARC
  5
BE
330
2
100
AcDbEntity
  8
画層1
 62
     0
100
AcDbCircle
 10
46.6
 20
147.21
 30
0.0
 40
1.0
100
AcDbArc
 50
270.0
 51
0.0
  0
LINE
  5
BF
330
2
100
AcDbEntity
  8
画層1
 62
     0
100
AcDbLine
 10
47.6
 20
143.91
 30
0.0
 11
48.6
 21
143.91
 31
0.0
  0
LINE
  5
C0
330
2
100
AcDbEntity
  8
画層1
 62
     0
100
AcDbLine
 10
48.6
 20
144.21
 30
0.0
 11
48.6
 21
143.91
 31
0.0
  0
LINE
  5
C1
330
2
100
AcDbEntity
  8
画層1
 62
     0
100
AcDbLine
 10
47.6
 20
143.91
 30
0.0
 11
47.6
 21
144.21
 31
0.0
  0
ARC
  5
C2
330
2
100
AcDbEntity
  8
画層1
 62
     0
100
AcDbCircle
 10
46.6
 20
144.21
 30
0.0
 40
1.0
100
AcDbArc
 50
0.0
 51
90.0
  0
LINE
  5
C3
330
2
100
AcDbEntity
  8
画層1
 62
     0
100
AcDbLine
 10
47.6
 20
147.5099999999999
 30
0.0
 11
48.6
 21
147.5099999999999
 31
0.0
  0
LINE
  5
C4
330
2
100
AcDbEntity
  8
画層1
 62
     0
100
AcDbLine
 10
47.6
 20
147.21
 30
0.0
 11
47.6
 21
147.5099999999999
 31
0.0
  0
LINE
  5
C5
330
2
100
AcDbEntity
  8
画層1
 62
     0
100
AcDbLine
 10
48.6
 20
147.5099999999999
 30
0.0
 11
48.6
 21
147.21
 31
0.0
  0
ARC
  5
C6
330
2
100
AcDbEntity
  8
画層1
 62
     0
100
AcDbCircle
 10
49.6
 20
147.21
 30
0.0
 40
1.0
100
AcDbArc
 50
180.0
 51
270.0
  0
ARC
  5
C7
330
2
100
AcDbEntity
  8
画層1
 62
     0
100
AcDbCircle
 10
49.6
 20
144.21
 30
0.0
 40
1.0
100
AcDbArc
 50
90.0
 51
180.0
  0
ARC
  5
C8
330
2
100
AcDbEntity
  8
画層1
 62
     0
100
AcDbCircle
 10
59.0
 20
143.61
 30
0.0
 40
1.0
100
AcDbArc
 50
180.0
 51
270.0
  0
ARC
  5
C9
330
2
100
AcDbEntity
  8
画層1
 62
     0
100
AcDbCircle
 10
56.0
 20
143.61
 30
0.0
 40
1.0
100
AcDbArc
 50
270.0
 51
0.0
  0
CIRCLE
  5
CA
330
2
100
AcDbEntity
  8
画層1
 62
     0
100
AcDbCircle
 10
57.5
 20
142.11
 30
0.0
 40
3.0
  0
LINE
  5
CB
330
2
100
AcDbEntity
  8
画層1
 62
     0
100
AcDbLine
 10
61.0
 20
145.61
 30
0.0
 11
61.0
 21
138.61
 31
0.0
  0
ARC
  5
CC
330
2
100
AcDbEntity
  8
画層1
 62
     0
100
AcDbCircle
 10
59.0
 20
140.61
 30
0.0
 40
1.0
100
AcDbArc
 50
90.0
 51
180.0
  0
LINE
  5
CD
330
2
100
AcDbEntity
  8
画層1
 62
     0
100
AcDbLine
 10
58.0
 20
140.61
 30
0.0
 11
58.0
 21
140.31
 31
0.0
  0
ARC
  5
CE
330
2
100
AcDbEntity
  8
画層1
 62
     0
100
AcDbCircle
 10
56.0
 20
140.61
 30
0.0
 40
1.0
100
AcDbArc
 50
0.0
 51
90.0
  0
LINE
  5
CF
330
2
100
AcDbEntity
  8
画層1
 62
     0
100
AcDbLine
 10
57.0
 20
140.31
 30
0.0
 11
57.0
 21
140.61
 31
0.0
  0
LINE
  5
D0
330
2
100
AcDbEntity
  8
画層1
 62
     0
100
AcDbLine
 10
56.0
 20
141.61
 30
0.0
 11
54.54
 21
141.61
 31
0.0
  0
LINE
  5
D1
330
2
100
AcDbEntity
  8
画層1
 62
     0
100
AcDbLine
 10
54.54
 20
142.61
 30
0.0
 11
56.0
 21
142.61
 31
0.0
  0
LINE
  5
D2
330
2
100
AcDbEntity
  8
画層1
 62
     0
100
AcDbLine
 10
57.0
 20
140.31
 30
0.0
 11
58.0
 21
140.31
 31
0.0
  0
LINE
  5
D3
330
2
100
AcDbEntity
  8
画層1
 62
     0
100
AcDbLine
 10
60.46
 20
141.61
 30
0.0
 11
59.0
 21
141.61
 31
0.0
  0
LINE
  5
D4
330
2
100
AcDbEntity
  8
画層1
 62
     0
100
AcDbLine
 10
59.0
 20
142.61
 30
0.0
 11
60.46
 21
142.61
 31
0.0
  0
LINE
  5
D5
330
2
100
AcDbEntity
  8
画層1
 62
     0
100
AcDbLine
 10
58.0
 20
143.91
 30
0.0
 11
58.0
 21
143.61
 31
0.0
  0
LINE
  5
D6
330
2
100
AcDbEntity
  8
画層1
 62
     0
100
AcDbLine
 10
57.0
 20
143.61
 30
0.0
 11
57.0
 21
143.91
 31
0.0
  0
LINE
  5
D7
330
2
100
AcDbEntity
  8
画層1
 62
     0
100
AcDbLine
 10
57.0
 20
143.91
 30
0.0
 11
58.0
 21
143.91
 31
0.0
  0
LINE
  5
D8
330
2
100
AcDbEntity
  8
画層1
  6
DASHED2
 62
     0
100
AcDbLine
 10
195.5
 20
64.25
 30
0.0
 11
195.5
 21
15.25
 31
0.0
  0
LINE
  5
D9
330
2
100
AcDbEntity
  8
画層1
  6
DASHED2
 62
     0
100
AcDbLine
 10
95.5
 20
64.25
 30
0.0
 11
95.5
 21
15.25
 31
0.0
  0
LINE
  5
DA
330
2
100
AcDbEntity
  8
画層1
  6
DASHED2
 62
     0
100
AcDbLine
 10
125.5
 20
15.25
 30
0.0
 11
125.5
 21
64.25
 31
0.0
  0
LINE
  5
DB
330
2
100
AcDbEntity
  8
画層1
 62
     0
100
AcDbLine
 10
103.4999999999999
 20
29.37
 30
0.0
 11
117.5
 21
29.37
 31
0.0
  0
CIRCLE
  5
DC
330
2
100
AcDbEntity
  8
画層1
  6
DASHED2
 62
     0
100
AcDbCircle
 10
110.4999999999999
 20
29.25
 30
0.0
 40
5.5
  0
LINE
  5
DD
330
2
100
AcDbEntity
  8
画層1
  6
DASHED2
 62
     0
100
AcDbLine
 10
95.5
 20
15.25
 30
0.0
 11
125.5
 21
15.25
 31
0.0
  0
LINE
  5
DE
330
2
100
AcDbEntity
  8
画層1
 62
     0
100
AcDbLine
 10
110.4999999999999
 20
36.37
 30
0.0
 11
110.4999999999999
 21
22.13
 31
0.0
  0
LINE
  5
DF
330
2
100
AcDbEntity
  8
画層1
 62
     0
100
AcDbLine
 10
85.5
 20
34.36999999999999
 30
0.0
 11
85.5
 21
20.12999999999999
 31
0.0
  0
CIRCLE
  5
E0
330
2
100
AcDbEntity
  8
画層1
  6
DASHED2
 62
     0
100
AcDbCircle
 10
85.5
 20
27.25
 30
0.0
 40
5.5
  0
MTEXT
  5
E1
330
2
100
AcDbEntity
  8
画層1
 62
     0
100
AcDbMText
 10
129.0
 20
25.12999999999999
 30
0.0
 40
5.0
 41
7.0
 71
     1
 72
     5
  1
Ｕ
  7
STYLE1
 73
     1
 44
1.0
1001
ACAD
1000
MTEXTBEGIN
1070
    73
1070
     1
1070
    44
1040
1.0
1070
    74
1070
     0
1000
MTEXTEND
1000
MTEXTBEGIN
1070
    73
1070
     1
1070
    44
1040
1.0
1070
    74
1070
     0
1000
MTEXTEND
  0
ARC
  5
E2
330
2
100
AcDbEntity
  8
画層1
 62
     0
100
AcDbCircle
 10
142.0
 20
61.75
 30
0.0
 40
3.5
100
AcDbArc
 50
270.0
 51
0.0
  0
ARC
  5
E3
330
2
100
AcDbEntity
  8
画層1
 62
     0
100
AcDbCircle
 10
137.5
 20
66.25
 30
0.0
 40
3.0
100
AcDbArc
 50
270.0
 51
0.0
  0
LINE
  5
E4
330
2
100
AcDbEntity
  8
画層1
  6
DIVIDE
 62
     0
100
AcDbLine
 10
55.5
 20
440.2499999999999
 30
0.0
 11
55.5
 21
520.2499999999999
 31
0.0
  0
LINE
  5
E5
330
2
100
AcDbEntity
  8
画層1
 62
     0
100
AcDbLine
 10
25.5
 20
236.25
 30
0.0
 11
25.5
 21
484.75
 31
0.0
  0
LINE
  5
E6
330
2
100
AcDbEntity
  8
画層1
 62
     0
100
AcDbLine
 10
78.5
 20
257.25
 30
0.0
 11
137.5
 21
257.25
 31
0.0
  0
LINE
  5
E7
330
2
100
AcDbEntity
  8
画層1
 62
     0
100
AcDbLine
 10
44.0
 20
273.2499999999999
 30
0.0
 11
142.0
 21
273.2499999999999
 31
0.0
  0
LINE
  5
E8
330
2
100
AcDbEntity
  8
画層1
 62
     0
100
AcDbLine
 10
40.49999999999999
 20
235.25
 30
0.0
 11
40.49999999999999
 21
269.75
 31
0.0
  0
LINE
  5
E9
330
2
100
AcDbEntity
  8
画層1
 62
     0
100
AcDbLine
 10
51.6
 20
196.21
 30
0.0
 11
51.6
 21
189.21
 31
0.0
  0
LINE
  5
EA
330
2
100
AcDbEntity
  8
画層1
 62
     0
100
AcDbLine
 10
44.59999999999999
 20
189.21
 30
0.0
 11
44.59999999999999
 21
196.21
 31
0.0
  0
CIRCLE
  5
EB
330
2
100
AcDbEntity
  8
画層1
 62
     0
100
AcDbCircle
 10
48.1
 20
192.71
 30
0.0
 40
3.0
  0
LINE
  5
EC
330
2
100
AcDbEntity
  8
画層1
 62
     0
100
AcDbLine
 10
46.6
 20
192.21
 30
0.0
 11
45.14
 21
192.21
 31
0.0
  0
LINE
  5
ED
330
2
100
AcDbEntity
  8
画層1
 62
     0
100
AcDbLine
 10
45.14
 20
193.21
 30
0.0
 11
46.6
 21
193.21
 31
0.0
  0
LINE
  5
EE
330
2
100
AcDbEntity
  8
画層1
 62
     0
100
AcDbLine
 10
45.14
 20
183.81
 30
0.0
 11
46.6
 21
183.81
 31
0.0
  0
LINE
  5
EF
330
2
100
AcDbEntity
  8
画層1
 62
     0
100
AcDbLine
 10
46.6
 20
182.81
 30
0.0
 11
45.14
 21
182.81
 31
0.0
  0
LINE
  5
F0
330
2
100
AcDbEntity
  8
画層1
 62
     0
100
AcDbLine
 10
45.14
 20
174.4099999999999
 30
0.0
 11
46.6
 21
174.4099999999999
 31
0.0
  0
LINE
  5
F1
330
2
100
AcDbEntity
  8
画層1
 62
     0
100
AcDbLine
 10
46.6
 20
173.4099999999999
 30
0.0
 11
45.14
 21
173.4099999999999
 31
0.0
  0
LINE
  5
F2
330
2
100
AcDbEntity
  8
画層1
 62
     0
100
AcDbLine
 10
42.7
 20
187.3099999999999
 30
0.0
 11
52.1
 21
187.3099999999999
 31
0.0
  0
LINE
  5
F3
330
2
100
AcDbEntity
  8
画層1
 62
     0
100
AcDbLine
 10
42.7
 20
188.71
 30
0.0
 11
52.1
 21
188.71
 31
0.0
  0
LINE
  5
F4
330
2
100
AcDbEntity
  8
画層1
 62
     0
100
AcDbLine
 10
44.59999999999999
 20
186.81
 30
0.0
 11
51.6
 21
186.81
 31
0.0
  0
LINE
  5
F5
330
2
100
AcDbEntity
  8
画層1
 62
     0
100
AcDbLine
 10
51.6
 20
189.21
 30
0.0
 11
44.59999999999999
 21
189.21
 31
0.0
  0
LINE
  5
F6
330
2
100
AcDbEntity
  8
画層1
 62
     0
100
AcDbLine
 10
42.7
 20
179.31
 30
0.0
 11
52.1
 21
179.31
 31
0.0
  0
LINE
  5
F7
330
2
100
AcDbEntity
  8
画層1
 62
     0
100
AcDbLine
 10
51.6
 20
179.8099999999999
 30
0.0
 11
44.59999999999999
 21
179.8099999999999
 31
0.0
  0
LINE
  5
F8
330
2
100
AcDbEntity
  8
画層1
 62
     0
100
AcDbLine
 10
42.7
 20
169.91
 30
0.0
 11
52.1
 21
169.91
 31
0.0
  0
LINE
  5
F9
330
2
100
AcDbEntity
  8
画層1
 62
     0
100
AcDbLine
 10
42.7
 20
177.9099999999999
 30
0.0
 11
52.1
 21
177.9099999999999
 31
0.0
  0
LINE
  5
FA
330
2
100
AcDbEntity
  8
画層1
 62
     0
100
AcDbLine
 10
42.7
 20
168.51
 30
0.0
 11
52.1
 21
168.51
 31
0.0
  0
LINE
  5
FB
330
2
100
AcDbEntity
  8
画層1
 62
     0
100
AcDbLine
 10
44.59999999999999
 20
177.4099999999999
 30
0.0
 11
51.6
 21
177.4099999999999
 31
0.0
  0
LINE
  5
FC
330
2
100
AcDbEntity
  8
画層1
 62
     0
100
AcDbLine
 10
51.6
 20
170.4099999999999
 30
0.0
 11
44.59999999999999
 21
170.4099999999999
 31
0.0
  0
CIRCLE
  5
FD
330
2
100
AcDbEntity
  8
画層1
 62
     0
100
AcDbCircle
 10
48.1
 20
173.91
 30
0.0
 40
3.0
  0
LINE
  5
FE
330
2
100
AcDbEntity
  8
画層1
 62
     0
100
AcDbLine
 10
44.59999999999999
 20
168.0099999999999
 30
0.0
 11
51.6
 21
168.0099999999999
 31
0.0
  0
CIRCLE
  5
FF
330
2
100
AcDbEntity
  8
画層1
 62
     0
100
AcDbCircle
 10
48.1
 20
183.3099999999999
 30
0.0
 40
3.0
  0
LINE
  5
100
330
2
100
AcDbEntity
  8
画層1
 62
     0
100
AcDbLine
 10
45.14
 20
165.0099999999999
 30
0.0
 11
46.6
 21
165.0099999999999
 31
0.0
  0
LINE
  5
101
330
2
100
AcDbEntity
  8
画層1
 62
     0
100
AcDbLine
 10
46.6
 20
164.0099999999999
 30
0.0
 11
45.14
 21
164.0099999999999
 31
0.0
  0
LINE
  5
102
330
2
100
AcDbEntity
  8
画層1
 62
     0
100
AcDbLine
 10
45.14
 20
155.61
 30
0.0
 11
46.6
 21
155.61
 31
0.0
  0
LINE
  5
103
330
2
100
AcDbEntity
  8
画層1
 62
     0
100
AcDbLine
 10
46.6
 20
154.61
 30
0.0
 11
45.14
 21
154.61
 31
0.0
  0
LINE
  5
104
330
2
100
AcDbEntity
  8
画層1
 62
     0
100
AcDbLine
 10
42.7
 20
159.11
 30
0.0
 11
52.1
 21
159.11
 31
0.0
  0
LINE
  5
105
330
2
100
AcDbEntity
  8
画層1
 62
     0
100
AcDbLine
 10
42.7
 20
160.51
 30
0.0
 11
52.1
 21
160.51
 31
0.0
  0
LINE
  5
106
330
2
100
AcDbEntity
  8
画層1
 62
     0
100
AcDbLine
 10
44.59999999999999
 20
158.61
 30
0.0
 11
51.6
 21
158.61
 31
0.0
  0
LINE
  5
107
330
2
100
AcDbEntity
  8
画層1
 62
     0
100
AcDbLine
 10
51.6
 20
161.0099999999999
 30
0.0
 11
44.59999999999999
 21
161.0099999999999
 31
0.0
  0
LINE
  5
108
330
2
100
AcDbEntity
  8
画層1
 62
     0
100
AcDbLine
 10
42.7
 20
149.71
 30
0.0
 11
52.1
 21
149.71
 31
0.0
  0
LINE
  5
109
330
2
100
AcDbEntity
  8
画層1
 62
     0
100
AcDbLine
 10
42.7
 20
151.11
 30
0.0
 11
52.1
 21
151.11
 31
0.0
  0
LINE
  5
10A
330
2
100
AcDbEntity
  8
画層1
 62
     0
100
AcDbLine
 10
44.59999999999999
 20
149.21
 30
0.0
 11
51.6
 21
149.21
 31
0.0
  0
LINE
  5
10B
330
2
100
AcDbEntity
  8
画層1
 62
     0
100
AcDbLine
 10
51.6
 20
151.61
 30
0.0
 11
44.59999999999999
 21
151.61
 31
0.0
  0
CIRCLE
  5
10C
330
2
100
AcDbEntity
  8
画層1
 62
     0
100
AcDbCircle
 10
48.1
 20
155.11
 30
0.0
 40
3.0
  0
CIRCLE
  5
10D
330
2
100
AcDbEntity
  8
画層1
 62
     0
100
AcDbCircle
 10
48.1
 20
164.51
 30
0.0
 40
3.0
  0
LINE
  5
10E
330
2
100
AcDbEntity
  8
画層1
 62
     0
100
AcDbLine
 10
44.59999999999999
 20
170.4099999999999
 30
0.0
 11
44.59999999999999
 21
177.4099999999999
 31
0.0
  0
LINE
  5
10F
330
2
100
AcDbEntity
  8
画層1
 62
     0
100
AcDbLine
 10
44.59999999999999
 20
151.61
 30
0.0
 11
44.59999999999999
 21
158.61
 31
0.0
  0
LINE
  5
110
330
2
100
AcDbEntity
  8
画層1
 62
     0
100
AcDbLine
 10
44.59999999999999
 20
161.0099999999999
 30
0.0
 11
44.59999999999999
 21
168.0099999999999
 31
0.0
  0
LINE
  5
111
330
2
100
AcDbEntity
  8
画層1
 62
     0
100
AcDbLine
 10
44.59999999999999
 20
179.8099999999999
 30
0.0
 11
44.59999999999999
 21
186.81
 31
0.0
  0
LINE
  5
112
330
2
100
AcDbEntity
  8
画層1
 62
     0
100
AcDbLine
 10
61.0
 20
173.81
 30
0.0
 11
61.0
 21
166.81
 31
0.0
  0
LINE
  5
113
330
2
100
AcDbEntity
  8
画層1
 62
     0
100
AcDbLine
 10
54.0
 20
166.81
 30
0.0
 11
54.0
 21
173.81
 31
0.0
  0
ARC
  5
114
330
2
100
AcDbEntity
  8
画層1
 62
     0
100
AcDbCircle
 10
56.0
 20
171.8099999999999
 30
0.0
 40
1.0
100
AcDbArc
 50
270.0
 51
0.0
  0
LINE
  5
115
330
2
100
AcDbEntity
  8
画層1
 62
     0
100
AcDbLine
 10
51.6
 20
177.4099999999999
 30
0.0
 11
51.6
 21
170.4099999999999
 31
0.0
  0
ARC
  5
116
330
2
100
AcDbEntity
  8
画層1
 62
     0
100
AcDbCircle
 10
59.0
 20
171.8099999999999
 30
0.0
 40
1.0
100
AcDbArc
 50
180.0
 51
270.0
  0
CIRCLE
  5
117
330
2
100
AcDbEntity
  8
画層1
 62
     0
100
AcDbCircle
 10
57.5
 20
170.31
 30
0.0
 40
3.0
  0
LINE
  5
118
330
2
100
AcDbEntity
  8
画層1
 62
     0
100
AcDbLine
 10
61.0
 20
164.4099999999999
 30
0.0
 11
61.0
 21
157.41
 31
0.0
  0
ARC
  5
119
330
2
100
AcDbEntity
  8
画層1
 62
     0
100
AcDbCircle
 10
56.0
 20
159.41
 30
0.0
 40
1.0
100
AcDbArc
 50
0.0
 51
90.0
  0
LINE
  5
11A
330
2
100
AcDbEntity
  8
画層1
 62
     0
100
AcDbLine
 10
54.0
 20
157.41
 30
0.0
 11
54.0
 21
164.4099999999999
 31
0.0
  0
ARC
  5
11B
330
2
100
AcDbEntity
  8
画層1
 62
     0
100
AcDbCircle
 10
59.0
 20
159.41
 30
0.0
 40
1.0
100
AcDbArc
 50
90.0
 51
180.0
  0
CIRCLE
  5
11C
330
2
100
AcDbEntity
  8
画層1
 62
     0
100
AcDbCircle
 10
57.5
 20
160.9099999999999
 30
0.0
 40
3.0
  0
LINE
  5
11D
330
2
100
AcDbEntity
  8
画層1
 62
     0
100
AcDbLine
 10
52.1
 20
156.9099999999999
 30
0.0
 11
61.5
 21
156.9099999999999
 31
0.0
  0
LINE
  5
11E
330
2
100
AcDbEntity
  8
画層1
 62
     0
100
AcDbLine
 10
52.1
 20
155.5099999999999
 30
0.0
 11
61.5
 21
155.5099999999999
 31
0.0
  0
LINE
  5
11F
330
2
100
AcDbEntity
  8
画層1
 62
     0
100
AcDbLine
 10
61.0
 20
157.41
 30
0.0
 11
54.0
 21
157.41
 31
0.0
  0
LINE
  5
120
330
2
100
AcDbEntity
  8
画層1
 62
     0
100
AcDbLine
 10
54.0
 20
155.01
 30
0.0
 11
61.0
 21
155.01
 31
0.0
  0
LINE
  5
121
330
2
100
AcDbEntity
  8
画層1
 62
     0
100
AcDbLine
 10
51.6
 20
158.61
 30
0.0
 11
51.6
 21
151.61
 31
0.0
  0
ARC
  5
122
330
2
100
AcDbEntity
  8
画層1
 62
     0
100
AcDbCircle
 10
46.6
 20
153.61
 30
0.0
 40
1.0
100
AcDbArc
 50
0.0
 51
90.0
  0
ARC
  5
123
330
2
100
AcDbEntity
  8
画層1
 62
     0
100
AcDbCircle
 10
49.6
 20
153.61
 30
0.0
 40
1.0
100
AcDbArc
 50
90.0
 51
180.0
  0
LINE
  5
124
330
2
100
AcDbEntity
  8
画層1
 62
     0
100
AcDbLine
 10
47.6
 20
153.31
 30
0.0
 11
48.6
 21
153.31
 31
0.0
  0
LINE
  5
125
330
2
100
AcDbEntity
  8
画層1
 62
     0
100
AcDbLine
 10
48.6
 20
153.61
 30
0.0
 11
48.6
 21
153.31
 31
0.0
  0
LINE
  5
126
330
2
100
AcDbEntity
  8
画層1
 62
     0
100
AcDbLine
 10
47.6
 20
153.31
 30
0.0
 11
47.6
 21
153.61
 31
0.0
  0
LINE
  5
127
330
2
100
AcDbEntity
  8
画層1
 62
     0
100
AcDbLine
 10
49.6
 20
155.61
 30
0.0
 11
51.06
 21
155.61
 31
0.0
  0
LINE
  5
128
330
2
100
AcDbEntity
  8
画層1
 62
     0
100
AcDbLine
 10
51.06
 20
154.61
 30
0.0
 11
49.6
 21
154.61
 31
0.0
  0
LINE
  5
129
330
2
100
AcDbEntity
  8
画層1
 62
     0
100
AcDbLine
 10
47.6
 20
156.9099999999999
 30
0.0
 11
48.6
 21
156.9099999999999
 31
0.0
  0
LINE
  5
12A
330
2
100
AcDbEntity
  8
画層1
 62
     0
100
AcDbLine
 10
47.6
 20
156.61
 30
0.0
 11
47.6
 21
156.9099999999999
 31
0.0
  0
LINE
  5
12B
330
2
100
AcDbEntity
  8
画層1
 62
     0
100
AcDbLine
 10
48.6
 20
156.9099999999999
 30
0.0
 11
48.6
 21
156.61
 31
0.0
  0
ARC
  5
12C
330
2
100
AcDbEntity
  8
画層1
 62
     0
100
AcDbCircle
 10
46.6
 20
156.61
 30
0.0
 40
1.0
100
AcDbArc
 50
270.0
 51
0.0
  0
ARC
  5
12D
330
2
100
AcDbEntity
  8
画層1
 62
     0
100
AcDbCircle
 10
49.6
 20
156.61
 30
0.0
 40
1.0
100
AcDbArc
 50
180.0
 51
270.0
  0
CIRCLE
  5
12E
330
2
100
AcDbEntity
  8
画層1
 62
     0
100
AcDbCircle
 10
57.5
 20
151.5099999999999
 30
0.0
 40
3.0
  0
ARC
  5
12F
330
2
100
AcDbEntity
  8
画層1
 62
     0
100
AcDbCircle
 10
59.0
 20
153.01
 30
0.0
 40
1.0
100
AcDbArc
 50
180.0
 51
270.0
  0
ARC
  5
130
330
2
100
AcDbEntity
  8
画層1
 62
     0
100
AcDbCircle
 10
59.0
 20
150.0099999999999
 30
0.0
 40
1.0
100
AcDbArc
 50
90.0
 51
180.0
  0
LINE
  5
131
330
2
100
AcDbEntity
  8
画層1
 62
     0
100
AcDbLine
 10
58.0
 20
153.31
 30
0.0
 11
58.0
 21
153.01
 31
0.0
  0
ARC
  5
132
330
2
100
AcDbEntity
  8
画層1
 62
     0
100
AcDbCircle
 10
56.0
 20
153.01
 30
0.0
 40
1.0
100
AcDbArc
 50
270.0
 51
0.0
  0
LINE
  5
133
330
2
100
AcDbEntity
  8
画層1
 62
     0
100
AcDbLine
 10
57.0
 20
153.01
 30
0.0
 11
57.0
 21
153.31
 31
0.0
  0
LINE
  5
134
330
2
100
AcDbEntity
  8
画層1
 62
     0
100
AcDbLine
 10
54.54
 20
152.01
 30
0.0
 11
56.0
 21
152.01
 31
0.0
  0
LINE
  5
135
330
2
100
AcDbEntity
  8
画層1
 62
     0
100
AcDbLine
 10
57.0
 20
153.31
 30
0.0
 11
58.0
 21
153.31
 31
0.0
  0
LINE
  5
136
330
2
100
AcDbEntity
  8
画層1
 62
     0
100
AcDbLine
 10
58.0
 20
150.0099999999999
 30
0.0
 11
58.0
 21
149.71
 31
0.0
  0
LINE
  5
137
330
2
100
AcDbEntity
  8
画層1
 62
     0
100
AcDbLine
 10
57.0
 20
149.71
 30
0.0
 11
57.0
 21
150.0099999999999
 31
0.0
  0
LINE
  5
138
330
2
100
AcDbEntity
  8
画層1
 62
     0
100
AcDbLine
 10
56.0
 20
151.0099999999999
 30
0.0
 11
54.54
 21
151.0099999999999
 31
0.0
  0
LINE
  5
139
330
2
100
AcDbEntity
  8
画層1
 62
     0
100
AcDbLine
 10
57.0
 20
149.71
 30
0.0
 11
58.0
 21
149.71
 31
0.0
  0
ARC
  5
13A
330
2
100
AcDbEntity
  8
画層1
 62
     0
100
AcDbCircle
 10
56.0
 20
150.0099999999999
 30
0.0
 40
1.0
100
AcDbArc
 50
0.0
 51
90.0
  0
LINE
  5
13B
330
2
100
AcDbEntity
  8
画層1
 62
     0
100
AcDbLine
 10
59.0
 20
152.01
 30
0.0
 11
60.46
 21
152.01
 31
0.0
  0
LINE
  5
13C
330
2
100
AcDbEntity
  8
画層1
 62
     0
100
AcDbLine
 10
60.46
 20
151.0099999999999
 30
0.0
 11
59.0
 21
151.0099999999999
 31
0.0
  0
LINE
  5
13D
330
2
100
AcDbEntity
  8
画層1
 62
     0
100
AcDbLine
 10
58.0
 20
159.41
 30
0.0
 11
58.0
 21
159.11
 31
0.0
  0
LINE
  5
13E
330
2
100
AcDbEntity
  8
画層1
 62
     0
100
AcDbLine
 10
57.0
 20
159.11
 30
0.0
 11
57.0
 21
159.41
 31
0.0
  0
LINE
  5
13F
330
2
100
AcDbEntity
  8
画層1
 62
     0
100
AcDbLine
 10
57.0
 20
159.11
 30
0.0
 11
58.0
 21
159.11
 31
0.0
  0
LINE
  5
140
330
2
100
AcDbEntity
  8
画層1
 62
     0
100
AcDbLine
 10
61.0
 20
166.81
 30
0.0
 11
54.0
 21
166.81
 31
0.0
  0
LINE
  5
141
330
2
100
AcDbEntity
  8
画層1
 62
     0
100
AcDbLine
 10
52.1
 20
166.31
 30
0.0
 11
61.5
 21
166.31
 31
0.0
  0
LINE
  5
142
330
2
100
AcDbEntity
  8
画層1
 62
     0
100
AcDbLine
 10
52.1
 20
164.9099999999999
 30
0.0
 11
61.5
 21
164.9099999999999
 31
0.0
  0
LINE
  5
143
330
2
100
AcDbEntity
  8
画層1
 62
     0
100
AcDbLine
 10
54.0
 20
164.4099999999999
 30
0.0
 11
61.0
 21
164.4099999999999
 31
0.0
  0
ARC
  5
144
330
2
100
AcDbEntity
  8
画層1
 62
     0
100
AcDbCircle
 10
46.6
 20
166.0099999999999
 30
0.0
 40
1.0
100
AcDbArc
 50
270.0
 51
0.0
  0
ARC
  5
145
330
2
100
AcDbEntity
  8
画層1
 62
     0
100
AcDbCircle
 10
49.6
 20
166.0099999999999
 30
0.0
 40
1.0
100
AcDbArc
 50
180.0
 51
270.0
  0
LINE
  5
146
330
2
100
AcDbEntity
  8
画層1
 62
     0
100
AcDbLine
 10
51.6
 20
168.0099999999999
 30
0.0
 11
51.6
 21
161.0099999999999
 31
0.0
  0
LINE
  5
147
330
2
100
AcDbEntity
  8
画層1
 62
     0
100
AcDbLine
 10
49.6
 20
165.0099999999999
 30
0.0
 11
51.06
 21
165.0099999999999
 31
0.0
  0
LINE
  5
148
330
2
100
AcDbEntity
  8
画層1
 62
     0
100
AcDbLine
 10
51.06
 20
164.0099999999999
 30
0.0
 11
49.6
 21
164.0099999999999
 31
0.0
  0
LINE
  5
149
330
2
100
AcDbEntity
  8
画層1
 62
     0
100
AcDbLine
 10
47.6
 20
162.71
 30
0.0
 11
48.6
 21
162.71
 31
0.0
  0
LINE
  5
14A
330
2
100
AcDbEntity
  8
画層1
 62
     0
100
AcDbLine
 10
48.6
 20
163.0099999999999
 30
0.0
 11
48.6
 21
162.71
 31
0.0
  0
LINE
  5
14B
330
2
100
AcDbEntity
  8
画層1
 62
     0
100
AcDbLine
 10
47.6
 20
162.71
 30
0.0
 11
47.6
 21
163.0099999999999
 31
0.0
  0
ARC
  5
14C
330
2
100
AcDbEntity
  8
画層1
 62
     0
100
AcDbCircle
 10
46.6
 20
163.0099999999999
 30
0.0
 40
1.0
100
AcDbArc
 50
0.0
 51
90.0
  0
ARC
  5
14D
330
2
100
AcDbEntity
  8
画層1
 62
     0
100
AcDbCircle
 10
49.6
 20
163.0099999999999
 30
0.0
 40
1.0
100
AcDbArc
 50
90.0
 51
180.0
  0
LINE
  5
14E
330
2
100
AcDbEntity
  8
画層1
 62
     0
100
AcDbLine
 10
47.6
 20
166.31
 30
0.0
 11
48.6
 21
166.31
 31
0.0
  0
LINE
  5
14F
330
2
100
AcDbEntity
  8
画層1
 62
     0
100
AcDbLine
 10
47.6
 20
166.0099999999999
 30
0.0
 11
47.6
 21
166.31
 31
0.0
  0
LINE
  5
150
330
2
100
AcDbEntity
  8
画層1
 62
     0
100
AcDbLine
 10
48.6
 20
166.31
 30
0.0
 11
48.6
 21
166.0099999999999
 31
0.0
  0
ARC
  5
151
330
2
100
AcDbEntity
  8
画層1
 62
     0
100
AcDbCircle
 10
59.0
 20
162.41
 30
0.0
 40
1.0
100
AcDbArc
 50
180.0
 51
270.0
  0
LINE
  5
152
330
2
100
AcDbEntity
  8
画層1
 62
     0
100
AcDbLine
 10
57.0
 20
162.71
 30
0.0
 11
58.0
 21
162.71
 31
0.0
  0
ARC
  5
153
330
2
100
AcDbEntity
  8
画層1
 62
     0
100
AcDbCircle
 10
56.0
 20
162.41
 30
0.0
 40
1.0
100
AcDbArc
 50
270.0
 51
0.0
  0
LINE
  5
154
330
2
100
AcDbEntity
  8
画層1
 62
     0
100
AcDbLine
 10
56.0
 20
160.41
 30
0.0
 11
54.54
 21
160.41
 31
0.0
  0
LINE
  5
155
330
2
100
AcDbEntity
  8
画層1
 62
     0
100
AcDbLine
 10
54.54
 20
161.41
 30
0.0
 11
56.0
 21
161.41
 31
0.0
  0
LINE
  5
156
330
2
100
AcDbEntity
  8
画層1
 62
     0
100
AcDbLine
 10
57.0
 20
162.41
 30
0.0
 11
57.0
 21
162.71
 31
0.0
  0
LINE
  5
157
330
2
100
AcDbEntity
  8
画層1
 62
     0
100
AcDbLine
 10
58.0
 20
162.71
 30
0.0
 11
58.0
 21
162.41
 31
0.0
  0
LINE
  5
158
330
2
100
AcDbEntity
  8
画層1
 62
     0
100
AcDbLine
 10
60.46
 20
160.41
 30
0.0
 11
59.0
 21
160.41
 31
0.0
  0
LINE
  5
159
330
2
100
AcDbEntity
  8
画層1
 62
     0
100
AcDbLine
 10
59.0
 20
161.41
 30
0.0
 11
60.46
 21
161.41
 31
0.0
  0
ARC
  5
15A
330
2
100
AcDbEntity
  8
画層1
 62
     0
100
AcDbCircle
 10
59.0
 20
168.81
 30
0.0
 40
1.0
100
AcDbArc
 50
90.0
 51
180.0
  0
LINE
  5
15B
330
2
100
AcDbEntity
  8
画層1
 62
     0
100
AcDbLine
 10
58.0
 20
168.81
 30
0.0
 11
58.0
 21
168.51
 31
0.0
  0
ARC
  5
15C
330
2
100
AcDbEntity
  8
画層1
 62
     0
100
AcDbCircle
 10
56.0
 20
168.81
 30
0.0
 40
1.0
100
AcDbArc
 50
0.0
 51
90.0
  0
LINE
  5
15D
330
2
100
AcDbEntity
  8
画層1
 62
     0
100
AcDbLine
 10
57.0
 20
168.51
 30
0.0
 11
57.0
 21
168.81
 31
0.0
  0
LINE
  5
15E
330
2
100
AcDbEntity
  8
画層1
 62
     0
100
AcDbLine
 10
56.0
 20
169.81
 30
0.0
 11
54.54
 21
169.81
 31
0.0
  0
LINE
  5
15F
330
2
100
AcDbEntity
  8
画層1
 62
     0
100
AcDbLine
 10
54.54
 20
170.8099999999999
 30
0.0
 11
56.0
 21
170.8099999999999
 31
0.0
  0
LINE
  5
160
330
2
100
AcDbEntity
  8
画層1
 62
     0
100
AcDbLine
 10
57.0
 20
168.51
 30
0.0
 11
58.0
 21
168.51
 31
0.0
  0
LINE
  5
161
330
2
100
AcDbEntity
  8
画層1
 62
     0
100
AcDbLine
 10
60.46
 20
169.81
 30
0.0
 11
59.0
 21
169.81
 31
0.0
  0
LINE
  5
162
330
2
100
AcDbEntity
  8
画層1
 62
     0
100
AcDbLine
 10
59.0
 20
170.8099999999999
 30
0.0
 11
60.46
 21
170.8099999999999
 31
0.0
  0
LINE
  5
163
330
2
100
AcDbEntity
  8
画層1
 62
     0
100
AcDbLine
 10
51.6
 20
186.81
 30
0.0
 11
51.6
 21
179.8099999999999
 31
0.0
  0
LINE
  5
164
330
2
100
AcDbEntity
  8
画層1
 62
     0
100
AcDbLine
 10
54.0
 20
183.21
 30
0.0
 11
61.0
 21
183.21
 31
0.0
  0
LINE
  5
165
330
2
100
AcDbEntity
  8
画層1
 62
     0
100
AcDbLine
 10
52.1
 20
175.71
 30
0.0
 11
61.5
 21
175.71
 31
0.0
  0
LINE
  5
166
330
2
100
AcDbEntity
  8
画層1
 62
     0
100
AcDbLine
 10
52.1
 20
174.31
 30
0.0
 11
61.5
 21
174.31
 31
0.0
  0
LINE
  5
167
330
2
100
AcDbEntity
  8
画層1
 62
     0
100
AcDbLine
 10
61.0
 20
176.21
 30
0.0
 11
54.0
 21
176.21
 31
0.0
  0
LINE
  5
168
330
2
100
AcDbEntity
  8
画層1
 62
     0
100
AcDbLine
 10
54.0
 20
173.81
 30
0.0
 11
61.0
 21
173.81
 31
0.0
  0
LINE
  5
169
330
2
100
AcDbEntity
  8
画層1
 62
     0
100
AcDbLine
 10
54.0
 20
176.21
 30
0.0
 11
54.0
 21
183.21
 31
0.0
  0
LINE
  5
16A
330
2
100
AcDbEntity
  8
画層1
 62
     0
100
AcDbLine
 10
49.6
 20
174.4099999999999
 30
0.0
 11
51.06
 21
174.4099999999999
 31
0.0
  0
LINE
  5
16B
330
2
100
AcDbEntity
  8
画層1
 62
     0
100
AcDbLine
 10
51.06
 20
173.4099999999999
 30
0.0
 11
49.6
 21
173.4099999999999
 31
0.0
  0
LINE
  5
16C
330
2
100
AcDbEntity
  8
画層1
 62
     0
100
AcDbLine
 10
47.6
 20
175.71
 30
0.0
 11
48.6
 21
175.71
 31
0.0
  0
LINE
  5
16D
330
2
100
AcDbEntity
  8
画層1
 62
     0
100
AcDbLine
 10
47.6
 20
175.41
 30
0.0
 11
47.6
 21
175.71
 31
0.0
  0
LINE
  5
16E
330
2
100
AcDbEntity
  8
画層1
 62
     0
100
AcDbLine
 10
48.6
 20
175.71
 30
0.0
 11
48.6
 21
175.41
 31
0.0
  0
LINE
  5
16F
330
2
100
AcDbEntity
  8
画層1
 62
     0
100
AcDbLine
 10
47.6
 20
172.11
 30
0.0
 11
48.6
 21
172.11
 31
0.0
  0
LINE
  5
170
330
2
100
AcDbEntity
  8
画層1
 62
     0
100
AcDbLine
 10
48.6
 20
172.4099999999999
 30
0.0
 11
48.6
 21
172.11
 31
0.0
  0
LINE
  5
171
330
2
100
AcDbEntity
  8
画層1
 62
     0
100
AcDbLine
 10
47.6
 20
172.11
 30
0.0
 11
47.6
 21
172.4099999999999
 31
0.0
  0
ARC
  5
172
330
2
100
AcDbEntity
  8
画層1
 62
     0
100
AcDbCircle
 10
46.6
 20
172.4099999999999
 30
0.0
 40
1.0
100
AcDbArc
 50
0.0
 51
90.0
  0
ARC
  5
173
330
2
100
AcDbEntity
  8
画層1
 62
     0
100
AcDbCircle
 10
46.6
 20
175.41
 30
0.0
 40
1.0
100
AcDbArc
 50
270.0
 51
0.0
  0
ARC
  5
174
330
2
100
AcDbEntity
  8
画層1
 62
     0
100
AcDbCircle
 10
49.6
 20
175.41
 30
0.0
 40
1.0
100
AcDbArc
 50
180.0
 51
270.0
  0
ARC
  5
175
330
2
100
AcDbEntity
  8
画層1
 62
     0
100
AcDbCircle
 10
49.6
 20
172.4099999999999
 30
0.0
 40
1.0
100
AcDbArc
 50
90.0
 51
180.0
  0
LINE
  5
176
330
2
100
AcDbEntity
  8
画層1
 62
     0
100
AcDbLine
 10
51.06
 20
182.81
 30
0.0
 11
49.6
 21
182.81
 31
0.0
  0
LINE
  5
177
330
2
100
AcDbEntity
  8
画層1
 62
     0
100
AcDbLine
 10
48.6
 20
181.81
 30
0.0
 11
48.6
 21
181.5099999999999
 31
0.0
  0
LINE
  5
178
330
2
100
AcDbEntity
  8
画層1
 62
     0
100
AcDbLine
 10
47.6
 20
181.5099999999999
 30
0.0
 11
47.6
 21
181.81
 31
0.0
  0
LINE
  5
179
330
2
100
AcDbEntity
  8
画層1
 62
     0
100
AcDbLine
 10
47.6
 20
181.5099999999999
 30
0.0
 11
48.6
 21
181.5099999999999
 31
0.0
  0
ARC
  5
17A
330
2
100
AcDbEntity
  8
画層1
 62
     0
100
AcDbCircle
 10
46.6
 20
181.81
 30
0.0
 40
1.0
100
AcDbArc
 50
0.0
 51
90.0
  0
ARC
  5
17B
330
2
100
AcDbEntity
  8
画層1
 62
     0
100
AcDbCircle
 10
49.6
 20
181.81
 30
0.0
 40
1.0
100
AcDbArc
 50
90.0
 51
180.0
  0
LINE
  5
17C
330
2
100
AcDbEntity
  8
画層1
 62
     0
100
AcDbLine
 10
61.0
 20
183.21
 30
0.0
 11
61.0
 21
176.21
 31
0.0
  0
CIRCLE
  5
17D
330
2
100
AcDbEntity
  8
画層1
 62
     0
100
AcDbCircle
 10
57.5
 20
179.71
 30
0.0
 40
3.0
  0
LINE
  5
17E
330
2
100
AcDbEntity
  8
画層1
 62
     0
100
AcDbLine
 10
58.0
 20
172.11
 30
0.0
 11
58.0
 21
171.8099999999999
 31
0.0
  0
LINE
  5
17F
330
2
100
AcDbEntity
  8
画層1
 62
     0
100
AcDbLine
 10
57.0
 20
171.8099999999999
 30
0.0
 11
57.0
 21
172.11
 31
0.0
  0
LINE
  5
180
330
2
100
AcDbEntity
  8
画層1
 62
     0
100
AcDbLine
 10
57.0
 20
172.11
 30
0.0
 11
58.0
 21
172.11
 31
0.0
  0
ARC
  5
181
330
2
100
AcDbEntity
  8
画層1
 62
     0
100
AcDbCircle
 10
59.0
 20
181.21
 30
0.0
 40
1.0
100
AcDbArc
 50
180.0
 51
270.0
  0
ARC
  5
182
330
2
100
AcDbEntity
  8
画層1
 62
     0
100
AcDbCircle
 10
59.0
 20
178.2099999999999
 30
0.0
 40
1.0
100
AcDbArc
 50
90.0
 51
180.0
  0
LINE
  5
183
330
2
100
AcDbEntity
  8
画層1
 62
     0
100
AcDbLine
 10
58.0
 20
181.5099999999999
 30
0.0
 11
58.0
 21
181.21
 31
0.0
  0
ARC
  5
184
330
2
100
AcDbEntity
  8
画層1
 62
     0
100
AcDbCircle
 10
56.0
 20
181.21
 30
0.0
 40
1.0
100
AcDbArc
 50
270.0
 51
0.0
  0
LINE
  5
185
330
2
100
AcDbEntity
  8
画層1
 62
     0
100
AcDbLine
 10
54.54
 20
180.21
 30
0.0
 11
56.0
 21
180.21
 31
0.0
  0
LINE
  5
186
330
2
100
AcDbEntity
  8
画層1
 62
     0
100
AcDbLine
 10
56.0
 20
179.21
 30
0.0
 11
54.54
 21
179.21
 31
0.0
  0
LINE
  5
187
330
2
100
AcDbEntity
  8
画層1
 62
     0
100
AcDbLine
 10
57.0
 20
181.21
 30
0.0
 11
57.0
 21
181.5099999999999
 31
0.0
  0
LINE
  5
188
330
2
100
AcDbEntity
  8
画層1
 62
     0
100
AcDbLine
 10
57.0
 20
181.5099999999999
 30
0.0
 11
58.0
 21
181.5099999999999
 31
0.0
  0
LINE
  5
189
330
2
100
AcDbEntity
  8
画層1
 62
     0
100
AcDbLine
 10
58.0
 20
178.2099999999999
 30
0.0
 11
58.0
 21
177.9099999999999
 31
0.0
  0
LINE
  5
18A
330
2
100
AcDbEntity
  8
画層1
 62
     0
100
AcDbLine
 10
57.0
 20
177.9099999999999
 30
0.0
 11
57.0
 21
178.2099999999999
 31
0.0
  0
LINE
  5
18B
330
2
100
AcDbEntity
  8
画層1
 62
     0
100
AcDbLine
 10
57.0
 20
177.9099999999999
 30
0.0
 11
58.0
 21
177.9099999999999
 31
0.0
  0
ARC
  5
18C
330
2
100
AcDbEntity
  8
画層1
 62
     0
100
AcDbCircle
 10
56.0
 20
178.2099999999999
 30
0.0
 40
1.0
100
AcDbArc
 50
0.0
 51
90.0
  0
LINE
  5
18D
330
2
100
AcDbEntity
  8
画層1
 62
     0
100
AcDbLine
 10
59.0
 20
180.21
 30
0.0
 11
60.46
 21
180.21
 31
0.0
  0
LINE
  5
18E
330
2
100
AcDbEntity
  8
画層1
 62
     0
100
AcDbLine
 10
60.46
 20
179.21
 30
0.0
 11
59.0
 21
179.21
 31
0.0
  0
LINE
  5
18F
330
2
100
AcDbEntity
  8
画層1
 62
     0
100
AcDbLine
 10
52.1
 20
194.51
 30
0.0
 11
61.5
 21
194.51
 31
0.0
  0
LINE
  5
190
330
2
100
AcDbEntity
  8
画層1
 62
     0
100
AcDbLine
 10
52.1
 20
193.11
 30
0.0
 11
61.5
 21
193.11
 31
0.0
  0
LINE
  5
191
330
2
100
AcDbEntity
  8
画層1
 62
     0
100
AcDbLine
 10
54.0
 20
192.61
 30
0.0
 11
61.0
 21
192.61
 31
0.0
  0
LINE
  5
192
330
2
100
AcDbEntity
  8
画層1
 62
     0
100
AcDbLine
 10
52.1
 20
185.11
 30
0.0
 11
61.5
 21
185.11
 31
0.0
  0
LINE
  5
193
330
2
100
AcDbEntity
  8
画層1
 62
     0
100
AcDbLine
 10
52.1
 20
183.71
 30
0.0
 11
61.5
 21
183.71
 31
0.0
  0
LINE
  5
194
330
2
100
AcDbEntity
  8
画層1
 62
     0
100
AcDbLine
 10
61.0
 20
185.6099999999999
 30
0.0
 11
54.0
 21
185.6099999999999
 31
0.0
  0
LINE
  5
195
330
2
100
AcDbEntity
  8
画層1
 62
     0
100
AcDbLine
 10
54.0
 20
185.6099999999999
 30
0.0
 11
54.0
 21
192.61
 31
0.0
  0
LINE
  5
196
330
2
100
AcDbEntity
  8
画層1
 62
     0
100
AcDbLine
 10
49.6
 20
183.81
 30
0.0
 11
51.06
 21
183.81
 31
0.0
  0
LINE
  5
197
330
2
100
AcDbEntity
  8
画層1
 62
     0
100
AcDbLine
 10
47.6
 20
185.11
 30
0.0
 11
48.6
 21
185.11
 31
0.0
  0
LINE
  5
198
330
2
100
AcDbEntity
  8
画層1
 62
     0
100
AcDbLine
 10
47.6
 20
184.81
 30
0.0
 11
47.6
 21
185.11
 31
0.0
  0
LINE
  5
199
330
2
100
AcDbEntity
  8
画層1
 62
     0
100
AcDbLine
 10
48.6
 20
185.11
 30
0.0
 11
48.6
 21
184.81
 31
0.0
  0
ARC
  5
19A
330
2
100
AcDbEntity
  8
画層1
 62
     0
100
AcDbCircle
 10
46.6
 20
184.81
 30
0.0
 40
1.0
100
AcDbArc
 50
270.0
 51
0.0
  0
ARC
  5
19B
330
2
100
AcDbEntity
  8
画層1
 62
     0
100
AcDbCircle
 10
49.6
 20
184.81
 30
0.0
 40
1.0
100
AcDbArc
 50
180.0
 51
270.0
  0
LINE
  5
19C
330
2
100
AcDbEntity
  8
画層1
 62
     0
100
AcDbLine
 10
51.06
 20
192.21
 30
0.0
 11
49.6
 21
192.21
 31
0.0
  0
LINE
  5
19D
330
2
100
AcDbEntity
  8
画層1
 62
     0
100
AcDbLine
 10
49.6
 20
193.21
 30
0.0
 11
51.06
 21
193.21
 31
0.0
  0
LINE
  5
19E
330
2
100
AcDbEntity
  8
画層1
 62
     0
100
AcDbLine
 10
47.6
 20
190.91
 30
0.0
 11
48.6
 21
190.91
 31
0.0
  0
LINE
  5
19F
330
2
100
AcDbEntity
  8
画層1
 62
     0
100
AcDbLine
 10
48.6
 20
191.21
 30
0.0
 11
48.6
 21
190.91
 31
0.0
  0
LINE
  5
1A0
330
2
100
AcDbEntity
  8
画層1
 62
     0
100
AcDbLine
 10
47.6
 20
190.91
 30
0.0
 11
47.6
 21
191.21
 31
0.0
  0
ARC
  5
1A1
330
2
100
AcDbEntity
  8
画層1
 62
     0
100
AcDbCircle
 10
46.6
 20
191.21
 30
0.0
 40
1.0
100
AcDbArc
 50
0.0
 51
90.0
  0
LINE
  5
1A2
330
2
100
AcDbEntity
  8
画層1
 62
     0
100
AcDbLine
 10
47.6
 20
194.51
 30
0.0
 11
48.6
 21
194.51
 31
0.0
  0
LINE
  5
1A3
330
2
100
AcDbEntity
  8
画層1
 62
     0
100
AcDbLine
 10
47.6
 20
194.21
 30
0.0
 11
47.6
 21
194.51
 31
0.0
  0
LINE
  5
1A4
330
2
100
AcDbEntity
  8
画層1
 62
     0
100
AcDbLine
 10
48.6
 20
194.51
 30
0.0
 11
48.6
 21
194.21
 31
0.0
  0
ARC
  5
1A5
330
2
100
AcDbEntity
  8
画層1
 62
     0
100
AcDbCircle
 10
46.6
 20
194.21
 30
0.0
 40
1.0
100
AcDbArc
 50
270.0
 51
0.0
  0
ARC
  5
1A6
330
2
100
AcDbEntity
  8
画層1
 62
     0
100
AcDbCircle
 10
49.6
 20
194.21
 30
0.0
 40
1.0
100
AcDbArc
 50
180.0
 51
270.0
  0
ARC
  5
1A7
330
2
100
AcDbEntity
  8
画層1
 62
     0
100
AcDbCircle
 10
49.6
 20
191.21
 30
0.0
 40
1.0
100
AcDbArc
 50
90.0
 51
180.0
  0
CIRCLE
  5
1A8
330
2
100
AcDbEntity
  8
画層1
 62
     0
100
AcDbCircle
 10
57.5
 20
189.11
 30
0.0
 40
3.0
  0
LINE
  5
1A9
330
2
100
AcDbEntity
  8
画層1
 62
     0
100
AcDbLine
 10
61.0
 20
192.61
 30
0.0
 11
61.0
 21
185.6099999999999
 31
0.0
  0
ARC
  5
1AA
330
2
100
AcDbEntity
  8
画層1
 62
     0
100
AcDbCircle
 10
59.0
 20
187.61
 30
0.0
 40
1.0
100
AcDbArc
 50
90.0
 51
180.0
  0
LINE
  5
1AB
330
2
100
AcDbEntity
  8
画層1
 62
     0
100
AcDbLine
 10
58.0
 20
187.61
 30
0.0
 11
58.0
 21
187.3099999999999
 31
0.0
  0
ARC
  5
1AC
330
2
100
AcDbEntity
  8
画層1
 62
     0
100
AcDbCircle
 10
56.0
 20
187.61
 30
0.0
 40
1.0
100
AcDbArc
 50
0.0
 51
90.0
  0
LINE
  5
1AD
330
2
100
AcDbEntity
  8
画層1
 62
     0
100
AcDbLine
 10
57.0
 20
187.3099999999999
 30
0.0
 11
57.0
 21
187.61
 31
0.0
  0
LINE
  5
1AE
330
2
100
AcDbEntity
  8
画層1
 62
     0
100
AcDbLine
 10
56.0
 20
188.61
 30
0.0
 11
54.54
 21
188.61
 31
0.0
  0
LINE
  5
1AF
330
2
100
AcDbEntity
  8
画層1
 62
     0
100
AcDbLine
 10
57.0
 20
187.3099999999999
 30
0.0
 11
58.0
 21
187.3099999999999
 31
0.0
  0
LINE
  5
1B0
330
2
100
AcDbEntity
  8
画層1
 62
     0
100
AcDbLine
 10
60.46
 20
188.61
 30
0.0
 11
59.0
 21
188.61
 31
0.0
  0
ARC
  5
1B1
330
2
100
AcDbEntity
  8
画層1
 62
     0
100
AcDbCircle
 10
59.0
 20
190.61
 30
0.0
 40
1.0
100
AcDbArc
 50
180.0
 51
270.0
  0
LINE
  5
1B2
330
2
100
AcDbEntity
  8
画層1
 62
     0
100
AcDbLine
 10
58.0
 20
190.91
 30
0.0
 11
58.0
 21
190.61
 31
0.0
  0
LINE
  5
1B3
330
2
100
AcDbEntity
  8
画層1
 62
     0
100
AcDbLine
 10
57.0
 20
190.61
 30
0.0
 11
57.0
 21
190.91
 31
0.0
  0
LINE
  5
1B4
330
2
100
AcDbEntity
  8
画層1
 62
     0
100
AcDbLine
 10
57.0
 20
190.91
 30
0.0
 11
58.0
 21
190.91
 31
0.0
  0
LINE
  5
1B5
330
2
100
AcDbEntity
  8
画層1
 62
     0
100
AcDbLine
 10
54.54
 20
189.61
 30
0.0
 11
56.0
 21
189.61
 31
0.0
  0
ARC
  5
1B6
330
2
100
AcDbEntity
  8
画層1
 62
     0
100
AcDbCircle
 10
56.0
 20
190.61
 30
0.0
 40
1.0
100
AcDbArc
 50
270.0
 51
0.0
  0
LINE
  5
1B7
330
2
100
AcDbEntity
  8
画層1
 62
     0
100
AcDbLine
 10
59.0
 20
189.61
 30
0.0
 11
60.46
 21
189.61
 31
0.0
  0
LINE
  5
1B8
330
2
100
AcDbEntity
  8
画層1
 62
     0
100
AcDbLine
 10
45.14
 20
221.41
 30
0.0
 11
46.6
 21
221.41
 31
0.0
  0
LINE
  5
1B9
330
2
100
AcDbEntity
  8
画層1
 62
     0
100
AcDbLine
 10
46.6
 20
220.4099999999999
 30
0.0
 11
45.14
 21
220.4099999999999
 31
0.0
  0
LINE
  5
1BA
330
2
100
AcDbEntity
  8
画層1
 62
     0
100
AcDbLine
 10
62.5
 20
235.25
 30
0.0
 11
40.49999999999999
 21
235.25
 31
0.0
  0
LINE
  5
1BB
330
2
100
AcDbEntity
  8
画層1
 62
     0
100
AcDbLine
 10
42.7
 20
215.51
 30
0.0
 11
52.1
 21
215.51
 31
0.0
  0
LINE
  5
1BC
330
2
100
AcDbEntity
  8
画層1
 62
     0
100
AcDbLine
 10
42.7
 20
224.9099999999999
 30
0.0
 11
52.1
 21
224.9099999999999
 31
0.0
  0
LINE
  5
1BD
330
2
100
AcDbEntity
  8
画層1
 62
     0
100
AcDbLine
 10
42.7
 20
216.9099999999999
 30
0.0
 11
52.1
 21
216.9099999999999
 31
0.0
  0
LINE
  5
1BE
330
2
100
AcDbEntity
  8
画層1
 62
     0
100
AcDbLine
 10
44.59999999999999
 20
215.01
 30
0.0
 11
51.6
 21
215.01
 31
0.0
  0
LINE
  5
1BF
330
2
100
AcDbEntity
  8
画層1
 62
     0
100
AcDbLine
 10
44.59999999999999
 20
224.4099999999999
 30
0.0
 11
51.6
 21
224.4099999999999
 31
0.0
  0
LINE
  5
1C0
330
2
100
AcDbEntity
  8
画層1
 62
     0
100
AcDbLine
 10
51.6
 20
217.41
 30
0.0
 11
44.59999999999999
 21
217.41
 31
0.0
  0
CIRCLE
  5
1C1
330
2
100
AcDbEntity
  8
画層1
 62
     0
100
AcDbCircle
 10
48.1
 20
220.9099999999999
 30
0.0
 40
3.0
  0
LINE
  5
1C2
330
2
100
AcDbEntity
  8
画層1
 62
     0
100
AcDbLine
 10
46.6
 20
211.01
 30
0.0
 11
45.14
 21
211.01
 31
0.0
  0
LINE
  5
1C3
330
2
100
AcDbEntity
  8
画層1
 62
     0
100
AcDbLine
 10
45.14
 20
212.0099999999999
 30
0.0
 11
46.6
 21
212.0099999999999
 31
0.0
  0
LINE
  5
1C4
330
2
100
AcDbEntity
  8
画層1
 62
     0
100
AcDbLine
 10
45.14
 20
202.61
 30
0.0
 11
46.6
 21
202.61
 31
0.0
  0
LINE
  5
1C5
330
2
100
AcDbEntity
  8
画層1
 62
     0
100
AcDbLine
 10
46.6
 20
201.61
 30
0.0
 11
45.14
 21
201.61
 31
0.0
  0
LINE
  5
1C6
330
2
100
AcDbEntity
  8
画層1
 62
     0
100
AcDbLine
 10
42.7
 20
207.5099999999999
 30
0.0
 11
52.1
 21
207.5099999999999
 31
0.0
  0
LINE
  5
1C7
330
2
100
AcDbEntity
  8
画層1
 62
     0
100
AcDbLine
 10
42.7
 20
206.11
 30
0.0
 11
52.1
 21
206.11
 31
0.0
  0
LINE
  5
1C8
330
2
100
AcDbEntity
  8
画層1
 62
     0
100
AcDbLine
 10
51.6
 20
208.0099999999999
 30
0.0
 11
44.59999999999999
 21
208.0099999999999
 31
0.0
  0
LINE
  5
1C9
330
2
100
AcDbEntity
  8
画層1
 62
     0
100
AcDbLine
 10
44.59999999999999
 20
205.61
 30
0.0
 11
51.6
 21
205.61
 31
0.0
  0
LINE
  5
1CA
330
2
100
AcDbEntity
  8
画層1
 62
     0
100
AcDbLine
 10
42.7
 20
196.71
 30
0.0
 11
52.1
 21
196.71
 31
0.0
  0
LINE
  5
1CB
330
2
100
AcDbEntity
  8
画層1
 62
     0
100
AcDbLine
 10
42.7
 20
198.1099999999999
 30
0.0
 11
52.1
 21
198.1099999999999
 31
0.0
  0
LINE
  5
1CC
330
2
100
AcDbEntity
  8
画層1
 62
     0
100
AcDbLine
 10
44.59999999999999
 20
196.21
 30
0.0
 11
51.6
 21
196.21
 31
0.0
  0
LINE
  5
1CD
330
2
100
AcDbEntity
  8
画層1
 62
     0
100
AcDbLine
 10
51.6
 20
198.61
 30
0.0
 11
44.59999999999999
 21
198.61
 31
0.0
  0
CIRCLE
  5
1CE
330
2
100
AcDbEntity
  8
画層1
 62
     0
100
AcDbCircle
 10
48.1
 20
202.11
 30
0.0
 40
3.0
  0
CIRCLE
  5
1CF
330
2
100
AcDbEntity
  8
画層1
 62
     0
100
AcDbCircle
 10
48.1
 20
211.5099999999999
 30
0.0
 40
3.0
  0
LINE
  5
1D0
330
2
100
AcDbEntity
  8
画層1
 62
     0
100
AcDbLine
 10
61.5
 20
234.25
 30
0.0
 11
27.5
 21
234.25
 31
0.0
  0
LINE
  5
1D1
330
2
100
AcDbEntity
  8
画層1
 62
     0
100
AcDbLine
 10
44.59999999999999
 20
217.41
 30
0.0
 11
44.59999999999999
 21
224.4099999999999
 31
0.0
  0
LINE
  5
1D2
330
2
100
AcDbEntity
  8
画層1
 62
     0
100
AcDbLine
 10
44.59999999999999
 20
198.61
 30
0.0
 11
44.59999999999999
 21
205.61
 31
0.0
  0
LINE
  5
1D3
330
2
100
AcDbEntity
  8
画層1
 62
     0
100
AcDbLine
 10
44.59999999999999
 20
208.0099999999999
 30
0.0
 11
44.59999999999999
 21
215.01
 31
0.0
  0
ARC
  5
1D4
330
2
100
AcDbEntity
  8
画層1
 62
     0
100
AcDbCircle
 10
27.5
 20
236.25
 30
0.0
 40
2.0
100
AcDbArc
 50
180.0
 51
270.0
  0
LINE
  5
1D5
330
2
100
AcDbEntity
  8
画層1
 62
     0
100
AcDbLine
 10
61.0
 20
220.8099999999999
 30
0.0
 11
61.0
 21
213.81
 31
0.0
  0
ARC
  5
1D6
330
2
100
AcDbEntity
  8
画層1
 62
     0
100
AcDbCircle
 10
56.0
 20
218.8099999999999
 30
0.0
 40
1.0
100
AcDbArc
 50
270.0
 51
0.0
  0
LINE
  5
1D7
330
2
100
AcDbEntity
  8
画層1
 62
     0
100
AcDbLine
 10
54.0
 20
213.81
 30
0.0
 11
54.0
 21
220.8099999999999
 31
0.0
  0
LINE
  5
1D8
330
2
100
AcDbEntity
  8
画層1
 62
     0
100
AcDbLine
 10
51.6
 20
224.4099999999999
 30
0.0
 11
51.6
 21
217.41
 31
0.0
  0
ARC
  5
1D9
330
2
100
AcDbEntity
  8
画層1
 62
     0
100
AcDbCircle
 10
59.0
 20
218.8099999999999
 30
0.0
 40
1.0
100
AcDbArc
 50
180.0
 51
270.0
  0
CIRCLE
  5
1DA
330
2
100
AcDbEntity
  8
画層1
 62
     0
100
AcDbCircle
 10
57.5
 20
217.31
 30
0.0
 40
3.0
  0
LINE
  5
1DB
330
2
100
AcDbEntity
  8
画層1
 62
     0
100
AcDbLine
 10
61.0
 20
211.41
 30
0.0
 11
61.0
 21
204.4099999999999
 31
0.0
  0
ARC
  5
1DC
330
2
100
AcDbEntity
  8
画層1
 62
     0
100
AcDbCircle
 10
56.0
 20
206.4099999999999
 30
0.0
 40
1.0
100
AcDbArc
 50
0.0
 51
90.0
  0
LINE
  5
1DD
330
2
100
AcDbEntity
  8
画層1
 62
     0
100
AcDbLine
 10
54.0
 20
204.4099999999999
 30
0.0
 11
54.0
 21
211.41
 31
0.0
  0
ARC
  5
1DE
330
2
100
AcDbEntity
  8
画層1
 62
     0
100
AcDbCircle
 10
59.0
 20
206.4099999999999
 30
0.0
 40
1.0
100
AcDbArc
 50
90.0
 51
180.0
  0
CIRCLE
  5
1DF
330
2
100
AcDbEntity
  8
画層1
 62
     0
100
AcDbCircle
 10
57.5
 20
207.9099999999999
 30
0.0
 40
3.0
  0
LINE
  5
1E0
330
2
100
AcDbEntity
  8
画層1
 62
     0
100
AcDbLine
 10
52.1
 20
203.9099999999999
 30
0.0
 11
61.5
 21
203.9099999999999
 31
0.0
  0
LINE
  5
1E1
330
2
100
AcDbEntity
  8
画層1
 62
     0
100
AcDbLine
 10
52.1
 20
202.51
 30
0.0
 11
61.5
 21
202.51
 31
0.0
  0
LINE
  5
1E2
330
2
100
AcDbEntity
  8
画層1
 62
     0
100
AcDbLine
 10
54.0
 20
202.0099999999999
 30
0.0
 11
61.0
 21
202.0099999999999
 31
0.0
  0
LINE
  5
1E3
330
2
100
AcDbEntity
  8
画層1
 62
     0
100
AcDbLine
 10
61.0
 20
204.4099999999999
 30
0.0
 11
54.0
 21
204.4099999999999
 31
0.0
  0
LINE
  5
1E4
330
2
100
AcDbEntity
  8
画層1
 62
     0
100
AcDbLine
 10
61.0
 20
195.0099999999999
 30
0.0
 11
54.0
 21
195.0099999999999
 31
0.0
  0
LINE
  5
1E5
330
2
100
AcDbEntity
  8
画層1
 62
     0
100
AcDbLine
 10
51.6
 20
205.61
 30
0.0
 11
51.6
 21
198.61
 31
0.0
  0
LINE
  5
1E6
330
2
100
AcDbEntity
  8
画層1
 62
     0
100
AcDbLine
 10
54.0
 20
195.0099999999999
 30
0.0
 11
54.0
 21
202.0099999999999
 31
0.0
  0
ARC
  5
1E7
330
2
100
AcDbEntity
  8
画層1
 62
     0
100
AcDbCircle
 10
46.6
 20
200.6099999999999
 30
0.0
 40
1.0
100
AcDbArc
 50
0.0
 51
90.0
  0
ARC
  5
1E8
330
2
100
AcDbEntity
  8
画層1
 62
     0
100
AcDbCircle
 10
49.6
 20
200.6099999999999
 30
0.0
 40
1.0
100
AcDbArc
 50
90.0
 51
180.0
  0
LINE
  5
1E9
330
2
100
AcDbEntity
  8
画層1
 62
     0
100
AcDbLine
 10
47.6
 20
200.3099999999999
 30
0.0
 11
48.6
 21
200.3099999999999
 31
0.0
  0
LINE
  5
1EA
330
2
100
AcDbEntity
  8
画層1
 62
     0
100
AcDbLine
 10
48.6
 20
200.6099999999999
 30
0.0
 11
48.6
 21
200.3099999999999
 31
0.0
  0
LINE
  5
1EB
330
2
100
AcDbEntity
  8
画層1
 62
     0
100
AcDbLine
 10
47.6
 20
200.3099999999999
 30
0.0
 11
47.6
 21
200.6099999999999
 31
0.0
  0
LINE
  5
1EC
330
2
100
AcDbEntity
  8
画層1
 62
     0
100
AcDbLine
 10
49.6
 20
202.61
 30
0.0
 11
51.06
 21
202.61
 31
0.0
  0
LINE
  5
1ED
330
2
100
AcDbEntity
  8
画層1
 62
     0
100
AcDbLine
 10
51.06
 20
201.61
 30
0.0
 11
49.6
 21
201.61
 31
0.0
  0
LINE
  5
1EE
330
2
100
AcDbEntity
  8
画層1
 62
     0
100
AcDbLine
 10
47.6
 20
203.9099999999999
 30
0.0
 11
48.6
 21
203.9099999999999
 31
0.0
  0
LINE
  5
1EF
330
2
100
AcDbEntity
  8
画層1
 62
     0
100
AcDbLine
 10
47.6
 20
203.61
 30
0.0
 11
47.6
 21
203.9099999999999
 31
0.0
  0
LINE
  5
1F0
330
2
100
AcDbEntity
  8
画層1
 62
     0
100
AcDbLine
 10
48.6
 20
203.9099999999999
 30
0.0
 11
48.6
 21
203.61
 31
0.0
  0
ARC
  5
1F1
330
2
100
AcDbEntity
  8
画層1
 62
     0
100
AcDbCircle
 10
46.6
 20
203.61
 30
0.0
 40
1.0
100
AcDbArc
 50
270.0
 51
0.0
  0
ARC
  5
1F2
330
2
100
AcDbEntity
  8
画層1
 62
     0
100
AcDbCircle
 10
49.6
 20
203.61
 30
0.0
 40
1.0
100
AcDbArc
 50
180.0
 51
270.0
  0
CIRCLE
  5
1F3
330
2
100
AcDbEntity
  8
画層1
 62
     0
100
AcDbCircle
 10
57.5
 20
198.5099999999999
 30
0.0
 40
3.0
  0
LINE
  5
1F4
330
2
100
AcDbEntity
  8
画層1
 62
     0
100
AcDbLine
 10
61.0
 20
202.0099999999999
 30
0.0
 11
61.0
 21
195.0099999999999
 31
0.0
  0
ARC
  5
1F5
330
2
100
AcDbEntity
  8
画層1
 62
     0
100
AcDbCircle
 10
59.0
 20
200.0099999999999
 30
0.0
 40
1.0
100
AcDbArc
 50
180.0
 51
270.0
  0
ARC
  5
1F6
330
2
100
AcDbEntity
  8
画層1
 62
     0
100
AcDbCircle
 10
59.0
 20
197.01
 30
0.0
 40
1.0
100
AcDbArc
 50
90.0
 51
180.0
  0
LINE
  5
1F7
330
2
100
AcDbEntity
  8
画層1
 62
     0
100
AcDbLine
 10
58.0
 20
200.3099999999999
 30
0.0
 11
58.0
 21
200.0099999999999
 31
0.0
  0
ARC
  5
1F8
330
2
100
AcDbEntity
  8
画層1
 62
     0
100
AcDbCircle
 10
56.0
 20
200.0099999999999
 30
0.0
 40
1.0
100
AcDbArc
 50
270.0
 51
0.0
  0
LINE
  5
1F9
330
2
100
AcDbEntity
  8
画層1
 62
     0
100
AcDbLine
 10
57.0
 20
200.0099999999999
 30
0.0
 11
57.0
 21
200.3099999999999
 31
0.0
  0
LINE
  5
1FA
330
2
100
AcDbEntity
  8
画層1
 62
     0
100
AcDbLine
 10
56.0
 20
198.01
 30
0.0
 11
54.54
 21
198.01
 31
0.0
  0
LINE
  5
1FB
330
2
100
AcDbEntity
  8
画層1
 62
     0
100
AcDbLine
 10
54.54
 20
199.0099999999999
 30
0.0
 11
56.0
 21
199.0099999999999
 31
0.0
  0
LINE
  5
1FC
330
2
100
AcDbEntity
  8
画層1
 62
     0
100
AcDbLine
 10
57.0
 20
200.3099999999999
 30
0.0
 11
58.0
 21
200.3099999999999
 31
0.0
  0
LINE
  5
1FD
330
2
100
AcDbEntity
  8
画層1
 62
     0
100
AcDbLine
 10
58.0
 20
197.01
 30
0.0
 11
58.0
 21
196.71
 31
0.0
  0
LINE
  5
1FE
330
2
100
AcDbEntity
  8
画層1
 62
     0
100
AcDbLine
 10
57.0
 20
196.71
 30
0.0
 11
57.0
 21
197.01
 31
0.0
  0
LINE
  5
1FF
330
2
100
AcDbEntity
  8
画層1
 62
     0
100
AcDbLine
 10
57.0
 20
196.71
 30
0.0
 11
58.0
 21
196.71
 31
0.0
  0
ARC
  5
200
330
2
100
AcDbEntity
  8
画層1
 62
     0
100
AcDbCircle
 10
56.0
 20
197.01
 30
0.0
 40
1.0
100
AcDbArc
 50
0.0
 51
90.0
  0
LINE
  5
201
330
2
100
AcDbEntity
  8
画層1
 62
     0
100
AcDbLine
 10
60.46
 20
198.01
 30
0.0
 11
59.0
 21
198.01
 31
0.0
  0
LINE
  5
202
330
2
100
AcDbEntity
  8
画層1
 62
     0
100
AcDbLine
 10
59.0
 20
199.0099999999999
 30
0.0
 11
60.46
 21
199.0099999999999
 31
0.0
  0
LINE
  5
203
330
2
100
AcDbEntity
  8
画層1
 62
     0
100
AcDbLine
 10
58.0
 20
206.4099999999999
 30
0.0
 11
58.0
 21
206.11
 31
0.0
  0
LINE
  5
204
330
2
100
AcDbEntity
  8
画層1
 62
     0
100
AcDbLine
 10
57.0
 20
206.11
 30
0.0
 11
57.0
 21
206.4099999999999
 31
0.0
  0
LINE
  5
205
330
2
100
AcDbEntity
  8
画層1
 62
     0
100
AcDbLine
 10
57.0
 20
206.11
 30
0.0
 11
58.0
 21
206.11
 31
0.0
  0
LINE
  5
206
330
2
100
AcDbEntity
  8
画層1
 62
     0
100
AcDbLine
 10
52.1
 20
213.31
 30
0.0
 11
61.5
 21
213.31
 31
0.0
  0
LINE
  5
207
330
2
100
AcDbEntity
  8
画層1
 62
     0
100
AcDbLine
 10
61.0
 20
213.81
 30
0.0
 11
54.0
 21
213.81
 31
0.0
  0
LINE
  5
208
330
2
100
AcDbEntity
  8
画層1
 62
     0
100
AcDbLine
 10
52.1
 20
211.9099999999999
 30
0.0
 11
61.5
 21
211.9099999999999
 31
0.0
  0
LINE
  5
209
330
2
100
AcDbEntity
  8
画層1
 62
     0
100
AcDbLine
 10
54.0
 20
211.41
 30
0.0
 11
61.0
 21
211.41
 31
0.0
  0
ARC
  5
20A
330
2
100
AcDbEntity
  8
画層1
 62
     0
100
AcDbCircle
 10
46.6
 20
213.01
 30
0.0
 40
1.0
100
AcDbArc
 50
270.0
 51
0.0
  0
ARC
  5
20B
330
2
100
AcDbEntity
  8
画層1
 62
     0
100
AcDbCircle
 10
49.6
 20
213.01
 30
0.0
 40
1.0
100
AcDbArc
 50
180.0
 51
270.0
  0
LINE
  5
20C
330
2
100
AcDbEntity
  8
画層1
 62
     0
100
AcDbLine
 10
51.6
 20
215.01
 30
0.0
 11
51.6
 21
208.0099999999999
 31
0.0
  0
LINE
  5
20D
330
2
100
AcDbEntity
  8
画層1
 62
     0
100
AcDbLine
 10
51.06
 20
211.01
 30
0.0
 11
49.6
 21
211.01
 31
0.0
  0
LINE
  5
20E
330
2
100
AcDbEntity
  8
画層1
 62
     0
100
AcDbLine
 10
49.6
 20
212.0099999999999
 30
0.0
 11
51.06
 21
212.0099999999999
 31
0.0
  0
LINE
  5
20F
330
2
100
AcDbEntity
  8
画層1
 62
     0
100
AcDbLine
 10
47.6
 20
209.71
 30
0.0
 11
47.6
 21
210.0099999999999
 31
0.0
  0
LINE
  5
210
330
2
100
AcDbEntity
  8
画層1
 62
     0
100
AcDbLine
 10
48.6
 20
210.0099999999999
 30
0.0
 11
48.6
 21
209.71
 31
0.0
  0
LINE
  5
211
330
2
100
AcDbEntity
  8
画層1
 62
     0
100
AcDbLine
 10
47.6
 20
209.71
 30
0.0
 11
48.6
 21
209.71
 31
0.0
  0
ARC
  5
212
330
2
100
AcDbEntity
  8
画層1
 62
     0
100
AcDbCircle
 10
46.6
 20
210.0099999999999
 30
0.0
 40
1.0
100
AcDbArc
 50
0.0
 51
90.0
  0
ARC
  5
213
330
2
100
AcDbEntity
  8
画層1
 62
     0
100
AcDbCircle
 10
49.6
 20
210.0099999999999
 30
0.0
 40
1.0
100
AcDbArc
 50
90.0
 51
180.0
  0
LINE
  5
214
330
2
100
AcDbEntity
  8
画層1
 62
     0
100
AcDbLine
 10
47.6
 20
213.31
 30
0.0
 11
48.6
 21
213.31
 31
0.0
  0
LINE
  5
215
330
2
100
AcDbEntity
  8
画層1
 62
     0
100
AcDbLine
 10
48.6
 20
213.31
 30
0.0
 11
48.6
 21
213.01
 31
0.0
  0
LINE
  5
216
330
2
100
AcDbEntity
  8
画層1
 62
     0
100
AcDbLine
 10
47.6
 20
213.01
 30
0.0
 11
47.6
 21
213.31
 31
0.0
  0
ARC
  5
217
330
2
100
AcDbEntity
  8
画層1
 62
     0
100
AcDbCircle
 10
59.0
 20
209.41
 30
0.0
 40
1.0
100
AcDbArc
 50
180.0
 51
270.0
  0
LINE
  5
218
330
2
100
AcDbEntity
  8
画層1
 62
     0
100
AcDbLine
 10
58.0
 20
209.71
 30
0.0
 11
58.0
 21
209.41
 31
0.0
  0
LINE
  5
219
330
2
100
AcDbEntity
  8
画層1
 62
     0
100
AcDbLine
 10
57.0
 20
209.41
 30
0.0
 11
57.0
 21
209.71
 31
0.0
  0
LINE
  5
21A
330
2
100
AcDbEntity
  8
画層1
 62
     0
100
AcDbLine
 10
57.0
 20
209.71
 30
0.0
 11
58.0
 21
209.71
 31
0.0
  0
LINE
  5
21B
330
2
100
AcDbEntity
  8
画層1
 62
     0
100
AcDbLine
 10
56.0
 20
207.41
 30
0.0
 11
54.54
 21
207.41
 31
0.0
  0
LINE
  5
21C
330
2
100
AcDbEntity
  8
画層1
 62
     0
100
AcDbLine
 10
54.54
 20
208.4099999999999
 30
0.0
 11
56.0
 21
208.4099999999999
 31
0.0
  0
ARC
  5
21D
330
2
100
AcDbEntity
  8
画層1
 62
     0
100
AcDbCircle
 10
56.0
 20
209.41
 30
0.0
 40
1.0
100
AcDbArc
 50
270.0
 51
0.0
  0
LINE
  5
21E
330
2
100
AcDbEntity
  8
画層1
 62
     0
100
AcDbLine
 10
60.46
 20
207.41
 30
0.0
 11
59.0
 21
207.41
 31
0.0
  0
LINE
  5
21F
330
2
100
AcDbEntity
  8
画層1
 62
     0
100
AcDbLine
 10
59.0
 20
208.4099999999999
 30
0.0
 11
60.46
 21
208.4099999999999
 31
0.0
  0
ARC
  5
220
330
2
100
AcDbEntity
  8
画層1
 62
     0
100
AcDbCircle
 10
59.0
 20
215.81
 30
0.0
 40
1.0
100
AcDbArc
 50
90.0
 51
180.0
  0
LINE
  5
221
330
2
100
AcDbEntity
  8
画層1
 62
     0
100
AcDbLine
 10
58.0
 20
215.81
 30
0.0
 11
58.0
 21
215.51
 31
0.0
  0
LINE
  5
222
330
2
100
AcDbEntity
  8
画層1
 62
     0
100
AcDbLine
 10
57.0
 20
215.51
 30
0.0
 11
57.0
 21
215.81
 31
0.0
  0
ARC
  5
223
330
2
100
AcDbEntity
  8
画層1
 62
     0
100
AcDbCircle
 10
56.0
 20
215.81
 30
0.0
 40
1.0
100
AcDbArc
 50
0.0
 51
90.0
  0
LINE
  5
224
330
2
100
AcDbEntity
  8
画層1
 62
     0
100
AcDbLine
 10
54.54
 20
217.81
 30
0.0
 11
56.0
 21
217.81
 31
0.0
  0
LINE
  5
225
330
2
100
AcDbEntity
  8
画層1
 62
     0
100
AcDbLine
 10
56.0
 20
216.8099999999999
 30
0.0
 11
54.54
 21
216.8099999999999
 31
0.0
  0
LINE
  5
226
330
2
100
AcDbEntity
  8
画層1
 62
     0
100
AcDbLine
 10
57.0
 20
215.51
 30
0.0
 11
58.0
 21
215.51
 31
0.0
  0
LINE
  5
227
330
2
100
AcDbEntity
  8
画層1
 62
     0
100
AcDbLine
 10
59.0
 20
217.81
 30
0.0
 11
60.46
 21
217.81
 31
0.0
  0
LINE
  5
228
330
2
100
AcDbEntity
  8
画層1
 62
     0
100
AcDbLine
 10
60.46
 20
216.8099999999999
 30
0.0
 11
59.0
 21
216.8099999999999
 31
0.0
  0
LINE
  5
229
330
2
100
AcDbEntity
  8
画層1
 62
     0
100
AcDbLine
 10
61.0
 20
230.21
 30
0.0
 11
61.0
 21
223.2099999999999
 31
0.0
  0
LINE
  5
22A
330
2
100
AcDbEntity
  8
画層1
 62
     0
100
AcDbLine
 10
54.0
 20
223.2099999999999
 30
0.0
 11
54.0
 21
230.21
 31
0.0
  0
LINE
  5
22B
330
2
100
AcDbEntity
  8
画層1
 62
     0
100
AcDbLine
 10
52.1
 20
221.31
 30
0.0
 11
61.5
 21
221.31
 31
0.0
  0
LINE
  5
22C
330
2
100
AcDbEntity
  8
画層1
 62
     0
100
AcDbLine
 10
52.1
 20
222.71
 30
0.0
 11
61.5
 21
222.71
 31
0.0
  0
LINE
  5
22D
330
2
100
AcDbEntity
  8
画層1
 62
     0
100
AcDbLine
 10
54.0
 20
220.8099999999999
 30
0.0
 11
61.0
 21
220.8099999999999
 31
0.0
  0
LINE
  5
22E
330
2
100
AcDbEntity
  8
画層1
 62
     0
100
AcDbLine
 10
61.0
 20
223.2099999999999
 30
0.0
 11
54.0
 21
223.2099999999999
 31
0.0
  0
LINE
  5
22F
330
2
100
AcDbEntity
  8
画層1
 62
     0
100
AcDbLine
 10
49.6
 20
221.41
 30
0.0
 11
51.06
 21
221.41
 31
0.0
  0
LINE
  5
230
330
2
100
AcDbEntity
  8
画層1
 62
     0
100
AcDbLine
 10
51.06
 20
220.4099999999999
 30
0.0
 11
49.6
 21
220.4099999999999
 31
0.0
  0
ARC
  5
231
330
2
100
AcDbEntity
  8
画層1
 62
     0
100
AcDbCircle
 10
46.6
 20
222.4099999999999
 30
0.0
 40
1.0
100
AcDbArc
 50
270.0
 51
0.0
  0
LINE
  5
232
330
2
100
AcDbEntity
  8
画層1
 62
     0
100
AcDbLine
 10
47.6
 20
222.71
 30
0.0
 11
48.6
 21
222.71
 31
0.0
  0
LINE
  5
233
330
2
100
AcDbEntity
  8
画層1
 62
     0
100
AcDbLine
 10
47.6
 20
222.4099999999999
 30
0.0
 11
47.6
 21
222.71
 31
0.0
  0
LINE
  5
234
330
2
100
AcDbEntity
  8
画層1
 62
     0
100
AcDbLine
 10
48.6
 20
222.71
 30
0.0
 11
48.6
 21
222.4099999999999
 31
0.0
  0
ARC
  5
235
330
2
100
AcDbEntity
  8
画層1
 62
     0
100
AcDbCircle
 10
46.6
 20
219.41
 30
0.0
 40
1.0
100
AcDbArc
 50
0.0
 51
90.0
  0
LINE
  5
236
330
2
100
AcDbEntity
  8
画層1
 62
     0
100
AcDbLine
 10
47.6
 20
219.11
 30
0.0
 11
48.6
 21
219.11
 31
0.0
  0
LINE
  5
237
330
2
100
AcDbEntity
  8
画層1
 62
     0
100
AcDbLine
 10
48.6
 20
219.41
 30
0.0
 11
48.6
 21
219.11
 31
0.0
  0
LINE
  5
238
330
2
100
AcDbEntity
  8
画層1
 62
     0
100
AcDbLine
 10
47.6
 20
219.11
 30
0.0
 11
47.6
 21
219.41
 31
0.0
  0
ARC
  5
239
330
2
100
AcDbEntity
  8
画層1
 62
     0
100
AcDbCircle
 10
49.6
 20
222.4099999999999
 30
0.0
 40
1.0
100
AcDbArc
 50
180.0
 51
270.0
  0
ARC
  5
23A
330
2
100
AcDbEntity
  8
画層1
 62
     0
100
AcDbCircle
 10
49.6
 20
219.41
 30
0.0
 40
1.0
100
AcDbArc
 50
90.0
 51
180.0
  0
CIRCLE
  5
23B
330
2
100
AcDbEntity
  8
画層1
 62
     0
100
AcDbCircle
 10
57.5
 20
226.71
 30
0.0
 40
3.0
  0
LINE
  5
23C
330
2
100
AcDbEntity
  8
画層1
 62
     0
100
AcDbLine
 10
58.0
 20
219.11
 30
0.0
 11
58.0
 21
218.8099999999999
 31
0.0
  0
LINE
  5
23D
330
2
100
AcDbEntity
  8
画層1
 62
     0
100
AcDbLine
 10
57.0
 20
218.8099999999999
 30
0.0
 11
57.0
 21
219.11
 31
0.0
  0
LINE
  5
23E
330
2
100
AcDbEntity
  8
画層1
 62
     0
100
AcDbLine
 10
57.0
 20
219.11
 30
0.0
 11
58.0
 21
219.11
 31
0.0
  0
ARC
  5
23F
330
2
100
AcDbEntity
  8
画層1
 62
     0
100
AcDbCircle
 10
59.0
 20
228.21
 30
0.0
 40
1.0
100
AcDbArc
 50
180.0
 51
270.0
  0
ARC
  5
240
330
2
100
AcDbEntity
  8
画層1
 62
     0
100
AcDbCircle
 10
59.0
 20
225.2099999999999
 30
0.0
 40
1.0
100
AcDbArc
 50
90.0
 51
180.0
  0
LINE
  5
241
330
2
100
AcDbEntity
  8
画層1
 62
     0
100
AcDbLine
 10
58.0
 20
225.2099999999999
 30
0.0
 11
58.0
 21
224.9099999999999
 31
0.0
  0
LINE
  5
242
330
2
100
AcDbEntity
  8
画層1
 62
     0
100
AcDbLine
 10
58.0
 20
228.5099999999999
 30
0.0
 11
58.0
 21
228.21
 31
0.0
  0
ARC
  5
243
330
2
100
AcDbEntity
  8
画層1
 62
     0
100
AcDbCircle
 10
56.0
 20
228.21
 30
0.0
 40
1.0
100
AcDbArc
 50
270.0
 51
0.0
  0
ARC
  5
244
330
2
100
AcDbEntity
  8
画層1
 62
     0
100
AcDbCircle
 10
56.0
 20
225.2099999999999
 30
0.0
 40
1.0
100
AcDbArc
 50
0.0
 51
90.0
  0
LINE
  5
245
330
2
100
AcDbEntity
  8
画層1
 62
     0
100
AcDbLine
 10
56.0
 20
226.21
 30
0.0
 11
54.54
 21
226.21
 31
0.0
  0
LINE
  5
246
330
2
100
AcDbEntity
  8
画層1
 62
     0
100
AcDbLine
 10
54.54
 20
227.21
 30
0.0
 11
56.0
 21
227.21
 31
0.0
  0
LINE
  5
247
330
2
100
AcDbEntity
  8
画層1
 62
     0
100
AcDbLine
 10
57.0
 20
224.9099999999999
 30
0.0
 11
57.0
 21
225.2099999999999
 31
0.0
  0
LINE
  5
248
330
2
100
AcDbEntity
  8
画層1
 62
     0
100
AcDbLine
 10
57.0
 20
228.21
 30
0.0
 11
57.0
 21
228.5099999999999
 31
0.0
  0
LINE
  5
249
330
2
100
AcDbEntity
  8
画層1
 62
     0
100
AcDbLine
 10
57.0
 20
224.9099999999999
 30
0.0
 11
58.0
 21
224.9099999999999
 31
0.0
  0
LINE
  5
24A
330
2
100
AcDbEntity
  8
画層1
 62
     0
100
AcDbLine
 10
57.0
 20
228.5099999999999
 30
0.0
 11
58.0
 21
228.5099999999999
 31
0.0
  0
LINE
  5
24B
330
2
100
AcDbEntity
  8
画層1
 62
     0
100
AcDbLine
 10
60.46
 20
226.21
 30
0.0
 11
59.0
 21
226.21
 31
0.0
  0
LINE
  5
24C
330
2
100
AcDbEntity
  8
画層1
 62
     0
100
AcDbLine
 10
59.0
 20
227.21
 30
0.0
 11
60.46
 21
227.21
 31
0.0
  0
LINE
  5
24D
330
2
100
AcDbEntity
  8
画層1
 62
     0
100
AcDbLine
 10
52.1
 20
230.71
 30
0.0
 11
61.5
 21
230.71
 31
0.0
  0
LINE
  5
24E
330
2
100
AcDbEntity
  8
画層1
 62
     0
100
AcDbLine
 10
54.0
 20
230.21
 30
0.0
 11
61.0
 21
230.21
 31
0.0
  0
LINE
  5
24F
330
2
100
AcDbEntity
  8
画層1
 62
     0
100
AcDbLine
 10
30.0
 20
249.25
 30
0.0
 11
29.0
 21
249.25
 31
0.0
  0
LINE
  5
250
330
2
100
AcDbEntity
  8
画層1
 62
     0
100
AcDbLine
 10
29.0
 20
250.2499999999999
 30
0.0
 11
30.0
 21
250.2499999999999
 31
0.0
  0
CIRCLE
  5
251
330
2
100
AcDbEntity
  8
画層1
 62
     0
100
AcDbCircle
 10
31.5
 20
249.75
 30
0.0
 40
3.5
  0
CIRCLE
  5
252
330
2
100
AcDbEntity
  8
画層1
 62
     0
100
AcDbCircle
 10
31.5
 20
249.75
 30
0.0
 40
5.0
  0
LINE
  5
253
330
2
100
AcDbEntity
  8
画層1
 62
     0
100
AcDbLine
 10
29.0
 20
249.25
 30
0.0
 11
29.0
 21
250.2499999999999
 31
0.0
  0
LINE
  5
254
330
2
100
AcDbEntity
  8
画層1
 62
     0
100
AcDbLine
 10
33.0
 20
250.2499999999999
 30
0.0
 11
34.0
 21
250.2499999999999
 31
0.0
  0
LINE
  5
255
330
2
100
AcDbEntity
  8
画層1
 62
     0
100
AcDbLine
 10
34.0
 20
249.25
 30
0.0
 11
33.0
 21
249.25
 31
0.0
  0
LINE
  5
256
330
2
100
AcDbEntity
  8
画層1
 62
     0
100
AcDbLine
 10
32.0
 20
252.2499999999999
 30
0.0
 11
32.0
 21
251.25
 31
0.0
  0
LINE
  5
257
330
2
100
AcDbEntity
  8
画層1
 62
     0
100
AcDbLine
 10
31.0
 20
251.25
 30
0.0
 11
31.0
 21
252.2499999999999
 31
0.0
  0
ARC
  5
258
330
2
100
AcDbEntity
  8
画層1
 62
     0
100
AcDbCircle
 10
33.0
 20
251.25
 30
0.0
 40
1.0
100
AcDbArc
 50
180.0
 51
270.0
  0
ARC
  5
259
330
2
100
AcDbEntity
  8
画層1
 62
     0
100
AcDbCircle
 10
30.0
 20
251.25
 30
0.0
 40
1.0
100
AcDbArc
 50
270.0
 51
0.0
  0
LINE
  5
25A
330
2
100
AcDbEntity
  8
画層1
 62
     0
100
AcDbLine
 10
31.0
 20
252.2499999999999
 30
0.0
 11
32.0
 21
252.2499999999999
 31
0.0
  0
ARC
  5
25B
330
2
100
AcDbEntity
  8
画層1
 62
     0
100
AcDbCircle
 10
30.0
 20
248.2499999999999
 30
0.0
 40
1.0
100
AcDbArc
 50
0.0
 51
90.0
  0
ARC
  5
25C
330
2
100
AcDbEntity
  8
画層1
 62
     0
100
AcDbCircle
 10
33.0
 20
248.2499999999999
 30
0.0
 40
1.0
100
AcDbArc
 50
90.0
 51
180.0
  0
LINE
  5
25D
330
2
100
AcDbEntity
  8
画層1
 62
     0
100
AcDbLine
 10
32.0
 20
247.25
 30
0.0
 11
31.0
 21
247.25
 31
0.0
  0
LINE
  5
25E
330
2
100
AcDbEntity
  8
画層1
 62
     0
100
AcDbLine
 10
32.0
 20
248.2499999999999
 30
0.0
 11
32.0
 21
247.25
 31
0.0
  0
LINE
  5
25F
330
2
100
AcDbEntity
  8
画層1
 62
     0
100
AcDbLine
 10
31.0
 20
247.25
 30
0.0
 11
31.0
 21
248.2499999999999
 31
0.0
  0
LINE
  5
260
330
2
100
AcDbEntity
  8
画層1
 62
     0
100
AcDbLine
 10
34.0
 20
250.2499999999999
 30
0.0
 11
34.0
 21
249.25
 31
0.0
  0
ARC
  5
261
330
2
100
AcDbEntity
  8
画層1
 62
     0
100
AcDbCircle
 10
44.0
 20
269.75
 30
0.0
 40
3.5
100
AcDbArc
 50
90.0
 51
180.0
  0
ARC
  5
262
330
2
100
AcDbEntity
  8
画層1
 62
     0
100
AcDbCircle
 10
78.5
 20
254.2499999999999
 30
0.0
 40
3.0
100
AcDbArc
 50
90.0
 51
180.0
  0
CIRCLE
  5
263
330
2
100
AcDbEntity
  8
画層1
 62
     0
100
AcDbCircle
 10
81.5
 20
193.25
 30
0.0
 40
1.75
  0
CIRCLE
  5
264
330
2
100
AcDbEntity
  8
画層1
 62
     0
100
AcDbCircle
 10
101.5
 20
193.25
 30
0.0
 40
2.5
  0
CIRCLE
  5
265
330
2
100
AcDbEntity
  8
画層1
 62
     0
100
AcDbCircle
 10
81.5
 20
183.2499999999999
 30
0.0
 40
1.75
  0
CIRCLE
  5
266
330
2
100
AcDbEntity
  8
画層1
 62
     0
100
AcDbCircle
 10
101.5
 20
178.2499999999999
 30
0.0
 40
2.5
  0
CIRCLE
  5
267
330
2
100
AcDbEntity
  8
画層1
 62
     0
100
AcDbCircle
 10
81.5
 20
203.25
 30
0.0
 40
1.75
  0
CIRCLE
  5
268
330
2
100
AcDbEntity
  8
画層1
 62
     0
100
AcDbCircle
 10
81.5
 20
213.2499999999999
 30
0.0
 40
1.75
  0
CIRCLE
  5
269
330
2
100
AcDbEntity
  8
画層1
 62
     0
100
AcDbCircle
 10
101.5
 20
208.25
 30
0.0
 40
2.5
  0
CIRCLE
  5
26A
330
2
100
AcDbEntity
  8
画層1
 62
     0
100
AcDbCircle
 10
81.5
 20
223.2499999999999
 30
0.0
 40
1.75
  0
CIRCLE
  5
26B
330
2
100
AcDbEntity
  8
画層1
 62
     0
100
AcDbCircle
 10
101.5
 20
223.2499999999999
 30
0.0
 40
2.5
  0
ARC
  5
26C
330
2
100
AcDbEntity
  8
画層1
 62
     0
100
AcDbCircle
 10
142.0
 20
269.75
 30
0.0
 40
3.5
100
AcDbArc
 50
0.0
 51
90.0
  0
ARC
  5
26D
330
2
100
AcDbEntity
  8
画層1
 62
     0
100
AcDbCircle
 10
137.5
 20
254.2499999999999
 30
0.0
 40
3.0
100
AcDbArc
 50
0.0
 51
90.0
  0
LEADER
  5
26E
330
2
100
AcDbEntity
  8
画層1
 62
     0
100
AcDbLeader
  3
STANDARD_WS
 73
     0
 75
     1
 40
5.929999999999999
 41
19.89
 76
     3
 10
109.24
 20
464.89
 30
0.0
 10
96.37
 20
419.81
 30
0.0
 10
94.87
 20
419.81
 30
0.0
340
26F
213
-1.19626226462762
223
0.0
233
0.0
1001
ACAD
1000
DSTYLE
1002
{
1070
     6
1000
OPEN30
1070
    47
1040
0.6
1070
    77
1070
     2
1070
   144
1040
2.0
1070
   146
1040
0.5
1070
   147
1040
0.63
1070
   284
1070
     8
1070
   340
1005
27
1070
   341
1005
28
1070
   343
1005
28
1002
}
  0
MTEXT
  5
26F
102
{ACAD_REACTORS
330
26E
102
}
330
2
100
AcDbEntity
  8
画層1
 62
     0
100
AcDbMText
 10
95.44
 20
423.41
 30
0.0
 40
5.0
 41
0.0
 71
     6
 72
     1
  1
6-φ11
  7
STYLE1
 73
     1
 44
1.0
1001
ACAD
1000
MTEXTBEGIN
1070
    73
1070
     1
1070
    44
1040
1.0
1070
    74
1070
     0
1000
MTEXTEND
1000
MTEXTBEGIN
1070
    73
1070
     1
1070
    44
1040
1.0
1070
    74
1070
     0
1000
MTEXTEND
  0
LINE
  5
270
330
2
100
AcDbEntity
  8
画層1
 62
     0
100
AcDbLine
 10
78.5
 20
472.25
 30
0.0
 11
92.5
 21
472.25
 31
0.0
  0
ARC
  5
271
330
2
100
AcDbEntity
  8
画層1
  6
DASHED2
 62
     0
100
AcDbCircle
 10
85.5
 20
454.75
 30
0.0
 40
12.5
100
AcDbArc
 50
116.1
 51
63.89999999999999
  0
LINE
  5
272
330
2
100
AcDbEntity
  8
画層1
 62
     0
100
AcDbLine
 10
71.0
 20
454.75
 30
0.0
 11
100.0
 21
454.75
 31
0.0
  0
MTEXT
  5
273
330
2
100
AcDbEntity
  8
画層1
 62
     0
100
AcDbMText
 10
76.5
 20
414.4099999999999
 30
0.0
 40
5.0
 41
0.0
 71
     4
 72
     1
  1
端子穴
  7
STYLE1
 73
     1
 44
1.0
1001
ACAD
1000
MTEXTBEGIN
1070
    73
1070
     1
1070
    44
1040
1.0
1070
    74
1070
     0
1000
MTEXTEND
1000
MTEXTBEGIN
1070
    73
1070
     1
1070
    44
1040
1.0
1070
    74
1070
     0
1000
MTEXTEND
  0
LINE
  5
274
330
2
100
AcDbEntity
  8
画層1
 62
     0
100
AcDbLine
 10
34.0
 20
450.25
 30
0.0
 11
34.0
 21
449.2499999999999
 31
0.0
  0
LINE
  5
275
330
2
100
AcDbEntity
  8
画層1
 62
     0
100
AcDbLine
 10
29.0
 20
449.2499999999999
 30
0.0
 11
29.0
 21
450.25
 31
0.0
  0
ARC
  5
276
330
2
100
AcDbEntity
  8
画層1
 62
     0
100
AcDbCircle
 10
33.0
 20
451.25
 30
0.0
 40
1.0
100
AcDbArc
 50
180.0
 51
270.0
  0
ARC
  5
277
330
2
100
AcDbEntity
  8
画層1
 62
     0
100
AcDbCircle
 10
30.0
 20
451.25
 30
0.0
 40
1.0
100
AcDbArc
 50
270.0
 51
0.0
  0
CIRCLE
  5
278
330
2
100
AcDbEntity
  8
画層1
 62
     0
100
AcDbCircle
 10
31.5
 20
449.75
 30
0.0
 40
3.5
  0
CIRCLE
  5
279
330
2
100
AcDbEntity
  8
画層1
 62
     0
100
AcDbCircle
 10
31.5
 20
449.75
 30
0.0
 40
5.0
  0
LINE
  5
27A
330
2
100
AcDbEntity
  8
画層1
 62
     0
100
AcDbLine
 10
30.0
 20
449.2499999999999
 30
0.0
 11
29.0
 21
449.2499999999999
 31
0.0
  0
LINE
  5
27B
330
2
100
AcDbEntity
  8
画層1
 62
     0
100
AcDbLine
 10
34.0
 20
449.2499999999999
 30
0.0
 11
33.0
 21
449.2499999999999
 31
0.0
  0
LINE
  5
27C
330
2
100
AcDbEntity
  8
画層1
 62
     0
100
AcDbLine
 10
32.0
 20
448.2499999999999
 30
0.0
 11
32.0
 21
447.25
 31
0.0
  0
LINE
  5
27D
330
2
100
AcDbEntity
  8
画層1
 62
     0
100
AcDbLine
 10
32.0
 20
447.25
 30
0.0
 11
31.0
 21
447.25
 31
0.0
  0
LINE
  5
27E
330
2
100
AcDbEntity
  8
画層1
 62
     0
100
AcDbLine
 10
31.0
 20
447.25
 30
0.0
 11
31.0
 21
448.2499999999999
 31
0.0
  0
ARC
  5
27F
330
2
100
AcDbEntity
  8
画層1
 62
     0
100
AcDbCircle
 10
30.0
 20
448.2499999999999
 30
0.0
 40
1.0
100
AcDbArc
 50
0.0
 51
90.0
  0
ARC
  5
280
330
2
100
AcDbEntity
  8
画層1
 62
     0
100
AcDbCircle
 10
33.0
 20
448.2499999999999
 30
0.0
 40
1.0
100
AcDbArc
 50
90.0
 51
180.0
  0
LINE
  5
281
330
2
100
AcDbEntity
  8
画層1
 62
     0
100
AcDbLine
 10
29.0
 20
450.25
 30
0.0
 11
30.0
 21
450.25
 31
0.0
  0
LINE
  5
282
330
2
100
AcDbEntity
  8
画層1
 62
     0
100
AcDbLine
 10
33.0
 20
450.25
 30
0.0
 11
34.0
 21
450.25
 31
0.0
  0
LINE
  5
283
330
2
100
AcDbEntity
  8
画層1
 62
     0
100
AcDbLine
 10
32.0
 20
452.2499999999999
 30
0.0
 11
32.0
 21
451.25
 31
0.0
  0
LINE
  5
284
330
2
100
AcDbEntity
  8
画層1
 62
     0
100
AcDbLine
 10
31.0
 20
451.25
 30
0.0
 11
31.0
 21
452.2499999999999
 31
0.0
  0
LINE
  5
285
330
2
100
AcDbEntity
  8
画層1
 62
     0
100
AcDbLine
 10
31.0
 20
452.2499999999999
 30
0.0
 11
32.0
 21
452.2499999999999
 31
0.0
  0
ARC
  5
286
330
2
100
AcDbEntity
  8
画層1
  6
DIVIDE
 62
     0
100
AcDbCircle
 10
60.5
 20
440.2499999999999
 30
0.0
 40
5.0
100
AcDbArc
 50
180.0
 51
270.0
  0
CIRCLE
  5
287
330
2
100
AcDbEntity
  8
画層1
 62
     0
100
AcDbCircle
 10
109.4999999999999
 20
389.7499999999999
 30
0.0
 40
15.0
  0
DIMENSION
  5
288
330
2
100
AcDbEntity
  8
画層1
 62
     0
100
AcDbDimension
  2
*D18
 10
142.5
 20
470.2499999999999
 30
0.0
 11
142.5
 21
492.55
 31
0.0
 70
   160
 71
     5
 42
15.0
  3
STANDARD_WS
100
AcDbAlignedDimension
 13
85.5
 23
485.25
 33
0.0
 14
101.0
 24
470.2499999999999
 34
0.0
 50
90.0
100
AcDbRotatedDimension
1001
ACAD
1000
DSTYLE
1002
{
1070
    47
1040
0.6
1070
   144
1040
1.0
1070
   146
1040
0.5
1070
   173
1070
     0
1070
   284
1070
     8
1070
   340
1005
27
1070
   341
1005
28
1070
     5
1000
OPEN30
1070
     6
1000
OPEN30
1002
}
  0
ARC
  5
296
330
2
100
AcDbEntity
  8
画層1
  6
DASHED2
 62
     0
100
AcDbCircle
 10
85.5
 20
472.25
 30
0.0
 40
5.5
100
AcDbArc
 50
0.0
 51
180.0
  0
CIRCLE
  5
297
330
2
100
AcDbEntity
  8
画層1
  6
DASHED2
 62
     0
100
AcDbCircle
 10
110.4999999999999
 20
470.2499999999999
 30
0.0
 40
5.5
  0
LINE
  5
298
330
2
100
AcDbEntity
  8
画層1
  6
DASHED2
 62
     0
100
AcDbLine
 10
125.5
 20
484.25
 30
0.0
 11
125.5
 21
435.25
 31
0.0
  0
LINE
  5
299
330
2
100
AcDbEntity
  8
画層1
  6
DASHED2
 62
     0
100
AcDbLine
 10
95.5
 20
435.25
 30
0.0
 11
95.5
 21
484.25
 31
0.0
  0
LINE
  5
29A
330
2
100
AcDbEntity
  8
画層1
  6
DASHED2
 62
     0
100
AcDbLine
 10
80.0
 20
472.25
 30
0.0
 11
80.0
 21
465.9699999999999
 31
0.0
  0
LINE
  5
29B
330
2
100
AcDbEntity
  8
画層1
  6
DASHED2
 62
     0
100
AcDbLine
 10
91.0
 20
472.25
 30
0.0
 11
91.0
 21
465.9699999999999
 31
0.0
  0
LINE
  5
29C
330
2
100
AcDbEntity
  8
画層1
  6
DASHED2
 62
     0
100
AcDbLine
 10
95.5
 20
484.25
 30
0.0
 11
125.5
 21
484.25
 31
0.0
  0
MTEXT
  5
29D
330
2
100
AcDbEntity
  8
画層1
 62
     0
100
AcDbMText
 10
128.52
 20
479.8099999999999
 30
0.0
 40
5.0
 41
7.0
 71
     1
 72
     5
  1
Ｒ
  7
STYLE1
 73
     1
 44
1.0
1001
ACAD
1000
MTEXTBEGIN
1070
    73
1070
     1
1070
    44
1040
1.0
1070
    74
1070
     0
1000
MTEXTEND
1000
MTEXTBEGIN
1070
    73
1070
     1
1070
    44
1040
1.0
1070
    74
1070
     0
1000
MTEXTEND
  0
LINE
  5
29E
330
2
100
AcDbEntity
  8
画層1
  6
DASHED2
 62
     0
100
AcDbLine
 10
195.5
 20
435.25
 30
0.0
 11
195.5
 21
484.25
 31
0.0
  0
ARC
  5
29F
330
2
100
AcDbEntity
  8
画層1
  6
DIVIDE
 62
     0
100
AcDbCircle
 10
60.5
 20
520.2499999999999
 30
0.0
 40
5.0
100
AcDbArc
 50
90.0
 51
180.0
  0
DIMENSION
  5
2A0
330
2
100
AcDbEntity
  8
画層1
 62
     0
100
AcDbDimension
  2
*D23
 10
424.5
 20
14.24999999999999
 30
0.0
 11
422.62
 21
249.75
 31
0.0
 70
    32
 71
     5
 42
471.0
  3
STANDARD_WS
100
AcDbAlignedDimension
 13
395.5
 23
485.25
 33
0.0
 14
395.5
 24
14.25
 34
0.0
 50
90.0
100
AcDbRotatedDimension
1001
ACAD
1000
DSTYLE
1002
{
1070
    47
1040
0.6
1070
   144
1040
1.0
1070
   146
1040
0.5
1070
   173
1070
     0
1070
   284
1070
     8
1070
   340
1005
27
1070
   341
1005
28
1070
     5
1000
OPEN30
1070
     6
1000
OPEN30
1002
}
  0
DIMENSION
  5
2AD
330
2
100
AcDbEntity
  8
画層1
 62
     0
100
AcDbDimension
  2
*D16
 10
410.5
 20
27.24999999999997
 30
0.0
 11
408.6199999999999
 21
249.75
 31
0.0
 70
    32
 71
     5
 42
445.0
  3
STANDARD_WS
100
AcDbAlignedDimension
 13
330.0
 23
472.25
 33
0.0
 14
326.0
 24
27.25
 34
0.0
 50
90.0
100
AcDbRotatedDimension
1001
ACAD
1000
DSTYLE
1002
{
1070
    47
1040
0.6
1070
   144
1040
1.0
1070
   146
1040
0.5
1070
   173
1070
     0
1070
   284
1070
     8
1070
   340
1005
27
1070
   341
1005
28
1070
     5
1000
OPEN30
1070
     6
1000
OPEN30
1002
}
  0
LINE
  5
2BA
330
2
100
AcDbEntity
  8
画層1
  6
DASHED2
 62
     0
100
AcDbLine
 10
731.5
 20
15.75
 30
0.0
 11
731.5
 21
483.75
 31
0.0
  0
LINE
  5
2BB
330
2
100
AcDbEntity
  8
画層1
 62
     0
100
AcDbLine
 10
438.4999999999999
 20
483.75
 30
0.0
 11
438.4999999999999
 21
15.75
 31
0.0
  0
LINE
  5
2BC
330
2
100
AcDbEntity
  8
画層1
 62
     0
100
AcDbLine
 10
733.4999999999999
 20
15.75
 30
0.0
 11
733.4999999999999
 21
483.75
 31
0.0
  0
LINE
  5
2BD
330
2
100
AcDbEntity
  8
画層1
 62
     0
100
AcDbLine
 10
436.5
 20
15.25
 30
0.0
 11
436.5
 21
484.25
 31
0.0
  0
LINE
  5
2BE
330
2
100
AcDbEntity
  8
画層1
 62
     0
100
AcDbLine
 10
435.5
 20
485.25
 30
0.0
 11
435.5
 21
14.25
 31
0.0
  0
LINE
  5
2BF
330
2
100
AcDbEntity
  8
画層1
 62
     0
100
AcDbLine
 10
395.5
 20
484.75
 30
0.0
 11
395.5
 21
14.75
 31
0.0
  0
LINE
  5
2C0
330
2
100
AcDbEntity
  8
画層1
  6
CENTER
 62
     0
100
AcDbLine
 10
210.4999999999999
 20
489.25
 30
0.0
 11
210.4999999999999
 21
10.25
 31
0.0
  0
LINE
  5
2C1
330
2
100
AcDbEntity
  8
画層1
  6
CENTER
 62
     0
100
AcDbLine
 10
726.9
 20
27.25
 30
0.0
 11
736.1
 21
27.25
 31
0.0
  0
LINE
  5
2C2
330
2
100
AcDbEntity
  8
画層1
 62
     0
100
AcDbLine
 10
436.5
 20
15.75
 30
0.0
 11
733.4999999999999
 21
15.75
 31
0.0
  0
LEADER
  5
2C3
330
2
100
AcDbEntity
  8
画層1
 62
     0
100
AcDbLeader
  3
STANDARD_WS
 73
     0
 74
     0
 75
     1
 40
5.929999999999999
 41
19.94
 76
     3
 10
337.38
 20
32.43
 30
0.0
 10
356.63
 20
80.31
 30
0.0
 10
358.13
 20
80.31
 30
0.0
340
2C4
1001
ACAD
1000
DSTYLE
1002
{
1070
     6
1000
OPEN30
1070
    47
1040
0.6
1070
    77
1070
     2
1070
   144
1040
2.0
1070
   146
1040
0.5
1070
   147
1040
0.63
1070
   284
1070
     8
1070
   340
1005
27
1070
   341
1005
28
1070
   343
1005
28
1002
}
  0
MTEXT
  5
2C4
102
{ACAD_REACTORS
330
2C3
102
}
330
2
100
AcDbEntity
  8
画層1
 62
     0
100
AcDbMText
 10
358.76
 20
83.91
 30
0.0
 40
5.0
 41
0.0
 71
     4
 72
     1
  1
2-φ11
  7
STYLE1
 73
     1
 44
1.0
1001
ACAD
1000
MTEXTBEGIN
1070
    73
1070
     1
1070
    44
1040
1.0
1070
    74
1070
     0
1000
MTEXTEND
1000
MTEXTBEGIN
1070
    73
1070
     1
1070
    44
1040
1.0
1070
    74
1070
     0
1000
MTEXTEND
  0
LINE
  5
2C5
330
2
100
AcDbEntity
  8
画層1
  6
DASHED2
 62
     0
100
AcDbLine
 10
295.5
 20
64.25
 30
0.0
 11
295.5
 21
15.25
 31
0.0
  0
LINE
  5
2C6
330
2
100
AcDbEntity
  8
画層1
  6
DASHED2
 62
     0
100
AcDbLine
 10
325.4999999999999
 20
15.25
 30
0.0
 11
325.4999999999999
 21
64.25
 31
0.0
  0
LINE
  5
2C7
330
2
100
AcDbEntity
  8
画層1
  6
DASHED2
 62
     0
100
AcDbLine
 10
225.4999999999999
 20
15.25
 30
0.0
 11
225.4999999999999
 21
64.25
 31
0.0
  0
MTEXT
  5
2C8
330
2
100
AcDbEntity
  8
画層1
 62
     0
100
AcDbMText
 10
228.2
 20
25.12999999999999
 30
0.0
 40
5.0
 41
7.0
 71
     1
 72
     5
  1
Ｖ
  7
STYLE1
 73
     1
 44
1.0
1001
ACAD
1000
MTEXTBEGIN
1070
    73
1070
     1
1070
    44
1040
1.0
1070
    74
1070
     0
1000
MTEXTEND
1000
MTEXTBEGIN
1070
    73
1070
     1
1070
    44
1040
1.0
1070
    74
1070
     0
1000
MTEXTEND
  0
LINE
  5
2C9
330
2
100
AcDbEntity
  8
画層1
 62
     0
100
AcDbLine
 10
303.5
 20
29.25
 30
0.0
 11
317.5
 21
29.25
 31
0.0
  0
CIRCLE
  5
2CA
330
2
100
AcDbEntity
  8
画層1
  6
DASHED2
 62
     0
100
AcDbCircle
 10
310.4999999999999
 20
29.25
 30
0.0
 40
5.5
  0
LINE
  5
2CB
330
2
100
AcDbEntity
  8
画層1
  6
DASHED2
 62
     0
100
AcDbLine
 10
295.5
 20
15.25
 30
0.0
 11
325.4999999999999
 21
15.25
 31
0.0
  0
MTEXT
  5
2CC
330
2
100
AcDbEntity
  8
画層1
 62
     0
100
AcDbMText
 10
286.4599999999999
 20
25.12999999999999
 30
0.0
 40
5.0
 41
7.0
 71
     1
 72
     5
  1
Ｗ
  7
STYLE1
 73
     1
 44
1.0
1001
ACAD
1000
MTEXTBEGIN
1070
    73
1070
     1
1070
    44
1040
1.0
1070
    74
1070
     0
1000
MTEXTEND
1000
MTEXTBEGIN
1070
    73
1070
     1
1070
    44
1040
1.0
1070
    74
1070
     0
1000
MTEXTEND
  0
LINE
  5
2CD
330
2
100
AcDbEntity
  8
画層1
 62
     0
100
AcDbLine
 10
335.4999999999999
 20
34.25
 30
0.0
 11
335.4999999999999
 21
20.01
 31
0.0
  0
CIRCLE
  5
2CE
330
2
100
AcDbEntity
  8
画層1
  6
DASHED2
 62
     0
100
AcDbCircle
 10
335.4999999999999
 20
27.25
 30
0.0
 40
5.5
  0
LINE
  5
2CF
330
2
100
AcDbEntity
  8
画層1
 62
     0
100
AcDbLine
 10
310.4999999999999
 20
36.25
 30
0.0
 11
310.4999999999999
 21
22.01
 31
0.0
  0
LINE
  5
2D0
330
2
100
AcDbEntity
  8
画層1
  6
DIVIDE
 62
     0
100
AcDbLine
 10
365.5
 20
7.75
 30
0.0
 11
365.5
 21
59.25
 31
0.0
  0
ARC
  5
2D1
330
2
100
AcDbEntity
  8
画層1
 62
     0
100
AcDbCircle
 10
391.0
 20
48.25
 30
0.0
 40
1.0
100
AcDbArc
 50
90.0
 51
180.0
  0
CIRCLE
  5
2D2
330
2
100
AcDbEntity
  8
画層1
 62
     0
100
AcDbCircle
 10
389.4999999999999
 20
49.75
 30
0.0
 40
5.0
  0
ARC
  5
2D3
330
2
100
AcDbEntity
  8
画層1
 62
     0
100
AcDbCircle
 10
391.0
 20
51.25
 30
0.0
 40
1.0
100
AcDbArc
 50
180.0
 51
270.0
  0
CIRCLE
  5
2D4
330
2
100
AcDbEntity
  8
画層1
 62
     0
100
AcDbCircle
 10
389.4999999999999
 20
49.75
 30
0.0
 40
3.5
  0
LINE
  5
2D5
330
2
100
AcDbEntity
  8
画層1
 62
     0
100
AcDbLine
 10
387.0
 20
49.25
 30
0.0
 11
387.0
 21
50.25
 31
0.0
  0
LINE
  5
2D6
330
2
100
AcDbEntity
  8
画層1
 62
     0
100
AcDbLine
 10
388.0
 20
49.25
 30
0.0
 11
387.0
 21
49.25
 31
0.0
  0
LINE
  5
2D7
330
2
100
AcDbEntity
  8
画層1
 62
     0
100
AcDbLine
 10
390.0
 20
48.25
 30
0.0
 11
390.0
 21
47.25
 31
0.0
  0
LINE
  5
2D8
330
2
100
AcDbEntity
  8
画層1
 62
     0
100
AcDbLine
 10
390.0
 20
47.25
 30
0.0
 11
389.0
 21
47.25
 31
0.0
  0
LINE
  5
2D9
330
2
100
AcDbEntity
  8
画層1
 62
     0
100
AcDbLine
 10
389.0
 20
47.25
 30
0.0
 11
389.0
 21
48.25
 31
0.0
  0
ARC
  5
2DA
330
2
100
AcDbEntity
  8
画層1
 62
     0
100
AcDbCircle
 10
388.0
 20
48.25
 30
0.0
 40
1.0
100
AcDbArc
 50
0.0
 51
90.0
  0
LINE
  5
2DB
330
2
100
AcDbEntity
  8
画層1
 62
     0
100
AcDbLine
 10
390.0
 20
52.25
 30
0.0
 11
390.0
 21
51.25
 31
0.0
  0
LINE
  5
2DC
330
2
100
AcDbEntity
  8
画層1
 62
     0
100
AcDbLine
 10
389.0
 20
51.25
 30
0.0
 11
389.0
 21
52.25
 31
0.0
  0
LINE
  5
2DD
330
2
100
AcDbEntity
  8
画層1
 62
     0
100
AcDbLine
 10
389.0
 20
52.25
 30
0.0
 11
390.0
 21
52.25
 31
0.0
  0
LINE
  5
2DE
330
2
100
AcDbEntity
  8
画層1
 62
     0
100
AcDbLine
 10
387.0
 20
50.25
 30
0.0
 11
388.0
 21
50.25
 31
0.0
  0
ARC
  5
2DF
330
2
100
AcDbEntity
  8
画層1
 62
     0
100
AcDbCircle
 10
388.0
 20
51.25
 30
0.0
 40
1.0
100
AcDbArc
 50
270.0
 51
0.0
  0
LINE
  5
2E0
330
2
100
AcDbEntity
  8
画層1
 62
     0
100
AcDbLine
 10
392.0
 20
50.25
 30
0.0
 11
392.0
 21
49.25
 31
0.0
  0
LINE
  5
2E1
330
2
100
AcDbEntity
  8
画層1
 62
     0
100
AcDbLine
 10
393.8399999999999
 20
47.25
 30
0.0
 11
395.5
 21
47.25
 31
0.0
  0
LINE
  5
2E2
330
2
100
AcDbEntity
  8
画層1
 62
     0
100
AcDbLine
 10
392.0
 20
49.25
 30
0.0
 11
391.0
 21
49.25
 31
0.0
  0
LINE
  5
2E3
330
2
100
AcDbEntity
  8
画層1
 62
     0
100
AcDbLine
 10
393.8399999999999
 20
52.25
 30
0.0
 11
395.5
 21
52.25
 31
0.0
  0
LINE
  5
2E4
330
2
100
AcDbEntity
  8
画層1
 62
     0
100
AcDbLine
 10
391.0
 20
50.25
 30
0.0
 11
392.0
 21
50.25
 31
0.0
  0
LINE
  5
2E5
330
2
100
AcDbEntity
  8
画層1
 62
     0
100
AcDbLine
 10
438.4999999999999
 20
51.75
 30
0.0
 11
440.7
 21
51.75
 31
0.0
  0
LINE
  5
2E6
330
2
100
AcDbEntity
  8
画層1
 62
     0
100
AcDbLine
 10
438.4999999999999
 20
50.95
 30
0.0
 11
441.5
 21
50.95
 31
0.0
  0
LINE
  5
2E7
330
2
100
AcDbEntity
  8
画層1
 62
     0
100
AcDbLine
 10
441.5
 20
48.55
 30
0.0
 11
438.4999999999999
 21
48.55
 31
0.0
  0
LINE
  5
2E8
330
2
100
AcDbEntity
  8
画層1
 62
     0
100
AcDbLine
 10
440.7
 20
47.75
 30
0.0
 11
438.4999999999999
 21
47.75
 31
0.0
  0
LINE
  5
2E9
330
2
100
AcDbEntity
  8
画層1
 62
     0
100
AcDbLine
 10
464.5
 20
15.25
 30
0.0
 11
436.5
 21
15.25
 31
0.0
  0
LINE
  5
2EA
330
2
100
AcDbEntity
  8
画層1
 62
     0
100
AcDbLine
 10
435.5
 20
14.25
 30
0.0
 11
464.5
 21
14.25
 31
0.0
  0
LINE
  5
2EB
330
2
100
AcDbEntity
  8
画層1
 62
     0
100
AcDbLine
 10
434.1
 20
49.35
 30
0.0
 11
434.1
 21
50.15
 31
0.0
  0
LINE
  5
2EC
330
2
100
AcDbEntity
  8
画層1
 62
     0
100
AcDbLine
 10
433.4999999999999
 20
52.25
 30
0.0
 11
433.4999999999999
 21
47.25
 31
0.0
  0
LINE
  5
2ED
330
2
100
AcDbEntity
  8
画層1
 62
     0
100
AcDbLine
 10
435.2
 20
54.75
 30
0.0
 11
435.2
 21
44.75
 31
0.0
  0
LINE
  5
2EE
330
2
100
AcDbEntity
  8
画層1
 62
     0
100
AcDbLine
 10
433.4999999999999
 20
49.35
 30
0.0
 11
434.1
 21
49.35
 31
0.0
  0
ARC
  5
2EF
330
2
100
AcDbEntity
  8
画層1
 62
     0
100
AcDbCircle
 10
434.4999999999999
 20
47.25
 30
0.0
 40
1.0
100
AcDbArc
 50
180.0
 51
270.0
  0
LINE
  5
2F0
330
2
100
AcDbEntity
  8
画層1
 62
     0
100
AcDbLine
 10
434.4999999999999
 20
46.25
 30
0.0
 11
435.2
 21
46.25
 31
0.0
  0
LINE
  5
2F1
330
2
100
AcDbEntity
  8
画層1
 62
     0
100
AcDbLine
 10
435.5
 20
44.75
 30
0.0
 11
435.2
 21
44.75
 31
0.0
  0
ARC
  5
2F2
330
2
100
AcDbEntity
  8
画層1
 62
     0
100
AcDbCircle
 10
434.4999999999999
 20
52.25
 30
0.0
 40
1.0
100
AcDbArc
 50
90.0
 51
180.0
  0
LINE
  5
2F3
330
2
100
AcDbEntity
  8
画層1
 62
     0
100
AcDbLine
 10
435.2
 20
53.25
 30
0.0
 11
434.4999999999999
 21
53.25
 31
0.0
  0
LINE
  5
2F4
330
2
100
AcDbEntity
  8
画層1
 62
     0
100
AcDbLine
 10
435.5
 20
54.75
 30
0.0
 11
435.2
 21
54.75
 31
0.0
  0
LINE
  5
2F5
330
2
100
AcDbEntity
  8
画層1
 62
     0
100
AcDbLine
 10
434.1
 20
50.15
 30
0.0
 11
433.4999999999999
 21
50.15
 31
0.0
  0
LINE
  5
2F6
330
2
100
AcDbEntity
  8
画層1
 62
     0
100
AcDbLine
 10
464.5
 20
14.25
 30
0.0
 11
464.5
 21
15.25
 31
0.0
  0
LINE
  5
2F7
330
2
100
AcDbEntity
  8
画層1
 62
     0
100
AcDbLine
 10
441.5
 20
50.95
 30
0.0
 11
441.5
 21
48.55
 31
0.0
  0
LINE
  5
2F8
330
2
100
AcDbEntity
  8
画層1
 62
     0
100
AcDbLine
 10
440.7
 20
51.75
 30
0.0
 11
440.7
 21
47.75
 31
0.0
  0
LINE
  5
2F9
330
2
100
AcDbEntity
  8
画層1
 62
     0
100
AcDbLine
 10
441.5
 20
48.55
 30
0.0
 11
440.7
 21
47.75
 31
0.0
  0
LINE
  5
2FA
330
2
100
AcDbEntity
  8
画層1
 62
     0
100
AcDbLine
 10
440.7
 20
51.75
 30
0.0
 11
441.5
 21
50.95
 31
0.0
  0
MTEXT
  5
2FB
330
2
100
AcDbEntity
  8
画層1
 62
     0
100
AcDbMText
 10
357.6799999999999
 20
74.90999999999999
 30
0.0
 40
5.0
 41
0.0
 71
     4
 72
     1
  1
端子穴
  7
STYLE1
 73
     1
 44
1.0
1001
ACAD
1000
MTEXTBEGIN
1070
    73
1070
     1
1070
    44
1040
1.0
1070
    74
1070
     0
1000
MTEXTEND
1000
MTEXTBEGIN
1070
    73
1070
     1
1070
    44
1040
1.0
1070
    74
1070
     0
1000
MTEXTEND
  0
ARC
  5
2FC
330
2
100
AcDbEntity
  8
画層1
  6
DIVIDE
 62
     0
100
AcDbCircle
 10
360.4999999999999
 20
59.25
 30
0.0
 40
5.0
100
AcDbArc
 50
0.0
 51
90.0
  0
DIMENSION
  5
2FD
330
2
100
AcDbEntity
  8
画層1
 62
     0
100
AcDbDimension
  2
*D24
 10
575.4999999999999
 20
3.75
 30
0.0
 11
654.4999999999999
 21
5.629999999999999
 31
0.0
 70
    32
 71
     5
 42
158.0
  3
STANDARD_WS
100
AcDbAlignedDimension
 13
733.4999999999999
 23
15.75
 33
0.0
 14
575.4999999999999
 24
15.25
 34
0.0
100
AcDbRotatedDimension
1001
ACAD
1000
DSTYLE
1002
{
1070
    47
1040
0.6
1070
   144
1040
1.0
1070
   146
1040
0.5
1070
   173
1070
     0
1070
   284
1070
     8
1070
   340
1005
27
1070
   341
1005
28
1070
     5
1000
OPEN30
1070
     6
1000
OPEN30
1002
}
  0
LINE
  5
30A
330
2
100
AcDbEntity
  8
画層1
  6
DASHED2
 62
     0
100
AcDbLine
 10
575.4999999999999
 20
64.75
 30
0.0
 11
575.4999999999999
 21
15.75
 31
0.0
  0
LINE
  5
30B
330
2
100
AcDbEntity
  8
画層1
  6
DASHED2
 62
     0
100
AcDbLine
 10
579.4999999999999
 20
64.75
 30
0.0
 11
579.4999999999999
 21
15.75
 31
0.0
  0
LINE
  5
30C
330
2
100
AcDbEntity
  8
画層1
  6
DIVIDE
 62
     0
100
AcDbLine
 10
545.5
 20
64.25
 30
0.0
 11
545.5
 21
7.75
 31
0.0
  0
LINE
  5
30D
330
2
100
AcDbEntity
  8
画層1
  6
DIVIDE
 62
     0
100
AcDbLine
 10
542.4999999999999
 20
7.75
 30
0.0
 11
542.4999999999999
 21
64.25
 31
0.0
  0
LINE
  5
30E
330
2
100
AcDbEntity
  8
画層1
 62
     0
100
AcDbLine
 10
575.4999999999999
 20
15.25
 30
0.0
 11
579.4999999999999
 21
15.25
 31
0.0
  0
LINE
  5
30F
330
2
100
AcDbEntity
  8
画層1
 62
     0
100
AcDbLine
 10
575.4999999999999
 20
15.75
 30
0.0
 11
575.4999999999999
 21
15.25
 31
0.0
  0
LINE
  5
310
330
2
100
AcDbEntity
  8
画層1
 62
     0
100
AcDbLine
 10
579.4999999999999
 20
15.25
 30
0.0
 11
579.4999999999999
 21
15.75
 31
0.0
  0
LINE
  5
311
330
2
100
AcDbEntity
  8
画層1
  6
CENTER
 62
     0
100
AcDbLine
 10
572.9
 20
29.25
 30
0.0
 11
582.1
 21
29.25
 31
0.0
  0
LINE
  5
312
330
2
100
AcDbEntity
  8
画層1
  6
DIVIDE
 62
     0
100
AcDbLine
 10
542.4999999999999
 20
64.25
 30
0.0
 11
545.5
 21
64.25
 31
0.0
  0
LINE
  5
313
330
2
100
AcDbEntity
  8
画層1
  6
CENTER
 62
     0
100
AcDbLine
 10
726.9
 20
472.25
 30
0.0
 11
736.1
 21
472.25
 31
0.0
  0
LINE
  5
314
330
2
100
AcDbEntity
  8
画層1
  6
CENTER
 62
     0
100
AcDbLine
 10
429.4999999999999
 20
249.75
 30
0.0
 11
737.5
 21
249.75
 31
0.0
  0
DIMENSION
  5
315
330
2
100
AcDbEntity
  8
画層1
 62
     0
100
AcDbDimension
  2
*D26
 10
733.4999999999999
 20
532.2499999999999
 30
0.0
 11
583.4999999999999
 21
534.13
 31
0.0
 70
    32
 71
     5
 42
300.0
  3
STANDARD_WS
100
AcDbAlignedDimension
 13
433.4999999999999
 23
452.2499999999999
 33
0.0
 14
733.4999999999999
 24
483.75
 34
0.0
100
AcDbRotatedDimension
1001
ACAD
1000
DSTYLE
1002
{
1070
    47
1040
0.6
1070
   144
1040
1.0
1070
   146
1040
0.5
1070
   173
1070
     0
1070
   284
1070
     8
1070
   340
1005
27
1070
   341
1005
28
1070
     5
1000
OPEN30
1070
     6
1000
OPEN30
1002
}
  0
DIMENSION
  5
322
330
2
100
AcDbEntity
  8
画層1
 62
     0
100
AcDbDimension
  2
*D27
 10
526.4999999999999
 20
485.25
 30
0.0
 11
524.6199999999999
 21
505.2500000000001
 31
0.0
 70
    32
 71
     5
 42
40.0
  3
STANDARD_WS
100
AcDbAlignedDimension
 13
542.4999999999999
 23
525.25
 33
0.0
 14
464.5
 24
485.25
 34
0.0
 50
90.0
100
AcDbRotatedDimension
1001
ACAD
1000
DSTYLE
1002
{
1070
    47
1040
0.6
1070
   144
1040
1.0
1070
   146
1040
0.5
1070
   173
1070
     0
1070
   284
1070
     8
1070
   340
1005
27
1070
   341
1005
28
1070
     5
1000
OPEN30
1070
     6
1000
OPEN30
1002
}
  0
LINE
  5
32F
330
2
100
AcDbEntity
  8
画層1
  6
DIVIDE
 62
     0
100
AcDbLine
 10
542.4999999999999
 20
435.25
 30
0.0
 11
542.4999999999999
 21
525.25
 31
0.0
  0
LINE
  5
330
330
2
100
AcDbEntity
  8
画層1
  6
DIVIDE
 62
     0
100
AcDbLine
 10
545.5
 20
525.25
 30
0.0
 11
545.5
 21
435.25
 31
0.0
  0
LINE
  5
331
330
2
100
AcDbEntity
  8
画層1
  6
DIVIDE
 62
     0
100
AcDbLine
 10
365.5
 20
520.2499999999999
 30
0.0
 11
365.5
 21
440.2499999999999
 31
0.0
  0
LINE
  5
332
330
2
100
AcDbEntity
  8
画層1
 62
     0
100
AcDbLine
 10
733.4999999999999
 20
483.75
 30
0.0
 11
436.5
 21
483.75
 31
0.0
  0
ARC
  5
333
330
2
100
AcDbEntity
  8
画層1
 62
     0
100
AcDbCircle
 10
391.0
 20
251.25
 30
0.0
 40
1.0
100
AcDbArc
 50
180.0
 51
270.0
  0
ARC
  5
334
330
2
100
AcDbEntity
  8
画層1
 62
     0
100
AcDbCircle
 10
391.0
 20
248.2499999999999
 30
0.0
 40
1.0
100
AcDbArc
 50
90.0
 51
180.0
  0
CIRCLE
  5
335
330
2
100
AcDbEntity
  8
画層1
 62
     0
100
AcDbCircle
 10
389.4999999999999
 20
249.75
 30
0.0
 40
5.0
  0
CIRCLE
  5
336
330
2
100
AcDbEntity
  8
画層1
 62
     0
100
AcDbCircle
 10
389.4999999999999
 20
249.75
 30
0.0
 40
3.5
  0
LINE
  5
337
330
2
100
AcDbEntity
  8
画層1
 62
     0
100
AcDbLine
 10
390.0
 20
252.2499999999999
 30
0.0
 11
390.0
 21
251.25
 31
0.0
  0
LINE
  5
338
330
2
100
AcDbEntity
  8
画層1
 62
     0
100
AcDbLine
 10
389.0
 20
251.25
 30
0.0
 11
389.0
 21
252.2499999999999
 31
0.0
  0
LINE
  5
339
330
2
100
AcDbEntity
  8
画層1
 62
     0
100
AcDbLine
 10
388.0
 20
249.25
 30
0.0
 11
387.0
 21
249.25
 31
0.0
  0
LINE
  5
33A
330
2
100
AcDbEntity
  8
画層1
 62
     0
100
AcDbLine
 10
387.0
 20
249.25
 30
0.0
 11
387.0
 21
250.2499999999999
 31
0.0
  0
LINE
  5
33B
330
2
100
AcDbEntity
  8
画層1
 62
     0
100
AcDbLine
 10
387.0
 20
250.2499999999999
 30
0.0
 11
388.0
 21
250.2499999999999
 31
0.0
  0
ARC
  5
33C
330
2
100
AcDbEntity
  8
画層1
 62
     0
100
AcDbCircle
 10
388.0
 20
251.25
 30
0.0
 40
1.0
100
AcDbArc
 50
270.0
 51
0.0
  0
LINE
  5
33D
330
2
100
AcDbEntity
  8
画層1
 62
     0
100
AcDbLine
 10
389.0
 20
252.2499999999999
 30
0.0
 11
390.0
 21
252.2499999999999
 31
0.0
  0
ARC
  5
33E
330
2
100
AcDbEntity
  8
画層1
 62
     0
100
AcDbCircle
 10
388.0
 20
248.2499999999999
 30
0.0
 40
1.0
100
AcDbArc
 50
0.0
 51
90.0
  0
LINE
  5
33F
330
2
100
AcDbEntity
  8
画層1
 62
     0
100
AcDbLine
 10
390.0
 20
247.25
 30
0.0
 11
389.0
 21
247.25
 31
0.0
  0
LINE
  5
340
330
2
100
AcDbEntity
  8
画層1
 62
     0
100
AcDbLine
 10
390.0
 20
248.2499999999999
 30
0.0
 11
390.0
 21
247.25
 31
0.0
  0
LINE
  5
341
330
2
100
AcDbEntity
  8
画層1
 62
     0
100
AcDbLine
 10
389.0
 20
247.25
 30
0.0
 11
389.0
 21
248.2499999999999
 31
0.0
  0
LINE
  5
342
330
2
100
AcDbEntity
  8
画層1
 62
     0
100
AcDbLine
 10
393.8399999999999
 20
252.2499999999999
 30
0.0
 11
395.5
 21
252.2499999999999
 31
0.0
  0
LINE
  5
343
330
2
100
AcDbEntity
  8
画層1
 62
     0
100
AcDbLine
 10
393.8399999999999
 20
247.25
 30
0.0
 11
395.5
 21
247.25
 31
0.0
  0
LINE
  5
344
330
2
100
AcDbEntity
  8
画層1
 62
     0
100
AcDbLine
 10
391.0
 20
250.2499999999999
 30
0.0
 11
392.0
 21
250.2499999999999
 31
0.0
  0
LINE
  5
345
330
2
100
AcDbEntity
  8
画層1
 62
     0
100
AcDbLine
 10
392.0
 20
250.2499999999999
 30
0.0
 11
392.0
 21
249.25
 31
0.0
  0
LINE
  5
346
330
2
100
AcDbEntity
  8
画層1
 62
     0
100
AcDbLine
 10
392.0
 20
249.25
 30
0.0
 11
391.0
 21
249.25
 31
0.0
  0
LINE
  5
347
330
2
100
AcDbEntity
  8
画層1
 62
     0
100
AcDbLine
 10
438.4999999999999
 20
251.75
 30
0.0
 11
440.7
 21
251.75
 31
0.0
  0
LINE
  5
348
330
2
100
AcDbEntity
  8
画層1
 62
     0
100
AcDbLine
 10
438.4999999999999
 20
250.95
 30
0.0
 11
441.5
 21
250.95
 31
0.0
  0
LINE
  5
349
330
2
100
AcDbEntity
  8
画層1
 62
     0
100
AcDbLine
 10
441.5
 20
248.55
 30
0.0
 11
438.4999999999999
 21
248.55
 31
0.0
  0
LINE
  5
34A
330
2
100
AcDbEntity
  8
画層1
 62
     0
100
AcDbLine
 10
440.7
 20
247.75
 30
0.0
 11
438.4999999999999
 21
247.75
 31
0.0
  0
ARC
  5
34B
330
2
100
AcDbEntity
  8
画層1
 62
     0
100
AcDbCircle
 10
434.4999999999999
 20
252.2499999999999
 30
0.0
 40
1.0
100
AcDbArc
 50
90.0
 51
180.0
  0
LINE
  5
34C
330
2
100
AcDbEntity
  8
画層1
 62
     0
100
AcDbLine
 10
435.2
 20
254.7499999999999
 30
0.0
 11
435.2
 21
244.75
 31
0.0
  0
ARC
  5
34D
330
2
100
AcDbEntity
  8
画層1
 62
     0
100
AcDbCircle
 10
434.4999999999999
 20
247.25
 30
0.0
 40
1.0
100
AcDbArc
 50
180.0
 51
270.0
  0
LINE
  5
34E
330
2
100
AcDbEntity
  8
画層1
 62
     0
100
AcDbLine
 10
434.4999999999999
 20
246.2499999999999
 30
0.0
 11
435.2
 21
246.2499999999999
 31
0.0
  0
LINE
  5
34F
330
2
100
AcDbEntity
  8
画層1
 62
     0
100
AcDbLine
 10
435.5
 20
244.75
 30
0.0
 11
435.2
 21
244.75
 31
0.0
  0
LINE
  5
350
330
2
100
AcDbEntity
  8
画層1
 62
     0
100
AcDbLine
 10
433.4999999999999
 20
249.35
 30
0.0
 11
434.1
 21
249.35
 31
0.0
  0
LINE
  5
351
330
2
100
AcDbEntity
  8
画層1
 62
     0
100
AcDbLine
 10
434.1
 20
250.15
 30
0.0
 11
433.4999999999999
 21
250.15
 31
0.0
  0
LINE
  5
352
330
2
100
AcDbEntity
  8
画層1
 62
     0
100
AcDbLine
 10
434.1
 20
249.35
 30
0.0
 11
434.1
 21
250.15
 31
0.0
  0
LINE
  5
353
330
2
100
AcDbEntity
  8
画層1
 62
     0
100
AcDbLine
 10
433.4999999999999
 20
252.2499999999999
 30
0.0
 11
433.4999999999999
 21
247.25
 31
0.0
  0
LINE
  5
354
330
2
100
AcDbEntity
  8
画層1
 62
     0
100
AcDbLine
 10
435.2
 20
253.25
 30
0.0
 11
434.4999999999999
 21
253.25
 31
0.0
  0
LINE
  5
355
330
2
100
AcDbEntity
  8
画層1
 62
     0
100
AcDbLine
 10
435.5
 20
254.7499999999999
 30
0.0
 11
435.2
 21
254.7499999999999
 31
0.0
  0
LINE
  5
356
330
2
100
AcDbEntity
  8
画層1
 62
     0
100
AcDbLine
 10
441.5
 20
250.95
 30
0.0
 11
441.5
 21
248.55
 31
0.0
  0
LINE
  5
357
330
2
100
AcDbEntity
  8
画層1
 62
     0
100
AcDbLine
 10
440.7
 20
251.75
 30
0.0
 11
441.5
 21
250.95
 31
0.0
  0
LINE
  5
358
330
2
100
AcDbEntity
  8
画層1
 62
     0
100
AcDbLine
 10
440.7
 20
251.75
 30
0.0
 11
440.7
 21
247.75
 31
0.0
  0
LINE
  5
359
330
2
100
AcDbEntity
  8
画層1
 62
     0
100
AcDbLine
 10
441.5
 20
248.55
 30
0.0
 11
440.7
 21
247.75
 31
0.0
  0
DIMENSION
  5
35A
330
2
100
AcDbEntity
  8
画層1
 62
     0
100
AcDbDimension
  2
*D22
 10
360.4999999999999
 20
454.75
 30
0.0
 11
358.6199999999998
 21
463.5
 31
0.0
 70
    32
 71
     5
 42
17.5
  3
STANDARD_WS
100
AcDbAlignedDimension
 13
326.0
 23
472.25
 33
0.0
 14
319.0
 24
454.75
 34
0.0
 50
90.0
100
AcDbRotatedDimension
1001
ACAD
1000
DSTYLE
1002
{
1070
    47
1040
0.6
1070
   144
1040
1.0
1070
   146
1040
0.5
1070
   173
1070
     0
1070
   284
1070
     8
1070
   340
1005
27
1070
   341
1005
28
1070
     5
1000
OPEN30
1070
     6
1000
OPEN30
1002
}
  0
ARC
  5
367
330
2
100
AcDbEntity
  8
画層1
  6
DASHED2
 62
     0
100
AcDbCircle
 10
335.4999999999999
 20
454.75
 30
0.0
 40
12.5
100
AcDbArc
 50
116.1
 51
63.89999999999999
  0
DIMENSION
  5
368
330
2
100
AcDbEntity
  8
画層1
 62
     0
100
AcDbDimension
  2
*D15
 10
310.4999999999999
 20
419.2499999999999
 30
0.0
 11
260.4999999999999
 21
421.1299999999999
 31
0.0
 70
    32
 71
     5
 42
100.0
  3
STANDARD_WS
100
AcDbAlignedDimension
 13
210.4999999999999
 23
475.75
 33
0.0
 14
310.4999999999999
 24
479.75
 34
0.0
100
AcDbRotatedDimension
1001
ACAD
1000
DSTYLE
1002
{
1070
   287
1070
     4
1070
   287
1070
     4
1070
   279
1070
     1
1070
    47
1040
0.6
1070
   144
1040
1.0
1070
   146
1040
0.5
1070
   173
1070
     0
1070
   284
1070
     8
1070
   340
1005
27
1070
   341
1005
28
1070
     5
1000
OPEN30
1070
     6
1000
OPEN30
1002
}
  0
CIRCLE
  5
375
330
2
100
AcDbEntity
  8
画層1
 62
     0
100
AcDbCircle
 10
311.5
 20
389.7499999999999
 30
0.0
 40
15.0
  0
LINE
  5
376
330
2
100
AcDbEntity
  8
画層1
  6
DASHED2
 62
     0
100
AcDbLine
 10
225.4999999999999
 20
484.25
 30
0.0
 11
225.4999999999999
 21
435.25
 31
0.0
  0
MTEXT
  5
377
330
2
100
AcDbEntity
  8
画層1
 62
     0
100
AcDbMText
 10
226.92
 20
479.8099999999999
 30
0.0
 40
5.0
 41
7.0
 71
     1
 72
     5
  1
Ｓ
  7
STYLE1
 73
     1
 44
1.0
1001
ACAD
1000
MTEXTBEGIN
1070
    73
1070
     1
1070
    44
1040
1.0
1070
    74
1070
     0
1000
MTEXTEND
1000
MTEXTBEGIN
1070
    73
1070
     1
1070
    44
1040
1.0
1070
    74
1070
     0
1000
MTEXTEND
  0
DIMENSION
  5
378
330
2
100
AcDbEntity
  8
画層1
 62
     0
100
AcDbDimension
  2
*D21
 10
341.0
 20
497.75
 30
0.0
 11
307.8399999999999
 21
497.75
 31
0.0
 70
   160
 71
     5
 42
11.0
  3
STANDARD_WS
100
AcDbAlignedDimension
 13
330.0
 23
472.25
 33
0.0
 14
341.0
 24
472.25
 34
0.0
100
AcDbRotatedDimension
1001
ACAD
1000
DSTYLE
1002
{
1070
     3
1000
2-<>取付穴
1070
    47
1040
0.6
1070
   144
1040
1.0
1070
   146
1040
0.5
1070
   173
1070
     0
1070
   284
1070
     8
1070
   340
1005
27
1070
   341
1005
28
1070
     5
1000
OPEN30
1070
     6
1000
OPEN30
1002
}
  0
ARC
  5
386
330
2
100
AcDbEntity
  8
画層1
  6
DASHED2
 62
     0
100
AcDbCircle
 10
335.4999999999999
 20
472.25
 30
0.0
 40
5.5
100
AcDbArc
 50
0.0
 51
180.0
  0
CIRCLE
  5
387
330
2
100
AcDbEntity
  8
画層1
  6
DASHED2
 62
     0
100
AcDbCircle
 10
310.4999999999999
 20
470.2499999999999
 30
0.0
 40
5.5
  0
LINE
  5
388
330
2
100
AcDbEntity
  8
画層1
  6
DASHED2
 62
     0
100
AcDbLine
 10
325.4999999999999
 20
484.25
 30
0.0
 11
325.4999999999999
 21
435.25
 31
0.0
  0
LINE
  5
389
330
2
100
AcDbEntity
  8
画層1
  6
DASHED2
 62
     0
100
AcDbLine
 10
295.5
 20
435.25
 30
0.0
 11
295.5
 21
484.25
 31
0.0
  0
LINE
  5
38A
330
2
100
AcDbEntity
  8
画層1
 62
     0
100
AcDbLine
 10
303.5
 20
470.2499999999999
 30
0.0
 11
317.5
 21
470.2499999999999
 31
0.0
  0
LINE
  5
38B
330
2
100
AcDbEntity
  8
画層1
  6
DASHED2
 62
     0
100
AcDbLine
 10
330.0
 20
472.25
 30
0.0
 11
330.0
 21
465.9699999999999
 31
0.0
  0
LINE
  5
38C
330
2
100
AcDbEntity
  8
画層1
  6
DASHED2
 62
     0
100
AcDbLine
 10
341.0
 20
472.25
 30
0.0
 11
341.0
 21
465.9699999999999
 31
0.0
  0
LINE
  5
38D
330
2
100
AcDbEntity
  8
画層1
  6
DASHED2
 62
     0
100
AcDbLine
 10
295.5
 20
484.25
 30
0.0
 11
325.4999999999999
 21
484.25
 31
0.0
  0
MTEXT
  5
38E
330
2
100
AcDbEntity
  8
画層1
 62
     0
100
AcDbMText
 10
286.16
 20
479.8099999999999
 30
0.0
 40
5.0
 41
7.0
 71
     1
 72
     5
  1
Ｔ
  7
STYLE1
 73
     1
 44
1.0
1001
ACAD
1000
MTEXTBEGIN
1070
    73
1070
     1
1070
    44
1040
1.0
1070
    74
1070
     0
1000
MTEXTEND
1000
MTEXTBEGIN
1070
    73
1070
     1
1070
    44
1040
1.0
1070
    74
1070
     0
1000
MTEXTEND
  0
LEADER
  5
38F
330
2
100
AcDbEntity
  8
画層1
 62
     0
100
AcDbLeader
  3
STANDARD_WS
 73
     0
 74
     0
 75
     1
 40
5.929999999999999
 41
12.49
 76
     3
 10
342.0799999999999
 20
444.13
 30
0.0
 10
359.62
 20
419.81
 30
0.0
 10
361.12
 20
419.81
 30
0.0
340
390
213
2.171758039940754
223
0.0
233
0.0
1001
ACAD
1000
DSTYLE
1002
{
1070
     6
1000
OPEN30
1070
    47
1040
0.6
1070
    77
1070
     2
1070
   144
1040
2.0
1070
   146
1040
0.5
1070
   147
1040
0.63
1070
   284
1070
     8
1070
   340
1005
27
1070
   341
1005
28
1070
   343
1005
28
1002
}
  0
MTEXT
  5
390
102
{ACAD_REACTORS
330
38F
102
}
330
2
100
AcDbEntity
  8
画層1
 62
     0
100
AcDbMText
 10
359.58
 20
423.41
 30
0.0
 40
5.0
 41
0.0
 71
     4
 72
     1
  1
φ25
  7
STYLE1
 73
     1
 44
1.0
1001
ACAD
1000
MTEXTBEGIN
1070
    73
1070
     1
1070
    44
1040
1.0
1070
    74
1070
     0
1000
MTEXTEND
1000
MTEXTBEGIN
1070
    73
1070
     1
1070
    44
1040
1.0
1070
    74
1070
     0
1000
MTEXTEND
  0
ARC
  5
391
330
2
100
AcDbEntity
  8
画層1
  6
DIVIDE
 62
     0
100
AcDbCircle
 10
360.4999999999999
 20
440.2499999999999
 30
0.0
 40
5.0
100
AcDbArc
 50
270.0
 51
0.0
  0
ARC
  5
392
330
2
100
AcDbEntity
  8
画層1
 62
     0
100
AcDbCircle
 10
388.0
 20
451.25
 30
0.0
 40
1.0
100
AcDbArc
 50
270.0
 51
0.0
  0
ARC
  5
393
330
2
100
AcDbEntity
  8
画層1
 62
     0
100
AcDbCircle
 10
391.0
 20
451.25
 30
0.0
 40
1.0
100
AcDbArc
 50
180.0
 51
270.0
  0
LINE
  5
394
330
2
100
AcDbEntity
  8
画層1
 62
     0
100
AcDbLine
 10
387.0
 20
449.2499999999999
 30
0.0
 11
387.0
 21
450.25
 31
0.0
  0
LINE
  5
395
330
2
100
AcDbEntity
  8
画層1
 62
     0
100
AcDbLine
 10
392.0
 20
450.25
 30
0.0
 11
392.0
 21
449.2499999999999
 31
0.0
  0
CIRCLE
  5
396
330
2
100
AcDbEntity
  8
画層1
 62
     0
100
AcDbCircle
 10
389.4999999999999
 20
449.75
 30
0.0
 40
3.5
  0
CIRCLE
  5
397
330
2
100
AcDbEntity
  8
画層1
 62
     0
100
AcDbCircle
 10
389.4999999999999
 20
449.75
 30
0.0
 40
5.0
  0
ARC
  5
398
330
2
100
AcDbEntity
  8
画層1
 62
     0
100
AcDbCircle
 10
391.0
 20
448.2499999999999
 30
0.0
 40
1.0
100
AcDbArc
 50
90.0
 51
180.0
  0
ARC
  5
399
330
2
100
AcDbEntity
  8
画層1
 62
     0
100
AcDbCircle
 10
388.0
 20
448.2499999999999
 30
0.0
 40
1.0
100
AcDbArc
 50
0.0
 51
90.0
  0
LINE
  5
39A
330
2
100
AcDbEntity
  8
画層1
 62
     0
100
AcDbLine
 10
388.0
 20
449.2499999999999
 30
0.0
 11
387.0
 21
449.2499999999999
 31
0.0
  0
LINE
  5
39B
330
2
100
AcDbEntity
  8
画層1
 62
     0
100
AcDbLine
 10
389.0
 20
447.25
 30
0.0
 11
389.0
 21
448.2499999999999
 31
0.0
  0
LINE
  5
39C
330
2
100
AcDbEntity
  8
画層1
 62
     0
100
AcDbLine
 10
390.0
 20
447.25
 30
0.0
 11
389.0
 21
447.25
 31
0.0
  0
LINE
  5
39D
330
2
100
AcDbEntity
  8
画層1
 62
     0
100
AcDbLine
 10
390.0
 20
448.2499999999999
 30
0.0
 11
390.0
 21
447.25
 31
0.0
  0
LINE
  5
39E
330
2
100
AcDbEntity
  8
画層1
 62
     0
100
AcDbLine
 10
393.8399999999999
 20
447.25
 30
0.0
 11
395.5
 21
447.25
 31
0.0
  0
LINE
  5
39F
330
2
100
AcDbEntity
  8
画層1
 62
     0
100
AcDbLine
 10
392.0
 20
449.2499999999999
 30
0.0
 11
391.0
 21
449.2499999999999
 31
0.0
  0
LINE
  5
3A0
330
2
100
AcDbEntity
  8
画層1
 62
     0
100
AcDbLine
 10
389.0
 20
452.2499999999999
 30
0.0
 11
390.0
 21
452.2499999999999
 31
0.0
  0
LINE
  5
3A1
330
2
100
AcDbEntity
  8
画層1
 62
     0
100
AcDbLine
 10
387.0
 20
450.25
 30
0.0
 11
388.0
 21
450.25
 31
0.0
  0
LINE
  5
3A2
330
2
100
AcDbEntity
  8
画層1
 62
     0
100
AcDbLine
 10
389.0
 20
451.25
 30
0.0
 11
389.0
 21
452.2499999999999
 31
0.0
  0
LINE
  5
3A3
330
2
100
AcDbEntity
  8
画層1
 62
     0
100
AcDbLine
 10
390.0
 20
452.2499999999999
 30
0.0
 11
390.0
 21
451.25
 31
0.0
  0
LINE
  5
3A4
330
2
100
AcDbEntity
  8
画層1
 62
     0
100
AcDbLine
 10
393.8399999999999
 20
452.2499999999999
 30
0.0
 11
395.5
 21
452.2499999999999
 31
0.0
  0
LINE
  5
3A5
330
2
100
AcDbEntity
  8
画層1
 62
     0
100
AcDbLine
 10
391.0
 20
450.25
 30
0.0
 11
392.0
 21
450.25
 31
0.0
  0
LINE
  5
3A6
330
2
100
AcDbEntity
  8
画層1
 62
     0
100
AcDbLine
 10
438.4999999999999
 20
451.75
 30
0.0
 11
440.7
 21
451.75
 31
0.0
  0
LINE
  5
3A7
330
2
100
AcDbEntity
  8
画層1
 62
     0
100
AcDbLine
 10
438.4999999999999
 20
450.95
 30
0.0
 11
441.5
 21
450.95
 31
0.0
  0
LINE
  5
3A8
330
2
100
AcDbEntity
  8
画層1
 62
     0
100
AcDbLine
 10
441.5
 20
448.55
 30
0.0
 11
438.4999999999999
 21
448.55
 31
0.0
  0
LINE
  5
3A9
330
2
100
AcDbEntity
  8
画層1
 62
     0
100
AcDbLine
 10
440.7
 20
447.75
 30
0.0
 11
438.4999999999999
 21
447.75
 31
0.0
  0
LINE
  5
3AA
330
2
100
AcDbEntity
  8
画層1
 62
     0
100
AcDbLine
 10
433.4999999999999
 20
452.2499999999999
 30
0.0
 11
433.4999999999999
 21
447.25
 31
0.0
  0
LINE
  5
3AB
330
2
100
AcDbEntity
  8
画層1
 62
     0
100
AcDbLine
 10
434.1
 20
449.35
 30
0.0
 11
434.1
 21
450.15
 31
0.0
  0
LINE
  5
3AC
330
2
100
AcDbEntity
  8
画層1
 62
     0
100
AcDbLine
 10
435.2
 20
454.75
 30
0.0
 11
435.2
 21
444.7499999999999
 31
0.0
  0
LINE
  5
3AD
330
2
100
AcDbEntity
  8
画層1
 62
     0
100
AcDbLine
 10
433.4999999999999
 20
449.35
 30
0.0
 11
434.1
 21
449.35
 31
0.0
  0
ARC
  5
3AE
330
2
100
AcDbEntity
  8
画層1
 62
     0
100
AcDbCircle
 10
434.4999999999999
 20
447.25
 30
0.0
 40
1.0
100
AcDbArc
 50
180.0
 51
270.0
  0
LINE
  5
3AF
330
2
100
AcDbEntity
  8
画層1
 62
     0
100
AcDbLine
 10
434.4999999999999
 20
446.25
 30
0.0
 11
435.2
 21
446.25
 31
0.0
  0
LINE
  5
3B0
330
2
100
AcDbEntity
  8
画層1
 62
     0
100
AcDbLine
 10
435.5
 20
444.7499999999999
 30
0.0
 11
435.2
 21
444.7499999999999
 31
0.0
  0
LINE
  5
3B1
330
2
100
AcDbEntity
  8
画層1
 62
     0
100
AcDbLine
 10
435.5
 20
454.75
 30
0.0
 11
435.2
 21
454.75
 31
0.0
  0
ARC
  5
3B2
330
2
100
AcDbEntity
  8
画層1
 62
     0
100
AcDbCircle
 10
434.4999999999999
 20
452.2499999999999
 30
0.0
 40
1.0
100
AcDbArc
 50
90.0
 51
180.0
  0
LINE
  5
3B3
330
2
100
AcDbEntity
  8
画層1
 62
     0
100
AcDbLine
 10
434.1
 20
450.15
 30
0.0
 11
433.4999999999999
 21
450.15
 31
0.0
  0
LINE
  5
3B4
330
2
100
AcDbEntity
  8
画層1
 62
     0
100
AcDbLine
 10
435.2
 20
453.2499999999999
 30
0.0
 11
434.4999999999999
 21
453.2499999999999
 31
0.0
  0
LINE
  5
3B5
330
2
100
AcDbEntity
  8
画層1
 62
     0
100
AcDbLine
 10
441.5
 20
450.95
 30
0.0
 11
441.5
 21
448.55
 31
0.0
  0
LINE
  5
3B6
330
2
100
AcDbEntity
  8
画層1
 62
     0
100
AcDbLine
 10
440.7
 20
451.75
 30
0.0
 11
440.7
 21
447.75
 31
0.0
  0
LINE
  5
3B7
330
2
100
AcDbEntity
  8
画層1
 62
     0
100
AcDbLine
 10
441.5
 20
448.55
 30
0.0
 11
440.7
 21
447.75
 31
0.0
  0
LINE
  5
3B8
330
2
100
AcDbEntity
  8
画層1
 62
     0
100
AcDbLine
 10
440.7
 20
451.75
 30
0.0
 11
441.5
 21
450.95
 31
0.0
  0
LINE
  5
3B9
330
2
100
AcDbEntity
  8
画層1
 62
     0
100
AcDbLine
 10
464.5
 20
485.25
 30
0.0
 11
435.5
 21
485.25
 31
0.0
  0
LINE
  5
3BA
330
2
100
AcDbEntity
  8
画層1
 62
     0
100
AcDbLine
 10
436.5
 20
484.25
 30
0.0
 11
464.5
 21
484.25
 31
0.0
  0
LINE
  5
3BB
330
2
100
AcDbEntity
  8
画層1
 62
     0
100
AcDbLine
 10
464.5
 20
484.25
 30
0.0
 11
464.5
 21
485.25
 31
0.0
  0
DIMENSION
  5
3BC
330
2
100
AcDbEntity
  8
画層1
 62
     0
100
AcDbDimension
  2
*D25
 10
575.4999999999999
 20
511.7499999999999
 30
0.0
 11
654.4999999999999
 21
513.63
 31
0.0
 70
    32
 71
     5
 42
158.0
  3
STANDARD_WS
100
AcDbAlignedDimension
 13
733.4999999999999
 23
483.75
 33
0.0
 14
575.4999999999999
 24
484.25
 34
0.0
100
AcDbRotatedDimension
1001
ACAD
1000
DSTYLE
1002
{
1070
    47
1040
0.6
1070
   144
1040
1.0
1070
   146
1040
0.5
1070
   173
1070
     0
1070
   284
1070
     8
1070
   340
1005
27
1070
   341
1005
28
1070
     5
1000
OPEN30
1070
     6
1000
OPEN30
1002
}
  0
LINE
  5
3C9
330
2
100
AcDbEntity
  8
画層1
  6
DASHED2
 62
     0
100
AcDbLine
 10
579.4999999999999
 20
434.75
 30
0.0
 11
579.4999999999999
 21
483.75
 31
0.0
  0
LINE
  5
3CA
330
2
100
AcDbEntity
  8
画層1
  6
DASHED2
 62
     0
100
AcDbLine
 10
575.4999999999999
 20
434.75
 30
0.0
 11
575.4999999999999
 21
483.75
 31
0.0
  0
LINE
  5
3CB
330
2
100
AcDbEntity
  8
画層1
  6
DIVIDE
 62
     0
100
AcDbLine
 10
545.5
 20
435.25
 30
0.0
 11
542.4999999999999
 21
435.25
 31
0.0
  0
LINE
  5
3CC
330
2
100
AcDbEntity
  8
画層1
  6
CENTER
 62
     0
100
AcDbLine
 10
572.9
 20
470.2499999999999
 30
0.0
 11
582.1
 21
470.2499999999999
 31
0.0
  0
LINE
  5
3CD
330
2
100
AcDbEntity
  8
画層1
 62
     0
100
AcDbLine
 10
575.4999999999999
 20
484.25
 30
0.0
 11
579.4999999999999
 21
484.25
 31
0.0
  0
LINE
  5
3CE
330
2
100
AcDbEntity
  8
画層1
 62
     0
100
AcDbLine
 10
575.4999999999999
 20
483.75
 30
0.0
 11
575.4999999999999
 21
484.25
 31
0.0
  0
LINE
  5
3CF
330
2
100
AcDbEntity
  8
画層1
 62
     0
100
AcDbLine
 10
579.4999999999999
 20
484.25
 30
0.0
 11
579.4999999999999
 21
483.75
 31
0.0
  0
ARC
  5
3D0
330
2
100
AcDbEntity
  8
画層1
  6
DIVIDE
 62
     0
100
AcDbCircle
 10
360.4999999999999
 20
520.2499999999999
 30
0.0
 40
5.0
100
AcDbArc
 50
0.0
 51
90.0
  0
LINE
  5
3D1
330
2
100
AcDbEntity
  8
画層1
  6
DIVIDE
 62
     0
100
AcDbLine
 10
542.4999999999999
 20
525.25
 30
0.0
 11
545.5
 21
525.25
 31
0.0
  0
ENDSEC
  0
SECTION
  2
OBJECTS
  0
DICTIONARY
  5
9
330
0
100
AcDbDictionary
281
     1
  3
ACAD_GROUP
350
23
  3
ACAD_LAYOUT
350
D
  3
ACAD_MLINESTYLE
350
24
  3
ACAD_PLOTSETTINGS
350
25
  3
ACAD_PLOTSTYLENAME
350
8
  3
DWGPROPS
350
4A6
  0
DICTIONARY
  5
3
330
2
100
AcDbDictionary
280
     1
281
     1
  3
ACAD_LAYOUTSELFREF
360
3F3
  0
DICTIONARY
  5
F
330
E
100
AcDbDictionary
280
     1
281
     1
  3
ACAD_LAYOUTSELFREF
360
3F4
  0
DICTIONARY
  5
23
102
{ACAD_REACTORS
330
9
102
}
330
9
100
AcDbDictionary
281
     1
  0
DICTIONARY
  5
D
102
{ACAD_REACTORS
330
9
102
}
330
9
100
AcDbDictionary
281
     1
  3
Model
350
404
  3
ﾚｲｱｳﾄ1
350
405
  0
DICTIONARY
  5
24
102
{ACAD_REACTORS
330
9
102
}
330
9
100
AcDbDictionary
281
     1
  3
STANDARD
350
34
  0
DICTIONARY
  5
25
102
{ACAD_REACTORS
330
9
102
}
330
9
100
AcDbDictionary
281
     1
  0
ACDBDICTIONARYWDFLT
  5
8
102
{ACAD_REACTORS
330
9
102
}
330
9
100
AcDbDictionary
281
     1
  3
Normal
350
7
100
AcDbDictionaryWithDefault
340
7
  0
XRECORD
  5
4A6
102
{ACAD_REACTORS
330
9
102
}
330
9
100
AcDbXrecord
280
     1
  1
DWGPROPS COOKIE
  2

  3

  4

  6

  7

  8

  9

300
=
301
=
302
=
303
=
304
=
305
=
306
=
307
=
308
=
309
=
 40
4.89581099537037
 41
2450995.462150231
 42
2451964.722699305
  1

 90
        0
  0
XRECORD
  5
3F3
102
{ACAD_REACTORS
330
3
102
}
330
3
100
AcDbXrecord
280
     1
340
2
  0
XRECORD
  5
3F4
102
{ACAD_REACTORS
330
F
102
}
330
F
100
AcDbXrecord
280
     1
340
E
  0
LAYOUT
  5
404
102
{ACAD_REACTORS
330
D
102
}
330
D
100
AcDbPlotSettings
  1

  2
EPSON MJ-6000C
  4

  6

 40
0.0
 41
0.0
 42
0.0
 43
0.0
 44
0.0
 45
0.0
 46
0.0
 47
0.0
 48
0.0
 49
0.0
140
0.0
141
0.0
142
1.0
143
1.0
 70
  1712
 72
     0
 73
     0
 74
     0
  7

 75
     0
147
1.0
148
0.0
149
0.0
100
AcDbLayout
  1
Model
 70
     1
 71
     0
 10
0.0
 20
0.0
 11
12.0
 21
9.0
 12
0.0
 22
0.0
 32
0.0
 14
0.0
 24
0.0
 34
0.0
 15
0.0
 25
0.0
 35
0.0
146
0.0
 13
0.0
 23
0.0
 33
0.0
 16
1.0
 26
0.0
 36
0.0
 17
0.0
 27
1.0
 37
0.0
 76
     0
330
2
  0
LAYOUT
  5
405
102
{ACAD_REACTORS
330
D
102
}
330
D
100
AcDbPlotSettings
  1

  2
EPSON MJ-6000C
  4

  6

 40
0.0
 41
0.0
 42
0.0
 43
0.0
 44
0.0
 45
0.0
 46
0.0
 47
0.0
 48
0.0
 49
0.0
140
0.0
141
0.0
142
1.0
143
1.0
 70
   688
 72
     0
 73
     0
 74
     5
  7

 75
    16
147
1.0
148
0.0
149
0.0
100
AcDbLayout
  1
ﾚｲｱｳﾄ1
 70
     1
 71
     1
 10
0.0
 20
0.0
 11
420.0
 21
297.0
 12
0.0
 22
0.0
 32
0.0
 14
1.000000000000000E+20
 24
1.000000000000000E+20
 34
1.000000000000000E+20
 15
-1.000000000000000E+20
 25
-1.000000000000000E+20
 35
-1.000000000000000E+20
146
0.0
 13
0.0
 23
0.0
 33
0.0
 16
1.0
 26
0.0
 36
0.0
 17
0.0
 27
1.0
 37
0.0
 76
     0
330
E
  0
MLINESTYLE
  5
34
102
{ACAD_REACTORS
330
24
102
}
330
24
100
AcDbMlineStyle
  2
STANDARD
 70
     0
  3

 62
   256
 51
90.0
 52
90.0
 71
     2
 49
0.5
 62
   256
  6
BYLAYER
 49
-0.5
 62
   256
  6
BYLAYER
  0
ACDBPLACEHOLDER
  5
7
102
{ACAD_REACTORS
330
8
102
}
330
8
  0
ENDSEC
  0
EOF
