  0
SECTION
  2
HEADER
  9
$ACADVER
  1
AC1015
  9
$ACADMAINTVER
 70
     6
  9
$DWGCODEPAGE
  3
ANSI_932
  9
$INSBASE
 10
0.0
 20
0.0
 30
0.0
  9
$EXTMIN
 10
-685.3341459465916
 20
62.16377104011542
 30
0.0
  9
$EXTMAX
 10
-193.5791679920685
 20
430.9391578938561
 30
0.0
  9
$LIMMIN
 10
0.0
 20
0.0
  9
$LIMMAX
 10
420.0
 20
297.0
  9
$ORTHOMODE
 70
     1
  9
$REGENMODE
 70
     1
  9
$FILLMODE
 70
     1
  9
$QTEXTMODE
 70
     0
  9
$MIRRTEXT
 70
     1
  9
$LTSCALE
 40
0.2
  9
$ATTMODE
 70
     1
  9
$TEXTSIZE
 40
2.5
  9
$TRACEWID
 40
1.0
  9
$TEXTSTYLE
  7
STYLE1
  9
$CLAYER
  8
画層1
  9
$CELTYPE
  6
DASHED2
  9
$CECOLOR
 62
   256
  9
$CELTSCALE
 40
1.0
  9
$DISPSILH
 70
     0
  9
$DIMSCALE
 40
1.0
  9
$DIMASZ
 40
1.5
  9
$DIMEXO
 40
0.63
  9
$DIMDLI
 40
3.75
  9
$DIMRND
 40
0.0
  9
$DIMDLE
 40
0.0
  9
$DIMEXE
 40
1.25
  9
$DIMTP
 40
0.6
  9
$DIMTM
 40
0.0
  9
$DIMTXT
 40
50.0
  9
$DIMCEN
 40
2.5
  9
$DIMTSZ
 40
0.0
  9
$DIMTOL
 70
     0
  9
$DIMLIM
 70
     0
  9
$DIMTIH
 70
     0
  9
$DIMTOH
 70
     0
  9
$DIMSE1
 70
     0
  9
$DIMSE2
 70
     0
  9
$DIMTAD
 70
     1
  9
$DIMZIN
 70
     8
  9
$DIMBLK
  1
OPEN30
  9
$DIMASO
 70
     1
  9
$DIMSHO
 70
     1
  9
$DIMPOST
  1

  9
$DIMAPOST
  1

  9
$DIMALT
 70
     0
  9
$DIMALTD
 70
     4
  9
$DIMALTF
 40
0.04
  9
$DIMLFAC
 40
1.0
  9
$DIMTOFL
 70
     1
  9
$DIMTVP
 40
0.0
  9
$DIMTIX
 70
     0
  9
$DIMSOXD
 70
     0
  9
$DIMSAH
 70
     0
  9
$DIMBLK1
  1

  9
$DIMBLK2
  1

  9
$DIMSTYLE
  2
STANDARD_WS
  9
$DIMCLRD
 70
     0
  9
$DIMCLRE
 70
     0
  9
$DIMCLRT
 70
     0
  9
$DIMTFAC
 40
0.5
  9
$DIMGAP
 40
1.0
  9
$DIMJUST
 70
     0
  9
$DIMSD1
 70
     0
  9
$DIMSD2
 70
     0
  9
$DIMTOLJ
 70
     1
  9
$DIMTZIN
 70
     8
  9
$DIMALTZ
 70
     0
  9
$DIMALTTZ
 70
     0
  9
$DIMUPT
 70
     0
  9
$DIMDEC
 70
     0
  9
$DIMTDEC
 70
     0
  9
$DIMALTU
 70
     8
  9
$DIMALTTD
 70
     4
  9
$DIMTXSTY
  7
STANDARD
  9
$DIMAUNIT
 70
     0
  9
$DIMADEC
 70
     0
  9
$DIMALTRND
 40
0.0
  9
$DIMAZIN
 70
     0
  9
$DIMDSEP
 70
    46
  9
$DIMATFIT
 70
     3
  9
$DIMFRAC
 70
     0
  9
$DIMLDRBLK
  1
OPEN30
  9
$DIMLUNIT
 70
     2
  9
$DIMLWD
 70
    -2
  9
$DIMLWE
 70
    -2
  9
$DIMTMOVE
 70
     0
  9
$LUNITS
 70
     2
  9
$LUPREC
 70
     4
  9
$SKETCHINC
 40
1.0
  9
$FILLETRAD
 40
5.0
  9
$AUNITS
 70
     0
  9
$AUPREC
 70
     0
  9
$MENU
  1
acad
  9
$ELEVATION
 40
0.0
  9
$PELEVATION
 40
0.0
  9
$THICKNESS
 40
0.0
  9
$LIMCHECK
 70
     0
  9
$CHAMFERA
 40
10.0
  9
$CHAMFERB
 40
10.0
  9
$CHAMFERC
 40
20.0
  9
$CHAMFERD
 40
0.0
  9
$SKPOLY
 70
     0
  9
$TDCREATE
 40
2450995.462150231
  9
$TDUCREATE
 40
2450995.087150231
  9
$TDUPDATE
 40
2454231.391123947
  9
$TDUUPDATE
 40
2454231.016123946
  9
$TDINDWG
 40
5.6331956481
  9
$TDUSRTIMER
 40
5.6331918287
  9
$USRTIMER
 70
     1
  9
$ANGBASE
 50
0.0
  9
$ANGDIR
 70
     0
  9
$PDMODE
 70
     0
  9
$PDSIZE
 40
0.0
  9
$PLINEWID
 40
10.0
  9
$SPLFRAME
 70
     0
  9
$SPLINETYPE
 70
     6
  9
$SPLINESEGS
 70
     8
  9
$HANDSEED
  5
1DBE
  9
$SURFTAB1
 70
     6
  9
$SURFTAB2
 70
     6
  9
$SURFTYPE
 70
     6
  9
$SURFU
 70
     6
  9
$SURFV
 70
     6
  9
$UCSBASE
  2

  9
$UCSNAME
  2

  9
$UCSORG
 10
0.0
 20
0.0
 30
0.0
  9
$UCSXDIR
 10
1.0
 20
0.0
 30
0.0
  9
$UCSYDIR
 10
0.0
 20
1.0
 30
0.0
  9
$UCSORTHOREF
  2

  9
$UCSORTHOVIEW
 70
     0
  9
$UCSORGTOP
 10
0.0
 20
0.0
 30
0.0
  9
$UCSORGBOTTOM
 10
0.0
 20
0.0
 30
0.0
  9
$UCSORGLEFT
 10
0.0
 20
0.0
 30
0.0
  9
$UCSORGRIGHT
 10
0.0
 20
0.0
 30
0.0
  9
$UCSORGFRONT
 10
0.0
 20
0.0
 30
0.0
  9
$UCSORGBACK
 10
0.0
 20
0.0
 30
0.0
  9
$PUCSBASE
  2

  9
$PUCSNAME
  2

  9
$PUCSORG
 10
0.0
 20
0.0
 30
0.0
  9
$PUCSXDIR
 10
1.0
 20
0.0
 30
0.0
  9
$PUCSYDIR
 10
0.0
 20
1.0
 30
0.0
  9
$PUCSORTHOREF
  2

  9
$PUCSORTHOVIEW
 70
     0
  9
$PUCSORGTOP
 10
0.0
 20
0.0
 30
0.0
  9
$PUCSORGBOTTOM
 10
0.0
 20
0.0
 30
0.0
  9
$PUCSORGLEFT
 10
0.0
 20
0.0
 30
0.0
  9
$PUCSORGRIGHT
 10
0.0
 20
0.0
 30
0.0
  9
$PUCSORGFRONT
 10
0.0
 20
0.0
 30
0.0
  9
$PUCSORGBACK
 10
0.0
 20
0.0
 30
0.0
  9
$USERI1
 70
     0
  9
$USERI2
 70
     0
  9
$USERI3
 70
     0
  9
$USERI4
 70
     0
  9
$USERI5
 70
     0
  9
$USERR1
 40
0.0
  9
$USERR2
 40
0.0
  9
$USERR3
 40
0.0
  9
$USERR4
 40
0.0
  9
$USERR5
 40
0.0
  9
$WORLDVIEW
 70
     1
  9
$SHADEDGE
 70
     3
  9
$SHADEDIF
 70
    70
  9
$TILEMODE
 70
     1
  9
$MAXACTVP
 70
    48
  9
$PINSBASE
 10
0.0
 20
0.0
 30
0.0
  9
$PLIMCHECK
 70
     0
  9
$PEXTMIN
 10
1.000000000000000E+20
 20
1.000000000000000E+20
 30
1.000000000000000E+20
  9
$PEXTMAX
 10
-1.000000000000000E+20
 20
-1.000000000000000E+20
 30
-1.000000000000000E+20
  9
$PLIMMIN
 10
0.0
 20
0.0
  9
$PLIMMAX
 10
420.0
 20
297.0
  9
$UNITMODE
 70
     0
  9
$VISRETAIN
 70
     1
  9
$PLINEGEN
 70
     0
  9
$PSLTSCALE
 70
     1
  9
$TREEDEPTH
 70
  3020
  9
$CMLSTYLE
  2
STANDARD
  9
$CMLJUST
 70
     0
  9
$CMLSCALE
 40
20.0
  9
$PROXYGRAPHICS
 70
     1
  9
$MEASUREMENT
 70
     1
  9
$CELWEIGHT
370
    20
  9
$ENDCAPS
280
     0
  9
$JOINSTYLE
280
     0
  9
$LWDISPLAY
290
     0
  9
$INSUNITS
 70
     0
  9
$HYPERLINKBASE
  1

  9
$STYLESHEET
  1

  9
$XEDIT
290
     1
  9
$CEPSNTYPE
380
     0
  9
$PSTYLEMODE
290
     1
  9
$FINGERPRINTGUID
  2
{12426522-B208-11D3-A790-004026173390}
  9
$VERSIONGUID
  2
{E0CB20EC-9230-4C71-8678-955E86F7AF47}
  9
$EXTNAMES
290
     1
  9
$PSVPSCALE
 40
0.0
  9
$OLESTARTUP
290
     0
  0
ENDSEC
  0
SECTION
  2
CLASSES
  0
CLASS
  1
DICTIONARYVAR
  2
AcDbDictionaryVar
  3
AutoCAD 2000
 90
        0
280
     0
281
     0
  0
CLASS
  1
LWPOLYLINE
  2
AcDbPolyline
  3
AutoCAD 2000
 90
    32768
280
     0
281
     1
  0
CLASS
  1
OLE2FRAME
  2
AcDbOle2Frame
  3
AutoCAD 2000
 90
    32768
280
     0
281
     1
  0
CLASS
  1
HATCH
  2
AcDbHatch
  3
AutoCAD 2000
 90
    32768
280
     0
281
     1
  0
CLASS
  1
ACDBDICTIONARYWDFLT
  2
AcDbDictionaryWithDefault
  3
AutoCAD 2000
 90
        0
280
     0
281
     0
  0
CLASS
  1
ACDBPLACEHOLDER
  2
AcDbPlaceHolder
  3
AutoCAD 2000
 90
        0
280
     0
281
     0
  0
CLASS
  1
LAYOUT
  2
AcDbLayout
  3
AutoCAD 2000
 90
        0
280
     0
281
     0
  0
CLASS
  1
LONG_TRANSACTION
  2
AcDbLongTransaction
  3
AutoCAD 2000
 90
    32768
280
     0
281
     0
  0
CLASS
  1
LWPOLYLINE
  2
AcDbPolyline
  3
AutoCAD 2000
 90
    32768
280
     0
281
     1
  0
CLASS
  1
HATCH
  2
AcDbHatch
  3
AutoCAD 2000
 90
    32768
280
     0
281
     1
  0
CLASS
  1
XRECORD
  2
AcDbXrecord
  3
AutoCAD 2000
 90
    32768
280
     0
281
     0
  0
CLASS
  1
LONG_TRANSACTION
  2
AcDbLongTransaction
  3
AutoCAD 2000
 90
    32768
280
     0
281
     0
  0
CLASS
  1
LWPOLYLINE
  2
AcDbPolyline
  3
AutoCAD 2000
 90
    32768
280
     0
281
     1
  0
CLASS
  1
HATCH
  2
AcDbHatch
  3
AutoCAD 2000
 90
    32768
280
     0
281
     1
  0
CLASS
  1
XRECORD
  2
AcDbXrecord
  3
AutoCAD 2000
 90
    32768
280
     0
281
     0
  0
CLASS
  1
LONG_TRANSACTION
  2
AcDbLongTransaction
  3
AutoCAD 2000
 90
    32768
280
     0
281
     0
  0
CLASS
  1
LWPOLYLINE
  2
AcDbPolyline
  3
AutoCAD 2000
 90
    32768
280
     0
281
     1
  0
CLASS
  1
HATCH
  2
AcDbHatch
  3
AutoCAD 2000
 90
    32768
280
     0
281
     1
  0
CLASS
  1
XRECORD
  2
AcDbXrecord
  3
AutoCAD 2000
 90
    32768
280
     0
281
     0
  0
CLASS
  1
LONG_TRANSACTION
  2
AcDbLongTransaction
  3
AutoCAD 2000
 90
    32768
280
     0
281
     0
  0
CLASS
  1
LWPOLYLINE
  2
AcDbPolyline
  3
AutoCAD 2000
 90
    32768
280
     0
281
     1
  0
CLASS
  1
HATCH
  2
AcDbHatch
  3
AutoCAD 2000
 90
    32768
280
     0
281
     1
  0
CLASS
  1
XRECORD
  2
AcDbXrecord
  3
AutoCAD 2000
 90
    32768
280
     0
281
     0
  0
CLASS
  1
LONG_TRANSACTION
  2
AcDbLongTransaction
  3
AutoCAD 2000
 90
    32768
280
     0
281
     0
  0
CLASS
  1
LWPOLYLINE
  2
AcDbPolyline
  3
AutoCAD 2000
 90
    32768
280
     0
281
     1
  0
CLASS
  1
HATCH
  2
AcDbHatch
  3
AutoCAD 2000
 90
    32768
280
     0
281
     1
  0
CLASS
  1
XRECORD
  2
AcDbXrecord
  3
AutoCAD 2000
 90
    32768
280
     0
281
     0
  0
CLASS
  1
LONG_TRANSACTION
  2
AcDbLongTransaction
  3
AutoCAD 2000
 90
    32768
280
     0
281
     0
  0
CLASS
  1
LWPOLYLINE
  2
AcDbPolyline
  3
AutoCAD 2000
 90
    32768
280
     0
281
     1
  0
CLASS
  1
HATCH
  2
AcDbHatch
  3
AutoCAD 2000
 90
    32768
280
     0
281
     1
  0
CLASS
  1
XRECORD
  2
AcDbXrecord
  3
AutoCAD 2000
 90
    32768
280
     0
281
     0
  0
CLASS
  1
LONG_TRANSACTION
  2
AcDbLongTransaction
  3
AutoCAD 2000
 90
    32768
280
     0
281
     0
  0
CLASS
  1
LWPOLYLINE
  2
AcDbPolyline
  3
AutoCAD 2000
 90
    32768
280
     0
281
     1
  0
CLASS
  1
HATCH
  2
AcDbHatch
  3
AutoCAD 2000
 90
    32768
280
     0
281
     1
  0
CLASS
  1
XRECORD
  2
AcDbXrecord
  3
AutoCAD 2000
 90
    32768
280
     0
281
     0
  0
CLASS
  1
LONG_TRANSACTION
  2
AcDbLongTransaction
  3
AutoCAD 2000
 90
    32768
280
     0
281
     0
  0
CLASS
  1
LWPOLYLINE
  2
AcDbPolyline
  3
AutoCAD 2000
 90
    32768
280
     0
281
     1
  0
CLASS
  1
HATCH
  2
AcDbHatch
  3
AutoCAD 2000
 90
    32768
280
     0
281
     1
  0
CLASS
  1
XRECORD
  2
AcDbXrecord
  3
AutoCAD 2000
 90
    32768
280
     0
281
     0
  0
CLASS
  1
LONG_TRANSACTION
  2
AcDbLongTransaction
  3
AutoCAD 2000
 90
    32768
280
     0
281
     0
  0
CLASS
  1
LWPOLYLINE
  2
AcDbPolyline
  3
AutoCAD 2000
 90
    32768
280
     0
281
     1
  0
CLASS
  1
HATCH
  2
AcDbHatch
  3
AutoCAD 2000
 90
    32768
280
     0
281
     1
  0
CLASS
  1
XRECORD
  2
AcDbXrecord
  3
AutoCAD 2000
 90
    32768
280
     0
281
     0
  0
CLASS
  1
LONG_TRANSACTION
  2
AcDbLongTransaction
  3
AutoCAD 2000
 90
    32768
280
     0
281
     0
  0
CLASS
  1
LWPOLYLINE
  2
AcDbPolyline
  3
AutoCAD 2000
 90
    32768
280
     0
281
     1
  0
CLASS
  1
HATCH
  2
AcDbHatch
  3
AutoCAD 2000
 90
    32768
280
     0
281
     1
  0
CLASS
  1
XRECORD
  2
AcDbXrecord
  3
AutoCAD 2000
 90
    32768
280
     0
281
     0
  0
CLASS
  1
LONG_TRANSACTION
  2
AcDbLongTransaction
  3
AutoCAD 2000
 90
    32768
280
     0
281
     0
  0
CLASS
  1
LWPOLYLINE
  2
AcDbPolyline
  3
AutoCAD 2000
 90
    32768
280
     0
281
     1
  0
CLASS
  1
HATCH
  2
AcDbHatch
  3
AutoCAD 2000
 90
    32768
280
     0
281
     1
  0
CLASS
  1
XRECORD
  2
AcDbXrecord
  3
AutoCAD 2000
 90
    32768
280
     0
281
     0
  0
CLASS
  1
LONG_TRANSACTION
  2
AcDbLongTransaction
  3
AutoCAD 2000
 90
    32768
280
     0
281
     0
  0
CLASS
  1
LWPOLYLINE
  2
AcDbPolyline
  3
AutoCAD 2000
 90
    32768
280
     0
281
     1
  0
CLASS
  1
HATCH
  2
AcDbHatch
  3
AutoCAD 2000
 90
    32768
280
     0
281
     1
  0
CLASS
  1
XRECORD
  2
AcDbXrecord
  3
AutoCAD 2000
 90
    32768
280
     0
281
     0
  0
CLASS
  1
LONG_TRANSACTION
  2
AcDbLongTransaction
  3
AutoCAD 2000
 90
    32768
280
     0
281
     0
  0
CLASS
  1
LWPOLYLINE
  2
AcDbPolyline
  3
AutoCAD 2000
 90
    32768
280
     0
281
     1
  0
CLASS
  1
HATCH
  2
AcDbHatch
  3
AutoCAD 2000
 90
    32768
280
     0
281
     1
  0
CLASS
  1
XRECORD
  2
AcDbXrecord
  3
AutoCAD 2000
 90
    32768
280
     0
281
     0
  0
CLASS
  1
LONG_TRANSACTION
  2
AcDbLongTransaction
  3
AutoCAD 2000
 90
    32768
280
     0
281
     0
  0
CLASS
  1
LWPOLYLINE
  2
AcDbPolyline
  3
AutoCAD 2000
 90
    32768
280
     0
281
     1
  0
CLASS
  1
HATCH
  2
AcDbHatch
  3
AutoCAD 2000
 90
    32768
280
     0
281
     1
  0
CLASS
  1
XRECORD
  2
AcDbXrecord
  3
AutoCAD 2000
 90
    32768
280
     0
281
     0
  0
ENDSEC
  0
SECTION
  2
TABLES
  0
TABLE
  2
VPORT
  5
1E
330
0
100
AcDbSymbolTable
 70
     2
  0
VPORT
  5
1DBD
330
1E
100
AcDbSymbolTableRecord
100
AcDbViewportTableRecord
  2
*Active
 70
     0
 10
0.0
 20
0.0
 11
1.0
 21
1.0
 12
-285.9463704214281
 22
228.5191326044705
 13
0.0
 23
0.0
 14
1.0
 24
1.0
 15
2.0
 25
2.0
 16
0.0
 26
0.0
 36
1.0
 17
0.0
 27
0.0
 37
0.0
 40
670.3508300653639
 41
1.750922509225092
 42
50.0
 43
0.0
 44
0.0
 50
0.0
 51
0.0
 71
     0
 72
   100
 73
     1
 74
     1
 75
     0
 76
     0
 77
     0
 78
     0
281
     0
 65
     1
110
0.0
120
0.0
130
0.0
111
1.0
121
0.0
131
0.0
112
0.0
122
1.0
132
0.0
 79
     0
146
0.0
  0
ENDTAB
  0
TABLE
  2
LTYPE
  5
19
330
0
100
AcDbSymbolTable
 70
     3
  0
LTYPE
  5
1A
330
19
100
AcDbSymbolTableRecord
100
AcDbLinetypeTableRecord
  2
BYBLOCK
 70
     0
  3

 72
    65
 73
     0
 40
0.0
  0
LTYPE
  5
1B
330
19
100
AcDbSymbolTableRecord
100
AcDbLinetypeTableRecord
  2
BYLAYER
 70
     0
  3

 72
    65
 73
     0
 40
0.0
  0
LTYPE
  5
A
330
19
100
AcDbSymbolTableRecord
100
AcDbLinetypeTableRecord
  2
CONTINUOUS
 70
     0
  3
Solid line
 72
    65
 73
     0
 40
0.0
  0
LTYPE
  5
68
330
19
100
AcDbSymbolTableRecord
100
AcDbLinetypeTableRecord
  2
DASHED2
 70
     0
  3
Dashed (.5x) _ _ _ _ _ _ _ _ _ _ _ _ _ _ _ _ _
 72
    65
 73
     2
 40
9.529999999999999
 49
6.349999999999998
 74
     0
 49
-3.18
 74
     0
  0
LTYPE
  5
76
330
19
100
AcDbSymbolTableRecord
100
AcDbLinetypeTableRecord
  2
CENTER
 70
     0
  3
Center ____ _ ____ _ ____ _ ____ _ ____ _ ____
 72
    65
 73
     4
 40
50.8
 49
31.75
 74
     0
 49
-6.349999999999998
 74
     0
 49
6.349999999999998
 74
     0
 49
-6.349999999999998
 74
     0
  0
ENDTAB
  0
TABLE
  2
LAYER
  5
14
330
0
100
AcDbSymbolTable
 70
     3
  0
LAYER
  5
6
330
14
100
AcDbSymbolTableRecord
100
AcDbLayerTableRecord
  2
0
 70
     0
 62
     7
  6
CONTINUOUS
370
    -3
390
7
  0
LAYER
  5
3F
330
14
100
AcDbSymbolTableRecord
100
AcDbLayerTableRecord
  2
DEFPOINTS
 70
     0
 62
     7
  6
CONTINUOUS
290
     0
370
    -3
390
7
  0
LAYER
  5
26
330
14
100
AcDbSymbolTableRecord
100
AcDbLayerTableRecord
  2
画層1
 70
     0
 62
     7
  6
CONTINUOUS
370
    -3
390
7
  0
ENDTAB
  0
TABLE
  2
STYLE
  5
15
330
0
100
AcDbSymbolTable
 70
     2
  0
STYLE
  5
16
330
15
100
AcDbSymbolTableRecord
100
AcDbTextStyleTableRecord
  2
STANDARD
 70
     0
 40
2.5
 41
1.0
 50
0.0
 71
     0
 42
1.5
  3
MS PMincho.ttf
  4

1001
ACAD
1000
MS PMincho
1071
    32786
  0
STYLE
  5
27
330
15
100
AcDbSymbolTableRecord
100
AcDbTextStyleTableRecord
  2
STYLE1
 70
     0
 40
2.5
 41
1.0
 50
0.0
 71
     0
 42
2.5
  3
MS Gothic.ttf
  4

1001
ACAD
1000
MS Gothic
1071
    32817
  0
ENDTAB
  0
TABLE
  2
VIEW
  5
1C
330
0
100
AcDbSymbolTable
 70
     0
  0
ENDTAB
  0
TABLE
  2
UCS
  5
1D
330
0
100
AcDbSymbolTable
 70
     0
  0
ENDTAB
  0
TABLE
  2
APPID
  5
20
330
0
100
AcDbSymbolTable
 70
     1
  0
APPID
  5
17
330
20
100
AcDbSymbolTableRecord
100
AcDbRegAppTableRecord
  2
ACAD
 70
     0
  0
ENDTAB
  0
TABLE
  2
DIMSTYLE
  5
21
330
0
100
AcDbSymbolTable
 70
     1
100
AcDbDimStyleTable
 71
     0
  0
DIMSTYLE
105
35
102
{ACAD_REACTORS
330
1A54
330
1A61
330
1A6E
330
1A7B
330
1A88
330
1A95
330
1AA2
330
1AAF
330
1ABC
330
1BFA
102
}
330
21
100
AcDbSymbolTableRecord
100
AcDbDimStyleTableRecord
  2
STANDARD_WS
 70
     0
 41
1.5
 42
0.63
 43
3.75
 44
1.25
 73
     0
 74
     0
 77
     1
 78
     8
140
2.5
141
2.5
143
0.04
147
0.63
171
     4
172
     1
173
     1
273
     8
274
     4
340
16
341
2E
343
2E
344
2E
  0
ENDTAB
  0
TABLE
  2
BLOCK_RECORD
  5
1
330
0
100
AcDbSymbolTable
 70
    13
  0
BLOCK_RECORD
  5
2
102
{ACAD_XDICTIONARY
360
3
102
}
330
1
100
AcDbSymbolTableRecord
100
AcDbBlockTableRecord
  2
*MODEL_SPACE
340
560
  0
BLOCK_RECORD
  5
E
102
{ACAD_XDICTIONARY
360
F
102
}
330
1
100
AcDbSymbolTableRecord
100
AcDbBlockTableRecord
  2
*PAPER_SPACE
340
561
  0
BLOCK_RECORD
  5
2E
330
1
100
AcDbSymbolTableRecord
100
AcDbBlockTableRecord
  2
_OPEN
340
0
  0
BLOCK_RECORD
  5
28
330
1
100
AcDbSymbolTableRecord
100
AcDbBlockTableRecord
  2
_OPEN30
340
0
102
{BLKREFS
331
1CD2
331
1CD3
331
1CDB
331
1CDC
331
1CE4
331
1CE5
331
1CED
331
1CEE
331
1CF6
331
1CF7
331
1CFF
331
1D00
331
1D08
331
1D09
331
1D11
331
1D12
331
1D1A
331
1D1B
331
1D23
331
1D24
102
}
  0
BLOCK_RECORD
  5
121
330
1
100
AcDbSymbolTableRecord
100
AcDbBlockTableRecord
  2
_DOTSMALL
340
0
  0
BLOCK_RECORD
  5
1A55
330
1
100
AcDbSymbolTableRecord
100
AcDbBlockTableRecord
  2
*D3
340
0
  0
BLOCK_RECORD
  5
1A62
330
1
100
AcDbSymbolTableRecord
100
AcDbBlockTableRecord
  2
*D4
340
0
  0
BLOCK_RECORD
  5
1A6F
330
1
100
AcDbSymbolTableRecord
100
AcDbBlockTableRecord
  2
*D5
340
0
  0
BLOCK_RECORD
  5
1A7C
330
1
100
AcDbSymbolTableRecord
100
AcDbBlockTableRecord
  2
*D6
340
0
  0
BLOCK_RECORD
  5
1A89
330
1
100
AcDbSymbolTableRecord
100
AcDbBlockTableRecord
  2
*D7
340
0
  0
BLOCK_RECORD
  5
1A96
330
1
100
AcDbSymbolTableRecord
100
AcDbBlockTableRecord
  2
*D8
340
0
  0
BLOCK_RECORD
  5
1AA3
330
1
100
AcDbSymbolTableRecord
100
AcDbBlockTableRecord
  2
*D9
340
0
  0
BLOCK_RECORD
  5
1AB0
330
1
100
AcDbSymbolTableRecord
100
AcDbBlockTableRecord
  2
*D10
340
0
  0
BLOCK_RECORD
  5
1ABD
330
1
100
AcDbSymbolTableRecord
100
AcDbBlockTableRecord
  2
*D11
340
0
  0
BLOCK_RECORD
  5
1BFB
330
1
100
AcDbSymbolTableRecord
100
AcDbBlockTableRecord
  2
*D12
340
0
  0
ENDTAB
  0
ENDSEC
  0
SECTION
  2
BLOCKS
  0
BLOCK
  5
5
330
2
100
AcDbEntity
  8
0
100
AcDbBlockBegin
  2
*MODEL_SPACE
 70
     0
 10
0.0
 20
0.0
 30
0.0
  3
*MODEL_SPACE
  1

  0
ENDBLK
  5
B
330
2
100
AcDbEntity
  8
0
100
AcDbBlockEnd
  0
BLOCK
  5
11
330
E
100
AcDbEntity
 67
     1
  8
0
100
AcDbBlockBegin
  2
*PAPER_SPACE
 70
     0
 10
0.0
 20
0.0
 30
0.0
  3
*PAPER_SPACE
  1

  0
ENDBLK
  5
12
330
E
100
AcDbEntity
 67
     1
  8
0
100
AcDbBlockEnd
  0
BLOCK
  5
32
330
2E
100
AcDbEntity
  8
0
100
AcDbBlockBegin
  2
_OPEN
 70
     0
 10
0.0
 20
0.0
 30
0.0
  3
_OPEN
  1

  0
LINE
  5
2F
330
2E
100
AcDbEntity
  8
0
  6
ByBlock
 62
     0
100
AcDbLine
 10
-1.0
 20
0.17
 30
0.0
 11
0.0
 21
0.0
 31
0.0
  0
LINE
  5
30
330
2E
100
AcDbEntity
  8
0
  6
ByBlock
 62
     0
100
AcDbLine
 10
0.0
 20
0.0
 30
0.0
 11
-1.0
 21
-0.17
 31
0.0
  0
LINE
  5
31
330
2E
100
AcDbEntity
  8
0
  6
ByBlock
 62
     0
100
AcDbLine
 10
0.0
 20
0.0
 30
0.0
 11
-1.0
 21
0.0
 31
0.0
  0
ENDBLK
  5
33
330
2E
100
AcDbEntity
  8
0
100
AcDbBlockEnd
  0
BLOCK
  5
2C
330
28
100
AcDbEntity
  8
0
100
AcDbBlockBegin
  2
_OPEN30
 70
     0
 10
0.0
 20
0.0
 30
0.0
  3
_OPEN30
  1

  0
LINE
  5
29
330
28
100
AcDbEntity
  8
0
  6
ByBlock
 62
     0
100
AcDbLine
 10
-1.0
 20
0.27
 30
0.0
 11
0.0
 21
0.0
 31
0.0
  0
LINE
  5
2A
330
28
100
AcDbEntity
  8
0
  6
ByBlock
 62
     0
100
AcDbLine
 10
0.0
 20
0.0
 30
0.0
 11
-1.0
 21
-0.27
 31
0.0
  0
LINE
  5
2B
330
28
100
AcDbEntity
  8
0
  6
ByBlock
 62
     0
100
AcDbLine
 10
0.0
 20
0.0
 30
0.0
 11
-1.0
 21
0.0
 31
0.0
  0
ENDBLK
  5
2D
330
28
100
AcDbEntity
  8
0
100
AcDbBlockEnd
  0
BLOCK
  5
123
330
121
100
AcDbEntity
  8
0
 62
     1
100
AcDbBlockBegin
  2
_DOTSMALL
 70
     0
 10
0.0
 20
0.0
 30
0.0
  3
_DOTSMALL
  1

  0
LWPOLYLINE
  5
122
330
121
100
AcDbEntity
  8
画層1
 62
     0
100
AcDbPolyline
 90
        2
 70
     1
 43
0.5
 10
-0.06
 20
0.0
 42
1.0
 10
0.06
 20
0.0
 42
1.0
  0
ENDBLK
  5
124
330
121
100
AcDbEntity
  8
0
 62
     1
100
AcDbBlockEnd
  0
BLOCK
  5
1A5F
330
1A55
100
AcDbEntity
  8
0
 62
     1
370
    20
100
AcDbBlockBegin
  2
*D3
 70
     1
 10
0.0
 20
0.0
 30
0.0
  3
*D3
  1

  0
LINE
  5
1CCF
330
1A55
100
AcDbEntity
  8
画層1
 62
     0
100
AcDbLine
 10
-680.0899844744717
 20
338.838776737169
 30
0.0
 11
-680.0899844744717
 21
428.0992702534067
 31
0.0
  0
LINE
  5
1CD0
330
1A55
100
AcDbEntity
  8
画層1
 62
     0
100
AcDbLine
 10
-471.0404747176753
 20
338.838776737169
 30
0.0
 11
-471.0404747176753
 21
428.0992702534067
 31
0.0
  0
LINE
  5
1CD1
330
1A55
100
AcDbEntity
  8
画層1
 62
     0
100
AcDbLine
 10
-678.5899844744717
 20
426.8492702534067
 30
0.0
 11
-472.5404747176753
 21
426.8492702534067
 31
0.0
  0
INSERT
  5
1CD2
330
1A55
100
AcDbEntity
  8
画層1
 62
     0
100
AcDbBlockReference
  2
_OPEN30
 10
-680.0899844744717
 20
426.8492702534067
 30
0.0
 41
1.5
 42
1.5
 43
1.5
 50
180.0
  0
INSERT
  5
1CD3
330
1A55
100
AcDbEntity
  8
画層1
 62
     0
100
AcDbBlockReference
  2
_OPEN30
 10
-471.0404747176753
 20
426.8492702534067
 30
0.0
 41
1.5
 42
1.5
 43
1.5
  0
MTEXT
  5
1CD4
330
1A55
100
AcDbEntity
  8
画層1
 62
     0
100
AcDbMText
 10
-575.5652295960735
 20
429.0992702534067
 30
0.0
 40
2.5
 41
0.0
 71
     5
 72
     1
  1
\A1;209
 73
     1
 44
1.0
1001
ACAD
1000
MTEXTBEGIN
1070
    73
1070
     1
1070
    44
1040
1.0
1070
    74
1070
     0
1000
MTEXTEND
1000
MTEXTBEGIN
1070
    73
1070
     1
1070
    44
1040
1.0
1070
    74
1070
     0
1000
MTEXTEND
  0
POINT
  5
1CD5
330
1A55
100
AcDbEntity
  8
DEFPOINTS
 62
     0
100
AcDbPoint
 10
-680.0899844744717
 20
338.208776737169
 30
0.0
  0
POINT
  5
1CD6
330
1A55
100
AcDbEntity
  8
DEFPOINTS
 62
     0
100
AcDbPoint
 10
-471.0404747176753
 20
338.208776737169
 30
0.0
  0
POINT
  5
1CD7
330
1A55
100
AcDbEntity
  8
DEFPOINTS
 62
     0
100
AcDbPoint
 10
-471.0404747176753
 20
426.8492702534067
 30
0.0
  0
ENDBLK
  5
1A60
330
1A55
100
AcDbEntity
  8
0
 62
     1
370
    20
100
AcDbBlockEnd
  0
BLOCK
  5
1A6C
330
1A62
100
AcDbEntity
  8
0
 62
     1
370
    20
100
AcDbBlockBegin
  2
*D4
 70
     1
 10
0.0
 20
0.0
 30
0.0
  3
*D4
  1

  0
LINE
  5
1CD8
330
1A62
100
AcDbEntity
  8
画層1
 62
     0
100
AcDbLine
 10
-645.5652295960735
 20
376.5887767371689
 30
0.0
 11
-645.5652295960735
 21
420.7872313493167
 31
0.0
  0
LINE
  5
1CD9
330
1A62
100
AcDbEntity
  8
画層1
 62
     0
100
AcDbLine
 10
-505.5652295960735
 20
376.5887767371689
 30
0.0
 11
-505.5652295960735
 21
420.7872313493167
 31
0.0
  0
LINE
  5
1CDA
330
1A62
100
AcDbEntity
  8
画層1
 62
     0
100
AcDbLine
 10
-644.0652295960735
 20
419.5372313493167
 30
0.0
 11
-507.0652295960735
 21
419.5372313493167
 31
0.0
  0
INSERT
  5
1CDB
330
1A62
100
AcDbEntity
  8
画層1
 62
     0
100
AcDbBlockReference
  2
_OPEN30
 10
-645.5652295960735
 20
419.5372313493167
 30
0.0
 41
1.5
 42
1.5
 43
1.5
 50
180.0
  0
INSERT
  5
1CDC
330
1A62
100
AcDbEntity
  8
画層1
 62
     0
100
AcDbBlockReference
  2
_OPEN30
 10
-505.5652295960735
 20
419.5372313493167
 30
0.0
 41
1.5
 42
1.5
 43
1.5
  0
MTEXT
  5
1CDD
330
1A62
100
AcDbEntity
  8
画層1
 62
     0
100
AcDbMText
 10
-575.5652295960735
 20
421.7872313493167
 30
0.0
 40
2.5
 41
0.0
 71
     5
 72
     1
  1
\A1;140
 73
     1
 44
1.0
1001
ACAD
1000
MTEXTBEGIN
1070
    73
1070
     1
1070
    44
1040
1.0
1070
    74
1070
     0
1000
MTEXTEND
1000
MTEXTBEGIN
1070
    73
1070
     1
1070
    44
1040
1.0
1070
    74
1070
     0
1000
MTEXTEND
  0
POINT
  5
1CDE
330
1A62
100
AcDbEntity
  8
DEFPOINTS
 62
     0
100
AcDbPoint
 10
-645.5652295960735
 20
375.9587767371689
 30
0.0
  0
POINT
  5
1CDF
330
1A62
100
AcDbEntity
  8
DEFPOINTS
 62
     0
100
AcDbPoint
 10
-505.5652295960735
 20
375.9587767371689
 30
0.0
  0
POINT
  5
1CE0
330
1A62
100
AcDbEntity
  8
DEFPOINTS
 62
     0
100
AcDbPoint
 10
-505.5652295960735
 20
419.5372313493167
 30
0.0
  0
ENDBLK
  5
1A6D
330
1A62
100
AcDbEntity
  8
0
 62
     1
370
    20
100
AcDbBlockEnd
  0
BLOCK
  5
1A79
330
1A6F
100
AcDbEntity
  8
0
 62
     1
370
    20
100
AcDbBlockBegin
  2
*D5
 70
     1
 10
0.0
 20
0.0
 30
0.0
  3
*D5
  1

  0
LINE
  5
1CE1
330
1A6F
100
AcDbEntity
  8
画層1
 62
     0
100
AcDbLine
 10
-615.6652295960736
 20
113.3287767371689
 30
0.0
 11
-615.6652295960736
 21
62.16377104011542
 31
0.0
  0
LINE
  5
1CE2
330
1A6F
100
AcDbEntity
  8
画層1
 62
     0
100
AcDbLine
 10
-535.6652295960735
 20
113.3287767371689
 30
0.0
 11
-535.6652295960735
 21
62.16377104011542
 31
0.0
  0
LINE
  5
1CE3
330
1A6F
100
AcDbEntity
  8
画層1
 62
     0
100
AcDbLine
 10
-614.1652295960735
 20
63.41377104011542
 30
0.0
 11
-537.1652295960736
 21
63.41377104011542
 31
0.0
  0
INSERT
  5
1CE4
330
1A6F
100
AcDbEntity
  8
画層1
 62
     0
100
AcDbBlockReference
  2
_OPEN30
 10
-615.6652295960736
 20
63.41377104011542
 30
0.0
 41
1.5
 42
1.5
 43
1.5
 50
180.0
  0
INSERT
  5
1CE5
330
1A6F
100
AcDbEntity
  8
画層1
 62
     0
100
AcDbBlockReference
  2
_OPEN30
 10
-535.6652295960735
 20
63.41377104011542
 30
0.0
 41
1.5
 42
1.5
 43
1.5
  0
MTEXT
  5
1CE6
330
1A6F
100
AcDbEntity
  8
画層1
 62
     0
100
AcDbMText
 10
-575.6652295960735
 20
65.66377104011542
 30
0.0
 40
2.5
 41
0.0
 71
     5
 72
     1
  1
\A1;80
 73
     1
 44
1.0
1001
ACAD
1000
MTEXTBEGIN
1070
    73
1070
     1
1070
    44
1040
1.0
1070
    74
1070
     0
1000
MTEXTEND
1000
MTEXTBEGIN
1070
    73
1070
     1
1070
    44
1040
1.0
1070
    74
1070
     0
1000
MTEXTEND
  0
POINT
  5
1CE7
330
1A6F
100
AcDbEntity
  8
DEFPOINTS
 62
     0
100
AcDbPoint
 10
-615.6652295960736
 20
113.9587767371689
 30
0.0
  0
POINT
  5
1CE8
330
1A6F
100
AcDbEntity
  8
DEFPOINTS
 62
     0
100
AcDbPoint
 10
-535.6652295960735
 20
113.9587767371689
 30
0.0
  0
POINT
  5
1CE9
330
1A6F
100
AcDbEntity
  8
DEFPOINTS
 62
     0
100
AcDbPoint
 10
-535.6652295960735
 20
63.41377104011542
 30
0.0
  0
ENDBLK
  5
1A7A
330
1A6F
100
AcDbEntity
  8
0
 62
     1
370
    20
100
AcDbBlockEnd
  0
BLOCK
  5
1A86
330
1A7C
100
AcDbEntity
  8
0
 62
     1
370
    20
100
AcDbBlockBegin
  2
*D6
 70
     1
 10
0.0
 20
0.0
 30
0.0
  3
*D6
  1

  0
LINE
  5
1CEA
330
1A7C
100
AcDbEntity
  8
画層1
 62
     0
100
AcDbLine
 10
-510.0652295960735
 20
101.328776737169
 30
0.0
 11
-510.0652295960735
 21
62.16377104011542
 31
0.0
  0
LINE
  5
1CEB
330
1A7C
100
AcDbEntity
  8
画層1
 62
     0
100
AcDbLine
 10
-501.0652295960735
 20
101.328776737169
 30
0.0
 11
-501.0652295960735
 21
62.16377104011542
 31
0.0
  0
LINE
  5
1CEC
330
1A7C
100
AcDbEntity
  8
画層1
 62
     0
100
AcDbLine
 10
-508.5652295960735
 20
63.41377104011542
 30
0.0
 11
-502.5652295960735
 21
63.41377104011542
 31
0.0
  0
INSERT
  5
1CED
330
1A7C
100
AcDbEntity
  8
画層1
 62
     0
100
AcDbBlockReference
  2
_OPEN30
 10
-510.0652295960735
 20
63.41377104011542
 30
0.0
 41
1.5
 42
1.5
 43
1.5
 50
180.0
  0
INSERT
  5
1CEE
330
1A7C
100
AcDbEntity
  8
画層1
 62
     0
100
AcDbBlockReference
  2
_OPEN30
 10
-501.0652295960735
 20
63.41377104011542
 30
0.0
 41
1.5
 42
1.5
 43
1.5
  0
MTEXT
  5
1CEF
330
1A7C
100
AcDbEntity
  8
画層1
 62
     0
100
AcDbMText
 10
-505.5652295960735
 20
65.66377104011542
 30
0.0
 40
2.5
 41
0.0
 71
     5
 72
     1
  1
\A1;9
 73
     1
 44
1.0
1001
ACAD
1000
MTEXTBEGIN
1070
    73
1070
     1
1070
    44
1040
1.0
1070
    74
1070
     0
1000
MTEXTEND
1000
MTEXTBEGIN
1070
    73
1070
     1
1070
    44
1040
1.0
1070
    74
1070
     0
1000
MTEXTEND
  0
POINT
  5
1CF0
330
1A7C
100
AcDbEntity
  8
DEFPOINTS
 62
     0
100
AcDbPoint
 10
-510.0652295960735
 20
101.9587767371689
 30
0.0
  0
POINT
  5
1CF1
330
1A7C
100
AcDbEntity
  8
DEFPOINTS
 62
     0
100
AcDbPoint
 10
-501.0652295960735
 20
101.9587767371689
 30
0.0
  0
POINT
  5
1CF2
330
1A7C
100
AcDbEntity
  8
DEFPOINTS
 62
     0
100
AcDbPoint
 10
-501.0652295960735
 20
63.41377104011542
 30
0.0
  0
ENDBLK
  5
1A87
330
1A7C
100
AcDbEntity
  8
0
 62
     1
370
    20
100
AcDbBlockEnd
  0
BLOCK
  5
1A93
330
1A89
100
AcDbEntity
  8
0
 62
     1
370
    20
100
AcDbBlockBegin
  2
*D7
 70
     1
 10
0.0
 20
0.0
 30
0.0
  3
*D7
  1

  0
LINE
  5
1CF3
330
1A89
100
AcDbEntity
  8
画層1
 62
     0
100
AcDbLine
 10
-476.8352295960736
 20
101.9587767371689
 30
0.0
 11
-463.8379754414402
 21
101.9587767371689
 31
0.0
  0
LINE
  5
1CF4
330
1A89
100
AcDbEntity
  8
画層1
 62
     0
100
AcDbLine
 10
-504.9352295960735
 20
111.9587767371689
 30
0.0
 11
-463.8379754414402
 21
111.9587767371689
 31
0.0
  0
LINE
  5
1CF5
330
1A89
100
AcDbEntity
  8
画層1
 62
     0
100
AcDbLine
 10
-465.0879754414402
 20
103.4587767371689
 30
0.0
 11
-465.0879754414402
 21
110.4587767371689
 31
0.0
  0
INSERT
  5
1CF6
330
1A89
100
AcDbEntity
  8
画層1
 62
     0
100
AcDbBlockReference
  2
_OPEN30
 10
-465.0879754414402
 20
101.9587767371689
 30
0.0
 41
1.5
 42
1.5
 43
1.5
 50
270.0
  0
INSERT
  5
1CF7
330
1A89
100
AcDbEntity
  8
画層1
 62
     0
100
AcDbBlockReference
  2
_OPEN30
 10
-465.0879754414402
 20
111.9587767371689
 30
0.0
 41
1.5
 42
1.5
 43
1.5
 50
90.0
  0
MTEXT
  5
1CF8
330
1A89
100
AcDbEntity
  8
画層1
 62
     0
100
AcDbMText
 10
-467.3379754414402
 20
106.9587767371689
 30
0.0
 40
2.5
 41
0.0
 71
     5
 72
     1
  1
\A1;10
 11
0.0000000000000001
 21
1.0
 31
0.0
 73
     1
 44
1.0
1001
ACAD
1000
MTEXTBEGIN
1070
    73
1070
     1
1070
    44
1040
1.0
1070
    74
1070
     0
1000
MTEXTEND
1000
MTEXTBEGIN
1070
    73
1070
     1
1070
    44
1040
1.0
1070
    74
1070
     0
1000
MTEXTEND
  0
POINT
  5
1CF9
330
1A89
100
AcDbEntity
  8
DEFPOINTS
 62
     0
100
AcDbPoint
 10
-477.4652295960736
 20
101.9587767371689
 30
0.0
  0
POINT
  5
1CFA
330
1A89
100
AcDbEntity
  8
DEFPOINTS
 62
     0
100
AcDbPoint
 10
-505.5652295960735
 20
111.9587767371689
 30
0.0
  0
POINT
  5
1CFB
330
1A89
100
AcDbEntity
  8
DEFPOINTS
 62
     0
100
AcDbPoint
 10
-465.0879754414402
 20
111.9587767371689
 30
0.0
  0
ENDBLK
  5
1A94
330
1A89
100
AcDbEntity
  8
0
 62
     1
370
    20
100
AcDbBlockEnd
  0
BLOCK
  5
1AA0
330
1A96
100
AcDbEntity
  8
0
 62
     1
370
    20
100
AcDbBlockBegin
  2
*D8
 70
     1
 10
0.0
 20
0.0
 30
0.0
  3
*D8
  1

  0
LINE
  5
1CFC
330
1A96
100
AcDbEntity
  8
画層1
 62
     0
100
AcDbLine
 10
-464.4579754414402
 20
111.9587767371689
 30
0.0
 11
-454.7105646588843
 21
111.9587767371689
 31
0.0
  0
LINE
  5
1CFD
330
1A96
100
AcDbEntity
  8
画層1
 62
     0
100
AcDbLine
 10
-504.9352295960735
 20
375.9587767371689
 30
0.0
 11
-454.7105646588843
 21
375.9587767371689
 31
0.0
  0
LINE
  5
1CFE
330
1A96
100
AcDbEntity
  8
画層1
 62
     0
100
AcDbLine
 10
-455.9605646588844
 20
113.4587767371689
 30
0.0
 11
-455.9605646588843
 21
374.4587767371689
 31
0.0
  0
INSERT
  5
1CFF
330
1A96
100
AcDbEntity
  8
画層1
 62
     0
100
AcDbBlockReference
  2
_OPEN30
 10
-455.9605646588844
 20
111.9587767371689
 30
0.0
 41
1.5
 42
1.5
 43
1.5
 50
270.0
  0
INSERT
  5
1D00
330
1A96
100
AcDbEntity
  8
画層1
 62
     0
100
AcDbBlockReference
  2
_OPEN30
 10
-455.9605646588843
 20
375.9587767371689
 30
0.0
 41
1.5
 42
1.5
 43
1.5
 50
90.0
  0
MTEXT
  5
1D01
330
1A96
100
AcDbEntity
  8
画層1
 62
     0
100
AcDbMText
 10
-458.2105646588844
 20
243.9587767371689
 30
0.0
 40
2.5
 41
0.0
 71
     5
 72
     1
  1
\A1;264
 11
0.0000000000000001
 21
1.0
 31
0.0
 73
     1
 44
1.0
1001
ACAD
1000
MTEXTBEGIN
1070
    73
1070
     1
1070
    44
1040
1.0
1070
    74
1070
     0
1000
MTEXTEND
1000
MTEXTBEGIN
1070
    73
1070
     1
1070
    44
1040
1.0
1070
    74
1070
     0
1000
MTEXTEND
  0
POINT
  5
1D02
330
1A96
100
AcDbEntity
  8
DEFPOINTS
 62
     0
100
AcDbPoint
 10
-465.0879754414402
 20
111.9587767371689
 30
0.0
  0
POINT
  5
1D03
330
1A96
100
AcDbEntity
  8
DEFPOINTS
 62
     0
100
AcDbPoint
 10
-505.5652295960735
 20
375.9587767371689
 30
0.0
  0
POINT
  5
1D04
330
1A96
100
AcDbEntity
  8
DEFPOINTS
 62
     0
100
AcDbPoint
 10
-455.9605646588843
 20
375.9587767371689
 30
0.0
  0
ENDBLK
  5
1AA1
330
1A96
100
AcDbEntity
  8
0
 62
     1
370
    20
100
AcDbBlockEnd
  0
BLOCK
  5
1AAD
330
1AA3
100
AcDbEntity
  8
0
 62
     1
370
    20
100
AcDbBlockBegin
  2
*D9
 70
     1
 10
0.0
 20
0.0
 30
0.0
  3
*D9
  1

  0
LINE
  5
1D05
330
1AA3
100
AcDbEntity
  8
画層1
 62
     0
100
AcDbLine
 10
-476.8352295960736
 20
385.958776737169
 30
0.0
 11
-446.6250767627849
 21
385.958776737169
 31
0.0
  0
LINE
  5
1D06
330
1AA3
100
AcDbEntity
  8
画層1
 62
     0
100
AcDbLine
 10
-463.2079754414402
 20
101.9587767371689
 30
0.0
 11
-446.6250767627851
 21
101.9587767371689
 31
0.0
  0
LINE
  5
1D07
330
1AA3
100
AcDbEntity
  8
画層1
 62
     0
100
AcDbLine
 10
-447.8750767627849
 20
384.458776737169
 30
0.0
 11
-447.875076762785
 21
103.4587767371689
 31
0.0
  0
INSERT
  5
1D08
330
1AA3
100
AcDbEntity
  8
画層1
 62
     0
100
AcDbBlockReference
  2
_OPEN30
 10
-447.8750767627849
 20
385.958776737169
 30
0.0
 41
1.5
 42
1.5
 43
1.5
 50
90.0
  0
INSERT
  5
1D09
330
1AA3
100
AcDbEntity
  8
画層1
 62
     0
100
AcDbBlockReference
  2
_OPEN30
 10
-447.875076762785
 20
101.9587767371689
 30
0.0
 41
1.5
 42
1.5
 43
1.5
 50
270.0
  0
MTEXT
  5
1D0A
330
1AA3
100
AcDbEntity
  8
画層1
 62
     0
100
AcDbMText
 10
-450.125076762785
 20
243.9587767371689
 30
0.0
 40
2.5
 41
0.0
 71
     5
 72
     1
  1
\A1;284
 11
0.0000000000000001
 21
1.0
 31
0.0
 73
     1
 44
1.0
1001
ACAD
1000
MTEXTBEGIN
1070
    73
1070
     1
1070
    44
1040
1.0
1070
    74
1070
     0
1000
MTEXTEND
1000
MTEXTBEGIN
1070
    73
1070
     1
1070
    44
1040
1.0
1070
    74
1070
     0
1000
MTEXTEND
  0
POINT
  5
1D0B
330
1AA3
100
AcDbEntity
  8
DEFPOINTS
 62
     0
100
AcDbPoint
 10
-477.4652295960736
 20
385.958776737169
 30
0.0
  0
POINT
  5
1D0C
330
1AA3
100
AcDbEntity
  8
DEFPOINTS
 62
     0
100
AcDbPoint
 10
-463.8379754414402
 20
101.9587767371689
 30
0.0
  0
POINT
  5
1D0D
330
1AA3
100
AcDbEntity
  8
DEFPOINTS
 62
     0
100
AcDbPoint
 10
-447.875076762785
 20
101.9587767371689
 30
0.0
  0
ENDBLK
  5
1AAE
330
1AA3
100
AcDbEntity
  8
0
 62
     1
370
    20
100
AcDbBlockEnd
  0
BLOCK
  5
1ABA
330
1AB0
100
AcDbEntity
  8
0
 62
     1
370
    20
100
AcDbBlockBegin
  2
*D10
 70
     1
 10
0.0
 20
0.0
 30
0.0
  3
*D10
  1

  0
LINE
  5
1D0E
330
1AB0
100
AcDbEntity
  8
画層1
 62
     0
100
AcDbLine
 10
-203.490401178997
 20
386.588776737169
 30
0.0
 11
-203.490401178997
 21
428.0992702534067
 31
0.0
  0
LINE
  5
1D0F
330
1AB0
100
AcDbEntity
  8
画層1
 62
     0
100
AcDbLine
 10
-411.090401178997
 20
326.0887767371689
 30
0.0
 11
-411.090401178997
 21
428.0992702534067
 31
0.0
  0
LINE
  5
1D10
330
1AB0
100
AcDbEntity
  8
画層1
 62
     0
100
AcDbLine
 10
-204.990401178997
 20
426.8492702534067
 30
0.0
 11
-409.590401178997
 21
426.8492702534067
 31
0.0
  0
INSERT
  5
1D11
330
1AB0
100
AcDbEntity
  8
画層1
 62
     0
100
AcDbBlockReference
  2
_OPEN30
 10
-203.490401178997
 20
426.8492702534067
 30
0.0
 41
1.5
 42
1.5
 43
1.5
  0
INSERT
  5
1D12
330
1AB0
100
AcDbEntity
  8
画層1
 62
     0
100
AcDbBlockReference
  2
_OPEN30
 10
-411.090401178997
 20
426.8492702534067
 30
0.0
 41
1.5
 42
1.5
 43
1.5
 50
180.0
  0
MTEXT
  5
1D13
330
1AB0
100
AcDbEntity
  8
画層1
 62
     0
100
AcDbMText
 10
-307.290401178997
 20
429.0992702534067
 30
0.0
 40
2.5
 41
0.0
 71
     5
 72
     1
  1
\A1;208
 73
     1
 44
1.0
1001
ACAD
1000
MTEXTBEGIN
1070
    73
1070
     1
1070
    44
1040
1.0
1070
    74
1070
     0
1000
MTEXTEND
1000
MTEXTBEGIN
1070
    73
1070
     1
1070
    44
1040
1.0
1070
    74
1070
     0
1000
MTEXTEND
  0
POINT
  5
1D14
330
1AB0
100
AcDbEntity
  8
DEFPOINTS
 62
     0
100
AcDbPoint
 10
-203.490401178997
 20
385.958776737169
 30
0.0
  0
POINT
  5
1D15
330
1AB0
100
AcDbEntity
  8
DEFPOINTS
 62
     0
100
AcDbPoint
 10
-411.090401178997
 20
325.4587767371689
 30
0.0
  0
POINT
  5
1D16
330
1AB0
100
AcDbEntity
  8
DEFPOINTS
 62
     0
100
AcDbPoint
 10
-411.090401178997
 20
426.8492702534067
 30
0.0
  0
ENDBLK
  5
1ABB
330
1AB0
100
AcDbEntity
  8
0
 62
     1
370
    20
100
AcDbBlockEnd
  0
BLOCK
  5
1AC7
330
1ABD
100
AcDbEntity
  8
0
 62
     1
370
    20
100
AcDbBlockBegin
  2
*D11
 70
     1
 10
0.0
 20
0.0
 30
0.0
  3
*D11
  1

  0
LINE
  5
1D17
330
1ABD
100
AcDbEntity
  8
画層1
 62
     0
100
AcDbLine
 10
-389.1904011789971
 20
269.4978676462599
 30
0.0
 11
-389.1904011789971
 21
418.5257315603346
 31
0.0
  0
LINE
  5
1D18
330
1ABD
100
AcDbEntity
  8
画層1
 62
     0
100
AcDbLine
 10
-203.490401178997
 20
386.588776737169
 30
0.0
 11
-203.490401178997
 21
418.5257315603346
 31
0.0
  0
LINE
  5
1D19
330
1ABD
100
AcDbEntity
  8
画層1
 62
     0
100
AcDbLine
 10
-387.690401178997
 20
417.2757315603346
 30
0.0
 11
-204.990401178997
 21
417.2757315603346
 31
0.0
  0
INSERT
  5
1D1A
330
1ABD
100
AcDbEntity
  8
画層1
 62
     0
100
AcDbBlockReference
  2
_OPEN30
 10
-389.1904011789971
 20
417.2757315603346
 30
0.0
 41
1.5
 42
1.5
 43
1.5
 50
180.0
  0
INSERT
  5
1D1B
330
1ABD
100
AcDbEntity
  8
画層1
 62
     0
100
AcDbBlockReference
  2
_OPEN30
 10
-203.490401178997
 20
417.2757315603346
 30
0.0
 41
1.5
 42
1.5
 43
1.5
  0
MTEXT
  5
1D1C
330
1ABD
100
AcDbEntity
  8
画層1
 62
     0
100
AcDbMText
 10
-296.340401178997
 20
419.5257315603346
 30
0.0
 40
2.5
 41
0.0
 71
     5
 72
     1
  1
\A1;186
 73
     1
 44
1.0
1001
ACAD
1000
MTEXTBEGIN
1070
    73
1070
     1
1070
    44
1040
1.0
1070
    74
1070
     0
1000
MTEXTEND
1000
MTEXTBEGIN
1070
    73
1070
     1
1070
    44
1040
1.0
1070
    74
1070
     0
1000
MTEXTEND
  0
POINT
  5
1D1D
330
1ABD
100
AcDbEntity
  8
DEFPOINTS
 62
     0
100
AcDbPoint
 10
-389.1904011789971
 20
268.8678676462599
 30
0.0
  0
POINT
  5
1D1E
330
1ABD
100
AcDbEntity
  8
DEFPOINTS
 62
     0
100
AcDbPoint
 10
-203.490401178997
 20
385.958776737169
 30
0.0
  0
POINT
  5
1D1F
330
1ABD
100
AcDbEntity
  8
DEFPOINTS
 62
     0
100
AcDbPoint
 10
-203.490401178997
 20
417.2757315603346
 30
0.0
  0
ENDBLK
  5
1AC8
330
1ABD
100
AcDbEntity
  8
0
 62
     1
370
    20
100
AcDbBlockEnd
  0
BLOCK
  5
1C05
330
1BFB
100
AcDbEntity
  8
0
370
    20
100
AcDbBlockBegin
  2
*D12
 70
     1
 10
0.0
 20
0.0
 30
0.0
  3
*D12
  1

  0
LINE
  5
1D20
330
1BFB
100
AcDbEntity
  8
画層1
 62
     0
100
AcDbLine
 10
-203.490401178997
 20
101.328776737169
 30
0.0
 11
-203.490401178997
 21
92.80268569144629
 31
0.0
  0
LINE
  5
1D21
330
1BFB
100
AcDbEntity
  8
画層1
 62
     0
100
AcDbLine
 10
-333.490401178997
 20
103.328776737169
 30
0.0
 11
-333.490401178997
 21
92.80268569144629
 31
0.0
  0
LINE
  5
1D22
330
1BFB
100
AcDbEntity
  8
画層1
 62
     0
100
AcDbLine
 10
-204.990401178997
 20
94.05268569144629
 30
0.0
 11
-331.990401178997
 21
94.05268569144629
 31
0.0
  0
INSERT
  5
1D23
330
1BFB
100
AcDbEntity
  8
画層1
 62
     0
100
AcDbBlockReference
  2
_OPEN30
 10
-203.490401178997
 20
94.05268569144629
 30
0.0
 41
1.5
 42
1.5
 43
1.5
  0
INSERT
  5
1D24
330
1BFB
100
AcDbEntity
  8
画層1
 62
     0
100
AcDbBlockReference
  2
_OPEN30
 10
-333.490401178997
 20
94.05268569144629
 30
0.0
 41
1.5
 42
1.5
 43
1.5
 50
180.0
  0
MTEXT
  5
1D25
330
1BFB
100
AcDbEntity
  8
画層1
 62
     0
100
AcDbMText
 10
-268.490401178997
 20
96.30268569144631
 30
0.0
 40
2.5
 41
0.0
 71
     5
 72
     1
  1
\A1;130
 73
     1
 44
1.0
1001
ACAD
1000
MTEXTBEGIN
1070
    73
1070
     1
1070
    44
1040
1.0
1070
    74
1070
     0
1000
MTEXTEND
1000
MTEXTBEGIN
1070
    73
1070
     1
1070
    44
1040
1.0
1070
    74
1070
     0
1000
MTEXTEND
  0
POINT
  5
1D26
330
1BFB
100
AcDbEntity
  8
DEFPOINTS
 62
     0
100
AcDbPoint
 10
-203.490401178997
 20
101.9587767371689
 30
0.0
  0
POINT
  5
1D27
330
1BFB
100
AcDbEntity
  8
DEFPOINTS
 62
     0
100
AcDbPoint
 10
-333.490401178997
 20
103.958776737169
 30
0.0
  0
POINT
  5
1D28
330
1BFB
100
AcDbEntity
  8
DEFPOINTS
 62
     0
100
AcDbPoint
 10
-333.490401178997
 20
94.05268569144629
 30
0.0
  0
ENDBLK
  5
1C06
330
1BFB
100
AcDbEntity
  8
0
370
    20
100
AcDbBlockEnd
  0
ENDSEC
  0
SECTION
  2
ENTITIES
  0
LINE
  5
B81
330
2
100
AcDbEntity
  8
画層1
  6
CENTER
 62
     0
370
    20
100
AcDbLine
 10
-685.3341459465916
 20
243.958776737169
 30
0.0
 11
-465.0750046241007
 21
243.958776737169
 31
0.0
  0
LINE
  5
B84
330
2
100
AcDbEntity
  8
画層1
  6
CENTER
 62
     0
370
    20
100
AcDbLine
 10
-575.5652295960735
 20
415.8059671222513
 30
0.0
 11
-575.5652295960735
 21
116.9587767371689
 31
0.0
  0
LINE
  5
BB4
330
2
100
AcDbEntity
  8
画層1
  6
CENTER
 62
     0
370
    20
100
AcDbLine
 10
-421.0721983038131
 20
243.958776737169
 30
0.0
 11
-193.5791679920685
 21
243.958776737169
 31
0.0
  0
LWPOLYLINE
  5
FD3
330
2
100
AcDbEntity
  8
画層1
370
    20
100
AcDbPolyline
 90
        2
 70
     0
 43
0.0
 10
-477.4652295960736
 20
101.9587767371689
 10
-477.4652295960736
 20
133.9587767371689
  0
LINE
  5
FD4
330
2
100
AcDbEntity
  8
画層1
370
    20
100
AcDbLine
 10
-501.0652295960735
 20
101.9587767371689
 30
0.0
 11
-477.4652295960736
 21
101.9587767371689
 31
0.0
  0
LWPOLYLINE
  5
FD5
330
2
100
AcDbEntity
  8
画層1
370
    20
100
AcDbPolyline
 90
        2
 70
     0
 43
0.0
 10
-641.0652858356385
 20
101.9587767371689
 10
-510.0652295960735
 20
101.9587767371689
  0
LINE
  5
FD6
330
2
100
AcDbEntity
  8
画層1
370
    20
100
AcDbLine
 10
-673.6652295960736
 20
101.9587767371689
 30
0.0
 11
-650.0626344854501
 21
101.9587767371689
 31
0.0
  0
LWPOLYLINE
  5
FE4
330
2
100
AcDbEntity
  8
画層1
370
    20
100
AcDbPolyline
 90
        6
 70
     1
 43
0.0
 10
-603.5652295960735
 20
153.9587767371689
 10
-524.5652295960735
 20
153.958776737169
 42
0.4142135623730951
 10
-522.5652295960735
 20
155.958776737169
 10
-522.5652295960735
 20
162.4587767371689
 10
-605.5652295960735
 20
162.4587767371689
 10
-605.5652295960735
 20
155.958776737169
 42
0.4142135623730951
  0
LWPOLYLINE
  5
FEF
330
2
100
AcDbEntity
  8
画層1
370
    20
100
AcDbPolyline
 90
        6
 70
     1
 43
0.0
 10
-605.5652295960735
 20
325.458776737169
 10
-522.5652295960735
 20
325.458776737169
 10
-522.5652295960735
 20
331.958776737169
 42
0.4142135623730948
 10
-524.5652295960735
 20
333.958776737169
 10
-603.5652295960735
 20
333.958776737169
 42
0.4142135623730951
 10
-605.5652295960735
 20
331.958776737169
  0
LINE
  5
FF5
330
2
100
AcDbEntity
  8
画層1
370
    20
100
AcDbLine
 10
-605.5652295960735
 20
162.4587767371689
 30
0.0
 11
-605.5652295960735
 21
163.9587767371689
 31
0.0
  0
LINE
  5
FF6
330
2
100
AcDbEntity
  8
画層1
370
    20
100
AcDbLine
 10
-522.5652295960735
 20
162.4587767371689
 30
0.0
 11
-522.5652295960735
 21
163.9587767371689
 31
0.0
  0
LINE
  5
FF7
330
2
100
AcDbEntity
  8
画層1
370
    20
100
AcDbLine
 10
-522.5652295960735
 20
323.9587767371689
 30
0.0
 11
-522.5652295960735
 21
325.458776737169
 31
0.0
  0
LINE
  5
FF8
330
2
100
AcDbEntity
  8
画層1
370
    20
100
AcDbLine
 10
-605.5652295960735
 20
323.9587767371689
 30
0.0
 11
-605.5652295960735
 21
325.458776737169
 31
0.0
  0
LINE
  5
FF9
330
2
100
AcDbEntity
  8
画層1
370
    20
100
AcDbLine
 10
-605.5652295960735
 20
323.9587767371689
 30
0.0
 11
-606.5652295960735
 21
323.9587767371689
 31
0.0
  0
LINE
  5
FFA
330
2
100
AcDbEntity
  8
画層1
370
    20
100
AcDbLine
 10
-606.5652295960735
 20
323.9587767371689
 30
0.0
 11
-606.5652295960735
 21
163.9587767371689
 31
0.0
  0
LINE
  5
FFB
330
2
100
AcDbEntity
  8
画層1
370
    20
100
AcDbLine
 10
-606.5652295960735
 20
163.9587767371689
 30
0.0
 11
-605.5652295960735
 21
163.9587767371689
 31
0.0
  0
LINE
  5
FFC
330
2
100
AcDbEntity
  8
画層1
370
    20
100
AcDbLine
 10
-522.5652295960735
 20
163.9587767371689
 30
0.0
 11
-521.5652295960735
 21
163.9587767371689
 31
0.0
  0
LINE
  5
FFD
330
2
100
AcDbEntity
  8
画層1
370
    20
100
AcDbLine
 10
-521.5652295960735
 20
163.9587767371689
 30
0.0
 11
-521.5652295960735
 21
323.9587767371689
 31
0.0
  0
LINE
  5
FFE
330
2
100
AcDbEntity
  8
画層1
370
    20
100
AcDbLine
 10
-521.5652295960735
 20
323.9587767371689
 30
0.0
 11
-522.5652295960735
 21
323.9587767371689
 31
0.0
  0
CIRCLE
  5
1117
330
2
100
AcDbEntity
  8
画層1
370
    20
100
AcDbCircle
 10
-600.5652295960735
 20
157.9587767371689
 30
0.0
 40
4.0
  0
CIRCLE
  5
1118
330
2
100
AcDbEntity
  8
画層1
370
    20
100
AcDbCircle
 10
-600.5652295960735
 20
157.9587767371689
 30
0.0
 40
2.5
  0
LINE
  5
1119
330
2
100
AcDbEntity
  8
画層1
370
    20
100
AcDbLine
 10
-600.0652295960735
 20
157.4587767371689
 30
0.0
 11
-600.0652295960735
 21
156.4587767371689
 31
0.0
  0
LINE
  5
111A
330
2
100
AcDbEntity
  8
画層1
370
    20
100
AcDbLine
 10
-602.0652295960736
 20
157.4587767371689
 30
0.0
 11
-601.0652295960735
 21
157.4587767371689
 31
0.0
  0
LINE
  5
111B
330
2
100
AcDbEntity
  8
画層1
370
    20
100
AcDbLine
 10
-601.0652295960735
 20
156.4587767371689
 30
0.0
 11
-601.0652295960735
 21
157.4587767371689
 31
0.0
  0
LINE
  5
111C
330
2
100
AcDbEntity
  8
画層1
370
    20
100
AcDbLine
 10
-600.0652295960735
 20
156.4587767371689
 30
0.0
 11
-601.0652295960735
 21
156.4587767371689
 31
0.0
  0
LINE
  5
111D
330
2
100
AcDbEntity
  8
画層1
370
    20
100
AcDbLine
 10
-599.0652295960735
 20
157.4587767371689
 30
0.0
 11
-600.0652295960735
 21
157.4587767371689
 31
0.0
  0
LINE
  5
111E
330
2
100
AcDbEntity
  8
画層1
370
    20
100
AcDbLine
 10
-599.0652295960735
 20
158.4587767371689
 30
0.0
 11
-599.0652295960735
 21
157.4587767371689
 31
0.0
  0
LINE
  5
111F
330
2
100
AcDbEntity
  8
画層1
370
    20
100
AcDbLine
 10
-600.0652295960735
 20
158.4587767371689
 30
0.0
 11
-599.0652295960735
 21
158.4587767371689
 31
0.0
  0
LINE
  5
1120
330
2
100
AcDbEntity
  8
画層1
370
    20
100
AcDbLine
 10
-600.0652295960735
 20
159.4587767371689
 30
0.0
 11
-600.0652295960735
 21
158.4587767371689
 31
0.0
  0
LINE
  5
1121
330
2
100
AcDbEntity
  8
画層1
370
    20
100
AcDbLine
 10
-601.0652295960735
 20
159.4587767371689
 30
0.0
 11
-600.0652295960735
 21
159.4587767371689
 31
0.0
  0
LINE
  5
1122
330
2
100
AcDbEntity
  8
画層1
370
    20
100
AcDbLine
 10
-601.0652295960735
 20
158.4587767371689
 30
0.0
 11
-601.0652295960735
 21
159.4587767371689
 31
0.0
  0
LINE
  5
1123
330
2
100
AcDbEntity
  8
画層1
370
    20
100
AcDbLine
 10
-602.0652295960736
 20
158.4587767371689
 30
0.0
 11
-601.0652295960735
 21
158.4587767371689
 31
0.0
  0
LINE
  5
1124
330
2
100
AcDbEntity
  8
画層1
370
    20
100
AcDbLine
 10
-602.0652295960736
 20
157.4587767371689
 30
0.0
 11
-602.0652295960736
 21
158.4587767371689
 31
0.0
  0
LINE
  5
1127
330
2
100
AcDbEntity
  8
画層1
370
    20
100
AcDbLine
 10
-529.0652295960735
 20
158.4587767371689
 30
0.0
 11
-528.0652295960735
 21
158.4587767371689
 31
0.0
  0
LINE
  5
1128
330
2
100
AcDbEntity
  8
画層1
370
    20
100
AcDbLine
 10
-529.0652295960735
 20
157.4587767371689
 30
0.0
 11
-528.0652295960735
 21
157.4587767371689
 31
0.0
  0
CIRCLE
  5
1129
330
2
100
AcDbEntity
  8
画層1
370
    20
100
AcDbCircle
 10
-527.5652295960735
 20
157.9587767371689
 30
0.0
 40
2.5
  0
LINE
  5
112A
330
2
100
AcDbEntity
  8
画層1
370
    20
100
AcDbLine
 10
-529.0652295960735
 20
157.4587767371689
 30
0.0
 11
-529.0652295960735
 21
158.4587767371689
 31
0.0
  0
LINE
  5
112B
330
2
100
AcDbEntity
  8
画層1
370
    20
100
AcDbLine
 10
-528.0652295960735
 20
158.4587767371689
 30
0.0
 11
-528.0652295960735
 21
159.4587767371689
 31
0.0
  0
LINE
  5
112C
330
2
100
AcDbEntity
  8
画層1
370
    20
100
AcDbLine
 10
-528.0652295960735
 20
159.4587767371689
 30
0.0
 11
-527.0652295960736
 21
159.4587767371689
 31
0.0
  0
LINE
  5
112D
330
2
100
AcDbEntity
  8
画層1
370
    20
100
AcDbLine
 10
-527.0652295960736
 20
159.4587767371689
 30
0.0
 11
-527.0652295960736
 21
158.4587767371689
 31
0.0
  0
LINE
  5
112E
330
2
100
AcDbEntity
  8
画層1
370
    20
100
AcDbLine
 10
-527.0652295960736
 20
158.4587767371689
 30
0.0
 11
-526.0652295960735
 21
158.4587767371689
 31
0.0
  0
LINE
  5
112F
330
2
100
AcDbEntity
  8
画層1
370
    20
100
AcDbLine
 10
-526.0652295960735
 20
158.4587767371689
 30
0.0
 11
-526.0652295960735
 21
157.4587767371689
 31
0.0
  0
LINE
  5
1130
330
2
100
AcDbEntity
  8
画層1
370
    20
100
AcDbLine
 10
-526.0652295960735
 20
157.4587767371689
 30
0.0
 11
-527.0652295960736
 21
157.4587767371689
 31
0.0
  0
LINE
  5
1131
330
2
100
AcDbEntity
  8
画層1
370
    20
100
AcDbLine
 10
-527.0652295960736
 20
156.4587767371689
 30
0.0
 11
-528.0652295960735
 21
156.4587767371689
 31
0.0
  0
LINE
  5
1132
330
2
100
AcDbEntity
  8
画層1
370
    20
100
AcDbLine
 10
-528.0652295960735
 20
156.4587767371689
 30
0.0
 11
-528.0652295960735
 21
157.4587767371689
 31
0.0
  0
LINE
  5
1133
330
2
100
AcDbEntity
  8
画層1
370
    20
100
AcDbLine
 10
-527.0652295960736
 20
157.4587767371689
 30
0.0
 11
-527.0652295960736
 21
156.4587767371689
 31
0.0
  0
CIRCLE
  5
1134
330
2
100
AcDbEntity
  8
画層1
370
    20
100
AcDbCircle
 10
-527.5652295960735
 20
157.9587767371689
 30
0.0
 40
4.0
  0
CIRCLE
  5
1137
330
2
100
AcDbEntity
  8
画層1
370
    20
100
AcDbCircle
 10
-600.5652295960735
 20
329.958776737169
 30
0.0
 40
4.0
  0
LINE
  5
1138
330
2
100
AcDbEntity
  8
画層1
370
    20
100
AcDbLine
 10
-602.0652295960736
 20
330.4587767371689
 30
0.0
 11
-601.0652295960735
 21
330.4587767371689
 31
0.0
  0
LINE
  5
1139
330
2
100
AcDbEntity
  8
画層1
370
    20
100
AcDbLine
 10
-602.0652295960736
 20
329.458776737169
 30
0.0
 11
-601.0652295960735
 21
329.458776737169
 31
0.0
  0
CIRCLE
  5
113A
330
2
100
AcDbEntity
  8
画層1
370
    20
100
AcDbCircle
 10
-600.5652295960735
 20
329.958776737169
 30
0.0
 40
2.5
  0
LINE
  5
113B
330
2
100
AcDbEntity
  8
画層1
370
    20
100
AcDbLine
 10
-602.0652295960736
 20
329.458776737169
 30
0.0
 11
-602.0652295960736
 21
330.4587767371689
 31
0.0
  0
LINE
  5
113C
330
2
100
AcDbEntity
  8
画層1
370
    20
100
AcDbLine
 10
-601.0652295960735
 20
330.4587767371689
 30
0.0
 11
-601.0652295960735
 21
331.458776737169
 31
0.0
  0
LINE
  5
113D
330
2
100
AcDbEntity
  8
画層1
370
    20
100
AcDbLine
 10
-601.0652295960735
 20
331.458776737169
 30
0.0
 11
-600.0652295960735
 21
331.458776737169
 31
0.0
  0
LINE
  5
113E
330
2
100
AcDbEntity
  8
画層1
370
    20
100
AcDbLine
 10
-600.0652295960735
 20
331.458776737169
 30
0.0
 11
-600.0652295960735
 21
330.4587767371689
 31
0.0
  0
LINE
  5
113F
330
2
100
AcDbEntity
  8
画層1
370
    20
100
AcDbLine
 10
-600.0652295960735
 20
330.4587767371689
 30
0.0
 11
-599.0652295960735
 21
330.4587767371689
 31
0.0
  0
LINE
  5
1140
330
2
100
AcDbEntity
  8
画層1
370
    20
100
AcDbLine
 10
-599.0652295960735
 20
330.4587767371689
 30
0.0
 11
-599.0652295960735
 21
329.458776737169
 31
0.0
  0
LINE
  5
1141
330
2
100
AcDbEntity
  8
画層1
370
    20
100
AcDbLine
 10
-599.0652295960735
 20
329.458776737169
 30
0.0
 11
-600.0652295960735
 21
329.458776737169
 31
0.0
  0
LINE
  5
1142
330
2
100
AcDbEntity
  8
画層1
370
    20
100
AcDbLine
 10
-600.0652295960735
 20
328.4587767371689
 30
0.0
 11
-601.0652295960735
 21
328.4587767371689
 31
0.0
  0
LINE
  5
1143
330
2
100
AcDbEntity
  8
画層1
370
    20
100
AcDbLine
 10
-601.0652295960735
 20
328.4587767371689
 30
0.0
 11
-601.0652295960735
 21
329.458776737169
 31
0.0
  0
LINE
  5
1144
330
2
100
AcDbEntity
  8
画層1
370
    20
100
AcDbLine
 10
-600.0652295960735
 20
329.458776737169
 30
0.0
 11
-600.0652295960735
 21
328.4587767371689
 31
0.0
  0
CIRCLE
  5
1145
330
2
100
AcDbEntity
  8
画層1
370
    20
100
AcDbCircle
 10
-527.5652295960735
 20
329.958776737169
 30
0.0
 40
4.0
  0
LINE
  5
1146
330
2
100
AcDbEntity
  8
画層1
370
    20
100
AcDbLine
 10
-527.0652295960736
 20
329.458776737169
 30
0.0
 11
-527.0652295960736
 21
328.4587767371689
 31
0.0
  0
LINE
  5
1147
330
2
100
AcDbEntity
  8
画層1
370
    20
100
AcDbLine
 10
-528.0652295960735
 20
328.4587767371689
 30
0.0
 11
-528.0652295960735
 21
329.458776737169
 31
0.0
  0
LINE
  5
1148
330
2
100
AcDbEntity
  8
画層1
370
    20
100
AcDbLine
 10
-527.0652295960736
 20
328.4587767371689
 30
0.0
 11
-528.0652295960735
 21
328.4587767371689
 31
0.0
  0
LINE
  5
1149
330
2
100
AcDbEntity
  8
画層1
370
    20
100
AcDbLine
 10
-526.0652295960735
 20
329.458776737169
 30
0.0
 11
-527.0652295960736
 21
329.458776737169
 31
0.0
  0
LINE
  5
114A
330
2
100
AcDbEntity
  8
画層1
370
    20
100
AcDbLine
 10
-526.0652295960735
 20
330.4587767371689
 30
0.0
 11
-526.0652295960735
 21
329.458776737169
 31
0.0
  0
LINE
  5
114B
330
2
100
AcDbEntity
  8
画層1
370
    20
100
AcDbLine
 10
-527.0652295960736
 20
330.4587767371689
 30
0.0
 11
-526.0652295960735
 21
330.4587767371689
 31
0.0
  0
LINE
  5
114C
330
2
100
AcDbEntity
  8
画層1
370
    20
100
AcDbLine
 10
-527.0652295960736
 20
331.458776737169
 30
0.0
 11
-527.0652295960736
 21
330.4587767371689
 31
0.0
  0
LINE
  5
114D
330
2
100
AcDbEntity
  8
画層1
370
    20
100
AcDbLine
 10
-528.0652295960735
 20
331.458776737169
 30
0.0
 11
-527.0652295960736
 21
331.458776737169
 31
0.0
  0
LINE
  5
114E
330
2
100
AcDbEntity
  8
画層1
370
    20
100
AcDbLine
 10
-528.0652295960735
 20
330.4587767371689
 30
0.0
 11
-528.0652295960735
 21
331.458776737169
 31
0.0
  0
LINE
  5
114F
330
2
100
AcDbEntity
  8
画層1
370
    20
100
AcDbLine
 10
-529.0652295960735
 20
329.458776737169
 30
0.0
 11
-529.0652295960735
 21
330.4587767371689
 31
0.0
  0
CIRCLE
  5
1150
330
2
100
AcDbEntity
  8
画層1
370
    20
100
AcDbCircle
 10
-527.5652295960735
 20
329.958776737169
 30
0.0
 40
2.5
  0
LINE
  5
1151
330
2
100
AcDbEntity
  8
画層1
370
    20
100
AcDbLine
 10
-529.0652295960735
 20
329.458776737169
 30
0.0
 11
-528.0652295960735
 21
329.458776737169
 31
0.0
  0
LINE
  5
1152
330
2
100
AcDbEntity
  8
画層1
370
    20
100
AcDbLine
 10
-529.0652295960735
 20
330.4587767371689
 30
0.0
 11
-528.0652295960735
 21
330.4587767371689
 31
0.0
  0
CIRCLE
  5
115D
330
2
100
AcDbEntity
  8
画層1
370
    20
100
AcDbCircle
 10
-623.5652295960735
 20
307.9587767371689
 30
0.0
 40
5.0
  0
CIRCLE
  5
115E
330
2
100
AcDbEntity
  8
画層1
370
    20
100
AcDbCircle
 10
-623.5652295960735
 20
307.9587767371689
 30
0.0
 40
3.5
  0
CIRCLE
  5
115F
330
2
100
AcDbEntity
  8
画層1
370
    20
100
AcDbCircle
 10
-623.5652295960735
 20
307.9587767371689
 30
0.0
 40
3.0
  0
LINE
  5
1161
330
2
100
AcDbEntity
  8
画層1
370
    20
100
AcDbLine
 10
-625.0652295960735
 20
307.4587767371689
 30
0.0
 11
-624.0652295960735
 21
307.4587767371689
 31
0.0
  0
LINE
  5
1162
330
2
100
AcDbEntity
  8
画層1
370
    20
100
AcDbLine
 10
-625.0652295960735
 20
308.458776737169
 30
0.0
 11
-624.0652295960735
 21
308.458776737169
 31
0.0
  0
LINE
  5
1163
330
2
100
AcDbEntity
  8
画層1
370
    20
100
AcDbLine
 10
-625.0652295960735
 20
307.4587767371689
 30
0.0
 11
-625.0652295960735
 21
308.458776737169
 31
0.0
  0
LINE
  5
1164
330
2
100
AcDbEntity
  8
画層1
370
    20
100
AcDbLine
 10
-623.0652295960735
 20
307.4587767371689
 30
0.0
 11
-623.0652295960735
 21
306.458776737169
 31
0.0
  0
LINE
  5
1165
330
2
100
AcDbEntity
  8
画層1
370
    20
100
AcDbLine
 10
-624.0652295960735
 20
306.458776737169
 30
0.0
 11
-624.0652295960735
 21
307.4587767371689
 31
0.0
  0
LINE
  5
1166
330
2
100
AcDbEntity
  8
画層1
370
    20
100
AcDbLine
 10
-623.0652295960735
 20
306.458776737169
 30
0.0
 11
-624.0652295960735
 21
306.458776737169
 31
0.0
  0
LINE
  5
1167
330
2
100
AcDbEntity
  8
画層1
370
    20
100
AcDbLine
 10
-622.0652295960735
 20
307.4587767371689
 30
0.0
 11
-623.0652295960735
 21
307.4587767371689
 31
0.0
  0
LINE
  5
1168
330
2
100
AcDbEntity
  8
画層1
370
    20
100
AcDbLine
 10
-622.0652295960735
 20
308.458776737169
 30
0.0
 11
-622.0652295960735
 21
307.4587767371689
 31
0.0
  0
LINE
  5
1169
330
2
100
AcDbEntity
  8
画層1
370
    20
100
AcDbLine
 10
-623.0652295960735
 20
308.458776737169
 30
0.0
 11
-622.0652295960735
 21
308.458776737169
 31
0.0
  0
LINE
  5
116A
330
2
100
AcDbEntity
  8
画層1
370
    20
100
AcDbLine
 10
-623.0652295960735
 20
309.4587767371689
 30
0.0
 11
-623.0652295960735
 21
308.458776737169
 31
0.0
  0
LINE
  5
116B
330
2
100
AcDbEntity
  8
画層1
370
    20
100
AcDbLine
 10
-624.0652295960735
 20
309.4587767371689
 30
0.0
 11
-623.0652295960735
 21
309.4587767371689
 31
0.0
  0
LINE
  5
116C
330
2
100
AcDbEntity
  8
画層1
370
    20
100
AcDbLine
 10
-624.0652295960735
 20
308.458776737169
 30
0.0
 11
-624.0652295960735
 21
309.4587767371689
 31
0.0
  0
LINE
  5
1171
330
2
100
AcDbEntity
  8
画層1
370
    20
100
AcDbLine
 10
-624.0652295960735
 20
168.458776737169
 30
0.0
 11
-624.0652295960735
 21
169.458776737169
 31
0.0
  0
LINE
  5
1172
330
2
100
AcDbEntity
  8
画層1
370
    20
100
AcDbLine
 10
-623.0652295960735
 20
169.458776737169
 30
0.0
 11
-623.0652295960735
 21
168.458776737169
 31
0.0
  0
LINE
  5
1173
330
2
100
AcDbEntity
  8
画層1
370
    20
100
AcDbLine
 10
-623.0652295960735
 20
168.458776737169
 30
0.0
 11
-624.0652295960735
 21
168.458776737169
 31
0.0
  0
LINE
  5
1174
330
2
100
AcDbEntity
  8
画層1
370
    20
100
AcDbLine
 10
-624.0652295960735
 20
171.4587767371689
 30
0.0
 11
-623.0652295960735
 21
171.4587767371689
 31
0.0
  0
LINE
  5
1175
330
2
100
AcDbEntity
  8
画層1
370
    20
100
AcDbLine
 10
-624.0652295960735
 20
170.4587767371689
 30
0.0
 11
-624.0652295960735
 21
171.4587767371689
 31
0.0
  0
LINE
  5
1176
330
2
100
AcDbEntity
  8
画層1
370
    20
100
AcDbLine
 10
-625.0652295960735
 20
169.458776737169
 30
0.0
 11
-625.0652295960735
 21
170.4587767371689
 31
0.0
  0
LINE
  5
1177
330
2
100
AcDbEntity
  8
画層1
370
    20
100
AcDbLine
 10
-625.0652295960735
 20
170.4587767371689
 30
0.0
 11
-624.0652295960735
 21
170.4587767371689
 31
0.0
  0
LINE
  5
1178
330
2
100
AcDbEntity
  8
画層1
370
    20
100
AcDbLine
 10
-625.0652295960735
 20
169.458776737169
 30
0.0
 11
-624.0652295960735
 21
169.458776737169
 31
0.0
  0
LINE
  5
1179
330
2
100
AcDbEntity
  8
画層1
370
    20
100
AcDbLine
 10
-623.0652295960735
 20
171.4587767371689
 30
0.0
 11
-623.0652295960735
 21
170.4587767371689
 31
0.0
  0
LINE
  5
117A
330
2
100
AcDbEntity
  8
画層1
370
    20
100
AcDbLine
 10
-623.0652295960735
 20
170.4587767371689
 30
0.0
 11
-622.0652295960735
 21
170.4587767371689
 31
0.0
  0
LINE
  5
117B
330
2
100
AcDbEntity
  8
画層1
370
    20
100
AcDbLine
 10
-622.0652295960735
 20
170.4587767371689
 30
0.0
 11
-622.0652295960735
 21
169.458776737169
 31
0.0
  0
LINE
  5
117C
330
2
100
AcDbEntity
  8
画層1
370
    20
100
AcDbLine
 10
-622.0652295960735
 20
169.458776737169
 30
0.0
 11
-623.0652295960735
 21
169.458776737169
 31
0.0
  0
CIRCLE
  5
117F
330
2
100
AcDbEntity
  8
画層1
370
    20
100
AcDbCircle
 10
-623.5652295960735
 20
169.9587767371689
 30
0.0
 40
4.0
  0
CIRCLE
  5
1180
330
2
100
AcDbEntity
  8
画層1
370
    20
100
AcDbCircle
 10
-623.5652295960735
 20
169.9587767371689
 30
0.0
 40
3.0
  0
LINE
  5
1184
330
2
100
AcDbEntity
  8
画層1
370
    20
100
AcDbLine
 10
-606.5652295960735
 20
163.9587767371689
 30
0.0
 11
-629.5652295960735
 21
163.9587767371689
 31
0.0
  0
LINE
  5
1185
330
2
100
AcDbEntity
  8
画層1
370
    20
100
AcDbLine
 10
-629.5652295960735
 20
163.9587767371689
 30
0.0
 11
-629.5652295960735
 21
313.9587767371689
 31
0.0
  0
LINE
  5
1186
330
2
100
AcDbEntity
  8
画層1
370
    20
100
AcDbLine
 10
-629.5652295960735
 20
313.9587767371689
 30
0.0
 11
-606.5652295960735
 21
313.9587767371689
 31
0.0
  0
LWPOLYLINE
  5
118D
330
2
100
AcDbEntity
  8
画層1
370
    20
100
AcDbPolyline
 90
        4
 70
     1
 43
0.0
 10
-628.5652295960735
 20
178.9587767371689
 10
-615.5652295960735
 20
178.9587767371689
 10
-615.5652295960735
 20
176.958776737169
 10
-628.5652295960735
 20
176.958776737169
  0
LWPOLYLINE
  5
118E
330
2
100
AcDbEntity
  8
画層1
370
    20
100
AcDbPolyline
 90
        4
 70
     1
 43
0.0
 10
-628.5652295960735
 20
188.9587767371689
 10
-615.5652295960735
 20
188.9587767371689
 10
-615.5652295960735
 20
186.9587767371689
 10
-628.5652295960735
 20
186.9587767371689
  0
LWPOLYLINE
  5
118F
330
2
100
AcDbEntity
  8
画層1
370
    20
100
AcDbPolyline
 90
        4
 70
     1
 43
0.0
 10
-628.5652295960735
 20
198.9587767371689
 10
-615.5652295960735
 20
198.9587767371689
 10
-615.5652295960735
 20
196.958776737169
 10
-628.5652295960735
 20
196.958776737169
  0
LWPOLYLINE
  5
1190
330
2
100
AcDbEntity
  8
画層1
370
    20
100
AcDbPolyline
 90
        4
 70
     1
 43
0.0
 10
-628.5652295960735
 20
208.958776737169
 10
-615.5652295960735
 20
208.958776737169
 10
-615.5652295960735
 20
206.958776737169
 10
-628.5652295960735
 20
206.958776737169
  0
LWPOLYLINE
  5
1191
330
2
100
AcDbEntity
  8
画層1
370
    20
100
AcDbPolyline
 90
        4
 70
     1
 43
0.0
 10
-628.5652295960735
 20
218.958776737169
 10
-615.5652295960735
 20
218.958776737169
 10
-615.5652295960735
 20
216.958776737169
 10
-628.5652295960735
 20
216.958776737169
  0
LWPOLYLINE
  5
1192
330
2
100
AcDbEntity
  8
画層1
370
    20
100
AcDbPolyline
 90
        4
 70
     1
 43
0.0
 10
-628.5652295960735
 20
228.9587767371689
 10
-615.5652295960735
 20
228.9587767371689
 10
-615.5652295960735
 20
226.9587767371689
 10
-628.5652295960735
 20
226.9587767371689
  0
LWPOLYLINE
  5
1193
330
2
100
AcDbEntity
  8
画層1
370
    20
100
AcDbPolyline
 90
        4
 70
     1
 43
0.0
 10
-628.5652295960735
 20
238.9587767371689
 10
-615.5652295960735
 20
238.9587767371689
 10
-615.5652295960735
 20
236.9587767371689
 10
-628.5652295960735
 20
236.9587767371689
  0
LWPOLYLINE
  5
1194
330
2
100
AcDbEntity
  8
画層1
370
    20
100
AcDbPolyline
 90
        4
 70
     1
 43
0.0
 10
-628.5652295960735
 20
248.9587767371689
 10
-615.5652295960735
 20
248.9587767371689
 10
-615.5652295960735
 20
246.9587767371689
 10
-628.5652295960735
 20
246.9587767371689
  0
LWPOLYLINE
  5
1195
330
2
100
AcDbEntity
  8
画層1
370
    20
100
AcDbPolyline
 90
        4
 70
     1
 43
0.0
 10
-628.5652295960735
 20
258.958776737169
 10
-615.5652295960735
 20
258.958776737169
 10
-615.5652295960735
 20
256.958776737169
 10
-628.5652295960735
 20
256.958776737169
  0
LWPOLYLINE
  5
1196
330
2
100
AcDbEntity
  8
画層1
370
    20
100
AcDbPolyline
 90
        4
 70
     1
 43
0.0
 10
-628.5652295960735
 20
268.958776737169
 10
-615.5652295960735
 20
268.958776737169
 10
-615.5652295960735
 20
266.958776737169
 10
-628.5652295960735
 20
266.958776737169
  0
LINE
  5
1197
330
2
100
AcDbEntity
  8
画層1
370
    20
100
AcDbLine
 10
-615.5652295960735
 20
266.958776737169
 30
0.0
 11
-615.5652295960735
 21
178.9587767371689
 31
0.0
  0
LINE
  5
1198
330
2
100
AcDbEntity
  8
画層1
370
    20
100
AcDbLine
 10
-628.5652295960735
 20
266.958776737169
 30
0.0
 11
-628.5652295960735
 21
178.9587767371689
 31
0.0
  0
CIRCLE
  5
119A
330
2
100
AcDbEntity
  8
画層1
370
    20
100
AcDbCircle
 10
-622.0652295960735
 20
262.958776737169
 30
0.0
 40
3.0
  0
LINE
  5
11A3
330
2
100
AcDbEntity
  8
画層1
370
    20
100
AcDbLine
 10
-622.5652295960735
 20
264.958776737169
 30
0.0
 11
-622.5652295960735
 21
263.4587767371689
 31
0.0
  0
LINE
  5
11A4
330
2
100
AcDbEntity
  8
画層1
370
    20
100
AcDbLine
 10
-622.5652295960735
 20
263.4587767371689
 30
0.0
 11
-625.0232694876233
 21
263.4587767371689
 31
0.0
  0
LINE
  5
11A5
330
2
100
AcDbEntity
  8
画層1
370
    20
100
AcDbLine
 10
-625.0232694876233
 20
262.4587767371689
 30
0.0
 11
-622.5652295960735
 21
262.4587767371689
 31
0.0
  0
LINE
  5
11A6
330
2
100
AcDbEntity
  8
画層1
370
    20
100
AcDbLine
 10
-622.5652295960735
 20
262.4587767371689
 30
0.0
 11
-622.5652295960735
 21
260.958776737169
 31
0.0
  0
LINE
  5
11A7
330
2
100
AcDbEntity
  8
画層1
370
    20
100
AcDbLine
 10
-622.5652295960735
 20
260.958776737169
 30
0.0
 11
-621.5652295960735
 21
260.958776737169
 31
0.0
  0
LINE
  5
11A8
330
2
100
AcDbEntity
  8
画層1
370
    20
100
AcDbLine
 10
-621.5652295960735
 20
260.958776737169
 30
0.0
 11
-621.5652295960735
 21
262.4587767371689
 31
0.0
  0
LINE
  5
11A9
330
2
100
AcDbEntity
  8
画層1
370
    20
100
AcDbLine
 10
-621.5652295960735
 20
262.4587767371689
 30
0.0
 11
-619.1071897045238
 21
262.4587767371689
 31
0.0
  0
LINE
  5
11AA
330
2
100
AcDbEntity
  8
画層1
370
    20
100
AcDbLine
 10
-619.1071897045238
 20
263.4587767371689
 30
0.0
 11
-621.5652295960735
 21
263.4587767371689
 31
0.0
  0
LINE
  5
11AB
330
2
100
AcDbEntity
  8
画層1
370
    20
100
AcDbLine
 10
-621.5652295960735
 20
263.4587767371689
 30
0.0
 11
-621.5652295960735
 21
264.958776737169
 31
0.0
  0
LINE
  5
11AC
330
2
100
AcDbEntity
  8
画層1
370
    20
100
AcDbLine
 10
-621.5652295960735
 20
264.958776737169
 30
0.0
 11
-622.5652295960735
 21
264.958776737169
 31
0.0
  0
LINE
  5
11AE
330
2
100
AcDbEntity
  8
画層1
370
    20
100
AcDbLine
 10
-626.0652295960735
 20
260.958776737169
 30
0.0
 11
-626.0652295960735
 21
264.958776737169
 31
0.0
  0
LINE
  5
11AF
330
2
100
AcDbEntity
  8
画層1
370
    20
100
AcDbLine
 10
-618.0652295960735
 20
260.958776737169
 30
0.0
 11
-618.0652295960735
 21
264.958776737169
 31
0.0
  0
LINE
  5
11B1
330
2
100
AcDbEntity
  8
画層1
370
    20
100
AcDbLine
 10
-624.0652295960735
 20
258.958776737169
 30
0.0
 11
-620.0652295960735
 21
258.958776737169
 31
0.0
  0
ARC
  5
11B2
330
2
100
AcDbEntity
  8
画層1
370
    20
100
AcDbCircle
 10
-624.0652295960734
 20
260.9587767371688
 30
0.0
 40
2.0
100
AcDbArc
 50
179.9999999999951
 51
269.9999999999967
  0
LINE
  5
11B3
330
2
100
AcDbEntity
  8
画層1
370
    20
100
AcDbLine
 10
-624.0652295960735
 20
266.958776737169
 30
0.0
 11
-620.0652295960735
 21
266.958776737169
 31
0.0
  0
ARC
  5
11B5
330
2
100
AcDbEntity
  8
画層1
370
    20
100
AcDbCircle
 10
-620.0652295960736
 20
260.9587767371689
 30
0.0
 40
2.0
100
AcDbArc
 50
270.0000000000032
 51
0.0000000000016284
  0
ARC
  5
11B6
330
2
100
AcDbEntity
  8
画層1
370
    20
100
AcDbCircle
 10
-624.0652295960736
 20
264.958776737169
 30
0.0
 40
2.0
100
AcDbArc
 50
89.99999999999674
 51
180.0000000000016
  0
ARC
  5
11B8
330
2
100
AcDbEntity
  8
画層1
370
    20
100
AcDbCircle
 10
-620.0652295960734
 20
264.958776737169
 30
0.0
 40
2.0
100
AcDbArc
 50
359.9999999999967
 51
90.00000000000325
  0
LINE
  5
11B9
330
2
100
AcDbEntity
  8
画層1
370
    20
100
AcDbLine
 10
-618.0652295960735
 20
254.958776737169
 30
0.0
 11
-618.0652295960737
 21
250.9587766371689
 31
0.0
  0
LINE
  5
11BB
330
2
100
AcDbEntity
  8
画層1
370
    20
100
AcDbLine
 10
-626.0652295960735
 20
254.958776737169
 30
0.0
 11
-626.0652295960734
 21
250.9587766371689
 31
0.0
  0
LINE
  5
11BD
330
2
100
AcDbEntity
  8
画層1
370
    20
100
AcDbLine
 10
-621.5652295960735
 20
250.9587767371689
 30
0.0
 11
-621.5652295960735
 21
252.458776737169
 31
0.0
  0
LINE
  5
11BE
330
2
100
AcDbEntity
  8
画層1
370
    20
100
AcDbLine
 10
-622.5652295960735
 20
252.458776737169
 30
0.0
 11
-622.5652295960735
 21
250.9587767371689
 31
0.0
  0
CIRCLE
  5
11BF
330
2
100
AcDbEntity
  8
画層1
370
    20
100
AcDbCircle
 10
-622.0652295960735
 20
252.9587767371689
 30
0.0
 40
3.0
  0
LINE
  5
11C0
330
2
100
AcDbEntity
  8
画層1
370
    20
100
AcDbLine
 10
-624.0652295960735
 20
248.9587767371689
 30
0.0
 11
-620.0652295960735
 21
248.9587767371689
 31
0.0
  0
ARC
  5
11C1
330
2
100
AcDbEntity
  8
画層1
370
    20
100
AcDbCircle
 10
-624.0652295960734
 20
250.9587767371688
 30
0.0
 40
2.0
100
AcDbArc
 50
179.9999999999951
 51
269.9999999999967
  0
ARC
  5
11C2
330
2
100
AcDbEntity
  8
画層1
370
    20
100
AcDbCircle
 10
-620.0652295960736
 20
250.9587767371689
 30
0.0
 40
2.0
100
AcDbArc
 50
270.0000000000032
 51
0.0000000000016284
  0
LINE
  5
11C3
330
2
100
AcDbEntity
  8
画層1
370
    20
100
AcDbLine
 10
-622.5652295960735
 20
250.9587767371689
 30
0.0
 11
-621.5652295960735
 21
250.9587767371689
 31
0.0
  0
LINE
  5
11C4
330
2
100
AcDbEntity
  8
画層1
370
    20
100
AcDbLine
 10
-624.0652295960735
 20
256.958776737169
 30
0.0
 11
-620.0652295960735
 21
256.958776737169
 31
0.0
  0
LINE
  5
11C5
330
2
100
AcDbEntity
  8
画層1
370
    20
100
AcDbLine
 10
-625.0232694876233
 20
252.458776737169
 30
0.0
 11
-622.5652295960735
 21
252.458776737169
 31
0.0
  0
LINE
  5
11C6
330
2
100
AcDbEntity
  8
画層1
370
    20
100
AcDbLine
 10
-622.5652295960735
 20
253.4587767371689
 30
0.0
 11
-625.0232694876233
 21
253.4587767371689
 31
0.0
  0
ARC
  5
11C7
330
2
100
AcDbEntity
  8
画層1
370
    20
100
AcDbCircle
 10
-624.0652295960736
 20
254.958776737169
 30
0.0
 40
2.0
100
AcDbArc
 50
89.99999999999674
 51
180.0000000000016
  0
ARC
  5
11C8
330
2
100
AcDbEntity
  8
画層1
370
    20
100
AcDbCircle
 10
-620.0652295960734
 20
254.958776737169
 30
0.0
 40
2.0
100
AcDbArc
 50
359.9999999999967
 51
90.00000000000325
  0
LINE
  5
11C9
330
2
100
AcDbEntity
  8
画層1
370
    20
100
AcDbLine
 10
-621.5652295960735
 20
254.958776737169
 30
0.0
 11
-622.5652295960735
 21
254.958776737169
 31
0.0
  0
LINE
  5
11CA
330
2
100
AcDbEntity
  8
画層1
370
    20
100
AcDbLine
 10
-621.5652295960735
 20
253.4587767371689
 30
0.0
 11
-621.5652295960735
 21
254.958776737169
 31
0.0
  0
LINE
  5
11CB
330
2
100
AcDbEntity
  8
画層1
370
    20
100
AcDbLine
 10
-619.1071897045238
 20
253.4587767371689
 30
0.0
 11
-621.5652295960735
 21
253.4587767371689
 31
0.0
  0
LINE
  5
11CC
330
2
100
AcDbEntity
  8
画層1
370
    20
100
AcDbLine
 10
-621.5652295960735
 20
252.458776737169
 30
0.0
 11
-619.1071897045238
 21
252.458776737169
 31
0.0
  0
LINE
  5
11CD
330
2
100
AcDbEntity
  8
画層1
370
    20
100
AcDbLine
 10
-622.5652295960735
 20
254.958776737169
 30
0.0
 11
-622.5652295960735
 21
253.4587767371689
 31
0.0
  0
CIRCLE
  5
11CF
330
2
100
AcDbEntity
  8
画層1
370
    20
100
AcDbCircle
 10
-622.0652295960735
 20
242.9587767371689
 30
0.0
 40
3.0
  0
LINE
  5
11D0
330
2
100
AcDbEntity
  8
画層1
370
    20
100
AcDbLine
 10
-622.5652295960735
 20
242.458776737169
 30
0.0
 11
-622.5652295960735
 21
240.9587767371689
 31
0.0
  0
LINE
  5
11D1
330
2
100
AcDbEntity
  8
画層1
370
    20
100
AcDbLine
 10
-621.5652295960735
 20
240.9587767371689
 30
0.0
 11
-621.5652295960735
 21
242.458776737169
 31
0.0
  0
LINE
  5
11D2
330
2
100
AcDbEntity
  8
画層1
370
    20
100
AcDbLine
 10
-626.0652295960735
 20
244.958776737169
 30
0.0
 11
-626.0652295960734
 21
240.9587766371689
 31
0.0
  0
LINE
  5
11D3
330
2
100
AcDbEntity
  8
画層1
370
    20
100
AcDbLine
 10
-618.0652295960735
 20
244.9587767371691
 30
0.0
 11
-618.0652295960737
 21
240.9587766371689
 31
0.0
  0
LINE
  5
11D4
330
2
100
AcDbEntity
  8
画層1
370
    20
100
AcDbLine
 10
-624.0652295960735
 20
238.9587767371689
 30
0.0
 11
-620.0652295960735
 21
238.9587767371689
 31
0.0
  0
ARC
  5
11D5
330
2
100
AcDbEntity
  8
画層1
370
    20
100
AcDbCircle
 10
-624.0652295960734
 20
240.9587767371688
 30
0.0
 40
2.0
100
AcDbArc
 50
179.9999999999951
 51
269.9999999999967
  0
LINE
  5
11D6
330
2
100
AcDbEntity
  8
画層1
370
    20
100
AcDbLine
 10
-622.5652295960735
 20
240.9587767371689
 30
0.0
 11
-621.5652295960735
 21
240.9587767371689
 31
0.0
  0
ARC
  5
11D7
330
2
100
AcDbEntity
  8
画層1
370
    20
100
AcDbCircle
 10
-620.0652295960736
 20
240.9587767371689
 30
0.0
 40
2.0
100
AcDbArc
 50
270.0000000000032
 51
0.0000000000016284
  0
LINE
  5
11D8
330
2
100
AcDbEntity
  8
画層1
370
    20
100
AcDbLine
 10
-622.5652295960735
 20
243.4587767371689
 30
0.0
 11
-625.0232694876233
 21
243.4587767371689
 31
0.0
  0
LINE
  5
11D9
330
2
100
AcDbEntity
  8
画層1
370
    20
100
AcDbLine
 10
-625.0232694876233
 20
242.458776737169
 30
0.0
 11
-622.5652295960735
 21
242.458776737169
 31
0.0
  0
LINE
  5
11DA
330
2
100
AcDbEntity
  8
画層1
370
    20
100
AcDbLine
 10
-624.0652295960735
 20
246.9587767371689
 30
0.0
 11
-620.0652295960735
 21
246.9587767371689
 31
0.0
  0
ARC
  5
11DB
330
2
100
AcDbEntity
  8
画層1
370
    20
100
AcDbCircle
 10
-624.0652295960736
 20
244.958776737169
 30
0.0
 40
2.0
100
AcDbArc
 50
89.99999999999674
 51
180.0000000000016
  0
LINE
  5
11DC
330
2
100
AcDbEntity
  8
画層1
370
    20
100
AcDbLine
 10
-622.5652295960735
 20
244.9587767371689
 30
0.0
 11
-622.5652295960735
 21
243.4587767371689
 31
0.0
  0
LINE
  5
11DD
330
2
100
AcDbEntity
  8
画層1
370
    20
100
AcDbLine
 10
-621.5652295960735
 20
242.458776737169
 30
0.0
 11
-619.1071897045238
 21
242.458776737169
 31
0.0
  0
LINE
  5
11DE
330
2
100
AcDbEntity
  8
画層1
370
    20
100
AcDbLine
 10
-619.1071897045238
 20
243.4587767371689
 30
0.0
 11
-621.5652295960735
 21
243.4587767371689
 31
0.0
  0
LINE
  5
11DF
330
2
100
AcDbEntity
  8
画層1
370
    20
100
AcDbLine
 10
-621.5652295960735
 20
243.4587767371689
 30
0.0
 11
-621.5652295960735
 21
244.9587767371689
 31
0.0
  0
LINE
  5
11E0
330
2
100
AcDbEntity
  8
画層1
370
    20
100
AcDbLine
 10
-621.5652295960735
 20
244.9587767371689
 30
0.0
 11
-622.5652295960735
 21
244.9587767371689
 31
0.0
  0
ARC
  5
11E1
330
2
100
AcDbEntity
  8
画層1
370
    20
100
AcDbCircle
 10
-620.0652295960734
 20
244.9587767371691
 30
0.0
 40
2.0
100
AcDbArc
 50
359.9999999999967
 51
90.00000000000325
  0
LINE
  5
11E2
330
2
100
AcDbEntity
  8
画層1
370
    20
100
AcDbLine
 10
-618.0652295960735
 20
234.9587767371691
 30
0.0
 11
-618.0652295960737
 21
230.9587766371689
 31
0.0
  0
LINE
  5
11E3
330
2
100
AcDbEntity
  8
画層1
370
    20
100
AcDbLine
 10
-626.0652295960735
 20
234.958776737169
 30
0.0
 11
-626.0652295960734
 21
230.9587766371689
 31
0.0
  0
CIRCLE
  5
11E4
330
2
100
AcDbEntity
  8
画層1
370
    20
100
AcDbCircle
 10
-622.0652295960735
 20
232.9587767371689
 30
0.0
 40
3.0
  0
LINE
  5
11E5
330
2
100
AcDbEntity
  8
画層1
370
    20
100
AcDbLine
 10
-625.0232694876233
 20
232.4587767371689
 30
0.0
 11
-622.5652295960735
 21
232.4587767371689
 31
0.0
  0
LINE
  5
11E6
330
2
100
AcDbEntity
  8
画層1
370
    20
100
AcDbLine
 10
-624.0652295960735
 20
228.9587767371689
 30
0.0
 11
-620.0652295960735
 21
228.9587767371689
 31
0.0
  0
ARC
  5
11E7
330
2
100
AcDbEntity
  8
画層1
370
    20
100
AcDbCircle
 10
-624.0652295960734
 20
230.9587767371688
 30
0.0
 40
2.0
100
AcDbArc
 50
179.9999999999951
 51
269.9999999999967
  0
LINE
  5
11E8
330
2
100
AcDbEntity
  8
画層1
370
    20
100
AcDbLine
 10
-621.5652295960735
 20
232.4587767371689
 30
0.0
 11
-619.1071897045238
 21
232.4587767371689
 31
0.0
  0
ARC
  5
11E9
330
2
100
AcDbEntity
  8
画層1
370
    20
100
AcDbCircle
 10
-620.0652295960736
 20
230.9587767371689
 30
0.0
 40
2.0
100
AcDbArc
 50
270.0000000000032
 51
0.0000000000016284
  0
LINE
  5
11EA
330
2
100
AcDbEntity
  8
画層1
370
    20
100
AcDbLine
 10
-622.5652295960735
 20
230.9587767371689
 30
0.0
 11
-621.5652295960735
 21
230.9587767371689
 31
0.0
  0
LINE
  5
11EB
330
2
100
AcDbEntity
  8
画層1
370
    20
100
AcDbLine
 10
-621.5652295960735
 20
230.9587767371689
 30
0.0
 11
-621.5652295960735
 21
232.4587767371689
 31
0.0
  0
LINE
  5
11EC
330
2
100
AcDbEntity
  8
画層1
370
    20
100
AcDbLine
 10
-622.5652295960735
 20
232.4587767371689
 30
0.0
 11
-622.5652295960735
 21
230.9587767371689
 31
0.0
  0
LINE
  5
11ED
330
2
100
AcDbEntity
  8
画層1
370
    20
100
AcDbLine
 10
-624.0652295960735
 20
236.9587767371689
 30
0.0
 11
-620.0652295960735
 21
236.9587767371689
 31
0.0
  0
LINE
  5
11EE
330
2
100
AcDbEntity
  8
画層1
370
    20
100
AcDbLine
 10
-622.5652295960735
 20
233.458776737169
 30
0.0
 11
-625.0232694876233
 21
233.458776737169
 31
0.0
  0
ARC
  5
11EF
330
2
100
AcDbEntity
  8
画層1
370
    20
100
AcDbCircle
 10
-624.0652295960736
 20
234.958776737169
 30
0.0
 40
2.0
100
AcDbArc
 50
89.99999999999674
 51
180.0000000000016
  0
ARC
  5
11F0
330
2
100
AcDbEntity
  8
画層1
370
    20
100
AcDbCircle
 10
-620.0652295960734
 20
234.9587767371691
 30
0.0
 40
2.0
100
AcDbArc
 50
359.9999999999967
 51
90.00000000000325
  0
LINE
  5
11F1
330
2
100
AcDbEntity
  8
画層1
370
    20
100
AcDbLine
 10
-621.5652295960735
 20
234.9587767371689
 30
0.0
 11
-622.5652295960735
 21
234.9587767371689
 31
0.0
  0
LINE
  5
11F2
330
2
100
AcDbEntity
  8
画層1
370
    20
100
AcDbLine
 10
-621.5652295960735
 20
233.458776737169
 30
0.0
 11
-621.5652295960735
 21
234.9587767371689
 31
0.0
  0
LINE
  5
11F3
330
2
100
AcDbEntity
  8
画層1
370
    20
100
AcDbLine
 10
-619.1071897045238
 20
233.458776737169
 30
0.0
 11
-621.5652295960735
 21
233.458776737169
 31
0.0
  0
LINE
  5
11F4
330
2
100
AcDbEntity
  8
画層1
370
    20
100
AcDbLine
 10
-622.5652295960735
 20
234.9587767371689
 30
0.0
 11
-622.5652295960735
 21
233.458776737169
 31
0.0
  0
LINE
  5
11F5
330
2
100
AcDbEntity
  8
画層1
370
    20
100
AcDbLine
 10
-622.5652295960735
 20
224.9587767371689
 30
0.0
 11
-622.5652295960735
 21
223.458776737169
 31
0.0
  0
LINE
  5
11F6
330
2
100
AcDbEntity
  8
画層1
370
    20
100
AcDbLine
 10
-621.5652295960735
 20
223.458776737169
 30
0.0
 11
-621.5652295960735
 21
224.9587767371689
 31
0.0
  0
CIRCLE
  5
11F7
330
2
100
AcDbEntity
  8
画層1
370
    20
100
AcDbCircle
 10
-622.0652295960735
 20
222.9587767371689
 30
0.0
 40
3.0
  0
LINE
  5
11F8
330
2
100
AcDbEntity
  8
画層1
370
    20
100
AcDbLine
 10
-626.0652295960735
 20
224.958776737169
 30
0.0
 11
-626.0652295960734
 21
220.9587766371689
 31
0.0
  0
LINE
  5
11F9
330
2
100
AcDbEntity
  8
画層1
370
    20
100
AcDbLine
 10
-618.0652295960735
 20
224.9587767371691
 30
0.0
 11
-618.0652295960737
 21
220.9587766371689
 31
0.0
  0
LINE
  5
11FA
330
2
100
AcDbEntity
  8
画層1
370
    20
100
AcDbLine
 10
-622.5652295960735
 20
223.458776737169
 30
0.0
 11
-625.0232694876233
 21
223.458776737169
 31
0.0
  0
LINE
  5
11FB
330
2
100
AcDbEntity
  8
画層1
370
    20
100
AcDbLine
 10
-624.0652295960735
 20
218.958776737169
 30
0.0
 11
-620.0652295960735
 21
218.958776737169
 31
0.0
  0
LINE
  5
11FC
330
2
100
AcDbEntity
  8
画層1
370
    20
100
AcDbLine
 10
-625.0232694876233
 20
222.4587767371689
 30
0.0
 11
-622.5652295960735
 21
222.4587767371689
 31
0.0
  0
ARC
  5
11FD
330
2
100
AcDbEntity
  8
画層1
370
    20
100
AcDbCircle
 10
-624.0652295960734
 20
220.9587767371688
 30
0.0
 40
2.0
100
AcDbArc
 50
179.9999999999951
 51
269.9999999999967
  0
LINE
  5
11FE
330
2
100
AcDbEntity
  8
画層1
370
    20
100
AcDbLine
 10
-619.1071897045238
 20
223.458776737169
 30
0.0
 11
-621.5652295960735
 21
223.458776737169
 31
0.0
  0
LINE
  5
11FF
330
2
100
AcDbEntity
  8
画層1
370
    20
100
AcDbLine
 10
-622.5652295960735
 20
222.4587767371689
 30
0.0
 11
-622.5652295960735
 21
220.958776737169
 31
0.0
  0
LINE
  5
1200
330
2
100
AcDbEntity
  8
画層1
370
    20
100
AcDbLine
 10
-621.5652295960735
 20
220.958776737169
 30
0.0
 11
-621.5652295960735
 21
222.4587767371689
 31
0.0
  0
LINE
  5
1201
330
2
100
AcDbEntity
  8
画層1
370
    20
100
AcDbLine
 10
-622.5652295960735
 20
220.958776737169
 30
0.0
 11
-621.5652295960735
 21
220.958776737169
 31
0.0
  0
ARC
  5
1202
330
2
100
AcDbEntity
  8
画層1
370
    20
100
AcDbCircle
 10
-620.0652295960736
 20
220.9587767371689
 30
0.0
 40
2.0
100
AcDbArc
 50
270.0000000000032
 51
0.0000000000016284
  0
LINE
  5
1203
330
2
100
AcDbEntity
  8
画層1
370
    20
100
AcDbLine
 10
-621.5652295960735
 20
222.4587767371689
 30
0.0
 11
-619.1071897045238
 21
222.4587767371689
 31
0.0
  0
LINE
  5
1204
330
2
100
AcDbEntity
  8
画層1
370
    20
100
AcDbLine
 10
-624.0652295960735
 20
226.9587767371689
 30
0.0
 11
-620.0652295960735
 21
226.9587767371689
 31
0.0
  0
ARC
  5
1205
330
2
100
AcDbEntity
  8
画層1
370
    20
100
AcDbCircle
 10
-624.0652295960736
 20
224.958776737169
 30
0.0
 40
2.0
100
AcDbArc
 50
89.99999999999674
 51
180.0000000000016
  0
LINE
  5
1206
330
2
100
AcDbEntity
  8
画層1
370
    20
100
AcDbLine
 10
-621.5652295960735
 20
224.9587767371689
 30
0.0
 11
-622.5652295960735
 21
224.9587767371689
 31
0.0
  0
ARC
  5
1207
330
2
100
AcDbEntity
  8
画層1
370
    20
100
AcDbCircle
 10
-620.0652295960734
 20
224.9587767371691
 30
0.0
 40
2.0
100
AcDbArc
 50
359.9999999999967
 51
90.00000000000325
  0
LINE
  5
1208
330
2
100
AcDbEntity
  8
画層1
370
    20
100
AcDbLine
 10
-618.0652295960735
 20
214.958776737169
 30
0.0
 11
-618.0652295960737
 21
210.9587766371689
 31
0.0
  0
LINE
  5
1209
330
2
100
AcDbEntity
  8
画層1
370
    20
100
AcDbLine
 10
-626.0652295960735
 20
214.958776737169
 30
0.0
 11
-626.0652295960734
 21
210.9587766371689
 31
0.0
  0
CIRCLE
  5
120A
330
2
100
AcDbEntity
  8
画層1
370
    20
100
AcDbCircle
 10
-622.0652295960735
 20
212.958776737169
 30
0.0
 40
3.0
  0
LINE
  5
120B
330
2
100
AcDbEntity
  8
画層1
370
    20
100
AcDbLine
 10
-621.5652295960735
 20
213.4587767371689
 30
0.0
 11
-621.5652295960735
 21
214.958776737169
 31
0.0
  0
LINE
  5
120C
330
2
100
AcDbEntity
  8
画層1
370
    20
100
AcDbLine
 10
-622.5652295960735
 20
214.958776737169
 30
0.0
 11
-622.5652295960735
 21
213.4587767371689
 31
0.0
  0
LINE
  5
120D
330
2
100
AcDbEntity
  8
画層1
370
    20
100
AcDbLine
 10
-625.0232694876233
 20
212.4587767371689
 30
0.0
 11
-622.5652295960735
 21
212.4587767371689
 31
0.0
  0
LINE
  5
120E
330
2
100
AcDbEntity
  8
画層1
370
    20
100
AcDbLine
 10
-624.0652295960735
 20
208.958776737169
 30
0.0
 11
-620.0652295960735
 21
208.958776737169
 31
0.0
  0
LINE
  5
120F
330
2
100
AcDbEntity
  8
画層1
370
    20
100
AcDbLine
 10
-622.5652295960735
 20
213.4587767371689
 30
0.0
 11
-625.0232694876233
 21
213.4587767371689
 31
0.0
  0
ARC
  5
1210
330
2
100
AcDbEntity
  8
画層1
370
    20
100
AcDbCircle
 10
-624.0652295960734
 20
210.9587767371688
 30
0.0
 40
2.0
100
AcDbArc
 50
179.9999999999951
 51
269.9999999999967
  0
LINE
  5
1211
330
2
100
AcDbEntity
  8
画層1
370
    20
100
AcDbLine
 10
-621.5652295960735
 20
212.4587767371689
 30
0.0
 11
-619.1071897045238
 21
212.4587767371689
 31
0.0
  0
ARC
  5
1212
330
2
100
AcDbEntity
  8
画層1
370
    20
100
AcDbCircle
 10
-620.0652295960736
 20
210.9587767371689
 30
0.0
 40
2.0
100
AcDbArc
 50
270.0000000000032
 51
0.0000000000016284
  0
LINE
  5
1213
330
2
100
AcDbEntity
  8
画層1
370
    20
100
AcDbLine
 10
-622.5652295960735
 20
210.958776737169
 30
0.0
 11
-621.5652295960735
 21
210.958776737169
 31
0.0
  0
LINE
  5
1214
330
2
100
AcDbEntity
  8
画層1
370
    20
100
AcDbLine
 10
-621.5652295960735
 20
210.958776737169
 30
0.0
 11
-621.5652295960735
 21
212.4587767371689
 31
0.0
  0
LINE
  5
1215
330
2
100
AcDbEntity
  8
画層1
370
    20
100
AcDbLine
 10
-622.5652295960735
 20
212.4587767371689
 30
0.0
 11
-622.5652295960735
 21
210.958776737169
 31
0.0
  0
LINE
  5
1216
330
2
100
AcDbEntity
  8
画層1
370
    20
100
AcDbLine
 10
-619.1071897045238
 20
213.4587767371689
 30
0.0
 11
-621.5652295960735
 21
213.4587767371689
 31
0.0
  0
LINE
  5
1217
330
2
100
AcDbEntity
  8
画層1
370
    20
100
AcDbLine
 10
-624.0652295960735
 20
216.958776737169
 30
0.0
 11
-620.0652295960735
 21
216.958776737169
 31
0.0
  0
ARC
  5
1218
330
2
100
AcDbEntity
  8
画層1
370
    20
100
AcDbCircle
 10
-624.0652295960736
 20
214.958776737169
 30
0.0
 40
2.0
100
AcDbArc
 50
89.99999999999674
 51
180.0000000000016
  0
ARC
  5
1219
330
2
100
AcDbEntity
  8
画層1
370
    20
100
AcDbCircle
 10
-620.0652295960734
 20
214.958776737169
 30
0.0
 40
2.0
100
AcDbArc
 50
359.9999999999967
 51
90.00000000000325
  0
LINE
  5
121A
330
2
100
AcDbEntity
  8
画層1
370
    20
100
AcDbLine
 10
-621.5652295960735
 20
214.958776737169
 30
0.0
 11
-622.5652295960735
 21
214.958776737169
 31
0.0
  0
ARC
  5
121B
330
2
100
AcDbEntity
  8
画層1
370
    20
100
AcDbCircle
 10
-620.0652295960734
 20
204.958776737169
 30
0.0
 40
2.0
100
AcDbArc
 50
359.9999999999967
 51
90.00000000000325
  0
ARC
  5
121C
330
2
100
AcDbEntity
  8
画層1
370
    20
100
AcDbCircle
 10
-624.0652295960736
 20
204.958776737169
 30
0.0
 40
2.0
100
AcDbArc
 50
89.99999999999674
 51
180.0000000000016
  0
CIRCLE
  5
121D
330
2
100
AcDbEntity
  8
画層1
370
    20
100
AcDbCircle
 10
-622.0652295960735
 20
202.9587767371689
 30
0.0
 40
3.0
  0
LINE
  5
121E
330
2
100
AcDbEntity
  8
画層1
370
    20
100
AcDbLine
 10
-622.5652295960735
 20
203.4587767371689
 30
0.0
 11
-625.0232694876233
 21
203.4587767371689
 31
0.0
  0
LINE
  5
121F
330
2
100
AcDbEntity
  8
画層1
370
    20
100
AcDbLine
 10
-624.0652295960735
 20
198.9587767371689
 30
0.0
 11
-620.0652295960735
 21
198.9587767371689
 31
0.0
  0
LINE
  5
1220
330
2
100
AcDbEntity
  8
画層1
370
    20
100
AcDbLine
 10
-625.0232694876233
 20
202.458776737169
 30
0.0
 11
-622.5652295960735
 21
202.458776737169
 31
0.0
  0
ARC
  5
1221
330
2
100
AcDbEntity
  8
画層1
370
    20
100
AcDbCircle
 10
-624.0652295960734
 20
200.9587767371688
 30
0.0
 40
2.0
100
AcDbArc
 50
179.9999999999951
 51
269.9999999999967
  0
LINE
  5
1222
330
2
100
AcDbEntity
  8
画層1
370
    20
100
AcDbLine
 10
-626.0652295960735
 20
204.958776737169
 30
0.0
 11
-626.0652295960734
 21
200.9587766371689
 31
0.0
  0
LINE
  5
1223
330
2
100
AcDbEntity
  8
画層1
370
    20
100
AcDbLine
 10
-621.5652295960735
 20
204.958776737169
 30
0.0
 11
-622.5652295960735
 21
204.958776737169
 31
0.0
  0
LINE
  5
1224
330
2
100
AcDbEntity
  8
画層1
370
    20
100
AcDbLine
 10
-619.1071897045238
 20
203.4587767371689
 30
0.0
 11
-621.5652295960735
 21
203.4587767371689
 31
0.0
  0
LINE
  5
1225
330
2
100
AcDbEntity
  8
画層1
370
    20
100
AcDbLine
 10
-622.5652295960735
 20
202.458776737169
 30
0.0
 11
-622.5652295960735
 21
200.9587767371689
 31
0.0
  0
LINE
  5
1226
330
2
100
AcDbEntity
  8
画層1
370
    20
100
AcDbLine
 10
-621.5652295960735
 20
200.9587767371689
 30
0.0
 11
-621.5652295960735
 21
202.458776737169
 31
0.0
  0
LINE
  5
1227
330
2
100
AcDbEntity
  8
画層1
370
    20
100
AcDbLine
 10
-622.5652295960735
 20
200.9587767371689
 30
0.0
 11
-621.5652295960735
 21
200.9587767371689
 31
0.0
  0
ARC
  5
1228
330
2
100
AcDbEntity
  8
画層1
370
    20
100
AcDbCircle
 10
-620.0652295960736
 20
200.9587767371689
 30
0.0
 40
2.0
100
AcDbArc
 50
270.0000000000032
 51
0.0000000000016284
  0
LINE
  5
1229
330
2
100
AcDbEntity
  8
画層1
370
    20
100
AcDbLine
 10
-621.5652295960735
 20
202.458776737169
 30
0.0
 11
-619.1071897045238
 21
202.458776737169
 31
0.0
  0
LINE
  5
122A
330
2
100
AcDbEntity
  8
画層1
370
    20
100
AcDbLine
 10
-622.5652295960735
 20
204.958776737169
 30
0.0
 11
-622.5652295960735
 21
203.4587767371689
 31
0.0
  0
LINE
  5
122B
330
2
100
AcDbEntity
  8
画層1
370
    20
100
AcDbLine
 10
-621.5652295960735
 20
203.4587767371689
 30
0.0
 11
-621.5652295960735
 21
204.958776737169
 31
0.0
  0
LINE
  5
122C
330
2
100
AcDbEntity
  8
画層1
370
    20
100
AcDbLine
 10
-618.0652295960735
 20
204.958776737169
 30
0.0
 11
-618.0652295960737
 21
200.9587766371689
 31
0.0
  0
LINE
  5
122D
330
2
100
AcDbEntity
  8
画層1
370
    20
100
AcDbLine
 10
-624.0652295960735
 20
206.958776737169
 30
0.0
 11
-620.0652295960735
 21
206.958776737169
 31
0.0
  0
ARC
  5
122E
330
2
100
AcDbEntity
  8
画層1
370
    20
100
AcDbCircle
 10
-624.0652295960736
 20
194.958776737169
 30
0.0
 40
2.0
100
AcDbArc
 50
89.99999999999674
 51
180.0000000000016
  0
ARC
  5
122F
330
2
100
AcDbEntity
  8
画層1
370
    20
100
AcDbCircle
 10
-620.0652295960734
 20
194.958776737169
 30
0.0
 40
2.0
100
AcDbArc
 50
359.9999999999967
 51
90.00000000000325
  0
LINE
  5
1230
330
2
100
AcDbEntity
  8
画層1
370
    20
100
AcDbLine
 10
-625.0232694876233
 20
192.458776737169
 30
0.0
 11
-622.5652295960735
 21
192.458776737169
 31
0.0
  0
LINE
  5
1231
330
2
100
AcDbEntity
  8
画層1
370
    20
100
AcDbLine
 10
-624.0652295960735
 20
188.9587767371689
 30
0.0
 11
-620.0652295960735
 21
188.9587767371689
 31
0.0
  0
LINE
  5
1232
330
2
100
AcDbEntity
  8
画層1
370
    20
100
AcDbLine
 10
-622.5652295960735
 20
193.458776737169
 30
0.0
 11
-625.0232694876233
 21
193.458776737169
 31
0.0
  0
CIRCLE
  5
1233
330
2
100
AcDbEntity
  8
画層1
370
    20
100
AcDbCircle
 10
-622.0652295960735
 20
192.9587767371689
 30
0.0
 40
3.0
  0
LINE
  5
1234
330
2
100
AcDbEntity
  8
画層1
370
    20
100
AcDbLine
 10
-626.0652295960735
 20
194.958776737169
 30
0.0
 11
-626.0652295960734
 21
190.9587766371689
 31
0.0
  0
ARC
  5
1235
330
2
100
AcDbEntity
  8
画層1
370
    20
100
AcDbCircle
 10
-624.0652295960734
 20
190.9587767371688
 30
0.0
 40
2.0
100
AcDbArc
 50
179.9999999999951
 51
269.9999999999967
  0
LINE
  5
1236
330
2
100
AcDbEntity
  8
画層1
370
    20
100
AcDbLine
 10
-618.0652295960735
 20
194.958776737169
 30
0.0
 11
-618.0652295960737
 21
190.9587766371689
 31
0.0
  0
LINE
  5
1237
330
2
100
AcDbEntity
  8
画層1
370
    20
100
AcDbLine
 10
-621.5652295960735
 20
193.458776737169
 30
0.0
 11
-621.5652295960735
 21
194.9587767371689
 31
0.0
  0
LINE
  5
1238
330
2
100
AcDbEntity
  8
画層1
370
    20
100
AcDbLine
 10
-622.5652295960735
 20
194.9587767371689
 30
0.0
 11
-622.5652295960735
 21
193.458776737169
 31
0.0
  0
LINE
  5
1239
330
2
100
AcDbEntity
  8
画層1
370
    20
100
AcDbLine
 10
-621.5652295960735
 20
192.458776737169
 30
0.0
 11
-619.1071897045238
 21
192.458776737169
 31
0.0
  0
ARC
  5
123A
330
2
100
AcDbEntity
  8
画層1
370
    20
100
AcDbCircle
 10
-620.0652295960736
 20
190.9587767371689
 30
0.0
 40
2.0
100
AcDbArc
 50
270.0000000000032
 51
0.0000000000016284
  0
LINE
  5
123B
330
2
100
AcDbEntity
  8
画層1
370
    20
100
AcDbLine
 10
-622.5652295960735
 20
190.9587767371689
 30
0.0
 11
-621.5652295960735
 21
190.9587767371689
 31
0.0
  0
LINE
  5
123C
330
2
100
AcDbEntity
  8
画層1
370
    20
100
AcDbLine
 10
-621.5652295960735
 20
190.9587767371689
 30
0.0
 11
-621.5652295960735
 21
192.458776737169
 31
0.0
  0
LINE
  5
123D
330
2
100
AcDbEntity
  8
画層1
370
    20
100
AcDbLine
 10
-622.5652295960735
 20
192.458776737169
 30
0.0
 11
-622.5652295960735
 21
190.9587767371689
 31
0.0
  0
LINE
  5
123E
330
2
100
AcDbEntity
  8
画層1
370
    20
100
AcDbLine
 10
-619.1071897045238
 20
193.458776737169
 30
0.0
 11
-621.5652295960735
 21
193.458776737169
 31
0.0
  0
LINE
  5
123F
330
2
100
AcDbEntity
  8
画層1
370
    20
100
AcDbLine
 10
-621.5652295960735
 20
194.9587767371689
 30
0.0
 11
-622.5652295960735
 21
194.9587767371689
 31
0.0
  0
LINE
  5
1240
330
2
100
AcDbEntity
  8
画層1
370
    20
100
AcDbLine
 10
-624.0652295960735
 20
196.958776737169
 30
0.0
 11
-620.0652295960735
 21
196.958776737169
 31
0.0
  0
ARC
  5
1241
330
2
100
AcDbEntity
  8
画層1
370
    20
100
AcDbCircle
 10
-620.0652295960734
 20
184.9587767371691
 30
0.0
 40
2.0
100
AcDbArc
 50
359.9999999999967
 51
90.00000000000325
  0
ARC
  5
1242
330
2
100
AcDbEntity
  8
画層1
370
    20
100
AcDbCircle
 10
-624.0652295960736
 20
184.958776737169
 30
0.0
 40
2.0
100
AcDbArc
 50
89.99999999999674
 51
180.0000000000016
  0
LINE
  5
1243
330
2
100
AcDbEntity
  8
画層1
370
    20
100
AcDbLine
 10
-624.0652295960735
 20
186.9587767371689
 30
0.0
 11
-620.0652295960735
 21
186.9587767371689
 31
0.0
  0
CIRCLE
  5
1244
330
2
100
AcDbEntity
  8
画層1
370
    20
100
AcDbCircle
 10
-622.0652295960735
 20
182.9587767371689
 30
0.0
 40
3.0
  0
LINE
  5
1245
330
2
100
AcDbEntity
  8
画層1
370
    20
100
AcDbLine
 10
-622.5652295960735
 20
183.4587767371689
 30
0.0
 11
-625.0232694876233
 21
183.4587767371689
 31
0.0
  0
LINE
  5
1246
330
2
100
AcDbEntity
  8
画層1
370
    20
100
AcDbLine
 10
-624.0652295960735
 20
178.9587767371689
 30
0.0
 11
-620.0652295960735
 21
178.9587767371689
 31
0.0
  0
LINE
  5
1247
330
2
100
AcDbEntity
  8
画層1
370
    20
100
AcDbLine
 10
-625.0232694876233
 20
182.4587767371689
 30
0.0
 11
-622.5652295960735
 21
182.4587767371689
 31
0.0
  0
ARC
  5
1248
330
2
100
AcDbEntity
  8
画層1
370
    20
100
AcDbCircle
 10
-624.0652295960734
 20
180.9587767371688
 30
0.0
 40
2.0
100
AcDbArc
 50
179.9999999999951
 51
269.9999999999967
  0
LINE
  5
1249
330
2
100
AcDbEntity
  8
画層1
370
    20
100
AcDbLine
 10
-626.0652295960735
 20
184.958776737169
 30
0.0
 11
-626.0652295960734
 21
180.9587766371689
 31
0.0
  0
LINE
  5
124A
330
2
100
AcDbEntity
  8
画層1
370
    20
100
AcDbLine
 10
-621.5652295960735
 20
184.9587767371689
 30
0.0
 11
-622.5652295960735
 21
184.9587767371689
 31
0.0
  0
LINE
  5
124B
330
2
100
AcDbEntity
  8
画層1
370
    20
100
AcDbLine
 10
-619.1071897045238
 20
183.4587767371689
 30
0.0
 11
-621.5652295960735
 21
183.4587767371689
 31
0.0
  0
LINE
  5
124C
330
2
100
AcDbEntity
  8
画層1
370
    20
100
AcDbLine
 10
-622.5652295960735
 20
182.4587767371689
 30
0.0
 11
-622.5652295960735
 21
180.958776737169
 31
0.0
  0
LINE
  5
124D
330
2
100
AcDbEntity
  8
画層1
370
    20
100
AcDbLine
 10
-621.5652295960735
 20
180.958776737169
 30
0.0
 11
-621.5652295960735
 21
182.4587767371689
 31
0.0
  0
LINE
  5
124E
330
2
100
AcDbEntity
  8
画層1
370
    20
100
AcDbLine
 10
-622.5652295960735
 20
180.958776737169
 30
0.0
 11
-621.5652295960735
 21
180.958776737169
 31
0.0
  0
ARC
  5
124F
330
2
100
AcDbEntity
  8
画層1
370
    20
100
AcDbCircle
 10
-620.0652295960736
 20
180.9587767371689
 30
0.0
 40
2.0
100
AcDbArc
 50
270.0000000000032
 51
0.0000000000016284
  0
LINE
  5
1250
330
2
100
AcDbEntity
  8
画層1
370
    20
100
AcDbLine
 10
-621.5652295960735
 20
182.4587767371689
 30
0.0
 11
-619.1071897045238
 21
182.4587767371689
 31
0.0
  0
LINE
  5
1251
330
2
100
AcDbEntity
  8
画層1
370
    20
100
AcDbLine
 10
-622.5652295960735
 20
184.9587767371689
 30
0.0
 11
-622.5652295960735
 21
183.4587767371689
 31
0.0
  0
LINE
  5
1252
330
2
100
AcDbEntity
  8
画層1
370
    20
100
AcDbLine
 10
-621.5652295960735
 20
183.4587767371689
 30
0.0
 11
-621.5652295960735
 21
184.9587767371689
 31
0.0
  0
LINE
  5
1253
330
2
100
AcDbEntity
  8
画層1
370
    20
100
AcDbLine
 10
-618.0652295960735
 20
184.9587767371691
 30
0.0
 11
-618.0652295960737
 21
180.9587766371689
 31
0.0
  0
CIRCLE
  5
1256
330
2
100
AcDbEntity
  8
画層1
370
    20
100
AcDbCircle
 10
-619.0652295960735
 20
275.708776737169
 30
0.0
 40
2.75
  0
CIRCLE
  5
1258
330
2
100
AcDbEntity
  8
画層1
370
    20
100
AcDbCircle
 10
-619.0652295960735
 20
275.708776737169
 30
0.0
 40
1.0
  0
LINE
  5
1259
330
2
100
AcDbEntity
  8
画層1
370
    20
100
AcDbLine
 10
-619.6401891706496
 20
274.8905949189871
 30
0.0
 11
-619.6401891706496
 21
274.8905949189871
 31
0.0
  0
LINE
  5
125A
330
2
100
AcDbEntity
  8
画層1
370
    20
100
AcDbLine
 10
-619.6401891706496
 20
274.8905949189871
 30
0.0
 11
-619.6401891706496
 21
274.8905949189871
 31
0.0
  0
LINE
  5
125B
330
2
100
AcDbEntity
  8
画層1
370
    20
100
AcDbLine
 10
-619.6401891706496
 20
274.8905949189871
 30
0.0
 11
-619.6401891706496
 21
274.8905949189871
 31
0.0
  0
LINE
  5
125D
330
2
100
AcDbEntity
  8
画層1
370
    20
100
AcDbLine
 10
-619.6401891706496
 20
274.8905949189871
 30
0.0
 11
-620.3588886388697
 21
273.8678676462599
 31
0.0
  0
LINE
  5
125E
330
2
100
AcDbEntity
  8
画層1
370
    20
100
AcDbLine
 10
-618.4902700214975
 20
274.8905949189871
 30
0.0
 11
-617.7715705532773
 21
273.8678676462599
 31
0.0
  0
ARC
  5
125F
330
2
100
AcDbEntity
  8
画層1
370
    20
100
AcDbCircle
 10
-619.0652295960735
 20
275.708776737169
 30
0.0
 40
2.250000000000008
100
AcDbArc
 50
305.096801227586
 51
234.9031987724139
  0
LINE
  5
1262
330
2
100
AcDbEntity
  8
画層1
370
    20
100
AcDbLine
 10
-618.4902700214975
 20
287.8905949189871
 30
0.0
 11
-617.7715705532773
 21
286.8678676462599
 31
0.0
  0
LINE
  5
1263
330
2
100
AcDbEntity
  8
画層1
370
    20
100
AcDbLine
 10
-619.6401891706496
 20
287.8905949189871
 30
0.0
 11
-620.3588886388697
 21
286.8678676462599
 31
0.0
  0
ARC
  5
1264
330
2
100
AcDbEntity
  8
画層1
370
    20
100
AcDbCircle
 10
-619.0652295960735
 20
288.7087767371689
 30
0.0
 40
2.250000000000008
100
AcDbArc
 50
305.096801227586
 51
234.9031987724139
  0
CIRCLE
  5
1265
330
2
100
AcDbEntity
  8
画層1
370
    20
100
AcDbCircle
 10
-619.0652295960735
 20
288.7087767371689
 30
0.0
 40
2.75
  0
LINE
  5
1266
330
2
100
AcDbEntity
  8
画層1
370
    20
100
AcDbLine
 10
-619.6401891706496
 20
287.8905949189871
 30
0.0
 11
-619.6401891706496
 21
287.8905949189871
 31
0.0
  0
LINE
  5
1267
330
2
100
AcDbEntity
  8
画層1
370
    20
100
AcDbLine
 10
-619.6401891706496
 20
287.8905949189871
 30
0.0
 11
-619.6401891706496
 21
287.8905949189871
 31
0.0
  0
LINE
  5
1268
330
2
100
AcDbEntity
  8
画層1
370
    20
100
AcDbLine
 10
-619.6401891706496
 20
287.8905949189871
 30
0.0
 11
-619.6401891706496
 21
287.8905949189871
 31
0.0
  0
CIRCLE
  5
1269
330
2
100
AcDbEntity
  8
画層1
370
    20
100
AcDbCircle
 10
-619.0652295960735
 20
288.7087767371689
 30
0.0
 40
1.0
  0
LINE
  5
126B
330
2
100
AcDbEntity
  8
画層1
370
    20
100
AcDbLine
 10
-618.1013565359296
 20
275.4424147204907
 30
0.0
 11
-616.8965152107498
 21
275.109462199643
 31
0.0
  0
LINE
  5
126C
330
2
100
AcDbEntity
  8
画層1
370
    20
100
AcDbLine
 10
-618.1013565359296
 20
288.4424147204907
 30
0.0
 11
-616.8965152107498
 21
288.109462199643
 31
0.0
  0
CIRCLE
  5
1272
330
2
100
AcDbEntity
  8
画層1
370
    20
100
AcDbCircle
 10
-619.0652295960735
 20
298.9587767371689
 30
0.0
 40
1.5
  0
LINE
  5
1274
330
2
100
AcDbEntity
  8
画層1
370
    20
100
AcDbLine
 10
-627.5652295960735
 20
266.958776737169
 30
0.0
 11
-627.5652295960735
 21
258.958776737169
 31
0.0
  0
LINE
  5
1275
330
2
100
AcDbEntity
  8
画層1
370
    20
100
AcDbLine
 10
-628.5652295960735
 20
256.958776737169
 30
0.0
 11
-628.5652295960735
 21
248.9587767371689
 31
0.0
  0
LINE
  5
1277
330
2
100
AcDbEntity
  8
画層1
370
    20
100
AcDbLine
 10
-616.5652295960735
 20
266.958776737169
 30
0.0
 11
-616.5652295960735
 21
258.958776737169
 31
0.0
  0
LINE
  5
1278
330
2
100
AcDbEntity
  8
画層1
370
    20
100
AcDbLine
 10
-616.5652295960735
 20
256.958776737169
 30
0.0
 11
-616.5652295960735
 21
248.9587767371689
 31
0.0
  0
LINE
  5
1279
330
2
100
AcDbEntity
  8
画層1
370
    20
100
AcDbLine
 10
-627.5652295960735
 20
256.958776737169
 30
0.0
 11
-627.5652295960735
 21
248.9587767371689
 31
0.0
  0
LINE
  5
127A
330
2
100
AcDbEntity
  8
画層1
370
    20
100
AcDbLine
 10
-627.5652295960735
 20
246.9587767371689
 30
0.0
 11
-627.5652295960735
 21
238.9587767371689
 31
0.0
  0
LINE
  5
127B
330
2
100
AcDbEntity
  8
画層1
370
    20
100
AcDbLine
 10
-616.5652295960735
 20
246.9587767371689
 30
0.0
 11
-616.5652295960735
 21
238.9587767371689
 31
0.0
  0
LINE
  5
127C
330
2
100
AcDbEntity
  8
画層1
370
    20
100
AcDbLine
 10
-616.5652295960735
 20
236.9587767371689
 30
0.0
 11
-616.5652295960735
 21
228.9587767371689
 31
0.0
  0
LINE
  5
127D
330
2
100
AcDbEntity
  8
画層1
370
    20
100
AcDbLine
 10
-627.5652295960735
 20
236.9587767371689
 30
0.0
 11
-627.5652295960735
 21
228.9587767371689
 31
0.0
  0
LINE
  5
127E
330
2
100
AcDbEntity
  8
画層1
370
    20
100
AcDbLine
 10
-616.5652295960735
 20
226.9587767371689
 30
0.0
 11
-616.5652295960735
 21
218.958776737169
 31
0.0
  0
LINE
  5
127F
330
2
100
AcDbEntity
  8
画層1
370
    20
100
AcDbLine
 10
-627.5652295960735
 20
226.9587767371689
 30
0.0
 11
-627.5652295960735
 21
218.958776737169
 31
0.0
  0
LINE
  5
1280
330
2
100
AcDbEntity
  8
画層1
370
    20
100
AcDbLine
 10
-616.5652295960735
 20
216.958776737169
 30
0.0
 11
-616.5652295960735
 21
208.958776737169
 31
0.0
  0
LINE
  5
1281
330
2
100
AcDbEntity
  8
画層1
370
    20
100
AcDbLine
 10
-627.5652295960735
 20
216.958776737169
 30
0.0
 11
-627.5652295960735
 21
208.958776737169
 31
0.0
  0
LINE
  5
1282
330
2
100
AcDbEntity
  8
画層1
370
    20
100
AcDbLine
 10
-616.5652295960735
 20
206.958776737169
 30
0.0
 11
-616.5652295960735
 21
198.9587767371689
 31
0.0
  0
LINE
  5
1283
330
2
100
AcDbEntity
  8
画層1
370
    20
100
AcDbLine
 10
-627.5652295960735
 20
206.958776737169
 30
0.0
 11
-627.5652295960735
 21
198.9587767371689
 31
0.0
  0
LINE
  5
1284
330
2
100
AcDbEntity
  8
画層1
370
    20
100
AcDbLine
 10
-616.5652295960735
 20
196.958776737169
 30
0.0
 11
-616.5652295960735
 21
188.9587767371689
 31
0.0
  0
LINE
  5
1285
330
2
100
AcDbEntity
  8
画層1
370
    20
100
AcDbLine
 10
-627.5652295960735
 20
196.958776737169
 30
0.0
 11
-627.5652295960735
 21
188.9587767371689
 31
0.0
  0
LINE
  5
1286
330
2
100
AcDbEntity
  8
画層1
370
    20
100
AcDbLine
 10
-616.5652295960735
 20
186.9587767371689
 30
0.0
 11
-616.5652295960735
 21
178.9587767371689
 31
0.0
  0
LINE
  5
1287
330
2
100
AcDbEntity
  8
画層1
370
    20
100
AcDbLine
 10
-627.5652295960735
 20
186.9587767371689
 30
0.0
 11
-627.5652295960735
 21
178.9587767371689
 31
0.0
  0
LINE
  5
12F6
330
2
100
AcDbEntity
  8
画層1
370
    20
100
AcDbLine
 10
-601.5652295960735
 20
321.458776737169
 30
0.0
 11
-527.5652295960735
 21
321.458776737169
 31
0.0
  0
LINE
  5
12F9
330
2
100
AcDbEntity
  8
画層1
370
    20
100
AcDbLine
 10
-525.5652295960735
 20
319.458776737169
 30
0.0
 11
-525.5652295960735
 21
204.458776737169
 31
0.0
  0
LINE
  5
12FA
330
2
100
AcDbEntity
  8
画層1
370
    20
100
AcDbLine
 10
-603.5652295960735
 20
319.458776737169
 30
0.0
 11
-603.5652295960735
 21
204.458776737169
 31
0.0
  0
LINE
  5
12FB
330
2
100
AcDbEntity
  8
画層1
370
    20
100
AcDbLine
 10
-601.5652295960735
 20
202.458776737169
 30
0.0
 11
-527.5652295960735
 21
202.458776737169
 31
0.0
  0
ARC
  5
12FD
330
2
100
AcDbEntity
  8
画層1
370
    20
100
AcDbCircle
 10
-601.5652295960737
 20
319.458776737169
 30
0.0
 40
2.0
100
AcDbArc
 50
89.99999999999674
 51
180.0000000000016
  0
ARC
  5
12FE
330
2
100
AcDbEntity
  8
画層1
370
    20
100
AcDbCircle
 10
-527.5652295960734
 20
319.458776737169
 30
0.0
 40
2.0
100
AcDbArc
 50
359.9999999999967
 51
90.00000000000325
  0
ARC
  5
12FF
330
2
100
AcDbEntity
  8
画層1
370
    20
100
AcDbCircle
 10
-601.5652295960735
 20
204.4587767371689
 30
0.0
 40
2.0
100
AcDbArc
 50
179.9999999999975
 51
270.0
  0
ARC
  5
1300
330
2
100
AcDbEntity
  8
画層1
370
    20
100
AcDbCircle
 10
-527.5652295960735
 20
204.4587767371689
 30
0.0
 40
2.0
100
AcDbArc
 50
270.0
 51
0.0000000000008142
  0
CIRCLE
  5
13EC
330
2
100
AcDbEntity
  8
画層1
370
    20
100
AcDbCircle
 10
-357.590401178997
 20
313.9587767371689
 30
0.0
 40
4.0
  0
CIRCLE
  5
13ED
330
2
100
AcDbEntity
  8
画層1
370
    20
100
AcDbCircle
 10
-357.590401178997
 20
313.9587767371689
 30
0.0
 40
3.0
  0
LINE
  5
13F6
330
2
100
AcDbEntity
  8
画層1
370
    20
100
AcDbLine
 10
-359.590401178997
 20
313.4587767371689
 30
0.0
 11
-359.090401178997
 21
313.4587767371689
 31
0.0
  0
LINE
  5
13F7
330
2
100
AcDbEntity
  8
画層1
370
    20
100
AcDbLine
 10
-358.090401178997
 20
312.4587767371689
 30
0.0
 11
-358.090401178997
 21
311.9587767371689
 31
0.0
  0
LINE
  5
13F8
330
2
100
AcDbEntity
  8
画層1
370
    20
100
AcDbLine
 10
-358.090401178997
 20
311.9587767371689
 30
0.0
 11
-357.090401178997
 21
311.9587767371689
 31
0.0
  0
LINE
  5
13F9
330
2
100
AcDbEntity
  8
画層1
370
    20
100
AcDbLine
 10
-357.090401178997
 20
311.9587767371689
 30
0.0
 11
-357.090401178997
 21
312.4587767371689
 31
0.0
  0
LINE
  5
13FA
330
2
100
AcDbEntity
  8
画層1
370
    20
100
AcDbLine
 10
-356.090401178997
 20
313.4587767371689
 30
0.0
 11
-355.590401178997
 21
313.4587767371689
 31
0.0
  0
LINE
  5
13FB
330
2
100
AcDbEntity
  8
画層1
370
    20
100
AcDbLine
 10
-355.590401178997
 20
313.4587767371689
 30
0.0
 11
-355.590401178997
 21
314.4587767371689
 31
0.0
  0
LINE
  5
13FC
330
2
100
AcDbEntity
  8
画層1
370
    20
100
AcDbLine
 10
-355.590401178997
 20
314.4587767371689
 30
0.0
 11
-356.090401178997
 21
314.4587767371689
 31
0.0
  0
LINE
  5
13FD
330
2
100
AcDbEntity
  8
画層1
370
    20
100
AcDbLine
 10
-357.090401178997
 20
315.4587767371689
 30
0.0
 11
-357.090401178997
 21
315.9587767371689
 31
0.0
  0
LINE
  5
13FE
330
2
100
AcDbEntity
  8
画層1
370
    20
100
AcDbLine
 10
-357.090401178997
 20
315.9587767371689
 30
0.0
 11
-358.090401178997
 21
315.9587767371689
 31
0.0
  0
LINE
  5
13FF
330
2
100
AcDbEntity
  8
画層1
370
    20
100
AcDbLine
 10
-358.090401178997
 20
315.9587767371689
 30
0.0
 11
-358.090401178997
 21
315.4587767371689
 31
0.0
  0
LINE
  5
1400
330
2
100
AcDbEntity
  8
画層1
370
    20
100
AcDbLine
 10
-359.090401178997
 20
314.4587767371689
 30
0.0
 11
-359.590401178997
 21
314.4587767371689
 31
0.0
  0
LINE
  5
1401
330
2
100
AcDbEntity
  8
画層1
370
    20
100
AcDbLine
 10
-359.590401178997
 20
314.4587767371689
 30
0.0
 11
-359.590401178997
 21
313.4587767371689
 31
0.0
  0
ARC
  5
1407
330
2
100
AcDbEntity
  8
画層1
370
    20
100
AcDbCircle
 10
-359.090401178997
 20
312.4587767371689
 30
0.0
 40
1.0
100
AcDbArc
 50
0.0
 51
90.0
  0
ARC
  5
1408
330
2
100
AcDbEntity
  8
画層1
370
    20
100
AcDbCircle
 10
-356.090401178997
 20
312.4587767371689
 30
0.0
 40
1.0
100
AcDbArc
 50
90.0
 51
180.0
  0
ARC
  5
1409
330
2
100
AcDbEntity
  8
画層1
370
    20
100
AcDbCircle
 10
-356.090401178997
 20
315.4587767371689
 30
0.0
 40
1.0
100
AcDbArc
 50
180.0
 51
270.0
  0
ARC
  5
140A
330
2
100
AcDbEntity
  8
画層1
370
    20
100
AcDbCircle
 10
-359.090401178997
 20
315.4587767371689
 30
0.0
 40
1.0
100
AcDbArc
 50
270.0
 51
0.0
  0
LINE
  5
14FE
330
2
100
AcDbEntity
  8
画層1
370
    20
100
AcDbLine
 10
-364.090401178997
 20
153.9587767371689
 30
0.0
 11
-365.090401178997
 21
153.9587767371689
 31
0.0
  0
LINE
  5
14FF
330
2
100
AcDbEntity
  8
画層1
370
    20
100
AcDbLine
 10
-365.090401178997
 20
153.9587767371689
 30
0.0
 11
-365.090401178997
 21
162.4587767371689
 31
0.0
  0
LINE
  5
152F
330
2
100
AcDbEntity
  8
画層1
370
    20
100
AcDbLine
 10
-411.090401178997
 20
162.4587767371689
 30
0.0
 11
-365.090401178997
 21
162.4587767371689
 31
0.0
  0
LINE
  5
1531
330
2
100
AcDbEntity
  8
画層1
370
    20
100
AcDbLine
 10
-411.090401178997
 20
162.4587767371689
 30
0.0
 11
-411.090401178997
 21
325.4587767371689
 31
0.0
  0
LINE
  5
1534
330
2
100
AcDbEntity
  8
画層1
370
    20
100
AcDbLine
 10
-411.090401178997
 20
325.4587767371689
 30
0.0
 11
-365.090401178997
 21
325.4587767371689
 31
0.0
  0
LINE
  5
1536
330
2
100
AcDbEntity
  8
画層1
370
    20
100
AcDbLine
 10
-365.090401178997
 20
325.4587767371689
 30
0.0
 11
-365.090401178997
 21
333.9587767371689
 31
0.0
  0
LINE
  5
1539
330
2
100
AcDbEntity
  8
画層1
370
    20
100
AcDbLine
 10
-365.090401178997
 20
333.9587767371689
 30
0.0
 11
-364.090401178997
 21
333.9587767371689
 31
0.0
  0
LINE
  5
153B
330
2
100
AcDbEntity
  8
画層1
370
    20
100
AcDbLine
 10
-364.090401178997
 20
163.4587767371689
 30
0.0
 11
-410.090401178997
 21
163.4587767371689
 31
0.0
  0
LINE
  5
153C
330
2
100
AcDbEntity
  8
画層1
370
    20
100
AcDbLine
 10
-410.090401178997
 20
323.9587767371689
 30
0.0
 11
-410.090401178997
 21
324.4587767371689
 31
0.0
  0
LINE
  5
153D
330
2
100
AcDbEntity
  8
画層1
370
    20
100
AcDbLine
 10
-410.090401178997
 20
324.4587767371689
 30
0.0
 11
-364.090401178997
 21
324.4587767371689
 31
0.0
  0
LINE
  5
1545
330
2
100
AcDbEntity
  8
画層1
370
    20
100
AcDbLine
 10
-410.090401178997
 20
323.9587767371689
 30
0.0
 11
-391.090401178997
 21
323.9587767371689
 31
0.0
  0
LINE
  5
1546
330
2
100
AcDbEntity
  8
画層1
370
    20
100
AcDbLine
 10
-391.090401178997
 20
323.9587767371689
 30
0.0
 11
-391.090401178997
 21
163.9587767371689
 31
0.0
  0
LINE
  5
1547
330
2
100
AcDbEntity
  8
画層1
370
    20
100
AcDbLine
 10
-391.090401178997
 20
163.9587767371689
 30
0.0
 11
-410.090401178997
 21
163.9587767371689
 31
0.0
  0
LINE
  5
1548
330
2
100
AcDbEntity
  8
画層1
370
    20
100
AcDbLine
 10
-410.090401178997
 20
163.9587767371689
 30
0.0
 11
-410.090401178997
 21
163.4587767371689
 31
0.0
  0
LINE
  5
155A
330
2
100
AcDbEntity
  8
画層1
370
    20
100
AcDbLine
 10
-366.090401178997
 20
155.4587767371689
 30
0.0
 11
-367.090401178997
 21
155.4587767371689
 31
0.0
  0
LINE
  5
155B
330
2
100
AcDbEntity
  8
画層1
370
    20
100
AcDbLine
 10
-368.090401178997
 20
156.4587767371689
 30
0.0
 11
-368.090401178997
 21
159.4587767371689
 31
0.0
  0
LINE
  5
155C
330
2
100
AcDbEntity
  8
画層1
370
    20
100
AcDbLine
 10
-367.090401178997
 20
160.4587767371689
 30
0.0
 11
-366.090401178997
 21
160.4587767371689
 31
0.0
  0
ARC
  5
155D
330
2
100
AcDbEntity
  8
画層1
370
    20
100
AcDbCircle
 10
-367.090401178997
 20
156.4587767371689
 30
0.0
 40
1.0
100
AcDbArc
 50
180.0
 51
270.0
  0
ARC
  5
155E
330
2
100
AcDbEntity
  8
画層1
370
    20
100
AcDbCircle
 10
-367.090401178997
 20
159.4587767371689
 30
0.0
 40
1.0
100
AcDbArc
 50
90.0
 51
180.0
  0
LINE
  5
155F
330
2
100
AcDbEntity
  8
画層1
370
    20
100
AcDbLine
 10
-365.090401178997
 20
153.9587767371689
 30
0.0
 11
-365.090401178997
 21
153.9587767371689
 31
0.0
  0
LINE
  5
1560
330
2
100
AcDbEntity
  8
画層1
370
    20
100
AcDbLine
 10
-365.090401178997
 20
153.9587767371689
 30
0.0
 11
-365.090401178997
 21
161.9587767371689
 31
0.0
  0
LINE
  5
1561
330
2
100
AcDbEntity
  8
画層1
370
    20
100
AcDbLine
 10
-365.090401178997
 20
161.9587767371689
 30
0.0
 11
-365.090401178997
 21
161.9587767371689
 31
0.0
  0
ARC
  5
1562
330
2
100
AcDbEntity
  8
画層1
370
    20
100
AcDbCircle
 10
-365.090401178997
 20
160.758776737169
 30
0.0
 40
1.0
100
AcDbArc
 50
90.0
 51
180.0
  0
LINE
  5
1563
330
2
100
AcDbEntity
  8
画層1
370
    20
100
AcDbLine
 10
-366.090401178997
 20
160.758776737169
 30
0.0
 11
-366.090401178997
 21
155.1587767371689
 31
0.0
  0
ARC
  5
1564
330
2
100
AcDbEntity
  8
画層1
370
    20
100
AcDbCircle
 10
-365.090401178997
 20
155.1587767371689
 30
0.0
 40
1.0
100
AcDbArc
 50
180.0
 51
270.0
  0
ARC
  5
156F
330
2
100
AcDbEntity
  8
画層1
370
    20
100
AcDbCircle
 10
-367.590401178997
 20
157.2587767371689
 30
0.0
 40
0.5
100
AcDbArc
 50
90.0
 51
180.0
  0
ARC
  5
1570
330
2
100
AcDbEntity
  8
画層1
370
    20
100
AcDbCircle
 10
-367.590401178997
 20
158.658776737169
 30
0.0
 40
0.5
100
AcDbArc
 50
180.0
 51
270.0
  0
LINE
  5
1571
330
2
100
AcDbEntity
  8
画層1
370
    20
100
AcDbLine
 10
-367.590401178997
 20
158.158776737169
 30
0.0
 11
-367.590401178997
 21
157.7587767371689
 31
0.0
  0
LINE
  5
1573
330
2
100
AcDbEntity
  8
画層1
370
    20
100
AcDbLine
 10
-367.590401178997
 20
330.1587767371689
 30
0.0
 11
-367.590401178997
 21
329.7587767371688
 31
0.0
  0
ARC
  5
1574
330
2
100
AcDbEntity
  8
画層1
370
    20
100
AcDbCircle
 10
-367.590401178997
 20
330.6587767371689
 30
0.0
 40
0.5
100
AcDbArc
 50
180.0
 51
270.0
  0
ARC
  5
1575
330
2
100
AcDbEntity
  8
画層1
370
    20
100
AcDbCircle
 10
-367.590401178997
 20
329.2587767371689
 30
0.0
 40
0.5
100
AcDbArc
 50
90.0
 51
180.0
  0
LINE
  5
1576
330
2
100
AcDbEntity
  8
画層1
370
    20
100
AcDbLine
 10
-366.090401178997
 20
327.4587767371689
 30
0.0
 11
-367.090401178997
 21
327.4587767371689
 31
0.0
  0
LINE
  5
1577
330
2
100
AcDbEntity
  8
画層1
370
    20
100
AcDbLine
 10
-368.090401178997
 20
328.4587767371689
 30
0.0
 11
-368.090401178997
 21
331.4587767371689
 31
0.0
  0
LINE
  5
1578
330
2
100
AcDbEntity
  8
画層1
370
    20
100
AcDbLine
 10
-367.090401178997
 20
332.4587767371689
 30
0.0
 11
-366.090401178997
 21
332.4587767371689
 31
0.0
  0
ARC
  5
1579
330
2
100
AcDbEntity
  8
画層1
370
    20
100
AcDbCircle
 10
-367.090401178997
 20
331.4587767371689
 30
0.0
 40
1.0
100
AcDbArc
 50
90.0
 51
180.0
  0
ARC
  5
157A
330
2
100
AcDbEntity
  8
画層1
370
    20
100
AcDbCircle
 10
-367.090401178997
 20
328.4587767371689
 30
0.0
 40
1.0
100
AcDbArc
 50
180.0
 51
270.0
  0
LINE
  5
157B
330
2
100
AcDbEntity
  8
画層1
370
    20
100
AcDbLine
 10
-366.090401178997
 20
332.758776737169
 30
0.0
 11
-366.090401178997
 21
327.1587767371689
 31
0.0
  0
ARC
  5
157C
330
2
100
AcDbEntity
  8
画層1
370
    20
100
AcDbCircle
 10
-365.090401178997
 20
327.1587767371689
 30
0.0
 40
1.0
100
AcDbArc
 50
180.0
 51
270.0
  0
LINE
  5
157D
330
2
100
AcDbEntity
  8
画層1
370
    20
100
AcDbLine
 10
-365.090401178997
 20
325.9587767371689
 30
0.0
 11
-365.090401178997
 21
325.9587767371689
 31
0.0
  0
ARC
  5
157E
330
2
100
AcDbEntity
  8
画層1
370
    20
100
AcDbCircle
 10
-365.090401178997
 20
332.758776737169
 30
0.0
 40
1.0
100
AcDbArc
 50
90.0
 51
180.0
  0
LWPOLYLINE
  5
158B
330
2
100
AcDbEntity
  8
画層1
370
    20
100
AcDbPolyline
 90
        4
 70
     1
 43
0.0
 10
-374.1904011789971
 20
314.8678676462599
 10
-372.590401178997
 20
314.8678676462599
 10
-372.590401178997
 20
164.8678676462598
 10
-374.1904011789971
 20
164.8678676462598
  0
LINE
  5
1592
330
2
100
AcDbEntity
  8
画層1
370
    20
100
AcDbLine
 10
-364.090401178997
 20
313.8678676462599
 30
0.0
 11
-372.590401178997
 21
313.8678676462599
 31
0.0
  0
LINE
  5
1593
330
2
100
AcDbEntity
  8
画層1
370
    20
100
AcDbLine
 10
-364.090401178997
 20
303.8678676462599
 30
0.0
 11
-372.590401178997
 21
303.8678676462599
 31
0.0
  0
LINE
  5
1594
330
2
100
AcDbEntity
  8
画層1
370
    20
100
AcDbLine
 10
-374.1904011789971
 20
303.8678676462599
 30
0.0
 11
-379.190401178997
 21
303.8678676462599
 31
0.0
  0
LINE
  5
1595
330
2
100
AcDbEntity
  8
画層1
370
    20
100
AcDbLine
 10
-379.190401178997
 20
303.8678676462599
 30
0.0
 11
-379.190401178997
 21
313.8678676462599
 31
0.0
  0
LINE
  5
1596
330
2
100
AcDbEntity
  8
画層1
370
    20
100
AcDbLine
 10
-379.190401178997
 20
313.8678676462599
 30
0.0
 11
-374.1904011789971
 21
313.8678676462599
 31
0.0
  0
LINE
  5
1597
330
2
100
AcDbEntity
  8
画層1
370
    20
100
AcDbLine
 10
-379.190401178997
 20
175.8678676462599
 30
0.0
 11
-374.1904011789971
 21
175.8678676462599
 31
0.0
  0
LINE
  5
1598
330
2
100
AcDbEntity
  8
画層1
370
    20
100
AcDbLine
 10
-379.190401178997
 20
165.8678676462598
 30
0.0
 11
-379.190401178997
 21
175.8678676462599
 31
0.0
  0
LINE
  5
1599
330
2
100
AcDbEntity
  8
画層1
370
    20
100
AcDbLine
 10
-364.090401178997
 20
165.8678676462598
 30
0.0
 11
-372.590401178997
 21
165.8678676462598
 31
0.0
  0
LINE
  5
159A
330
2
100
AcDbEntity
  8
画層1
370
    20
100
AcDbLine
 10
-364.090401178997
 20
175.8678676462599
 30
0.0
 11
-372.590401178997
 21
175.8678676462599
 31
0.0
  0
LINE
  5
159B
330
2
100
AcDbEntity
  8
画層1
370
    20
100
AcDbLine
 10
-374.1904011789971
 20
165.8678676462598
 30
0.0
 11
-379.190401178997
 21
165.8678676462598
 31
0.0
  0
LINE
  5
15A7
330
2
100
AcDbEntity
  8
画層1
370
    20
100
AcDbLine
 10
-374.1904011789971
 20
177.8678676462599
 30
0.0
 11
-389.1904011789971
 21
177.8678676462599
 31
0.0
  0
LINE
  5
15A8
330
2
100
AcDbEntity
  8
画層1
370
    20
100
AcDbLine
 10
-389.1904011789971
 20
177.8678676462599
 30
0.0
 11
-389.1904011789971
 21
179.8678676462599
 31
0.0
  0
LINE
  5
15A9
330
2
100
AcDbEntity
  8
画層1
370
    20
100
AcDbLine
 10
-389.1904011789971
 20
179.8678676462599
 30
0.0
 11
-378.1904011789971
 21
179.8678676462599
 31
0.0
  0
LINE
  5
15AA
330
2
100
AcDbEntity
  8
画層1
370
    20
100
AcDbLine
 10
-378.1904011789971
 20
179.8678676462599
 30
0.0
 11
-378.1904011789971
 21
187.8678676462598
 31
0.0
  0
LINE
  5
15AB
330
2
100
AcDbEntity
  8
画層1
370
    20
100
AcDbLine
 10
-378.1904011789971
 20
187.8678676462598
 30
0.0
 11
-389.1904011789971
 21
187.8678676462598
 31
0.0
  0
LINE
  5
15AC
330
2
100
AcDbEntity
  8
画層1
370
    20
100
AcDbLine
 10
-389.1904011789971
 20
187.8678676462598
 30
0.0
 11
-389.1904011789971
 21
189.8678676462598
 31
0.0
  0
LINE
  5
15AD
330
2
100
AcDbEntity
  8
画層1
370
    20
100
AcDbLine
 10
-389.1904011789971
 20
189.8678676462598
 30
0.0
 11
-378.1904011789971
 21
189.8678676462598
 31
0.0
  0
LINE
  5
15B0
330
2
100
AcDbEntity
  8
画層1
370
    20
100
AcDbLine
 10
-381.190401178997
 20
187.8678676462598
 30
0.0
 11
-381.190401178997
 21
179.8678676462599
 31
0.0
  0
LINE
  5
15B1
330
2
100
AcDbEntity
  8
画層1
370
    20
100
AcDbLine
 10
-382.690401178997
 20
187.8678676462598
 30
0.0
 11
-382.690401178997
 21
179.8678676462599
 31
0.0
  0
LINE
  5
15B2
330
2
100
AcDbEntity
  8
画層1
370
    20
100
AcDbLine
 10
-384.1904011789971
 20
187.8678676462598
 30
0.0
 11
-384.1904011789971
 21
179.8678676462599
 31
0.0
  0
LINE
  5
15B6
330
2
100
AcDbEntity
  8
画層1
370
    20
100
AcDbLine
 10
-384.1904011789971
 20
186.8678676462598
 30
0.0
 11
-385.190401178997
 21
186.8678676462598
 31
0.0
  0
LINE
  5
15B7
330
2
100
AcDbEntity
  8
画層1
370
    20
100
AcDbLine
 10
-385.190401178997
 20
186.8678676462598
 30
0.0
 11
-385.190401178997
 21
180.8678676462599
 31
0.0
  0
LINE
  5
15B8
330
2
100
AcDbEntity
  8
画層1
370
    20
100
AcDbLine
 10
-385.190401178997
 20
180.8678676462599
 30
0.0
 11
-384.1904011789971
 21
180.8678676462599
 31
0.0
  0
LINE
  5
15B9
330
2
100
AcDbEntity
  8
画層1
370
    20
100
AcDbLine
 10
-385.190401178997
 20
180.8678676462599
 30
0.0
 11
-386.1904011789971
 21
180.8678676462598
 31
0.0
  0
LINE
  5
15BA
330
2
100
AcDbEntity
  8
画層1
370
    20
100
AcDbLine
 10
-388.190401178997
 20
182.8678676462598
 30
0.0
 11
-388.190401178997
 21
184.8678676462599
 31
0.0
  0
LINE
  5
15BB
330
2
100
AcDbEntity
  8
画層1
370
    20
100
AcDbLine
 10
-386.1904011789971
 20
186.8678676462598
 30
0.0
 11
-385.190401178997
 21
186.8678676462598
 31
0.0
  0
ARC
  5
15BC
330
2
100
AcDbEntity
  8
画層1
370
    20
100
AcDbCircle
 10
-386.1904011789971
 20
182.8678676462598
 30
0.0
 40
2.0
100
AcDbArc
 50
180.0
 51
270.0
  0
ARC
  5
15BD
330
2
100
AcDbEntity
  8
画層1
370
    20
100
AcDbCircle
 10
-386.1904011789971
 20
184.8678676462599
 30
0.0
 40
2.0
100
AcDbArc
 50
90.0
 51
180.0
  0
ARC
  5
15C6
330
2
100
AcDbEntity
  8
画層1
370
    20
100
AcDbCircle
 10
-387.690401178997
 20
182.8678676462599
 30
0.0
 40
0.5
100
AcDbArc
 50
90.0
 51
180.0
  0
ARC
  5
15C7
330
2
100
AcDbEntity
  8
画層1
370
    20
100
AcDbCircle
 10
-387.690401178997
 20
184.8678676462599
 30
0.0
 40
0.5
100
AcDbArc
 50
180.0
 51
270.0
  0
LINE
  5
15C8
330
2
100
AcDbEntity
  8
画層1
370
    20
100
AcDbLine
 10
-387.690401178997
 20
184.3678676462598
 30
0.0
 11
-387.690401178997
 21
183.3678676462598
 31
0.0
  0
ARC
  5
15FC
330
2
100
AcDbEntity
  8
画層1
370
    20
100
AcDbCircle
 10
-386.1904011789971
 20
194.8678676462598
 30
0.0
 40
2.0
100
AcDbArc
 50
90.0
 51
180.0
  0
LINE
  5
15FD
330
2
100
AcDbEntity
  8
画層1
370
    20
100
AcDbLine
 10
-385.190401178997
 20
196.8678676462598
 30
0.0
 11
-385.190401178997
 21
190.8678676462598
 31
0.0
  0
ARC
  5
15FE
330
2
100
AcDbEntity
  8
画層1
370
    20
100
AcDbCircle
 10
-386.1904011789971
 20
192.8678676462598
 30
0.0
 40
2.0
100
AcDbArc
 50
180.0
 51
270.0
  0
LINE
  5
15FF
330
2
100
AcDbEntity
  8
画層1
370
    20
100
AcDbLine
 10
-387.690401178997
 20
194.3678676462599
 30
0.0
 11
-387.690401178997
 21
193.3678676462599
 31
0.0
  0
ARC
  5
1600
330
2
100
AcDbEntity
  8
画層1
370
    20
100
AcDbCircle
 10
-387.690401178997
 20
194.8678676462598
 30
0.0
 40
0.5
100
AcDbArc
 50
180.0
 51
270.0
  0
ARC
  5
1601
330
2
100
AcDbEntity
  8
画層1
370
    20
100
AcDbCircle
 10
-387.690401178997
 20
192.8678676462599
 30
0.0
 40
0.5
100
AcDbArc
 50
90.0
 51
180.0
  0
LINE
  5
1602
330
2
100
AcDbEntity
  8
画層1
370
    20
100
AcDbLine
 10
-388.190401178997
 20
192.8678676462598
 30
0.0
 11
-388.190401178997
 21
194.8678676462598
 31
0.0
  0
LINE
  5
1603
330
2
100
AcDbEntity
  8
画層1
370
    20
100
AcDbLine
 10
-385.190401178997
 20
190.8678676462598
 30
0.0
 11
-386.1904011789971
 21
190.8678676462598
 31
0.0
  0
LINE
  5
1604
330
2
100
AcDbEntity
  8
画層1
370
    20
100
AcDbLine
 10
-385.190401178997
 20
190.8678676462598
 30
0.0
 11
-384.1904011789971
 21
190.8678676462598
 31
0.0
  0
LINE
  5
1605
330
2
100
AcDbEntity
  8
画層1
370
    20
100
AcDbLine
 10
-389.1904011789971
 20
199.8678676462598
 30
0.0
 11
-378.1904011789971
 21
199.8678676462598
 31
0.0
  0
LINE
  5
1606
330
2
100
AcDbEntity
  8
画層1
370
    20
100
AcDbLine
 10
-378.1904011789971
 20
197.8678676462599
 30
0.0
 11
-389.1904011789971
 21
197.8678676462599
 31
0.0
  0
LINE
  5
1607
330
2
100
AcDbEntity
  8
画層1
370
    20
100
AcDbLine
 10
-389.1904011789971
 20
197.8678676462599
 30
0.0
 11
-389.1904011789971
 21
199.8678676462598
 31
0.0
  0
LINE
  5
1608
330
2
100
AcDbEntity
  8
画層1
370
    20
100
AcDbLine
 10
-386.1904011789971
 20
196.8678676462598
 30
0.0
 11
-385.190401178997
 21
196.8678676462598
 31
0.0
  0
LINE
  5
1609
330
2
100
AcDbEntity
  8
画層1
370
    20
100
AcDbLine
 10
-384.1904011789971
 20
196.8678676462598
 30
0.0
 11
-385.190401178997
 21
196.8678676462598
 31
0.0
  0
LINE
  5
160A
330
2
100
AcDbEntity
  8
画層1
370
    20
100
AcDbLine
 10
-384.1904011789971
 20
197.8678676462599
 30
0.0
 11
-384.1904011789971
 21
189.8678676462598
 31
0.0
  0
LINE
  5
160B
330
2
100
AcDbEntity
  8
画層1
370
    20
100
AcDbLine
 10
-382.690401178997
 20
197.8678676462599
 30
0.0
 11
-382.690401178997
 21
189.8678676462598
 31
0.0
  0
LINE
  5
160C
330
2
100
AcDbEntity
  8
画層1
370
    20
100
AcDbLine
 10
-381.190401178997
 20
197.8678676462599
 30
0.0
 11
-381.190401178997
 21
189.8678676462598
 31
0.0
  0
LINE
  5
160D
330
2
100
AcDbEntity
  8
画層1
370
    20
100
AcDbLine
 10
-378.1904011789971
 20
189.8678676462598
 30
0.0
 11
-378.1904011789971
 21
197.8678676462599
 31
0.0
  0
LINE
  5
160E
330
2
100
AcDbEntity
  8
画層1
370
    20
100
AcDbLine
 10
-388.190401178997
 20
202.8678676462598
 30
0.0
 11
-388.190401178997
 21
204.8678676462599
 31
0.0
  0
LINE
  5
160F
330
2
100
AcDbEntity
  8
画層1
370
    20
100
AcDbLine
 10
-387.690401178997
 20
204.3678676462599
 30
0.0
 11
-387.690401178997
 21
203.3678676462598
 31
0.0
  0
LINE
  5
1610
330
2
100
AcDbEntity
  8
画層1
370
    20
100
AcDbLine
 10
-385.190401178997
 20
206.8678676462599
 30
0.0
 11
-385.190401178997
 21
200.8678676462599
 31
0.0
  0
ARC
  5
1611
330
2
100
AcDbEntity
  8
画層1
370
    20
100
AcDbCircle
 10
-386.1904011789971
 20
202.8678676462598
 30
0.0
 40
2.0
100
AcDbArc
 50
180.0
 51
270.0
  0
ARC
  5
1612
330
2
100
AcDbEntity
  8
画層1
370
    20
100
AcDbCircle
 10
-387.690401178997
 20
202.8678676462599
 30
0.0
 40
0.5
100
AcDbArc
 50
90.0
 51
180.0
  0
LINE
  5
1613
330
2
100
AcDbEntity
  8
画層1
370
    20
100
AcDbLine
 10
-385.190401178997
 20
200.8678676462599
 30
0.0
 11
-384.1904011789971
 21
200.8678676462599
 31
0.0
  0
LINE
  5
1614
330
2
100
AcDbEntity
  8
画層1
370
    20
100
AcDbLine
 10
-385.190401178997
 20
200.8678676462599
 30
0.0
 11
-386.1904011789971
 21
200.8678676462598
 31
0.0
  0
LINE
  5
1615
330
2
100
AcDbEntity
  8
画層1
370
    20
100
AcDbLine
 10
-378.1904011789971
 20
207.8678676462598
 30
0.0
 11
-389.1904011789971
 21
207.8678676462598
 31
0.0
  0
LINE
  5
1616
330
2
100
AcDbEntity
  8
画層1
370
    20
100
AcDbLine
 10
-389.1904011789971
 20
209.8678676462598
 30
0.0
 11
-378.1904011789971
 21
209.8678676462598
 31
0.0
  0
ARC
  5
1617
330
2
100
AcDbEntity
  8
画層1
370
    20
100
AcDbCircle
 10
-386.1904011789971
 20
204.8678676462599
 30
0.0
 40
2.0
100
AcDbArc
 50
90.0
 51
180.0
  0
LINE
  5
1618
330
2
100
AcDbEntity
  8
画層1
370
    20
100
AcDbLine
 10
-389.1904011789971
 20
207.8678676462598
 30
0.0
 11
-389.1904011789971
 21
209.8678676462598
 31
0.0
  0
ARC
  5
1619
330
2
100
AcDbEntity
  8
画層1
370
    20
100
AcDbCircle
 10
-387.690401178997
 20
204.8678676462599
 30
0.0
 40
0.5
100
AcDbArc
 50
180.0
 51
270.0
  0
LINE
  5
161A
330
2
100
AcDbEntity
  8
画層1
370
    20
100
AcDbLine
 10
-384.1904011789971
 20
206.8678676462599
 30
0.0
 11
-385.190401178997
 21
206.8678676462599
 31
0.0
  0
LINE
  5
161B
330
2
100
AcDbEntity
  8
画層1
370
    20
100
AcDbLine
 10
-386.1904011789971
 20
206.8678676462599
 30
0.0
 11
-385.190401178997
 21
206.8678676462599
 31
0.0
  0
LINE
  5
161C
330
2
100
AcDbEntity
  8
画層1
370
    20
100
AcDbLine
 10
-378.1904011789971
 20
199.8678676462598
 30
0.0
 11
-378.1904011789971
 21
207.8678676462598
 31
0.0
  0
LINE
  5
161D
330
2
100
AcDbEntity
  8
画層1
370
    20
100
AcDbLine
 10
-381.190401178997
 20
207.8678676462598
 30
0.0
 11
-381.190401178997
 21
199.8678676462598
 31
0.0
  0
LINE
  5
161E
330
2
100
AcDbEntity
  8
画層1
370
    20
100
AcDbLine
 10
-382.690401178997
 20
207.8678676462598
 30
0.0
 11
-382.690401178997
 21
199.8678676462598
 31
0.0
  0
LINE
  5
161F
330
2
100
AcDbEntity
  8
画層1
370
    20
100
AcDbLine
 10
-384.1904011789971
 20
207.8678676462598
 30
0.0
 11
-384.1904011789971
 21
199.8678676462598
 31
0.0
  0
LINE
  5
1620
330
2
100
AcDbEntity
  8
画層1
370
    20
100
AcDbLine
 10
-384.1904011789971
 20
217.8678676462598
 30
0.0
 11
-384.1904011789971
 21
209.8678676462598
 31
0.0
  0
LINE
  5
1621
330
2
100
AcDbEntity
  8
画層1
370
    20
100
AcDbLine
 10
-382.690401178997
 20
217.8678676462598
 30
0.0
 11
-382.690401178997
 21
209.8678676462598
 31
0.0
  0
LINE
  5
1622
330
2
100
AcDbEntity
  8
画層1
370
    20
100
AcDbLine
 10
-381.190401178997
 20
217.8678676462598
 30
0.0
 11
-381.190401178997
 21
209.8678676462598
 31
0.0
  0
LINE
  5
1623
330
2
100
AcDbEntity
  8
画層1
370
    20
100
AcDbLine
 10
-378.1904011789971
 20
209.8678676462598
 30
0.0
 11
-378.1904011789971
 21
217.8678676462598
 31
0.0
  0
LINE
  5
1624
330
2
100
AcDbEntity
  8
画層1
370
    20
100
AcDbLine
 10
-389.1904011789971
 20
217.8678676462598
 30
0.0
 11
-389.1904011789971
 21
219.8678676462598
 31
0.0
  0
ARC
  5
1625
330
2
100
AcDbEntity
  8
画層1
370
    20
100
AcDbCircle
 10
-386.1904011789971
 20
212.8678676462598
 30
0.0
 40
2.0
100
AcDbArc
 50
180.0
 51
270.0
  0
LINE
  5
1626
330
2
100
AcDbEntity
  8
画層1
370
    20
100
AcDbLine
 10
-385.190401178997
 20
216.8678676462599
 30
0.0
 11
-385.190401178997
 21
210.8678676462599
 31
0.0
  0
LINE
  5
1627
330
2
100
AcDbEntity
  8
画層1
370
    20
100
AcDbLine
 10
-385.190401178997
 20
210.8678676462599
 30
0.0
 11
-386.1904011789971
 21
210.8678676462598
 31
0.0
  0
LINE
  5
1628
330
2
100
AcDbEntity
  8
画層1
370
    20
100
AcDbLine
 10
-385.190401178997
 20
210.8678676462599
 30
0.0
 11
-384.1904011789971
 21
210.8678676462599
 31
0.0
  0
ARC
  5
1629
330
2
100
AcDbEntity
  8
画層1
370
    20
100
AcDbCircle
 10
-386.1904011789971
 20
214.8678676462599
 30
0.0
 40
2.0
100
AcDbArc
 50
90.0
 51
180.0
  0
LINE
  5
162A
330
2
100
AcDbEntity
  8
画層1
370
    20
100
AcDbLine
 10
-378.1904011789971
 20
217.8678676462598
 30
0.0
 11
-389.1904011789971
 21
217.8678676462598
 31
0.0
  0
ARC
  5
162B
330
2
100
AcDbEntity
  8
画層1
370
    20
100
AcDbCircle
 10
-387.690401178997
 20
214.8678676462599
 30
0.0
 40
0.5
100
AcDbArc
 50
180.0
 51
270.0
  0
ARC
  5
162C
330
2
100
AcDbEntity
  8
画層1
370
    20
100
AcDbCircle
 10
-387.690401178997
 20
212.8678676462599
 30
0.0
 40
0.5
100
AcDbArc
 50
90.0
 51
180.0
  0
LINE
  5
162D
330
2
100
AcDbEntity
  8
画層1
370
    20
100
AcDbLine
 10
-387.690401178997
 20
214.3678676462598
 30
0.0
 11
-387.690401178997
 21
213.3678676462599
 31
0.0
  0
LINE
  5
162E
330
2
100
AcDbEntity
  8
画層1
370
    20
100
AcDbLine
 10
-388.190401178997
 20
212.8678676462598
 30
0.0
 11
-388.190401178997
 21
214.8678676462599
 31
0.0
  0
LINE
  5
162F
330
2
100
AcDbEntity
  8
画層1
370
    20
100
AcDbLine
 10
-386.1904011789971
 20
216.8678676462599
 30
0.0
 11
-385.190401178997
 21
216.8678676462599
 31
0.0
  0
LINE
  5
1630
330
2
100
AcDbEntity
  8
画層1
370
    20
100
AcDbLine
 10
-384.1904011789971
 20
216.8678676462599
 30
0.0
 11
-385.190401178997
 21
216.8678676462599
 31
0.0
  0
LINE
  5
1631
330
2
100
AcDbEntity
  8
画層1
370
    20
100
AcDbLine
 10
-389.1904011789971
 20
219.8678676462598
 30
0.0
 11
-378.1904011789971
 21
219.8678676462598
 31
0.0
  0
ARC
  5
1632
330
2
100
AcDbEntity
  8
画層1
370
    20
100
AcDbCircle
 10
-386.1904011789971
 20
224.8678676462599
 30
0.0
 40
2.0
100
AcDbArc
 50
90.0
 51
180.0
  0
LINE
  5
1633
330
2
100
AcDbEntity
  8
画層1
370
    20
100
AcDbLine
 10
-385.190401178997
 20
226.8678676462598
 30
0.0
 11
-385.190401178997
 21
220.8678676462599
 31
0.0
  0
ARC
  5
1634
330
2
100
AcDbEntity
  8
画層1
370
    20
100
AcDbCircle
 10
-386.1904011789971
 20
222.8678676462598
 30
0.0
 40
2.0
100
AcDbArc
 50
180.0
 51
270.0
  0
LINE
  5
1635
330
2
100
AcDbEntity
  8
画層1
370
    20
100
AcDbLine
 10
-388.190401178997
 20
222.8678676462598
 30
0.0
 11
-388.190401178997
 21
224.8678676462599
 31
0.0
  0
LINE
  5
1636
330
2
100
AcDbEntity
  8
画層1
370
    20
100
AcDbLine
 10
-387.690401178997
 20
224.3678676462598
 30
0.0
 11
-387.690401178997
 21
223.3678676462599
 31
0.0
  0
ARC
  5
1637
330
2
100
AcDbEntity
  8
画層1
370
    20
100
AcDbCircle
 10
-387.690401178997
 20
222.8678676462599
 30
0.0
 40
0.5
100
AcDbArc
 50
90.0
 51
180.0
  0
ARC
  5
1638
330
2
100
AcDbEntity
  8
画層1
370
    20
100
AcDbCircle
 10
-387.690401178997
 20
224.8678676462599
 30
0.0
 40
0.5
100
AcDbArc
 50
180.0
 51
270.0
  0
LINE
  5
1639
330
2
100
AcDbEntity
  8
画層1
370
    20
100
AcDbLine
 10
-385.190401178997
 20
220.8678676462599
 30
0.0
 11
-384.1904011789971
 21
220.8678676462599
 31
0.0
  0
LINE
  5
163A
330
2
100
AcDbEntity
  8
画層1
370
    20
100
AcDbLine
 10
-385.190401178997
 20
220.8678676462599
 30
0.0
 11
-386.1904011789971
 21
220.8678676462598
 31
0.0
  0
LINE
  5
163B
330
2
100
AcDbEntity
  8
画層1
370
    20
100
AcDbLine
 10
-389.1904011789971
 20
229.8678676462599
 30
0.0
 11
-378.1904011789971
 21
229.8678676462599
 31
0.0
  0
LINE
  5
163C
330
2
100
AcDbEntity
  8
画層1
370
    20
100
AcDbLine
 10
-378.1904011789971
 20
227.8678676462599
 30
0.0
 11
-389.1904011789971
 21
227.8678676462599
 31
0.0
  0
LINE
  5
163D
330
2
100
AcDbEntity
  8
画層1
370
    20
100
AcDbLine
 10
-389.1904011789971
 20
227.8678676462599
 30
0.0
 11
-389.1904011789971
 21
229.8678676462599
 31
0.0
  0
LINE
  5
163E
330
2
100
AcDbEntity
  8
画層1
370
    20
100
AcDbLine
 10
-384.1904011789971
 20
226.8678676462598
 30
0.0
 11
-385.190401178997
 21
226.8678676462598
 31
0.0
  0
LINE
  5
163F
330
2
100
AcDbEntity
  8
画層1
370
    20
100
AcDbLine
 10
-386.1904011789971
 20
226.8678676462598
 30
0.0
 11
-385.190401178997
 21
226.8678676462598
 31
0.0
  0
LINE
  5
1640
330
2
100
AcDbEntity
  8
画層1
370
    20
100
AcDbLine
 10
-378.1904011789971
 20
219.8678676462598
 30
0.0
 11
-378.1904011789971
 21
227.8678676462599
 31
0.0
  0
LINE
  5
1641
330
2
100
AcDbEntity
  8
画層1
370
    20
100
AcDbLine
 10
-381.190401178997
 20
227.8678676462599
 30
0.0
 11
-381.190401178997
 21
219.8678676462598
 31
0.0
  0
LINE
  5
1642
330
2
100
AcDbEntity
  8
画層1
370
    20
100
AcDbLine
 10
-382.690401178997
 20
227.8678676462599
 30
0.0
 11
-382.690401178997
 21
219.8678676462598
 31
0.0
  0
LINE
  5
1643
330
2
100
AcDbEntity
  8
画層1
370
    20
100
AcDbLine
 10
-384.1904011789971
 20
227.8678676462599
 30
0.0
 11
-384.1904011789971
 21
219.8678676462598
 31
0.0
  0
LINE
  5
1644
330
2
100
AcDbEntity
  8
画層1
370
    20
100
AcDbLine
 10
-387.690401178997
 20
234.3678676462598
 30
0.0
 11
-387.690401178997
 21
233.3678676462599
 31
0.0
  0
LINE
  5
1645
330
2
100
AcDbEntity
  8
画層1
370
    20
100
AcDbLine
 10
-388.190401178997
 20
232.8678676462598
 30
0.0
 11
-388.190401178997
 21
234.8678676462598
 31
0.0
  0
LINE
  5
1646
330
2
100
AcDbEntity
  8
画層1
370
    20
100
AcDbLine
 10
-385.190401178997
 20
236.8678676462598
 30
0.0
 11
-385.190401178997
 21
230.8678676462598
 31
0.0
  0
ARC
  5
1647
330
2
100
AcDbEntity
  8
画層1
370
    20
100
AcDbCircle
 10
-386.1904011789971
 20
232.8678676462598
 30
0.0
 40
2.0
100
AcDbArc
 50
180.0
 51
270.0
  0
ARC
  5
1648
330
2
100
AcDbEntity
  8
画層1
370
    20
100
AcDbCircle
 10
-387.690401178997
 20
232.8678676462598
 30
0.0
 40
0.5
100
AcDbArc
 50
90.0
 51
180.0
  0
LINE
  5
1649
330
2
100
AcDbEntity
  8
画層1
370
    20
100
AcDbLine
 10
-385.190401178997
 20
230.8678676462598
 30
0.0
 11
-386.1904011789971
 21
230.8678676462598
 31
0.0
  0
LINE
  5
164A
330
2
100
AcDbEntity
  8
画層1
370
    20
100
AcDbLine
 10
-385.190401178997
 20
230.8678676462598
 30
0.0
 11
-384.1904011789971
 21
230.8678676462598
 31
0.0
  0
LINE
  5
164B
330
2
100
AcDbEntity
  8
画層1
370
    20
100
AcDbLine
 10
-378.1904011789971
 20
237.8678676462599
 30
0.0
 11
-389.1904011789971
 21
237.8678676462599
 31
0.0
  0
LINE
  5
164C
330
2
100
AcDbEntity
  8
画層1
370
    20
100
AcDbLine
 10
-389.1904011789971
 20
239.8678676462599
 30
0.0
 11
-378.1904011789971
 21
239.8678676462599
 31
0.0
  0
ARC
  5
164D
330
2
100
AcDbEntity
  8
画層1
370
    20
100
AcDbCircle
 10
-386.1904011789971
 20
234.8678676462598
 30
0.0
 40
2.0
100
AcDbArc
 50
90.0
 51
180.0
  0
LINE
  5
164E
330
2
100
AcDbEntity
  8
画層1
370
    20
100
AcDbLine
 10
-389.1904011789971
 20
237.8678676462599
 30
0.0
 11
-389.1904011789971
 21
239.8678676462599
 31
0.0
  0
ARC
  5
164F
330
2
100
AcDbEntity
  8
画層1
370
    20
100
AcDbCircle
 10
-387.690401178997
 20
234.8678676462598
 30
0.0
 40
0.5
100
AcDbArc
 50
180.0
 51
270.0
  0
LINE
  5
1650
330
2
100
AcDbEntity
  8
画層1
370
    20
100
AcDbLine
 10
-386.1904011789971
 20
236.8678676462598
 30
0.0
 11
-385.190401178997
 21
236.8678676462598
 31
0.0
  0
LINE
  5
1651
330
2
100
AcDbEntity
  8
画層1
370
    20
100
AcDbLine
 10
-384.1904011789971
 20
236.8678676462598
 30
0.0
 11
-385.190401178997
 21
236.8678676462598
 31
0.0
  0
LINE
  5
1652
330
2
100
AcDbEntity
  8
画層1
370
    20
100
AcDbLine
 10
-384.1904011789971
 20
237.8678676462599
 30
0.0
 11
-384.1904011789971
 21
229.8678676462599
 31
0.0
  0
LINE
  5
1653
330
2
100
AcDbEntity
  8
画層1
370
    20
100
AcDbLine
 10
-382.690401178997
 20
237.8678676462599
 30
0.0
 11
-382.690401178997
 21
229.8678676462599
 31
0.0
  0
LINE
  5
1654
330
2
100
AcDbEntity
  8
画層1
370
    20
100
AcDbLine
 10
-381.190401178997
 20
237.8678676462599
 30
0.0
 11
-381.190401178997
 21
229.8678676462599
 31
0.0
  0
LINE
  5
1655
330
2
100
AcDbEntity
  8
画層1
370
    20
100
AcDbLine
 10
-378.1904011789971
 20
229.8678676462599
 30
0.0
 11
-378.1904011789971
 21
237.8678676462599
 31
0.0
  0
LINE
  5
1656
330
2
100
AcDbEntity
  8
画層1
370
    20
100
AcDbLine
 10
-389.1904011789971
 20
247.8678676462599
 30
0.0
 11
-389.1904011789971
 21
249.8678676462599
 31
0.0
  0
ARC
  5
1657
330
2
100
AcDbEntity
  8
画層1
370
    20
100
AcDbCircle
 10
-386.1904011789971
 20
242.8678676462598
 30
0.0
 40
2.0
100
AcDbArc
 50
180.0
 51
270.0
  0
LINE
  5
1658
330
2
100
AcDbEntity
  8
画層1
370
    20
100
AcDbLine
 10
-385.190401178997
 20
246.8678676462598
 30
0.0
 11
-385.190401178997
 21
240.8678676462598
 31
0.0
  0
LINE
  5
1659
330
2
100
AcDbEntity
  8
画層1
370
    20
100
AcDbLine
 10
-385.190401178997
 20
240.8678676462598
 30
0.0
 11
-384.1904011789971
 21
240.8678676462598
 31
0.0
  0
LINE
  5
165A
330
2
100
AcDbEntity
  8
画層1
370
    20
100
AcDbLine
 10
-385.190401178997
 20
240.8678676462598
 30
0.0
 11
-386.1904011789971
 21
240.8678676462598
 31
0.0
  0
ARC
  5
165B
330
2
100
AcDbEntity
  8
画層1
370
    20
100
AcDbCircle
 10
-386.1904011789971
 20
244.8678676462598
 30
0.0
 40
2.0
100
AcDbArc
 50
90.0
 51
180.0
  0
LINE
  5
165C
330
2
100
AcDbEntity
  8
画層1
370
    20
100
AcDbLine
 10
-378.1904011789971
 20
247.8678676462599
 30
0.0
 11
-389.1904011789971
 21
247.8678676462599
 31
0.0
  0
ARC
  5
165D
330
2
100
AcDbEntity
  8
画層1
370
    20
100
AcDbCircle
 10
-387.690401178997
 20
244.8678676462598
 30
0.0
 40
0.5
100
AcDbArc
 50
180.0
 51
270.0
  0
ARC
  5
165E
330
2
100
AcDbEntity
  8
画層1
370
    20
100
AcDbCircle
 10
-387.690401178997
 20
242.8678676462598
 30
0.0
 40
0.5
100
AcDbArc
 50
90.0
 51
180.0
  0
LINE
  5
165F
330
2
100
AcDbEntity
  8
画層1
370
    20
100
AcDbLine
 10
-388.190401178997
 20
242.8678676462598
 30
0.0
 11
-388.190401178997
 21
244.8678676462598
 31
0.0
  0
LINE
  5
1660
330
2
100
AcDbEntity
  8
画層1
370
    20
100
AcDbLine
 10
-387.690401178997
 20
244.3678676462599
 30
0.0
 11
-387.690401178997
 21
243.3678676462598
 31
0.0
  0
LINE
  5
1661
330
2
100
AcDbEntity
  8
画層1
370
    20
100
AcDbLine
 10
-384.1904011789971
 20
246.8678676462598
 30
0.0
 11
-385.190401178997
 21
246.8678676462598
 31
0.0
  0
LINE
  5
1662
330
2
100
AcDbEntity
  8
画層1
370
    20
100
AcDbLine
 10
-386.1904011789971
 20
246.8678676462598
 30
0.0
 11
-385.190401178997
 21
246.8678676462598
 31
0.0
  0
LINE
  5
1663
330
2
100
AcDbEntity
  8
画層1
370
    20
100
AcDbLine
 10
-389.1904011789971
 20
249.8678676462599
 30
0.0
 11
-378.1904011789971
 21
249.8678676462599
 31
0.0
  0
LINE
  5
1664
330
2
100
AcDbEntity
  8
画層1
370
    20
100
AcDbLine
 10
-378.1904011789971
 20
239.8678676462599
 30
0.0
 11
-378.1904011789971
 21
247.8678676462599
 31
0.0
  0
LINE
  5
1665
330
2
100
AcDbEntity
  8
画層1
370
    20
100
AcDbLine
 10
-381.190401178997
 20
247.8678676462599
 30
0.0
 11
-381.190401178997
 21
239.8678676462599
 31
0.0
  0
LINE
  5
1666
330
2
100
AcDbEntity
  8
画層1
370
    20
100
AcDbLine
 10
-382.690401178997
 20
247.8678676462599
 30
0.0
 11
-382.690401178997
 21
239.8678676462599
 31
0.0
  0
LINE
  5
1667
330
2
100
AcDbEntity
  8
画層1
370
    20
100
AcDbLine
 10
-384.1904011789971
 20
247.8678676462599
 30
0.0
 11
-384.1904011789971
 21
239.8678676462599
 31
0.0
  0
ARC
  5
1668
330
2
100
AcDbEntity
  8
画層1
370
    20
100
AcDbCircle
 10
-386.1904011789971
 20
254.8678676462599
 30
0.0
 40
2.0
100
AcDbArc
 50
90.0
 51
180.0
  0
LINE
  5
1669
330
2
100
AcDbEntity
  8
画層1
370
    20
100
AcDbLine
 10
-385.190401178997
 20
256.8678676462599
 30
0.0
 11
-385.190401178997
 21
250.8678676462599
 31
0.0
  0
ARC
  5
166A
330
2
100
AcDbEntity
  8
画層1
370
    20
100
AcDbCircle
 10
-386.1904011789971
 20
252.8678676462598
 30
0.0
 40
2.0
100
AcDbArc
 50
180.0
 51
270.0
  0
LINE
  5
166B
330
2
100
AcDbEntity
  8
画層1
370
    20
100
AcDbLine
 10
-387.690401178997
 20
254.3678676462599
 30
0.0
 11
-387.690401178997
 21
253.3678676462598
 31
0.0
  0
LINE
  5
166C
330
2
100
AcDbEntity
  8
画層1
370
    20
100
AcDbLine
 10
-388.190401178997
 20
252.8678676462598
 30
0.0
 11
-388.190401178997
 21
254.8678676462599
 31
0.0
  0
ARC
  5
166D
330
2
100
AcDbEntity
  8
画層1
370
    20
100
AcDbCircle
 10
-387.690401178997
 20
252.8678676462599
 30
0.0
 40
0.5
100
AcDbArc
 50
90.0
 51
180.0
  0
ARC
  5
166E
330
2
100
AcDbEntity
  8
画層1
370
    20
100
AcDbCircle
 10
-387.690401178997
 20
254.8678676462599
 30
0.0
 40
0.5
100
AcDbArc
 50
180.0
 51
270.0
  0
LINE
  5
166F
330
2
100
AcDbEntity
  8
画層1
370
    20
100
AcDbLine
 10
-385.190401178997
 20
250.8678676462599
 30
0.0
 11
-386.1904011789971
 21
250.8678676462598
 31
0.0
  0
LINE
  5
1670
330
2
100
AcDbEntity
  8
画層1
370
    20
100
AcDbLine
 10
-385.190401178997
 20
250.8678676462599
 30
0.0
 11
-384.1904011789971
 21
250.8678676462599
 31
0.0
  0
LINE
  5
1671
330
2
100
AcDbEntity
  8
画層1
370
    20
100
AcDbLine
 10
-389.1904011789971
 20
259.8678676462599
 30
0.0
 11
-378.1904011789971
 21
259.8678676462599
 31
0.0
  0
LINE
  5
1672
330
2
100
AcDbEntity
  8
画層1
370
    20
100
AcDbLine
 10
-378.1904011789971
 20
257.8678676462599
 30
0.0
 11
-389.1904011789971
 21
257.8678676462599
 31
0.0
  0
LINE
  5
1673
330
2
100
AcDbEntity
  8
画層1
370
    20
100
AcDbLine
 10
-389.1904011789971
 20
257.8678676462599
 30
0.0
 11
-389.1904011789971
 21
259.8678676462599
 31
0.0
  0
LINE
  5
1674
330
2
100
AcDbEntity
  8
画層1
370
    20
100
AcDbLine
 10
-386.1904011789971
 20
256.8678676462599
 30
0.0
 11
-385.190401178997
 21
256.8678676462599
 31
0.0
  0
LINE
  5
1675
330
2
100
AcDbEntity
  8
画層1
370
    20
100
AcDbLine
 10
-384.1904011789971
 20
256.8678676462599
 30
0.0
 11
-385.190401178997
 21
256.8678676462599
 31
0.0
  0
LINE
  5
1676
330
2
100
AcDbEntity
  8
画層1
370
    20
100
AcDbLine
 10
-384.1904011789971
 20
257.8678676462599
 30
0.0
 11
-384.1904011789971
 21
249.8678676462599
 31
0.0
  0
LINE
  5
1677
330
2
100
AcDbEntity
  8
画層1
370
    20
100
AcDbLine
 10
-382.690401178997
 20
257.8678676462599
 30
0.0
 11
-382.690401178997
 21
249.8678676462599
 31
0.0
  0
LINE
  5
1678
330
2
100
AcDbEntity
  8
画層1
370
    20
100
AcDbLine
 10
-381.190401178997
 20
257.8678676462599
 30
0.0
 11
-381.190401178997
 21
249.8678676462599
 31
0.0
  0
LINE
  5
1679
330
2
100
AcDbEntity
  8
画層1
370
    20
100
AcDbLine
 10
-378.1904011789971
 20
249.8678676462599
 30
0.0
 11
-378.1904011789971
 21
257.8678676462599
 31
0.0
  0
ARC
  5
167A
330
2
100
AcDbEntity
  8
画層1
370
    20
100
AcDbCircle
 10
-387.690401178997
 20
264.8678676462599
 30
0.0
 40
0.5
100
AcDbArc
 50
180.0
 51
270.0
  0
LINE
  5
167B
330
2
100
AcDbEntity
  8
画層1
370
    20
100
AcDbLine
 10
-388.190401178997
 20
262.8678676462598
 30
0.0
 11
-388.190401178997
 21
264.8678676462599
 31
0.0
  0
LINE
  5
167C
330
2
100
AcDbEntity
  8
画層1
370
    20
100
AcDbLine
 10
-387.690401178997
 20
264.3678676462599
 30
0.0
 11
-387.690401178997
 21
263.3678676462599
 31
0.0
  0
LINE
  5
167D
330
2
100
AcDbEntity
  8
画層1
370
    20
100
AcDbLine
 10
-385.190401178997
 20
266.8678676462599
 30
0.0
 11
-385.190401178997
 21
260.8678676462599
 31
0.0
  0
ARC
  5
167E
330
2
100
AcDbEntity
  8
画層1
370
    20
100
AcDbCircle
 10
-386.1904011789971
 20
262.8678676462598
 30
0.0
 40
2.0
100
AcDbArc
 50
180.0
 51
270.0
  0
ARC
  5
167F
330
2
100
AcDbEntity
  8
画層1
370
    20
100
AcDbCircle
 10
-387.690401178997
 20
262.8678676462599
 30
0.0
 40
0.5
100
AcDbArc
 50
90.0
 51
180.0
  0
LINE
  5
1680
330
2
100
AcDbEntity
  8
画層1
370
    20
100
AcDbLine
 10
-385.190401178997
 20
260.8678676462599
 30
0.0
 11
-384.1904011789971
 21
260.8678676462599
 31
0.0
  0
LINE
  5
1681
330
2
100
AcDbEntity
  8
画層1
370
    20
100
AcDbLine
 10
-385.190401178997
 20
260.8678676462599
 30
0.0
 11
-386.1904011789971
 21
260.8678676462598
 31
0.0
  0
LINE
  5
1682
330
2
100
AcDbEntity
  8
画層1
370
    20
100
AcDbLine
 10
-378.1904011789971
 20
267.8678676462599
 30
0.0
 11
-389.1904011789971
 21
267.8678676462599
 31
0.0
  0
LINE
  5
1683
330
2
100
AcDbEntity
  8
画層1
370
    20
100
AcDbLine
 10
-389.1904011789971
 20
269.8678676462599
 30
0.0
 11
-374.1904011789971
 21
269.8678676462599
 31
0.0
  0
ARC
  5
1684
330
2
100
AcDbEntity
  8
画層1
370
    20
100
AcDbCircle
 10
-386.1904011789971
 20
264.8678676462599
 30
0.0
 40
2.0
100
AcDbArc
 50
90.0
 51
180.0
  0
LINE
  5
1685
330
2
100
AcDbEntity
  8
画層1
370
    20
100
AcDbLine
 10
-389.1904011789971
 20
267.8678676462599
 30
0.0
 11
-389.1904011789971
 21
269.8678676462599
 31
0.0
  0
LINE
  5
1686
330
2
100
AcDbEntity
  8
画層1
370
    20
100
AcDbLine
 10
-384.1904011789971
 20
266.8678676462599
 30
0.0
 11
-385.190401178997
 21
266.8678676462599
 31
0.0
  0
LINE
  5
1687
330
2
100
AcDbEntity
  8
画層1
370
    20
100
AcDbLine
 10
-386.1904011789971
 20
266.8678676462599
 30
0.0
 11
-385.190401178997
 21
266.8678676462599
 31
0.0
  0
LINE
  5
1688
330
2
100
AcDbEntity
  8
画層1
370
    20
100
AcDbLine
 10
-378.1904011789971
 20
259.8678676462599
 30
0.0
 11
-378.1904011789971
 21
267.8678676462599
 31
0.0
  0
LINE
  5
1689
330
2
100
AcDbEntity
  8
画層1
370
    20
100
AcDbLine
 10
-381.190401178997
 20
267.8678676462599
 30
0.0
 11
-381.190401178997
 21
259.8678676462599
 31
0.0
  0
LINE
  5
168A
330
2
100
AcDbEntity
  8
画層1
370
    20
100
AcDbLine
 10
-382.690401178997
 20
267.8678676462599
 30
0.0
 11
-382.690401178997
 21
259.8678676462599
 31
0.0
  0
LINE
  5
168B
330
2
100
AcDbEntity
  8
画層1
370
    20
100
AcDbLine
 10
-384.1904011789971
 20
267.8678676462599
 30
0.0
 11
-384.1904011789971
 21
259.8678676462599
 31
0.0
  0
LWPOLYLINE
  5
175D
330
2
100
AcDbEntity
  8
画層1
370
    20
100
AcDbPolyline
 90
        8
 70
     1
 43
0.0
 10
-593.5652295960735
 20
166.458776737169
 10
-534.5652295960735
 20
166.4587767371689
 42
0.4142135623730951
 10
-532.5652295960735
 20
168.458776737169
 10
-532.5652295960735
 20
199.4587767371689
 42
0.414213562373095
 10
-534.5652295960735
 20
201.4587767371689
 10
-593.5652295960735
 20
201.458776737169
 42
0.4142135623730951
 10
-595.5652295960735
 20
199.458776737169
 10
-595.5652295960735
 20
168.458776737169
 42
0.4142135623730951
  0
CIRCLE
  5
17DB
330
2
100
AcDbEntity
  8
画層1
370
    20
100
AcDbCircle
 10
-505.5652295960735
 20
375.9587767371689
 30
0.0
 40
4.5
  0
CIRCLE
  5
17DC
330
2
100
AcDbEntity
  8
画層1
370
    20
100
AcDbCircle
 10
-645.5652295960735
 20
375.9587767371689
 30
0.0
 40
4.5
  0
ARC
  5
17EE
330
2
100
AcDbEntity
  8
画層1
370
    20
100
AcDbCircle
 10
-505.5652295960735
 20
111.9587767371689
 30
0.0
 40
4.5
100
AcDbArc
 50
0.0
 51
180.0
  0
LINE
  5
17EF
330
2
100
AcDbEntity
  8
画層1
370
    20
100
AcDbLine
 10
-510.0652295960735
 20
111.9587767371689
 30
0.0
 11
-510.0652295960735
 21
101.9587767371689
 31
0.0
  0
LINE
  5
17F0
330
2
100
AcDbEntity
  8
画層1
370
    20
100
AcDbLine
 10
-501.0652295960735
 20
111.9587767371689
 30
0.0
 11
-501.0652295960735
 21
101.9587767371689
 31
0.0
  0
LINE
  5
17F1
330
2
100
AcDbEntity
  8
画層1
370
    20
100
AcDbLine
 10
-641.0652295960735
 20
111.9587767371689
 30
0.0
 11
-641.0652295960735
 21
101.9587767371689
 31
0.0
  0
LINE
  5
17F2
330
2
100
AcDbEntity
  8
画層1
370
    20
100
AcDbLine
 10
-650.0652295960735
 20
111.9587767371689
 30
0.0
 11
-650.0652295960735
 21
101.9587767371689
 31
0.0
  0
ARC
  5
17F3
330
2
100
AcDbEntity
  8
画層1
370
    20
100
AcDbCircle
 10
-645.5652295960735
 20
111.9587767371689
 30
0.0
 40
4.5
100
AcDbArc
 50
0.0
 51
180.0
  0
LINE
  5
17F4
330
2
100
AcDbEntity
  8
画層1
370
    20
100
AcDbLine
 10
-672.0652295960735
 20
385.958776737169
 30
0.0
 11
-672.0652295960735
 21
353.9587767371689
 31
0.0
  0
LINE
  5
17F6
330
2
100
AcDbEntity
  8
画層1
370
    20
100
AcDbLine
 10
-479.0652295960735
 20
385.958776737169
 30
0.0
 11
-479.0652295960735
 21
353.9587767371689
 31
0.0
  0
LINE
  5
17FB
330
2
100
AcDbEntity
  8
画層1
  6
CENTER
 62
     0
370
    20
100
AcDbLine
 10
-575.5652295960735
 20
415.8059671222513
 30
0.0
 11
-575.5652295960735
 21
72.78456626099876
 31
0.0
  0
LWPOLYLINE
  5
17FD
330
2
100
AcDbEntity
  8
画層1
370
    20
100
AcDbPolyline
 90
        4
 70
     1
 43
0.0
 10
-675.0652295960735
 20
353.9587767371689
 10
-476.0652295960735
 20
353.9587767371689
 10
-476.0652295960735
 20
133.9587767371689
 10
-675.0652295960735
 20
133.9587767371689
  0
LINE
  5
1803
330
2
100
AcDbEntity
  8
画層1
370
    20
100
AcDbLine
 10
-625.5652295960735
 20
353.9587767371689
 30
0.0
 11
-625.5652295960735
 21
383.9587767371689
 31
0.0
  0
LINE
  5
1804
330
2
100
AcDbEntity
  8
画層1
370
    20
100
AcDbLine
 10
-625.5652295960735
 20
383.9587767371689
 30
0.0
 11
-605.5652295960735
 21
383.9587767371689
 31
0.0
  0
LINE
  5
1805
330
2
100
AcDbEntity
  8
画層1
370
    20
100
AcDbLine
 10
-605.5652295960735
 20
383.9587767371689
 30
0.0
 11
-605.5652295960735
 21
353.9587767371689
 31
0.0
  0
LINE
  5
1806
330
2
100
AcDbEntity
  8
画層1
370
    20
100
AcDbLine
 10
-525.5652295960735
 20
383.9587767371689
 30
0.0
 11
-525.5652295960735
 21
353.9587767371689
 31
0.0
  0
LINE
  5
1807
330
2
100
AcDbEntity
  8
画層1
370
    20
100
AcDbLine
 10
-545.5652295960735
 20
353.9587767371689
 30
0.0
 11
-545.5652295960735
 21
383.9587767371689
 31
0.0
  0
LINE
  5
1808
330
2
100
AcDbEntity
  8
画層1
370
    20
100
AcDbLine
 10
-545.5652295960735
 20
383.9587767371689
 30
0.0
 11
-525.5652295960735
 21
383.9587767371689
 31
0.0
  0
CIRCLE
  5
180A
330
2
100
AcDbEntity
  8
画層1
370
    20
100
AcDbCircle
 10
-535.5652295960735
 20
373.9587767371689
 30
0.0
 40
9.0
  0
LINE
  5
180E
330
2
100
AcDbEntity
  8
画層1
370
    20
100
AcDbLine
 10
-542.0652295960735
 20
370.217119350395
 30
0.0
 11
-535.5652295960735
 21
366.4587767371689
 31
0.0
  0
LINE
  5
180F
330
2
100
AcDbEntity
  8
画層1
370
    20
100
AcDbLine
 10
-535.5652295960735
 20
366.4587767371689
 30
0.0
 11
-529.0652295960735
 21
370.217119350395
 31
0.0
  0
LINE
  5
1810
330
2
100
AcDbEntity
  8
画層1
370
    20
100
AcDbLine
 10
-529.0652295960735
 20
370.217119350395
 30
0.0
 11
-529.0652295960735
 21
377.7004341239429
 31
0.0
  0
LINE
  5
1811
330
2
100
AcDbEntity
  8
画層1
370
    20
100
AcDbLine
 10
-529.0652295960735
 20
377.7004341239429
 30
0.0
 11
-535.5652295960735
 21
381.458776737169
 31
0.0
  0
LINE
  5
1812
330
2
100
AcDbEntity
  8
画層1
370
    20
100
AcDbLine
 10
-535.5652295960735
 20
381.458776737169
 30
0.0
 11
-542.0652295960735
 21
377.7004341239429
 31
0.0
  0
LINE
  5
1813
330
2
100
AcDbEntity
  8
画層1
370
    20
100
AcDbLine
 10
-542.0652295960735
 20
377.7004341239429
 30
0.0
 11
-542.0652295960735
 21
370.217119350395
 31
0.0
  0
CIRCLE
  5
1849
330
2
100
AcDbEntity
  8
画層1
370
    20
100
AcDbCircle
 10
-615.5652295960735
 20
373.9587767371689
 30
0.0
 40
9.0
  0
LINE
  5
184A
330
2
100
AcDbEntity
  8
画層1
370
    20
100
AcDbLine
 10
-622.0652295960735
 20
370.217119350395
 30
0.0
 11
-615.5652295960735
 21
366.4587767371689
 31
0.0
  0
LINE
  5
184B
330
2
100
AcDbEntity
  8
画層1
370
    20
100
AcDbLine
 10
-615.5652295960735
 20
366.4587767371689
 30
0.0
 11
-609.0652295960735
 21
370.217119350395
 31
0.0
  0
LINE
  5
184C
330
2
100
AcDbEntity
  8
画層1
370
    20
100
AcDbLine
 10
-609.0652295960735
 20
370.217119350395
 30
0.0
 11
-609.0652295960735
 21
377.7004341239429
 31
0.0
  0
LINE
  5
184D
330
2
100
AcDbEntity
  8
画層1
370
    20
100
AcDbLine
 10
-609.0652295960735
 20
377.7004341239429
 30
0.0
 11
-615.5652295960735
 21
381.458776737169
 31
0.0
  0
LINE
  5
184E
330
2
100
AcDbEntity
  8
画層1
370
    20
100
AcDbLine
 10
-615.5652295960735
 20
381.458776737169
 30
0.0
 11
-622.0652295960735
 21
377.7004341239429
 31
0.0
  0
LINE
  5
184F
330
2
100
AcDbEntity
  8
画層1
370
    20
100
AcDbLine
 10
-622.0652295960735
 20
377.7004341239429
 30
0.0
 11
-622.0652295960735
 21
370.217119350395
 31
0.0
  0
LINE
  5
1853
330
2
100
AcDbEntity
  8
画層1
370
    20
100
AcDbLine
 10
-531.241515216545
 20
353.9587767371689
 30
0.0
 11
-535.5652295960735
 21
356.458776737169
 31
0.0
  0
LINE
  5
1854
330
2
100
AcDbEntity
  8
画層1
370
    20
100
AcDbLine
 10
-535.5652295960735
 20
356.458776737169
 30
0.0
 11
-539.888943975602
 21
353.9587767371689
 31
0.0
  0
LINE
  5
1859
330
2
100
AcDbEntity
  8
画層1
370
    20
100
AcDbLine
 10
-615.5652295960735
 20
356.458776737169
 30
0.0
 11
-619.888943975602
 21
353.9587767371689
 31
0.0
  0
LINE
  5
185C
330
2
100
AcDbEntity
  8
画層1
370
    20
100
AcDbLine
 10
-611.241515216545
 20
353.9587767371689
 30
0.0
 11
-615.5652295960735
 21
356.458776737169
 31
0.0
  0
LINE
  5
185F
330
2
100
AcDbEntity
  8
画層1
370
    20
100
AcDbLine
 10
-525.5652295960735
 20
363.9587767371689
 30
0.0
 11
-479.0652295960735
 21
363.9587767371689
 31
0.0
  0
LINE
  5
1860
330
2
100
AcDbEntity
  8
画層1
370
    20
100
AcDbLine
 10
-545.5652295960735
 20
363.9587767371689
 30
0.0
 11
-605.5652295960735
 21
363.9587767371689
 31
0.0
  0
LINE
  5
1861
330
2
100
AcDbEntity
  8
画層1
370
    20
100
AcDbLine
 10
-625.5652295960735
 20
363.9587767371689
 30
0.0
 11
-672.0652295960735
 21
363.9587767371689
 31
0.0
  0
LINE
  5
1867
330
2
100
AcDbEntity
  8
画層1
370
    20
100
AcDbLine
 10
-625.6652295960735
 20
133.9587767371689
 30
0.0
 11
-625.6652295960735
 21
103.958776737169
 31
0.0
  0
LINE
  5
1868
330
2
100
AcDbEntity
  8
画層1
370
    20
100
AcDbLine
 10
-625.6652295960735
 20
103.958776737169
 30
0.0
 11
-605.6652295960735
 21
103.958776737169
 31
0.0
  0
LINE
  5
1869
330
2
100
AcDbEntity
  8
画層1
370
    20
100
AcDbLine
 10
-605.6652295960735
 20
103.958776737169
 30
0.0
 11
-605.6652295960735
 21
133.9587767371689
 31
0.0
  0
CIRCLE
  5
186C
330
2
100
AcDbEntity
  8
画層1
370
    20
100
AcDbCircle
 10
-615.6652295960736
 20
113.9587767371689
 30
0.0
 40
9.0
  0
LINE
  5
187B
330
2
100
AcDbEntity
  8
画層1
370
    20
100
AcDbLine
 10
-622.1652295960735
 20
117.9587767371689
 30
0.0
 11
-615.6652295960736
 21
121.4587767371689
 31
0.0
  0
LINE
  5
187C
330
2
100
AcDbEntity
  8
画層1
370
    20
100
AcDbLine
 10
-615.6652295960736
 20
121.4587767371689
 30
0.0
 11
-609.1652295960735
 21
117.9587767371689
 31
0.0
  0
LINE
  5
187D
330
2
100
AcDbEntity
  8
画層1
370
    20
100
AcDbLine
 10
-615.6652295960736
 20
106.4587767371689
 30
0.0
 11
-609.1652295960735
 21
109.9587767371689
 31
0.0
  0
LINE
  5
187E
330
2
100
AcDbEntity
  8
画層1
370
    20
100
AcDbLine
 10
-622.1652295960735
 20
109.9587767371689
 30
0.0
 11
-615.6652295960736
 21
106.4587767371689
 31
0.0
  0
LINE
  5
187F
330
2
100
AcDbEntity
  8
画層1
370
    20
100
AcDbLine
 10
-622.1652295960735
 20
117.9587767371689
 30
0.0
 11
-622.1652295960735
 21
109.9587767371689
 31
0.0
  0
LINE
  5
1880
330
2
100
AcDbEntity
  8
画層1
370
    20
100
AcDbLine
 10
-609.1652295960735
 20
117.9587767371689
 30
0.0
 11
-609.1652295960735
 21
109.9587767371689
 31
0.0
  0
LINE
  5
1888
330
2
100
AcDbEntity
  8
画層1
370
    20
100
AcDbLine
 10
-535.6652295960735
 20
121.4587767371689
 30
0.0
 11
-529.1652295960735
 21
117.9587767371689
 31
0.0
  0
LINE
  5
1889
330
2
100
AcDbEntity
  8
画層1
370
    20
100
AcDbLine
 10
-542.1652295960735
 20
117.9587767371689
 30
0.0
 11
-535.6652295960735
 21
121.4587767371689
 31
0.0
  0
LINE
  5
188A
330
2
100
AcDbEntity
  8
画層1
370
    20
100
AcDbLine
 10
-542.1652295960735
 20
109.9587767371689
 30
0.0
 11
-535.6652295960735
 21
106.4587767371689
 31
0.0
  0
LINE
  5
188B
330
2
100
AcDbEntity
  8
画層1
370
    20
100
AcDbLine
 10
-542.1652295960735
 20
117.9587767371689
 30
0.0
 11
-542.1652295960735
 21
109.9587767371689
 31
0.0
  0
LINE
  5
188C
330
2
100
AcDbEntity
  8
画層1
370
    20
100
AcDbLine
 10
-529.1652295960735
 20
117.9587767371689
 30
0.0
 11
-529.1652295960735
 21
109.9587767371689
 31
0.0
  0
LINE
  5
188D
330
2
100
AcDbEntity
  8
画層1
370
    20
100
AcDbLine
 10
-535.6652295960735
 20
106.4587767371689
 30
0.0
 11
-529.1652295960735
 21
109.9587767371689
 31
0.0
  0
CIRCLE
  5
188E
330
2
100
AcDbEntity
  8
画層1
370
    20
100
AcDbCircle
 10
-535.6652295960735
 20
113.9587767371689
 30
0.0
 40
9.0
  0
LINE
  5
188F
330
2
100
AcDbEntity
  8
画層1
370
    20
100
AcDbLine
 10
-525.6652295960735
 20
103.958776737169
 30
0.0
 11
-525.6652295960735
 21
133.9587767371689
 31
0.0
  0
LINE
  5
1890
330
2
100
AcDbEntity
  8
画層1
370
    20
100
AcDbLine
 10
-545.6652295960735
 20
133.9587767371689
 30
0.0
 11
-545.6652295960735
 21
103.958776737169
 31
0.0
  0
LINE
  5
1891
330
2
100
AcDbEntity
  8
画層1
370
    20
100
AcDbLine
 10
-545.6652295960735
 20
103.958776737169
 30
0.0
 11
-525.6652295960735
 21
103.958776737169
 31
0.0
  0
LINE
  5
189C
330
2
100
AcDbEntity
  8
画層1
370
    20
100
AcDbLine
 10
-363.490401178997
 20
133.9587767371689
 30
0.0
 11
-363.490401178997
 21
106.9587767371689
 31
0.0
  0
LINE
  5
189D
330
2
100
AcDbEntity
  8
画層1
370
    20
100
AcDbLine
 10
-358.490401178997
 20
101.9587767371689
 30
0.0
 11
-203.490401178997
 21
101.9587767371689
 31
0.0
  0
LINE
  5
189E
330
2
100
AcDbEntity
  8
画層1
370
    20
100
AcDbLine
 10
-203.490401178997
 20
101.9587767371689
 30
0.0
 11
-203.490401178997
 21
385.958776737169
 31
0.0
  0
LINE
  5
189F
330
2
100
AcDbEntity
  8
画層1
370
    20
100
AcDbLine
 10
-203.490401178997
 20
385.958776737169
 30
0.0
 11
-358.490401178997
 21
385.958776737169
 31
0.0
  0
LINE
  5
18A0
330
2
100
AcDbEntity
  8
画層1
370
    20
100
AcDbLine
 10
-363.490401178997
 20
380.9587767371689
 30
0.0
 11
-363.490401178997
 21
353.9587767371689
 31
0.0
  0
LWPOLYLINE
  5
18A1
330
2
100
AcDbEntity
  8
画層1
370
    20
100
AcDbPolyline
 90
        4
 70
     0
 43
0.0
 10
-477.4652295960736
 20
353.9587767371689
 10
-477.4652295960736
 20
385.958776737169
 10
-673.6652295960736
 20
385.958776737169
 10
-673.6652295960736
 20
353.9587767371689
  0
LWPOLYLINE
  5
18A4
330
2
100
AcDbEntity
  8
画層1
370
    20
100
AcDbPolyline
 90
        2
 70
     0
 43
0.0
 10
-479.0652295960736
 20
101.9587767371689
 10
-479.0652295960736
 20
133.9587767371689
  0
LWPOLYLINE
  5
18A5
330
2
100
AcDbEntity
  8
画層1
370
    20
100
AcDbPolyline
 90
        2
 70
     0
 43
0.0
 10
-673.6652295960736
 20
133.9587767371689
 10
-673.6652295960736
 20
101.9587767371689
  0
LWPOLYLINE
  5
18A6
330
2
100
AcDbEntity
  8
画層1
370
    20
100
AcDbPolyline
 90
        2
 70
     0
 43
0.0
 10
-672.0652295960735
 20
133.9587767371689
 10
-672.0652295960735
 20
101.9587767371689
  0
ARC
  5
18A7
330
2
100
AcDbEntity
  8
画層1
370
    20
100
AcDbCircle
 10
-358.490401178997
 20
380.9587767371689
 30
0.0
 40
5.0
100
AcDbArc
 50
90.0
 51
180.0
  0
ARC
  5
18A8
330
2
100
AcDbEntity
  8
画層1
370
    20
100
AcDbCircle
 10
-358.490401178997
 20
106.9587767371689
 30
0.0
 40
5.0
100
AcDbArc
 50
180.0
 51
270.0
  0
LINE
  5
18AF
330
2
100
AcDbEntity
  8
画層1
370
    20
100
AcDbLine
 10
-353.090401178997
 20
183.9587767371689
 30
0.0
 11
-327.490401178997
 21
183.958776737169
 31
0.0
  0
LINE
  5
18B0
330
2
100
AcDbEntity
  8
画層1
370
    20
100
AcDbLine
 10
-323.490401178997
 20
187.958776737169
 30
0.0
 11
-323.490401178997
 21
299.9587767371689
 31
0.0
  0
LINE
  5
18B1
330
2
100
AcDbEntity
  8
画層1
370
    20
100
AcDbLine
 10
-327.490401178997
 20
303.9587767371689
 30
0.0
 11
-353.090401178997
 21
303.9587767371689
 31
0.0
  0
LWPOLYLINE
  5
18BA
330
2
100
AcDbEntity
  8
画層1
370
    20
100
AcDbPolyline
 90
        6
 70
     1
 43
0.0
 10
-364.090401178997
 20
133.9587767371689
 10
-355.090401178997
 20
133.9587767371689
 42
0.4142135623730951
 10
-353.090401178997
 20
135.9587767371689
 10
-353.090401178997
 20
351.9587767371689
 42
0.4142135623730951
 10
-355.090401178997
 20
353.9587767371689
 10
-364.090401178997
 20
353.9587767371689
  0
ARC
  5
18C2
330
2
100
AcDbEntity
  8
画層1
370
    20
100
AcDbCircle
 10
-359.090401178997
 20
172.4587767371689
 30
0.0
 40
1.0
100
AcDbArc
 50
0.0
 51
90.0
  0
ARC
  5
18C3
330
2
100
AcDbEntity
  8
画層1
370
    20
100
AcDbCircle
 10
-356.090401178997
 20
172.4587767371689
 30
0.0
 40
1.0
100
AcDbArc
 50
90.0
 51
180.0
  0
CIRCLE
  5
18C4
330
2
100
AcDbEntity
  8
画層1
370
    20
100
AcDbCircle
 10
-357.590401178997
 20
173.9587767371689
 30
0.0
 40
3.0
  0
LINE
  5
18C5
330
2
100
AcDbEntity
  8
画層1
370
    20
100
AcDbLine
 10
-358.090401178997
 20
172.4587767371689
 30
0.0
 11
-358.090401178997
 21
171.9587767371689
 31
0.0
  0
LINE
  5
18C6
330
2
100
AcDbEntity
  8
画層1
370
    20
100
AcDbLine
 10
-358.090401178997
 20
171.9587767371689
 30
0.0
 11
-357.090401178997
 21
171.9587767371689
 31
0.0
  0
LINE
  5
18C7
330
2
100
AcDbEntity
  8
画層1
370
    20
100
AcDbLine
 10
-357.090401178997
 20
171.9587767371689
 30
0.0
 11
-357.090401178997
 21
172.4587767371689
 31
0.0
  0
LINE
  5
18C8
330
2
100
AcDbEntity
  8
画層1
370
    20
100
AcDbLine
 10
-359.590401178997
 20
173.4587767371689
 30
0.0
 11
-359.090401178997
 21
173.4587767371689
 31
0.0
  0
LINE
  5
18C9
330
2
100
AcDbEntity
  8
画層1
370
    20
100
AcDbLine
 10
-356.090401178997
 20
173.4587767371689
 30
0.0
 11
-355.590401178997
 21
173.4587767371689
 31
0.0
  0
LINE
  5
18CA
330
2
100
AcDbEntity
  8
画層1
370
    20
100
AcDbLine
 10
-355.590401178997
 20
173.4587767371689
 30
0.0
 11
-355.590401178997
 21
174.4587767371689
 31
0.0
  0
LINE
  5
18CB
330
2
100
AcDbEntity
  8
画層1
370
    20
100
AcDbLine
 10
-355.590401178997
 20
174.4587767371689
 30
0.0
 11
-356.090401178997
 21
174.4587767371689
 31
0.0
  0
LINE
  5
18CC
330
2
100
AcDbEntity
  8
画層1
370
    20
100
AcDbLine
 10
-357.090401178997
 20
175.4587767371689
 30
0.0
 11
-357.090401178997
 21
175.9587767371689
 31
0.0
  0
LINE
  5
18CD
330
2
100
AcDbEntity
  8
画層1
370
    20
100
AcDbLine
 10
-357.090401178997
 20
175.9587767371689
 30
0.0
 11
-358.090401178997
 21
175.9587767371689
 31
0.0
  0
LINE
  5
18CE
330
2
100
AcDbEntity
  8
画層1
370
    20
100
AcDbLine
 10
-358.090401178997
 20
175.9587767371689
 30
0.0
 11
-358.090401178997
 21
175.4587767371689
 31
0.0
  0
LINE
  5
18CF
330
2
100
AcDbEntity
  8
画層1
370
    20
100
AcDbLine
 10
-359.090401178997
 20
174.4587767371689
 30
0.0
 11
-359.590401178997
 21
174.4587767371689
 31
0.0
  0
LINE
  5
18D0
330
2
100
AcDbEntity
  8
画層1
370
    20
100
AcDbLine
 10
-359.590401178997
 20
174.4587767371689
 30
0.0
 11
-359.590401178997
 21
173.4587767371689
 31
0.0
  0
ARC
  5
18D1
330
2
100
AcDbEntity
  8
画層1
370
    20
100
AcDbCircle
 10
-356.090401178997
 20
175.4587767371689
 30
0.0
 40
1.0
100
AcDbArc
 50
180.0
 51
270.0
  0
ARC
  5
18D2
330
2
100
AcDbEntity
  8
画層1
370
    20
100
AcDbCircle
 10
-359.090401178997
 20
175.4587767371689
 30
0.0
 40
1.0
100
AcDbArc
 50
270.0
 51
0.0
  0
CIRCLE
  5
18D3
330
2
100
AcDbEntity
  8
画層1
370
    20
100
AcDbCircle
 10
-357.590401178997
 20
173.9587767371689
 30
0.0
 40
4.0
  0
CIRCLE
  5
18D5
330
2
100
AcDbEntity
  8
画層1
370
    20
100
AcDbCircle
 10
-285.990401178997
 20
333.958776737169
 30
0.0
 40
6.0
  0
LINE
  5
18DA
330
2
100
AcDbEntity
  8
画層1
370
    20
100
AcDbLine
 10
-291.1860754894836
 20
336.9596046994737
 30
0.0
 11
-291.1860754894836
 21
330.9579487748643
 31
0.0
  0
LINE
  5
18DB
330
2
100
AcDbEntity
  8
画層1
370
    20
100
AcDbLine
 10
-280.7917240644
 20
336.9543995869558
 30
0.0
 11
-280.7917240644
 21
330.963153887382
 31
0.0
  0
LINE
  5
18DC
330
2
100
AcDbEntity
  8
画層1
370
    20
100
AcDbLine
 10
-291.1860754894836
 20
330.9579487748643
 30
0.0
 11
-285.990401178997
 21
327.9587767371689
 31
0.0
  0
LINE
  5
18DD
330
2
100
AcDbEntity
  8
画層1
370
    20
100
AcDbLine
 10
-285.9904011789971
 20
327.9587767371689
 30
0.0
 11
-280.7917240644
 21
330.963153887382
 31
0.0
  0
LINE
  5
18DE
330
2
100
AcDbEntity
  8
画層1
370
    20
100
AcDbLine
 10
-291.1860754894836
 20
336.9596046994737
 30
0.0
 11
-285.990401178997
 21
339.958776737169
 31
0.0
  0
LINE
  5
18DF
330
2
100
AcDbEntity
  8
画層1
370
    20
100
AcDbLine
 10
-285.990401178997
 20
339.958776737169
 30
0.0
 11
-280.7917240644
 21
336.9543995869558
 31
0.0
  0
CIRCLE
  5
18E3
330
2
100
AcDbEntity
  8
画層1
370
    20
100
AcDbCircle
 10
-285.990401178997
 20
333.958776737169
 30
0.0
 40
5.195674310486595
  0
CIRCLE
  5
18E4
330
2
100
AcDbEntity
  8
画層1
370
    20
100
AcDbCircle
 10
-285.990401178997
 20
193.9587767371689
 30
0.0
 40
5.195674310486595
  0
LINE
  5
18E5
330
2
100
AcDbEntity
  8
画層1
370
    20
100
AcDbLine
 10
-291.1860754894836
 20
196.9596046994736
 30
0.0
 11
-291.1860754894836
 21
190.9579487748643
 31
0.0
  0
LINE
  5
18E6
330
2
100
AcDbEntity
  8
画層1
370
    20
100
AcDbLine
 10
-280.7917240644
 20
196.9543995869559
 30
0.0
 11
-280.7917240644
 21
190.963153887382
 31
0.0
  0
CIRCLE
  5
18E7
330
2
100
AcDbEntity
  8
画層1
370
    20
100
AcDbCircle
 10
-285.990401178997
 20
193.9587767371689
 30
0.0
 40
6.0
  0
LINE
  5
18E8
330
2
100
AcDbEntity
  8
画層1
370
    20
100
AcDbLine
 10
-291.1860754894836
 20
190.9579487748642
 30
0.0
 11
-285.990401178997
 21
187.9587767371689
 31
0.0
  0
LINE
  5
18E9
330
2
100
AcDbEntity
  8
画層1
370
    20
100
AcDbLine
 10
-285.9904011789971
 20
187.9587767371689
 30
0.0
 11
-280.7917240644
 21
190.963153887382
 31
0.0
  0
LINE
  5
18EA
330
2
100
AcDbEntity
  8
画層1
370
    20
100
AcDbLine
 10
-291.1860754894836
 20
196.9596046994736
 30
0.0
 11
-285.990401178997
 21
199.9587767371689
 31
0.0
  0
LINE
  5
18EB
330
2
100
AcDbEntity
  8
画層1
370
    20
100
AcDbLine
 10
-285.990401178997
 20
199.9587767371689
 30
0.0
 11
-280.7917240644
 21
196.9543995869559
 31
0.0
  0
ARC
  5
18EC
330
2
100
AcDbEntity
  8
画層1
370
    20
100
AcDbCircle
 10
-327.490401178997
 20
299.9587767371689
 30
0.0
 40
4.0
100
AcDbArc
 50
0.0
 51
90.0
  0
ARC
  5
18ED
330
2
100
AcDbEntity
  8
画層1
370
    20
100
AcDbCircle
 10
-327.490401178997
 20
187.958776737169
 30
0.0
 40
4.0
100
AcDbArc
 50
270.0
 51
0.0
  0
LINE
  5
1955
330
2
100
AcDbEntity
  8
画層1
370
    20
100
AcDbLine
 10
-476.0652295960735
 20
336.9587767371689
 30
0.0
 11
-472.0652295960735
 21
336.9587767371689
 31
0.0
  0
LINE
  5
1956
330
2
100
AcDbEntity
  8
画層1
370
    20
100
AcDbLine
 10
-476.0652295960735
 20
330.9587767371689
 30
0.0
 11
-472.0652295960735
 21
330.9587767371689
 31
0.0
  0
ARC
  5
195B
330
2
100
AcDbEntity
  8
画層1
370
    20
100
AcDbCircle
 10
-476.0652295960735
 20
333.958776737169
 30
0.0
 40
5.0
100
AcDbArc
 50
323.130102354156
 51
0.0
  0
ARC
  5
195C
330
2
100
AcDbEntity
  8
画層1
370
    20
100
AcDbCircle
 10
-476.0652295960735
 20
333.958776737169
 30
0.0
 40
5.0
100
AcDbArc
 50
0.0
 51
36.86989764584402
  0
ARC
  5
1960
330
2
100
AcDbEntity
  8
画層1
370
    20
100
AcDbCircle
 10
-472.3152295960735
 20
338.208776737169
 30
0.0
 40
1.274754878398196
100
AcDbArc
 50
281.3099324740201
 51
78.6900675259798
  0
ARC
  5
1961
330
2
100
AcDbEntity
  8
画層1
370
    20
100
AcDbCircle
 10
-472.3152295960735
 20
329.708776737169
 30
0.0
 40
1.274754878398196
100
AcDbArc
 50
281.3099324740201
 51
78.69006752597981
  0
LINE
  5
1964
330
2
100
AcDbEntity
  8
画層1
370
    20
100
AcDbLine
 10
-471.0404747176753
 20
338.208776737169
 30
0.0
 11
-471.0404747176753
 21
329.708776737169
 31
0.0
  0
LINE
  5
1965
330
2
100
AcDbEntity
  8
画層1
370
    20
100
AcDbLine
 10
-472.0652295960735
 20
339.4587767371689
 30
0.0
 11
-476.0652295960735
 21
339.4587767371689
 31
0.0
  0
LINE
  5
1966
330
2
100
AcDbEntity
  8
画層1
370
    20
100
AcDbLine
 10
-472.0652295960735
 20
328.4587767371689
 30
0.0
 11
-476.0652295960735
 21
328.4587767371689
 31
0.0
  0
ARC
  5
1967
330
2
100
AcDbEntity
  8
画層1
370
    20
100
AcDbCircle
 10
-675.0652295960735
 20
333.958776737169
 30
0.0
 40
5.0
100
AcDbArc
 50
143.1301023541559
 51
180.0
  0
ARC
  5
1968
330
2
100
AcDbEntity
  8
画層1
370
    20
100
AcDbCircle
 10
-675.0652295960735
 20
333.958776737169
 30
0.0
 40
5.0
100
AcDbArc
 50
180.0
 51
216.869897645844
  0
LINE
  5
1969
330
2
100
AcDbEntity
  8
画層1
370
    20
100
AcDbLine
 10
-680.0899844744717
 20
338.208776737169
 30
0.0
 11
-680.0899844744717
 21
329.708776737169
 31
0.0
  0
ARC
  5
196A
330
2
100
AcDbEntity
  8
画層1
370
    20
100
AcDbCircle
 10
-678.8152295960735
 20
329.708776737169
 30
0.0
 40
1.274754878398196
100
AcDbArc
 50
101.3099324740201
 51
258.6900675259798
  0
LINE
  5
196B
330
2
100
AcDbEntity
  8
画層1
370
    20
100
AcDbLine
 10
-679.0652295960735
 20
328.4587767371689
 30
0.0
 11
-675.0652295960735
 21
328.4587767371689
 31
0.0
  0
LINE
  5
196C
330
2
100
AcDbEntity
  8
画層1
370
    20
100
AcDbLine
 10
-675.0652295960735
 20
330.9587767371689
 30
0.0
 11
-679.0652295960735
 21
330.9587767371689
 31
0.0
  0
LINE
  5
196D
330
2
100
AcDbEntity
  8
画層1
370
    20
100
AcDbLine
 10
-679.0652295960735
 20
339.4587767371689
 30
0.0
 11
-675.0652295960735
 21
339.4587767371689
 31
0.0
  0
ARC
  5
196E
330
2
100
AcDbEntity
  8
画層1
370
    20
100
AcDbCircle
 10
-678.8152295960735
 20
338.208776737169
 30
0.0
 40
1.274754878398196
100
AcDbArc
 50
101.3099324740201
 51
258.6900675259798
  0
LINE
  5
196F
330
2
100
AcDbEntity
  8
画層1
370
    20
100
AcDbLine
 10
-675.0652295960735
 20
336.9587767371689
 30
0.0
 11
-679.0652295960735
 21
336.9587767371689
 31
0.0
  0
ARC
  5
1970
330
2
100
AcDbEntity
  8
画層1
370
    20
100
AcDbCircle
 10
-476.0652295960735
 20
193.9587767371689
 30
0.0
 40
5.0
100
AcDbArc
 50
0.0
 51
36.86989764584402
  0
ARC
  5
1971
330
2
100
AcDbEntity
  8
画層1
370
    20
100
AcDbCircle
 10
-476.0652295960735
 20
193.9587767371689
 30
0.0
 40
5.0
100
AcDbArc
 50
323.130102354156
 51
0.0
  0
LINE
  5
1972
330
2
100
AcDbEntity
  8
画層1
370
    20
100
AcDbLine
 10
-471.0404747176753
 20
198.2087767371689
 30
0.0
 11
-471.0404747176753
 21
189.7087767371689
 31
0.0
  0
ARC
  5
1973
330
2
100
AcDbEntity
  8
画層1
370
    20
100
AcDbCircle
 10
-472.3152295960735
 20
189.7087767371689
 30
0.0
 40
1.274754878398196
100
AcDbArc
 50
281.3099324740201
 51
78.69006752597981
  0
LINE
  5
1974
330
2
100
AcDbEntity
  8
画層1
370
    20
100
AcDbLine
 10
-472.0652295960735
 20
188.4587767371689
 30
0.0
 11
-476.0652295960735
 21
188.4587767371689
 31
0.0
  0
LINE
  5
1975
330
2
100
AcDbEntity
  8
画層1
370
    20
100
AcDbLine
 10
-476.0652295960735
 20
190.9587767371689
 30
0.0
 11
-472.0652295960735
 21
190.9587767371689
 31
0.0
  0
LINE
  5
1976
330
2
100
AcDbEntity
  8
画層1
370
    20
100
AcDbLine
 10
-472.0652295960735
 20
199.4587767371689
 30
0.0
 11
-476.0652295960735
 21
199.4587767371689
 31
0.0
  0
ARC
  5
1977
330
2
100
AcDbEntity
  8
画層1
370
    20
100
AcDbCircle
 10
-472.3152295960735
 20
198.2087767371689
 30
0.0
 40
1.274754878398196
100
AcDbArc
 50
281.3099324740201
 51
78.6900675259798
  0
LINE
  5
1978
330
2
100
AcDbEntity
  8
画層1
370
    20
100
AcDbLine
 10
-476.0652295960735
 20
196.958776737169
 30
0.0
 11
-472.0652295960735
 21
196.958776737169
 31
0.0
  0
LINE
  5
1979
330
2
100
AcDbEntity
  8
画層1
370
    20
100
AcDbLine
 10
-680.0899844744717
 20
198.2087767371689
 30
0.0
 11
-680.0899844744717
 21
189.7087767371689
 31
0.0
  0
ARC
  5
197A
330
2
100
AcDbEntity
  8
画層1
370
    20
100
AcDbCircle
 10
-675.0652295960735
 20
193.9587767371689
 30
0.0
 40
5.0
100
AcDbArc
 50
143.1301023541559
 51
180.0
  0
ARC
  5
197B
330
2
100
AcDbEntity
  8
画層1
370
    20
100
AcDbCircle
 10
-678.8152295960735
 20
189.7087767371689
 30
0.0
 40
1.274754878398196
100
AcDbArc
 50
101.3099324740201
 51
258.6900675259798
  0
LINE
  5
197C
330
2
100
AcDbEntity
  8
画層1
370
    20
100
AcDbLine
 10
-679.0652295960735
 20
188.4587767371689
 30
0.0
 11
-675.0652295960735
 21
188.4587767371689
 31
0.0
  0
LINE
  5
197D
330
2
100
AcDbEntity
  8
画層1
370
    20
100
AcDbLine
 10
-675.0652295960735
 20
190.9587767371689
 30
0.0
 11
-679.0652295960735
 21
190.9587767371689
 31
0.0
  0
ARC
  5
197E
330
2
100
AcDbEntity
  8
画層1
370
    20
100
AcDbCircle
 10
-675.0652295960735
 20
193.9587767371689
 30
0.0
 40
5.0
100
AcDbArc
 50
180.0
 51
216.869897645844
  0
LINE
  5
197F
330
2
100
AcDbEntity
  8
画層1
370
    20
100
AcDbLine
 10
-675.0652295960735
 20
196.958776737169
 30
0.0
 11
-679.0652295960735
 21
196.958776737169
 31
0.0
  0
LINE
  5
1980
330
2
100
AcDbEntity
  8
画層1
370
    20
100
AcDbLine
 10
-679.0652295960735
 20
199.4587767371689
 30
0.0
 11
-675.0652295960735
 21
199.4587767371689
 31
0.0
  0
ARC
  5
1981
330
2
100
AcDbEntity
  8
画層1
370
    20
100
AcDbCircle
 10
-678.8152295960735
 20
198.2087767371689
 30
0.0
 40
1.274754878398196
100
AcDbArc
 50
101.3099324740201
 51
258.6900675259798
  0
LINE
  5
1987
330
2
100
AcDbEntity
  8
画層1
370
    20
100
AcDbLine
 10
-476.0652295960735
 20
317.458776737169
 30
0.0
 11
-475.0652295960735
 21
317.458776737169
 31
0.0
  0
LINE
  5
1988
330
2
100
AcDbEntity
  8
画層1
370
    20
100
AcDbLine
 10
-475.0652295960735
 20
317.458776737169
 30
0.0
 11
-475.0652295960735
 21
310.458776737169
 31
0.0
  0
LINE
  5
1989
330
2
100
AcDbEntity
  8
画層1
370
    20
100
AcDbLine
 10
-475.0652295960735
 20
310.458776737169
 30
0.0
 11
-476.0652295960735
 21
310.458776737169
 31
0.0
  0
LINE
  5
198C
330
2
100
AcDbEntity
  8
画層1
370
    20
100
AcDbLine
 10
-475.0652295960735
 20
316.4587767371689
 30
0.0
 11
-474.0652295960735
 21
316.4587767371689
 31
0.0
  0
LINE
  5
198D
330
2
100
AcDbEntity
  8
画層1
370
    20
100
AcDbLine
 10
-473.0652295960735
 20
315.4587767371689
 30
0.0
 11
-473.0652295960735
 21
312.4587767371689
 31
0.0
  0
LINE
  5
198E
330
2
100
AcDbEntity
  8
画層1
370
    20
100
AcDbLine
 10
-474.0652295960735
 20
311.4587767371689
 30
0.0
 11
-475.0652295960735
 21
311.4587767371689
 31
0.0
  0
ARC
  5
1992
330
2
100
AcDbEntity
  8
画層1
370
    20
100
AcDbCircle
 10
-474.0652295960735
 20
315.4587767371689
 30
0.0
 40
1.0
100
AcDbArc
 50
0.0
 51
90.0
  0
ARC
  5
1993
330
2
100
AcDbEntity
  8
画層1
370
    20
100
AcDbCircle
 10
-474.0652295960735
 20
312.4587767371689
 30
0.0
 40
1.0
100
AcDbArc
 50
270.0
 51
0.0
  0
ARC
  5
1998
330
2
100
AcDbEntity
  8
画層1
370
    20
100
AcDbCircle
 10
-473.5652295960735
 20
313.258776737169
 30
0.0
 40
0.5
100
AcDbArc
 50
0.0
 51
90.0
  0
ARC
  5
1999
330
2
100
AcDbEntity
  8
画層1
370
    20
100
AcDbCircle
 10
-473.5652295960735
 20
314.6587767371689
 30
0.0
 40
0.5
100
AcDbArc
 50
270.0
 51
0.0
  0
LINE
  5
199A
330
2
100
AcDbEntity
  8
画層1
370
    20
100
AcDbLine
 10
-473.5652295960735
 20
314.1587767371689
 30
0.0
 11
-473.5652295960735
 21
313.758776737169
 31
0.0
  0
ARC
  5
199B
330
2
100
AcDbEntity
  8
画層1
370
    20
100
AcDbCircle
 10
-473.5652295960735
 20
173.258776737169
 30
0.0
 40
0.5
100
AcDbArc
 50
0.0
 51
90.0
  0
LINE
  5
199C
330
2
100
AcDbEntity
  8
画層1
370
    20
100
AcDbLine
 10
-473.0652295960735
 20
175.4587767371689
 30
0.0
 11
-473.0652295960735
 21
172.4587767371689
 31
0.0
  0
LINE
  5
199D
330
2
100
AcDbEntity
  8
画層1
370
    20
100
AcDbLine
 10
-475.0652295960735
 20
177.4587767371689
 30
0.0
 11
-475.0652295960735
 21
170.4587767371689
 31
0.0
  0
LINE
  5
199E
330
2
100
AcDbEntity
  8
画層1
370
    20
100
AcDbLine
 10
-474.0652295960735
 20
171.4587767371689
 30
0.0
 11
-475.0652295960735
 21
171.4587767371689
 31
0.0
  0
ARC
  5
199F
330
2
100
AcDbEntity
  8
画層1
370
    20
100
AcDbCircle
 10
-474.0652295960735
 20
172.4587767371689
 30
0.0
 40
1.0
100
AcDbArc
 50
270.0
 51
0.0
  0
LINE
  5
19A0
330
2
100
AcDbEntity
  8
画層1
370
    20
100
AcDbLine
 10
-475.0652295960735
 20
170.4587767371689
 30
0.0
 11
-476.0652295960735
 21
170.4587767371689
 31
0.0
  0
LINE
  5
19A1
330
2
100
AcDbEntity
  8
画層1
370
    20
100
AcDbLine
 10
-473.5652295960735
 20
174.1587767371689
 30
0.0
 11
-473.5652295960735
 21
173.758776737169
 31
0.0
  0
ARC
  5
19A2
330
2
100
AcDbEntity
  8
画層1
370
    20
100
AcDbCircle
 10
-473.5652295960735
 20
174.6587767371689
 30
0.0
 40
0.5
100
AcDbArc
 50
270.0
 51
0.0
  0
LINE
  5
19A3
330
2
100
AcDbEntity
  8
画層1
370
    20
100
AcDbLine
 10
-475.0652295960735
 20
176.4587767371689
 30
0.0
 11
-474.0652295960735
 21
176.4587767371689
 31
0.0
  0
ARC
  5
19A4
330
2
100
AcDbEntity
  8
画層1
370
    20
100
AcDbCircle
 10
-474.0652295960735
 20
175.4587767371689
 30
0.0
 40
1.0
100
AcDbArc
 50
0.0
 51
90.0
  0
LINE
  5
19A5
330
2
100
AcDbEntity
  8
画層1
370
    20
100
AcDbLine
 10
-476.0652295960735
 20
177.4587767371689
 30
0.0
 11
-475.0652295960735
 21
177.4587767371689
 31
0.0
  0
ARC
  5
19A6
330
2
100
AcDbEntity
  8
画層1
370
    20
100
AcDbCircle
 10
-677.5652295960735
 20
313.258776737169
 30
0.0
 40
0.5
100
AcDbArc
 50
90.0
 51
180.0
  0
LINE
  5
19A7
330
2
100
AcDbEntity
  8
画層1
370
    20
100
AcDbLine
 10
-678.0652295960735
 20
315.4587767371689
 30
0.0
 11
-678.0652295960735
 21
312.4587767371689
 31
0.0
  0
LINE
  5
19A8
330
2
100
AcDbEntity
  8
画層1
370
    20
100
AcDbLine
 10
-676.0652295960735
 20
317.458776737169
 30
0.0
 11
-676.0652295960735
 21
310.458776737169
 31
0.0
  0
LINE
  5
19A9
330
2
100
AcDbEntity
  8
画層1
370
    20
100
AcDbLine
 10
-677.0652295960736
 20
311.4587767371689
 30
0.0
 11
-676.0652295960735
 21
311.4587767371689
 31
0.0
  0
ARC
  5
19AA
330
2
100
AcDbEntity
  8
画層1
370
    20
100
AcDbCircle
 10
-677.0652295960736
 20
312.4587767371689
 30
0.0
 40
1.0
100
AcDbArc
 50
180.0
 51
270.0
  0
LINE
  5
19AB
330
2
100
AcDbEntity
  8
画層1
370
    20
100
AcDbLine
 10
-676.0652295960735
 20
310.458776737169
 30
0.0
 11
-675.0652295960735
 21
310.458776737169
 31
0.0
  0
LINE
  5
19AC
330
2
100
AcDbEntity
  8
画層1
370
    20
100
AcDbLine
 10
-677.5652295960735
 20
314.1587767371689
 30
0.0
 11
-677.5652295960735
 21
313.758776737169
 31
0.0
  0
ARC
  5
19AD
330
2
100
AcDbEntity
  8
画層1
370
    20
100
AcDbCircle
 10
-677.5652295960735
 20
314.6587767371689
 30
0.0
 40
0.5
100
AcDbArc
 50
180.0
 51
270.0
  0
LINE
  5
19AE
330
2
100
AcDbEntity
  8
画層1
370
    20
100
AcDbLine
 10
-676.0652295960735
 20
316.4587767371689
 30
0.0
 11
-677.0652295960736
 21
316.4587767371689
 31
0.0
  0
ARC
  5
19AF
330
2
100
AcDbEntity
  8
画層1
370
    20
100
AcDbCircle
 10
-677.0652295960736
 20
315.4587767371689
 30
0.0
 40
1.0
100
AcDbArc
 50
90.0
 51
180.0
  0
LINE
  5
19B0
330
2
100
AcDbEntity
  8
画層1
370
    20
100
AcDbLine
 10
-675.0652295960735
 20
317.458776737169
 30
0.0
 11
-676.0652295960735
 21
317.458776737169
 31
0.0
  0
LINE
  5
19BC
330
2
100
AcDbEntity
  8
画層1
370
    20
100
AcDbLine
 10
-676.0652295960735
 20
177.4587767371689
 30
0.0
 11
-676.0652295960735
 21
170.4587767371689
 31
0.0
  0
LINE
  5
19BD
330
2
100
AcDbEntity
  8
画層1
370
    20
100
AcDbLine
 10
-678.0652295960735
 20
175.4587767371689
 30
0.0
 11
-678.0652295960735
 21
172.4587767371689
 31
0.0
  0
ARC
  5
19BE
330
2
100
AcDbEntity
  8
画層1
370
    20
100
AcDbCircle
 10
-677.5652295960735
 20
173.258776737169
 30
0.0
 40
0.5
100
AcDbArc
 50
90.0
 51
180.0
  0
LINE
  5
19BF
330
2
100
AcDbEntity
  8
画層1
370
    20
100
AcDbLine
 10
-676.0652295960735
 20
170.4587767371689
 30
0.0
 11
-675.0652295960735
 21
170.4587767371689
 31
0.0
  0
ARC
  5
19C0
330
2
100
AcDbEntity
  8
画層1
370
    20
100
AcDbCircle
 10
-677.0652295960736
 20
172.4587767371689
 30
0.0
 40
1.0
100
AcDbArc
 50
180.0
 51
270.0
  0
LINE
  5
19C1
330
2
100
AcDbEntity
  8
画層1
370
    20
100
AcDbLine
 10
-677.0652295960736
 20
171.4587767371689
 30
0.0
 11
-676.0652295960735
 21
171.4587767371689
 31
0.0
  0
LINE
  5
19C2
330
2
100
AcDbEntity
  8
画層1
370
    20
100
AcDbLine
 10
-675.0652295960735
 20
177.4587767371689
 30
0.0
 11
-676.0652295960735
 21
177.4587767371689
 31
0.0
  0
ARC
  5
19C3
330
2
100
AcDbEntity
  8
画層1
370
    20
100
AcDbCircle
 10
-677.0652295960736
 20
175.4587767371689
 30
0.0
 40
1.0
100
AcDbArc
 50
90.0
 51
180.0
  0
LINE
  5
19C4
330
2
100
AcDbEntity
  8
画層1
370
    20
100
AcDbLine
 10
-676.0652295960735
 20
176.4587767371689
 30
0.0
 11
-677.0652295960736
 21
176.4587767371689
 31
0.0
  0
ARC
  5
19C5
330
2
100
AcDbEntity
  8
画層1
370
    20
100
AcDbCircle
 10
-677.5652295960735
 20
174.6587767371689
 30
0.0
 40
0.5
100
AcDbArc
 50
180.0
 51
270.0
  0
LINE
  5
19C6
330
2
100
AcDbEntity
  8
画層1
370
    20
100
AcDbLine
 10
-677.5652295960735
 20
174.1587767371689
 30
0.0
 11
-677.5652295960735
 21
173.758776737169
 31
0.0
  0
CIRCLE
  5
19CB
330
2
100
AcDbEntity
  8
画層1
370
    20
100
AcDbCircle
 10
-490.5652295960735
 20
345.958776737169
 30
0.0
 40
4.0
  0
CIRCLE
  5
19CD
330
2
100
AcDbEntity
  8
画層1
370
    20
100
AcDbCircle
 10
-490.5652295960735
 20
345.958776737169
 30
0.0
 40
2.75
  0
LINE
  5
19D6
330
2
100
AcDbEntity
  8
画層1
370
    20
100
AcDbLine
 10
-491.0652295960735
 20
346.458776737169
 30
0.0
 11
-492.0652295960735
 21
346.458776737169
 31
0.0
  0
LINE
  5
19D7
330
2
100
AcDbEntity
  8
画層1
370
    20
100
AcDbLine
 10
-492.0652295960735
 20
346.458776737169
 30
0.0
 11
-492.0652295960735
 21
345.4587767371689
 31
0.0
  0
LINE
  5
19D8
330
2
100
AcDbEntity
  8
画層1
370
    20
100
AcDbLine
 10
-492.0652295960735
 20
345.4587767371689
 30
0.0
 11
-491.0652295960735
 21
345.4587767371689
 31
0.0
  0
LINE
  5
19D9
330
2
100
AcDbEntity
  8
画層1
370
    20
100
AcDbLine
 10
-491.0652295960735
 20
345.4587767371689
 30
0.0
 11
-491.0652295960735
 21
344.458776737169
 31
0.0
  0
LINE
  5
19DA
330
2
100
AcDbEntity
  8
画層1
370
    20
100
AcDbLine
 10
-491.0652295960735
 20
344.458776737169
 30
0.0
 11
-490.0652295960735
 21
344.458776737169
 31
0.0
  0
LINE
  5
19DB
330
2
100
AcDbEntity
  8
画層1
370
    20
100
AcDbLine
 10
-490.0652295960735
 20
344.458776737169
 30
0.0
 11
-490.0652295960735
 21
345.4587767371689
 31
0.0
  0
LINE
  5
19DC
330
2
100
AcDbEntity
  8
画層1
370
    20
100
AcDbLine
 10
-490.0652295960735
 20
345.4587767371689
 30
0.0
 11
-489.0652295960735
 21
345.4587767371689
 31
0.0
  0
LINE
  5
19DD
330
2
100
AcDbEntity
  8
画層1
370
    20
100
AcDbLine
 10
-489.0652295960735
 20
345.4587767371689
 30
0.0
 11
-489.0652295960735
 21
346.458776737169
 31
0.0
  0
LINE
  5
19DE
330
2
100
AcDbEntity
  8
画層1
370
    20
100
AcDbLine
 10
-489.0652295960735
 20
346.458776737169
 30
0.0
 11
-490.0652295960735
 21
346.458776737169
 31
0.0
  0
LINE
  5
19DF
330
2
100
AcDbEntity
  8
画層1
370
    20
100
AcDbLine
 10
-490.0652295960735
 20
346.458776737169
 30
0.0
 11
-490.0652295960735
 21
347.4587767371689
 31
0.0
  0
LINE
  5
19E0
330
2
100
AcDbEntity
  8
画層1
370
    20
100
AcDbLine
 10
-490.0652295960735
 20
347.4587767371689
 30
0.0
 11
-491.0652295960735
 21
347.4587767371689
 31
0.0
  0
LINE
  5
19E1
330
2
100
AcDbEntity
  8
画層1
370
    20
100
AcDbLine
 10
-491.0652295960735
 20
347.4587767371689
 30
0.0
 11
-491.0652295960735
 21
346.458776737169
 31
0.0
  0
CIRCLE
  5
19E2
330
2
100
AcDbEntity
  8
画層1
370
    20
100
AcDbCircle
 10
-660.5652295960735
 20
345.958776737169
 30
0.0
 40
2.75
  0
CIRCLE
  5
19E3
330
2
100
AcDbEntity
  8
画層1
370
    20
100
AcDbCircle
 10
-660.5652295960735
 20
345.958776737169
 30
0.0
 40
4.0
  0
LINE
  5
19E4
330
2
100
AcDbEntity
  8
画層1
370
    20
100
AcDbLine
 10
-661.0652295960735
 20
347.4587767371689
 30
0.0
 11
-661.0652295960735
 21
346.458776737169
 31
0.0
  0
LINE
  5
19E5
330
2
100
AcDbEntity
  8
画層1
370
    20
100
AcDbLine
 10
-660.0652295960735
 20
347.4587767371689
 30
0.0
 11
-661.0652295960735
 21
347.4587767371689
 31
0.0
  0
LINE
  5
19E6
330
2
100
AcDbEntity
  8
画層1
370
    20
100
AcDbLine
 10
-660.0652295960735
 20
346.458776737169
 30
0.0
 11
-660.0652295960735
 21
347.4587767371689
 31
0.0
  0
LINE
  5
19E7
330
2
100
AcDbEntity
  8
画層1
370
    20
100
AcDbLine
 10
-659.0652295960735
 20
346.458776737169
 30
0.0
 11
-660.0652295960735
 21
346.458776737169
 31
0.0
  0
LINE
  5
19E8
330
2
100
AcDbEntity
  8
画層1
370
    20
100
AcDbLine
 10
-659.0652295960735
 20
345.4587767371689
 30
0.0
 11
-659.0652295960735
 21
346.458776737169
 31
0.0
  0
LINE
  5
19E9
330
2
100
AcDbEntity
  8
画層1
370
    20
100
AcDbLine
 10
-660.0652295960735
 20
345.4587767371689
 30
0.0
 11
-659.0652295960735
 21
345.4587767371689
 31
0.0
  0
LINE
  5
19EA
330
2
100
AcDbEntity
  8
画層1
370
    20
100
AcDbLine
 10
-660.0652295960735
 20
344.458776737169
 30
0.0
 11
-660.0652295960735
 21
345.4587767371689
 31
0.0
  0
LINE
  5
19EB
330
2
100
AcDbEntity
  8
画層1
370
    20
100
AcDbLine
 10
-661.0652295960735
 20
344.458776737169
 30
0.0
 11
-660.0652295960735
 21
344.458776737169
 31
0.0
  0
LINE
  5
19EC
330
2
100
AcDbEntity
  8
画層1
370
    20
100
AcDbLine
 10
-661.0652295960735
 20
345.4587767371689
 30
0.0
 11
-661.0652295960735
 21
344.458776737169
 31
0.0
  0
LINE
  5
19ED
330
2
100
AcDbEntity
  8
画層1
370
    20
100
AcDbLine
 10
-662.0652295960735
 20
345.4587767371689
 30
0.0
 11
-661.0652295960735
 21
345.4587767371689
 31
0.0
  0
LINE
  5
19EE
330
2
100
AcDbEntity
  8
画層1
370
    20
100
AcDbLine
 10
-662.0652295960735
 20
346.458776737169
 30
0.0
 11
-662.0652295960735
 21
345.4587767371689
 31
0.0
  0
LINE
  5
19EF
330
2
100
AcDbEntity
  8
画層1
370
    20
100
AcDbLine
 10
-661.0652295960735
 20
346.458776737169
 30
0.0
 11
-662.0652295960735
 21
346.458776737169
 31
0.0
  0
CIRCLE
  5
19F0
330
2
100
AcDbEntity
  8
画層1
370
    20
100
AcDbCircle
 10
-490.5652295960735
 20
141.9587767371689
 30
0.0
 40
2.75
  0
CIRCLE
  5
19F1
330
2
100
AcDbEntity
  8
画層1
370
    20
100
AcDbCircle
 10
-490.5652295960735
 20
141.9587767371689
 30
0.0
 40
4.0
  0
LINE
  5
19F2
330
2
100
AcDbEntity
  8
画層1
370
    20
100
AcDbLine
 10
-491.0652295960735
 20
143.4587767371689
 30
0.0
 11
-491.0652295960735
 21
142.4587767371689
 31
0.0
  0
LINE
  5
19F3
330
2
100
AcDbEntity
  8
画層1
370
    20
100
AcDbLine
 10
-490.0652295960735
 20
143.4587767371689
 30
0.0
 11
-491.0652295960735
 21
143.4587767371689
 31
0.0
  0
LINE
  5
19F4
330
2
100
AcDbEntity
  8
画層1
370
    20
100
AcDbLine
 10
-490.0652295960735
 20
142.4587767371689
 30
0.0
 11
-490.0652295960735
 21
143.4587767371689
 31
0.0
  0
LINE
  5
19F5
330
2
100
AcDbEntity
  8
画層1
370
    20
100
AcDbLine
 10
-489.0652295960735
 20
142.4587767371689
 30
0.0
 11
-490.0652295960735
 21
142.4587767371689
 31
0.0
  0
LINE
  5
19F6
330
2
100
AcDbEntity
  8
画層1
370
    20
100
AcDbLine
 10
-489.0652295960735
 20
141.4587767371689
 30
0.0
 11
-489.0652295960735
 21
142.4587767371689
 31
0.0
  0
LINE
  5
19F7
330
2
100
AcDbEntity
  8
画層1
370
    20
100
AcDbLine
 10
-490.0652295960735
 20
141.4587767371689
 30
0.0
 11
-489.0652295960735
 21
141.4587767371689
 31
0.0
  0
LINE
  5
19F8
330
2
100
AcDbEntity
  8
画層1
370
    20
100
AcDbLine
 10
-490.0652295960735
 20
140.4587767371689
 30
0.0
 11
-490.0652295960735
 21
141.4587767371689
 31
0.0
  0
LINE
  5
19F9
330
2
100
AcDbEntity
  8
画層1
370
    20
100
AcDbLine
 10
-491.0652295960735
 20
140.4587767371689
 30
0.0
 11
-490.0652295960735
 21
140.4587767371689
 31
0.0
  0
LINE
  5
19FA
330
2
100
AcDbEntity
  8
画層1
370
    20
100
AcDbLine
 10
-491.0652295960735
 20
141.4587767371689
 30
0.0
 11
-491.0652295960735
 21
140.4587767371689
 31
0.0
  0
LINE
  5
19FB
330
2
100
AcDbEntity
  8
画層1
370
    20
100
AcDbLine
 10
-492.0652295960735
 20
141.4587767371689
 30
0.0
 11
-491.0652295960735
 21
141.4587767371689
 31
0.0
  0
LINE
  5
19FC
330
2
100
AcDbEntity
  8
画層1
370
    20
100
AcDbLine
 10
-492.0652295960735
 20
142.4587767371689
 30
0.0
 11
-492.0652295960735
 21
141.4587767371689
 31
0.0
  0
LINE
  5
19FD
330
2
100
AcDbEntity
  8
画層1
370
    20
100
AcDbLine
 10
-491.0652295960735
 20
142.4587767371689
 30
0.0
 11
-492.0652295960735
 21
142.4587767371689
 31
0.0
  0
CIRCLE
  5
19FE
330
2
100
AcDbEntity
  8
画層1
370
    20
100
AcDbCircle
 10
-660.5652295960735
 20
141.9587767371689
 30
0.0
 40
4.0
  0
CIRCLE
  5
19FF
330
2
100
AcDbEntity
  8
画層1
370
    20
100
AcDbCircle
 10
-660.5652295960735
 20
141.9587767371689
 30
0.0
 40
2.75
  0
LINE
  5
1A00
330
2
100
AcDbEntity
  8
画層1
370
    20
100
AcDbLine
 10
-661.0652295960735
 20
142.4587767371689
 30
0.0
 11
-662.0652295960735
 21
142.4587767371689
 31
0.0
  0
LINE
  5
1A01
330
2
100
AcDbEntity
  8
画層1
370
    20
100
AcDbLine
 10
-662.0652295960735
 20
142.4587767371689
 30
0.0
 11
-662.0652295960735
 21
141.4587767371689
 31
0.0
  0
LINE
  5
1A02
330
2
100
AcDbEntity
  8
画層1
370
    20
100
AcDbLine
 10
-662.0652295960735
 20
141.4587767371689
 30
0.0
 11
-661.0652295960735
 21
141.4587767371689
 31
0.0
  0
LINE
  5
1A03
330
2
100
AcDbEntity
  8
画層1
370
    20
100
AcDbLine
 10
-661.0652295960735
 20
141.4587767371689
 30
0.0
 11
-661.0652295960735
 21
140.4587767371689
 31
0.0
  0
LINE
  5
1A04
330
2
100
AcDbEntity
  8
画層1
370
    20
100
AcDbLine
 10
-661.0652295960735
 20
140.4587767371689
 30
0.0
 11
-660.0652295960735
 21
140.4587767371689
 31
0.0
  0
LINE
  5
1A05
330
2
100
AcDbEntity
  8
画層1
370
    20
100
AcDbLine
 10
-660.0652295960735
 20
140.4587767371689
 30
0.0
 11
-660.0652295960735
 21
141.4587767371689
 31
0.0
  0
LINE
  5
1A06
330
2
100
AcDbEntity
  8
画層1
370
    20
100
AcDbLine
 10
-660.0652295960735
 20
141.4587767371689
 30
0.0
 11
-659.0652295960735
 21
141.4587767371689
 31
0.0
  0
LINE
  5
1A07
330
2
100
AcDbEntity
  8
画層1
370
    20
100
AcDbLine
 10
-659.0652295960735
 20
141.4587767371689
 30
0.0
 11
-659.0652295960735
 21
142.4587767371689
 31
0.0
  0
LINE
  5
1A08
330
2
100
AcDbEntity
  8
画層1
370
    20
100
AcDbLine
 10
-659.0652295960735
 20
142.4587767371689
 30
0.0
 11
-660.0652295960735
 21
142.4587767371689
 31
0.0
  0
LINE
  5
1A09
330
2
100
AcDbEntity
  8
画層1
370
    20
100
AcDbLine
 10
-660.0652295960735
 20
142.4587767371689
 30
0.0
 11
-660.0652295960735
 21
143.4587767371689
 31
0.0
  0
LINE
  5
1A0A
330
2
100
AcDbEntity
  8
画層1
370
    20
100
AcDbLine
 10
-660.0652295960735
 20
143.4587767371689
 30
0.0
 11
-661.0652295960735
 21
143.4587767371689
 31
0.0
  0
LINE
  5
1A0B
330
2
100
AcDbEntity
  8
画層1
370
    20
100
AcDbLine
 10
-661.0652295960735
 20
143.4587767371689
 30
0.0
 11
-661.0652295960735
 21
142.4587767371689
 31
0.0
  0
LINE
  5
1A0F
330
2
100
AcDbEntity
  8
画層1
370
    20
100
AcDbLine
 10
-670.5652295960735
 20
146.9587767371689
 30
0.0
 11
-670.5652295960735
 21
86.95877673716898
 31
0.0
  0
LINE
  5
1A10
330
2
100
AcDbEntity
  8
画層1
370
    20
100
AcDbLine
 10
-665.5652295960735
 20
81.95877673716898
 30
0.0
 11
-485.5652295960735
 21
81.95877673716898
 31
0.0
  0
LINE
  5
1A11
330
2
100
AcDbEntity
  8
画層1
370
    20
100
AcDbLine
 10
-480.5652295960735
 20
86.95877673716898
 30
0.0
 11
-480.5652295960735
 21
146.9587767371689
 31
0.0
  0
LINE
  5
1A12
330
2
100
AcDbEntity
  8
画層1
370
    20
100
AcDbLine
 10
-485.5652295960735
 20
151.958776737169
 30
0.0
 11
-665.5652295960735
 21
151.958776737169
 31
0.0
  0
ARC
  5
1A13
330
2
100
AcDbEntity
  8
画層1
370
    20
100
AcDbCircle
 10
-665.5652295960735
 20
86.95877673716898
 30
0.0
 40
5.0
100
AcDbArc
 50
180.0
 51
270.0
  0
ARC
  5
1A14
330
2
100
AcDbEntity
  8
画層1
370
    20
100
AcDbCircle
 10
-665.5652295960735
 20
146.9587767371689
 30
0.0
 40
5.0
100
AcDbArc
 50
90.0
 51
180.0
  0
ARC
  5
1A15
330
2
100
AcDbEntity
  8
画層1
370
    20
100
AcDbCircle
 10
-485.5652295960735
 20
146.9587767371689
 30
0.0
 40
5.0
100
AcDbArc
 50
0.0
 51
90.0
  0
ARC
  5
1A16
330
2
100
AcDbEntity
  8
画層1
370
    20
100
AcDbCircle
 10
-485.5652295960735
 20
86.95877673716898
 30
0.0
 40
5.0
100
AcDbArc
 50
270.0
 51
359.9999999999999
  0
LINE
  5
1A1A
330
2
100
AcDbEntity
  8
画層1
370
    20
100
AcDbLine
 10
-670.5652295960735
 20
340.9587767371689
 30
0.0
 11
-670.5652295960735
 21
400.9587767371689
 31
0.0
  0
LINE
  5
1A1B
330
2
100
AcDbEntity
  8
画層1
370
    20
100
AcDbLine
 10
-665.5652295960735
 20
405.958776737169
 30
0.0
 11
-485.5652295960735
 21
405.958776737169
 31
0.0
  0
LINE
  5
1A1C
330
2
100
AcDbEntity
  8
画層1
370
    20
100
AcDbLine
 10
-480.5652295960735
 20
400.9587767371689
 30
0.0
 11
-480.5652295960734
 21
340.9587767371689
 31
0.0
  0
LINE
  5
1A1D
330
2
100
AcDbEntity
  8
画層1
370
    20
100
AcDbLine
 10
-485.5652295960734
 20
335.958776737169
 30
0.0
 11
-665.5652295960735
 21
335.958776737169
 31
0.0
  0
ARC
  5
1A1E
330
2
100
AcDbEntity
  8
画層1
370
    20
100
AcDbCircle
 10
-665.5652295960735
 20
340.9587767371689
 30
0.0
 40
5.0
100
AcDbArc
 50
180.0
 51
270.0
  0
ARC
  5
1A1F
330
2
100
AcDbEntity
  8
画層1
370
    20
100
AcDbCircle
 10
-665.5652295960735
 20
400.9587767371689
 30
0.0
 40
5.0
100
AcDbArc
 50
90.0
 51
180.0
  0
ARC
  5
1A20
330
2
100
AcDbEntity
  8
画層1
370
    20
100
AcDbCircle
 10
-485.5652295960735
 20
400.9587767371689
 30
0.0
 40
5.0
100
AcDbArc
 50
0.0
 51
90.0
  0
ARC
  5
1A21
330
2
100
AcDbEntity
  8
画層1
370
    20
100
AcDbCircle
 10
-485.5652295960734
 20
340.9587767371689
 30
0.0
 40
5.0
100
AcDbArc
 50
270.0
 51
359.9999999999999
  0
LWPOLYLINE
  5
1A26
330
2
100
AcDbEntity
  8
画層1
370
    20
100
AcDbPolyline
 90
        4
 70
     1
 43
0.0
 10
-366.090401178997
 20
335.958776737169
 10
-364.090401178997
 20
335.958776737169
 10
-364.090401178997
 20
405.958776737169
 10
-366.090401178997
 20
405.958776737169
  0
LINE
  5
1A28
330
2
100
AcDbEntity
  8
画層1
370
    20
100
AcDbLine
 10
-367.090401178997
 20
348.758776737169
 30
0.0
 11
-367.090401178997
 21
343.1587767371689
 31
0.0
  0
LINE
  5
1A29
330
2
100
AcDbEntity
  8
画層1
370
    20
100
AcDbLine
 10
-369.090401178997
 20
344.4587767371689
 30
0.0
 11
-369.090401178997
 21
347.4587767371689
 31
0.0
  0
LINE
  5
1A2A
330
2
100
AcDbEntity
  8
画層1
370
    20
100
AcDbLine
 10
-366.090401178997
 20
341.9587767371689
 30
0.0
 11
-366.090401178997
 21
341.9587767371689
 31
0.0
  0
ARC
  5
1A2B
330
2
100
AcDbEntity
  8
画層1
370
    20
100
AcDbCircle
 10
-366.090401178997
 20
343.1587767371689
 30
0.0
 40
1.0
100
AcDbArc
 50
180.0
 51
270.0
  0
ARC
  5
1A2C
330
2
100
AcDbEntity
  8
画層1
370
    20
100
AcDbCircle
 10
-368.090401178997
 20
344.4587767371689
 30
0.0
 40
1.0
100
AcDbArc
 50
180.0
 51
270.0
  0
LINE
  5
1A2D
330
2
100
AcDbEntity
  8
画層1
370
    20
100
AcDbLine
 10
-367.090401178997
 20
343.4587767371689
 30
0.0
 11
-368.090401178997
 21
343.4587767371689
 31
0.0
  0
ARC
  5
1A2E
330
2
100
AcDbEntity
  8
画層1
370
    20
100
AcDbCircle
 10
-366.090401178997
 20
348.758776737169
 30
0.0
 40
1.0
100
AcDbArc
 50
90.0
 51
180.0
  0
ARC
  5
1A2F
330
2
100
AcDbEntity
  8
画層1
370
    20
100
AcDbCircle
 10
-368.090401178997
 20
347.4587767371689
 30
0.0
 40
1.0
100
AcDbArc
 50
90.0
 51
180.0
  0
LINE
  5
1A30
330
2
100
AcDbEntity
  8
画層1
370
    20
100
AcDbLine
 10
-368.090401178997
 20
348.4587767371689
 30
0.0
 11
-367.090401178997
 21
348.4587767371689
 31
0.0
  0
ARC
  5
1A31
330
2
100
AcDbEntity
  8
画層1
370
    20
100
AcDbCircle
 10
-368.590401178997
 20
345.2587767371689
 30
0.0
 40
0.5
100
AcDbArc
 50
90.0
 51
180.0
  0
ARC
  5
1A32
330
2
100
AcDbEntity
  8
画層1
370
    20
100
AcDbCircle
 10
-368.590401178997
 20
346.6587767371689
 30
0.0
 40
0.5
100
AcDbArc
 50
180.0
 51
270.0
  0
LINE
  5
1A33
330
2
100
AcDbEntity
  8
画層1
370
    20
100
AcDbLine
 10
-368.590401178997
 20
346.1587767371689
 30
0.0
 11
-368.590401178997
 21
345.7587767371689
 31
0.0
  0
LWPOLYLINE
  5
1A3B
330
2
100
AcDbEntity
  8
画層1
370
    20
100
AcDbPolyline
 90
        4
 70
     1
 43
0.0
 10
-364.090401178997
 20
151.958776737169
 10
-366.090401178997
 20
151.958776737169
 10
-366.090401178997
 20
81.95877673716898
 10
-364.090401178997
 20
81.95877673716898
  0
LINE
  5
1A3C
330
2
100
AcDbEntity
  8
画層1
370
    20
100
AcDbLine
 10
-367.090401178997
 20
144.7587767371689
 30
0.0
 11
-367.090401178997
 21
139.1587767371689
 31
0.0
  0
LINE
  5
1A3E
330
2
100
AcDbEntity
  8
画層1
370
    20
100
AcDbLine
 10
-369.090401178997
 20
140.4587767371689
 30
0.0
 11
-369.090401178997
 21
143.458776737169
 31
0.0
  0
LINE
  5
1A3F
330
2
100
AcDbEntity
  8
画層1
370
    20
100
AcDbLine
 10
-368.590401178997
 20
142.158776737169
 30
0.0
 11
-368.590401178997
 21
141.7587767371689
 31
0.0
  0
ARC
  5
1A40
330
2
100
AcDbEntity
  8
画層1
370
    20
100
AcDbCircle
 10
-368.590401178997
 20
142.658776737169
 30
0.0
 40
0.5
100
AcDbArc
 50
180.0
 51
270.0
  0
ARC
  5
1A41
330
2
100
AcDbEntity
  8
画層1
370
    20
100
AcDbCircle
 10
-368.590401178997
 20
141.2587767371689
 30
0.0
 40
0.5
100
AcDbArc
 50
90.0
 51
180.0
  0
ARC
  5
1A42
330
2
100
AcDbEntity
  8
画層1
370
    20
100
AcDbCircle
 10
-366.090401178997
 20
139.1587767371689
 30
0.0
 40
1.0
100
AcDbArc
 50
180.0
 51
270.0
  0
LINE
  5
1A43
330
2
100
AcDbEntity
  8
画層1
370
    20
100
AcDbLine
 10
-366.090401178997
 20
137.9587767371689
 30
0.0
 11
-366.090401178997
 21
137.9587767371689
 31
0.0
  0
ARC
  5
1A44
330
2
100
AcDbEntity
  8
画層1
370
    20
100
AcDbCircle
 10
-368.090401178997
 20
140.4587767371689
 30
0.0
 40
1.0
100
AcDbArc
 50
180.0
 51
270.0
  0
LINE
  5
1A45
330
2
100
AcDbEntity
  8
画層1
370
    20
100
AcDbLine
 10
-367.090401178997
 20
139.4587767371689
 30
0.0
 11
-368.090401178997
 21
139.4587767371689
 31
0.0
  0
ARC
  5
1A46
330
2
100
AcDbEntity
  8
画層1
370
    20
100
AcDbCircle
 10
-366.090401178997
 20
144.7587767371689
 30
0.0
 40
1.0
100
AcDbArc
 50
90.0
 51
180.0
  0
LINE
  5
1A47
330
2
100
AcDbEntity
  8
画層1
370
    20
100
AcDbLine
 10
-366.090401178997
 20
145.9587767371689
 30
0.0
 11
-366.090401178997
 21
145.9587767371689
 31
0.0
  0
ARC
  5
1A48
330
2
100
AcDbEntity
  8
画層1
370
    20
100
AcDbCircle
 10
-368.090401178997
 20
143.458776737169
 30
0.0
 40
1.0
100
AcDbArc
 50
90.0
 51
180.0
  0
LINE
  5
1A49
330
2
100
AcDbEntity
  8
画層1
370
    20
100
AcDbLine
 10
-368.090401178997
 20
144.4587767371689
 30
0.0
 11
-367.090401178997
 21
144.4587767371689
 31
0.0
  0
DIMENSION
  5
1A54
330
2
100
AcDbEntity
  8
画層1
 62
     1
370
    20
100
AcDbDimension
  2
*D3
 10
-471.0404747176753
 20
426.8492702534067
 30
0.0
 11
-575.5652295960735
 21
429.0992702534067
 31
0.0
 70
    32
 71
     5
 42
-1.0
  3
STANDARD_WS
100
AcDbAlignedDimension
 13
-680.0899844744717
 23
338.208776737169
 33
0.0
 14
-471.0404747176753
 24
338.208776737169
 34
0.0
100
AcDbRotatedDimension
1001
ACAD
1000
DSTYLE
1002
{
1070
    47
1040
0.6
1070
   140
1040
50.0
1070
   146
1040
0.5
1070
   147
1040
1.0
1070
   173
1070
     0
1070
   271
1070
     0
1070
   272
1070
     0
1070
   284
1070
     8
1070
   341
1005
28
1070
     5
1000
OPEN30
1070
     6
1000

1070
     7
1000

1002
}
  0
DIMENSION
  5
1A61
330
2
100
AcDbEntity
  8
画層1
 62
     1
370
    20
100
AcDbDimension
  2
*D4
 10
-505.5652295960735
 20
419.5372313493167
 30
0.0
 11
-575.5652295960735
 21
421.7872313493167
 31
0.0
 70
    32
 71
     5
 42
-1.0
  3
STANDARD_WS
100
AcDbAlignedDimension
 13
-645.5652295960735
 23
375.9587767371689
 33
0.0
 14
-505.5652295960735
 24
375.9587767371689
 34
0.0
100
AcDbRotatedDimension
1001
ACAD
1000
DSTYLE
1002
{
1070
    47
1040
0.6
1070
   140
1040
50.0
1070
   146
1040
0.5
1070
   147
1040
1.0
1070
   173
1070
     0
1070
   271
1070
     0
1070
   272
1070
     0
1070
   284
1070
     8
1070
   341
1005
28
1070
     5
1000
OPEN30
1070
     6
1000

1070
     7
1000

1002
}
  0
DIMENSION
  5
1A6E
330
2
100
AcDbEntity
  8
画層1
 62
     1
370
    20
100
AcDbDimension
  2
*D5
 10
-535.6652295960735
 20
63.41377104011542
 30
0.0
 11
-575.6652295960735
 21
65.66377104011542
 31
0.0
 70
    32
 71
     5
 42
-1.0
  3
STANDARD_WS
100
AcDbAlignedDimension
 13
-615.6652295960736
 23
113.9587767371689
 33
0.0
 14
-535.6652295960735
 24
113.9587767371689
 34
0.0
100
AcDbRotatedDimension
1001
ACAD
1000
DSTYLE
1002
{
1070
    47
1040
0.6
1070
   140
1040
50.0
1070
   146
1040
0.5
1070
   147
1040
1.0
1070
   173
1070
     0
1070
   271
1070
     0
1070
   272
1070
     0
1070
   284
1070
     8
1070
   341
1005
28
1070
     5
1000
OPEN30
1070
     6
1000

1070
     7
1000

1002
}
  0
DIMENSION
  5
1A7B
330
2
100
AcDbEntity
  8
画層1
 62
     1
370
    20
100
AcDbDimension
  2
*D6
 10
-501.0652295960735
 20
63.41377104011542
 30
0.0
 11
-505.5652295960735
 21
65.66377104011542
 31
0.0
 70
    32
 71
     5
 42
-1.0
  3
STANDARD_WS
100
AcDbAlignedDimension
 13
-510.0652295960735
 23
101.9587767371689
 33
0.0
 14
-501.0652295960735
 24
101.9587767371689
 34
0.0
100
AcDbRotatedDimension
1001
ACAD
1000
DSTYLE
1002
{
1070
    47
1040
0.6
1070
   140
1040
50.0
1070
   146
1040
0.5
1070
   147
1040
1.0
1070
   173
1070
     0
1070
   271
1070
     0
1070
   272
1070
     0
1070
   284
1070
     8
1070
   341
1005
28
1070
     5
1000
OPEN30
1070
     6
1000

1070
     7
1000

1002
}
  0
DIMENSION
  5
1A88
330
2
100
AcDbEntity
  8
画層1
 62
     1
370
    20
100
AcDbDimension
  2
*D7
 10
-465.0879754414402
 20
111.9587767371689
 30
0.0
 11
-467.3379754414402
 21
106.9587767371689
 31
0.0
 70
    32
 71
     5
 42
-1.0
  3
STANDARD_WS
100
AcDbAlignedDimension
 13
-477.4652295960736
 23
101.9587767371689
 33
0.0
 14
-505.5652295960735
 24
111.9587767371689
 34
0.0
 50
90.0
100
AcDbRotatedDimension
1001
ACAD
1000
DSTYLE
1002
{
1070
    47
1040
0.6
1070
   140
1040
50.0
1070
   146
1040
0.5
1070
   147
1040
1.0
1070
   173
1070
     0
1070
   271
1070
     0
1070
   272
1070
     0
1070
   284
1070
     8
1070
   341
1005
28
1070
     5
1000
OPEN30
1070
     6
1000

1070
     7
1000

1002
}
  0
DIMENSION
  5
1A95
330
2
100
AcDbEntity
  8
画層1
 62
     1
370
    20
100
AcDbDimension
  2
*D8
 10
-455.9605646588843
 20
375.9587767371689
 30
0.0
 11
-458.2105646588844
 21
243.9587767371689
 31
0.0
 70
    32
 71
     5
 42
-1.0
  3
STANDARD_WS
100
AcDbAlignedDimension
 13
-465.0879754414402
 23
111.9587767371689
 33
0.0
 14
-505.5652295960735
 24
375.9587767371689
 34
0.0
 50
90.0
100
AcDbRotatedDimension
1001
ACAD
1000
DSTYLE
1002
{
1070
    47
1040
0.6
1070
   140
1040
50.0
1070
   146
1040
0.5
1070
   147
1040
1.0
1070
   173
1070
     0
1070
   271
1070
     0
1070
   272
1070
     0
1070
   284
1070
     8
1070
   341
1005
28
1070
     5
1000
OPEN30
1070
     6
1000

1070
     7
1000

1002
}
  0
DIMENSION
  5
1AA2
330
2
100
AcDbEntity
  8
画層1
 62
     1
370
    20
100
AcDbDimension
  2
*D9
 10
-447.875076762785
 20
101.9587767371689
 30
0.0
 11
-450.125076762785
 21
243.9587767371689
 31
0.0
 70
    32
 71
     5
 42
-1.0
  3
STANDARD_WS
100
AcDbAlignedDimension
 13
-477.4652295960736
 23
385.958776737169
 33
0.0
 14
-463.8379754414402
 24
101.9587767371689
 34
0.0
 50
90.0
100
AcDbRotatedDimension
1001
ACAD
1000
DSTYLE
1002
{
1070
    47
1040
0.6
1070
   140
1040
50.0
1070
   146
1040
0.5
1070
   147
1040
1.0
1070
   173
1070
     0
1070
   271
1070
     0
1070
   272
1070
     0
1070
   284
1070
     8
1070
   341
1005
28
1070
     5
1000
OPEN30
1070
     6
1000

1070
     7
1000

1002
}
  0
DIMENSION
  5
1AAF
330
2
100
AcDbEntity
  8
画層1
 62
     1
370
    20
100
AcDbDimension
  2
*D10
 10
-411.090401178997
 20
426.8492702534067
 30
0.0
 11
-307.290401178997
 21
429.0992702534067
 31
0.0
 70
    32
 71
     5
 42
-1.0
  3
STANDARD_WS
100
AcDbAlignedDimension
 13
-203.490401178997
 23
385.958776737169
 33
0.0
 14
-411.090401178997
 24
325.4587767371689
 34
0.0
100
AcDbRotatedDimension
1001
ACAD
1000
DSTYLE
1002
{
1070
    47
1040
0.6
1070
   140
1040
50.0
1070
   146
1040
0.5
1070
   147
1040
1.0
1070
   173
1070
     0
1070
   271
1070
     0
1070
   272
1070
     0
1070
   284
1070
     8
1070
   341
1005
28
1070
     5
1000
OPEN30
1070
     6
1000

1070
     7
1000

1002
}
  0
DIMENSION
  5
1ABC
330
2
100
AcDbEntity
  8
画層1
 62
     1
370
    20
100
AcDbDimension
  2
*D11
 10
-203.490401178997
 20
417.2757315603346
 30
0.0
 11
-296.340401178997
 21
419.5257315603346
 31
0.0
 70
    32
 71
     5
 42
-1.0
  3
STANDARD_WS
100
AcDbAlignedDimension
 13
-389.1904011789971
 23
268.8678676462599
 33
0.0
 14
-203.490401178997
 24
385.958776737169
 34
0.0
100
AcDbRotatedDimension
1001
ACAD
1000
DSTYLE
1002
{
1070
    47
1040
0.6
1070
   140
1040
50.0
1070
   146
1040
0.5
1070
   147
1040
1.0
1070
   173
1070
     0
1070
   271
1070
     0
1070
   272
1070
     0
1070
   284
1070
     8
1070
   341
1005
28
1070
     5
1000
OPEN30
1070
     6
1000

1070
     7
1000

1002
}
  0
LINE
  5
1B22
330
2
100
AcDbEntity
  8
画層1
  6
DASHED2
370
    20
100
AcDbLine
 10
-340.490401178997
 20
117.958776737169
 30
0.0
 11
-335.490401178997
 21
117.958776737169
 31
0.0
  0
LINE
  5
1B23
330
2
100
AcDbEntity
  8
画層1
  6
DASHED2
370
    20
100
AcDbLine
 10
-340.490401178997
 20
109.958776737169
 30
0.0
 11
-335.490401178997
 21
109.958776737169
 31
0.0
  0
LINE
  5
1B29
330
2
100
AcDbEntity
  8
画層1
  6
DASHED2
370
    20
100
AcDbLine
 10
-333.490401178997
 20
133.9587767371689
 30
0.0
 11
-333.490401178997
 21
103.958776737169
 31
0.0
  0
LINE
  5
1B2A
330
2
100
AcDbEntity
  8
画層1
  6
DASHED2
370
    20
100
AcDbLine
 10
-333.490401178997
 20
103.958776737169
 30
0.0
 11
-330.490401178997
 21
103.958776737169
 31
0.0
  0
LINE
  5
1B2B
330
2
100
AcDbEntity
  8
画層1
  6
DASHED2
370
    20
100
AcDbLine
 10
-330.490401178997
 20
103.958776737169
 30
0.0
 11
-330.490401178997
 21
133.9587767371689
 31
0.0
  0
LINE
  5
1BAE
330
2
100
AcDbEntity
  8
画層1
370
    20
100
AcDbLine
 10
-333.490401178997
 20
122.9587767371689
 30
0.0
 11
-335.490401178997
 21
122.9587767371689
 31
0.0
  0
LINE
  5
1BAF
330
2
100
AcDbEntity
  8
画層1
  6
DASHED2
370
    20
100
AcDbLine
 10
-335.490401178997
 20
122.9587767371689
 30
0.0
 11
-335.490401178997
 21
104.958776737169
 31
0.0
  0
LINE
  5
1BB0
330
2
100
AcDbEntity
  8
画層1
370
    20
100
AcDbLine
 10
-335.490401178997
 20
104.958776737169
 30
0.0
 11
-333.490401178997
 21
104.958776737169
 31
0.0
  0
ARC
  5
1BBB
330
2
100
AcDbEntity
  8
画層1
  6
DASHED2
370
    20
100
AcDbCircle
 10
-338.990401178997
 20
107.958776737169
 30
0.0
 40
2.5
100
AcDbArc
 50
126.869897645844
 51
180.0
  0
ARC
  5
1BBC
330
2
100
AcDbEntity
  8
画層1
  6
DASHED2
370
    20
100
AcDbCircle
 10
-338.990401178997
 20
107.958776737169
 30
0.0
 40
2.5
100
AcDbArc
 50
180.0
 51
233.1301023541559
  0
ARC
  5
1BC3
330
2
100
AcDbEntity
  8
画層1
  6
DASHED2
370
    20
100
AcDbCircle
 10
-332.990401178997
 20
113.958776737169
 30
0.0
 40
8.5
100
AcDbArc
 50
151.927513064147
 51
180.0
  0
ARC
  5
1BC4
330
2
100
AcDbEntity
  8
画層1
  6
DASHED2
370
    20
100
AcDbCircle
 10
-332.990401178997
 20
113.958776737169
 30
0.0
 40
8.5
100
AcDbArc
 50
180.0
 51
208.0724869358529
  0
ARC
  5
1BC5
330
2
100
AcDbEntity
  8
画層1
  6
DASHED2
370
    20
100
AcDbCircle
 10
-338.990401178997
 20
119.958776737169
 30
0.0
 40
2.5
100
AcDbArc
 50
126.869897645844
 51
180.0
  0
ARC
  5
1BC6
330
2
100
AcDbEntity
  8
画層1
  6
DASHED2
370
    20
100
AcDbCircle
 10
-338.990401178997
 20
119.958776737169
 30
0.0
 40
2.5
100
AcDbArc
 50
180.0
 51
233.1301023541559
  0
LINE
  5
1BC7
330
2
100
AcDbEntity
  8
画層1
  6
DASHED2
370
    20
100
AcDbLine
 10
-340.490401178997
 20
121.958776737169
 30
0.0
 11
-335.490401178997
 21
121.958776737169
 31
0.0
  0
LINE
  5
1BC8
330
2
100
AcDbEntity
  8
画層1
  6
DASHED2
370
    20
100
AcDbLine
 10
-340.490401178997
 20
105.958776737169
 30
0.0
 11
-335.490401178997
 21
105.958776737169
 31
0.0
  0
LINE
  5
1BC9
330
2
100
AcDbEntity
  8
画層1
  6
DASHED2
370
    20
100
AcDbLine
 10
-341.490401178997
 20
119.958776737169
 30
0.0
 11
-341.490401178997
 21
107.958776737169
 31
0.0
  0
LINE
  5
1BD2
330
2
100
AcDbEntity
  8
画層1
  6
DASHED2
370
    20
100
AcDbLine
 10
-328.6120830405468
 20
122.158776737169
 30
0.0
 11
-327.617588940603
 21
122.158776737169
 31
0.0
  0
LINE
  5
1BD3
330
2
100
AcDbEntity
  8
画層1
  6
DASHED2
370
    20
100
AcDbLine
 10
-327.617588940603
 20
122.158776737169
 30
0.0
 11
-327.617588940603
 21
105.758776737169
 31
0.0
  0
LINE
  5
1BD4
330
2
100
AcDbEntity
  8
画層1
  6
DASHED2
370
    20
100
AcDbLine
 10
-327.617588940603
 20
105.758776737169
 30
0.0
 11
-328.5023650701484
 21
105.758776737169
 31
0.0
  0
LINE
  5
1BD5
330
2
100
AcDbEntity
  8
画層1
  6
DASHED2
370
    20
100
AcDbLine
 10
-322.617588940603
 20
117.958776737169
 30
0.0
 11
-327.617588940603
 21
117.958776737169
 31
0.0
  0
ARC
  5
1BD6
330
2
100
AcDbEntity
  8
画層1
  6
DASHED2
370
    20
100
AcDbCircle
 10
-324.117588940603
 20
119.958776737169
 30
0.0
 40
2.5
100
AcDbArc
 50
0.000000000000007
 51
53.130102354156
  0
LINE
  5
1BD8
330
2
100
AcDbEntity
  8
画層1
  6
DASHED2
370
    20
100
AcDbLine
 10
-321.617588940603
 20
119.958776737169
 30
0.0
 11
-321.617588940603
 21
107.958776737169
 31
0.0
  0
ARC
  5
1BD9
330
2
100
AcDbEntity
  8
画層1
  6
DASHED2
370
    20
100
AcDbCircle
 10
-330.117588940603
 20
113.958776737169
 30
0.0
 40
8.5
100
AcDbArc
 50
331.927513064147
 51
0.000000000000007
  0
ARC
  5
1BDA
330
2
100
AcDbEntity
  8
画層1
  6
DASHED2
370
    20
100
AcDbCircle
 10
-324.117588940603
 20
107.958776737169
 30
0.0
 40
2.5
100
AcDbArc
 50
306.8698976458439
 51
0.000000000000007
  0
ARC
  5
1BDB
330
2
100
AcDbEntity
  8
画層1
  6
DASHED2
370
    20
100
AcDbCircle
 10
-324.117588940603
 20
107.958776737169
 30
0.0
 40
2.5
100
AcDbArc
 50
0.000000000000007
 51
53.130102354156
  0
LINE
  5
1BDC
330
2
100
AcDbEntity
  8
画層1
  6
DASHED2
370
    20
100
AcDbLine
 10
-322.617588940603
 20
105.958776737169
 30
0.0
 11
-327.617588940603
 21
105.958776737169
 31
0.0
  0
LINE
  5
1BDD
330
2
100
AcDbEntity
  8
画層1
  6
DASHED2
370
    20
100
AcDbLine
 10
-322.617588940603
 20
109.958776737169
 30
0.0
 11
-327.617588940603
 21
109.958776737169
 31
0.0
  0
ARC
  5
1BDE
330
2
100
AcDbEntity
  8
画層1
  6
DASHED2
370
    20
100
AcDbCircle
 10
-324.117588940603
 20
119.958776737169
 30
0.0
 40
2.5
100
AcDbArc
 50
306.8698976458439
 51
0.000000000000007
  0
ARC
  5
1BDF
330
2
100
AcDbEntity
  8
画層1
  6
DASHED2
370
    20
100
AcDbCircle
 10
-330.117588940603
 20
113.958776737169
 30
0.0
 40
8.5
100
AcDbArc
 50
0.000000000000007
 51
28.07248693585297
  0
LINE
  5
1BE0
330
2
100
AcDbEntity
  8
画層1
  6
DASHED2
370
    20
100
AcDbLine
 10
-322.617588940603
 20
121.958776737169
 30
0.0
 11
-327.617588940603
 21
121.958776737169
 31
0.0
  0
LINE
  5
1BE2
330
2
100
AcDbEntity
  8
画層1
  6
DASHED2
370
    20
100
AcDbLine
 10
-328.5615452569517
 20
114.6046846595415
 30
0.0
 11
-327.617588940603
 21
112.5250601162325
 31
0.0
  0
LINE
  5
1BE3
330
2
100
AcDbEntity
  8
画層1
370
    20
100
AcDbLine
 10
-330.490401178997
 20
122.9587767371689
 30
0.0
 11
-328.490401178997
 21
122.9587767371689
 31
0.0
  0
LINE
  5
1BE4
330
2
100
AcDbEntity
  8
画層1
  6
DASHED2
370
    20
100
AcDbLine
 10
-328.490401178997
 20
122.9587767371689
 30
0.0
 11
-328.490401178997
 21
104.958776737169
 31
0.0
  0
LINE
  5
1BE5
330
2
100
AcDbEntity
  8
画層1
370
    20
100
AcDbLine
 10
-328.490401178997
 20
104.958776737169
 30
0.0
 11
-330.490401178997
 21
104.958776737169
 31
0.0
  0
LINE
  5
1BEE
330
2
100
AcDbEntity
  8
画層1
  6
DASHED2
370
    20
100
AcDbLine
 10
-321.617588940603
 20
109.7087767371689
 30
0.0
 11
-317.617588940603
 21
109.7087767371689
 31
0.0
  0
LINE
  5
1BEF
330
2
100
AcDbEntity
  8
画層1
  6
DASHED2
370
    20
100
AcDbLine
 10
-317.617588940603
 20
109.7087767371689
 30
0.0
 11
-316.617588940603
 21
110.208776737169
 31
0.0
  0
LINE
  5
1BF0
330
2
100
AcDbEntity
  8
画層1
  6
DASHED2
370
    20
100
AcDbLine
 10
-316.617588940603
 20
110.208776737169
 30
0.0
 11
-316.617588940603
 21
117.7087767371689
 31
0.0
  0
LINE
  5
1BF1
330
2
100
AcDbEntity
  8
画層1
  6
DASHED2
370
    20
100
AcDbLine
 10
-316.617588940603
 20
117.7087767371689
 30
0.0
 11
-317.617588940603
 21
118.2087767371689
 31
0.0
  0
LINE
  5
1BF2
330
2
100
AcDbEntity
  8
画層1
  6
DASHED2
370
    20
100
AcDbLine
 10
-317.617588940603
 20
118.2087767371689
 30
0.0
 11
-321.617588940603
 21
118.2087767371689
 31
0.0
  0
LINE
  5
1BF3
330
2
100
AcDbEntity
  8
画層1
  6
DASHED2
370
    20
100
AcDbLine
 10
-317.617588940603
 20
109.7087767371689
 30
0.0
 11
-317.617588940603
 21
118.2087767371689
 31
0.0
  0
LINE
  5
1BF4
330
2
100
AcDbEntity
  8
画層1
  6
DASHED2
370
    20
100
AcDbLine
 10
-321.617588940603
 20
117.7087767371689
 30
0.0
 11
-316.617588940603
 21
117.7087767371689
 31
0.0
  0
LINE
  5
1BF5
330
2
100
AcDbEntity
  8
画層1
  6
DASHED2
370
    20
100
AcDbLine
 10
-321.617588940603
 20
110.208776737169
 30
0.0
 11
-316.617588940603
 21
110.208776737169
 31
0.0
  0
LINE
  5
1BF9
330
2
100
AcDbEntity
  8
画層1
  6
DASHED2
370
    20
100
AcDbLine
 10
-346.490401178997
 20
113.9587767371689
 30
0.0
 11
-311.617588940603
 21
113.9587767371689
 31
0.0
  0
DIMENSION
  5
1BFA
330
2
100
AcDbEntity
  8
画層1
 62
     1
370
    20
100
AcDbDimension
  2
*D12
 10
-333.490401178997
 20
94.05268569144629
 30
0.0
 11
-268.490401178997
 21
96.30268569144631
 31
0.0
 70
    32
 71
     5
 42
-1.0
  3
STANDARD_WS
100
AcDbAlignedDimension
 13
-203.490401178997
 23
101.9587767371689
 33
0.0
 14
-333.490401178997
 24
103.958776737169
 34
0.0
100
AcDbRotatedDimension
1001
ACAD
1000
DSTYLE
1002
{
1070
    47
1040
0.6
1070
   140
1040
50.0
1070
   146
1040
0.5
1070
   147
1040
1.0
1070
   173
1070
     0
1070
   271
1070
     0
1070
   272
1070
     0
1070
   284
1070
     8
1070
   341
1005
28
1070
     5
1000
OPEN30
1070
     6
1000

1070
     7
1000

1002
}
  0
LINE
  5
1D2D
330
2
100
AcDbEntity
  8
画層1
  6
DASHED2
370
    20
100
AcDbLine
 10
-317.617588940603
 20
378.2087767371689
 30
0.0
 11
-317.617588940603
 21
369.7087767371689
 31
0.0
  0
LINE
  5
1D2E
330
2
100
AcDbEntity
  8
画層1
  6
DASHED2
370
    20
100
AcDbLine
 10
-316.617588940603
 20
377.708776737169
 30
0.0
 11
-316.617588940603
 21
370.2087767371689
 31
0.0
  0
LINE
  5
1D2F
330
2
100
AcDbEntity
  8
画層1
  6
DASHED2
370
    20
100
AcDbLine
 10
-328.490401178997
 20
364.958776737169
 30
0.0
 11
-328.490401178997
 21
382.9587767371689
 31
0.0
  0
LINE
  5
1D30
330
2
100
AcDbEntity
  8
画層1
  6
DASHED2
370
    20
100
AcDbLine
 10
-328.5615452569517
 20
373.3128688147964
 30
0.0
 11
-327.617588940603
 21
375.3924933581054
 31
0.0
  0
ARC
  5
1D31
330
2
100
AcDbEntity
  8
画層1
  6
DASHED2
370
    20
100
AcDbCircle
 10
-330.117588940603
 20
373.9587767371689
 30
0.0
 40
8.5
100
AcDbArc
 50
331.927513064147
 51
0.0
  0
LINE
  5
1D32
330
2
100
AcDbEntity
  8
画層1
  6
DASHED2
370
    20
100
AcDbLine
 10
-321.617588940603
 20
367.9587767371689
 30
0.0
 11
-321.617588940603
 21
379.958776737169
 31
0.0
  0
LINE
  5
1D33
330
2
100
AcDbEntity
  8
画層1
  6
DASHED2
370
    20
100
AcDbLine
 10
-327.617588940603
 20
365.758776737169
 30
0.0
 11
-327.617588940603
 21
382.1587767371689
 31
0.0
  0
LINE
  5
1D34
330
2
100
AcDbEntity
  8
画層1
  6
DASHED2
370
    20
100
AcDbLine
 10
-341.490401178997
 20
367.9587767371689
 30
0.0
 11
-341.490401178997
 21
379.958776737169
 31
0.0
  0
ARC
  5
1D35
330
2
100
AcDbEntity
  8
画層1
  6
DASHED2
370
    20
100
AcDbCircle
 10
-332.990401178997
 20
373.9587767371689
 30
0.0
 40
8.5
100
AcDbArc
 50
180.0
 51
208.0724869358529
  0
LINE
  5
1D36
330
2
100
AcDbEntity
  8
画層1
  6
DASHED2
370
    20
100
AcDbLine
 10
-335.490401178997
 20
364.958776737169
 30
0.0
 11
-335.490401178997
 21
382.9587767371689
 31
0.0
  0
LINE
  5
1D37
330
2
100
AcDbEntity
  8
画層1
  6
DASHED2
370
    20
100
AcDbLine
 10
-330.490401178997
 20
383.9587767371689
 30
0.0
 11
-330.490401178997
 21
353.9587767371689
 31
0.0
  0
LINE
  5
1D38
330
2
100
AcDbEntity
  8
画層1
  6
DASHED2
370
    20
100
AcDbLine
 10
-333.490401178997
 20
353.9587767371689
 30
0.0
 11
-333.490401178997
 21
383.9587767371689
 31
0.0
  0
LINE
  5
1D39
330
2
100
AcDbEntity
  8
画層1
  6
DASHED2
370
    20
100
AcDbLine
 10
-346.490401178997
 20
373.9587767371689
 30
0.0
 11
-311.617588940603
 21
373.9587767371689
 31
0.0
  0
LINE
  5
1D3A
330
2
100
AcDbEntity
  8
画層1
  6
DASHED2
370
    20
100
AcDbLine
 10
-322.617588940603
 20
377.9587767371689
 30
0.0
 11
-327.617588940603
 21
377.9587767371689
 31
0.0
  0
LINE
  5
1D3B
330
2
100
AcDbEntity
  8
画層1
  6
DASHED2
370
    20
100
AcDbLine
 10
-322.617588940603
 20
381.958776737169
 30
0.0
 11
-327.617588940603
 21
381.958776737169
 31
0.0
  0
ARC
  5
1D3C
330
2
100
AcDbEntity
  8
画層1
  6
DASHED2
370
    20
100
AcDbCircle
 10
-338.990401178997
 20
379.958776737169
 30
0.0
 40
2.5
100
AcDbArc
 50
126.869897645844
 51
180.0
  0
LINE
  5
1D3D
330
2
100
AcDbEntity
  8
画層1
  6
DASHED2
370
    20
100
AcDbLine
 10
-340.490401178997
 20
381.958776737169
 30
0.0
 11
-335.490401178997
 21
381.958776737169
 31
0.0
  0
LINE
  5
1D3E
330
2
100
AcDbEntity
  8
画層1
370
    20
100
AcDbLine
 10
-328.490401178997
 20
382.9587767371689
 30
0.0
 11
-330.490401178997
 21
382.9587767371689
 31
0.0
  0
LINE
  5
1D3F
330
2
100
AcDbEntity
  8
画層1
  6
DASHED2
370
    20
100
AcDbLine
 10
-327.617588940603
 20
382.1587767371689
 30
0.0
 11
-328.5023650701484
 21
382.1587767371689
 31
0.0
  0
LINE
  5
1D40
330
2
100
AcDbEntity
  8
画層1
370
    20
100
AcDbLine
 10
-335.490401178997
 20
382.9587767371689
 30
0.0
 11
-333.490401178997
 21
382.9587767371689
 31
0.0
  0
LINE
  5
1D41
330
2
100
AcDbEntity
  8
画層1
  6
DASHED2
370
    20
100
AcDbLine
 10
-333.490401178997
 20
383.9587767371689
 30
0.0
 11
-330.490401178997
 21
383.9587767371689
 31
0.0
  0
LINE
  5
1D42
330
2
100
AcDbEntity
  8
画層1
  6
DASHED2
370
    20
100
AcDbLine
 10
-340.490401178997
 20
377.9587767371689
 30
0.0
 11
-335.490401178997
 21
377.9587767371689
 31
0.0
  0
ARC
  5
1D43
330
2
100
AcDbEntity
  8
画層1
  6
DASHED2
370
    20
100
AcDbCircle
 10
-332.990401178997
 20
373.9587767371689
 30
0.0
 40
8.5
100
AcDbArc
 50
151.927513064147
 51
180.0
  0
ARC
  5
1D44
330
2
100
AcDbEntity
  8
画層1
  6
DASHED2
370
    20
100
AcDbCircle
 10
-338.990401178997
 20
379.958776737169
 30
0.0
 40
2.5
100
AcDbArc
 50
180.0
 51
233.1301023541559
  0
ARC
  5
1D45
330
2
100
AcDbEntity
  8
画層1
  6
DASHED2
370
    20
100
AcDbCircle
 10
-324.117588940603
 20
379.958776737169
 30
0.0
 40
2.5
100
AcDbArc
 50
0.0
 51
53.130102354156
  0
LINE
  5
1D46
330
2
100
AcDbEntity
  8
画層1
  6
DASHED2
370
    20
100
AcDbLine
 10
-321.617588940603
 20
377.708776737169
 30
0.0
 11
-316.617588940603
 21
377.708776737169
 31
0.0
  0
LINE
  5
1D47
330
2
100
AcDbEntity
  8
画層1
  6
DASHED2
370
    20
100
AcDbLine
 10
-317.617588940603
 20
378.2087767371689
 30
0.0
 11
-316.617588940603
 21
377.708776737169
 31
0.0
  0
LINE
  5
1D48
330
2
100
AcDbEntity
  8
画層1
  6
DASHED2
370
    20
100
AcDbLine
 10
-321.617588940603
 20
378.2087767371689
 30
0.0
 11
-317.617588940603
 21
378.2087767371689
 31
0.0
  0
ARC
  5
1D49
330
2
100
AcDbEntity
  8
画層1
  6
DASHED2
370
    20
100
AcDbCircle
 10
-324.117588940603
 20
379.958776737169
 30
0.0
 40
2.5
100
AcDbArc
 50
306.8698976458439
 51
0.0
  0
ARC
  5
1D4A
330
2
100
AcDbEntity
  8
画層1
  6
DASHED2
370
    20
100
AcDbCircle
 10
-330.117588940603
 20
373.9587767371689
 30
0.0
 40
8.5
100
AcDbArc
 50
0.0
 51
28.07248693585298
  0
LINE
  5
1D4B
330
2
100
AcDbEntity
  8
画層1
  6
DASHED2
370
    20
100
AcDbLine
 10
-322.617588940603
 20
365.9587767371689
 30
0.0
 11
-327.617588940603
 21
365.9587767371689
 31
0.0
  0
LINE
  5
1D4C
330
2
100
AcDbEntity
  8
画層1
  6
DASHED2
370
    20
100
AcDbLine
 10
-322.617588940603
 20
369.9587767371689
 30
0.0
 11
-327.617588940603
 21
369.9587767371689
 31
0.0
  0
LINE
  5
1D4D
330
2
100
AcDbEntity
  8
画層1
  6
DASHED2
370
    20
100
AcDbLine
 10
-340.490401178997
 20
365.9587767371689
 30
0.0
 11
-335.490401178997
 21
365.9587767371689
 31
0.0
  0
LINE
  5
1D4E
330
2
100
AcDbEntity
  8
画層1
  6
DASHED2
370
    20
100
AcDbLine
 10
-340.490401178997
 20
369.9587767371689
 30
0.0
 11
-335.490401178997
 21
369.9587767371689
 31
0.0
  0
ARC
  5
1D4F
330
2
100
AcDbEntity
  8
画層1
  6
DASHED2
370
    20
100
AcDbCircle
 10
-338.990401178997
 20
367.9587767371689
 30
0.0
 40
2.5
100
AcDbArc
 50
126.869897645844
 51
180.0
  0
ARC
  5
1D50
330
2
100
AcDbEntity
  8
画層1
  6
DASHED2
370
    20
100
AcDbCircle
 10
-338.990401178997
 20
367.9587767371689
 30
0.0
 40
2.5
100
AcDbArc
 50
180.0
 51
233.1301023541559
  0
LINE
  5
1D51
330
2
100
AcDbEntity
  8
画層1
  6
DASHED2
370
    20
100
AcDbLine
 10
-328.6120830405468
 20
365.758776737169
 30
0.0
 11
-327.617588940603
 21
365.758776737169
 31
0.0
  0
LINE
  5
1D52
330
2
100
AcDbEntity
  8
画層1
370
    20
100
AcDbLine
 10
-330.490401178997
 20
364.958776737169
 30
0.0
 11
-328.490401178997
 21
364.958776737169
 31
0.0
  0
LINE
  5
1D53
330
2
100
AcDbEntity
  8
画層1
370
    20
100
AcDbLine
 10
-333.490401178997
 20
364.958776737169
 30
0.0
 11
-335.490401178997
 21
364.958776737169
 31
0.0
  0
LINE
  5
1D54
330
2
100
AcDbEntity
  8
画層1
  6
DASHED2
370
    20
100
AcDbLine
 10
-321.617588940603
 20
370.2087767371689
 30
0.0
 11
-316.617588940603
 21
370.2087767371689
 31
0.0
  0
LINE
  5
1D55
330
2
100
AcDbEntity
  8
画層1
  6
DASHED2
370
    20
100
AcDbLine
 10
-317.617588940603
 20
369.7087767371689
 30
0.0
 11
-321.617588940603
 21
369.7087767371689
 31
0.0
  0
LINE
  5
1D56
330
2
100
AcDbEntity
  8
画層1
  6
DASHED2
370
    20
100
AcDbLine
 10
-316.617588940603
 20
370.2087767371689
 30
0.0
 11
-317.617588940603
 21
369.7087767371689
 31
0.0
  0
ARC
  5
1D57
330
2
100
AcDbEntity
  8
画層1
  6
DASHED2
370
    20
100
AcDbCircle
 10
-324.117588940603
 20
367.9587767371689
 30
0.0
 40
2.5
100
AcDbArc
 50
0.0
 51
53.130102354156
  0
ARC
  5
1D58
330
2
100
AcDbEntity
  8
画層1
  6
DASHED2
370
    20
100
AcDbCircle
 10
-324.117588940603
 20
367.9587767371689
 30
0.0
 40
2.5
100
AcDbArc
 50
306.8698976458439
 51
0.0
  0
ENDSEC
  0
SECTION
  2
OBJECTS
  0
DICTIONARY
  5
9
330
0
100
AcDbDictionary
281
     1
  3
ACAD_GROUP
350
23
  3
ACAD_LAYOUT
350
D
  3
ACAD_MLINESTYLE
350
24
  3
ACAD_PLOTSETTINGS
350
25
  3
ACAD_PLOTSTYLENAME
350
8
  3
AcDbVariableDictionary
350
115B
  3
DWGPROPS
350
B1B
  0
DICTIONARY
  5
3
330
2
100
AcDbDictionary
280
     1
281
     1
  3
ACAD_LAYOUTSELFREF
360
1DAF
  0
DICTIONARY
  5
F
330
E
100
AcDbDictionary
280
     1
281
     1
  3
ACAD_LAYOUTSELFREF
360
1DB4
  0
DICTIONARY
  5
23
102
{ACAD_REACTORS
330
9
102
}
330
9
100
AcDbDictionary
281
     1
  0
DICTIONARY
  5
D
102
{ACAD_REACTORS
330
9
102
}
330
9
100
AcDbDictionary
281
     1
  3
Model
350
560
  3
ﾚｲｱｳﾄ1
350
561
  0
DICTIONARY
  5
24
102
{ACAD_REACTORS
330
9
102
}
330
9
100
AcDbDictionary
281
     1
  3
STANDARD
350
34
  0
DICTIONARY
  5
25
102
{ACAD_REACTORS
330
9
102
}
330
9
100
AcDbDictionary
281
     1
  0
ACDBDICTIONARYWDFLT
  5
8
102
{ACAD_REACTORS
330
9
102
}
330
9
100
AcDbDictionary
281
     1
  3
Normal
350
7
100
AcDbDictionaryWithDefault
340
7
  0
DICTIONARY
  5
115B
102
{ACAD_REACTORS
330
9
102
}
330
9
100
AcDbDictionary
281
     1
  3
SORTENTS
350
115C
  0
XRECORD
  5
B1B
102
{ACAD_REACTORS
330
9
102
}
330
9
100
AcDbXrecord
280
     1
  1
DWGPROPS COOKIE
  2

  3

  4

  6

  7

  8

  9

300
=
301
=
302
=
303
=
304
=
305
=
306
=
307
=
308
=
309
=
 40
3.889878958333333
 41
2450995.462150231
 42
2454049.770371816
  1

 90
        0
  0
XRECORD
  5
1DAF
102
{ACAD_REACTORS
330
3
102
}
330
3
100
AcDbXrecord
280
     1
340
2
  0
XRECORD
  5
1DB4
102
{ACAD_REACTORS
330
F
102
}
330
F
100
AcDbXrecord
280
     1
340
E
  0
LAYOUT
  5
560
102
{ACAD_REACTORS
330
D
102
}
330
D
100
AcDbPlotSettings
  1

  2
DocuPrint 360
  4
A3
  6

 40
5.238749980926513
 41
5.238728046417236
 42
5.32342529296875
 43
5.238739013671875
 44
296.9683227539062
 45
419.9889831542968
 46
51.0
 47
81.79999999999999
 48
0.0
 49
0.0
140
0.0
141
0.0
142
1.0
143
2.0
 70
 11956
 72
     1
 73
     1
 74
     1
  7

 75
    17
147
0.5
148
685.367875494227
149
-62.15923965559534
100
AcDbLayout
  1
Model
 70
     1
 71
     0
 10
0.0
 20
0.0
 11
12.0
 21
9.0
 12
0.0
 22
0.0
 32
0.0
 14
0.0
 24
0.0
 34
0.0
 15
0.0
 25
0.0
 35
0.0
146
0.0
 13
0.0
 23
0.0
 33
0.0
 16
1.0
 26
0.0
 36
0.0
 17
0.0
 27
1.0
 37
0.0
 76
     0
330
2
  0
LAYOUT
  5
561
102
{ACAD_REACTORS
330
D
102
}
330
D
100
AcDbPlotSettings
  1

  2
EPSON MJ-6000C
  4

  6

 40
0.0
 41
0.0
 42
0.0
 43
0.0
 44
0.0
 45
0.0
 46
0.0
 47
0.0
 48
0.0
 49
0.0
140
0.0
141
0.0
142
1.0
143
1.0
 70
   688
 72
     0
 73
     0
 74
     5
  7

 75
    16
147
1.0
148
0.0
149
0.0
100
AcDbLayout
  1
ﾚｲｱｳﾄ1
 70
     1
 71
     1
 10
0.0
 20
0.0
 11
420.0
 21
297.0
 12
0.0
 22
0.0
 32
0.0
 14
1.000000000000000E+20
 24
1.000000000000000E+20
 34
1.000000000000000E+20
 15
-1.000000000000000E+20
 25
-1.000000000000000E+20
 35
-1.000000000000000E+20
146
0.0
 13
0.0
 23
0.0
 33
0.0
 16
1.0
 26
0.0
 36
0.0
 17
0.0
 27
1.0
 37
0.0
 76
     0
330
E
  0
MLINESTYLE
  5
34
102
{ACAD_REACTORS
330
24
102
}
330
24
100
AcDbMlineStyle
  2
STANDARD
 70
     0
  3

 62
   256
 51
90.0
 52
90.0
 71
     2
 49
0.5
 62
   256
  6
BYLAYER
 49
-0.5
 62
   256
  6
BYLAYER
  0
ACDBPLACEHOLDER
  5
7
102
{ACAD_REACTORS
330
8
102
}
330
8
  0
DICTIONARYVAR
  5
115C
102
{ACAD_REACTORS
330
115B
102
}
330
115B
100
DictionaryVariables
280
     0
  1
96
  0
ENDSEC
  0
EOF
