  0
SECTION
  2
HEADER
  9
$ACADVER
  1
AC1015
  9
$ACADMAINTVER
 70
     6
  9
$DWGCODEPAGE
  3
ANSI_932
  9
$INSBASE
 10
0.0
 20
0.0
 30
0.0
  9
$EXTMIN
 10
-714.0652295960735
 20
16.50236354334469
 30
0.0
  9
$EXTMAX
 10
-44.14902059191672
 20
469.4993583259595
 30
0.0
  9
$LIMMIN
 10
0.0
 20
0.0
  9
$LIMMAX
 10
420.0
 20
297.0
  9
$ORTHOMODE
 70
     1
  9
$REGENMODE
 70
     1
  9
$FILLMODE
 70
     1
  9
$QTEXTMODE
 70
     0
  9
$MIRRTEXT
 70
     1
  9
$LTSCALE
 40
0.2
  9
$ATTMODE
 70
     1
  9
$TEXTSIZE
 40
2.5
  9
$TRACEWID
 40
1.0
  9
$TEXTSTYLE
  7
STYLE1
  9
$CLAYER
  8
画層1
  9
$CELTYPE
  6
DASHED2
  9
$CECOLOR
 62
     0
  9
$CELTSCALE
 40
1.0
  9
$DISPSILH
 70
     0
  9
$DIMSCALE
 40
1.0
  9
$DIMASZ
 40
1.5
  9
$DIMEXO
 40
0.63
  9
$DIMDLI
 40
3.75
  9
$DIMRND
 40
0.0
  9
$DIMDLE
 40
0.0
  9
$DIMEXE
 40
1.25
  9
$DIMTP
 40
0.6
  9
$DIMTM
 40
0.0
  9
$DIMTXT
 40
50.0
  9
$DIMCEN
 40
2.5
  9
$DIMTSZ
 40
0.0
  9
$DIMTOL
 70
     0
  9
$DIMLIM
 70
     0
  9
$DIMTIH
 70
     0
  9
$DIMTOH
 70
     0
  9
$DIMSE1
 70
     0
  9
$DIMSE2
 70
     0
  9
$DIMTAD
 70
     1
  9
$DIMZIN
 70
     8
  9
$DIMBLK
  1
OPEN30
  9
$DIMASO
 70
     1
  9
$DIMSHO
 70
     1
  9
$DIMPOST
  1

  9
$DIMAPOST
  1

  9
$DIMALT
 70
     0
  9
$DIMALTD
 70
     4
  9
$DIMALTF
 40
0.04
  9
$DIMLFAC
 40
1.0
  9
$DIMTOFL
 70
     1
  9
$DIMTVP
 40
0.0
  9
$DIMTIX
 70
     0
  9
$DIMSOXD
 70
     0
  9
$DIMSAH
 70
     0
  9
$DIMBLK1
  1

  9
$DIMBLK2
  1

  9
$DIMSTYLE
  2
STANDARD_WS
  9
$DIMCLRD
 70
     0
  9
$DIMCLRE
 70
     0
  9
$DIMCLRT
 70
     0
  9
$DIMTFAC
 40
0.5
  9
$DIMGAP
 40
1.0
  9
$DIMJUST
 70
     0
  9
$DIMSD1
 70
     0
  9
$DIMSD2
 70
     0
  9
$DIMTOLJ
 70
     1
  9
$DIMTZIN
 70
     8
  9
$DIMALTZ
 70
     0
  9
$DIMALTTZ
 70
     0
  9
$DIMUPT
 70
     0
  9
$DIMDEC
 70
     0
  9
$DIMTDEC
 70
     0
  9
$DIMALTU
 70
     8
  9
$DIMALTTD
 70
     4
  9
$DIMTXSTY
  7
STANDARD
  9
$DIMAUNIT
 70
     0
  9
$DIMADEC
 70
     0
  9
$DIMALTRND
 40
0.0
  9
$DIMAZIN
 70
     0
  9
$DIMDSEP
 70
    46
  9
$DIMATFIT
 70
     3
  9
$DIMFRAC
 70
     0
  9
$DIMLDRBLK
  1
OPEN30
  9
$DIMLUNIT
 70
     2
  9
$DIMLWD
 70
    -2
  9
$DIMLWE
 70
    -2
  9
$DIMTMOVE
 70
     0
  9
$LUNITS
 70
     2
  9
$LUPREC
 70
     4
  9
$SKETCHINC
 40
1.0
  9
$FILLETRAD
 40
2.0
  9
$AUNITS
 70
     0
  9
$AUPREC
 70
     0
  9
$MENU
  1
acad
  9
$ELEVATION
 40
0.0
  9
$PELEVATION
 40
0.0
  9
$THICKNESS
 40
0.0
  9
$LIMCHECK
 70
     0
  9
$CHAMFERA
 40
10.0
  9
$CHAMFERB
 40
10.0
  9
$CHAMFERC
 40
20.0
  9
$CHAMFERD
 40
0.0
  9
$SKPOLY
 70
     0
  9
$TDCREATE
 40
2450995.462150231
  9
$TDUCREATE
 40
2450995.087150231
  9
$TDUPDATE
 40
2454053.497818101
  9
$TDUUPDATE
 40
2454053.122818101
  9
$TDINDWG
 40
4.2712428935
  9
$TDUSRTIMER
 40
4.2712390741
  9
$USRTIMER
 70
     1
  9
$ANGBASE
 50
0.0
  9
$ANGDIR
 70
     0
  9
$PDMODE
 70
     0
  9
$PDSIZE
 40
0.0
  9
$PLINEWID
 40
10.0
  9
$SPLFRAME
 70
     0
  9
$SPLINETYPE
 70
     6
  9
$SPLINESEGS
 70
     8
  9
$HANDSEED
  5
F99
  9
$SURFTAB1
 70
     6
  9
$SURFTAB2
 70
     6
  9
$SURFTYPE
 70
     6
  9
$SURFU
 70
     6
  9
$SURFV
 70
     6
  9
$UCSBASE
  2

  9
$UCSNAME
  2

  9
$UCSORG
 10
0.0
 20
0.0
 30
0.0
  9
$UCSXDIR
 10
1.0
 20
0.0
 30
0.0
  9
$UCSYDIR
 10
0.0
 20
1.0
 30
0.0
  9
$UCSORTHOREF
  2

  9
$UCSORTHOVIEW
 70
     0
  9
$UCSORGTOP
 10
0.0
 20
0.0
 30
0.0
  9
$UCSORGBOTTOM
 10
0.0
 20
0.0
 30
0.0
  9
$UCSORGLEFT
 10
0.0
 20
0.0
 30
0.0
  9
$UCSORGRIGHT
 10
0.0
 20
0.0
 30
0.0
  9
$UCSORGFRONT
 10
0.0
 20
0.0
 30
0.0
  9
$UCSORGBACK
 10
0.0
 20
0.0
 30
0.0
  9
$PUCSBASE
  2

  9
$PUCSNAME
  2

  9
$PUCSORG
 10
0.0
 20
0.0
 30
0.0
  9
$PUCSXDIR
 10
1.0
 20
0.0
 30
0.0
  9
$PUCSYDIR
 10
0.0
 20
1.0
 30
0.0
  9
$PUCSORTHOREF
  2

  9
$PUCSORTHOVIEW
 70
     0
  9
$PUCSORGTOP
 10
0.0
 20
0.0
 30
0.0
  9
$PUCSORGBOTTOM
 10
0.0
 20
0.0
 30
0.0
  9
$PUCSORGLEFT
 10
0.0
 20
0.0
 30
0.0
  9
$PUCSORGRIGHT
 10
0.0
 20
0.0
 30
0.0
  9
$PUCSORGFRONT
 10
0.0
 20
0.0
 30
0.0
  9
$PUCSORGBACK
 10
0.0
 20
0.0
 30
0.0
  9
$USERI1
 70
     0
  9
$USERI2
 70
     0
  9
$USERI3
 70
     0
  9
$USERI4
 70
     0
  9
$USERI5
 70
     0
  9
$USERR1
 40
0.0
  9
$USERR2
 40
0.0
  9
$USERR3
 40
0.0
  9
$USERR4
 40
0.0
  9
$USERR5
 40
0.0
  9
$WORLDVIEW
 70
     1
  9
$SHADEDGE
 70
     3
  9
$SHADEDIF
 70
    70
  9
$TILEMODE
 70
     1
  9
$MAXACTVP
 70
    48
  9
$PINSBASE
 10
0.0
 20
0.0
 30
0.0
  9
$PLIMCHECK
 70
     0
  9
$PEXTMIN
 10
1.000000000000000E+20
 20
1.000000000000000E+20
 30
1.000000000000000E+20
  9
$PEXTMAX
 10
-1.000000000000000E+20
 20
-1.000000000000000E+20
 30
-1.000000000000000E+20
  9
$PLIMMIN
 10
0.0
 20
0.0
  9
$PLIMMAX
 10
420.0
 20
297.0
  9
$UNITMODE
 70
     0
  9
$VISRETAIN
 70
     1
  9
$PLINEGEN
 70
     0
  9
$PSLTSCALE
 70
     1
  9
$TREEDEPTH
 70
  3020
  9
$CMLSTYLE
  2
STANDARD
  9
$CMLJUST
 70
     0
  9
$CMLSCALE
 40
20.0
  9
$PROXYGRAPHICS
 70
     1
  9
$MEASUREMENT
 70
     1
  9
$CELWEIGHT
370
    20
  9
$ENDCAPS
280
     0
  9
$JOINSTYLE
280
     0
  9
$LWDISPLAY
290
     0
  9
$INSUNITS
 70
     0
  9
$HYPERLINKBASE
  1

  9
$STYLESHEET
  1

  9
$XEDIT
290
     1
  9
$CEPSNTYPE
380
     0
  9
$PSTYLEMODE
290
     1
  9
$FINGERPRINTGUID
  2
{12426522-B208-11D3-A790-004026173390}
  9
$VERSIONGUID
  2
{3A31C652-EA0A-44AC-A5F9-E8439D46DFB5}
  9
$EXTNAMES
290
     1
  9
$PSVPSCALE
 40
0.0
  9
$OLESTARTUP
290
     0
  0
ENDSEC
  0
SECTION
  2
CLASSES
  0
CLASS
  1
DICTIONARYVAR
  2
AcDbDictionaryVar
  3
AutoCAD 2000
 90
    32768
280
     0
281
     0
  0
CLASS
  1
LWPOLYLINE
  2
AcDbPolyline
  3
AutoCAD 2000
 90
    32768
280
     0
281
     1
  0
CLASS
  1
OLE2FRAME
  2
AcDbOle2Frame
  3
AutoCAD 2000
 90
    32768
280
     0
281
     1
  0
CLASS
  1
HATCH
  2
AcDbHatch
  3
AutoCAD 2000
 90
    32768
280
     0
281
     1
  0
CLASS
  1
ACDBDICTIONARYWDFLT
  2
AcDbDictionaryWithDefault
  3
AutoCAD 2000
 90
        0
280
     0
281
     0
  0
CLASS
  1
ACDBPLACEHOLDER
  2
AcDbPlaceHolder
  3
AutoCAD 2000
 90
        0
280
     0
281
     0
  0
CLASS
  1
LAYOUT
  2
AcDbLayout
  3
AutoCAD 2000
 90
        0
280
     0
281
     0
  0
CLASS
  1
LONG_TRANSACTION
  2
AcDbLongTransaction
  3
AutoCAD 2000
 90
    32768
280
     0
281
     0
  0
CLASS
  1
LWPOLYLINE
  2
AcDbPolyline
  3
AutoCAD 2000
 90
    32768
280
     0
281
     1
  0
CLASS
  1
HATCH
  2
AcDbHatch
  3
AutoCAD 2000
 90
    32768
280
     0
281
     1
  0
CLASS
  1
XRECORD
  2
AcDbXrecord
  3
AutoCAD 2000
 90
    32768
280
     0
281
     0
  0
CLASS
  1
LONG_TRANSACTION
  2
AcDbLongTransaction
  3
AutoCAD 2000
 90
    32768
280
     0
281
     0
  0
CLASS
  1
LWPOLYLINE
  2
AcDbPolyline
  3
AutoCAD 2000
 90
    32768
280
     0
281
     1
  0
CLASS
  1
HATCH
  2
AcDbHatch
  3
AutoCAD 2000
 90
    32768
280
     0
281
     1
  0
CLASS
  1
XRECORD
  2
AcDbXrecord
  3
AutoCAD 2000
 90
    32768
280
     0
281
     0
  0
CLASS
  1
LONG_TRANSACTION
  2
AcDbLongTransaction
  3
AutoCAD 2000
 90
    32768
280
     0
281
     0
  0
CLASS
  1
LWPOLYLINE
  2
AcDbPolyline
  3
AutoCAD 2000
 90
    32768
280
     0
281
     1
  0
CLASS
  1
HATCH
  2
AcDbHatch
  3
AutoCAD 2000
 90
    32768
280
     0
281
     1
  0
CLASS
  1
XRECORD
  2
AcDbXrecord
  3
AutoCAD 2000
 90
    32768
280
     0
281
     0
  0
CLASS
  1
LONG_TRANSACTION
  2
AcDbLongTransaction
  3
AutoCAD 2000
 90
    32768
280
     0
281
     0
  0
CLASS
  1
LWPOLYLINE
  2
AcDbPolyline
  3
AutoCAD 2000
 90
    32768
280
     0
281
     1
  0
CLASS
  1
HATCH
  2
AcDbHatch
  3
AutoCAD 2000
 90
    32768
280
     0
281
     1
  0
CLASS
  1
XRECORD
  2
AcDbXrecord
  3
AutoCAD 2000
 90
    32768
280
     0
281
     0
  0
CLASS
  1
LONG_TRANSACTION
  2
AcDbLongTransaction
  3
AutoCAD 2000
 90
    32768
280
     0
281
     0
  0
CLASS
  1
LWPOLYLINE
  2
AcDbPolyline
  3
AutoCAD 2000
 90
    32768
280
     0
281
     1
  0
CLASS
  1
HATCH
  2
AcDbHatch
  3
AutoCAD 2000
 90
    32768
280
     0
281
     1
  0
CLASS
  1
XRECORD
  2
AcDbXrecord
  3
AutoCAD 2000
 90
    32768
280
     0
281
     0
  0
CLASS
  1
LONG_TRANSACTION
  2
AcDbLongTransaction
  3
AutoCAD 2000
 90
    32768
280
     0
281
     0
  0
CLASS
  1
LWPOLYLINE
  2
AcDbPolyline
  3
AutoCAD 2000
 90
    32768
280
     0
281
     1
  0
CLASS
  1
HATCH
  2
AcDbHatch
  3
AutoCAD 2000
 90
    32768
280
     0
281
     1
  0
CLASS
  1
XRECORD
  2
AcDbXrecord
  3
AutoCAD 2000
 90
    32768
280
     0
281
     0
  0
CLASS
  1
LONG_TRANSACTION
  2
AcDbLongTransaction
  3
AutoCAD 2000
 90
    32768
280
     0
281
     0
  0
CLASS
  1
LWPOLYLINE
  2
AcDbPolyline
  3
AutoCAD 2000
 90
    32768
280
     0
281
     1
  0
CLASS
  1
HATCH
  2
AcDbHatch
  3
AutoCAD 2000
 90
    32768
280
     0
281
     1
  0
CLASS
  1
XRECORD
  2
AcDbXrecord
  3
AutoCAD 2000
 90
    32768
280
     0
281
     0
  0
ENDSEC
  0
SECTION
  2
TABLES
  0
TABLE
  2
VPORT
  5
1E
330
0
100
AcDbSymbolTable
 70
     2
  0
VPORT
  5
F98
330
1E
100
AcDbSymbolTableRecord
100
AcDbViewportTableRecord
  2
*Active
 70
     0
 10
0.0
 20
0.0
 11
1.0
 21
1.0
 12
-129.2244464610186
 22
161.0954332511395
 13
0.0
 23
0.0
 14
1.0
 24
1.0
 15
2.0
 25
2.0
 16
0.0
 26
0.0
 36
1.0
 17
0.0
 27
0.0
 37
0.0
 40
873.2569679748532
 41
1.750922509225092
 42
50.0
 43
0.0
 44
0.0
 50
0.0
 51
0.0
 71
     0
 72
   100
 73
     1
 74
     1
 75
     0
 76
     0
 77
     0
 78
     0
281
     0
 65
     1
110
0.0
120
0.0
130
0.0
111
1.0
121
0.0
131
0.0
112
0.0
122
1.0
132
0.0
 79
     0
146
0.0
  0
ENDTAB
  0
TABLE
  2
LTYPE
  5
19
330
0
100
AcDbSymbolTable
 70
     3
  0
LTYPE
  5
1A
330
19
100
AcDbSymbolTableRecord
100
AcDbLinetypeTableRecord
  2
BYBLOCK
 70
     0
  3

 72
    65
 73
     0
 40
0.0
  0
LTYPE
  5
1B
330
19
100
AcDbSymbolTableRecord
100
AcDbLinetypeTableRecord
  2
BYLAYER
 70
     0
  3

 72
    65
 73
     0
 40
0.0
  0
LTYPE
  5
A
330
19
100
AcDbSymbolTableRecord
100
AcDbLinetypeTableRecord
  2
CONTINUOUS
 70
     0
  3
Solid line
 72
    65
 73
     0
 40
0.0
  0
LTYPE
  5
68
330
19
100
AcDbSymbolTableRecord
100
AcDbLinetypeTableRecord
  2
DASHED2
 70
     0
  3
Dashed (.5x) _ _ _ _ _ _ _ _ _ _ _ _ _ _ _ _ _
 72
    65
 73
     2
 40
9.529999999999999
 49
6.349999999999998
 74
     0
 49
-3.18
 74
     0
  0
LTYPE
  5
76
330
19
100
AcDbSymbolTableRecord
100
AcDbLinetypeTableRecord
  2
CENTER
 70
     0
  3
Center ____ _ ____ _ ____ _ ____ _ ____ _ ____
 72
    65
 73
     4
 40
50.8
 49
31.75
 74
     0
 49
-6.349999999999998
 74
     0
 49
6.349999999999998
 74
     0
 49
-6.349999999999998
 74
     0
  0
ENDTAB
  0
TABLE
  2
LAYER
  5
14
330
0
100
AcDbSymbolTable
 70
     3
  0
LAYER
  5
6
330
14
100
AcDbSymbolTableRecord
100
AcDbLayerTableRecord
  2
0
 70
     0
 62
     7
  6
CONTINUOUS
370
    -3
390
7
  0
LAYER
  5
3F
330
14
100
AcDbSymbolTableRecord
100
AcDbLayerTableRecord
  2
DEFPOINTS
 70
     0
 62
     7
  6
CONTINUOUS
290
     0
370
    -3
390
7
  0
LAYER
  5
26
330
14
100
AcDbSymbolTableRecord
100
AcDbLayerTableRecord
  2
画層1
 70
     0
 62
     7
  6
CONTINUOUS
370
    -3
390
7
  0
ENDTAB
  0
TABLE
  2
STYLE
  5
15
330
0
100
AcDbSymbolTable
 70
     2
  0
STYLE
  5
16
330
15
100
AcDbSymbolTableRecord
100
AcDbTextStyleTableRecord
  2
STANDARD
 70
     0
 40
2.5
 41
1.0
 50
0.0
 71
     0
 42
1.5
  3
MS PMincho.ttf
  4

1001
ACAD
1000
MS PMincho
1071
    32786
  0
STYLE
  5
27
330
15
100
AcDbSymbolTableRecord
100
AcDbTextStyleTableRecord
  2
STYLE1
 70
     0
 40
2.5
 41
1.0
 50
0.0
 71
     0
 42
2.5
  3
MS Gothic.ttf
  4

1001
ACAD
1000
MS Gothic
1071
    32817
  0
ENDTAB
  0
TABLE
  2
VIEW
  5
1C
330
0
100
AcDbSymbolTable
 70
     0
  0
ENDTAB
  0
TABLE
  2
UCS
  5
1D
330
0
100
AcDbSymbolTable
 70
     0
  0
ENDTAB
  0
TABLE
  2
APPID
  5
20
330
0
100
AcDbSymbolTable
 70
     1
  0
APPID
  5
17
330
20
100
AcDbSymbolTableRecord
100
AcDbRegAppTableRecord
  2
ACAD
 70
     0
  0
ENDTAB
  0
TABLE
  2
DIMSTYLE
  5
21
330
0
100
AcDbSymbolTable
 70
     1
100
AcDbDimStyleTable
 71
     0
  0
DIMSTYLE
105
35
102
{ACAD_REACTORS
330
C51
330
C5E
330
C78
330
C95
330
CA2
330
CAF
330
EE2
330
EEF
102
}
330
21
100
AcDbSymbolTableRecord
100
AcDbDimStyleTableRecord
  2
STANDARD_WS
 70
     0
 41
1.5
 42
0.63
 43
3.75
 44
1.25
 73
     0
 74
     0
 77
     1
 78
     8
140
2.5
141
2.5
143
0.04
147
0.63
171
     4
172
     1
173
     1
273
     8
274
     4
340
16
341
2E
343
2E
344
2E
  0
ENDTAB
  0
TABLE
  2
BLOCK_RECORD
  5
1
330
0
100
AcDbSymbolTable
 70
    21
  0
BLOCK_RECORD
  5
2
102
{ACAD_XDICTIONARY
360
3
102
}
330
1
100
AcDbSymbolTableRecord
100
AcDbBlockTableRecord
  2
*MODEL_SPACE
340
560
  0
BLOCK_RECORD
  5
E
102
{ACAD_XDICTIONARY
360
F
102
}
330
1
100
AcDbSymbolTableRecord
100
AcDbBlockTableRecord
  2
*PAPER_SPACE
340
561
  0
BLOCK_RECORD
  5
2E
330
1
100
AcDbSymbolTableRecord
100
AcDbBlockTableRecord
  2
_OPEN
340
0
  0
BLOCK_RECORD
  5
28
330
1
100
AcDbSymbolTableRecord
100
AcDbBlockTableRecord
  2
_OPEN30
340
0
102
{BLKREFS
331
BDA
331
BDB
331
BF0
331
BF1
331
BFB
331
BFC
331
C08
331
C09
331
C15
331
C16
331
C22
331
C23
331
C2F
331
C30
331
C3C
331
C3D
331
C49
331
C4A
331
F4F
331
F50
331
F58
331
F59
331
C70
331
C71
331
F61
331
F62
331
F6A
331
F6B
331
F73
331
F74
331
F7C
331
F7D
331
F85
331
F86
331
F8E
331
F8F
102
}
  0
BLOCK_RECORD
  5
121
330
1
100
AcDbSymbolTableRecord
100
AcDbBlockTableRecord
  2
_DOTSMALL
340
0
  0
BLOCK_RECORD
  5
C52
330
1
100
AcDbSymbolTableRecord
100
AcDbBlockTableRecord
  2
*D12
340
0
  0
BLOCK_RECORD
  5
C5F
330
1
100
AcDbSymbolTableRecord
100
AcDbBlockTableRecord
  2
*D13
340
0
  0
BLOCK_RECORD
  5
C79
330
1
100
AcDbSymbolTableRecord
100
AcDbBlockTableRecord
  2
*D15
340
0
  0
BLOCK_RECORD
  5
C96
330
1
100
AcDbSymbolTableRecord
100
AcDbBlockTableRecord
  2
*D16
340
0
  0
BLOCK_RECORD
  5
CA3
330
1
100
AcDbSymbolTableRecord
100
AcDbBlockTableRecord
  2
*D17
340
0
  0
BLOCK_RECORD
  5
CB0
330
1
100
AcDbSymbolTableRecord
100
AcDbBlockTableRecord
  2
*D18
340
0
  0
BLOCK_RECORD
  5
EE3
330
1
100
AcDbSymbolTableRecord
100
AcDbBlockTableRecord
  2
*D19
340
0
  0
BLOCK_RECORD
  5
EF0
330
1
100
AcDbSymbolTableRecord
100
AcDbBlockTableRecord
  2
*D20
340
0
  0
ENDTAB
  0
ENDSEC
  0
SECTION
  2
BLOCKS
  0
BLOCK
  5
5
330
2
100
AcDbEntity
  8
0
100
AcDbBlockBegin
  2
*MODEL_SPACE
 70
     0
 10
0.0
 20
0.0
 30
0.0
  3
*MODEL_SPACE
  1

  0
ENDBLK
  5
B
330
2
100
AcDbEntity
  8
0
100
AcDbBlockEnd
  0
BLOCK
  5
11
330
E
100
AcDbEntity
 67
     1
  8
0
100
AcDbBlockBegin
  2
*PAPER_SPACE
 70
     0
 10
0.0
 20
0.0
 30
0.0
  3
*PAPER_SPACE
  1

  0
ENDBLK
  5
12
330
E
100
AcDbEntity
 67
     1
  8
0
100
AcDbBlockEnd
  0
BLOCK
  5
32
330
2E
100
AcDbEntity
  8
0
100
AcDbBlockBegin
  2
_OPEN
 70
     0
 10
0.0
 20
0.0
 30
0.0
  3
_OPEN
  1

  0
LINE
  5
2F
330
2E
100
AcDbEntity
  8
0
  6
ByBlock
 62
     0
100
AcDbLine
 10
-1.0
 20
0.17
 30
0.0
 11
0.0
 21
0.0
 31
0.0
  0
LINE
  5
30
330
2E
100
AcDbEntity
  8
0
  6
ByBlock
 62
     0
100
AcDbLine
 10
0.0
 20
0.0
 30
0.0
 11
-1.0
 21
-0.17
 31
0.0
  0
LINE
  5
31
330
2E
100
AcDbEntity
  8
0
  6
ByBlock
 62
     0
100
AcDbLine
 10
0.0
 20
0.0
 30
0.0
 11
-1.0
 21
0.0
 31
0.0
  0
ENDBLK
  5
33
330
2E
100
AcDbEntity
  8
0
100
AcDbBlockEnd
  0
BLOCK
  5
2C
330
28
100
AcDbEntity
  8
0
100
AcDbBlockBegin
  2
_OPEN30
 70
     0
 10
0.0
 20
0.0
 30
0.0
  3
_OPEN30
  1

  0
LINE
  5
29
330
28
100
AcDbEntity
  8
0
  6
ByBlock
 62
     0
100
AcDbLine
 10
-1.0
 20
0.27
 30
0.0
 11
0.0
 21
0.0
 31
0.0
  0
LINE
  5
2A
330
28
100
AcDbEntity
  8
0
  6
ByBlock
 62
     0
100
AcDbLine
 10
0.0
 20
0.0
 30
0.0
 11
-1.0
 21
-0.27
 31
0.0
  0
LINE
  5
2B
330
28
100
AcDbEntity
  8
0
  6
ByBlock
 62
     0
100
AcDbLine
 10
0.0
 20
0.0
 30
0.0
 11
-1.0
 21
0.0
 31
0.0
  0
ENDBLK
  5
2D
330
28
100
AcDbEntity
  8
0
100
AcDbBlockEnd
  0
BLOCK
  5
123
330
121
100
AcDbEntity
  8
0
 62
     1
100
AcDbBlockBegin
  2
_DOTSMALL
 70
     0
 10
0.0
 20
0.0
 30
0.0
  3
_DOTSMALL
  1

  0
LWPOLYLINE
  5
122
330
121
100
AcDbEntity
  8
画層1
 62
     0
100
AcDbPolyline
 90
        2
 70
     1
 43
0.5
 10
-0.06
 20
0.0
 42
1.0
 10
0.06
 20
0.0
 42
1.0
  0
ENDBLK
  5
124
330
121
100
AcDbEntity
  8
0
 62
     1
100
AcDbBlockEnd
  0
BLOCK
  5
C5C
330
C52
100
AcDbEntity
  8
0
 62
     0
370
    20
100
AcDbBlockBegin
  2
*D12
 70
     1
 10
0.0
 20
0.0
 30
0.0
  3
*D12
  1

  0
LINE
  5
F4C
330
C52
100
AcDbEntity
  8
画層1
  6
ByBlock
 62
     0
100
AcDbLine
 10
-485.5652295960735
 20
403.0887767371689
 30
0.0
 11
-485.5652295960735
 21
454.2557299019827
 31
0.0
  0
LINE
  5
F4D
330
C52
100
AcDbEntity
  8
画層1
  6
ByBlock
 62
     0
100
AcDbLine
 10
-665.5652295960735
 20
403.0887767371689
 30
0.0
 11
-665.5652295960735
 21
454.2557299019827
 31
0.0
  0
LINE
  5
F4E
330
C52
100
AcDbEntity
  8
画層1
  6
ByBlock
 62
     0
100
AcDbLine
 10
-487.0652295960735
 20
453.0057299019826
 30
0.0
 11
-664.0652295960735
 21
453.0057299019826
 31
0.0
  0
INSERT
  5
F4F
330
C52
100
AcDbEntity
  8
画層1
  6
ByBlock
 62
     0
100
AcDbBlockReference
  2
_OPEN30
 10
-485.5652295960735
 20
453.0057299019826
 30
0.0
 41
1.5
 42
1.5
 43
1.5
  0
INSERT
  5
F50
330
C52
100
AcDbEntity
  8
画層1
  6
ByBlock
 62
     0
100
AcDbBlockReference
  2
_OPEN30
 10
-665.5652295960735
 20
453.0057299019826
 30
0.0
 41
1.5
 42
1.5
 43
1.5
 50
180.0
  0
MTEXT
  5
F51
330
C52
100
AcDbEntity
  8
画層1
  6
ByBlock
 62
     0
100
AcDbMText
 10
-575.5652295960735
 20
455.2557299019826
 30
0.0
 40
2.5
 41
0.0
 71
     5
 72
     1
  1
\A1;180
 73
     1
 44
1.0
  0
POINT
  5
F52
330
C52
100
AcDbEntity
  8
DEFPOINTS
  6
ByBlock
 62
     0
100
AcDbPoint
 10
-485.5652295960735
 20
402.458776737169
 30
0.0
  0
POINT
  5
F53
330
C52
100
AcDbEntity
  8
DEFPOINTS
  6
ByBlock
 62
     0
100
AcDbPoint
 10
-665.5652295960735
 20
402.458776737169
 30
0.0
  0
POINT
  5
F54
330
C52
100
AcDbEntity
  8
DEFPOINTS
  6
ByBlock
 62
     0
100
AcDbPoint
 10
-665.5652295960735
 20
453.0057299019826
 30
0.0
  0
ENDBLK
  5
C5D
330
C52
100
AcDbEntity
  8
0
 62
     0
370
    20
100
AcDbBlockEnd
  0
BLOCK
  5
C69
330
C5F
100
AcDbEntity
  8
0
 62
     0
370
    20
100
AcDbBlockBegin
  2
*D13
 70
     1
 10
0.0
 20
0.0
 30
0.0
  3
*D13
  1

  0
LINE
  5
F55
330
C5F
100
AcDbEntity
  8
画層1
  6
ByBlock
 62
     0
100
AcDbLine
 10
-451.0
 20
345.63
 30
0.0
 11
-451.0
 21
466.65947068551
 31
0.0
  0
LINE
  5
F56
330
C5F
100
AcDbEntity
  8
画層1
  6
ByBlock
 62
     0
100
AcDbLine
 10
-700.0
 20
345.63
 30
0.0
 11
-700.0
 21
466.65947068551
 31
0.0
  0
LINE
  5
F57
330
C5F
100
AcDbEntity
  8
画層1
  6
ByBlock
 62
     0
100
AcDbLine
 10
-452.5
 20
465.4094706855101
 30
0.0
 11
-698.5
 21
465.4094706855101
 31
0.0
  0
INSERT
  5
F58
330
C5F
100
AcDbEntity
  8
画層1
  6
ByBlock
 62
     0
100
AcDbBlockReference
  2
_OPEN30
 10
-451.0
 20
465.4094706855101
 30
0.0
 41
1.5
 42
1.5
 43
1.5
  0
INSERT
  5
F59
330
C5F
100
AcDbEntity
  8
画層1
  6
ByBlock
 62
     0
100
AcDbBlockReference
  2
_OPEN30
 10
-700.0
 20
465.4094706855101
 30
0.0
 41
1.5
 42
1.5
 43
1.5
 50
180.0
  0
MTEXT
  5
F5A
330
C5F
100
AcDbEntity
  8
画層1
  6
ByBlock
 62
     0
100
AcDbMText
 10
-575.4999999999999
 20
467.6594706855101
 30
0.0
 40
2.5
 41
0.0
 71
     5
 72
     1
  1
\A1;249
 73
     1
 44
1.0
  0
POINT
  5
F5B
330
C5F
100
AcDbEntity
  8
DEFPOINTS
  6
ByBlock
 62
     0
100
AcDbPoint
 10
-451.0
 20
345.0
 30
0.0
  0
POINT
  5
F5C
330
C5F
100
AcDbEntity
  8
DEFPOINTS
  6
ByBlock
 62
     0
100
AcDbPoint
 10
-700.0
 20
345.0
 30
0.0
  0
POINT
  5
F5D
330
C5F
100
AcDbEntity
  8
DEFPOINTS
  6
ByBlock
 62
     0
100
AcDbPoint
 10
-700.0
 20
465.4094706855101
 30
0.0
  0
ENDBLK
  5
C6A
330
C5F
100
AcDbEntity
  8
0
 62
     0
370
    20
100
AcDbBlockEnd
  0
BLOCK
  5
C83
330
C79
100
AcDbEntity
  8
0
 62
     0
370
    20
100
AcDbBlockBegin
  2
*D15
 70
     1
 10
0.0
 20
0.0
 30
0.0
  3
*D15
  1

  0
LINE
  5
F5E
330
C79
100
AcDbEntity
  8
画層1
  6
ByBlock
 62
     0
100
AcDbLine
 10
-272.1490205919167
 20
321.0887767371689
 30
0.0
 11
-272.1490205919167
 21
456.8172504631047
 31
0.0
  0
LINE
  5
F5F
330
C79
100
AcDbEntity
  8
画層1
  6
ByBlock
 62
     0
100
AcDbLine
 10
-64.14902059191672
 20
406.588776737169
 30
0.0
 11
-64.14902059191672
 21
456.8172504631047
 31
0.0
  0
LINE
  5
F60
330
C79
100
AcDbEntity
  8
画層1
  6
ByBlock
 62
     0
100
AcDbLine
 10
-270.6490205919167
 20
455.5672504631047
 30
0.0
 11
-65.64902059191672
 21
455.5672504631047
 31
0.0
  0
INSERT
  5
F61
330
C79
100
AcDbEntity
  8
画層1
  6
ByBlock
 62
     0
100
AcDbBlockReference
  2
_OPEN30
 10
-272.1490205919167
 20
455.5672504631047
 30
0.0
 41
1.5
 42
1.5
 43
1.5
 50
180.0
  0
INSERT
  5
F62
330
C79
100
AcDbEntity
  8
画層1
  6
ByBlock
 62
     0
100
AcDbBlockReference
  2
_OPEN30
 10
-64.14902059191672
 20
455.5672504631047
 30
0.0
 41
1.5
 42
1.5
 43
1.5
  0
MTEXT
  5
F63
330
C79
100
AcDbEntity
  8
画層1
  6
ByBlock
 62
     0
100
AcDbMText
 10
-168.1490205919167
 20
457.8172504631047
 30
0.0
 40
2.5
 41
0.0
 71
     5
 72
     1
  1
\A1;208
 73
     1
 44
1.0
  0
POINT
  5
F64
330
C79
100
AcDbEntity
  8
DEFPOINTS
  6
ByBlock
 62
     0
100
AcDbPoint
 10
-272.1490205919167
 20
320.4587767371689
 30
0.0
  0
POINT
  5
F65
330
C79
100
AcDbEntity
  8
DEFPOINTS
  6
ByBlock
 62
     0
100
AcDbPoint
 10
-64.14902059191672
 20
405.958776737169
 30
0.0
  0
POINT
  5
F66
330
C79
100
AcDbEntity
  8
DEFPOINTS
  6
ByBlock
 62
     0
100
AcDbPoint
 10
-64.14902059191672
 20
455.5672504631047
 30
0.0
  0
ENDBLK
  5
C84
330
C79
100
AcDbEntity
  8
0
 62
     0
370
    20
100
AcDbBlockEnd
  0
BLOCK
  5
CA0
330
C96
100
AcDbEntity
  8
0
 62
     0
370
    20
100
AcDbBlockBegin
  2
*D16
 70
     1
 10
0.0
 20
0.0
 30
0.0
  3
*D16
  1

  0
LINE
  5
F67
330
C96
100
AcDbEntity
  8
画層1
  6
ByBlock
 62
     0
100
AcDbLine
 10
-478.4352295960736
 20
395.958776737169
 30
0.0
 11
-423.4515186052079
 21
395.958776737169
 31
0.0
  0
LINE
  5
F68
330
C96
100
AcDbEntity
  8
画層1
  6
ByBlock
 62
     0
100
AcDbLine
 10
-478.4352295960736
 20
81.95877673716898
 30
0.0
 11
-423.4515186052081
 21
81.95877673716898
 31
0.0
  0
LINE
  5
F69
330
C96
100
AcDbEntity
  8
画層1
  6
ByBlock
 62
     0
100
AcDbLine
 10
-424.7015186052079
 20
394.458776737169
 30
0.0
 11
-424.701518605208
 21
83.45877673716898
 31
0.0
  0
INSERT
  5
F6A
330
C96
100
AcDbEntity
  8
画層1
  6
ByBlock
 62
     0
100
AcDbBlockReference
  2
_OPEN30
 10
-424.7015186052079
 20
395.958776737169
 30
0.0
 41
1.5
 42
1.5
 43
1.5
 50
90.0
  0
INSERT
  5
F6B
330
C96
100
AcDbEntity
  8
画層1
  6
ByBlock
 62
     0
100
AcDbBlockReference
  2
_OPEN30
 10
-424.701518605208
 20
81.95877673716898
 30
0.0
 41
1.5
 42
1.5
 43
1.5
 50
270.0
  0
MTEXT
  5
F6C
330
C96
100
AcDbEntity
  8
画層1
  6
ByBlock
 62
     0
100
AcDbMText
 10
-426.9515186052081
 20
238.9587767371688
 30
0.0
 40
2.5
 41
0.0
 71
     5
 72
     1
  1
\A1;314
 11
0.0000000000000001
 21
1.0
 31
0.0
 73
     1
 44
1.0
  0
POINT
  5
F6D
330
C96
100
AcDbEntity
  8
DEFPOINTS
  6
ByBlock
 62
     0
100
AcDbPoint
 10
-479.0652295960735
 20
395.958776737169
 30
0.0
  0
POINT
  5
F6E
330
C96
100
AcDbEntity
  8
DEFPOINTS
  6
ByBlock
 62
     0
100
AcDbPoint
 10
-479.0652295960735
 20
81.95877673716898
 30
0.0
  0
POINT
  5
F6F
330
C96
100
AcDbEntity
  8
DEFPOINTS
  6
ByBlock
 62
     0
100
AcDbPoint
 10
-424.701518605208
 20
81.95877673716898
 30
0.0
  0
ENDBLK
  5
CA1
330
C96
100
AcDbEntity
  8
0
 62
     0
370
    20
100
AcDbBlockEnd
  0
BLOCK
  5
CAD
330
CA3
100
AcDbEntity
  8
0
 62
     0
370
    20
100
AcDbBlockBegin
  2
*D17
 70
     1
 10
0.0
 20
0.0
 30
0.0
  3
*D17
  1

  0
LINE
  5
F70
330
CA3
100
AcDbEntity
  8
画層1
  6
ByBlock
 62
     0
100
AcDbLine
 10
-458.4352295960735
 20
71.95877673716899
 30
0.0
 11
-405.5993521381656
 21
71.95877673716897
 31
0.0
  0
LINE
  5
F71
330
CA3
100
AcDbEntity
  8
画層1
  6
ByBlock
 62
     0
100
AcDbLine
 10
-458.4352295960735
 20
405.958776737169
 30
0.0
 11
-405.5993521381656
 21
405.958776737169
 31
0.0
  0
LINE
  5
F72
330
CA3
100
AcDbEntity
  8
画層1
  6
ByBlock
 62
     0
100
AcDbLine
 10
-406.8493521381657
 20
73.45877673716898
 30
0.0
 11
-406.8493521381656
 21
404.4587767371689
 31
0.0
  0
INSERT
  5
F73
330
CA3
100
AcDbEntity
  8
画層1
  6
ByBlock
 62
     0
100
AcDbBlockReference
  2
_OPEN30
 10
-406.8493521381657
 20
71.95877673716897
 30
0.0
 41
1.5
 42
1.5
 43
1.5
 50
270.0
  0
INSERT
  5
F74
330
CA3
100
AcDbEntity
  8
画層1
  6
ByBlock
 62
     0
100
AcDbBlockReference
  2
_OPEN30
 10
-406.8493521381656
 20
405.958776737169
 30
0.0
 41
1.5
 42
1.5
 43
1.5
 50
90.0
  0
MTEXT
  5
F75
330
CA3
100
AcDbEntity
  8
画層1
  6
ByBlock
 62
     0
100
AcDbMText
 10
-409.0993521381657
 20
238.9587767371688
 30
0.0
 40
2.5
 41
0.0
 71
     5
 72
     1
  1
\A1;334
 11
0.0000000000000001
 21
1.0
 31
0.0
 73
     1
 44
1.0
  0
POINT
  5
F76
330
CA3
100
AcDbEntity
  8
DEFPOINTS
  6
ByBlock
 62
     0
100
AcDbPoint
 10
-459.0652295960735
 20
71.95877673716899
 30
0.0
  0
POINT
  5
F77
330
CA3
100
AcDbEntity
  8
DEFPOINTS
  6
ByBlock
 62
     0
100
AcDbPoint
 10
-459.0652295960735
 20
405.958776737169
 30
0.0
  0
POINT
  5
F78
330
CA3
100
AcDbEntity
  8
DEFPOINTS
  6
ByBlock
 62
     0
100
AcDbPoint
 10
-406.8493521381656
 20
405.958776737169
 30
0.0
  0
ENDBLK
  5
CAE
330
CA3
100
AcDbEntity
  8
0
 62
     0
370
    20
100
AcDbBlockEnd
  0
BLOCK
  5
CBA
330
CB0
100
AcDbEntity
  8
0
 62
     0
370
    20
100
AcDbBlockBegin
  2
*D18
 70
     1
 10
0.0
 20
0.0
 30
0.0
  3
*D18
  1

  0
LINE
  5
F79
330
CB0
100
AcDbEntity
  8
画層1
  6
ByBlock
 62
     0
100
AcDbLine
 10
-479.9352295960735
 20
425.9587767371689
 30
0.0
 11
-386.3984484300712
 21
425.9587767371689
 31
0.0
  0
LINE
  5
F7A
330
CB0
100
AcDbEntity
  8
画層1
  6
ByBlock
 62
     0
100
AcDbLine
 10
-479.9352295960735
 20
51.95877673716899
 30
0.0
 11
-386.3984484300713
 21
51.95877673716896
 31
0.0
  0
LINE
  5
F7B
330
CB0
100
AcDbEntity
  8
画層1
  6
ByBlock
 62
     0
100
AcDbLine
 10
-387.6484484300712
 20
424.4587767371689
 30
0.0
 11
-387.6484484300713
 21
53.45877673716896
 31
0.0
  0
INSERT
  5
F7C
330
CB0
100
AcDbEntity
  8
画層1
  6
ByBlock
 62
     0
100
AcDbBlockReference
  2
_OPEN30
 10
-387.6484484300712
 20
425.9587767371689
 30
0.0
 41
1.5
 42
1.5
 43
1.5
 50
90.0
  0
INSERT
  5
F7D
330
CB0
100
AcDbEntity
  8
画層1
  6
ByBlock
 62
     0
100
AcDbBlockReference
  2
_OPEN30
 10
-387.6484484300713
 20
51.95877673716896
 30
0.0
 41
1.5
 42
1.5
 43
1.5
 50
270.0
  0
MTEXT
  5
F7E
330
CB0
100
AcDbEntity
  8
画層1
  6
ByBlock
 62
     0
100
AcDbMText
 10
-389.8984484300713
 20
238.9587767371688
 30
0.0
 40
2.5
 41
0.0
 71
     5
 72
     1
  1
\A1;374
 11
0.0000000000000001
 21
1.0
 31
0.0
 73
     1
 44
1.0
  0
POINT
  5
F7F
330
CB0
100
AcDbEntity
  8
DEFPOINTS
  6
ByBlock
 62
     0
100
AcDbPoint
 10
-480.5652295960735
 20
425.9587767371689
 30
0.0
  0
POINT
  5
F80
330
CB0
100
AcDbEntity
  8
DEFPOINTS
  6
ByBlock
 62
     0
100
AcDbPoint
 10
-480.5652295960735
 20
51.95877673716899
 30
0.0
  0
POINT
  5
F81
330
CB0
100
AcDbEntity
  8
DEFPOINTS
  6
ByBlock
 62
     0
100
AcDbPoint
 10
-387.6484484300713
 20
51.95877673716896
 30
0.0
  0
ENDBLK
  5
CBB
330
CB0
100
AcDbEntity
  8
0
 62
     0
370
    20
100
AcDbBlockEnd
  0
BLOCK
  5
EED
330
EE3
100
AcDbEntity
  8
0
 62
     0
370
    20
100
AcDbBlockBegin
  2
*D19
 70
     1
 10
0.0
 20
0.0
 30
0.0
  3
*D19
  1

  0
LINE
  5
F82
330
EE3
100
AcDbEntity
  8
画層1
  6
ByBlock
 62
     0
100
AcDbLine
 10
-645.5652295960735
 20
69.32877673716899
 30
0.0
 11
-645.5652295960735
 21
16.50236354334469
 31
0.0
  0
LINE
  5
F83
330
EE3
100
AcDbEntity
  8
画層1
  6
ByBlock
 62
     0
100
AcDbLine
 10
-575.5652295960735
 20
31.32877673716899
 30
0.0
 11
-575.5652295960735
 21
16.50236354334469
 31
0.0
  0
LINE
  5
F84
330
EE3
100
AcDbEntity
  8
画層1
  6
ByBlock
 62
     0
100
AcDbLine
 10
-644.0652295960735
 20
17.75236354334469
 30
0.0
 11
-577.0652295960736
 21
17.75236354334469
 31
0.0
  0
INSERT
  5
F85
330
EE3
100
AcDbEntity
  8
画層1
  6
ByBlock
 62
     0
100
AcDbBlockReference
  2
_OPEN30
 10
-645.5652295960735
 20
17.75236354334469
 30
0.0
 41
1.5
 42
1.5
 43
1.5
 50
180.0
  0
INSERT
  5
F86
330
EE3
100
AcDbEntity
  8
画層1
  6
ByBlock
 62
     0
100
AcDbBlockReference
  2
_OPEN30
 10
-575.5652295960735
 20
17.75236354334469
 30
0.0
 41
1.5
 42
1.5
 43
1.5
  0
MTEXT
  5
F87
330
EE3
100
AcDbEntity
  8
画層1
  6
ByBlock
 62
     0
100
AcDbMText
 10
-610.5652295960735
 20
20.00236354334469
 30
0.0
 40
2.5
 41
0.0
 71
     5
 72
     1
  1
\A1;70
 73
     1
 44
1.0
  0
POINT
  5
F88
330
EE3
100
AcDbEntity
  8
DEFPOINTS
  6
ByBlock
 62
     0
100
AcDbPoint
 10
-645.5652295960735
 20
69.95877673716899
 30
0.0
  0
POINT
  5
F89
330
EE3
100
AcDbEntity
  8
DEFPOINTS
  6
ByBlock
 62
     0
100
AcDbPoint
 10
-575.5652295960735
 20
31.95877673716899
 30
0.0
  0
POINT
  5
F8A
330
EE3
100
AcDbEntity
  8
DEFPOINTS
  6
ByBlock
 62
     0
100
AcDbPoint
 10
-575.5652295960735
 20
17.75236354334469
 30
0.0
  0
ENDBLK
  5
EEE
330
EE3
100
AcDbEntity
  8
0
 62
     0
370
    20
100
AcDbBlockEnd
  0
BLOCK
  5
EFA
330
EF0
100
AcDbEntity
  8
0
 62
     0
370
    20
100
AcDbBlockBegin
  2
*D20
 70
     1
 10
0.0
 20
0.0
 30
0.0
  3
*D20
  1

  0
LINE
  5
F8B
330
EF0
100
AcDbEntity
  8
画層1
  6
ByBlock
 62
     0
100
AcDbLine
 10
-505.5652295960735
 20
69.32877673716899
 30
0.0
 11
-505.5652295960735
 21
16.50236354334469
 31
0.0
  0
LINE
  5
F8C
330
EF0
100
AcDbEntity
  8
画層1
  6
ByBlock
 62
     0
100
AcDbLine
 10
-575.5652295960735
 20
18.38236354334469
 30
0.0
 11
-575.5652295960735
 21
19.00236354334469
 31
0.0
  0
LINE
  5
F8D
330
EF0
100
AcDbEntity
  8
画層1
  6
ByBlock
 62
     0
100
AcDbLine
 10
-507.0652295960735
 20
17.75236354334469
 30
0.0
 11
-574.0652295960735
 21
17.75236354334469
 31
0.0
  0
INSERT
  5
F8E
330
EF0
100
AcDbEntity
  8
画層1
  6
ByBlock
 62
     0
100
AcDbBlockReference
  2
_OPEN30
 10
-505.5652295960735
 20
17.75236354334469
 30
0.0
 41
1.5
 42
1.5
 43
1.5
  0
INSERT
  5
F8F
330
EF0
100
AcDbEntity
  8
画層1
  6
ByBlock
 62
     0
100
AcDbBlockReference
  2
_OPEN30
 10
-575.5652295960735
 20
17.75236354334469
 30
0.0
 41
1.5
 42
1.5
 43
1.5
 50
180.0
  0
MTEXT
  5
F90
330
EF0
100
AcDbEntity
  8
画層1
  6
ByBlock
 62
     0
100
AcDbMText
 10
-540.5652295960735
 20
20.00236354334469
 30
0.0
 40
2.5
 41
0.0
 71
     5
 72
     1
  1
\A1;70
 73
     1
 44
1.0
  0
POINT
  5
F91
330
EF0
100
AcDbEntity
  8
DEFPOINTS
  6
ByBlock
 62
     0
100
AcDbPoint
 10
-505.5652295960735
 20
69.95877673716899
 30
0.0
  0
POINT
  5
F92
330
EF0
100
AcDbEntity
  8
DEFPOINTS
  6
ByBlock
 62
     0
100
AcDbPoint
 10
-575.5652295960735
 20
17.75236354334469
 30
0.0
  0
POINT
  5
F93
330
EF0
100
AcDbEntity
  8
DEFPOINTS
  6
ByBlock
 62
     0
100
AcDbPoint
 10
-575.5652295960735
 20
17.75236354334469
 30
0.0
  0
ENDBLK
  5
EFB
330
EF0
100
AcDbEntity
  8
0
 62
     0
370
    20
100
AcDbBlockEnd
  0
ENDSEC
  0
SECTION
  2
ENTITIES
  0
LWPOLYLINE
  5
8D6
330
2
100
AcDbEntity
  8
画層1
 62
     0
370
    20
100
AcDbPolyline
 90
        4
 70
     1
 43
0.0
 10
-694.0652295960735
 20
103.958776737169
 10
-457.0652295960735
 20
103.958776737169
 10
-457.0652295960735
 20
373.9587767371689
 10
-694.0652295960735
 20
373.9587767371689
  0
LINE
  5
8DD
330
2
100
AcDbEntity
  8
画層1
 62
     0
370
    20
100
AcDbLine
 10
-692.0652295960735
 20
373.9587767371689
 30
0.0
 11
-692.0652295960735
 21
405.958776737169
 31
0.0
  0
LINE
  5
8DE
330
2
100
AcDbEntity
  8
画層1
 62
     0
370
    20
100
AcDbLine
 10
-692.0652295960735
 20
405.958776737169
 30
0.0
 11
-459.0652295960735
 21
405.958776737169
 31
0.0
  0
LINE
  5
8DF
330
2
100
AcDbEntity
  8
画層1
 62
     0
370
    20
100
AcDbLine
 10
-459.0652295960735
 20
405.958776737169
 30
0.0
 11
-459.0652295960735
 21
373.9587767371689
 31
0.0
  0
LINE
  5
8E0
330
2
100
AcDbEntity
  8
画層1
 62
     0
370
    20
100
AcDbLine
 10
-459.0652295960735
 20
373.9587767371689
 30
0.0
 11
-686.0
 21
373.9587767371689
 31
0.0
  0
LINE
  5
8E1
330
2
100
AcDbEntity
  8
画層1
 62
     0
370
    20
100
AcDbLine
 10
-661.0652295960735
 20
71.95877673716899
 30
0.0
 11
-490.1966295234706
 21
71.95877673716899
 31
0.0
  0
LINE
  5
8E2
330
2
100
AcDbEntity
  8
画層1
 62
     0
370
    20
100
AcDbLine
 10
-692.0652295960735
 20
103.958776737169
 30
0.0
 11
-692.0652295960735
 21
71.95877673716899
 31
0.0
  0
LINE
  5
8E3
330
2
100
AcDbEntity
  8
画層1
 62
     0
370
    20
100
AcDbLine
 10
-459.0652295960735
 20
71.95877673716899
 30
0.0
 11
-459.0652295960735
 21
103.958776737169
 31
0.0
  0
CIRCLE
  5
8E8
330
2
100
AcDbEntity
  8
画層1
 62
     0
370
    20
100
AcDbCircle
 10
-645.5652295960735
 20
393.958776737169
 30
0.0
 40
10.0
  0
CIRCLE
  5
8E9
330
2
100
AcDbEntity
  8
画層1
 62
     0
370
    20
100
AcDbCircle
 10
-575.5652295960735
 20
393.958776737169
 30
0.0
 40
10.0
  0
CIRCLE
  5
8EA
330
2
100
AcDbEntity
  8
画層1
 62
     0
370
    20
100
AcDbCircle
 10
-505.5652295960735
 20
393.958776737169
 30
0.0
 40
10.0
  0
CIRCLE
  5
8EB
330
2
100
AcDbEntity
  8
画層1
 62
     0
370
    20
100
AcDbCircle
 10
-645.5652295960735
 20
83.95877673716899
 30
0.0
 40
10.0
  0
CIRCLE
  5
8EC
330
2
100
AcDbEntity
  8
画層1
 62
     0
370
    20
100
AcDbCircle
 10
-575.5652295960735
 20
83.95877673716899
 30
0.0
 40
10.0
  0
CIRCLE
  5
8ED
330
2
100
AcDbEntity
  8
画層1
 62
     0
370
    20
100
AcDbCircle
 10
-505.5652295960735
 20
83.95877673716899
 30
0.0
 40
10.0
  0
CIRCLE
  5
8F2
330
2
100
AcDbEntity
  8
画層1
 62
     0
370
    20
100
AcDbCircle
 10
-665.5652295960735
 20
395.958776737169
 30
0.0
 40
4.5
  0
CIRCLE
  5
8F3
330
2
100
AcDbEntity
  8
画層1
 62
     0
370
    20
100
AcDbCircle
 10
-485.5652295960735
 20
395.958776737169
 30
0.0
 40
4.5
  0
LINE
  5
8F8
330
2
100
AcDbEntity
  8
画層1
 62
     0
370
    20
100
AcDbLine
 10
-655.5652295960735
 20
373.9587767371689
 30
0.0
 11
-655.5652295960735
 21
403.9587767371689
 31
0.0
  0
LINE
  5
8F9
330
2
100
AcDbEntity
  8
画層1
 62
     0
370
    20
100
AcDbLine
 10
-655.5652295960735
 20
403.9587767371689
 30
0.0
 11
-635.5652295960735
 21
403.9587767371689
 31
0.0
  0
LINE
  5
8FA
330
2
100
AcDbEntity
  8
画層1
 62
     0
370
    20
100
AcDbLine
 10
-635.5652295960735
 20
403.9587767371689
 30
0.0
 11
-635.5652295960735
 21
373.9587767371689
 31
0.0
  0
LINE
  5
8FB
330
2
100
AcDbEntity
  8
画層1
 62
     0
370
    20
100
AcDbLine
 10
-565.5652295960735
 20
403.9587767371689
 30
0.0
 11
-565.5652295960735
 21
373.9587767371689
 31
0.0
  0
LINE
  5
8FC
330
2
100
AcDbEntity
  8
画層1
 62
     0
370
    20
100
AcDbLine
 10
-585.5652295960735
 20
373.9587767371689
 30
0.0
 11
-585.5652295960735
 21
403.9587767371689
 31
0.0
  0
LINE
  5
8FD
330
2
100
AcDbEntity
  8
画層1
 62
     0
370
    20
100
AcDbLine
 10
-585.5652295960735
 20
403.9587767371689
 30
0.0
 11
-565.5652295960735
 21
403.9587767371689
 31
0.0
  0
LINE
  5
8FE
330
2
100
AcDbEntity
  8
画層1
 62
     0
370
    20
100
AcDbLine
 10
-495.5652295960735
 20
403.9587767371689
 30
0.0
 11
-495.5652295960735
 21
373.9587767371689
 31
0.0
  0
LINE
  5
8FF
330
2
100
AcDbEntity
  8
画層1
 62
     0
370
    20
100
AcDbLine
 10
-515.5652295960735
 20
373.9587767371689
 30
0.0
 11
-515.5652295960735
 21
403.9587767371689
 31
0.0
  0
LINE
  5
900
330
2
100
AcDbEntity
  8
画層1
 62
     0
370
    20
100
AcDbLine
 10
-515.5652295960735
 20
403.9587767371689
 30
0.0
 11
-495.5652295960735
 21
403.9587767371689
 31
0.0
  0
LINE
  5
901
330
2
100
AcDbEntity
  8
画層1
 62
     0
370
    20
100
AcDbLine
 10
-515.5652295960735
 20
103.958776737169
 30
0.0
 11
-515.5652295960735
 21
73.95877673716899
 31
0.0
  0
LINE
  5
902
330
2
100
AcDbEntity
  8
画層1
 62
     0
370
    20
100
AcDbLine
 10
-495.5652295960735
 20
73.95877673716899
 30
0.0
 11
-495.5652295960735
 21
103.958776737169
 31
0.0
  0
LINE
  5
903
330
2
100
AcDbEntity
  8
画層1
 62
     0
370
    20
100
AcDbLine
 10
-565.5652295960735
 20
73.95877673716899
 30
0.0
 11
-565.5652295960735
 21
103.958776737169
 31
0.0
  0
LINE
  5
904
330
2
100
AcDbEntity
  8
画層1
 62
     0
370
    20
100
AcDbLine
 10
-655.5652295960735
 20
103.958776737169
 30
0.0
 11
-655.5652295960735
 21
73.95877673716899
 31
0.0
  0
LINE
  5
905
330
2
100
AcDbEntity
  8
画層1
 62
     0
370
    20
100
AcDbLine
 10
-635.5652295960735
 20
73.95877673716899
 30
0.0
 11
-635.5652295960735
 21
103.958776737169
 31
0.0
  0
LINE
  5
906
330
2
100
AcDbEntity
  8
画層1
 62
     0
370
    20
100
AcDbLine
 10
-585.5652295960735
 20
103.958776737169
 30
0.0
 11
-585.5652295960735
 21
73.95877673716899
 31
0.0
  0
LINE
  5
907
330
2
100
AcDbEntity
  8
画層1
 62
     0
370
    20
100
AcDbLine
 10
-655.5652295960735
 20
73.95877673716899
 30
0.0
 11
-635.5652295960735
 21
73.95877673716899
 31
0.0
  0
LINE
  5
908
330
2
100
AcDbEntity
  8
画層1
 62
     0
370
    20
100
AcDbLine
 10
-585.5652295960735
 20
73.95877673716899
 30
0.0
 11
-565.5652295960735
 21
73.95877673716899
 31
0.0
  0
LINE
  5
909
330
2
100
AcDbEntity
  8
画層1
 62
     0
370
    20
100
AcDbLine
 10
-515.5652295960735
 20
73.95877673716899
 30
0.0
 11
-495.5652295960735
 21
73.95877673716899
 31
0.0
  0
LINE
  5
910
330
2
100
AcDbEntity
  8
画層1
 62
     0
370
    20
100
AcDbLine
 10
-453.0652295960735
 20
342.9587767371689
 30
0.0
 11
-457.0652295960735
 21
342.9587767371689
 31
0.0
  0
LINE
  5
911
330
2
100
AcDbEntity
  8
画層1
 62
     0
370
    20
100
AcDbLine
 10
-453.0652295960735
 20
334.9587767371689
 30
0.0
 11
-457.0652295960735
 21
334.9587767371689
 31
0.0
  0
LINE
  5
912
330
2
100
AcDbEntity
  8
画層1
 62
     0
370
    20
100
AcDbLine
 10
-453.0
 20
331.0
 30
0.0
 11
-457.0
 21
331.0
 31
0.0
  0
ARC
  5
914
330
2
100
AcDbEntity
  8
画層1
 62
     0
370
    20
100
AcDbCircle
 10
-456.0652295960736
 20
338.958776737169
 30
0.0
 40
4.999999999999988
100
AcDbArc
 50
306.8698976458441
 51
53.13010235415509
  0
ARC
  5
919
330
2
100
AcDbEntity
  8
画層1
 62
     0
370
    20
100
AcDbCircle
 10
-453.0
 20
333.0
 30
0.0
 40
2.0
100
AcDbArc
 50
270.0
 51
90.0
  0
LINE
  5
91B
330
2
100
AcDbEntity
  8
画層1
 62
     0
370
    20
100
AcDbLine
 10
-453.0
 20
347.0
 30
0.0
 11
-457.0
 21
347.0
 31
0.0
  0
ARC
  5
91C
330
2
100
AcDbEntity
  8
画層1
 62
     0
370
    20
100
AcDbCircle
 10
-453.0
 20
345.0
 30
0.0
 40
2.0
100
AcDbArc
 50
270.0
 51
90.00000000000003
  0
LINE
  5
91D
330
2
100
AcDbEntity
  8
画層1
 62
     0
370
    20
100
AcDbLine
 10
-451.0
 20
345.0
 30
0.0
 11
-451.0
 21
333.0
 31
0.0
  0
ARC
  5
91E
330
2
100
AcDbEntity
  8
画層1
 62
     0
370
    20
100
AcDbCircle
 10
-698.0
 20
333.0
 30
0.0
 40
2.0
100
AcDbArc
 50
90.0
 51
270.0
  0
ARC
  5
91F
330
2
100
AcDbEntity
  8
画層1
 62
     0
370
    20
100
AcDbCircle
 10
-694.9347704039264
 20
338.958776737169
 30
0.0
 40
4.999999999999988
100
AcDbArc
 50
126.8698976458449
 51
233.1301023541559
  0
LINE
  5
920
330
2
100
AcDbEntity
  8
画層1
 62
     0
370
    20
100
AcDbLine
 10
-698.0
 20
331.0
 30
0.0
 11
-694.0
 21
331.0
 31
0.0
  0
LINE
  5
921
330
2
100
AcDbEntity
  8
画層1
 62
     0
370
    20
100
AcDbLine
 10
-697.9347704039264
 20
334.9587767371689
 30
0.0
 11
-693.9347704039264
 21
334.9587767371689
 31
0.0
  0
LINE
  5
922
330
2
100
AcDbEntity
  8
画層1
 62
     0
370
    20
100
AcDbLine
 10
-700.0
 20
345.0
 30
0.0
 11
-700.0
 21
333.0
 31
0.0
  0
ARC
  5
923
330
2
100
AcDbEntity
  8
画層1
 62
     0
370
    20
100
AcDbCircle
 10
-698.0
 20
345.0
 30
0.0
 40
2.0
100
AcDbArc
 50
89.99999999999998
 51
270.0
  0
LINE
  5
924
330
2
100
AcDbEntity
  8
画層1
 62
     0
370
    20
100
AcDbLine
 10
-697.9347704039264
 20
342.9587767371689
 30
0.0
 11
-693.9347704039264
 21
342.9587767371689
 31
0.0
  0
LINE
  5
925
330
2
100
AcDbEntity
  8
画層1
 62
     0
370
    20
100
AcDbLine
 10
-698.0
 20
347.0
 30
0.0
 11
-694.0
 21
347.0
 31
0.0
  0
LINE
  5
983
330
2
100
AcDbEntity
  8
画層1
 62
     0
370
    20
100
AcDbLine
 10
-451.0
 20
185.0
 30
0.0
 11
-451.0
 21
173.0
 31
0.0
  0
ARC
  5
984
330
2
100
AcDbEntity
  8
画層1
 62
     0
370
    20
100
AcDbCircle
 10
-456.0652295960736
 20
178.958776737169
 30
0.0
 40
4.999999999999988
100
AcDbArc
 50
306.8698976458441
 51
53.13010235415509
  0
ARC
  5
985
330
2
100
AcDbEntity
  8
画層1
 62
     0
370
    20
100
AcDbCircle
 10
-453.0
 20
173.0
 30
0.0
 40
2.0
100
AcDbArc
 50
270.0
 51
90.0
  0
LINE
  5
986
330
2
100
AcDbEntity
  8
画層1
 62
     0
370
    20
100
AcDbLine
 10
-453.0
 20
171.0
 30
0.0
 11
-457.0
 21
171.0
 31
0.0
  0
LINE
  5
987
330
2
100
AcDbEntity
  8
画層1
 62
     0
370
    20
100
AcDbLine
 10
-453.0652295960735
 20
174.9587767371689
 30
0.0
 11
-457.0652295960735
 21
174.9587767371689
 31
0.0
  0
ARC
  5
988
330
2
100
AcDbEntity
  8
画層1
 62
     0
370
    20
100
AcDbCircle
 10
-453.0
 20
185.0
 30
0.0
 40
2.0
100
AcDbArc
 50
270.0
 51
90.00000000000003
  0
LINE
  5
989
330
2
100
AcDbEntity
  8
画層1
 62
     0
370
    20
100
AcDbLine
 10
-453.0652295960735
 20
182.9587767371689
 30
0.0
 11
-457.0652295960735
 21
182.9587767371689
 31
0.0
  0
LINE
  5
98A
330
2
100
AcDbEntity
  8
画層1
 62
     0
370
    20
100
AcDbLine
 10
-453.0
 20
187.0
 30
0.0
 11
-457.0
 21
187.0
 31
0.0
  0
ARC
  5
98F
330
2
100
AcDbEntity
  8
画層1
 62
     0
370
    20
100
AcDbCircle
 10
-695.9347704039264
 20
178.958776737169
 30
0.0
 40
4.999999999999988
100
AcDbArc
 50
126.8698976458449
 51
233.1301023541559
  0
LINE
  5
990
330
2
100
AcDbEntity
  8
画層1
 62
     0
370
    20
100
AcDbLine
 10
-701.0
 20
185.0
 30
0.0
 11
-701.0
 21
173.0
 31
0.0
  0
ARC
  5
991
330
2
100
AcDbEntity
  8
画層1
 62
     0
370
    20
100
AcDbCircle
 10
-699.0
 20
173.0
 30
0.0
 40
2.0
100
AcDbArc
 50
90.0
 51
270.0
  0
LINE
  5
992
330
2
100
AcDbEntity
  8
画層1
 62
     0
370
    20
100
AcDbLine
 10
-699.0
 20
171.0
 30
0.0
 11
-695.0
 21
171.0
 31
0.0
  0
LINE
  5
993
330
2
100
AcDbEntity
  8
画層1
 62
     0
370
    20
100
AcDbLine
 10
-698.9347704039264
 20
174.9587767371689
 30
0.0
 11
-694.9347704039264
 21
174.9587767371689
 31
0.0
  0
LINE
  5
994
330
2
100
AcDbEntity
  8
画層1
 62
     0
370
    20
100
AcDbLine
 10
-699.0
 20
187.0
 30
0.0
 11
-695.0
 21
187.0
 31
0.0
  0
LINE
  5
995
330
2
100
AcDbEntity
  8
画層1
 62
     0
370
    20
100
AcDbLine
 10
-698.9347704039264
 20
182.9587767371689
 30
0.0
 11
-694.9347704039264
 21
182.9587767371689
 31
0.0
  0
ARC
  5
996
330
2
100
AcDbEntity
  8
画層1
 62
     0
370
    20
100
AcDbCircle
 10
-699.0
 20
185.0
 30
0.0
 40
2.0
100
AcDbArc
 50
89.99999999999998
 51
270.0
  0
LINE
  5
9B0
330
2
100
AcDbEntity
  8
画層1
 62
     0
370
    20
100
AcDbLine
 10
-569.0652295960735
 20
390.1129030521308
 30
0.0
 11
-569.0652295960735
 21
397.958776737169
 31
0.0
  0
CIRCLE
  5
9B1
330
2
100
AcDbEntity
  8
画層1
 62
     0
370
    20
100
AcDbCircle
 10
-575.5652295960735
 20
393.958776737169
 30
0.0
 40
6.5
  0
LINE
  5
9B2
330
2
100
AcDbEntity
  8
画層1
 62
     0
370
    20
100
AcDbLine
 10
-575.5652295960735
 20
386.1879533886749
 30
0.0
 11
-569.0652295960735
 21
390.1129030521308
 31
0.0
  0
LINE
  5
9B3
330
2
100
AcDbEntity
  8
画層1
 62
     0
370
    20
100
AcDbLine
 10
-569.0652295960735
 20
397.958776737169
 30
0.0
 11
-575.5652295960735
 21
401.729600085663
 31
0.0
  0
LINE
  5
9B4
330
2
100
AcDbEntity
  8
画層1
 62
     0
370
    20
100
AcDbLine
 10
-582.0652295960735
 20
397.958776737169
 30
0.0
 11
-582.0652295960735
 21
390.1129030521308
 31
0.0
  0
LINE
  5
9B5
330
2
100
AcDbEntity
  8
画層1
 62
     0
370
    20
100
AcDbLine
 10
-582.0652295960735
 20
390.1129030521308
 30
0.0
 11
-575.5652295960735
 21
386.1879533886749
 31
0.0
  0
LINE
  5
9B6
330
2
100
AcDbEntity
  8
画層1
 62
     0
370
    20
100
AcDbLine
 10
-575.5652295960735
 20
401.729600085663
 30
0.0
 11
-582.0652295960735
 21
397.958776737169
 31
0.0
  0
LINE
  5
9B7
330
2
100
AcDbEntity
  8
画層1
 62
     0
370
    20
100
AcDbLine
 10
-652.0652295960736
 20
397.958776737169
 30
0.0
 11
-652.0652295960736
 21
390.1129030521308
 31
0.0
  0
LINE
  5
9B8
330
2
100
AcDbEntity
  8
画層1
 62
     0
370
    20
100
AcDbLine
 10
-639.0652295960735
 20
390.1129030521308
 30
0.0
 11
-639.0652295960735
 21
397.958776737169
 31
0.0
  0
CIRCLE
  5
9B9
330
2
100
AcDbEntity
  8
画層1
 62
     0
370
    20
100
AcDbCircle
 10
-645.5652295960735
 20
393.958776737169
 30
0.0
 40
6.5
  0
LINE
  5
9BA
330
2
100
AcDbEntity
  8
画層1
 62
     0
370
    20
100
AcDbLine
 10
-652.0652295960736
 20
390.1129030521308
 30
0.0
 11
-645.5652295960735
 21
386.1879533886749
 31
0.0
  0
LINE
  5
9BB
330
2
100
AcDbEntity
  8
画層1
 62
     0
370
    20
100
AcDbLine
 10
-645.5652295960735
 20
386.1879533886749
 30
0.0
 11
-639.0652295960735
 21
390.1129030521308
 31
0.0
  0
LINE
  5
9BC
330
2
100
AcDbEntity
  8
画層1
 62
     0
370
    20
100
AcDbLine
 10
-645.5652295960735
 20
401.729600085663
 30
0.0
 11
-652.0652295960736
 21
397.958776737169
 31
0.0
  0
LINE
  5
9BD
330
2
100
AcDbEntity
  8
画層1
 62
     0
370
    20
100
AcDbLine
 10
-639.0652295960735
 20
397.958776737169
 30
0.0
 11
-645.5652295960735
 21
401.729600085663
 31
0.0
  0
CIRCLE
  5
9BE
330
2
100
AcDbEntity
  8
画層1
 62
     0
370
    20
100
AcDbCircle
 10
-505.5652295960735
 20
393.958776737169
 30
0.0
 40
6.5
  0
LINE
  5
9BF
330
2
100
AcDbEntity
  8
画層1
 62
     0
370
    20
100
AcDbLine
 10
-512.0652295960735
 20
397.958776737169
 30
0.0
 11
-512.0652295960735
 21
390.1129030521308
 31
0.0
  0
LINE
  5
9C0
330
2
100
AcDbEntity
  8
画層1
 62
     0
370
    20
100
AcDbLine
 10
-499.0652295960735
 20
390.1129030521308
 30
0.0
 11
-499.0652295960735
 21
397.958776737169
 31
0.0
  0
LINE
  5
9C1
330
2
100
AcDbEntity
  8
画層1
 62
     0
370
    20
100
AcDbLine
 10
-512.0652295960735
 20
390.1129030521308
 30
0.0
 11
-505.5652295960735
 21
386.1879533886749
 31
0.0
  0
LINE
  5
9C2
330
2
100
AcDbEntity
  8
画層1
 62
     0
370
    20
100
AcDbLine
 10
-505.5652295960735
 20
386.1879533886749
 30
0.0
 11
-499.0652295960735
 21
390.1129030521308
 31
0.0
  0
LINE
  5
9C3
330
2
100
AcDbEntity
  8
画層1
 62
     0
370
    20
100
AcDbLine
 10
-505.5652295960735
 20
401.729600085663
 30
0.0
 11
-512.0652295960735
 21
397.958776737169
 31
0.0
  0
LINE
  5
9C4
330
2
100
AcDbEntity
  8
画層1
 62
     0
370
    20
100
AcDbLine
 10
-499.0652295960735
 20
397.958776737169
 30
0.0
 11
-505.5652295960735
 21
401.729600085663
 31
0.0
  0
CIRCLE
  5
9C5
330
2
100
AcDbEntity
  8
画層1
 62
     0
370
    20
100
AcDbCircle
 10
-575.5652295960735
 20
83.95877673716899
 30
0.0
 40
6.5
  0
LINE
  5
9C6
330
2
100
AcDbEntity
  8
画層1
 62
     0
370
    20
100
AcDbLine
 10
-582.0652295960735
 20
87.95877673716899
 30
0.0
 11
-582.0652295960735
 21
80.11290305213083
 31
0.0
  0
LINE
  5
9C7
330
2
100
AcDbEntity
  8
画層1
 62
     0
370
    20
100
AcDbLine
 10
-569.0652295960735
 20
80.11290305213083
 30
0.0
 11
-569.0652295960735
 21
87.95877673716899
 31
0.0
  0
LINE
  5
9C8
330
2
100
AcDbEntity
  8
画層1
 62
     0
370
    20
100
AcDbLine
 10
-582.0652295960735
 20
80.11290305213083
 30
0.0
 11
-575.5652295960735
 21
76.18795338867494
 31
0.0
  0
LINE
  5
9C9
330
2
100
AcDbEntity
  8
画層1
 62
     0
370
    20
100
AcDbLine
 10
-575.5652295960735
 20
76.18795338867494
 30
0.0
 11
-569.0652295960735
 21
80.11290305213083
 31
0.0
  0
LINE
  5
9CA
330
2
100
AcDbEntity
  8
画層1
 62
     0
370
    20
100
AcDbLine
 10
-575.5652295960735
 20
91.72960008566304
 30
0.0
 11
-582.0652295960735
 21
87.95877673716899
 31
0.0
  0
LINE
  5
9CB
330
2
100
AcDbEntity
  8
画層1
 62
     0
370
    20
100
AcDbLine
 10
-569.0652295960735
 20
87.95877673716899
 30
0.0
 11
-575.5652295960735
 21
91.72960008566304
 31
0.0
  0
LINE
  5
9CC
330
2
100
AcDbEntity
  8
画層1
 62
     0
370
    20
100
AcDbLine
 10
-505.5652295960735
 20
76.18795338867494
 30
0.0
 11
-499.0652295960735
 21
80.11290305213083
 31
0.0
  0
LINE
  5
9CD
330
2
100
AcDbEntity
  8
画層1
 62
     0
370
    20
100
AcDbLine
 10
-512.0652295960735
 20
80.11290305213083
 30
0.0
 11
-505.5652295960735
 21
76.18795338867494
 31
0.0
  0
CIRCLE
  5
9CE
330
2
100
AcDbEntity
  8
画層1
 62
     0
370
    20
100
AcDbCircle
 10
-505.5652295960735
 20
83.95877673716899
 30
0.0
 40
6.5
  0
LINE
  5
9CF
330
2
100
AcDbEntity
  8
画層1
 62
     0
370
    20
100
AcDbLine
 10
-499.0652295960735
 20
87.95877673716899
 30
0.0
 11
-505.5652295960735
 21
91.72960008566304
 31
0.0
  0
LINE
  5
9D0
330
2
100
AcDbEntity
  8
画層1
 62
     0
370
    20
100
AcDbLine
 10
-505.5652295960735
 20
91.72960008566304
 30
0.0
 11
-512.0652295960735
 21
87.95877673716899
 31
0.0
  0
LINE
  5
9D1
330
2
100
AcDbEntity
  8
画層1
 62
     0
370
    20
100
AcDbLine
 10
-512.0652295960735
 20
87.95877673716899
 30
0.0
 11
-512.0652295960735
 21
80.11290305213083
 31
0.0
  0
LINE
  5
9D2
330
2
100
AcDbEntity
  8
画層1
 62
     0
370
    20
100
AcDbLine
 10
-499.0652295960735
 20
80.11290305213083
 30
0.0
 11
-499.0652295960735
 21
87.95877673716899
 31
0.0
  0
CIRCLE
  5
9D3
330
2
100
AcDbEntity
  8
画層1
 62
     0
370
    20
100
AcDbCircle
 10
-645.5652295960735
 20
83.95877673716899
 30
0.0
 40
6.5
  0
LINE
  5
9D4
330
2
100
AcDbEntity
  8
画層1
 62
     0
370
    20
100
AcDbLine
 10
-652.0652295960736
 20
80.11290305213083
 30
0.0
 11
-645.5652295960735
 21
76.18795338867494
 31
0.0
  0
LINE
  5
9D5
330
2
100
AcDbEntity
  8
画層1
 62
     0
370
    20
100
AcDbLine
 10
-645.5652295960735
 20
76.18795338867494
 30
0.0
 11
-639.0652295960735
 21
80.11290305213083
 31
0.0
  0
LINE
  5
9D6
330
2
100
AcDbEntity
  8
画層1
 62
     0
370
    20
100
AcDbLine
 10
-645.5652295960735
 20
91.72960008566304
 30
0.0
 11
-652.0652295960736
 21
87.95877673716899
 31
0.0
  0
LINE
  5
9D7
330
2
100
AcDbEntity
  8
画層1
 62
     0
370
    20
100
AcDbLine
 10
-639.0652295960735
 20
87.95877673716899
 30
0.0
 11
-645.5652295960735
 21
91.72960008566304
 31
0.0
  0
LINE
  5
9D8
330
2
100
AcDbEntity
  8
画層1
 62
     0
370
    20
100
AcDbLine
 10
-652.0652295960736
 20
87.95877673716899
 30
0.0
 11
-652.0652295960736
 21
80.11290305213083
 31
0.0
  0
LINE
  5
9D9
330
2
100
AcDbEntity
  8
画層1
 62
     0
370
    20
100
AcDbLine
 10
-639.0652295960735
 20
80.11290305213083
 30
0.0
 11
-639.0652295960735
 21
87.95877673716899
 31
0.0
  0
ARC
  5
9E1
330
2
100
AcDbEntity
  8
画層1
 62
     0
370
    20
100
AcDbCircle
 10
-485.6966295234706
 20
81.95877673716898
 30
0.0
 40
4.5
100
AcDbArc
 50
0.0
 51
180.0
  0
LINE
  5
9E2
330
2
100
AcDbEntity
  8
画層1
 62
     0
370
    20
100
AcDbLine
 10
-490.1966295234706
 20
71.95877673716899
 30
0.0
 11
-490.1966295234706
 21
81.95877673716898
 31
0.0
  0
LINE
  5
9E4
330
2
100
AcDbEntity
  8
画層1
 62
     0
370
    20
100
AcDbLine
 10
-481.1966295234706
 20
71.95877673716899
 30
0.0
 11
-459.0652295960735
 21
71.95877673716899
 31
0.0
  0
LINE
  5
9E5
330
2
100
AcDbEntity
  8
画層1
 62
     0
370
    20
100
AcDbLine
 10
-481.1966295234706
 20
71.95877673716899
 30
0.0
 11
-481.1966295234706
 21
81.95877673716898
 31
0.0
  0
LINE
  5
9E6
330
2
100
AcDbEntity
  8
画層1
 62
     0
370
    20
100
AcDbLine
 10
-661.0652295960735
 20
71.95877673716899
 30
0.0
 11
-661.0652295960735
 21
81.95877673716898
 31
0.0
  0
LINE
  5
9E7
330
2
100
AcDbEntity
  8
画層1
 62
     0
370
    20
100
AcDbLine
 10
-670.0652295960735
 20
71.95877673716899
 30
0.0
 11
-670.0652295960735
 21
81.95877673716898
 31
0.0
  0
ARC
  5
9E8
330
2
100
AcDbEntity
  8
画層1
 62
     0
370
    20
100
AcDbCircle
 10
-665.5652295960735
 20
81.95877673716898
 30
0.0
 40
4.5
100
AcDbArc
 50
0.0
 51
180.0
  0
LINE
  5
9E9
330
2
100
AcDbEntity
  8
画層1
 62
     0
370
    20
100
AcDbLine
 10
-670.0652295960735
 20
71.95877673716899
 30
0.0
 11
-692.0652295960735
 21
71.95877673716899
 31
0.0
  0
LWPOLYLINE
  5
9EE
330
2
100
AcDbEntity
  8
画層1
 62
     0
370
    20
100
AcDbPolyline
 90
        4
 70
     1
 43
0.0
 10
-653.5652295960735
 20
157.4587767371689
 10
-523.5652295960735
 20
157.4587767371689
 10
-523.5652295960735
 20
320.4587767371689
 10
-653.5652295960735
 20
320.4587767371689
  0
LWPOLYLINE
  5
9F5
330
2
100
AcDbEntity
  8
画層1
 62
     0
370
    20
100
AcDbPolyline
 90
        4
 70
     1
 43
0.0
 10
-653.5652295960735
 20
320.4587767371689
 10
-523.5652295960735
 20
320.4587767371689
 10
-523.5652295960735
 20
328.9587767371689
 10
-653.5652295960735
 20
328.9587767371689
  0
LWPOLYLINE
  5
9F6
330
2
100
AcDbEntity
  8
画層1
 62
     0
370
    20
100
AcDbPolyline
 90
        4
 70
     1
 43
0.0
 10
-653.5652295960735
 20
148.9587767371689
 10
-523.5652295960735
 20
148.9587767371689
 10
-523.5652295960735
 20
157.4587767371689
 10
-653.5652295960735
 20
157.4587767371689
  0
LWPOLYLINE
  5
9FE
330
2
100
AcDbEntity
  8
画層1
 62
     0
370
    20
100
AcDbPolyline
 90
        4
 70
     1
 43
0.0
 10
-677.5652295960735
 20
158.9587767371689
 10
-653.5652295960735
 20
158.9587767371689
 10
-653.5652295960735
 20
308.958776737169
 10
-677.5652295960735
 20
308.958776737169
  0
LWPOLYLINE
  5
A03
330
2
100
AcDbEntity
  8
画層1
 62
     0
370
    20
100
AcDbPolyline
 90
        4
 70
     1
 43
0.0
 10
-629.5652295960735
 20
196.958776737169
 10
-549.5652295960735
 20
196.958776737169
 10
-549.5652295960735
 20
316.958776737169
 10
-629.5652295960735
 20
316.958776737169
  0
CIRCLE
  5
A07
330
2
100
AcDbEntity
  8
画層1
 62
     0
370
    20
100
AcDbCircle
 10
-648.5652295960735
 20
324.9587767371689
 30
0.0
 40
4.0
  0
CIRCLE
  5
A08
330
2
100
AcDbEntity
  8
画層1
 62
     0
370
    20
100
AcDbCircle
 10
-528.5652295960735
 20
324.9587767371689
 30
0.0
 40
4.0
  0
CIRCLE
  5
A09
330
2
100
AcDbEntity
  8
画層1
 62
     0
370
    20
100
AcDbCircle
 10
-648.5652295960735
 20
324.9587767371689
 30
0.0
 40
3.0
  0
CIRCLE
  5
A0A
330
2
100
AcDbEntity
  8
画層1
 62
     0
370
    20
100
AcDbCircle
 10
-528.5652295960735
 20
324.9587767371689
 30
0.0
 40
3.0
  0
CIRCLE
  5
A68
330
2
100
AcDbEntity
  8
画層1
 62
     0
370
    20
100
AcDbCircle
 10
-528.5652295960735
 20
152.9587767371689
 30
0.0
 40
3.0
  0
CIRCLE
  5
A69
330
2
100
AcDbEntity
  8
画層1
 62
     0
370
    20
100
AcDbCircle
 10
-528.5652295960735
 20
152.9587767371689
 30
0.0
 40
4.0
  0
CIRCLE
  5
A6A
330
2
100
AcDbEntity
  8
画層1
 62
     0
370
    20
100
AcDbCircle
 10
-648.5652295960735
 20
152.9587767371689
 30
0.0
 40
4.0
  0
CIRCLE
  5
A6B
330
2
100
AcDbEntity
  8
画層1
 62
     0
370
    20
100
AcDbCircle
 10
-648.5652295960735
 20
152.9587767371689
 30
0.0
 40
3.0
  0
LWPOLYLINE
  5
A71
330
2
100
AcDbEntity
  8
画層1
 62
     0
370
    20
100
AcDbPolyline
 90
        4
 70
     1
 43
0.0
 10
-672.0652295960735
 20
272.9587767371689
 10
-665.0652295960735
 20
272.9587767371689
 10
-665.0652295960735
 20
170.9587767371689
 10
-672.0652295960735
 20
170.9587767371689
  0
LINE
  5
AF9
330
2
100
AcDbEntity
  8
画層1
 62
     0
370
    20
100
AcDbLine
 10
-64.14902059191672
 20
71.95877673716899
 30
0.0
 11
-64.14902059191672
 21
405.958776737169
 31
0.0
  0
LINE
  5
AFA
330
2
100
AcDbEntity
  8
画層1
 62
     0
370
    20
100
AcDbLine
 10
-64.14902059191672
 20
405.958776737169
 30
0.0
 11
-224.1490205919167
 21
405.958776737169
 31
0.0
  0
LINE
  5
AFB
330
2
100
AcDbEntity
  8
画層1
 62
     0
370
    20
100
AcDbLine
 10
-64.14902059191672
 20
71.95877673716899
 30
0.0
 11
-224.1490205919167
 21
71.95877673716899
 31
0.0
  0
LINE
  5
B02
330
2
100
AcDbEntity
  8
画層1
 62
     0
370
    20
100
AcDbLine
 10
-224.1490205919167
 20
71.95877673716893
 30
0.0
 11
-224.1490205919167
 21
103.958776737169
 31
0.0
  0
LINE
  5
B03
330
2
100
AcDbEntity
  8
画層1
 62
     0
370
    20
100
AcDbLine
 10
-213.1490205919167
 20
178.9587767371689
 30
0.0
 11
-184.1490205919167
 21
178.9587767371689
 31
0.0
  0
LINE
  5
B04
330
2
100
AcDbEntity
  8
画層1
 62
     0
370
    20
100
AcDbLine
 10
-184.1490205919167
 20
178.9587767371689
 30
0.0
 11
-184.1490205919167
 21
298.9587767371689
 31
0.0
  0
LINE
  5
B05
330
2
100
AcDbEntity
  8
画層1
 62
     0
370
    20
100
AcDbLine
 10
-184.1490205919167
 20
298.9587767371689
 30
0.0
 11
-213.1490205919167
 21
298.9587767371689
 31
0.0
  0
LINE
  5
B06
330
2
100
AcDbEntity
  8
画層1
 62
     0
370
    20
100
AcDbLine
 10
-224.1490205919167
 20
373.9587767371689
 30
0.0
 11
-224.1490205919167
 21
405.958776737169
 31
0.0
  0
LINE
  5
B0B
330
2
100
AcDbEntity
  8
画層1
 62
     0
370
    20
100
AcDbLine
 10
-140.1490205919167
 20
335.1129030521308
 30
0.0
 11
-140.1490205919167
 21
342.958776737169
 31
0.0
  0
LINE
  5
B0C
330
2
100
AcDbEntity
  8
画層1
 62
     0
370
    20
100
AcDbLine
 10
-153.1490205919167
 20
342.958776737169
 30
0.0
 11
-153.1490205919167
 21
335.1129030521308
 31
0.0
  0
CIRCLE
  5
B0D
330
2
100
AcDbEntity
  8
画層1
 62
     0
370
    20
100
AcDbCircle
 10
-146.6490205919167
 20
338.958776737169
 30
0.0
 40
6.5
  0
LINE
  5
B0E
330
2
100
AcDbEntity
  8
画層1
 62
     0
370
    20
100
AcDbLine
 10
-153.1490205919167
 20
335.1129030521308
 30
0.0
 11
-146.6490205919167
 21
331.187953388675
 31
0.0
  0
LINE
  5
B0F
330
2
100
AcDbEntity
  8
画層1
 62
     0
370
    20
100
AcDbLine
 10
-146.6490205919167
 20
331.187953388675
 30
0.0
 11
-140.1490205919167
 21
335.1129030521308
 31
0.0
  0
LINE
  5
B10
330
2
100
AcDbEntity
  8
画層1
 62
     0
370
    20
100
AcDbLine
 10
-146.6490205919167
 20
346.729600085663
 30
0.0
 11
-153.1490205919167
 21
342.958776737169
 31
0.0
  0
LINE
  5
B11
330
2
100
AcDbEntity
  8
画層1
 62
     0
370
    20
100
AcDbLine
 10
-140.1490205919167
 20
342.958776737169
 30
0.0
 11
-146.6490205919167
 21
346.729600085663
 31
0.0
  0
CIRCLE
  5
B12
330
2
100
AcDbEntity
  8
画層1
 62
     0
370
    20
100
AcDbCircle
 10
-146.6490205919167
 20
178.958776737169
 30
0.0
 40
6.5
  0
LINE
  5
B13
330
2
100
AcDbEntity
  8
画層1
 62
     0
370
    20
100
AcDbLine
 10
-146.6490205919167
 20
171.187953388675
 30
0.0
 11
-140.1490205919167
 21
175.1129030521308
 31
0.0
  0
LINE
  5
B14
330
2
100
AcDbEntity
  8
画層1
 62
     0
370
    20
100
AcDbLine
 10
-140.1490205919167
 20
182.958776737169
 30
0.0
 11
-146.6490205919167
 21
186.7296000856631
 31
0.0
  0
LINE
  5
B15
330
2
100
AcDbEntity
  8
画層1
 62
     0
370
    20
100
AcDbLine
 10
-153.1490205919167
 20
175.1129030521308
 30
0.0
 11
-146.6490205919167
 21
171.187953388675
 31
0.0
  0
LINE
  5
B16
330
2
100
AcDbEntity
  8
画層1
 62
     0
370
    20
100
AcDbLine
 10
-146.6490205919167
 20
186.7296000856631
 30
0.0
 11
-153.1490205919167
 21
182.958776737169
 31
0.0
  0
LINE
  5
B17
330
2
100
AcDbEntity
  8
画層1
 62
     0
370
    20
100
AcDbLine
 10
-153.1490205919167
 20
182.958776737169
 30
0.0
 11
-153.1490205919167
 21
175.1129030521308
 31
0.0
  0
LINE
  5
B18
330
2
100
AcDbEntity
  8
画層1
 62
     0
370
    20
100
AcDbLine
 10
-140.1490205919167
 20
175.1129030521308
 30
0.0
 11
-140.1490205919167
 21
182.958776737169
 31
0.0
  0
CIRCLE
  5
B19
330
2
100
AcDbEntity
  8
画層1
 62
     0
370
    20
100
AcDbCircle
 10
-146.6490205919167
 20
178.958776737169
 30
0.0
 40
7.770823348494047
  0
CIRCLE
  5
B1A
330
2
100
AcDbEntity
  8
画層1
 62
     0
370
    20
100
AcDbCircle
 10
-146.6490205919167
 20
338.958776737169
 30
0.0
 40
7.770823348494047
  0
CIRCLE
  5
B4F
330
2
100
AcDbEntity
  8
画層1
 62
     0
370
    20
100
AcDbCircle
 10
-660.5652295960735
 20
111.9587767371689
 30
0.0
 40
2.0
  0
CIRCLE
  5
B50
330
2
100
AcDbEntity
  8
画層1
 62
     0
370
    20
100
AcDbCircle
 10
-490.5652295960735
 20
111.9587767371689
 30
0.0
 40
2.0
  0
LWPOLYLINE
  5
B5A
330
2
100
AcDbEntity
  8
画層1
  6
CENTER
 62
     0
370
    20
100
AcDbPolyline
 90
        4
 70
     1
 43
0.0
 10
-670.5652295960735
 20
121.9587767371689
 10
-480.5652295960735
 20
121.9587767371689
 10
-480.5652295960735
 20
51.95877673716899
 10
-670.5652295960735
 20
51.95877673716899
  0
LWPOLYLINE
  5
B5F
330
2
100
AcDbEntity
  8
画層1
  6
ByBlock
 62
     0
370
    20
100
AcDbPolyline
 90
        4
 70
     1
 43
0.0
 10
-227.1490205919167
 20
51.95877673716899
 10
-225.1490205919167
 20
51.95877673716899
 10
-225.1490205919167
 20
121.9587767371689
 10
-227.1490205919167
 20
121.9587767371689
  0
CIRCLE
  5
B64
330
2
100
AcDbEntity
  8
画層1
 62
     0
370
    20
100
AcDbCircle
 10
-490.5652295960735
 20
365.958776737169
 30
0.0
 40
2.0
  0
CIRCLE
  5
B65
330
2
100
AcDbEntity
  8
画層1
 62
     0
370
    20
100
AcDbCircle
 10
-660.5652295960735
 20
365.958776737169
 30
0.0
 40
2.0
  0
LWPOLYLINE
  5
B66
330
2
100
AcDbEntity
  8
画層1
  6
CENTER
 62
     0
370
    20
100
AcDbPolyline
 90
        4
 70
     1
 43
0.0
 10
-670.5652295960735
 20
355.9587767371689
 10
-480.5652295960735
 20
355.9587767371689
 10
-480.5652295960735
 20
425.9587767371689
 10
-670.5652295960735
 20
425.9587767371689
  0
LWPOLYLINE
  5
B67
330
2
100
AcDbEntity
  8
画層1
  6
ByBlock
 62
     0
370
    20
100
AcDbPolyline
 90
        4
 70
     1
 43
0.0
 10
-227.1490205919167
 20
425.9587767371689
 10
-225.1490205919167
 20
425.9587767371689
 10
-225.1490205919167
 20
355.9587767371689
 10
-227.1490205919167
 20
355.9587767371689
  0
LWPOLYLINE
  5
B76
330
2
100
AcDbEntity
  8
画層1
 62
     0
370
    20
100
AcDbPolyline
 90
        4
 70
     1
 43
0.0
 10
-272.1490205919167
 20
157.4587767371689
 10
-225.1490205919167
 20
157.4587767371689
 10
-225.1490205919167
 20
320.4587767371689
 10
-272.1490205919167
 20
320.4587767371689
  0
LINE
  5
B78
330
2
100
AcDbEntity
  8
画層1
 62
     0
370
    20
100
AcDbLine
 10
-252.1490205919167
 20
320.4587767371689
 30
0.0
 11
-252.1490205919167
 21
157.4587767371689
 31
0.0
  0
LWPOLYLINE
  5
B7B
330
2
100
AcDbEntity
  8
画層1
 62
     0
370
    20
100
AcDbPolyline
 90
        4
 70
     1
 43
0.0
 10
-226.1490205919167
 20
320.4587767371689
 10
-225.1490205919167
 20
320.4587767371689
 10
-225.1490205919167
 20
328.9587767371689
 10
-226.1490205919167
 20
328.9587767371689
  0
LWPOLYLINE
  5
B7D
330
2
100
AcDbEntity
  8
画層1
 62
     0
370
    20
100
AcDbPolyline
 90
        4
 70
     1
 43
0.0
 10
-226.1490205919167
 20
148.9587767371689
 10
-225.1490205919167
 20
148.9587767371689
 10
-225.1490205919167
 20
157.4587767371689
 10
-226.1490205919167
 20
157.4587767371689
  0
LINE
  5
B81
330
2
100
AcDbEntity
  8
画層1
  6
CENTER
 62
     0
370
    20
100
AcDbLine
 10
-714.0652295960735
 20
238.9587767371689
 30
0.0
 11
-437.0652295960735
 21
238.9587767371689
 31
0.0
  0
LINE
  5
B84
330
2
100
AcDbEntity
  8
画層1
  6
CENTER
 62
     0
370
    20
100
AcDbLine
 10
-575.5652295960735
 20
445.9587767371689
 30
0.0
 11
-575.5652295960735
 21
31.95877673716899
 31
0.0
  0
LINE
  5
BB4
330
2
100
AcDbEntity
  8
画層1
  6
CENTER
 62
     0
370
    20
100
AcDbLine
 10
-291.1490205919167
 20
238.9587767371689
 30
0.0
 11
-44.14902059191672
 21
238.9587767371689
 31
0.0
  0
LINE
  5
BB9
330
2
100
AcDbEntity
  8
画層1
  6
CENTER
 62
     0
370
    20
100
AcDbLine
 10
-672.0652295960735
 20
395.958776737169
 30
0.0
 11
-659.0652295960735
 21
395.958776737169
 31
0.0
  0
LINE
  5
BBF
330
2
100
AcDbEntity
  8
画層1
  6
CENTER
 62
     0
370
    20
100
AcDbLine
 10
-665.5652295960735
 20
402.458776737169
 30
0.0
 11
-665.5652295960735
 21
389.4587767371689
 31
0.0
  0
LINE
  5
BC1
330
2
100
AcDbEntity
  8
画層1
  6
CENTER
 62
     0
370
    20
100
AcDbLine
 10
-485.5652295960735
 20
389.4587767371689
 30
0.0
 11
-485.5652295960735
 21
402.458776737169
 31
0.0
  0
LINE
  5
BC5
330
2
100
AcDbEntity
  8
画層1
  6
CENTER
 62
     0
370
    20
100
AcDbLine
 10
-492.0652295960735
 20
395.958776737169
 30
0.0
 11
-479.0652295960735
 21
395.958776737169
 31
0.0
  0
LINE
  5
BC6
330
2
100
AcDbEntity
  8
画層1
  6
CENTER
 62
     0
370
    20
100
AcDbLine
 10
-485.5652295960735
 20
75.45877673716899
 30
0.0
 11
-485.5652295960735
 21
88.45877673716898
 31
0.0
  0
LINE
  5
BC7
330
2
100
AcDbEntity
  8
画層1
  6
CENTER
 62
     0
370
    20
100
AcDbLine
 10
-492.0652295960735
 20
81.95877673716898
 30
0.0
 11
-479.0652295960735
 21
81.95877673716898
 31
0.0
  0
LINE
  5
BC8
330
2
100
AcDbEntity
  8
画層1
  6
CENTER
 62
     0
370
    20
100
AcDbLine
 10
-665.5652295960735
 20
88.45877673716898
 30
0.0
 11
-665.5652295960735
 21
75.45877673716899
 31
0.0
  0
LINE
  5
BC9
330
2
100
AcDbEntity
  8
画層1
  6
CENTER
 62
     0
370
    20
100
AcDbLine
 10
-672.0652295960735
 20
81.95877673716898
 30
0.0
 11
-659.0652295960735
 21
81.95877673716898
 31
0.0
  0
DIMENSION
  5
C51
330
2
100
AcDbEntity
  8
画層1
  6
ByBlock
 62
     0
370
    20
100
AcDbDimension
  2
*D12
 10
-665.5652295960735
 20
453.0057299019826
 30
0.0
 11
-575.5652295960735
 21
455.2557299019826
 31
0.0
 70
    32
 71
     5
 42
-1.0
  3
STANDARD_WS
100
AcDbAlignedDimension
 13
-485.5652295960735
 23
402.458776737169
 33
0.0
 14
-665.5652295960735
 24
402.458776737169
 34
0.0
100
AcDbRotatedDimension
1001
ACAD
1000
DSTYLE
1002
{
1070
    47
1040
0.6
1070
   140
1040
2.0
1070
   146
1040
0.5
1070
   147
1040
1.0
1070
   173
1070
     0
1070
   271
1070
     0
1070
   272
1070
     0
1070
   284
1070
     8
1070
   341
1005
28
1070
     5
1000
OPEN30
1070
     6
1000

1070
     7
1000

1002
}
  0
DIMENSION
  5
C5E
330
2
100
AcDbEntity
  8
画層1
  6
ByBlock
 62
     0
370
    20
100
AcDbDimension
  2
*D13
 10
-700.0
 20
465.4094706855101
 30
0.0
 11
-575.4999999999999
 21
467.6594706855101
 31
0.0
 70
    32
 71
     5
 42
-1.0
  3
STANDARD_WS
100
AcDbAlignedDimension
 13
-451.0
 23
345.0
 33
0.0
 14
-700.0
 24
345.0
 34
0.0
100
AcDbRotatedDimension
1001
ACAD
1000
DSTYLE
1002
{
1070
    47
1040
0.6
1070
   140
1040
2.0
1070
   146
1040
0.5
1070
   147
1040
1.0
1070
   173
1070
     0
1070
   271
1070
     0
1070
   272
1070
     0
1070
   284
1070
     8
1070
   341
1005
28
1070
     5
1000
OPEN30
1070
     6
1000

1070
     7
1000

1002
}
  0
DIMENSION
  5
C78
330
2
100
AcDbEntity
  8
画層1
  6
ByBlock
 62
     0
370
    20
100
AcDbDimension
  2
*D15
 10
-64.14902059191672
 20
455.5672504631047
 30
0.0
 11
-168.1490205919167
 21
457.8172504631047
 31
0.0
 70
    32
 71
     5
 42
-1.0
  3
STANDARD_WS
100
AcDbAlignedDimension
 13
-272.1490205919167
 23
320.4587767371689
 33
0.0
 14
-64.14902059191672
 24
405.958776737169
 34
0.0
100
AcDbRotatedDimension
1001
ACAD
1000
DSTYLE
1002
{
1070
    47
1040
0.6
1070
   140
1040
50.0
1070
   146
1040
0.5
1070
   147
1040
1.0
1070
   173
1070
     0
1070
   271
1070
     0
1070
   272
1070
     0
1070
   284
1070
     8
1070
   341
1005
28
1070
     5
1000
OPEN30
1070
     6
1000

1070
     7
1000

1002
}
  0
LINE
  5
C88
330
2
100
AcDbEntity
  8
画層1
  6
ByBlock
 62
     0
370
    20
100
AcDbLine
 10
-225.1490205919167
 20
103.958776737169
 30
0.0
 11
-213.1490205919167
 21
103.958776737169
 31
0.0
  0
LINE
  5
C89
330
2
100
AcDbEntity
  8
画層1
  6
ByBlock
 62
     0
370
    20
100
AcDbLine
 10
-213.1490205919167
 20
103.958776737169
 30
0.0
 11
-213.1490205919167
 21
373.9587767371689
 31
0.0
  0
LINE
  5
C8A
330
2
100
AcDbEntity
  8
画層1
  6
ByBlock
 62
     0
370
    20
100
AcDbLine
 10
-213.1490205919167
 20
373.9587767371689
 30
0.0
 11
-225.1490205919167
 21
373.9587767371689
 31
0.0
  0
LINE
  5
C8B
330
2
100
AcDbEntity
  8
画層1
  6
ByBlock
 62
     0
370
    20
100
AcDbLine
 10
-225.1490205919167
 20
373.9587767371689
 30
0.0
 11
-225.1490205919167
 21
103.958776737169
 31
0.0
  0
DIMENSION
  5
C95
330
2
100
AcDbEntity
  8
画層1
  6
ByBlock
 62
     0
370
    20
100
AcDbDimension
  2
*D16
 10
-424.701518605208
 20
81.95877673716898
 30
0.0
 11
-426.9515186052081
 21
238.9587767371688
 31
0.0
 70
    32
 71
     5
 42
-1.0
  3
STANDARD_WS
100
AcDbAlignedDimension
 13
-479.0652295960735
 23
395.958776737169
 33
0.0
 14
-479.0652295960735
 24
81.95877673716898
 34
0.0
 50
90.0
100
AcDbRotatedDimension
1001
ACAD
1000
DSTYLE
1002
{
1070
    47
1040
0.6
1070
   140
1040
50.0
1070
   146
1040
0.5
1070
   147
1040
1.0
1070
   173
1070
     0
1070
   271
1070
     0
1070
   272
1070
     0
1070
   284
1070
     8
1070
   341
1005
28
1070
     5
1000
OPEN30
1070
     6
1000

1070
     7
1000

1002
}
  0
DIMENSION
  5
CA2
330
2
100
AcDbEntity
  8
画層1
  6
ByBlock
 62
     0
370
    20
100
AcDbDimension
  2
*D17
 10
-406.8493521381656
 20
405.958776737169
 30
0.0
 11
-409.0993521381657
 21
238.9587767371688
 31
0.0
 70
    32
 71
     5
 42
-1.0
  3
STANDARD_WS
100
AcDbAlignedDimension
 13
-459.0652295960735
 23
71.95877673716899
 33
0.0
 14
-459.0652295960735
 24
405.958776737169
 34
0.0
 50
90.0
100
AcDbRotatedDimension
1001
ACAD
1000
DSTYLE
1002
{
1070
    47
1040
0.6
1070
   140
1040
50.0
1070
   146
1040
0.5
1070
   147
1040
1.0
1070
   173
1070
     0
1070
   271
1070
     0
1070
   272
1070
     0
1070
   284
1070
     8
1070
   341
1005
28
1070
     5
1000
OPEN30
1070
     6
1000

1070
     7
1000

1002
}
  0
DIMENSION
  5
CAF
330
2
100
AcDbEntity
  8
画層1
  6
ByBlock
 62
     0
370
    20
100
AcDbDimension
  2
*D18
 10
-387.6484484300713
 20
51.95877673716896
 30
0.0
 11
-389.8984484300713
 21
238.9587767371688
 31
0.0
 70
    32
 71
     5
 42
-1.0
  3
STANDARD_WS
100
AcDbAlignedDimension
 13
-480.5652295960735
 23
425.9587767371689
 33
0.0
 14
-480.5652295960735
 24
51.95877673716899
 34
0.0
 50
90.0
100
AcDbRotatedDimension
1001
ACAD
1000
DSTYLE
1002
{
1070
    47
1040
0.6
1070
   140
1040
50.0
1070
   146
1040
0.5
1070
   147
1040
1.0
1070
   173
1070
     0
1070
   271
1070
     0
1070
   272
1070
     0
1070
   284
1070
     8
1070
   341
1005
28
1070
     5
1000
OPEN30
1070
     6
1000

1070
     7
1000

1002
}
  0
CIRCLE
  5
D80
330
2
100
AcDbEntity
  8
画層1
  6
ByBlock
 62
     0
370
    20
100
AcDbCircle
 10
-490.5652295960735
 20
111.9587767371689
 30
0.0
 40
3.0
  0
CIRCLE
  5
D81
330
2
100
AcDbEntity
  8
画層1
  6
ByBlock
 62
     0
370
    20
100
AcDbCircle
 10
-660.5652295960735
 20
111.9587767371689
 30
0.0
 40
3.0
  0
CIRCLE
  5
EA8
330
2
100
AcDbEntity
  8
画層1
  6
ByBlock
 62
     0
370
    20
100
AcDbCircle
 10
-660.5652295960735
 20
365.958776737169
 30
0.0
 40
3.0
  0
CIRCLE
  5
EA9
330
2
100
AcDbEntity
  8
画層1
  6
ByBlock
 62
     0
370
    20
100
AcDbCircle
 10
-490.5652295960735
 20
365.958776737169
 30
0.0
 40
3.0
  0
LINE
  5
EAF
330
2
100
AcDbEntity
  8
画層1
  6
CENTER
 62
     0
370
    20
100
AcDbLine
 10
-587.5652295960735
 20
83.95877673716899
 30
0.0
 11
-563.5652295960735
 21
83.95877673716899
 31
0.0
  0
LINE
  5
EB0
330
2
100
AcDbEntity
  8
画層1
  6
CENTER
 62
     0
370
    20
100
AcDbLine
 10
-657.5652295960735
 20
83.95877673716899
 30
0.0
 11
-633.5652295960735
 21
83.95877673716899
 31
0.0
  0
LINE
  5
EB1
330
2
100
AcDbEntity
  8
画層1
  6
CENTER
 62
     0
370
    20
100
AcDbLine
 10
-517.5652295960735
 20
83.95877673716899
 30
0.0
 11
-493.5652295960735
 21
83.95877673716899
 31
0.0
  0
LINE
  5
EB2
330
2
100
AcDbEntity
  8
画層1
  6
CENTER
 62
     0
370
    20
100
AcDbLine
 10
-587.5652295960735
 20
393.958776737169
 30
0.0
 11
-563.5652295960735
 21
393.958776737169
 31
0.0
  0
LINE
  5
EB3
330
2
100
AcDbEntity
  8
画層1
  6
CENTER
 62
     0
370
    20
100
AcDbLine
 10
-517.5652295960735
 20
393.958776737169
 30
0.0
 11
-493.5652295960735
 21
393.958776737169
 31
0.0
  0
LINE
  5
EB4
330
2
100
AcDbEntity
  8
画層1
  6
CENTER
 62
     0
370
    20
100
AcDbLine
 10
-657.5652295960735
 20
393.958776737169
 30
0.0
 11
-633.5652295960735
 21
393.958776737169
 31
0.0
  0
LINE
  5
EB7
330
2
100
AcDbEntity
  8
画層1
  6
CENTER
 62
     0
370
    20
100
AcDbLine
 10
-505.5652295960735
 20
407.9587767371689
 30
0.0
 11
-505.5652295960735
 21
381.958776737169
 31
0.0
  0
LINE
  5
EB8
330
2
100
AcDbEntity
  8
画層1
  6
CENTER
 62
     0
370
    20
100
AcDbLine
 10
-645.5652295960735
 20
407.9587767371689
 30
0.0
 11
-645.5652295960735
 21
381.958776737169
 31
0.0
  0
LINE
  5
EB9
330
2
100
AcDbEntity
  8
画層1
  6
CENTER
 62
     0
370
    20
100
AcDbLine
 10
-505.5652295960735
 20
69.95877673716899
 30
0.0
 11
-505.5652295960735
 21
95.95877673716898
 31
0.0
  0
LINE
  5
EBA
330
2
100
AcDbEntity
  8
画層1
  6
CENTER
 62
     0
370
    20
100
AcDbLine
 10
-645.5652295960735
 20
69.95877673716899
 30
0.0
 11
-645.5652295960735
 21
95.95877673716898
 31
0.0
  0
DIMENSION
  5
EE2
330
2
100
AcDbEntity
  8
画層1
  6
ByBlock
 62
     0
370
    20
100
AcDbDimension
  2
*D19
 10
-575.5652295960735
 20
17.75236354334469
 30
0.0
 11
-610.5652295960735
 21
20.00236354334469
 31
0.0
 70
    32
 71
     5
 42
-1.0
  3
STANDARD_WS
100
AcDbAlignedDimension
 13
-645.5652295960735
 23
69.95877673716899
 33
0.0
 14
-575.5652295960735
 24
31.95877673716899
 34
0.0
100
AcDbRotatedDimension
1001
ACAD
1000
DSTYLE
1002
{
1070
    47
1040
0.6
1070
   140
1040
50.0
1070
   146
1040
0.5
1070
   147
1040
1.0
1070
   173
1070
     0
1070
   271
1070
     0
1070
   272
1070
     0
1070
   284
1070
     8
1070
   341
1005
28
1070
     5
1000
OPEN30
1070
     6
1000

1070
     7
1000

1002
}
  0
DIMENSION
  5
EEF
330
2
100
AcDbEntity
  8
画層1
  6
ByBlock
 62
     0
370
    20
100
AcDbDimension
  2
*D20
 10
-575.5652295960735
 20
17.75236354334469
 30
0.0
 11
-540.5652295960735
 21
20.00236354334469
 31
0.0
 70
    32
 71
     5
 42
-1.0
  3
STANDARD_WS
100
AcDbAlignedDimension
 13
-505.5652295960735
 23
69.95877673716899
 33
0.0
 14
-575.5652295960735
 24
17.75236354334469
 34
0.0
100
AcDbRotatedDimension
1001
ACAD
1000
DSTYLE
1002
{
1070
    47
1040
0.6
1070
   140
1040
50.0
1070
   146
1040
0.5
1070
   147
1040
1.0
1070
   173
1070
     0
1070
   271
1070
     0
1070
   272
1070
     0
1070
   284
1070
     8
1070
   341
1005
28
1070
     5
1000
OPEN30
1070
     6
1000

1070
     7
1000

1002
}
  0
LINE
  5
F1C
330
2
100
AcDbEntity
  8
画層1
  6
DASHED2
 62
     0
370
    20
100
AcDbLine
 10
-194.1490205919167
 20
103.958776737169
 30
0.0
 11
-194.1490205919167
 21
73.95877673716899
 31
0.0
  0
LINE
  5
F1D
330
2
100
AcDbEntity
  8
画層1
  6
DASHED2
 62
     0
370
    20
100
AcDbLine
 10
-194.1490205919167
 20
73.95877673716899
 30
0.0
 11
-191.1490205919167
 21
73.95877673716899
 31
0.0
  0
LINE
  5
F1E
330
2
100
AcDbEntity
  8
画層1
  6
DASHED2
 62
     0
370
    20
100
AcDbLine
 10
-191.1490205919167
 20
73.95877673716899
 30
0.0
 11
-191.1490205919167
 21
103.958776737169
 31
0.0
  0
ENDSEC
  0
SECTION
  2
OBJECTS
  0
DICTIONARY
  5
9
330
0
100
AcDbDictionary
281
     1
  3
ACAD_GROUP
350
23
  3
ACAD_LAYOUT
350
D
  3
ACAD_MLINESTYLE
350
24
  3
ACAD_PLOTSETTINGS
350
25
  3
ACAD_PLOTSTYLENAME
350
8
  3
DWGPROPS
350
B1B
  0
DICTIONARY
  5
3
330
2
100
AcDbDictionary
280
     1
281
     1
  3
ACAD_LAYOUTSELFREF
360
F44
  0
DICTIONARY
  5
F
330
E
100
AcDbDictionary
280
     1
281
     1
  3
ACAD_LAYOUTSELFREF
360
F47
  0
DICTIONARY
  5
23
102
{ACAD_REACTORS
330
9
102
}
330
9
100
AcDbDictionary
281
     1
  0
DICTIONARY
  5
D
102
{ACAD_REACTORS
330
9
102
}
330
9
100
AcDbDictionary
281
     1
  3
Model
350
560
  3
ﾚｲｱｳﾄ1
350
561
  0
DICTIONARY
  5
24
102
{ACAD_REACTORS
330
9
102
}
330
9
100
AcDbDictionary
281
     1
  3
STANDARD
350
34
  0
DICTIONARY
  5
25
102
{ACAD_REACTORS
330
9
102
}
330
9
100
AcDbDictionary
281
     1
  0
ACDBDICTIONARYWDFLT
  5
8
102
{ACAD_REACTORS
330
9
102
}
330
9
100
AcDbDictionary
281
     1
  3
Normal
350
7
100
AcDbDictionaryWithDefault
340
7
  0
XRECORD
  5
B1B
102
{ACAD_REACTORS
330
9
102
}
330
9
100
AcDbXrecord
280
     1
  1
DWGPROPS COOKIE
  2

  3

  4

  6

  7

  8

  9

300
=
301
=
302
=
303
=
304
=
305
=
306
=
307
=
308
=
309
=
 40
3.889878958333333
 41
2450995.462150231
 42
2454049.770371816
  1

 90
        0
  0
XRECORD
  5
F44
102
{ACAD_REACTORS
330
3
102
}
330
3
100
AcDbXrecord
280
     1
340
2
  0
XRECORD
  5
F47
102
{ACAD_REACTORS
330
F
102
}
330
F
100
AcDbXrecord
280
     1
340
E
  0
LAYOUT
  5
560
102
{ACAD_REACTORS
330
D
102
}
330
D
100
AcDbPlotSettings
  1

  2
FX DocuPrint 360 PS H3
  4
A3
  6

 40
5.027083396911621
 41
5.027072429656982
 42
5.027099609375
 43
5.365753173828125
 44
297.0530090332031
 45
420.1583251953125
 46
30.0
 47
50.0
 48
0.0
 49
0.0
140
0.0
141
0.0
142
1.0
143
2.0
 70
 11952
 72
     1
 73
     1
 74
     1
  7

 75
    17
147
0.5
148
714.0686908733705
149
-31.95304918634622
100
AcDbLayout
  1
Model
 70
     1
 71
     0
 10
0.0
 20
0.0
 11
12.0
 21
9.0
 12
0.0
 22
0.0
 32
0.0
 14
0.0
 24
0.0
 34
0.0
 15
0.0
 25
0.0
 35
0.0
146
0.0
 13
0.0
 23
0.0
 33
0.0
 16
1.0
 26
0.0
 36
0.0
 17
0.0
 27
1.0
 37
0.0
 76
     0
330
2
  0
LAYOUT
  5
561
102
{ACAD_REACTORS
330
D
102
}
330
D
100
AcDbPlotSettings
  1

  2
EPSON MJ-6000C
  4

  6

 40
0.0
 41
0.0
 42
0.0
 43
0.0
 44
0.0
 45
0.0
 46
0.0
 47
0.0
 48
0.0
 49
0.0
140
0.0
141
0.0
142
1.0
143
1.0
 70
   688
 72
     0
 73
     0
 74
     5
  7

 75
    16
147
1.0
148
0.0
149
0.0
100
AcDbLayout
  1
ﾚｲｱｳﾄ1
 70
     1
 71
     1
 10
0.0
 20
0.0
 11
420.0
 21
297.0
 12
0.0
 22
0.0
 32
0.0
 14
1.000000000000000E+20
 24
1.000000000000000E+20
 34
1.000000000000000E+20
 15
-1.000000000000000E+20
 25
-1.000000000000000E+20
 35
-1.000000000000000E+20
146
0.0
 13
0.0
 23
0.0
 33
0.0
 16
1.0
 26
0.0
 36
0.0
 17
0.0
 27
1.0
 37
0.0
 76
     0
330
E
  0
MLINESTYLE
  5
34
102
{ACAD_REACTORS
330
24
102
}
330
24
100
AcDbMlineStyle
  2
STANDARD
 70
     0
  3

 62
   256
 51
90.0
 52
90.0
 71
     2
 49
0.5
 62
   256
  6
BYLAYER
 49
-0.5
 62
   256
  6
BYLAYER
  0
ACDBPLACEHOLDER
  5
7
102
{ACAD_REACTORS
330
8
102
}
330
8
  0
ENDSEC
  0
EOF
