  0
SECTION
  2
HEADER
  9
$ACADVER
  1
AC1015
  9
$ACADMAINTVER
 70
     6
  9
$DWGCODEPAGE
  3
ANSI_932
  9
$INSBASE
 10
0.0
 20
0.0
 30
0.0
  9
$EXTMIN
 10
-666.0652295960735
 20
107.1034478277995
 30
0.0
  9
$EXTMAX
 10
-261.5882863869523
 20
381.783366801985
 30
0.0
  9
$LIMMIN
 10
0.0
 20
0.0
  9
$LIMMAX
 10
420.0
 20
297.0
  9
$ORTHOMODE
 70
     1
  9
$REGENMODE
 70
     1
  9
$FILLMODE
 70
     1
  9
$QTEXTMODE
 70
     0
  9
$MIRRTEXT
 70
     1
  9
$LTSCALE
 40
0.2
  9
$ATTMODE
 70
     1
  9
$TEXTSIZE
 40
2.5
  9
$TRACEWID
 40
1.0
  9
$TEXTSTYLE
  7
STYLE1
  9
$CLAYER
  8
画層1
  9
$CELTYPE
  6
BYLAYER
  9
$CECOLOR
 62
     1
  9
$CELTSCALE
 40
1.0
  9
$DISPSILH
 70
     0
  9
$DIMSCALE
 40
1.0
  9
$DIMASZ
 40
1.5
  9
$DIMEXO
 40
0.63
  9
$DIMDLI
 40
3.75
  9
$DIMRND
 40
0.0
  9
$DIMDLE
 40
0.0
  9
$DIMEXE
 40
1.25
  9
$DIMTP
 40
0.6
  9
$DIMTM
 40
0.0
  9
$DIMTXT
 40
50.0
  9
$DIMCEN
 40
2.5
  9
$DIMTSZ
 40
0.0
  9
$DIMTOL
 70
     0
  9
$DIMLIM
 70
     0
  9
$DIMTIH
 70
     0
  9
$DIMTOH
 70
     0
  9
$DIMSE1
 70
     0
  9
$DIMSE2
 70
     0
  9
$DIMTAD
 70
     1
  9
$DIMZIN
 70
     8
  9
$DIMBLK
  1
OPEN30
  9
$DIMASO
 70
     1
  9
$DIMSHO
 70
     1
  9
$DIMPOST
  1

  9
$DIMAPOST
  1

  9
$DIMALT
 70
     0
  9
$DIMALTD
 70
     4
  9
$DIMALTF
 40
0.04
  9
$DIMLFAC
 40
1.0
  9
$DIMTOFL
 70
     1
  9
$DIMTVP
 40
0.0
  9
$DIMTIX
 70
     0
  9
$DIMSOXD
 70
     0
  9
$DIMSAH
 70
     0
  9
$DIMBLK1
  1

  9
$DIMBLK2
  1

  9
$DIMSTYLE
  2
STANDARD_WS
  9
$DIMCLRD
 70
     0
  9
$DIMCLRE
 70
     0
  9
$DIMCLRT
 70
     0
  9
$DIMTFAC
 40
0.5
  9
$DIMGAP
 40
1.0
  9
$DIMJUST
 70
     0
  9
$DIMSD1
 70
     0
  9
$DIMSD2
 70
     0
  9
$DIMTOLJ
 70
     1
  9
$DIMTZIN
 70
     8
  9
$DIMALTZ
 70
     0
  9
$DIMALTTZ
 70
     0
  9
$DIMUPT
 70
     0
  9
$DIMDEC
 70
     0
  9
$DIMTDEC
 70
     0
  9
$DIMALTU
 70
     8
  9
$DIMALTTD
 70
     4
  9
$DIMTXSTY
  7
STANDARD
  9
$DIMAUNIT
 70
     0
  9
$DIMADEC
 70
     0
  9
$DIMALTRND
 40
0.0
  9
$DIMAZIN
 70
     0
  9
$DIMDSEP
 70
    46
  9
$DIMATFIT
 70
     3
  9
$DIMFRAC
 70
     0
  9
$DIMLDRBLK
  1
OPEN30
  9
$DIMLUNIT
 70
     2
  9
$DIMLWD
 70
    -2
  9
$DIMLWE
 70
    -2
  9
$DIMTMOVE
 70
     0
  9
$LUNITS
 70
     2
  9
$LUPREC
 70
     4
  9
$SKETCHINC
 40
1.0
  9
$FILLETRAD
 40
2.0
  9
$AUNITS
 70
     0
  9
$AUPREC
 70
     0
  9
$MENU
  1
acad
  9
$ELEVATION
 40
0.0
  9
$PELEVATION
 40
0.0
  9
$THICKNESS
 40
0.0
  9
$LIMCHECK
 70
     0
  9
$CHAMFERA
 40
10.0
  9
$CHAMFERB
 40
10.0
  9
$CHAMFERC
 40
20.0
  9
$CHAMFERD
 40
0.0
  9
$SKPOLY
 70
     0
  9
$TDCREATE
 40
2450995.462150231
  9
$TDUCREATE
 40
2450995.087150231
  9
$TDUPDATE
 40
2454231.395029109
  9
$TDUUPDATE
 40
2454231.020029109
  9
$TDINDWG
 40
4.6299621412
  9
$TDUSRTIMER
 40
4.6299583218
  9
$USRTIMER
 70
     1
  9
$ANGBASE
 50
0.0
  9
$ANGDIR
 70
     0
  9
$PDMODE
 70
     0
  9
$PDSIZE
 40
0.0
  9
$PLINEWID
 40
10.0
  9
$SPLFRAME
 70
     0
  9
$SPLINETYPE
 70
     6
  9
$SPLINESEGS
 70
     8
  9
$HANDSEED
  5
1BBD
  9
$SURFTAB1
 70
     6
  9
$SURFTAB2
 70
     6
  9
$SURFTYPE
 70
     6
  9
$SURFU
 70
     6
  9
$SURFV
 70
     6
  9
$UCSBASE
  2

  9
$UCSNAME
  2

  9
$UCSORG
 10
0.0
 20
0.0
 30
0.0
  9
$UCSXDIR
 10
1.0
 20
0.0
 30
0.0
  9
$UCSYDIR
 10
0.0
 20
1.0
 30
0.0
  9
$UCSORTHOREF
  2

  9
$UCSORTHOVIEW
 70
     0
  9
$UCSORGTOP
 10
0.0
 20
0.0
 30
0.0
  9
$UCSORGBOTTOM
 10
0.0
 20
0.0
 30
0.0
  9
$UCSORGLEFT
 10
0.0
 20
0.0
 30
0.0
  9
$UCSORGRIGHT
 10
0.0
 20
0.0
 30
0.0
  9
$UCSORGFRONT
 10
0.0
 20
0.0
 30
0.0
  9
$UCSORGBACK
 10
0.0
 20
0.0
 30
0.0
  9
$PUCSBASE
  2

  9
$PUCSNAME
  2

  9
$PUCSORG
 10
0.0
 20
0.0
 30
0.0
  9
$PUCSXDIR
 10
1.0
 20
0.0
 30
0.0
  9
$PUCSYDIR
 10
0.0
 20
1.0
 30
0.0
  9
$PUCSORTHOREF
  2

  9
$PUCSORTHOVIEW
 70
     0
  9
$PUCSORGTOP
 10
0.0
 20
0.0
 30
0.0
  9
$PUCSORGBOTTOM
 10
0.0
 20
0.0
 30
0.0
  9
$PUCSORGLEFT
 10
0.0
 20
0.0
 30
0.0
  9
$PUCSORGRIGHT
 10
0.0
 20
0.0
 30
0.0
  9
$PUCSORGFRONT
 10
0.0
 20
0.0
 30
0.0
  9
$PUCSORGBACK
 10
0.0
 20
0.0
 30
0.0
  9
$USERI1
 70
     0
  9
$USERI2
 70
     0
  9
$USERI3
 70
     0
  9
$USERI4
 70
     0
  9
$USERI5
 70
     0
  9
$USERR1
 40
0.0
  9
$USERR2
 40
0.0
  9
$USERR3
 40
0.0
  9
$USERR4
 40
0.0
  9
$USERR5
 40
0.0
  9
$WORLDVIEW
 70
     1
  9
$SHADEDGE
 70
     3
  9
$SHADEDIF
 70
    70
  9
$TILEMODE
 70
     1
  9
$MAXACTVP
 70
    48
  9
$PINSBASE
 10
0.0
 20
0.0
 30
0.0
  9
$PLIMCHECK
 70
     0
  9
$PEXTMIN
 10
1.000000000000000E+20
 20
1.000000000000000E+20
 30
1.000000000000000E+20
  9
$PEXTMAX
 10
-1.000000000000000E+20
 20
-1.000000000000000E+20
 30
-1.000000000000000E+20
  9
$PLIMMIN
 10
0.0
 20
0.0
  9
$PLIMMAX
 10
420.0
 20
297.0
  9
$UNITMODE
 70
     0
  9
$VISRETAIN
 70
     1
  9
$PLINEGEN
 70
     0
  9
$PSLTSCALE
 70
     1
  9
$TREEDEPTH
 70
  3020
  9
$CMLSTYLE
  2
STANDARD
  9
$CMLJUST
 70
     0
  9
$CMLSCALE
 40
20.0
  9
$PROXYGRAPHICS
 70
     1
  9
$MEASUREMENT
 70
     1
  9
$CELWEIGHT
370
    20
  9
$ENDCAPS
280
     0
  9
$JOINSTYLE
280
     0
  9
$LWDISPLAY
290
     0
  9
$INSUNITS
 70
     0
  9
$HYPERLINKBASE
  1

  9
$STYLESHEET
  1

  9
$XEDIT
290
     1
  9
$CEPSNTYPE
380
     0
  9
$PSTYLEMODE
290
     1
  9
$FINGERPRINTGUID
  2
{12426522-B208-11D3-A790-004026173390}
  9
$VERSIONGUID
  2
{064A19F2-5FD0-4962-B439-D75951F8BACC}
  9
$EXTNAMES
290
     1
  9
$PSVPSCALE
 40
0.0
  9
$OLESTARTUP
290
     0
  0
ENDSEC
  0
SECTION
  2
CLASSES
  0
CLASS
  1
DICTIONARYVAR
  2
AcDbDictionaryVar
  3
AutoCAD 2000
 90
    32768
280
     0
281
     0
  0
CLASS
  1
LWPOLYLINE
  2
AcDbPolyline
  3
AutoCAD 2000
 90
    32768
280
     0
281
     1
  0
CLASS
  1
OLE2FRAME
  2
AcDbOle2Frame
  3
AutoCAD 2000
 90
    32768
280
     0
281
     1
  0
CLASS
  1
HATCH
  2
AcDbHatch
  3
AutoCAD 2000
 90
    32768
280
     0
281
     1
  0
CLASS
  1
ACDBDICTIONARYWDFLT
  2
AcDbDictionaryWithDefault
  3
AutoCAD 2000
 90
        0
280
     0
281
     0
  0
CLASS
  1
ACDBPLACEHOLDER
  2
AcDbPlaceHolder
  3
AutoCAD 2000
 90
        0
280
     0
281
     0
  0
CLASS
  1
LAYOUT
  2
AcDbLayout
  3
AutoCAD 2000
 90
        0
280
     0
281
     0
  0
CLASS
  1
LONG_TRANSACTION
  2
AcDbLongTransaction
  3
AutoCAD 2000
 90
    32768
280
     0
281
     0
  0
CLASS
  1
LWPOLYLINE
  2
AcDbPolyline
  3
AutoCAD 2000
 90
    32768
280
     0
281
     1
  0
CLASS
  1
HATCH
  2
AcDbHatch
  3
AutoCAD 2000
 90
    32768
280
     0
281
     1
  0
CLASS
  1
XRECORD
  2
AcDbXrecord
  3
AutoCAD 2000
 90
    32768
280
     0
281
     0
  0
CLASS
  1
LONG_TRANSACTION
  2
AcDbLongTransaction
  3
AutoCAD 2000
 90
    32768
280
     0
281
     0
  0
CLASS
  1
LWPOLYLINE
  2
AcDbPolyline
  3
AutoCAD 2000
 90
    32768
280
     0
281
     1
  0
CLASS
  1
HATCH
  2
AcDbHatch
  3
AutoCAD 2000
 90
    32768
280
     0
281
     1
  0
CLASS
  1
XRECORD
  2
AcDbXrecord
  3
AutoCAD 2000
 90
    32768
280
     0
281
     0
  0
CLASS
  1
LONG_TRANSACTION
  2
AcDbLongTransaction
  3
AutoCAD 2000
 90
    32768
280
     0
281
     0
  0
CLASS
  1
LWPOLYLINE
  2
AcDbPolyline
  3
AutoCAD 2000
 90
    32768
280
     0
281
     1
  0
CLASS
  1
HATCH
  2
AcDbHatch
  3
AutoCAD 2000
 90
    32768
280
     0
281
     1
  0
CLASS
  1
XRECORD
  2
AcDbXrecord
  3
AutoCAD 2000
 90
    32768
280
     0
281
     0
  0
CLASS
  1
LONG_TRANSACTION
  2
AcDbLongTransaction
  3
AutoCAD 2000
 90
    32768
280
     0
281
     0
  0
CLASS
  1
LWPOLYLINE
  2
AcDbPolyline
  3
AutoCAD 2000
 90
    32768
280
     0
281
     1
  0
CLASS
  1
HATCH
  2
AcDbHatch
  3
AutoCAD 2000
 90
    32768
280
     0
281
     1
  0
CLASS
  1
XRECORD
  2
AcDbXrecord
  3
AutoCAD 2000
 90
    32768
280
     0
281
     0
  0
CLASS
  1
LONG_TRANSACTION
  2
AcDbLongTransaction
  3
AutoCAD 2000
 90
    32768
280
     0
281
     0
  0
CLASS
  1
LWPOLYLINE
  2
AcDbPolyline
  3
AutoCAD 2000
 90
    32768
280
     0
281
     1
  0
CLASS
  1
HATCH
  2
AcDbHatch
  3
AutoCAD 2000
 90
    32768
280
     0
281
     1
  0
CLASS
  1
XRECORD
  2
AcDbXrecord
  3
AutoCAD 2000
 90
    32768
280
     0
281
     0
  0
CLASS
  1
LONG_TRANSACTION
  2
AcDbLongTransaction
  3
AutoCAD 2000
 90
    32768
280
     0
281
     0
  0
CLASS
  1
LWPOLYLINE
  2
AcDbPolyline
  3
AutoCAD 2000
 90
    32768
280
     0
281
     1
  0
CLASS
  1
HATCH
  2
AcDbHatch
  3
AutoCAD 2000
 90
    32768
280
     0
281
     1
  0
CLASS
  1
XRECORD
  2
AcDbXrecord
  3
AutoCAD 2000
 90
    32768
280
     0
281
     0
  0
CLASS
  1
LONG_TRANSACTION
  2
AcDbLongTransaction
  3
AutoCAD 2000
 90
    32768
280
     0
281
     0
  0
CLASS
  1
LWPOLYLINE
  2
AcDbPolyline
  3
AutoCAD 2000
 90
    32768
280
     0
281
     1
  0
CLASS
  1
HATCH
  2
AcDbHatch
  3
AutoCAD 2000
 90
    32768
280
     0
281
     1
  0
CLASS
  1
XRECORD
  2
AcDbXrecord
  3
AutoCAD 2000
 90
    32768
280
     0
281
     0
  0
CLASS
  1
LONG_TRANSACTION
  2
AcDbLongTransaction
  3
AutoCAD 2000
 90
    32768
280
     0
281
     0
  0
CLASS
  1
LWPOLYLINE
  2
AcDbPolyline
  3
AutoCAD 2000
 90
    32768
280
     0
281
     1
  0
CLASS
  1
HATCH
  2
AcDbHatch
  3
AutoCAD 2000
 90
    32768
280
     0
281
     1
  0
CLASS
  1
XRECORD
  2
AcDbXrecord
  3
AutoCAD 2000
 90
    32768
280
     0
281
     0
  0
CLASS
  1
LONG_TRANSACTION
  2
AcDbLongTransaction
  3
AutoCAD 2000
 90
    32768
280
     0
281
     0
  0
CLASS
  1
LWPOLYLINE
  2
AcDbPolyline
  3
AutoCAD 2000
 90
    32768
280
     0
281
     1
  0
CLASS
  1
HATCH
  2
AcDbHatch
  3
AutoCAD 2000
 90
    32768
280
     0
281
     1
  0
CLASS
  1
XRECORD
  2
AcDbXrecord
  3
AutoCAD 2000
 90
    32768
280
     0
281
     0
  0
ENDSEC
  0
SECTION
  2
TABLES
  0
TABLE
  2
VPORT
  5
1E
330
0
100
AcDbSymbolTable
 70
     2
  0
VPORT
  5
1BBC
330
1E
100
AcDbSymbolTableRecord
100
AcDbViewportTableRecord
  2
*Active
 70
     0
 10
0.0
 20
0.0
 11
1.0
 21
1.0
 12
-437.8940256055574
 22
236.4926673581507
 13
0.0
 23
0.0
 14
1.0
 24
1.0
 15
2.0
 25
2.0
 16
0.0
 26
0.0
 36
1.0
 17
0.0
 27
0.0
 37
0.0
 40
443.9605016246462
 41
1.750922509225092
 42
50.0
 43
0.0
 44
0.0
 50
0.0
 51
0.0
 71
     0
 72
   100
 73
     1
 74
     1
 75
     0
 76
     0
 77
     0
 78
     0
281
     0
 65
     1
110
0.0
120
0.0
130
0.0
111
1.0
121
0.0
131
0.0
112
0.0
122
1.0
132
0.0
 79
     0
146
0.0
  0
ENDTAB
  0
TABLE
  2
LTYPE
  5
19
330
0
100
AcDbSymbolTable
 70
     3
  0
LTYPE
  5
1A
330
19
100
AcDbSymbolTableRecord
100
AcDbLinetypeTableRecord
  2
BYBLOCK
 70
     0
  3

 72
    65
 73
     0
 40
0.0
  0
LTYPE
  5
1B
330
19
100
AcDbSymbolTableRecord
100
AcDbLinetypeTableRecord
  2
BYLAYER
 70
     0
  3

 72
    65
 73
     0
 40
0.0
  0
LTYPE
  5
A
330
19
100
AcDbSymbolTableRecord
100
AcDbLinetypeTableRecord
  2
CONTINUOUS
 70
     0
  3
Solid line
 72
    65
 73
     0
 40
0.0
  0
LTYPE
  5
68
330
19
100
AcDbSymbolTableRecord
100
AcDbLinetypeTableRecord
  2
DASHED2
 70
     0
  3
Dashed (.5x) _ _ _ _ _ _ _ _ _ _ _ _ _ _ _ _ _
 72
    65
 73
     2
 40
9.529999999999999
 49
6.349999999999998
 74
     0
 49
-3.18
 74
     0
  0
LTYPE
  5
76
330
19
100
AcDbSymbolTableRecord
100
AcDbLinetypeTableRecord
  2
CENTER
 70
     0
  3
Center ____ _ ____ _ ____ _ ____ _ ____ _ ____
 72
    65
 73
     4
 40
50.8
 49
31.75
 74
     0
 49
-6.349999999999998
 74
     0
 49
6.349999999999998
 74
     0
 49
-6.349999999999998
 74
     0
  0
ENDTAB
  0
TABLE
  2
LAYER
  5
14
330
0
100
AcDbSymbolTable
 70
     3
  0
LAYER
  5
6
330
14
100
AcDbSymbolTableRecord
100
AcDbLayerTableRecord
  2
0
 70
     0
 62
     7
  6
CONTINUOUS
370
    -3
390
7
  0
LAYER
  5
3F
330
14
100
AcDbSymbolTableRecord
100
AcDbLayerTableRecord
  2
DEFPOINTS
 70
     0
 62
     7
  6
CONTINUOUS
290
     0
370
    -3
390
7
  0
LAYER
  5
26
330
14
100
AcDbSymbolTableRecord
100
AcDbLayerTableRecord
  2
画層1
 70
     0
 62
     7
  6
CONTINUOUS
370
    -3
390
7
  0
ENDTAB
  0
TABLE
  2
STYLE
  5
15
330
0
100
AcDbSymbolTable
 70
     2
  0
STYLE
  5
16
330
15
100
AcDbSymbolTableRecord
100
AcDbTextStyleTableRecord
  2
STANDARD
 70
     0
 40
2.5
 41
1.0
 50
0.0
 71
     0
 42
1.5
  3
MS PMincho.ttf
  4

1001
ACAD
1000
MS PMincho
1071
    32786
  0
STYLE
  5
27
330
15
100
AcDbSymbolTableRecord
100
AcDbTextStyleTableRecord
  2
STYLE1
 70
     0
 40
2.5
 41
1.0
 50
0.0
 71
     0
 42
2.5
  3
MS Gothic.ttf
  4

1001
ACAD
1000
MS Gothic
1071
    32817
  0
ENDTAB
  0
TABLE
  2
VIEW
  5
1C
330
0
100
AcDbSymbolTable
 70
     0
  0
ENDTAB
  0
TABLE
  2
UCS
  5
1D
330
0
100
AcDbSymbolTable
 70
     0
  0
ENDTAB
  0
TABLE
  2
APPID
  5
20
330
0
100
AcDbSymbolTable
 70
     1
  0
APPID
  5
17
330
20
100
AcDbSymbolTableRecord
100
AcDbRegAppTableRecord
  2
ACAD
 70
     0
  0
ENDTAB
  0
TABLE
  2
DIMSTYLE
  5
21
330
0
100
AcDbSymbolTable
 70
     1
100
AcDbDimStyleTable
 71
     0
  0
DIMSTYLE
105
35
102
{ACAD_REACTORS
330
1A91
330
1A9E
330
1AAC
330
1AB9
330
1AC6
330
1AD3
330
1AE0
330
1AED
102
}
330
21
100
AcDbSymbolTableRecord
100
AcDbDimStyleTableRecord
  2
STANDARD_WS
 70
     0
 41
1.5
 42
0.63
 43
3.75
 44
1.25
 73
     0
 74
     0
 77
     1
 78
     8
140
2.5
141
2.5
143
0.04
147
0.63
171
     4
172
     1
173
     1
273
     8
274
     4
340
16
341
2E
343
2E
344
2E
  0
ENDTAB
  0
TABLE
  2
BLOCK_RECORD
  5
1
330
0
100
AcDbSymbolTable
 70
    18
  0
BLOCK_RECORD
  5
2
102
{ACAD_XDICTIONARY
360
3
102
}
330
1
100
AcDbSymbolTableRecord
100
AcDbBlockTableRecord
  2
*MODEL_SPACE
340
560
  0
BLOCK_RECORD
  5
E
102
{ACAD_XDICTIONARY
360
F
102
}
330
1
100
AcDbSymbolTableRecord
100
AcDbBlockTableRecord
  2
*PAPER_SPACE
340
561
  0
BLOCK_RECORD
  5
2E
330
1
100
AcDbSymbolTableRecord
100
AcDbBlockTableRecord
  2
_OPEN
340
0
  0
BLOCK_RECORD
  5
28
330
1
100
AcDbSymbolTableRecord
100
AcDbBlockTableRecord
  2
_OPEN30
340
0
102
{BLKREFS
331
1553
331
1554
331
155F
331
1560
331
156B
331
156C
331
182E
331
182F
331
1837
331
1838
331
1840
331
1841
331
1B73
331
1B74
331
1B7C
331
1B7D
331
1B85
331
1B86
331
1B8E
331
1B8F
331
1B97
331
1B98
331
1BA0
331
1BA1
331
1BA9
331
1BAA
331
1BB2
331
1BB3
102
}
  0
BLOCK_RECORD
  5
121
330
1
100
AcDbSymbolTableRecord
100
AcDbBlockTableRecord
  2
_DOTSMALL
340
0
  0
BLOCK_RECORD
  5
1247
330
1
100
AcDbSymbolTableRecord
100
AcDbBlockTableRecord
  2
A$C19994083
340
0
  0
BLOCK_RECORD
  5
1A92
330
1
100
AcDbSymbolTableRecord
100
AcDbBlockTableRecord
  2
*D10
340
0
  0
BLOCK_RECORD
  5
1A9F
330
1
100
AcDbSymbolTableRecord
100
AcDbBlockTableRecord
  2
*D11
340
0
  0
BLOCK_RECORD
  5
1AAD
330
1
100
AcDbSymbolTableRecord
100
AcDbBlockTableRecord
  2
*D12
340
0
  0
BLOCK_RECORD
  5
1ABA
330
1
100
AcDbSymbolTableRecord
100
AcDbBlockTableRecord
  2
*D13
340
0
  0
BLOCK_RECORD
  5
1AC7
330
1
100
AcDbSymbolTableRecord
100
AcDbBlockTableRecord
  2
*D14
340
0
  0
BLOCK_RECORD
  5
1AD4
330
1
100
AcDbSymbolTableRecord
100
AcDbBlockTableRecord
  2
*D15
340
0
  0
BLOCK_RECORD
  5
1AE1
330
1
100
AcDbSymbolTableRecord
100
AcDbBlockTableRecord
  2
*D16
340
0
  0
BLOCK_RECORD
  5
1AEE
330
1
100
AcDbSymbolTableRecord
100
AcDbBlockTableRecord
  2
*D17
340
0
  0
ENDTAB
  0
ENDSEC
  0
SECTION
  2
BLOCKS
  0
BLOCK
  5
5
330
2
100
AcDbEntity
  8
0
100
AcDbBlockBegin
  2
*MODEL_SPACE
 70
     0
 10
0.0
 20
0.0
 30
0.0
  3
*MODEL_SPACE
  1

  0
ENDBLK
  5
B
330
2
100
AcDbEntity
  8
0
100
AcDbBlockEnd
  0
BLOCK
  5
11
330
E
100
AcDbEntity
 67
     1
  8
0
100
AcDbBlockBegin
  2
*PAPER_SPACE
 70
     0
 10
0.0
 20
0.0
 30
0.0
  3
*PAPER_SPACE
  1

  0
ENDBLK
  5
12
330
E
100
AcDbEntity
 67
     1
  8
0
100
AcDbBlockEnd
  0
BLOCK
  5
32
330
2E
100
AcDbEntity
  8
0
100
AcDbBlockBegin
  2
_OPEN
 70
     0
 10
0.0
 20
0.0
 30
0.0
  3
_OPEN
  1

  0
LINE
  5
2F
330
2E
100
AcDbEntity
  8
0
  6
ByBlock
 62
     0
100
AcDbLine
 10
-1.0
 20
0.17
 30
0.0
 11
0.0
 21
0.0
 31
0.0
  0
LINE
  5
30
330
2E
100
AcDbEntity
  8
0
  6
ByBlock
 62
     0
100
AcDbLine
 10
0.0
 20
0.0
 30
0.0
 11
-1.0
 21
-0.17
 31
0.0
  0
LINE
  5
31
330
2E
100
AcDbEntity
  8
0
  6
ByBlock
 62
     0
100
AcDbLine
 10
0.0
 20
0.0
 30
0.0
 11
-1.0
 21
0.0
 31
0.0
  0
ENDBLK
  5
33
330
2E
100
AcDbEntity
  8
0
100
AcDbBlockEnd
  0
BLOCK
  5
2C
330
28
100
AcDbEntity
  8
0
100
AcDbBlockBegin
  2
_OPEN30
 70
     0
 10
0.0
 20
0.0
 30
0.0
  3
_OPEN30
  1

  0
LINE
  5
29
330
28
100
AcDbEntity
  8
0
  6
ByBlock
 62
     0
100
AcDbLine
 10
-1.0
 20
0.27
 30
0.0
 11
0.0
 21
0.0
 31
0.0
  0
LINE
  5
2A
330
28
100
AcDbEntity
  8
0
  6
ByBlock
 62
     0
100
AcDbLine
 10
0.0
 20
0.0
 30
0.0
 11
-1.0
 21
-0.27
 31
0.0
  0
LINE
  5
2B
330
28
100
AcDbEntity
  8
0
  6
ByBlock
 62
     0
100
AcDbLine
 10
0.0
 20
0.0
 30
0.0
 11
-1.0
 21
0.0
 31
0.0
  0
ENDBLK
  5
2D
330
28
100
AcDbEntity
  8
0
100
AcDbBlockEnd
  0
BLOCK
  5
123
330
121
100
AcDbEntity
  8
0
 62
     1
100
AcDbBlockBegin
  2
_DOTSMALL
 70
     0
 10
0.0
 20
0.0
 30
0.0
  3
_DOTSMALL
  1

  0
LWPOLYLINE
  5
122
330
121
100
AcDbEntity
  8
画層1
 62
     0
100
AcDbPolyline
 90
        2
 70
     1
 43
0.5
 10
-0.06
 20
0.0
 42
1.0
 10
0.06
 20
0.0
 42
1.0
  0
ENDBLK
  5
124
330
121
100
AcDbEntity
  8
0
 62
     1
100
AcDbBlockEnd
  0
BLOCK
  5
1312
330
1247
100
AcDbEntity
  8
0
 62
     1
370
    20
100
AcDbBlockBegin
  2
A$C19994083
 70
     0
 10
0.0
 20
0.0
 30
0.0
  3
A$C19994083
  1

  0
LINE
  5
1248
330
1247
100
AcDbEntity
  8
画層1
370
    20
100
AcDbLine
 10
1.000000366504309
 20
9.999999988498132
 30
0.0
 11
1.000000366504309
 21
1.999999988498132
 31
0.0
  0
LINE
  5
1249
330
1247
100
AcDbEntity
  8
画層1
370
    20
100
AcDbLine
 10
12.00000036650431
 20
9.999999988498132
 30
0.0
 11
12.00000036650431
 21
1.999999988498132
 31
0.0
  0
LINE
  5
124A
330
1247
100
AcDbEntity
  8
画層1
370
    20
100
AcDbLine
 10
10.5000003665043
 20
7.999999988498245
 30
0.0
 11
10.50000036650419
 21
3.999999888498109
 31
0.0
  0
LINE
  5
124B
330
1247
100
AcDbEntity
  8
画層1
370
    20
100
AcDbLine
 10
2.500000366504309
 20
7.999999988498188
 30
0.0
 11
2.500000366504423
 21
3.999999888498109
 31
0.0
  0
CIRCLE
  5
124C
330
1247
100
AcDbEntity
  8
画層1
370
    20
100
AcDbCircle
 10
6.500000366504309
 20
5.999999988498132
 30
0.0
 40
3.0
  0
LINE
  5
124D
330
1247
100
AcDbEntity
  8
画層1
370
    20
100
AcDbLine
 10
0.0000003665043096
 20
89.99999998849814
 30
0.0
 11
0.0000003665043096
 21
1.999999988498132
 31
0.0
  0
LINE
  5
124E
330
1247
100
AcDbEntity
  8
画層1
370
    20
100
AcDbLine
 10
13.0000003665043
 20
89.99999998849814
 30
0.0
 11
13.0000003665043
 21
1.999999988498132
 31
0.0
  0
LINE
  5
124F
330
1247
100
AcDbEntity
  8
画層1
370
    20
100
AcDbLine
 10
7.000000366504309
 20
5.499999988498132
 30
0.0
 11
9.458040258054097
 21
5.499999988498132
 31
0.0
  0
ARC
  5
1250
330
1247
100
AcDbEntity
  8
画層1
370
    20
100
AcDbCircle
 10
8.500000366504195
 20
3.999999988498075
 30
0.0
 40
2.0
100
AcDbArc
 50
270.0
 51
0.0000000000016284
  0
LWPOLYLINE
  5
1251
330
1247
100
AcDbEntity
  8
画層1
370
    20
100
AcDbPolyline
 90
        4
 70
     1
 43
0.0
 10
0.0000003665043096
 20
1.999999988498132
 10
13.0000003665043
 20
1.999999988498132
 10
13.0000003665043
 20
-0.0000000115018679
 10
0.0000003665043096
 20
-0.0000000115018679
  0
LINE
  5
1252
330
1247
100
AcDbEntity
  8
画層1
370
    20
100
AcDbLine
 10
6.000000366504309
 20
3.999999988498132
 30
0.0
 11
7.000000366504309
 21
3.999999988498132
 31
0.0
  0
LINE
  5
1253
330
1247
100
AcDbEntity
  8
画層1
370
    20
100
AcDbLine
 10
7.000000366504309
 20
3.999999988498132
 30
0.0
 11
7.000000366504309
 21
5.499999988498132
 31
0.0
  0
LINE
  5
1254
330
1247
100
AcDbEntity
  8
画層1
370
    20
100
AcDbLine
 10
6.000000366504309
 20
5.499999988498132
 30
0.0
 11
6.000000366504309
 21
3.999999988498132
 31
0.0
  0
ARC
  5
1255
330
1247
100
AcDbEntity
  8
画層1
370
    20
100
AcDbCircle
 10
4.500000366504423
 20
3.999999988497961
 30
0.0
 40
2.0
100
AcDbArc
 50
179.9999999999951
 51
269.9999999999934
  0
LINE
  5
1256
330
1247
100
AcDbEntity
  8
画層1
370
    20
100
AcDbLine
 10
3.541960474954521
 20
5.499999988498132
 30
0.0
 11
6.000000366504309
 21
5.499999988498132
 31
0.0
  0
LINE
  5
1257
330
1247
100
AcDbEntity
  8
画層1
370
    20
100
AcDbLine
 10
4.500000366504309
 20
1.999999988498132
 30
0.0
 11
8.500000366504309
 21
1.999999988498132
 31
0.0
  0
LINE
  5
1258
330
1247
100
AcDbEntity
  8
画層1
370
    20
100
AcDbLine
 10
12.00000036650431
 20
69.99999998849813
 30
0.0
 11
12.00000036650431
 21
61.99999998849813
 31
0.0
  0
LINE
  5
1259
330
1247
100
AcDbEntity
  8
画層1
370
    20
100
AcDbLine
 10
1.000000366504309
 20
69.99999998849813
 30
0.0
 11
1.000000366504309
 21
61.99999998849813
 31
0.0
  0
LINE
  5
125A
330
1247
100
AcDbEntity
  8
画層1
370
    20
100
AcDbLine
 10
7.000000366504309
 20
66.49999998849813
 30
0.0
 11
7.000000366504309
 21
67.99999998849813
 31
0.0
  0
LINE
  5
125B
330
1247
100
AcDbEntity
  8
画層1
370
    20
100
AcDbLine
 10
6.000000366504309
 20
67.99999998849813
 30
0.0
 11
6.000000366504309
 21
66.49999998849813
 31
0.0
  0
LINE
  5
125C
330
1247
100
AcDbEntity
  8
画層1
370
    20
100
AcDbLine
 10
10.5000003665043
 20
67.99999998849824
 30
0.0
 11
10.50000036650419
 21
63.99999988849811
 31
0.0
  0
LINE
  5
125D
330
1247
100
AcDbEntity
  8
画層1
370
    20
100
AcDbLine
 10
2.500000366504309
 20
67.99999998849819
 30
0.0
 11
2.500000366504423
 21
63.99999988849811
 31
0.0
  0
CIRCLE
  5
125E
330
1247
100
AcDbEntity
  8
画層1
370
    20
100
AcDbCircle
 10
6.500000366504309
 20
65.99999998849813
 30
0.0
 40
3.0
  0
LINE
  5
125F
330
1247
100
AcDbEntity
  8
画層1
370
    20
100
AcDbLine
 10
1.000000366504309
 20
39.99999998849813
 30
0.0
 11
1.000000366504309
 21
31.99999998849813
 31
0.0
  0
LINE
  5
1260
330
1247
100
AcDbEntity
  8
画層1
370
    20
100
AcDbLine
 10
12.00000036650431
 20
39.99999998849813
 30
0.0
 11
12.00000036650431
 21
31.99999998849813
 31
0.0
  0
CIRCLE
  5
1261
330
1247
100
AcDbEntity
  8
画層1
370
    20
100
AcDbCircle
 10
6.500000366504309
 20
35.99999998849813
 30
0.0
 40
3.0
  0
LINE
  5
1262
330
1247
100
AcDbEntity
  8
画層1
370
    20
100
AcDbLine
 10
2.500000366504309
 20
37.99999998849818
 30
0.0
 11
2.500000366504423
 21
33.99999988849811
 31
0.0
  0
LINE
  5
1263
330
1247
100
AcDbEntity
  8
画層1
370
    20
100
AcDbLine
 10
10.5000003665043
 20
37.99999998849824
 30
0.0
 11
10.50000036650419
 21
33.99999988849811
 31
0.0
  0
LWPOLYLINE
  5
1264
330
1247
100
AcDbEntity
  8
画層1
370
    20
100
AcDbPolyline
 90
        4
 70
     1
 43
0.0
 10
0.0000003665043096
 20
21.99999998849813
 10
13.0000003665043
 20
21.99999998849813
 10
13.0000003665043
 20
19.99999998849813
 10
0.0000003665043096
 20
19.99999998849813
  0
LINE
  5
1265
330
1247
100
AcDbEntity
  8
画層1
370
    20
100
AcDbLine
 10
1.000000366504309
 20
19.99999998849813
 30
0.0
 11
1.000000366504309
 21
11.99999998849813
 31
0.0
  0
LINE
  5
1266
330
1247
100
AcDbEntity
  8
画層1
370
    20
100
AcDbLine
 10
12.00000036650431
 20
19.99999998849813
 30
0.0
 11
12.00000036650431
 21
11.99999998849813
 31
0.0
  0
ARC
  5
1267
330
1247
100
AcDbEntity
  8
画層1
370
    20
100
AcDbCircle
 10
8.500000366504195
 20
13.99999998849807
 30
0.0
 40
2.0
100
AcDbArc
 50
270.0
 51
0.0000000000016284
  0
ARC
  5
1268
330
1247
100
AcDbEntity
  8
画層1
370
    20
100
AcDbCircle
 10
4.500000366504423
 20
13.99999998849796
 30
0.0
 40
2.0
100
AcDbArc
 50
179.9999999999951
 51
269.9999999999934
  0
CIRCLE
  5
1269
330
1247
100
AcDbEntity
  8
画層1
370
    20
100
AcDbCircle
 10
6.500000366504309
 20
15.99999998849813
 30
0.0
 40
3.0
  0
LINE
  5
126A
330
1247
100
AcDbEntity
  8
画層1
370
    20
100
AcDbLine
 10
9.458040258054097
 20
6.499999988498132
 30
0.0
 11
7.000000366504309
 21
6.499999988498132
 31
0.0
  0
ARC
  5
126B
330
1247
100
AcDbEntity
  8
画層1
370
    20
100
AcDbCircle
 10
8.500000366504423
 20
7.999999988498245
 30
0.0
 40
2.0
100
AcDbArc
 50
359.9999999999967
 51
90.0
  0
LWPOLYLINE
  5
126C
330
1247
100
AcDbEntity
  8
画層1
370
    20
100
AcDbPolyline
 90
        4
 70
     1
 43
0.0
 10
0.0000003665043096
 20
11.99999998849813
 10
13.0000003665043
 20
11.99999998849813
 10
13.0000003665043
 20
9.999999988498132
 10
0.0000003665043096
 20
9.999999988498132
  0
LINE
  5
126D
330
1247
100
AcDbEntity
  8
画層1
370
    20
100
AcDbLine
 10
7.000000366504309
 20
6.499999988498132
 30
0.0
 11
7.000000366504309
 21
7.999999988498132
 31
0.0
  0
LINE
  5
126E
330
1247
100
AcDbEntity
  8
画層1
370
    20
100
AcDbLine
 10
6.000000366504309
 20
7.999999988498132
 30
0.0
 11
6.000000366504309
 21
6.499999988498132
 31
0.0
  0
LINE
  5
126F
330
1247
100
AcDbEntity
  8
画層1
370
    20
100
AcDbLine
 10
7.000000366504309
 20
7.999999988498132
 30
0.0
 11
6.000000366504309
 21
7.999999988498132
 31
0.0
  0
LINE
  5
1270
330
1247
100
AcDbEntity
  8
画層1
370
    20
100
AcDbLine
 10
6.000000366504309
 20
6.499999988498132
 30
0.0
 11
3.541960474954521
 21
6.499999988498132
 31
0.0
  0
LINE
  5
1271
330
1247
100
AcDbEntity
  8
画層1
370
    20
100
AcDbLine
 10
4.500000366504309
 20
9.999999988498132
 30
0.0
 11
8.500000366504309
 21
9.999999988498132
 31
0.0
  0
ARC
  5
1272
330
1247
100
AcDbEntity
  8
画層1
370
    20
100
AcDbCircle
 10
4.500000366504195
 20
7.999999988498188
 30
0.0
 40
2.0
100
AcDbArc
 50
89.99999999999349
 51
180.0000000000016
  0
LINE
  5
1273
330
1247
100
AcDbEntity
  8
画層1
370
    20
100
AcDbLine
 10
4.500000366504309
 20
11.99999998849813
 30
0.0
 11
8.500000366504309
 21
11.99999998849813
 31
0.0
  0
LINE
  5
1274
330
1247
100
AcDbEntity
  8
画層1
370
    20
100
AcDbLine
 10
9.458040258054097
 20
16.49999998849813
 30
0.0
 11
7.000000366504309
 21
16.49999998849813
 31
0.0
  0
LINE
  5
1275
330
1247
100
AcDbEntity
  8
画層1
370
    20
100
AcDbLine
 10
7.000000366504309
 20
15.49999998849813
 30
0.0
 11
9.458040258054097
 21
15.49999998849813
 31
0.0
  0
ARC
  5
1276
330
1247
100
AcDbEntity
  8
画層1
370
    20
100
AcDbCircle
 10
8.500000366504423
 20
17.99999998849824
 30
0.0
 40
2.0
100
AcDbArc
 50
359.9999999999967
 51
90.0
  0
LINE
  5
1277
330
1247
100
AcDbEntity
  8
画層1
370
    20
100
AcDbLine
 10
4.500000366504309
 20
19.99999998849813
 30
0.0
 11
8.500000366504309
 21
19.99999998849813
 31
0.0
  0
LINE
  5
1278
330
1247
100
AcDbEntity
  8
画層1
370
    20
100
AcDbLine
 10
7.000000366504309
 20
17.99999998849813
 30
0.0
 11
6.000000366504309
 21
17.99999998849813
 31
0.0
  0
LINE
  5
1279
330
1247
100
AcDbEntity
  8
画層1
370
    20
100
AcDbLine
 10
6.000000366504309
 20
15.49999998849813
 30
0.0
 11
6.000000366504309
 21
13.99999998849813
 31
0.0
  0
LINE
  5
127A
330
1247
100
AcDbEntity
  8
画層1
370
    20
100
AcDbLine
 10
7.000000366504309
 20
13.99999998849813
 30
0.0
 11
7.000000366504309
 21
15.49999998849813
 31
0.0
  0
LINE
  5
127B
330
1247
100
AcDbEntity
  8
画層1
370
    20
100
AcDbLine
 10
6.000000366504309
 20
13.99999998849813
 30
0.0
 11
7.000000366504309
 21
13.99999998849813
 31
0.0
  0
LINE
  5
127C
330
1247
100
AcDbEntity
  8
画層1
370
    20
100
AcDbLine
 10
6.000000366504309
 20
17.99999998849813
 30
0.0
 11
6.000000366504309
 21
16.49999998849813
 31
0.0
  0
LINE
  5
127D
330
1247
100
AcDbEntity
  8
画層1
370
    20
100
AcDbLine
 10
7.000000366504309
 20
16.49999998849813
 30
0.0
 11
7.000000366504309
 21
17.99999998849813
 31
0.0
  0
LINE
  5
127E
330
1247
100
AcDbEntity
  8
画層1
370
    20
100
AcDbLine
 10
2.500000366504309
 20
17.99999998849818
 30
0.0
 11
2.500000366504423
 21
13.99999988849811
 31
0.0
  0
LINE
  5
127F
330
1247
100
AcDbEntity
  8
画層1
370
    20
100
AcDbLine
 10
6.000000366504309
 20
16.49999998849813
 30
0.0
 11
3.541960474954521
 21
16.49999998849813
 31
0.0
  0
LINE
  5
1280
330
1247
100
AcDbEntity
  8
画層1
370
    20
100
AcDbLine
 10
3.541960474954521
 20
15.49999998849813
 30
0.0
 11
6.000000366504309
 21
15.49999998849813
 31
0.0
  0
ARC
  5
1281
330
1247
100
AcDbEntity
  8
画層1
370
    20
100
AcDbCircle
 10
4.500000366504195
 20
17.99999998849818
 30
0.0
 40
2.0
100
AcDbArc
 50
89.99999999999349
 51
180.0000000000016
  0
LINE
  5
1282
330
1247
100
AcDbEntity
  8
画層1
370
    20
100
AcDbLine
 10
10.5000003665043
 20
17.99999998849824
 30
0.0
 11
10.50000036650419
 21
13.99999988849811
 31
0.0
  0
LINE
  5
1283
330
1247
100
AcDbEntity
  8
画層1
370
    20
100
AcDbLine
 10
1.000000366504309
 20
29.99999998849813
 30
0.0
 11
1.000000366504309
 21
21.99999998849813
 31
0.0
  0
LINE
  5
1284
330
1247
100
AcDbEntity
  8
画層1
370
    20
100
AcDbLine
 10
12.00000036650431
 20
29.99999998849813
 30
0.0
 11
12.00000036650431
 21
21.99999998849813
 31
0.0
  0
CIRCLE
  5
1285
330
1247
100
AcDbEntity
  8
画層1
370
    20
100
AcDbCircle
 10
6.500000366504309
 20
25.99999998849813
 30
0.0
 40
3.0
  0
ARC
  5
1286
330
1247
100
AcDbEntity
  8
画層1
370
    20
100
AcDbCircle
 10
4.500000366504195
 20
27.99999998849818
 30
0.0
 40
2.0
100
AcDbArc
 50
89.99999999999349
 51
180.0000000000016
  0
ARC
  5
1287
330
1247
100
AcDbEntity
  8
画層1
370
    20
100
AcDbCircle
 10
8.500000366504423
 20
27.99999998849824
 30
0.0
 40
2.0
100
AcDbArc
 50
359.9999999999967
 51
90.0
  0
LINE
  5
1288
330
1247
100
AcDbEntity
  8
画層1
370
    20
100
AcDbLine
 10
7.000000366504309
 20
25.49999998849813
 30
0.0
 11
9.458040258054097
 21
25.49999998849813
 31
0.0
  0
ARC
  5
1289
330
1247
100
AcDbEntity
  8
画層1
370
    20
100
AcDbCircle
 10
8.500000366504195
 20
23.99999998849807
 30
0.0
 40
2.0
100
AcDbArc
 50
270.0
 51
0.0000000000016284
  0
LINE
  5
128A
330
1247
100
AcDbEntity
  8
画層1
370
    20
100
AcDbLine
 10
9.458040258054097
 20
26.49999998849813
 30
0.0
 11
7.000000366504309
 21
26.49999998849813
 31
0.0
  0
LINE
  5
128B
330
1247
100
AcDbEntity
  8
画層1
370
    20
100
AcDbLine
 10
7.000000366504309
 20
26.49999998849813
 30
0.0
 11
7.000000366504309
 21
27.99999998849813
 31
0.0
  0
LINE
  5
128C
330
1247
100
AcDbEntity
  8
画層1
370
    20
100
AcDbLine
 10
6.000000366504309
 20
27.99999998849813
 30
0.0
 11
6.000000366504309
 21
26.49999998849813
 31
0.0
  0
LINE
  5
128D
330
1247
100
AcDbEntity
  8
画層1
370
    20
100
AcDbLine
 10
6.000000366504309
 20
23.99999998849813
 30
0.0
 11
7.000000366504309
 21
23.99999998849813
 31
0.0
  0
LINE
  5
128E
330
1247
100
AcDbEntity
  8
画層1
370
    20
100
AcDbLine
 10
7.000000366504309
 20
23.99999998849813
 30
0.0
 11
7.000000366504309
 21
25.49999998849813
 31
0.0
  0
LINE
  5
128F
330
1247
100
AcDbEntity
  8
画層1
370
    20
100
AcDbLine
 10
6.000000366504309
 20
25.49999998849813
 30
0.0
 11
6.000000366504309
 21
23.99999998849813
 31
0.0
  0
LINE
  5
1290
330
1247
100
AcDbEntity
  8
画層1
370
    20
100
AcDbLine
 10
7.000000366504309
 20
27.99999998849813
 30
0.0
 11
6.000000366504309
 21
27.99999998849813
 31
0.0
  0
LINE
  5
1291
330
1247
100
AcDbEntity
  8
画層1
370
    20
100
AcDbLine
 10
2.500000366504309
 20
27.99999998849818
 30
0.0
 11
2.500000366504423
 21
23.99999988849811
 31
0.0
  0
ARC
  5
1292
330
1247
100
AcDbEntity
  8
画層1
370
    20
100
AcDbCircle
 10
4.500000366504423
 20
23.99999998849796
 30
0.0
 40
2.0
100
AcDbArc
 50
179.9999999999951
 51
269.9999999999934
  0
LINE
  5
1293
330
1247
100
AcDbEntity
  8
画層1
370
    20
100
AcDbLine
 10
3.541960474954521
 20
25.49999998849813
 30
0.0
 11
6.000000366504309
 21
25.49999998849813
 31
0.0
  0
LINE
  5
1294
330
1247
100
AcDbEntity
  8
画層1
370
    20
100
AcDbLine
 10
4.500000366504309
 20
21.99999998849813
 30
0.0
 11
8.500000366504309
 21
21.99999998849813
 31
0.0
  0
LINE
  5
1295
330
1247
100
AcDbEntity
  8
画層1
370
    20
100
AcDbLine
 10
6.000000366504309
 20
26.49999998849813
 30
0.0
 11
3.541960474954521
 21
26.49999998849813
 31
0.0
  0
LINE
  5
1296
330
1247
100
AcDbEntity
  8
画層1
370
    20
100
AcDbLine
 10
10.5000003665043
 20
27.99999998849824
 30
0.0
 11
10.50000036650419
 21
23.99999988849811
 31
0.0
  0
ARC
  5
1297
330
1247
100
AcDbEntity
  8
画層1
370
    20
100
AcDbCircle
 10
8.500000366504195
 20
33.99999998849807
 30
0.0
 40
2.0
100
AcDbArc
 50
270.0
 51
0.0000000000016284
  0
LINE
  5
1298
330
1247
100
AcDbEntity
  8
画層1
370
    20
100
AcDbLine
 10
7.000000366504309
 20
35.49999998849813
 30
0.0
 11
9.458040258054097
 21
35.49999998849813
 31
0.0
  0
LWPOLYLINE
  5
1299
330
1247
100
AcDbEntity
  8
画層1
370
    20
100
AcDbPolyline
 90
        4
 70
     1
 43
0.0
 10
0.0000003665043096
 20
31.99999998849813
 10
13.0000003665043
 20
31.99999998849813
 10
13.0000003665043
 20
29.99999998849813
 10
0.0000003665043096
 20
29.99999998849813
  0
LINE
  5
129A
330
1247
100
AcDbEntity
  8
画層1
370
    20
100
AcDbLine
 10
4.500000366504309
 20
29.99999998849813
 30
0.0
 11
8.500000366504309
 21
29.99999998849813
 31
0.0
  0
LINE
  5
129B
330
1247
100
AcDbEntity
  8
画層1
370
    20
100
AcDbLine
 10
6.000000366504309
 20
35.49999998849813
 30
0.0
 11
6.000000366504309
 21
33.99999998849813
 31
0.0
  0
LINE
  5
129C
330
1247
100
AcDbEntity
  8
画層1
370
    20
100
AcDbLine
 10
7.000000366504309
 20
33.99999998849813
 30
0.0
 11
7.000000366504309
 21
35.49999998849813
 31
0.0
  0
LINE
  5
129D
330
1247
100
AcDbEntity
  8
画層1
370
    20
100
AcDbLine
 10
6.000000366504309
 20
33.99999998849813
 30
0.0
 11
7.000000366504309
 21
33.99999998849813
 31
0.0
  0
ARC
  5
129E
330
1247
100
AcDbEntity
  8
画層1
370
    20
100
AcDbCircle
 10
4.500000366504423
 20
33.99999998849796
 30
0.0
 40
2.0
100
AcDbArc
 50
179.9999999999951
 51
269.9999999999934
  0
LINE
  5
129F
330
1247
100
AcDbEntity
  8
画層1
370
    20
100
AcDbLine
 10
4.500000366504309
 20
31.99999998849813
 30
0.0
 11
8.500000366504309
 21
31.99999998849813
 31
0.0
  0
LINE
  5
12A0
330
1247
100
AcDbEntity
  8
画層1
370
    20
100
AcDbLine
 10
3.541960474954521
 20
35.49999998849813
 30
0.0
 11
6.000000366504309
 21
35.49999998849813
 31
0.0
  0
ARC
  5
12A1
330
1247
100
AcDbEntity
  8
画層1
370
    20
100
AcDbCircle
 10
8.500000366504195
 20
53.99999998849807
 30
0.0
 40
2.0
100
AcDbArc
 50
270.0
 51
0.0000000000016284
  0
ARC
  5
12A2
330
1247
100
AcDbEntity
  8
画層1
370
    20
100
AcDbCircle
 10
4.500000366504423
 20
53.99999998849796
 30
0.0
 40
2.0
100
AcDbArc
 50
179.9999999999951
 51
269.9999999999934
  0
LWPOLYLINE
  5
12A3
330
1247
100
AcDbEntity
  8
画層1
370
    20
100
AcDbPolyline
 90
        4
 70
     1
 43
0.0
 10
0.0000003665043096
 20
51.99999998849813
 10
13.0000003665043
 20
51.99999998849813
 10
13.0000003665043
 20
49.99999998849813
 10
0.0000003665043096
 20
49.99999998849813
  0
LINE
  5
12A4
330
1247
100
AcDbEntity
  8
画層1
370
    20
100
AcDbLine
 10
1.000000366504309
 20
49.99999998849813
 30
0.0
 11
1.000000366504309
 21
41.99999998849813
 31
0.0
  0
LINE
  5
12A5
330
1247
100
AcDbEntity
  8
画層1
370
    20
100
AcDbLine
 10
12.00000036650431
 20
49.99999998849813
 30
0.0
 11
12.00000036650431
 21
41.99999998849813
 31
0.0
  0
LINE
  5
12A6
330
1247
100
AcDbEntity
  8
画層1
370
    20
100
AcDbLine
 10
7.000000366504309
 20
43.99999998849813
 30
0.0
 11
7.000000366504309
 21
45.49999998849813
 31
0.0
  0
LINE
  5
12A7
330
1247
100
AcDbEntity
  8
画層1
370
    20
100
AcDbLine
 10
6.000000366504309
 20
45.49999998849813
 30
0.0
 11
6.000000366504309
 21
43.99999998849813
 31
0.0
  0
LINE
  5
12A8
330
1247
100
AcDbEntity
  8
画層1
370
    20
100
AcDbLine
 10
10.5000003665043
 20
47.99999998849824
 30
0.0
 11
10.50000036650419
 21
43.99999988849811
 31
0.0
  0
LINE
  5
12A9
330
1247
100
AcDbEntity
  8
画層1
370
    20
100
AcDbLine
 10
2.500000366504309
 20
47.99999998849819
 30
0.0
 11
2.500000366504423
 21
43.99999988849811
 31
0.0
  0
CIRCLE
  5
12AA
330
1247
100
AcDbEntity
  8
画層1
370
    20
100
AcDbCircle
 10
6.500000366504309
 20
45.99999998849813
 30
0.0
 40
3.0
  0
ARC
  5
12AB
330
1247
100
AcDbEntity
  8
画層1
370
    20
100
AcDbCircle
 10
8.500000366504423
 20
37.99999998849824
 30
0.0
 40
2.0
100
AcDbArc
 50
359.9999999999967
 51
90.0
  0
LINE
  5
12AC
330
1247
100
AcDbEntity
  8
画層1
370
    20
100
AcDbLine
 10
9.458040258054097
 20
36.49999998849813
 30
0.0
 11
7.000000366504309
 21
36.49999998849813
 31
0.0
  0
ARC
  5
12AD
330
1247
100
AcDbEntity
  8
画層1
370
    20
100
AcDbCircle
 10
8.500000366504195
 20
43.99999998849807
 30
0.0
 40
2.0
100
AcDbArc
 50
270.0
 51
0.0000000000016284
  0
LWPOLYLINE
  5
12AE
330
1247
100
AcDbEntity
  8
画層1
370
    20
100
AcDbPolyline
 90
        4
 70
     1
 43
0.0
 10
0.0000003665043096
 20
41.99999998849813
 10
13.0000003665043
 20
41.99999998849813
 10
13.0000003665043
 20
39.99999998849813
 10
0.0000003665043096
 20
39.99999998849813
  0
LINE
  5
12AF
330
1247
100
AcDbEntity
  8
画層1
370
    20
100
AcDbLine
 10
7.000000366504309
 20
37.99999998849813
 30
0.0
 11
6.000000366504309
 21
37.99999998849813
 31
0.0
  0
ARC
  5
12B0
330
1247
100
AcDbEntity
  8
画層1
370
    20
100
AcDbCircle
 10
4.500000366504195
 20
37.99999998849818
 30
0.0
 40
2.0
100
AcDbArc
 50
89.99999999999349
 51
180.0000000000016
  0
LINE
  5
12B1
330
1247
100
AcDbEntity
  8
画層1
370
    20
100
AcDbLine
 10
4.500000366504309
 20
39.99999998849813
 30
0.0
 11
8.500000366504309
 21
39.99999998849813
 31
0.0
  0
LINE
  5
12B2
330
1247
100
AcDbEntity
  8
画層1
370
    20
100
AcDbLine
 10
6.000000366504309
 20
36.49999998849813
 30
0.0
 11
3.541960474954521
 21
36.49999998849813
 31
0.0
  0
LINE
  5
12B3
330
1247
100
AcDbEntity
  8
画層1
370
    20
100
AcDbLine
 10
6.000000366504309
 20
37.99999998849813
 30
0.0
 11
6.000000366504309
 21
36.49999998849813
 31
0.0
  0
LINE
  5
12B4
330
1247
100
AcDbEntity
  8
画層1
370
    20
100
AcDbLine
 10
7.000000366504309
 20
36.49999998849813
 30
0.0
 11
7.000000366504309
 21
37.99999998849813
 31
0.0
  0
LINE
  5
12B5
330
1247
100
AcDbEntity
  8
画層1
370
    20
100
AcDbLine
 10
6.000000366504309
 20
43.99999998849813
 30
0.0
 11
7.000000366504309
 21
43.99999998849813
 31
0.0
  0
ARC
  5
12B6
330
1247
100
AcDbEntity
  8
画層1
370
    20
100
AcDbCircle
 10
4.500000366504423
 20
43.99999998849795
 30
0.0
 40
2.0
100
AcDbArc
 50
179.9999999999951
 51
269.9999999999934
  0
LINE
  5
12B7
330
1247
100
AcDbEntity
  8
画層1
370
    20
100
AcDbLine
 10
4.500000366504309
 20
41.99999998849813
 30
0.0
 11
8.500000366504309
 21
41.99999998849813
 31
0.0
  0
ARC
  5
12B8
330
1247
100
AcDbEntity
  8
画層1
370
    20
100
AcDbCircle
 10
8.500000366504423
 20
47.99999998849824
 30
0.0
 40
2.0
100
AcDbArc
 50
359.9999999999967
 51
90.0
  0
LINE
  5
12B9
330
1247
100
AcDbEntity
  8
画層1
370
    20
100
AcDbLine
 10
7.000000366504309
 20
45.49999998849813
 30
0.0
 11
9.458040258054097
 21
45.49999998849813
 31
0.0
  0
LINE
  5
12BA
330
1247
100
AcDbEntity
  8
画層1
370
    20
100
AcDbLine
 10
9.458040258054097
 20
46.49999998849813
 30
0.0
 11
7.000000366504309
 21
46.49999998849813
 31
0.0
  0
LINE
  5
12BB
330
1247
100
AcDbEntity
  8
画層1
370
    20
100
AcDbLine
 10
7.000000366504309
 20
47.99999998849813
 30
0.0
 11
6.000000366504309
 21
47.99999998849813
 31
0.0
  0
ARC
  5
12BC
330
1247
100
AcDbEntity
  8
画層1
370
    20
100
AcDbCircle
 10
4.500000366504195
 20
47.99999998849819
 30
0.0
 40
2.0
100
AcDbArc
 50
89.99999999999349
 51
180.0000000000016
  0
LINE
  5
12BD
330
1247
100
AcDbEntity
  8
画層1
370
    20
100
AcDbLine
 10
4.500000366504309
 20
49.99999998849813
 30
0.0
 11
8.500000366504309
 21
49.99999998849813
 31
0.0
  0
LINE
  5
12BE
330
1247
100
AcDbEntity
  8
画層1
370
    20
100
AcDbLine
 10
3.541960474954521
 20
45.49999998849813
 30
0.0
 11
6.000000366504309
 21
45.49999998849813
 31
0.0
  0
LINE
  5
12BF
330
1247
100
AcDbEntity
  8
画層1
370
    20
100
AcDbLine
 10
6.000000366504309
 20
46.49999998849813
 30
0.0
 11
3.541960474954521
 21
46.49999998849813
 31
0.0
  0
LINE
  5
12C0
330
1247
100
AcDbEntity
  8
画層1
370
    20
100
AcDbLine
 10
7.000000366504309
 20
46.49999998849813
 30
0.0
 11
7.000000366504309
 21
47.99999998849813
 31
0.0
  0
LINE
  5
12C1
330
1247
100
AcDbEntity
  8
画層1
370
    20
100
AcDbLine
 10
6.000000366504309
 20
47.99999998849813
 30
0.0
 11
6.000000366504309
 21
46.49999998849813
 31
0.0
  0
LINE
  5
12C2
330
1247
100
AcDbEntity
  8
画層1
370
    20
100
AcDbLine
 10
1.000000366504309
 20
59.99999998849813
 30
0.0
 11
1.000000366504309
 21
51.99999998849813
 31
0.0
  0
LINE
  5
12C3
330
1247
100
AcDbEntity
  8
画層1
370
    20
100
AcDbLine
 10
12.00000036650431
 20
59.99999998849813
 30
0.0
 11
12.00000036650431
 21
51.99999998849813
 31
0.0
  0
ARC
  5
12C4
330
1247
100
AcDbEntity
  8
画層1
370
    20
100
AcDbCircle
 10
8.500000366504423
 20
57.99999998849824
 30
0.0
 40
2.0
100
AcDbArc
 50
359.9999999999967
 51
90.0
  0
ARC
  5
12C5
330
1247
100
AcDbEntity
  8
画層1
370
    20
100
AcDbCircle
 10
4.500000366504195
 20
57.99999998849819
 30
0.0
 40
2.0
100
AcDbArc
 50
89.99999999999349
 51
180.0000000000016
  0
LINE
  5
12C6
330
1247
100
AcDbEntity
  8
画層1
370
    20
100
AcDbLine
 10
9.458040258054097
 20
56.49999998849813
 30
0.0
 11
7.000000366504309
 21
56.49999998849813
 31
0.0
  0
LINE
  5
12C7
330
1247
100
AcDbEntity
  8
画層1
370
    20
100
AcDbLine
 10
7.000000366504309
 20
55.49999998849813
 30
0.0
 11
9.458040258054097
 21
55.49999998849813
 31
0.0
  0
CIRCLE
  5
12C8
330
1247
100
AcDbEntity
  8
画層1
370
    20
100
AcDbCircle
 10
6.500000366504309
 20
55.99999998849813
 30
0.0
 40
3.0
  0
LINE
  5
12C9
330
1247
100
AcDbEntity
  8
画層1
370
    20
100
AcDbLine
 10
6.000000366504309
 20
57.99999998849813
 30
0.0
 11
6.000000366504309
 21
56.49999998849813
 31
0.0
  0
LINE
  5
12CA
330
1247
100
AcDbEntity
  8
画層1
370
    20
100
AcDbLine
 10
7.000000366504309
 20
56.49999998849813
 30
0.0
 11
7.000000366504309
 21
57.99999998849813
 31
0.0
  0
LINE
  5
12CB
330
1247
100
AcDbEntity
  8
画層1
370
    20
100
AcDbLine
 10
7.000000366504309
 20
57.99999998849813
 30
0.0
 11
6.000000366504309
 21
57.99999998849813
 31
0.0
  0
LINE
  5
12CC
330
1247
100
AcDbEntity
  8
画層1
370
    20
100
AcDbLine
 10
6.000000366504309
 20
56.49999998849813
 30
0.0
 11
3.541960474954521
 21
56.49999998849813
 31
0.0
  0
LINE
  5
12CD
330
1247
100
AcDbEntity
  8
画層1
370
    20
100
AcDbLine
 10
6.000000366504309
 20
55.49999998849813
 30
0.0
 11
6.000000366504309
 21
53.99999998849813
 31
0.0
  0
LINE
  5
12CE
330
1247
100
AcDbEntity
  8
画層1
370
    20
100
AcDbLine
 10
7.000000366504309
 20
53.99999998849813
 30
0.0
 11
7.000000366504309
 21
55.49999998849813
 31
0.0
  0
LINE
  5
12CF
330
1247
100
AcDbEntity
  8
画層1
370
    20
100
AcDbLine
 10
6.000000366504309
 20
53.99999998849813
 30
0.0
 11
7.000000366504309
 21
53.99999998849813
 31
0.0
  0
LINE
  5
12D0
330
1247
100
AcDbEntity
  8
画層1
370
    20
100
AcDbLine
 10
4.500000366504309
 20
51.99999998849813
 30
0.0
 11
8.500000366504309
 21
51.99999998849813
 31
0.0
  0
LINE
  5
12D1
330
1247
100
AcDbEntity
  8
画層1
370
    20
100
AcDbLine
 10
3.541960474954521
 20
55.49999998849813
 30
0.0
 11
6.000000366504309
 21
55.49999998849813
 31
0.0
  0
LINE
  5
12D2
330
1247
100
AcDbEntity
  8
画層1
370
    20
100
AcDbLine
 10
2.500000366504309
 20
57.99999998849819
 30
0.0
 11
2.500000366504423
 21
53.99999988849811
 31
0.0
  0
LINE
  5
12D3
330
1247
100
AcDbEntity
  8
画層1
370
    20
100
AcDbLine
 10
10.5000003665043
 20
57.99999998849824
 30
0.0
 11
10.50000036650419
 21
53.99999988849811
 31
0.0
  0
LINE
  5
12D4
330
1247
100
AcDbEntity
  8
画層1
370
    20
100
AcDbLine
 10
9.458040258054097
 20
66.49999998849813
 30
0.0
 11
7.000000366504309
 21
66.49999998849813
 31
0.0
  0
LINE
  5
12D5
330
1247
100
AcDbEntity
  8
画層1
370
    20
100
AcDbLine
 10
7.000000366504309
 20
65.49999998849813
 30
0.0
 11
9.458040258054097
 21
65.49999998849813
 31
0.0
  0
ARC
  5
12D6
330
1247
100
AcDbEntity
  8
画層1
370
    20
100
AcDbCircle
 10
8.500000366504195
 20
63.99999998849807
 30
0.0
 40
2.0
100
AcDbArc
 50
270.0
 51
0.0000000000016284
  0
LWPOLYLINE
  5
12D7
330
1247
100
AcDbEntity
  8
画層1
370
    20
100
AcDbPolyline
 90
        4
 70
     1
 43
0.0
 10
0.0000003665043096
 20
61.99999998849813
 10
13.0000003665043
 20
61.99999998849813
 10
13.0000003665043
 20
59.99999998849813
 10
0.0000003665043096
 20
59.99999998849813
  0
LINE
  5
12D8
330
1247
100
AcDbEntity
  8
画層1
370
    20
100
AcDbLine
 10
4.500000366504309
 20
59.99999998849813
 30
0.0
 11
8.500000366504309
 21
59.99999998849813
 31
0.0
  0
LINE
  5
12D9
330
1247
100
AcDbEntity
  8
画層1
370
    20
100
AcDbLine
 10
3.541960474954521
 20
65.49999998849813
 30
0.0
 11
6.000000366504309
 21
65.49999998849813
 31
0.0
  0
LINE
  5
12DA
330
1247
100
AcDbEntity
  8
画層1
370
    20
100
AcDbLine
 10
6.000000366504309
 20
66.49999998849813
 30
0.0
 11
3.541960474954521
 21
66.49999998849813
 31
0.0
  0
LINE
  5
12DB
330
1247
100
AcDbEntity
  8
画層1
370
    20
100
AcDbLine
 10
6.000000366504309
 20
63.99999998849813
 30
0.0
 11
7.000000366504309
 21
63.99999998849813
 31
0.0
  0
ARC
  5
12DC
330
1247
100
AcDbEntity
  8
画層1
370
    20
100
AcDbCircle
 10
4.500000366504423
 20
63.99999998849796
 30
0.0
 40
2.0
100
AcDbArc
 50
179.9999999999951
 51
269.9999999999934
  0
LINE
  5
12DD
330
1247
100
AcDbEntity
  8
画層1
370
    20
100
AcDbLine
 10
4.500000366504309
 20
61.99999998849813
 30
0.0
 11
8.500000366504309
 21
61.99999998849813
 31
0.0
  0
LINE
  5
12DE
330
1247
100
AcDbEntity
  8
画層1
370
    20
100
AcDbLine
 10
7.000000366504309
 20
63.99999998849813
 30
0.0
 11
7.000000366504309
 21
65.49999998849813
 31
0.0
  0
LINE
  5
12DF
330
1247
100
AcDbEntity
  8
画層1
370
    20
100
AcDbLine
 10
6.000000366504309
 20
65.49999998849813
 30
0.0
 11
6.000000366504309
 21
63.99999998849813
 31
0.0
  0
LINE
  5
12E0
330
1247
100
AcDbEntity
  8
画層1
370
    20
100
AcDbLine
 10
12.00000036650431
 20
89.99999998849814
 30
0.0
 11
12.00000036650431
 21
81.99999998849813
 31
0.0
  0
LINE
  5
12E1
330
1247
100
AcDbEntity
  8
画層1
370
    20
100
AcDbLine
 10
1.000000366504309
 20
89.99999998849814
 30
0.0
 11
1.000000366504309
 21
81.99999998849813
 31
0.0
  0
ARC
  5
12E2
330
1247
100
AcDbEntity
  8
画層1
370
    20
100
AcDbCircle
 10
8.500000366504195
 20
83.99999998849807
 30
0.0
 40
2.0
100
AcDbArc
 50
270.0
 51
0.0000000000016284
  0
ARC
  5
12E3
330
1247
100
AcDbEntity
  8
画層1
370
    20
100
AcDbCircle
 10
4.500000366504423
 20
83.99999998849796
 30
0.0
 40
2.0
100
AcDbArc
 50
179.9999999999951
 51
269.9999999999934
  0
LINE
  5
12E4
330
1247
100
AcDbEntity
  8
画層1
370
    20
100
AcDbLine
 10
1.000000366504309
 20
79.99999998849813
 30
0.0
 11
1.000000366504309
 21
71.99999998849813
 31
0.0
  0
LINE
  5
12E5
330
1247
100
AcDbEntity
  8
画層1
370
    20
100
AcDbLine
 10
12.00000036650431
 20
79.99999998849813
 30
0.0
 11
12.00000036650431
 21
71.99999998849813
 31
0.0
  0
LINE
  5
12E6
330
1247
100
AcDbEntity
  8
画層1
370
    20
100
AcDbLine
 10
0.0000003665043096
 20
79.99999998849813
 30
0.0
 11
0.0000003665043096
 21
71.99999998849813
 31
0.0
  0
CIRCLE
  5
12E7
330
1247
100
AcDbEntity
  8
画層1
370
    20
100
AcDbCircle
 10
6.500000366504309
 20
75.99999998849813
 30
0.0
 40
3.0
  0
LINE
  5
12E8
330
1247
100
AcDbEntity
  8
画層1
370
    20
100
AcDbLine
 10
6.000000366504309
 20
75.49999998849813
 30
0.0
 11
6.000000366504309
 21
73.99999998849813
 31
0.0
  0
LINE
  5
12E9
330
1247
100
AcDbEntity
  8
画層1
370
    20
100
AcDbLine
 10
7.000000366504309
 20
73.99999998849813
 30
0.0
 11
7.000000366504309
 21
75.49999998849813
 31
0.0
  0
LINE
  5
12EA
330
1247
100
AcDbEntity
  8
画層1
370
    20
100
AcDbLine
 10
2.500000366504309
 20
77.99999998849819
 30
0.0
 11
2.500000366504423
 21
73.99999988849811
 31
0.0
  0
LINE
  5
12EB
330
1247
100
AcDbEntity
  8
画層1
370
    20
100
AcDbLine
 10
10.5000003665043
 20
77.99999998849824
 30
0.0
 11
10.50000036650419
 21
73.99999988849811
 31
0.0
  0
ARC
  5
12EC
330
1247
100
AcDbEntity
  8
画層1
370
    20
100
AcDbCircle
 10
8.500000366504423
 20
67.99999998849824
 30
0.0
 40
2.0
100
AcDbArc
 50
359.9999999999967
 51
90.0
  0
ARC
  5
12ED
330
1247
100
AcDbEntity
  8
画層1
370
    20
100
AcDbCircle
 10
8.500000366504195
 20
73.99999998849807
 30
0.0
 40
2.0
100
AcDbArc
 50
270.0
 51
0.0000000000016284
  0
LWPOLYLINE
  5
12EE
330
1247
100
AcDbEntity
  8
画層1
370
    20
100
AcDbPolyline
 90
        4
 70
     1
 43
0.0
 10
0.0000003665043096
 20
71.99999998849813
 10
13.0000003665043
 20
71.99999998849813
 10
13.0000003665043
 20
69.99999998849813
 10
0.0000003665043096
 20
69.99999998849813
  0
LINE
  5
12EF
330
1247
100
AcDbEntity
  8
画層1
370
    20
100
AcDbLine
 10
7.000000366504309
 20
67.99999998849813
 30
0.0
 11
6.000000366504309
 21
67.99999998849813
 31
0.0
  0
ARC
  5
12F0
330
1247
100
AcDbEntity
  8
画層1
370
    20
100
AcDbCircle
 10
4.500000366504195
 20
67.99999998849819
 30
0.0
 40
2.0
100
AcDbArc
 50
89.99999999999349
 51
180.0000000000016
  0
LINE
  5
12F1
330
1247
100
AcDbEntity
  8
画層1
370
    20
100
AcDbLine
 10
4.500000366504309
 20
69.99999998849813
 30
0.0
 11
8.500000366504309
 21
69.99999998849813
 31
0.0
  0
LINE
  5
12F2
330
1247
100
AcDbEntity
  8
画層1
370
    20
100
AcDbLine
 10
6.000000366504309
 20
73.99999998849813
 30
0.0
 11
7.000000366504309
 21
73.99999998849813
 31
0.0
  0
ARC
  5
12F3
330
1247
100
AcDbEntity
  8
画層1
370
    20
100
AcDbCircle
 10
4.500000366504423
 20
73.99999998849796
 30
0.0
 40
2.0
100
AcDbArc
 50
179.9999999999951
 51
269.9999999999934
  0
LINE
  5
12F4
330
1247
100
AcDbEntity
  8
画層1
370
    20
100
AcDbLine
 10
4.500000366504309
 20
71.99999998849813
 30
0.0
 11
8.500000366504309
 21
71.99999998849813
 31
0.0
  0
LINE
  5
12F5
330
1247
100
AcDbEntity
  8
画層1
370
    20
100
AcDbLine
 10
7.000000366504309
 20
75.49999998849813
 30
0.0
 11
9.458040258054097
 21
75.49999998849813
 31
0.0
  0
LINE
  5
12F6
330
1247
100
AcDbEntity
  8
画層1
370
    20
100
AcDbLine
 10
9.458040258054097
 20
76.49999998849813
 30
0.0
 11
7.000000366504309
 21
76.49999998849813
 31
0.0
  0
ARC
  5
12F7
330
1247
100
AcDbEntity
  8
画層1
370
    20
100
AcDbCircle
 10
8.500000366504423
 20
77.99999998849824
 30
0.0
 40
2.0
100
AcDbArc
 50
359.9999999999967
 51
90.0
  0
LWPOLYLINE
  5
12F8
330
1247
100
AcDbEntity
  8
画層1
370
    20
100
AcDbPolyline
 90
        4
 70
     1
 43
0.0
 10
0.0000003665043096
 20
81.99999998849813
 10
13.0000003665043
 20
81.99999998849813
 10
13.0000003665043
 20
79.99999998849813
 10
0.0000003665043096
 20
79.99999998849813
  0
LINE
  5
12F9
330
1247
100
AcDbEntity
  8
画層1
370
    20
100
AcDbLine
 10
6.000000366504309
 20
77.99999998849813
 30
0.0
 11
6.000000366504309
 21
76.49999998849813
 31
0.0
  0
LINE
  5
12FA
330
1247
100
AcDbEntity
  8
画層1
370
    20
100
AcDbLine
 10
7.000000366504309
 20
76.49999998849813
 30
0.0
 11
7.000000366504309
 21
77.99999998849813
 31
0.0
  0
LINE
  5
12FB
330
1247
100
AcDbEntity
  8
画層1
370
    20
100
AcDbLine
 10
7.000000366504309
 20
77.99999998849813
 30
0.0
 11
6.000000366504309
 21
77.99999998849813
 31
0.0
  0
ARC
  5
12FC
330
1247
100
AcDbEntity
  8
画層1
370
    20
100
AcDbCircle
 10
4.500000366504195
 20
77.99999998849819
 30
0.0
 40
2.0
100
AcDbArc
 50
89.99999999999349
 51
180.0000000000016
  0
LINE
  5
12FD
330
1247
100
AcDbEntity
  8
画層1
370
    20
100
AcDbLine
 10
6.000000366504309
 20
76.49999998849813
 30
0.0
 11
3.541960474954521
 21
76.49999998849813
 31
0.0
  0
LINE
  5
12FE
330
1247
100
AcDbEntity
  8
画層1
370
    20
100
AcDbLine
 10
3.541960474954521
 20
75.49999998849813
 30
0.0
 11
6.000000366504309
 21
75.49999998849813
 31
0.0
  0
LINE
  5
12FF
330
1247
100
AcDbEntity
  8
画層1
370
    20
100
AcDbLine
 10
4.500000366504309
 20
79.99999998849813
 30
0.0
 11
8.500000366504309
 21
79.99999998849813
 31
0.0
  0
LINE
  5
1300
330
1247
100
AcDbEntity
  8
画層1
370
    20
100
AcDbLine
 10
4.500000366504309
 20
81.99999998849813
 30
0.0
 11
8.500000366504309
 21
81.99999998849813
 31
0.0
  0
LWPOLYLINE
  5
1301
330
1247
100
AcDbEntity
  8
画層1
370
    20
100
AcDbPolyline
 90
        4
 70
     1
 43
0.0
 10
0.0000003665043096
 20
91.99999998849813
 10
13.0000003665043
 20
91.99999998849813
 10
13.0000003665043
 20
89.99999998849814
 10
0.0000003665043096
 20
89.99999998849814
  0
ARC
  5
1302
330
1247
100
AcDbEntity
  8
画層1
370
    20
100
AcDbCircle
 10
8.500000366504423
 20
87.99999998849825
 30
0.0
 40
2.0
100
AcDbArc
 50
359.9999999999967
 51
90.0
  0
LINE
  5
1303
330
1247
100
AcDbEntity
  8
画層1
370
    20
100
AcDbLine
 10
9.458040258054097
 20
86.49999998849812
 30
0.0
 11
7.000000366504309
 21
86.49999998849812
 31
0.0
  0
LINE
  5
1304
330
1247
100
AcDbEntity
  8
画層1
370
    20
100
AcDbLine
 10
7.000000366504309
 20
85.49999998849813
 30
0.0
 11
9.458040258054097
 21
85.49999998849813
 31
0.0
  0
CIRCLE
  5
1305
330
1247
100
AcDbEntity
  8
画層1
370
    20
100
AcDbCircle
 10
6.500000366504309
 20
85.99999998849813
 30
0.0
 40
3.0
  0
ARC
  5
1306
330
1247
100
AcDbEntity
  8
画層1
370
    20
100
AcDbCircle
 10
4.500000366504195
 20
87.99999998849818
 30
0.0
 40
2.0
100
AcDbArc
 50
89.99999999999349
 51
180.0000000000016
  0
LINE
  5
1307
330
1247
100
AcDbEntity
  8
画層1
370
    20
100
AcDbLine
 10
4.500000366504309
 20
89.99999998849814
 30
0.0
 11
8.500000366504309
 21
89.99999998849814
 31
0.0
  0
LINE
  5
1308
330
1247
100
AcDbEntity
  8
画層1
370
    20
100
AcDbLine
 10
2.500000366504309
 20
83.99999998849812
 30
0.0
 11
2.500000366504309
 21
87.99999998849813
 31
0.0
  0
LINE
  5
1309
330
1247
100
AcDbEntity
  8
画層1
370
    20
100
AcDbLine
 10
7.000000366504309
 20
87.99999998849813
 30
0.0
 11
6.000000366504309
 21
87.99999998849813
 31
0.0
  0
LINE
  5
130A
330
1247
100
AcDbEntity
  8
画層1
370
    20
100
AcDbLine
 10
7.000000366504309
 20
86.49999998849812
 30
0.0
 11
7.000000366504309
 21
87.99999998849813
 31
0.0
  0
LINE
  5
130B
330
1247
100
AcDbEntity
  8
画層1
370
    20
100
AcDbLine
 10
7.000000366504309
 20
83.99999998849812
 30
0.0
 11
7.000000366504309
 21
85.49999998849813
 31
0.0
  0
LINE
  5
130C
330
1247
100
AcDbEntity
  8
画層1
370
    20
100
AcDbLine
 10
6.000000366504309
 20
83.99999998849812
 30
0.0
 11
7.000000366504309
 21
83.99999998849812
 31
0.0
  0
LINE
  5
130D
330
1247
100
AcDbEntity
  8
画層1
370
    20
100
AcDbLine
 10
6.000000366504309
 20
85.49999998849813
 30
0.0
 11
6.000000366504309
 21
83.99999998849812
 31
0.0
  0
LINE
  5
130E
330
1247
100
AcDbEntity
  8
画層1
370
    20
100
AcDbLine
 10
3.541960474954521
 20
85.49999998849813
 30
0.0
 11
6.000000366504309
 21
85.49999998849813
 31
0.0
  0
LINE
  5
130F
330
1247
100
AcDbEntity
  8
画層1
370
    20
100
AcDbLine
 10
6.000000366504309
 20
86.49999998849812
 30
0.0
 11
3.541960474954521
 21
86.49999998849812
 31
0.0
  0
LINE
  5
1310
330
1247
100
AcDbEntity
  8
画層1
370
    20
100
AcDbLine
 10
6.000000366504309
 20
87.99999998849813
 30
0.0
 11
6.000000366504309
 21
86.49999998849812
 31
0.0
  0
LINE
  5
1311
330
1247
100
AcDbEntity
  8
画層1
370
    20
100
AcDbLine
 10
10.5000003665043
 20
83.99999998849812
 30
0.0
 11
10.5000003665043
 21
87.99999998849813
 31
0.0
  0
ENDBLK
  5
1313
330
1247
100
AcDbEntity
  8
0
 62
     1
370
    20
100
AcDbBlockEnd
  0
BLOCK
  5
1A9C
330
1A92
100
AcDbEntity
  8
0
 62
     1
370
    20
100
AcDbBlockBegin
  2
*D10
 70
     1
 10
0.0
 20
0.0
 30
0.0
  3
*D10
  1

  0
LINE
  5
1B70
330
1A92
100
AcDbEntity
  8
画層1
 62
     0
100
AcDbLine
 10
-525.5652295960735
 20
349.5887767371689
 30
0.0
 11
-525.5652295960735
 21
372.2326166667059
 31
0.0
  0
LINE
  5
1B71
330
1A92
100
AcDbEntity
  8
画層1
 62
     0
100
AcDbLine
 10
-625.5652295960735
 20
349.5887767371689
 30
0.0
 11
-625.5652295960735
 21
372.2326166667059
 31
0.0
  0
LINE
  5
1B72
330
1A92
100
AcDbEntity
  8
画層1
 62
     0
100
AcDbLine
 10
-527.0652295960736
 20
370.982616666706
 30
0.0
 11
-624.0652295960735
 21
370.982616666706
 31
0.0
  0
INSERT
  5
1B73
330
1A92
100
AcDbEntity
  8
画層1
 62
     0
100
AcDbBlockReference
  2
_OPEN30
 10
-525.5652295960735
 20
370.982616666706
 30
0.0
 41
1.5
 42
1.5
 43
1.5
  0
INSERT
  5
1B74
330
1A92
100
AcDbEntity
  8
画層1
 62
     0
100
AcDbBlockReference
  2
_OPEN30
 10
-625.5652295960735
 20
370.982616666706
 30
0.0
 41
1.5
 42
1.5
 43
1.5
 50
180.0
  0
MTEXT
  5
1B75
330
1A92
100
AcDbEntity
  8
画層1
 62
     0
100
AcDbMText
 10
-575.5652295960735
 20
373.232616666706
 30
0.0
 40
2.5
 41
0.0
 71
     5
 72
     1
  1
\A1;100
 73
     1
 44
1.0
  0
POINT
  5
1B76
330
1A92
100
AcDbEntity
  8
DEFPOINTS
 62
     0
100
AcDbPoint
 10
-525.5652295960735
 20
348.9587767371689
 30
0.0
  0
POINT
  5
1B77
330
1A92
100
AcDbEntity
  8
DEFPOINTS
 62
     0
100
AcDbPoint
 10
-625.5652295960735
 20
348.9587767371689
 30
0.0
  0
POINT
  5
1B78
330
1A92
100
AcDbEntity
  8
DEFPOINTS
 62
     0
100
AcDbPoint
 10
-625.5652295960735
 20
370.982616666706
 30
0.0
  0
ENDBLK
  5
1A9D
330
1A92
100
AcDbEntity
  8
0
 62
     1
370
    20
100
AcDbBlockEnd
  0
BLOCK
  5
1AA9
330
1A9F
100
AcDbEntity
  8
0
 62
     1
370
    20
100
AcDbBlockBegin
  2
*D11
 70
     1
 10
0.0
 20
0.0
 30
0.0
  3
*D11
  1

  0
LINE
  5
1B79
330
1A9F
100
AcDbEntity
  8
画層1
 62
     0
100
AcDbLine
 10
-491.0652295960735
 20
321.588776737169
 30
0.0
 11
-491.0652295960735
 21
378.9434791615356
 31
0.0
  0
LINE
  5
1B7A
330
1A9F
100
AcDbEntity
  8
画層1
 62
     0
100
AcDbLine
 10
-660.0652295960735
 20
321.588776737169
 30
0.0
 11
-660.0652295960735
 21
378.9434791615356
 31
0.0
  0
LINE
  5
1B7B
330
1A9F
100
AcDbEntity
  8
画層1
 62
     0
100
AcDbLine
 10
-492.5652295960735
 20
377.6934791615356
 30
0.0
 11
-658.5652295960735
 21
377.6934791615356
 31
0.0
  0
INSERT
  5
1B7C
330
1A9F
100
AcDbEntity
  8
画層1
 62
     0
100
AcDbBlockReference
  2
_OPEN30
 10
-491.0652295960735
 20
377.6934791615356
 30
0.0
 41
1.5
 42
1.5
 43
1.5
  0
INSERT
  5
1B7D
330
1A9F
100
AcDbEntity
  8
画層1
 62
     0
100
AcDbBlockReference
  2
_OPEN30
 10
-660.0652295960735
 20
377.6934791615356
 30
0.0
 41
1.5
 42
1.5
 43
1.5
 50
180.0
  0
MTEXT
  5
1B7E
330
1A9F
100
AcDbEntity
  8
画層1
 62
     0
100
AcDbMText
 10
-575.5652295960735
 20
379.9434791615356
 30
0.0
 40
2.5
 41
0.0
 71
     5
 72
     1
  1
\A1;169
 73
     1
 44
1.0
  0
POINT
  5
1B7F
330
1A9F
100
AcDbEntity
  8
DEFPOINTS
 62
     0
100
AcDbPoint
 10
-491.0652295960735
 20
320.958776737169
 30
0.0
  0
POINT
  5
1B80
330
1A9F
100
AcDbEntity
  8
DEFPOINTS
 62
     0
100
AcDbPoint
 10
-660.0652295960735
 20
320.958776737169
 30
0.0
  0
POINT
  5
1B81
330
1A9F
100
AcDbEntity
  8
DEFPOINTS
 62
     0
100
AcDbPoint
 10
-660.0652295960735
 20
377.6934791615356
 30
0.0
  0
ENDBLK
  5
1AAA
330
1A9F
100
AcDbEntity
  8
0
 62
     1
370
    20
100
AcDbBlockEnd
  0
BLOCK
  5
1AB7
330
1AAD
100
AcDbEntity
  8
0
 62
     1
370
    20
100
AcDbBlockBegin
  2
*D12
 70
     1
 10
0.0
 20
0.0
 30
0.0
  3
*D12
  1

  0
LINE
  5
1B82
330
1AAD
100
AcDbEntity
  8
画層1
 62
     0
100
AcDbLine
 10
-524.4352295960736
 20
128.9587767371689
 30
0.0
 11
-472.3476473984378
 21
128.9587767371689
 31
0.0
  0
LINE
  5
1B83
330
1AAD
100
AcDbEntity
  8
画層1
 62
     0
100
AcDbLine
 10
-524.9352295960735
 20
348.9587767371689
 30
0.0
 11
-472.3476473984378
 21
348.9587767371689
 31
0.0
  0
LINE
  5
1B84
330
1AAD
100
AcDbEntity
  8
画層1
 62
     0
100
AcDbLine
 10
-473.5976473984378
 20
130.4587767371689
 30
0.0
 11
-473.5976473984378
 21
347.4587767371689
 31
0.0
  0
INSERT
  5
1B85
330
1AAD
100
AcDbEntity
  8
画層1
 62
     0
100
AcDbBlockReference
  2
_OPEN30
 10
-473.5976473984378
 20
128.9587767371689
 30
0.0
 41
1.5
 42
1.5
 43
1.5
 50
270.0
  0
INSERT
  5
1B86
330
1AAD
100
AcDbEntity
  8
画層1
 62
     0
100
AcDbBlockReference
  2
_OPEN30
 10
-473.5976473984378
 20
348.9587767371689
 30
0.0
 41
1.5
 42
1.5
 43
1.5
 50
90.0
  0
MTEXT
  5
1B87
330
1AAD
100
AcDbEntity
  8
画層1
 62
     0
100
AcDbMText
 10
-475.8476473984379
 20
238.9587767371688
 30
0.0
 40
2.5
 41
0.0
 71
     5
 72
     1
  1
\A1;220
 11
0.0000000000000001
 21
1.0
 31
0.0
 73
     1
 44
1.0
  0
POINT
  5
1B88
330
1AAD
100
AcDbEntity
  8
DEFPOINTS
 62
     0
100
AcDbPoint
 10
-525.0652295960735
 20
128.9587767371689
 30
0.0
  0
POINT
  5
1B89
330
1AAD
100
AcDbEntity
  8
DEFPOINTS
 62
     0
100
AcDbPoint
 10
-525.5652295960735
 20
348.9587767371689
 30
0.0
  0
POINT
  5
1B8A
330
1AAD
100
AcDbEntity
  8
DEFPOINTS
 62
     0
100
AcDbPoint
 10
-473.5976473984378
 20
348.9587767371689
 30
0.0
  0
ENDBLK
  5
1AB8
330
1AAD
100
AcDbEntity
  8
0
 62
     1
370
    20
100
AcDbBlockEnd
  0
BLOCK
  5
1AC4
330
1ABA
100
AcDbEntity
  8
0
 62
     1
370
    20
100
AcDbBlockBegin
  2
*D13
 70
     1
 10
0.0
 20
0.0
 30
0.0
  3
*D13
  1

  0
LINE
  5
1B8B
330
1ABA
100
AcDbEntity
  8
画層1
 62
     0
100
AcDbLine
 10
-524.4352295960736
 20
128.9587767371689
 30
0.0
 11
-481.1125546102694
 21
128.9587767371689
 31
0.0
  0
LINE
  5
1B8C
330
1ABA
100
AcDbEntity
  8
画層1
 62
     0
100
AcDbLine
 10
-524.4352295960736
 20
134.9161999577347
 30
0.0
 11
-481.1125546102694
 21
134.9161999577347
 31
0.0
  0
LINE
  5
1B8D
330
1ABA
100
AcDbEntity
  8
画層1
 62
     0
100
AcDbLine
 10
-482.3625546102694
 20
130.4587767371689
 30
0.0
 11
-482.3625546102694
 21
133.4161999577347
 31
0.0
  0
INSERT
  5
1B8E
330
1ABA
100
AcDbEntity
  8
画層1
 62
     0
100
AcDbBlockReference
  2
_OPEN30
 10
-482.3625546102694
 20
128.9587767371689
 30
0.0
 41
1.5
 42
1.5
 43
1.5
 50
270.0
  0
INSERT
  5
1B8F
330
1ABA
100
AcDbEntity
  8
画層1
 62
     0
100
AcDbBlockReference
  2
_OPEN30
 10
-482.3625546102694
 20
134.9161999577347
 30
0.0
 41
1.5
 42
1.5
 43
1.5
 50
90.0
  0
MTEXT
  5
1B90
330
1ABA
100
AcDbEntity
  8
画層1
 62
     0
100
AcDbMText
 10
-484.6125546102694
 20
131.9374883474518
 30
0.0
 40
2.5
 41
0.0
 71
     5
 72
     1
  1
\A1;6
 11
0.0000000000000001
 21
1.0
 31
0.0
 73
     1
 44
1.0
  0
POINT
  5
1B91
330
1ABA
100
AcDbEntity
  8
DEFPOINTS
 62
     0
100
AcDbPoint
 10
-525.0652295960735
 20
128.9587767371689
 30
0.0
  0
POINT
  5
1B92
330
1ABA
100
AcDbEntity
  8
DEFPOINTS
 62
     0
100
AcDbPoint
 10
-525.0652295960735
 20
134.9161999577347
 30
0.0
  0
POINT
  5
1B93
330
1ABA
100
AcDbEntity
  8
DEFPOINTS
 62
     0
100
AcDbPoint
 10
-482.3625546102694
 20
134.9161999577347
 30
0.0
  0
ENDBLK
  5
1AC5
330
1ABA
100
AcDbEntity
  8
0
 62
     1
370
    20
100
AcDbBlockEnd
  0
BLOCK
  5
1AD1
330
1AC7
100
AcDbEntity
  8
0
 62
     1
370
    20
100
AcDbBlockBegin
  2
*D14
 70
     1
 10
0.0
 20
0.0
 30
0.0
  3
*D14
  1

  0
LINE
  5
1B94
330
1AC7
100
AcDbEntity
  8
画層1
 62
     0
100
AcDbLine
 10
-495.8352295960736
 20
121.9587767371689
 30
0.0
 11
-464.7098891989801
 21
121.9587767371689
 31
0.0
  0
LINE
  5
1B95
330
1AC7
100
AcDbEntity
  8
画層1
 62
     0
100
AcDbLine
 10
-495.8352295960736
 20
355.9587767371689
 30
0.0
 11
-464.7098891989801
 21
355.9587767371689
 31
0.0
  0
LINE
  5
1B96
330
1AC7
100
AcDbEntity
  8
画層1
 62
     0
100
AcDbLine
 10
-465.9598891989801
 20
123.4587767371689
 30
0.0
 11
-465.9598891989801
 21
354.458776737169
 31
0.0
  0
INSERT
  5
1B97
330
1AC7
100
AcDbEntity
  8
画層1
 62
     0
100
AcDbBlockReference
  2
_OPEN30
 10
-465.9598891989801
 20
121.9587767371689
 30
0.0
 41
1.5
 42
1.5
 43
1.5
 50
270.0
  0
INSERT
  5
1B98
330
1AC7
100
AcDbEntity
  8
画層1
 62
     0
100
AcDbBlockReference
  2
_OPEN30
 10
-465.9598891989801
 20
355.9587767371689
 30
0.0
 41
1.5
 42
1.5
 43
1.5
 50
90.0
  0
MTEXT
  5
1B99
330
1AC7
100
AcDbEntity
  8
画層1
 62
     0
100
AcDbMText
 10
-468.2098891989801
 20
238.9587767371688
 30
0.0
 40
2.5
 41
0.0
 71
     5
 72
     1
  1
\A1;234
 11
0.0000000000000001
 21
1.0
 31
0.0
 73
     1
 44
1.0
  0
POINT
  5
1B9A
330
1AC7
100
AcDbEntity
  8
DEFPOINTS
 62
     0
100
AcDbPoint
 10
-496.4652295960736
 20
121.9587767371689
 30
0.0
  0
POINT
  5
1B9B
330
1AC7
100
AcDbEntity
  8
DEFPOINTS
 62
     0
100
AcDbPoint
 10
-496.4652295960736
 20
355.9587767371689
 30
0.0
  0
POINT
  5
1B9C
330
1AC7
100
AcDbEntity
  8
DEFPOINTS
 62
     0
100
AcDbPoint
 10
-465.9598891989801
 20
355.9587767371689
 30
0.0
  0
ENDBLK
  5
1AD2
330
1AC7
100
AcDbEntity
  8
0
 62
     1
370
    20
100
AcDbBlockEnd
  0
BLOCK
  5
1ADE
330
1AD4
100
AcDbEntity
  8
0
 62
     1
370
    20
100
AcDbBlockBegin
  2
*D15
 70
     1
 10
0.0
 20
0.0
 30
0.0
  3
*D15
  1

  0
LINE
  5
1B9D
330
1AD4
100
AcDbEntity
  8
画層1
 62
     0
100
AcDbLine
 10
-271.5882863869524
 20
356.5887767371689
 30
0.0
 11
-271.5882863869524
 21
367.7362819143459
 31
0.0
  0
LINE
  5
1B9E
330
1AD4
100
AcDbEntity
  8
画層1
 62
     0
100
AcDbLine
 10
-413.5882863869523
 20
285.5887767371689
 30
0.0
 11
-413.5882863869523
 21
367.7362819143459
 31
0.0
  0
LINE
  5
1B9F
330
1AD4
100
AcDbEntity
  8
画層1
 62
     0
100
AcDbLine
 10
-273.0882863869524
 20
366.4862819143459
 30
0.0
 11
-412.0882863869524
 21
366.4862819143459
 31
0.0
  0
INSERT
  5
1BA0
330
1AD4
100
AcDbEntity
  8
画層1
 62
     0
100
AcDbBlockReference
  2
_OPEN30
 10
-271.5882863869524
 20
366.4862819143459
 30
0.0
 41
1.5
 42
1.5
 43
1.5
  0
INSERT
  5
1BA1
330
1AD4
100
AcDbEntity
  8
画層1
 62
     0
100
AcDbBlockReference
  2
_OPEN30
 10
-413.5882863869523
 20
366.4862819143459
 30
0.0
 41
1.5
 42
1.5
 43
1.5
 50
180.0
  0
MTEXT
  5
1BA2
330
1AD4
100
AcDbEntity
  8
画層1
 62
     0
100
AcDbMText
 10
-342.5882863869524
 20
368.7362819143459
 30
0.0
 40
2.5
 41
0.0
 71
     5
 72
     1
  1
\A1;142
 73
     1
 44
1.0
  0
POINT
  5
1BA3
330
1AD4
100
AcDbEntity
  8
DEFPOINTS
 62
     0
100
AcDbPoint
 10
-271.5882863869524
 20
355.9587767371689
 30
0.0
  0
POINT
  5
1BA4
330
1AD4
100
AcDbEntity
  8
DEFPOINTS
 62
     0
100
AcDbPoint
 10
-413.5882863869523
 20
284.9587767371689
 30
0.0
  0
POINT
  5
1BA5
330
1AD4
100
AcDbEntity
  8
DEFPOINTS
 62
     0
100
AcDbPoint
 10
-413.5882863869523
 20
366.4862819143459
 30
0.0
  0
ENDBLK
  5
1ADF
330
1AD4
100
AcDbEntity
  8
0
 62
     1
370
    20
100
AcDbBlockEnd
  0
BLOCK
  5
1AEB
330
1AE1
100
AcDbEntity
  8
0
 62
     1
370
    20
100
AcDbBlockBegin
  2
*D16
 70
     1
 10
0.0
 20
0.0
 30
0.0
  3
*D16
  1

  0
LINE
  5
1BA6
330
1AE1
100
AcDbEntity
  8
画層1
 62
     0
100
AcDbLine
 10
-271.5882863869524
 20
368.3662819143459
 30
0.0
 11
-271.5882863869524
 21
373.0898137453925
 31
0.0
  0
LINE
  5
1BA7
330
1AE1
100
AcDbEntity
  8
画層1
 62
     0
100
AcDbLine
 10
-436.5882863869523
 20
332.088776737169
 30
0.0
 11
-436.5882863869523
 21
373.0898137453925
 31
0.0
  0
LINE
  5
1BA8
330
1AE1
100
AcDbEntity
  8
画層1
 62
     0
100
AcDbLine
 10
-273.0882863869524
 20
371.8398137453925
 30
0.0
 11
-435.0882863869523
 21
371.8398137453925
 31
0.0
  0
INSERT
  5
1BA9
330
1AE1
100
AcDbEntity
  8
画層1
 62
     0
100
AcDbBlockReference
  2
_OPEN30
 10
-271.5882863869524
 20
371.8398137453925
 30
0.0
 41
1.5
 42
1.5
 43
1.5
  0
INSERT
  5
1BAA
330
1AE1
100
AcDbEntity
  8
画層1
 62
     0
100
AcDbBlockReference
  2
_OPEN30
 10
-436.5882863869523
 20
371.8398137453925
 30
0.0
 41
1.5
 42
1.5
 43
1.5
 50
180.0
  0
MTEXT
  5
1BAB
330
1AE1
100
AcDbEntity
  8
画層1
 62
     0
100
AcDbMText
 10
-354.0882863869524
 20
374.0898137453925
 30
0.0
 40
2.5
 41
0.0
 71
     5
 72
     1
  1
\A1;165
 73
     1
 44
1.0
  0
POINT
  5
1BAC
330
1AE1
100
AcDbEntity
  8
DEFPOINTS
 62
     0
100
AcDbPoint
 10
-271.5882863869524
 20
367.7362819143459
 30
0.0
  0
POINT
  5
1BAD
330
1AE1
100
AcDbEntity
  8
DEFPOINTS
 62
     0
100
AcDbPoint
 10
-436.5882863869523
 20
331.458776737169
 30
0.0
  0
POINT
  5
1BAE
330
1AE1
100
AcDbEntity
  8
DEFPOINTS
 62
     0
100
AcDbPoint
 10
-436.5882863869523
 20
371.8398137453925
 30
0.0
  0
ENDBLK
  5
1AEC
330
1AE1
100
AcDbEntity
  8
0
 62
     1
370
    20
100
AcDbBlockEnd
  0
BLOCK
  5
1AF8
330
1AEE
100
AcDbEntity
  8
0
 62
     1
370
    20
100
AcDbBlockBegin
  2
*D17
 70
     1
 10
0.0
 20
0.0
 30
0.0
  3
*D17
  1

  0
LINE
  5
1BAF
330
1AEE
100
AcDbEntity
  8
画層1
 62
     0
100
AcDbLine
 10
-271.5882863869524
 20
121.3287767371689
 30
0.0
 11
-271.5882863869524
 21
107.1034478277995
 31
0.0
  0
LINE
  5
1BB0
330
1AEE
100
AcDbEntity
  8
画層1
 62
     0
100
AcDbLine
 10
-407.5882863869524
 20
124.328776737169
 30
0.0
 11
-407.5882863869524
 21
107.1034478277995
 31
0.0
  0
LINE
  5
1BB1
330
1AEE
100
AcDbEntity
  8
画層1
 62
     0
100
AcDbLine
 10
-273.0882863869524
 20
108.3534478277995
 30
0.0
 11
-406.0882863869523
 21
108.3534478277995
 31
0.0
  0
INSERT
  5
1BB2
330
1AEE
100
AcDbEntity
  8
画層1
 62
     0
100
AcDbBlockReference
  2
_OPEN30
 10
-271.5882863869524
 20
108.3534478277995
 30
0.0
 41
1.5
 42
1.5
 43
1.5
  0
INSERT
  5
1BB3
330
1AEE
100
AcDbEntity
  8
画層1
 62
     0
100
AcDbBlockReference
  2
_OPEN30
 10
-407.5882863869524
 20
108.3534478277995
 30
0.0
 41
1.5
 42
1.5
 43
1.5
 50
180.0
  0
MTEXT
  5
1BB4
330
1AEE
100
AcDbEntity
  8
画層1
 62
     0
100
AcDbMText
 10
-339.5882863869524
 20
110.6034478277995
 30
0.0
 40
2.5
 41
0.0
 71
     5
 72
     1
  1
\A1;136
 73
     1
 44
1.0
  0
POINT
  5
1BB5
330
1AEE
100
AcDbEntity
  8
DEFPOINTS
 62
     0
100
AcDbPoint
 10
-271.5882863869524
 20
121.9587767371689
 30
0.0
  0
POINT
  5
1BB6
330
1AEE
100
AcDbEntity
  8
DEFPOINTS
 62
     0
100
AcDbPoint
 10
-407.5882863869524
 20
124.9587767371689
 30
0.0
  0
POINT
  5
1BB7
330
1AEE
100
AcDbEntity
  8
DEFPOINTS
 62
     0
100
AcDbPoint
 10
-407.5882863869524
 20
108.3534478277995
 30
0.0
  0
ENDBLK
  5
1AF9
330
1AEE
100
AcDbEntity
  8
0
 62
     1
370
    20
100
AcDbBlockEnd
  0
ENDSEC
  0
SECTION
  2
ENTITIES
  0
LINE
  5
B81
330
2
100
AcDbEntity
  8
画層1
  6
CENTER
 62
     0
370
    20
100
AcDbLine
 10
-666.0652295960735
 20
238.9587767371689
 30
0.0
 11
-485.0652295960735
 21
238.9587767371689
 31
0.0
  0
LINE
  5
B84
330
2
100
AcDbEntity
  8
画層1
  6
CENTER
 62
     0
370
    20
100
AcDbLine
 10
-575.5652295960735
 20
365.9587767371689
 30
0.0
 11
-575.5652295960735
 21
111.9587767371689
 31
0.0
  0
LINE
  5
BB4
330
2
100
AcDbEntity
  8
画層1
  6
CENTER
 62
     0
370
    20
100
AcDbLine
 10
-451.1490205919167
 20
238.9587767371689
 30
0.0
 11
-261.5882863869523
 21
238.9587767371689
 31
0.0
  0
LINE
  5
F9E
330
2
100
AcDbEntity
  8
画層1
370
    20
100
AcDbLine
 10
-654.6652295960735
 20
355.9587767371689
 30
0.0
 11
-654.6652295960735
 21
121.9587767371689
 31
0.0
  0
LINE
  5
F9F
330
2
100
AcDbEntity
  8
画層1
370
    20
100
AcDbLine
 10
-496.4652295960736
 20
355.9587767371689
 30
0.0
 11
-496.4652295960736
 21
121.9587767371689
 31
0.0
  0
LINE
  5
FA0
330
2
100
AcDbEntity
  8
画層1
370
    20
100
AcDbLine
 10
-654.6652295960735
 20
355.9587767371689
 30
0.0
 11
-496.4652295960736
 21
355.9587767371689
 31
0.0
  0
LINE
  5
FA6
330
2
100
AcDbEntity
  8
画層1
370
    20
100
AcDbLine
 10
-654.6652295960735
 20
121.9587767371689
 30
0.0
 11
-629.0652295960735
 21
121.9587767371689
 31
0.0
  0
LINE
  5
FA8
330
2
100
AcDbEntity
  8
画層1
370
    20
100
AcDbLine
 10
-629.0652295960735
 20
122.9587767371689
 30
0.0
 11
-629.0652295960735
 21
121.9587767371689
 31
0.0
  0
LINE
  5
FAA
330
2
100
AcDbEntity
  8
画層1
370
    20
100
AcDbLine
 10
-622.0652295960735
 20
122.9587767371689
 30
0.0
 11
-622.0652295960735
 21
121.9587767371689
 31
0.0
  0
LINE
  5
FAB
330
2
100
AcDbEntity
  8
画層1
370
    20
100
AcDbLine
 10
-522.0652295960735
 20
122.9587767371689
 30
0.0
 11
-522.0652295960735
 21
121.9587767371689
 31
0.0
  0
LINE
  5
FAC
330
2
100
AcDbEntity
  8
画層1
370
    20
100
AcDbLine
 10
-529.0652295960735
 20
122.9587767371689
 30
0.0
 11
-529.0652295960735
 21
121.9587767371689
 31
0.0
  0
LINE
  5
FAF
330
2
100
AcDbEntity
  8
画層1
370
    20
100
AcDbLine
 10
-622.0652295960735
 20
121.9587767371689
 30
0.0
 11
-529.0652295960735
 21
121.9587767371689
 31
0.0
  0
LINE
  5
FB0
330
2
100
AcDbEntity
  8
画層1
370
    20
100
AcDbLine
 10
-522.0652295960735
 20
121.9587767371689
 30
0.0
 11
-496.4652295960736
 21
121.9587767371689
 31
0.0
  0
CIRCLE
  5
FB4
330
2
100
AcDbEntity
  8
画層1
370
    20
100
AcDbCircle
 10
-625.5652295960735
 20
348.9587767371689
 30
0.0
 40
3.5
  0
CIRCLE
  5
FB5
330
2
100
AcDbEntity
  8
画層1
370
    20
100
AcDbCircle
 10
-525.5652295960735
 20
348.9587767371689
 30
0.0
 40
3.5
  0
LINE
  5
FEB
330
2
100
AcDbEntity
  8
画層1
370
    20
100
AcDbLine
 10
-498.0652295960735
 20
122.9587767371689
 30
0.0
 11
-498.0652295960735
 21
121.9587767371689
 31
0.0
  0
LINE
  5
FEC
330
2
100
AcDbEntity
  8
画層1
370
    20
100
AcDbLine
 10
-653.0652295960735
 20
122.9587767371689
 30
0.0
 11
-653.0652295960735
 21
121.9587767371689
 31
0.0
  0
LINE
  5
FED
330
2
100
AcDbEntity
  8
画層1
370
    20
100
AcDbLine
 10
-653.0652295960735
 20
355.9587767371689
 30
0.0
 11
-653.0652295960735
 21
341.958776737169
 31
0.0
  0
LINE
  5
FEE
330
2
100
AcDbEntity
  8
画層1
370
    20
100
AcDbLine
 10
-498.0652295960735
 20
355.9587767371689
 30
0.0
 11
-498.0652295960735
 21
341.958776737169
 31
0.0
  0
LINE
  5
FF2
330
2
100
AcDbEntity
  8
画層1
370
    20
100
AcDbLine
 10
-656.0652295960736
 20
341.958776737169
 30
0.0
 11
-495.0652295960735
 21
341.958776737169
 31
0.0
  0
LINE
  5
FF3
330
2
100
AcDbEntity
  8
画層1
370
    20
100
AcDbLine
 10
-495.0652295960735
 20
341.958776737169
 30
0.0
 11
-495.0652295960735
 21
122.9587767371689
 31
0.0
  0
LINE
  5
FF4
330
2
100
AcDbEntity
  8
画層1
370
    20
100
AcDbLine
 10
-626.0652295960735
 20
122.9587767371689
 30
0.0
 11
-656.0652295960736
 21
122.9587767371689
 31
0.0
  0
LINE
  5
FF5
330
2
100
AcDbEntity
  8
画層1
370
    20
100
AcDbLine
 10
-656.0652295960736
 20
122.9587767371689
 30
0.0
 11
-656.0652295960736
 21
341.958776737169
 31
0.0
  0
LINE
  5
1016
330
2
100
AcDbEntity
  8
画層1
370
    20
100
AcDbLine
 10
-492.0652295960735
 20
318.4861287371352
 30
0.0
 11
-492.0652295960735
 21
318.4861287371352
 31
0.0
  0
LINE
  5
1017
330
2
100
AcDbEntity
  8
画層1
370
    20
100
AcDbLine
 10
-492.0652295960735
 20
319.4861287371352
 30
0.0
 11
-492.0652295960735
 21
318.4861287371352
 31
0.0
  0
LINE
  5
1018
330
2
100
AcDbEntity
  8
画層1
370
    20
100
AcDbLine
 10
-492.0652295960735
 20
319.4861287371352
 30
0.0
 11
-492.0652295960735
 21
319.4861287371352
 31
0.0
  0
LINE
  5
101A
330
2
100
AcDbEntity
  8
画層1
370
    20
100
AcDbLine
 10
-494.0652295960735
 20
321.4861287371352
 30
0.0
 11
-494.0652295960735
 21
321.4861287371352
 31
0.0
  0
LINE
  5
101C
330
2
100
AcDbEntity
  8
画層1
370
    20
100
AcDbLine
 10
-494.0652295960735
 20
316.4861287371352
 30
0.0
 11
-494.0652295960735
 21
316.4861287371352
 31
0.0
  0
LINE
  5
1037
330
2
100
AcDbEntity
  8
画層1
370
    20
100
AcDbLine
 10
-495.0652295960735
 20
323.9587767371689
 30
0.0
 11
-495.0652295960735
 21
323.9587767371689
 31
0.0
  0
LINE
  5
1038
330
2
100
AcDbEntity
  8
画層1
370
    20
100
AcDbLine
 10
-494.0652295960735
 20
322.958776737169
 30
0.0
 11
-494.0652295960735
 21
314.958776737169
 31
0.0
  0
LINE
  5
1039
330
2
100
AcDbEntity
  8
画層1
370
    20
100
AcDbLine
 10
-495.0652295960735
 20
313.9587767371689
 30
0.0
 11
-495.0652295960735
 21
313.9587767371689
 31
0.0
  0
LINE
  5
103A
330
2
100
AcDbEntity
  8
画層1
370
    20
100
AcDbLine
 10
-494.0652295960735
 20
322.958776737169
 30
0.0
 11
-493.0652295960735
 21
322.958776737169
 31
0.0
  0
LINE
  5
103B
330
2
100
AcDbEntity
  8
画層1
370
    20
100
AcDbLine
 10
-491.0652295960735
 20
320.958776737169
 30
0.0
 11
-491.0652295960735
 21
320.4861287371352
 31
0.0
  0
LINE
  5
103C
330
2
100
AcDbEntity
  8
画層1
370
    20
100
AcDbLine
 10
-493.0652295960735
 20
314.958776737169
 30
0.0
 11
-494.0652295960735
 21
314.958776737169
 31
0.0
  0
ARC
  5
103D
330
2
100
AcDbEntity
  8
画層1
370
    20
100
AcDbCircle
 10
-495.0652295960735
 20
314.958776737169
 30
0.0
 40
1.0
100
AcDbArc
 50
270.0
 51
0.0
  0
ARC
  5
103E
330
2
100
AcDbEntity
  8
画層1
370
    20
100
AcDbCircle
 10
-495.0652295960735
 20
322.958776737169
 30
0.0
 40
1.0
100
AcDbArc
 50
0.0
 51
90.0
  0
ARC
  5
1041
330
2
100
AcDbEntity
  8
画層1
370
    20
100
AcDbCircle
 10
-493.0652295960735
 20
320.958776737169
 30
0.0
 40
2.0
100
AcDbArc
 50
0.0
 51
90.0
  0
ARC
  5
1042
330
2
100
AcDbEntity
  8
画層1
370
    20
100
AcDbCircle
 10
-493.0652295960735
 20
316.958776737169
 30
0.0
 40
2.0
100
AcDbArc
 50
270.0
 51
0.0
  0
LINE
  5
1043
330
2
100
AcDbEntity
  8
画層1
370
    20
100
AcDbLine
 10
-491.0652295960735
 20
317.4861287371352
 30
0.0
 11
-491.0652295960735
 21
316.958776737169
 31
0.0
  0
ARC
  5
1044
330
2
100
AcDbEntity
  8
画層1
370
    20
100
AcDbCircle
 10
-492.0652295960735
 20
317.4861287371352
 30
0.0
 40
1.0
100
AcDbArc
 50
0.0
 51
90.0
  0
ARC
  5
1045
330
2
100
AcDbEntity
  8
画層1
370
    20
100
AcDbCircle
 10
-492.0652295960735
 20
320.4861287371352
 30
0.0
 40
1.0
100
AcDbArc
 50
270.0
 51
0.0
  0
LINE
  5
1046
330
2
100
AcDbEntity
  8
画層1
370
    20
100
AcDbLine
 10
-491.0652295960735
 20
320.4861287371352
 30
0.0
 11
-491.0652295960735
 21
316.958776737169
 31
0.0
  0
LINE
  5
1048
330
2
100
AcDbEntity
  8
画層1
370
    20
100
AcDbLine
 10
-660.0652295960735
 20
320.4861287371352
 30
0.0
 11
-660.0652295960735
 21
316.958776737169
 31
0.0
  0
LINE
  5
1049
330
2
100
AcDbEntity
  8
画層1
370
    20
100
AcDbLine
 10
-660.0652295960735
 20
317.4861287371352
 30
0.0
 11
-660.0652295960735
 21
316.958776737169
 31
0.0
  0
LINE
  5
104A
330
2
100
AcDbEntity
  8
画層1
370
    20
100
AcDbLine
 10
-657.0652295960735
 20
322.958776737169
 30
0.0
 11
-657.0652295960735
 21
314.958776737169
 31
0.0
  0
LINE
  5
104B
330
2
100
AcDbEntity
  8
画層1
370
    20
100
AcDbLine
 10
-658.0652295960735
 20
314.958776737169
 30
0.0
 11
-657.0652295960735
 21
314.958776737169
 31
0.0
  0
ARC
  5
104C
330
2
100
AcDbEntity
  8
画層1
370
    20
100
AcDbCircle
 10
-658.0652295960735
 20
316.958776737169
 30
0.0
 40
2.0
100
AcDbArc
 50
180.0
 51
270.0
  0
LINE
  5
104D
330
2
100
AcDbEntity
  8
画層1
370
    20
100
AcDbLine
 10
-656.0652295960736
 20
313.9587767371689
 30
0.0
 11
-656.0652295960736
 21
313.9587767371689
 31
0.0
  0
ARC
  5
104E
330
2
100
AcDbEntity
  8
画層1
370
    20
100
AcDbCircle
 10
-656.0652295960736
 20
314.958776737169
 30
0.0
 40
1.0
100
AcDbArc
 50
180.0
 51
270.0
  0
LINE
  5
104F
330
2
100
AcDbEntity
  8
画層1
370
    20
100
AcDbLine
 10
-657.0652295960735
 20
316.4861287371352
 30
0.0
 11
-657.0652295960735
 21
316.4861287371352
 31
0.0
  0
LINE
  5
1050
330
2
100
AcDbEntity
  8
画層1
370
    20
100
AcDbLine
 10
-660.0652295960735
 20
320.958776737169
 30
0.0
 11
-660.0652295960735
 21
320.4861287371352
 31
0.0
  0
LINE
  5
1051
330
2
100
AcDbEntity
  8
画層1
370
    20
100
AcDbLine
 10
-659.0652295960735
 20
319.4861287371352
 30
0.0
 11
-659.0652295960735
 21
319.4861287371352
 31
0.0
  0
ARC
  5
1052
330
2
100
AcDbEntity
  8
画層1
370
    20
100
AcDbCircle
 10
-659.0652295960735
 20
320.4861287371352
 30
0.0
 40
1.0
100
AcDbArc
 50
180.0
 51
270.0
  0
LINE
  5
1053
330
2
100
AcDbEntity
  8
画層1
370
    20
100
AcDbLine
 10
-659.0652295960735
 20
318.4861287371352
 30
0.0
 11
-659.0652295960735
 21
318.4861287371352
 31
0.0
  0
ARC
  5
1054
330
2
100
AcDbEntity
  8
画層1
370
    20
100
AcDbCircle
 10
-659.0652295960735
 20
317.4861287371352
 30
0.0
 40
1.0
100
AcDbArc
 50
90.0
 51
180.0
  0
LINE
  5
1055
330
2
100
AcDbEntity
  8
画層1
370
    20
100
AcDbLine
 10
-657.0652295960735
 20
322.958776737169
 30
0.0
 11
-658.0652295960735
 21
322.958776737169
 31
0.0
  0
ARC
  5
1056
330
2
100
AcDbEntity
  8
画層1
370
    20
100
AcDbCircle
 10
-658.0652295960735
 20
320.958776737169
 30
0.0
 40
2.0
100
AcDbArc
 50
90.0
 51
180.0
  0
LINE
  5
1057
330
2
100
AcDbEntity
  8
画層1
370
    20
100
AcDbLine
 10
-656.0652295960736
 20
323.9587767371689
 30
0.0
 11
-656.0652295960736
 21
323.9587767371689
 31
0.0
  0
ARC
  5
1058
330
2
100
AcDbEntity
  8
画層1
370
    20
100
AcDbCircle
 10
-656.0652295960736
 20
322.958776737169
 30
0.0
 40
1.0
100
AcDbArc
 50
90.0
 51
180.0
  0
LINE
  5
1059
330
2
100
AcDbEntity
  8
画層1
370
    20
100
AcDbLine
 10
-659.0652295960735
 20
319.4861287371352
 30
0.0
 11
-659.0652295960735
 21
318.4861287371352
 31
0.0
  0
LINE
  5
105A
330
2
100
AcDbEntity
  8
画層1
370
    20
100
AcDbLine
 10
-657.0652295960735
 20
321.4861287371352
 30
0.0
 11
-657.0652295960735
 21
321.4861287371352
 31
0.0
  0
ARC
  5
105B
330
2
100
AcDbEntity
  8
画層1
370
    20
100
AcDbCircle
 10
-656.0652295960736
 20
152.9587767371689
 30
0.0
 40
1.0
100
AcDbArc
 50
90.0
 51
180.0
  0
ARC
  5
105C
330
2
100
AcDbEntity
  8
画層1
370
    20
100
AcDbCircle
 10
-656.0652295960736
 20
144.9587767371689
 30
0.0
 40
1.0
100
AcDbArc
 50
180.0
 51
270.0
  0
LINE
  5
105D
330
2
100
AcDbEntity
  8
画層1
370
    20
100
AcDbLine
 10
-657.0652295960735
 20
152.9587767371689
 30
0.0
 11
-657.0652295960735
 21
144.9587767371689
 31
0.0
  0
LINE
  5
105E
330
2
100
AcDbEntity
  8
画層1
370
    20
100
AcDbLine
 10
-660.0652295960735
 20
147.4861287371352
 30
0.0
 11
-660.0652295960735
 21
146.9587767371689
 31
0.0
  0
LINE
  5
105F
330
2
100
AcDbEntity
  8
画層1
370
    20
100
AcDbLine
 10
-660.0652295960735
 20
150.4861287371352
 30
0.0
 11
-660.0652295960735
 21
146.9587767371689
 31
0.0
  0
LINE
  5
1060
330
2
100
AcDbEntity
  8
画層1
370
    20
100
AcDbLine
 10
-657.0652295960735
 20
146.4861287371352
 30
0.0
 11
-657.0652295960735
 21
146.4861287371352
 31
0.0
  0
ARC
  5
1061
330
2
100
AcDbEntity
  8
画層1
370
    20
100
AcDbCircle
 10
-658.0652295960735
 20
146.9587767371689
 30
0.0
 40
2.0
100
AcDbArc
 50
180.0
 51
270.0
  0
LINE
  5
1062
330
2
100
AcDbEntity
  8
画層1
370
    20
100
AcDbLine
 10
-658.0652295960735
 20
144.9587767371689
 30
0.0
 11
-657.0652295960735
 21
144.9587767371689
 31
0.0
  0
LINE
  5
1063
330
2
100
AcDbEntity
  8
画層1
370
    20
100
AcDbLine
 10
-657.0652295960735
 20
151.4861287371352
 30
0.0
 11
-657.0652295960735
 21
151.4861287371352
 31
0.0
  0
LINE
  5
1064
330
2
100
AcDbEntity
  8
画層1
370
    20
100
AcDbLine
 10
-659.0652295960735
 20
149.4861287371352
 30
0.0
 11
-659.0652295960735
 21
148.4861287371352
 31
0.0
  0
ARC
  5
1065
330
2
100
AcDbEntity
  8
画層1
370
    20
100
AcDbCircle
 10
-658.0652295960735
 20
150.9587767371689
 30
0.0
 40
2.0
100
AcDbArc
 50
90.0
 51
180.0
  0
LINE
  5
1066
330
2
100
AcDbEntity
  8
画層1
370
    20
100
AcDbLine
 10
-657.0652295960735
 20
152.9587767371689
 30
0.0
 11
-658.0652295960735
 21
152.9587767371689
 31
0.0
  0
ARC
  5
1067
330
2
100
AcDbEntity
  8
画層1
370
    20
100
AcDbCircle
 10
-659.0652295960735
 20
147.4861287371352
 30
0.0
 40
1.0
100
AcDbArc
 50
90.0
 51
180.0
  0
LINE
  5
1068
330
2
100
AcDbEntity
  8
画層1
370
    20
100
AcDbLine
 10
-659.0652295960735
 20
148.4861287371352
 30
0.0
 11
-659.0652295960735
 21
148.4861287371352
 31
0.0
  0
ARC
  5
1069
330
2
100
AcDbEntity
  8
画層1
370
    20
100
AcDbCircle
 10
-659.0652295960735
 20
150.4861287371352
 30
0.0
 40
1.0
100
AcDbArc
 50
180.0
 51
270.0
  0
LINE
  5
106A
330
2
100
AcDbEntity
  8
画層1
370
    20
100
AcDbLine
 10
-659.0652295960735
 20
149.4861287371352
 30
0.0
 11
-659.0652295960735
 21
149.4861287371352
 31
0.0
  0
LINE
  5
106B
330
2
100
AcDbEntity
  8
画層1
370
    20
100
AcDbLine
 10
-660.0652295960735
 20
150.9587767371689
 30
0.0
 11
-660.0652295960735
 21
150.4861287371352
 31
0.0
  0
LINE
  5
106C
330
2
100
AcDbEntity
  8
画層1
370
    20
100
AcDbLine
 10
-656.0652295960736
 20
143.9587767371689
 30
0.0
 11
-656.0652295960736
 21
143.9587767371689
 31
0.0
  0
LINE
  5
106D
330
2
100
AcDbEntity
  8
画層1
370
    20
100
AcDbLine
 10
-656.0652295960736
 20
153.9587767371689
 30
0.0
 11
-656.0652295960736
 21
153.9587767371689
 31
0.0
  0
LINE
  5
106E
330
2
100
AcDbEntity
  8
画層1
370
    20
100
AcDbLine
 10
-491.0652295960735
 20
150.4861287371352
 30
0.0
 11
-491.0652295960735
 21
146.9587767371689
 31
0.0
  0
LINE
  5
106F
330
2
100
AcDbEntity
  8
画層1
370
    20
100
AcDbLine
 10
-491.0652295960735
 20
147.4861287371352
 30
0.0
 11
-491.0652295960735
 21
146.9587767371689
 31
0.0
  0
LINE
  5
1070
330
2
100
AcDbEntity
  8
画層1
370
    20
100
AcDbLine
 10
-494.0652295960735
 20
152.9587767371689
 30
0.0
 11
-494.0652295960735
 21
144.9587767371689
 31
0.0
  0
LINE
  5
1071
330
2
100
AcDbEntity
  8
画層1
370
    20
100
AcDbLine
 10
-493.0652295960735
 20
144.9587767371689
 30
0.0
 11
-494.0652295960735
 21
144.9587767371689
 31
0.0
  0
ARC
  5
1072
330
2
100
AcDbEntity
  8
画層1
370
    20
100
AcDbCircle
 10
-493.0652295960735
 20
146.9587767371689
 30
0.0
 40
2.0
100
AcDbArc
 50
270.0
 51
0.0
  0
LINE
  5
1073
330
2
100
AcDbEntity
  8
画層1
370
    20
100
AcDbLine
 10
-495.0652295960735
 20
143.9587767371689
 30
0.0
 11
-495.0652295960735
 21
143.9587767371689
 31
0.0
  0
ARC
  5
1074
330
2
100
AcDbEntity
  8
画層1
370
    20
100
AcDbCircle
 10
-495.0652295960735
 20
144.9587767371689
 30
0.0
 40
1.0
100
AcDbArc
 50
270.0
 51
0.0
  0
LINE
  5
1075
330
2
100
AcDbEntity
  8
画層1
370
    20
100
AcDbLine
 10
-494.0652295960735
 20
146.4861287371352
 30
0.0
 11
-494.0652295960735
 21
146.4861287371352
 31
0.0
  0
LINE
  5
1076
330
2
100
AcDbEntity
  8
画層1
370
    20
100
AcDbLine
 10
-491.0652295960735
 20
150.9587767371689
 30
0.0
 11
-491.0652295960735
 21
150.4861287371352
 31
0.0
  0
LINE
  5
1077
330
2
100
AcDbEntity
  8
画層1
370
    20
100
AcDbLine
 10
-492.0652295960735
 20
149.4861287371352
 30
0.0
 11
-492.0652295960735
 21
149.4861287371352
 31
0.0
  0
ARC
  5
1078
330
2
100
AcDbEntity
  8
画層1
370
    20
100
AcDbCircle
 10
-492.0652295960735
 20
150.4861287371352
 30
0.0
 40
1.0
100
AcDbArc
 50
270.0
 51
0.0
  0
LINE
  5
1079
330
2
100
AcDbEntity
  8
画層1
370
    20
100
AcDbLine
 10
-492.0652295960735
 20
148.4861287371352
 30
0.0
 11
-492.0652295960735
 21
148.4861287371352
 31
0.0
  0
ARC
  5
107A
330
2
100
AcDbEntity
  8
画層1
370
    20
100
AcDbCircle
 10
-492.0652295960735
 20
147.4861287371352
 30
0.0
 40
1.0
100
AcDbArc
 50
0.0
 51
90.0
  0
LINE
  5
107B
330
2
100
AcDbEntity
  8
画層1
370
    20
100
AcDbLine
 10
-494.0652295960735
 20
152.9587767371689
 30
0.0
 11
-493.0652295960735
 21
152.9587767371689
 31
0.0
  0
ARC
  5
107C
330
2
100
AcDbEntity
  8
画層1
370
    20
100
AcDbCircle
 10
-493.0652295960735
 20
150.9587767371689
 30
0.0
 40
2.0
100
AcDbArc
 50
0.0
 51
90.0
  0
LINE
  5
107D
330
2
100
AcDbEntity
  8
画層1
370
    20
100
AcDbLine
 10
-495.0652295960735
 20
153.9587767371689
 30
0.0
 11
-495.0652295960735
 21
153.9587767371689
 31
0.0
  0
ARC
  5
107E
330
2
100
AcDbEntity
  8
画層1
370
    20
100
AcDbCircle
 10
-495.0652295960735
 20
152.9587767371689
 30
0.0
 40
1.0
100
AcDbArc
 50
0.0
 51
90.0
  0
LINE
  5
107F
330
2
100
AcDbEntity
  8
画層1
370
    20
100
AcDbLine
 10
-492.0652295960735
 20
149.4861287371352
 30
0.0
 11
-492.0652295960735
 21
148.4861287371352
 31
0.0
  0
LINE
  5
1080
330
2
100
AcDbEntity
  8
画層1
370
    20
100
AcDbLine
 10
-494.0652295960735
 20
151.4861287371352
 30
0.0
 11
-494.0652295960735
 21
151.4861287371352
 31
0.0
  0
LINE
  5
1086
330
2
100
AcDbEntity
  8
画層1
370
    20
100
AcDbLine
 10
-495.0652295960735
 20
173.9587767371689
 30
0.0
 11
-492.0652295960734
 21
173.9587767371689
 31
0.0
  0
LINE
  5
1087
330
2
100
AcDbEntity
  8
画層1
370
    20
100
AcDbLine
 10
-491.0652295960734
 20
172.9587767371689
 30
0.0
 11
-491.0652295960734
 21
164.9587767371689
 31
0.0
  0
LINE
  5
1088
330
2
100
AcDbEntity
  8
画層1
370
    20
100
AcDbLine
 10
-492.0652295960734
 20
163.9587767371689
 30
0.0
 11
-495.0652295960735
 21
163.9587767371689
 31
0.0
  0
ARC
  5
1089
330
2
100
AcDbEntity
  8
画層1
370
    20
100
AcDbCircle
 10
-492.0652295960734
 20
164.9587767371689
 30
0.0
 40
1.0
100
AcDbArc
 50
270.0
 51
0.0
  0
ARC
  5
108A
330
2
100
AcDbEntity
  8
画層1
370
    20
100
AcDbCircle
 10
-492.0652295960734
 20
172.9587767371689
 30
0.0
 40
1.0
100
AcDbArc
 50
0.0
 51
90.0
  0
LINE
  5
108B
330
2
100
AcDbEntity
  8
画層1
370
    20
100
AcDbLine
 10
-492.0652295960735
 20
169.458776737169
 30
0.0
 11
-492.0652295960735
 21
168.458776737169
 31
0.0
  0
ARC
  5
108C
330
2
100
AcDbEntity
  8
画層1
370
    20
100
AcDbCircle
 10
-492.0652295960735
 20
167.458776737169
 30
0.0
 40
1.0
100
AcDbArc
 50
0.0
 51
90.0
  0
LINE
  5
108D
330
2
100
AcDbEntity
  8
画層1
370
    20
100
AcDbLine
 10
-492.0652295960735
 20
168.458776737169
 30
0.0
 11
-492.0652295960735
 21
168.458776737169
 31
0.0
  0
ARC
  5
108E
330
2
100
AcDbEntity
  8
画層1
370
    20
100
AcDbCircle
 10
-492.0652295960735
 20
170.4587767371689
 30
0.0
 40
1.0
100
AcDbArc
 50
270.0
 51
0.0
  0
LINE
  5
108F
330
2
100
AcDbEntity
  8
画層1
370
    20
100
AcDbLine
 10
-492.0652295960735
 20
169.458776737169
 30
0.0
 11
-492.0652295960735
 21
169.458776737169
 31
0.0
  0
LINE
  5
1090
330
2
100
AcDbEntity
  8
画層1
370
    20
100
AcDbLine
 10
-491.0652295960734
 20
312.9587767371689
 30
0.0
 11
-491.0652295960734
 21
304.9587767371689
 31
0.0
  0
LINE
  5
1091
330
2
100
AcDbEntity
  8
画層1
370
    20
100
AcDbLine
 10
-492.0652295960735
 20
309.4587767371689
 30
0.0
 11
-492.0652295960735
 21
309.4587767371689
 31
0.0
  0
ARC
  5
1092
330
2
100
AcDbEntity
  8
画層1
370
    20
100
AcDbCircle
 10
-492.0652295960735
 20
310.4587767371689
 30
0.0
 40
1.0
100
AcDbArc
 50
270.0
 51
0.0
  0
LINE
  5
1093
330
2
100
AcDbEntity
  8
画層1
370
    20
100
AcDbLine
 10
-492.0652295960735
 20
308.4587767371689
 30
0.0
 11
-492.0652295960735
 21
308.4587767371689
 31
0.0
  0
ARC
  5
1094
330
2
100
AcDbEntity
  8
画層1
370
    20
100
AcDbCircle
 10
-492.0652295960735
 20
307.4587767371689
 30
0.0
 40
1.0
100
AcDbArc
 50
0.0
 51
90.0
  0
LINE
  5
1095
330
2
100
AcDbEntity
  8
画層1
370
    20
100
AcDbLine
 10
-492.0652295960735
 20
309.4587767371689
 30
0.0
 11
-492.0652295960735
 21
308.4587767371689
 31
0.0
  0
LINE
  5
1096
330
2
100
AcDbEntity
  8
画層1
370
    20
100
AcDbLine
 10
-492.0652295960734
 20
303.9587767371689
 30
0.0
 11
-495.0652295960735
 21
303.9587767371689
 31
0.0
  0
ARC
  5
1097
330
2
100
AcDbEntity
  8
画層1
370
    20
100
AcDbCircle
 10
-492.0652295960734
 20
304.9587767371689
 30
0.0
 40
1.0
100
AcDbArc
 50
270.0
 51
0.0
  0
LINE
  5
1098
330
2
100
AcDbEntity
  8
画層1
370
    20
100
AcDbLine
 10
-495.0652295960735
 20
313.9587767371689
 30
0.0
 11
-492.0652295960734
 21
313.9587767371689
 31
0.0
  0
ARC
  5
1099
330
2
100
AcDbEntity
  8
画層1
370
    20
100
AcDbCircle
 10
-492.0652295960734
 20
312.9587767371689
 30
0.0
 40
1.0
100
AcDbArc
 50
0.0
 51
90.0
  0
LINE
  5
109A
330
2
100
AcDbEntity
  8
画層1
370
    20
100
AcDbLine
 10
-660.0652295960736
 20
172.9587767371689
 30
0.0
 11
-660.0652295960735
 21
164.9587767371689
 31
0.0
  0
LINE
  5
109B
330
2
100
AcDbEntity
  8
画層1
370
    20
100
AcDbLine
 10
-659.0652295960735
 20
169.458776737169
 30
0.0
 11
-659.0652295960735
 21
169.458776737169
 31
0.0
  0
ARC
  5
109C
330
2
100
AcDbEntity
  8
画層1
370
    20
100
AcDbCircle
 10
-659.0652295960735
 20
170.4587767371689
 30
0.0
 40
1.0
100
AcDbArc
 50
180.0
 51
270.0
  0
LINE
  5
109D
330
2
100
AcDbEntity
  8
画層1
370
    20
100
AcDbLine
 10
-659.0652295960735
 20
168.458776737169
 30
0.0
 11
-659.0652295960735
 21
168.458776737169
 31
0.0
  0
ARC
  5
109E
330
2
100
AcDbEntity
  8
画層1
370
    20
100
AcDbCircle
 10
-659.0652295960735
 20
167.458776737169
 30
0.0
 40
1.0
100
AcDbArc
 50
90.0
 51
180.0
  0
LINE
  5
109F
330
2
100
AcDbEntity
  8
画層1
370
    20
100
AcDbLine
 10
-659.0652295960735
 20
169.458776737169
 30
0.0
 11
-659.0652295960735
 21
168.458776737169
 31
0.0
  0
LINE
  5
10A0
330
2
100
AcDbEntity
  8
画層1
370
    20
100
AcDbLine
 10
-659.0652295960735
 20
163.9587767371689
 30
0.0
 11
-656.0652295960736
 21
163.9587767371689
 31
0.0
  0
ARC
  5
10A1
330
2
100
AcDbEntity
  8
画層1
370
    20
100
AcDbCircle
 10
-659.0652295960735
 20
164.9587767371689
 30
0.0
 40
1.0
100
AcDbArc
 50
180.0
 51
270.0
  0
LINE
  5
10A2
330
2
100
AcDbEntity
  8
画層1
370
    20
100
AcDbLine
 10
-656.0652295960736
 20
173.9587767371689
 30
0.0
 11
-659.0652295960737
 21
173.9587767371689
 31
0.0
  0
ARC
  5
10A3
330
2
100
AcDbEntity
  8
画層1
370
    20
100
AcDbCircle
 10
-659.0652295960737
 20
172.9587767371689
 30
0.0
 40
1.0
100
AcDbArc
 50
90.0
 51
180.0
  0
LINE
  5
10A4
330
2
100
AcDbEntity
  8
画層1
370
    20
100
AcDbLine
 10
-660.0652295960736
 20
312.9587767371689
 30
0.0
 11
-660.0652295960735
 21
304.9587767371689
 31
0.0
  0
ARC
  5
10A5
330
2
100
AcDbEntity
  8
画層1
370
    20
100
AcDbCircle
 10
-659.0652295960735
 20
304.9587767371689
 30
0.0
 40
1.0
100
AcDbArc
 50
180.0
 51
270.0
  0
LINE
  5
10A6
330
2
100
AcDbEntity
  8
画層1
370
    20
100
AcDbLine
 10
-659.0652295960735
 20
303.9587767371689
 30
0.0
 11
-656.0652295960736
 21
303.9587767371689
 31
0.0
  0
ARC
  5
10A7
330
2
100
AcDbEntity
  8
画層1
370
    20
100
AcDbCircle
 10
-659.0652295960735
 20
307.4587767371689
 30
0.0
 40
1.0
100
AcDbArc
 50
90.0
 51
180.0
  0
LINE
  5
10A8
330
2
100
AcDbEntity
  8
画層1
370
    20
100
AcDbLine
 10
-659.0652295960735
 20
309.4587767371689
 30
0.0
 11
-659.0652295960735
 21
308.4587767371689
 31
0.0
  0
LINE
  5
10A9
330
2
100
AcDbEntity
  8
画層1
370
    20
100
AcDbLine
 10
-659.0652295960735
 20
308.4587767371689
 30
0.0
 11
-659.0652295960735
 21
308.4587767371689
 31
0.0
  0
ARC
  5
10AA
330
2
100
AcDbEntity
  8
画層1
370
    20
100
AcDbCircle
 10
-659.0652295960735
 20
310.4587767371689
 30
0.0
 40
1.0
100
AcDbArc
 50
180.0
 51
270.0
  0
LINE
  5
10AB
330
2
100
AcDbEntity
  8
画層1
370
    20
100
AcDbLine
 10
-659.0652295960735
 20
309.4587767371689
 30
0.0
 11
-659.0652295960735
 21
309.4587767371689
 31
0.0
  0
ARC
  5
10AC
330
2
100
AcDbEntity
  8
画層1
370
    20
100
AcDbCircle
 10
-659.0652295960737
 20
312.9587767371689
 30
0.0
 40
1.0
100
AcDbArc
 50
90.0
 51
180.0
  0
LINE
  5
10AD
330
2
100
AcDbEntity
  8
画層1
370
    20
100
AcDbLine
 10
-656.0652295960736
 20
313.9587767371689
 30
0.0
 11
-659.0652295960737
 21
313.9587767371689
 31
0.0
  0
LINE
  5
10B8
330
2
100
AcDbEntity
  8
画層1
370
    20
100
AcDbLine
 10
-525.0652295960735
 20
122.9587767371689
 30
0.0
 11
-495.0652295960735
 21
122.9587767371689
 31
0.0
  0
CIRCLE
  5
10C0
330
2
100
AcDbEntity
  8
画層1
370
    20
100
AcDbCircle
 10
-569.0652295960735
 20
134.9587767371689
 30
0.0
 40
3.0
  0
LINE
  5
10C9
330
2
100
AcDbEntity
  8
画層1
370
    20
100
AcDbLine
 10
-569.5652295960735
 20
136.4587767371689
 30
0.0
 11
-569.5652295960735
 21
135.4587767371689
 31
0.0
  0
LINE
  5
10CA
330
2
100
AcDbEntity
  8
画層1
370
    20
100
AcDbLine
 10
-569.5652295960735
 20
135.4587767371689
 30
0.0
 11
-570.5652295960735
 21
135.4587767371689
 31
0.0
  0
LINE
  5
10CB
330
2
100
AcDbEntity
  8
画層1
370
    20
100
AcDbLine
 10
-570.5652295960735
 20
135.4587767371689
 30
0.0
 11
-570.5652295960735
 21
134.4587767371689
 31
0.0
  0
LINE
  5
10CC
330
2
100
AcDbEntity
  8
画層1
370
    20
100
AcDbLine
 10
-570.5652295960735
 20
134.4587767371689
 30
0.0
 11
-569.5652295960735
 21
134.4587767371689
 31
0.0
  0
LINE
  5
10CD
330
2
100
AcDbEntity
  8
画層1
370
    20
100
AcDbLine
 10
-569.5652295960735
 20
134.4587767371689
 30
0.0
 11
-569.5652295960735
 21
133.4587767371689
 31
0.0
  0
LINE
  5
10CE
330
2
100
AcDbEntity
  8
画層1
370
    20
100
AcDbLine
 10
-569.5652295960735
 20
133.4587767371689
 30
0.0
 11
-568.5652295960735
 21
133.4587767371689
 31
0.0
  0
LINE
  5
10CF
330
2
100
AcDbEntity
  8
画層1
370
    20
100
AcDbLine
 10
-568.5652295960735
 20
133.4587767371689
 30
0.0
 11
-568.5652295960735
 21
134.4587767371689
 31
0.0
  0
LINE
  5
10D0
330
2
100
AcDbEntity
  8
画層1
370
    20
100
AcDbLine
 10
-568.5652295960735
 20
134.4587767371689
 30
0.0
 11
-567.5652295960735
 21
134.4587767371689
 31
0.0
  0
LINE
  5
10D1
330
2
100
AcDbEntity
  8
画層1
370
    20
100
AcDbLine
 10
-567.5652295960735
 20
134.4587767371689
 30
0.0
 11
-567.5652295960735
 21
135.4587767371689
 31
0.0
  0
LINE
  5
10D2
330
2
100
AcDbEntity
  8
画層1
370
    20
100
AcDbLine
 10
-567.5652295960735
 20
135.4587767371689
 30
0.0
 11
-568.5652295960735
 21
135.4587767371689
 31
0.0
  0
LINE
  5
10D3
330
2
100
AcDbEntity
  8
画層1
370
    20
100
AcDbLine
 10
-568.5652295960735
 20
135.4587767371689
 30
0.0
 11
-568.5652295960735
 21
136.4587767371689
 31
0.0
  0
LINE
  5
10D4
330
2
100
AcDbEntity
  8
画層1
370
    20
100
AcDbLine
 10
-568.5652295960735
 20
136.4587767371689
 30
0.0
 11
-569.5652295960735
 21
136.4587767371689
 31
0.0
  0
LINE
  5
10D5
330
2
100
AcDbEntity
  8
画層1
370
    20
100
AcDbLine
 10
-554.5652295960735
 20
135.4587767371689
 30
0.0
 11
-555.5652295960735
 21
135.4587767371689
 31
0.0
  0
LINE
  5
10D6
330
2
100
AcDbEntity
  8
画層1
370
    20
100
AcDbLine
 10
-555.5652295960735
 20
134.4587767371689
 30
0.0
 11
-554.5652295960735
 21
134.4587767371689
 31
0.0
  0
CIRCLE
  5
10D7
330
2
100
AcDbEntity
  8
画層1
370
    20
100
AcDbCircle
 10
-556.0652295960735
 20
134.9587767371689
 30
0.0
 40
3.0
  0
LINE
  5
10D8
330
2
100
AcDbEntity
  8
画層1
370
    20
100
AcDbLine
 10
-555.5652295960735
 20
133.4587767371689
 30
0.0
 11
-555.5652295960735
 21
134.4587767371689
 31
0.0
  0
LINE
  5
10D9
330
2
100
AcDbEntity
  8
画層1
370
    20
100
AcDbLine
 10
-556.5652295960735
 20
134.4587767371689
 30
0.0
 11
-556.5652295960735
 21
133.4587767371689
 31
0.0
  0
LINE
  5
10DA
330
2
100
AcDbEntity
  8
画層1
370
    20
100
AcDbLine
 10
-556.5652295960735
 20
133.4587767371689
 30
0.0
 11
-555.5652295960735
 21
133.4587767371689
 31
0.0
  0
LINE
  5
10DB
330
2
100
AcDbEntity
  8
画層1
370
    20
100
AcDbLine
 10
-555.5652295960735
 20
136.4587767371689
 30
0.0
 11
-556.5652295960735
 21
136.4587767371689
 31
0.0
  0
LINE
  5
10DC
330
2
100
AcDbEntity
  8
画層1
370
    20
100
AcDbLine
 10
-555.5652295960735
 20
135.4587767371689
 30
0.0
 11
-555.5652295960735
 21
136.4587767371689
 31
0.0
  0
LINE
  5
10DD
330
2
100
AcDbEntity
  8
画層1
370
    20
100
AcDbLine
 10
-557.5652295960735
 20
134.4587767371689
 30
0.0
 11
-556.5652295960735
 21
134.4587767371689
 31
0.0
  0
LINE
  5
10DE
330
2
100
AcDbEntity
  8
画層1
370
    20
100
AcDbLine
 10
-557.5652295960735
 20
135.4587767371689
 30
0.0
 11
-557.5652295960735
 21
134.4587767371689
 31
0.0
  0
LINE
  5
10DF
330
2
100
AcDbEntity
  8
画層1
370
    20
100
AcDbLine
 10
-556.5652295960735
 20
135.4587767371689
 30
0.0
 11
-557.5652295960735
 21
135.4587767371689
 31
0.0
  0
LINE
  5
10E0
330
2
100
AcDbEntity
  8
画層1
370
    20
100
AcDbLine
 10
-556.5652295960735
 20
136.4587767371689
 30
0.0
 11
-556.5652295960735
 21
135.4587767371689
 31
0.0
  0
LINE
  5
10E1
330
2
100
AcDbEntity
  8
画層1
370
    20
100
AcDbLine
 10
-554.5652295960735
 20
134.4587767371689
 30
0.0
 11
-554.5652295960735
 21
135.4587767371689
 31
0.0
  0
LINE
  5
10E2
330
2
100
AcDbEntity
  8
画層1
370
    20
100
AcDbLine
 10
-543.5652295960735
 20
134.4587767371689
 30
0.0
 11
-543.5652295960735
 21
133.4587767371689
 31
0.0
  0
LINE
  5
10E3
330
2
100
AcDbEntity
  8
画層1
370
    20
100
AcDbLine
 10
-542.5652295960735
 20
133.4587767371689
 30
0.0
 11
-542.5652295960735
 21
134.4587767371689
 31
0.0
  0
CIRCLE
  5
10E4
330
2
100
AcDbEntity
  8
画層1
370
    20
100
AcDbCircle
 10
-543.0652295960735
 20
134.9587767371689
 30
0.0
 40
3.0
  0
LINE
  5
10E5
330
2
100
AcDbEntity
  8
画層1
370
    20
100
AcDbLine
 10
-543.5652295960735
 20
133.4587767371689
 30
0.0
 11
-542.5652295960735
 21
133.4587767371689
 31
0.0
  0
LINE
  5
10E6
330
2
100
AcDbEntity
  8
画層1
370
    20
100
AcDbLine
 10
-543.5652295960735
 20
135.4587767371689
 30
0.0
 11
-544.5652295960735
 21
135.4587767371689
 31
0.0
  0
LINE
  5
10E7
330
2
100
AcDbEntity
  8
画層1
370
    20
100
AcDbLine
 10
-544.5652295960735
 20
134.4587767371689
 30
0.0
 11
-543.5652295960735
 21
134.4587767371689
 31
0.0
  0
LINE
  5
10E8
330
2
100
AcDbEntity
  8
画層1
370
    20
100
AcDbLine
 10
-544.5652295960735
 20
135.4587767371689
 30
0.0
 11
-544.5652295960735
 21
134.4587767371689
 31
0.0
  0
LINE
  5
10E9
330
2
100
AcDbEntity
  8
画層1
370
    20
100
AcDbLine
 10
-541.5652295960735
 20
134.4587767371689
 30
0.0
 11
-541.5652295960735
 21
135.4587767371689
 31
0.0
  0
LINE
  5
10EA
330
2
100
AcDbEntity
  8
画層1
370
    20
100
AcDbLine
 10
-543.5652295960735
 20
136.4587767371689
 30
0.0
 11
-543.5652295960735
 21
135.4587767371689
 31
0.0
  0
LINE
  5
10EB
330
2
100
AcDbEntity
  8
画層1
370
    20
100
AcDbLine
 10
-542.5652295960735
 20
135.4587767371689
 30
0.0
 11
-542.5652295960735
 21
136.4587767371689
 31
0.0
  0
LINE
  5
10EC
330
2
100
AcDbEntity
  8
画層1
370
    20
100
AcDbLine
 10
-542.5652295960735
 20
136.4587767371689
 30
0.0
 11
-543.5652295960735
 21
136.4587767371689
 31
0.0
  0
LINE
  5
10ED
330
2
100
AcDbEntity
  8
画層1
370
    20
100
AcDbLine
 10
-542.5652295960735
 20
134.4587767371689
 30
0.0
 11
-541.5652295960735
 21
134.4587767371689
 31
0.0
  0
LINE
  5
10EE
330
2
100
AcDbEntity
  8
画層1
370
    20
100
AcDbLine
 10
-541.5652295960735
 20
135.4587767371689
 30
0.0
 11
-542.5652295960735
 21
135.4587767371689
 31
0.0
  0
CIRCLE
  5
10EF
330
2
100
AcDbEntity
  8
画層1
370
    20
100
AcDbCircle
 10
-530.0652295960735
 20
134.9587767371689
 30
0.0
 40
3.0
  0
LINE
  5
10F0
330
2
100
AcDbEntity
  8
画層1
370
    20
100
AcDbLine
 10
-529.5652295960735
 20
133.4587767371689
 30
0.0
 11
-529.5652295960735
 21
134.4587767371689
 31
0.0
  0
LINE
  5
10F1
330
2
100
AcDbEntity
  8
画層1
370
    20
100
AcDbLine
 10
-530.5652295960735
 20
134.4587767371689
 30
0.0
 11
-530.5652295960735
 21
133.4587767371689
 31
0.0
  0
LINE
  5
10F2
330
2
100
AcDbEntity
  8
画層1
370
    20
100
AcDbLine
 10
-530.5652295960735
 20
133.4587767371689
 30
0.0
 11
-529.5652295960735
 21
133.4587767371689
 31
0.0
  0
LINE
  5
10F3
330
2
100
AcDbEntity
  8
画層1
370
    20
100
AcDbLine
 10
-528.5652295960735
 20
135.4587767371689
 30
0.0
 11
-529.5652295960735
 21
135.4587767371689
 31
0.0
  0
LINE
  5
10F4
330
2
100
AcDbEntity
  8
画層1
370
    20
100
AcDbLine
 10
-529.5652295960735
 20
134.4587767371689
 30
0.0
 11
-528.5652295960735
 21
134.4587767371689
 31
0.0
  0
LINE
  5
10F5
330
2
100
AcDbEntity
  8
画層1
370
    20
100
AcDbLine
 10
-529.5652295960735
 20
136.4587767371689
 30
0.0
 11
-530.5652295960735
 21
136.4587767371689
 31
0.0
  0
LINE
  5
10F6
330
2
100
AcDbEntity
  8
画層1
370
    20
100
AcDbLine
 10
-529.5652295960735
 20
135.4587767371689
 30
0.0
 11
-529.5652295960735
 21
136.4587767371689
 31
0.0
  0
LINE
  5
10F7
330
2
100
AcDbEntity
  8
画層1
370
    20
100
AcDbLine
 10
-530.5652295960735
 20
136.4587767371689
 30
0.0
 11
-530.5652295960735
 21
135.4587767371689
 31
0.0
  0
LINE
  5
10F8
330
2
100
AcDbEntity
  8
画層1
370
    20
100
AcDbLine
 10
-528.5652295960735
 20
134.4587767371689
 30
0.0
 11
-528.5652295960735
 21
135.4587767371689
 31
0.0
  0
LINE
  5
10F9
330
2
100
AcDbEntity
  8
画層1
370
    20
100
AcDbLine
 10
-531.5652295960735
 20
135.4587767371689
 30
0.0
 11
-531.5652295960735
 21
134.4587767371689
 31
0.0
  0
LINE
  5
10FA
330
2
100
AcDbEntity
  8
画層1
370
    20
100
AcDbLine
 10
-531.5652295960735
 20
134.4587767371689
 30
0.0
 11
-530.5652295960735
 21
134.4587767371689
 31
0.0
  0
LINE
  5
10FB
330
2
100
AcDbEntity
  8
画層1
370
    20
100
AcDbLine
 10
-530.5652295960735
 20
135.4587767371689
 30
0.0
 11
-531.5652295960735
 21
135.4587767371689
 31
0.0
  0
LINE
  5
10FC
330
2
100
AcDbEntity
  8
画層1
370
    20
100
AcDbLine
 10
-580.5652295960735
 20
135.4587767371689
 30
0.0
 11
-581.5652295960735
 21
135.4587767371689
 31
0.0
  0
LINE
  5
10FD
330
2
100
AcDbEntity
  8
画層1
370
    20
100
AcDbLine
 10
-581.5652295960735
 20
134.4587767371689
 30
0.0
 11
-580.5652295960735
 21
134.4587767371689
 31
0.0
  0
CIRCLE
  5
10FE
330
2
100
AcDbEntity
  8
画層1
370
    20
100
AcDbCircle
 10
-582.0652295960735
 20
134.9587767371689
 30
0.0
 40
3.0
  0
LINE
  5
10FF
330
2
100
AcDbEntity
  8
画層1
370
    20
100
AcDbLine
 10
-581.5652295960735
 20
133.4587767371689
 30
0.0
 11
-581.5652295960735
 21
134.4587767371689
 31
0.0
  0
LINE
  5
1100
330
2
100
AcDbEntity
  8
画層1
370
    20
100
AcDbLine
 10
-582.5652295960735
 20
134.4587767371689
 30
0.0
 11
-582.5652295960735
 21
133.4587767371689
 31
0.0
  0
LINE
  5
1101
330
2
100
AcDbEntity
  8
画層1
370
    20
100
AcDbLine
 10
-582.5652295960735
 20
133.4587767371689
 30
0.0
 11
-581.5652295960735
 21
133.4587767371689
 31
0.0
  0
LINE
  5
1102
330
2
100
AcDbEntity
  8
画層1
370
    20
100
AcDbLine
 10
-581.5652295960735
 20
136.4587767371689
 30
0.0
 11
-582.5652295960735
 21
136.4587767371689
 31
0.0
  0
LINE
  5
1103
330
2
100
AcDbEntity
  8
画層1
370
    20
100
AcDbLine
 10
-581.5652295960735
 20
135.4587767371689
 30
0.0
 11
-581.5652295960735
 21
136.4587767371689
 31
0.0
  0
LINE
  5
1104
330
2
100
AcDbEntity
  8
画層1
370
    20
100
AcDbLine
 10
-583.5652295960735
 20
134.4587767371689
 30
0.0
 11
-582.5652295960735
 21
134.4587767371689
 31
0.0
  0
LINE
  5
1105
330
2
100
AcDbEntity
  8
画層1
370
    20
100
AcDbLine
 10
-583.5652295960735
 20
135.4587767371689
 30
0.0
 11
-583.5652295960735
 21
134.4587767371689
 31
0.0
  0
LINE
  5
1106
330
2
100
AcDbEntity
  8
画層1
370
    20
100
AcDbLine
 10
-582.5652295960735
 20
135.4587767371689
 30
0.0
 11
-583.5652295960735
 21
135.4587767371689
 31
0.0
  0
LINE
  5
1107
330
2
100
AcDbEntity
  8
画層1
370
    20
100
AcDbLine
 10
-582.5652295960735
 20
136.4587767371689
 30
0.0
 11
-582.5652295960735
 21
135.4587767371689
 31
0.0
  0
LINE
  5
1108
330
2
100
AcDbEntity
  8
画層1
370
    20
100
AcDbLine
 10
-580.5652295960735
 20
134.4587767371689
 30
0.0
 11
-580.5652295960735
 21
135.4587767371689
 31
0.0
  0
LINE
  5
1109
330
2
100
AcDbEntity
  8
画層1
370
    20
100
AcDbLine
 10
-595.5652295960735
 20
134.4587767371689
 30
0.0
 11
-595.5652295960735
 21
133.4587767371689
 31
0.0
  0
LINE
  5
110A
330
2
100
AcDbEntity
  8
画層1
370
    20
100
AcDbLine
 10
-594.5652295960735
 20
133.4587767371689
 30
0.0
 11
-594.5652295960735
 21
134.4587767371689
 31
0.0
  0
CIRCLE
  5
110B
330
2
100
AcDbEntity
  8
画層1
370
    20
100
AcDbCircle
 10
-595.0652295960735
 20
134.9587767371689
 30
0.0
 40
3.0
  0
LINE
  5
110C
330
2
100
AcDbEntity
  8
画層1
370
    20
100
AcDbLine
 10
-595.5652295960735
 20
133.4587767371689
 30
0.0
 11
-594.5652295960735
 21
133.4587767371689
 31
0.0
  0
LINE
  5
110D
330
2
100
AcDbEntity
  8
画層1
370
    20
100
AcDbLine
 10
-593.5652295960735
 20
134.4587767371689
 30
0.0
 11
-593.5652295960735
 21
135.4587767371689
 31
0.0
  0
LINE
  5
110E
330
2
100
AcDbEntity
  8
画層1
370
    20
100
AcDbLine
 10
-595.5652295960735
 20
136.4587767371689
 30
0.0
 11
-595.5652295960735
 21
135.4587767371689
 31
0.0
  0
LINE
  5
110F
330
2
100
AcDbEntity
  8
画層1
370
    20
100
AcDbLine
 10
-595.5652295960735
 20
135.4587767371689
 30
0.0
 11
-596.5652295960735
 21
135.4587767371689
 31
0.0
  0
LINE
  5
1110
330
2
100
AcDbEntity
  8
画層1
370
    20
100
AcDbLine
 10
-596.5652295960735
 20
135.4587767371689
 30
0.0
 11
-596.5652295960735
 21
134.4587767371689
 31
0.0
  0
LINE
  5
1111
330
2
100
AcDbEntity
  8
画層1
370
    20
100
AcDbLine
 10
-596.5652295960735
 20
134.4587767371689
 30
0.0
 11
-595.5652295960735
 21
134.4587767371689
 31
0.0
  0
LINE
  5
1112
330
2
100
AcDbEntity
  8
画層1
370
    20
100
AcDbLine
 10
-594.5652295960735
 20
135.4587767371689
 30
0.0
 11
-594.5652295960735
 21
136.4587767371689
 31
0.0
  0
LINE
  5
1113
330
2
100
AcDbEntity
  8
画層1
370
    20
100
AcDbLine
 10
-594.5652295960735
 20
136.4587767371689
 30
0.0
 11
-595.5652295960735
 21
136.4587767371689
 31
0.0
  0
LINE
  5
1114
330
2
100
AcDbEntity
  8
画層1
370
    20
100
AcDbLine
 10
-594.5652295960735
 20
134.4587767371689
 30
0.0
 11
-593.5652295960735
 21
134.4587767371689
 31
0.0
  0
LINE
  5
1115
330
2
100
AcDbEntity
  8
画層1
370
    20
100
AcDbLine
 10
-593.5652295960735
 20
135.4587767371689
 30
0.0
 11
-594.5652295960735
 21
135.4587767371689
 31
0.0
  0
CIRCLE
  5
1116
330
2
100
AcDbEntity
  8
画層1
370
    20
100
AcDbCircle
 10
-608.0652295960735
 20
134.9587767371689
 30
0.0
 40
3.0
  0
LINE
  5
1117
330
2
100
AcDbEntity
  8
画層1
370
    20
100
AcDbLine
 10
-607.5652295960735
 20
133.4587767371689
 30
0.0
 11
-607.5652295960735
 21
134.4587767371689
 31
0.0
  0
LINE
  5
1118
330
2
100
AcDbEntity
  8
画層1
370
    20
100
AcDbLine
 10
-608.5652295960735
 20
134.4587767371689
 30
0.0
 11
-608.5652295960735
 21
133.4587767371689
 31
0.0
  0
LINE
  5
1119
330
2
100
AcDbEntity
  8
画層1
370
    20
100
AcDbLine
 10
-608.5652295960735
 20
133.4587767371689
 30
0.0
 11
-607.5652295960735
 21
133.4587767371689
 31
0.0
  0
LINE
  5
111A
330
2
100
AcDbEntity
  8
画層1
370
    20
100
AcDbLine
 10
-606.5652295960735
 20
135.4587767371689
 30
0.0
 11
-607.5652295960735
 21
135.4587767371689
 31
0.0
  0
LINE
  5
111B
330
2
100
AcDbEntity
  8
画層1
370
    20
100
AcDbLine
 10
-607.5652295960735
 20
134.4587767371689
 30
0.0
 11
-606.5652295960735
 21
134.4587767371689
 31
0.0
  0
LINE
  5
111C
330
2
100
AcDbEntity
  8
画層1
370
    20
100
AcDbLine
 10
-607.5652295960735
 20
136.4587767371689
 30
0.0
 11
-608.5652295960735
 21
136.4587767371689
 31
0.0
  0
LINE
  5
111D
330
2
100
AcDbEntity
  8
画層1
370
    20
100
AcDbLine
 10
-607.5652295960735
 20
135.4587767371689
 30
0.0
 11
-607.5652295960735
 21
136.4587767371689
 31
0.0
  0
LINE
  5
111E
330
2
100
AcDbEntity
  8
画層1
370
    20
100
AcDbLine
 10
-609.5652295960735
 20
134.4587767371689
 30
0.0
 11
-608.5652295960735
 21
134.4587767371689
 31
0.0
  0
LINE
  5
111F
330
2
100
AcDbEntity
  8
画層1
370
    20
100
AcDbLine
 10
-609.5652295960735
 20
135.4587767371689
 30
0.0
 11
-609.5652295960735
 21
134.4587767371689
 31
0.0
  0
LINE
  5
1120
330
2
100
AcDbEntity
  8
画層1
370
    20
100
AcDbLine
 10
-608.5652295960735
 20
135.4587767371689
 30
0.0
 11
-609.5652295960735
 21
135.4587767371689
 31
0.0
  0
LINE
  5
1121
330
2
100
AcDbEntity
  8
画層1
370
    20
100
AcDbLine
 10
-608.5652295960735
 20
136.4587767371689
 30
0.0
 11
-608.5652295960735
 21
135.4587767371689
 31
0.0
  0
LINE
  5
1122
330
2
100
AcDbEntity
  8
画層1
370
    20
100
AcDbLine
 10
-606.5652295960735
 20
134.4587767371689
 30
0.0
 11
-606.5652295960735
 21
135.4587767371689
 31
0.0
  0
LINE
  5
1123
330
2
100
AcDbEntity
  8
画層1
370
    20
100
AcDbLine
 10
-621.5652295960735
 20
134.4587767371689
 30
0.0
 11
-621.5652295960735
 21
133.4587767371689
 31
0.0
  0
LINE
  5
1124
330
2
100
AcDbEntity
  8
画層1
370
    20
100
AcDbLine
 10
-620.5652295960735
 20
133.4587767371689
 30
0.0
 11
-620.5652295960735
 21
134.4587767371689
 31
0.0
  0
CIRCLE
  5
1125
330
2
100
AcDbEntity
  8
画層1
370
    20
100
AcDbCircle
 10
-621.0652295960735
 20
134.9587767371689
 30
0.0
 40
3.0
  0
LINE
  5
1126
330
2
100
AcDbEntity
  8
画層1
370
    20
100
AcDbLine
 10
-621.5652295960735
 20
133.4587767371689
 30
0.0
 11
-620.5652295960735
 21
133.4587767371689
 31
0.0
  0
LINE
  5
1127
330
2
100
AcDbEntity
  8
画層1
370
    20
100
AcDbLine
 10
-619.5652295960735
 20
134.4587767371689
 30
0.0
 11
-619.5652295960735
 21
135.4587767371689
 31
0.0
  0
LINE
  5
1128
330
2
100
AcDbEntity
  8
画層1
370
    20
100
AcDbLine
 10
-621.5652295960735
 20
136.4587767371689
 30
0.0
 11
-621.5652295960735
 21
135.4587767371689
 31
0.0
  0
LINE
  5
1129
330
2
100
AcDbEntity
  8
画層1
370
    20
100
AcDbLine
 10
-621.5652295960735
 20
135.4587767371689
 30
0.0
 11
-622.5652295960735
 21
135.4587767371689
 31
0.0
  0
LINE
  5
112A
330
2
100
AcDbEntity
  8
画層1
370
    20
100
AcDbLine
 10
-622.5652295960735
 20
135.4587767371689
 30
0.0
 11
-622.5652295960735
 21
134.4587767371689
 31
0.0
  0
LINE
  5
112B
330
2
100
AcDbEntity
  8
画層1
370
    20
100
AcDbLine
 10
-622.5652295960735
 20
134.4587767371689
 30
0.0
 11
-621.5652295960735
 21
134.4587767371689
 31
0.0
  0
LINE
  5
112C
330
2
100
AcDbEntity
  8
画層1
370
    20
100
AcDbLine
 10
-620.5652295960735
 20
135.4587767371689
 30
0.0
 11
-620.5652295960735
 21
136.4587767371689
 31
0.0
  0
LINE
  5
112D
330
2
100
AcDbEntity
  8
画層1
370
    20
100
AcDbLine
 10
-620.5652295960735
 20
136.4587767371689
 30
0.0
 11
-621.5652295960735
 21
136.4587767371689
 31
0.0
  0
LINE
  5
112E
330
2
100
AcDbEntity
  8
画層1
370
    20
100
AcDbLine
 10
-620.5652295960735
 20
134.4587767371689
 30
0.0
 11
-619.5652295960735
 21
134.4587767371689
 31
0.0
  0
LINE
  5
112F
330
2
100
AcDbEntity
  8
画層1
370
    20
100
AcDbLine
 10
-619.5652295960735
 20
135.4587767371689
 30
0.0
 11
-620.5652295960735
 21
135.4587767371689
 31
0.0
  0
LINE
  5
1134
330
2
100
AcDbEntity
  8
画層1
370
    20
100
AcDbLine
 10
-574.0652295960735
 20
144.9587767371689
 30
0.0
 11
-564.0652295960735
 21
144.9587767371689
 31
0.0
  0
LINE
  5
1135
330
2
100
AcDbEntity
  8
画層1
370
    20
100
AcDbLine
 10
-564.0652295960735
 20
144.9587767371689
 30
0.0
 11
-564.0652295960735
 21
124.9587767371689
 31
0.0
  0
LINE
  5
1136
330
2
100
AcDbEntity
  8
画層1
370
    20
100
AcDbLine
 10
-564.0652295960735
 20
124.9587767371689
 30
0.0
 11
-574.0652295960735
 21
124.9587767371689
 31
0.0
  0
LINE
  5
1137
330
2
100
AcDbEntity
  8
画層1
370
    20
100
AcDbLine
 10
-574.0652295960735
 20
124.9587767371689
 30
0.0
 11
-574.0652295960735
 21
144.9587767371689
 31
0.0
  0
LINE
  5
1138
330
2
100
AcDbEntity
  8
画層1
370
    20
100
AcDbLine
 10
-561.0652295960735
 20
144.9587767371689
 30
0.0
 11
-551.0652295960735
 21
144.9587767371689
 31
0.0
  0
LINE
  5
1139
330
2
100
AcDbEntity
  8
画層1
370
    20
100
AcDbLine
 10
-551.0652295960735
 20
144.9587767371689
 30
0.0
 11
-551.0652295960735
 21
124.9587767371689
 31
0.0
  0
LINE
  5
113A
330
2
100
AcDbEntity
  8
画層1
370
    20
100
AcDbLine
 10
-551.0652295960735
 20
124.9587767371689
 30
0.0
 11
-561.0652295960735
 21
124.9587767371689
 31
0.0
  0
LINE
  5
113B
330
2
100
AcDbEntity
  8
画層1
370
    20
100
AcDbLine
 10
-561.0652295960735
 20
124.9587767371689
 30
0.0
 11
-561.0652295960735
 21
144.9587767371689
 31
0.0
  0
LINE
  5
113C
330
2
100
AcDbEntity
  8
画層1
370
    20
100
AcDbLine
 10
-548.0652295960735
 20
124.9587767371689
 30
0.0
 11
-548.0652295960735
 21
144.9587767371689
 31
0.0
  0
LINE
  5
113D
330
2
100
AcDbEntity
  8
画層1
370
    20
100
AcDbLine
 10
-538.0652295960735
 20
144.9587767371689
 30
0.0
 11
-538.0652295960735
 21
124.9587767371689
 31
0.0
  0
LINE
  5
113E
330
2
100
AcDbEntity
  8
画層1
370
    20
100
AcDbLine
 10
-538.0652295960735
 20
124.9587767371689
 30
0.0
 11
-548.0652295960735
 21
124.9587767371689
 31
0.0
  0
LINE
  5
113F
330
2
100
AcDbEntity
  8
画層1
370
    20
100
AcDbLine
 10
-548.0652295960735
 20
144.9587767371689
 30
0.0
 11
-538.0652295960735
 21
144.9587767371689
 31
0.0
  0
LINE
  5
1140
330
2
100
AcDbEntity
  8
画層1
370
    20
100
AcDbLine
 10
-577.0652295960736
 20
124.9587767371689
 30
0.0
 11
-587.0652295960735
 21
124.9587767371689
 31
0.0
  0
LINE
  5
1141
330
2
100
AcDbEntity
  8
画層1
370
    20
100
AcDbLine
 10
-587.0652295960735
 20
124.9587767371689
 30
0.0
 11
-587.0652295960735
 21
144.9587767371689
 31
0.0
  0
LINE
  5
1142
330
2
100
AcDbEntity
  8
画層1
370
    20
100
AcDbLine
 10
-600.0652295960735
 20
124.9587767371689
 30
0.0
 11
-600.0652295960735
 21
144.9587767371689
 31
0.0
  0
LINE
  5
1143
330
2
100
AcDbEntity
  8
画層1
370
    20
100
AcDbLine
 10
-590.0652295960735
 20
144.9587767371689
 30
0.0
 11
-590.0652295960735
 21
124.9587767371689
 31
0.0
  0
LINE
  5
1144
330
2
100
AcDbEntity
  8
画層1
370
    20
100
AcDbLine
 10
-613.0652295960735
 20
124.9587767371689
 30
0.0
 11
-613.0652295960735
 21
144.9587767371689
 31
0.0
  0
LINE
  5
1145
330
2
100
AcDbEntity
  8
画層1
370
    20
100
AcDbLine
 10
-603.0652295960735
 20
144.9587767371689
 30
0.0
 11
-603.0652295960735
 21
124.9587767371689
 31
0.0
  0
LINE
  5
1146
330
2
100
AcDbEntity
  8
画層1
370
    20
100
AcDbLine
 10
-603.0652295960735
 20
124.9587767371689
 30
0.0
 11
-613.0652295960735
 21
124.9587767371689
 31
0.0
  0
LINE
  5
1147
330
2
100
AcDbEntity
  8
画層1
370
    20
100
AcDbLine
 10
-590.0652295960735
 20
124.9587767371689
 30
0.0
 11
-600.0652295960735
 21
124.9587767371689
 31
0.0
  0
LINE
  5
1148
330
2
100
AcDbEntity
  8
画層1
370
    20
100
AcDbLine
 10
-577.0652295960736
 20
144.9587767371689
 30
0.0
 11
-577.0652295960736
 21
124.9587767371689
 31
0.0
  0
LINE
  5
1149
330
2
100
AcDbEntity
  8
画層1
370
    20
100
AcDbLine
 10
-587.0652295960735
 20
144.9587767371689
 30
0.0
 11
-577.0652295960736
 21
144.9587767371689
 31
0.0
  0
LINE
  5
114A
330
2
100
AcDbEntity
  8
画層1
370
    20
100
AcDbLine
 10
-613.0652295960735
 20
144.9587767371689
 30
0.0
 11
-603.0652295960735
 21
144.9587767371689
 31
0.0
  0
LINE
  5
114B
330
2
100
AcDbEntity
  8
画層1
370
    20
100
AcDbLine
 10
-600.0652295960735
 20
144.9587767371689
 30
0.0
 11
-590.0652295960735
 21
144.9587767371689
 31
0.0
  0
LINE
  5
114C
330
2
100
AcDbEntity
  8
画層1
370
    20
100
AcDbLine
 10
-525.0652295960735
 20
124.9587767371689
 30
0.0
 11
-535.0652295960735
 21
124.9587767371689
 31
0.0
  0
LINE
  5
114D
330
2
100
AcDbEntity
  8
画層1
370
    20
100
AcDbLine
 10
-535.0652295960735
 20
124.9587767371689
 30
0.0
 11
-535.0652295960735
 21
144.9587767371689
 31
0.0
  0
LINE
  5
114E
330
2
100
AcDbEntity
  8
画層1
370
    20
100
AcDbLine
 10
-525.0652295960735
 20
144.9587767371689
 30
0.0
 11
-525.0652295960735
 21
124.9587767371689
 31
0.0
  0
LINE
  5
114F
330
2
100
AcDbEntity
  8
画層1
370
    20
100
AcDbLine
 10
-535.0652295960735
 20
144.9587767371689
 30
0.0
 11
-525.0652295960735
 21
144.9587767371689
 31
0.0
  0
LINE
  5
1150
330
2
100
AcDbEntity
  8
画層1
370
    20
100
AcDbLine
 10
-616.0652295960735
 20
144.9587767371689
 30
0.0
 11
-616.0652295960735
 21
124.9587767371689
 31
0.0
  0
LINE
  5
1151
330
2
100
AcDbEntity
  8
画層1
370
    20
100
AcDbLine
 10
-626.0652295960735
 20
124.9587767371689
 30
0.0
 11
-626.0652295960735
 21
144.9587767371689
 31
0.0
  0
LINE
  5
1152
330
2
100
AcDbEntity
  8
画層1
370
    20
100
AcDbLine
 10
-616.0652295960735
 20
124.9587767371689
 30
0.0
 11
-626.0652295960735
 21
124.9587767371689
 31
0.0
  0
LINE
  5
1153
330
2
100
AcDbEntity
  8
画層1
370
    20
100
AcDbLine
 10
-626.0652295960735
 20
144.9587767371689
 30
0.0
 11
-616.0652295960735
 21
144.9587767371689
 31
0.0
  0
LINE
  5
1158
330
2
100
AcDbEntity
  8
画層1
370
    20
100
AcDbLine
 10
-525.0652295960735
 20
122.9587767371689
 30
0.0
 11
-525.0652295960735
 21
146.9587767371689
 31
0.0
  0
LINE
  5
115A
330
2
100
AcDbEntity
  8
画層1
370
    20
100
AcDbLine
 10
-626.0652295960735
 20
146.9587767371689
 30
0.0
 11
-626.0652295960735
 21
122.9587767371689
 31
0.0
  0
LINE
  5
1161
330
2
100
AcDbEntity
  8
画層1
370
    20
100
AcDbLine
 10
-616.0652295960735
 20
144.9587767371689
 30
0.0
 11
-616.0652295960735
 21
145.9587767371689
 31
0.0
  0
LINE
  5
1162
330
2
100
AcDbEntity
  8
画層1
370
    20
100
AcDbLine
 10
-615.0652295960735
 20
146.9587767371689
 30
0.0
 11
-614.0652295960735
 21
146.9587767371689
 31
0.0
  0
LINE
  5
1163
330
2
100
AcDbEntity
  8
画層1
370
    20
100
AcDbLine
 10
-613.0652295960735
 20
145.9587767371689
 30
0.0
 11
-613.0652295960735
 21
144.9587767371689
 31
0.0
  0
ARC
  5
1164
330
2
100
AcDbEntity
  8
画層1
370
    20
100
AcDbCircle
 10
-615.0652295960735
 20
145.9587767371689
 30
0.0
 40
1.0
100
AcDbArc
 50
90.0
 51
180.0
  0
ARC
  5
1165
330
2
100
AcDbEntity
  8
画層1
370
    20
100
AcDbCircle
 10
-614.0652295960735
 20
145.9587767371689
 30
0.0
 40
1.0
100
AcDbArc
 50
0.0
 51
90.0
  0
LINE
  5
1166
330
2
100
AcDbEntity
  8
画層1
370
    20
100
AcDbLine
 10
-600.0652295960735
 20
145.9587767371689
 30
0.0
 11
-600.0652295960735
 21
144.9587767371689
 31
0.0
  0
LINE
  5
1167
330
2
100
AcDbEntity
  8
画層1
370
    20
100
AcDbLine
 10
-602.0652295960736
 20
146.9587767371689
 30
0.0
 11
-601.0652295960735
 21
146.9587767371689
 31
0.0
  0
ARC
  5
1168
330
2
100
AcDbEntity
  8
画層1
370
    20
100
AcDbCircle
 10
-601.0652295960735
 20
145.9587767371689
 30
0.0
 40
1.0
100
AcDbArc
 50
0.0
 51
90.0
  0
LINE
  5
1169
330
2
100
AcDbEntity
  8
画層1
370
    20
100
AcDbLine
 10
-603.0652295960735
 20
144.9587767371689
 30
0.0
 11
-603.0652295960735
 21
145.9587767371689
 31
0.0
  0
ARC
  5
116A
330
2
100
AcDbEntity
  8
画層1
370
    20
100
AcDbCircle
 10
-602.0652295960736
 20
145.9587767371689
 30
0.0
 40
1.0
100
AcDbArc
 50
90.0
 51
180.0
  0
LINE
  5
116B
330
2
100
AcDbEntity
  8
画層1
370
    20
100
AcDbLine
 10
-589.0652295960735
 20
146.9587767371689
 30
0.0
 11
-588.0652295960735
 21
146.9587767371689
 31
0.0
  0
ARC
  5
116C
330
2
100
AcDbEntity
  8
画層1
370
    20
100
AcDbCircle
 10
-589.0652295960735
 20
145.9587767371689
 30
0.0
 40
1.0
100
AcDbArc
 50
90.0
 51
180.0
  0
LINE
  5
116D
330
2
100
AcDbEntity
  8
画層1
370
    20
100
AcDbLine
 10
-590.0652295960735
 20
144.9587767371689
 30
0.0
 11
-590.0652295960735
 21
145.9587767371689
 31
0.0
  0
ARC
  5
116E
330
2
100
AcDbEntity
  8
画層1
370
    20
100
AcDbCircle
 10
-588.0652295960735
 20
145.9587767371689
 30
0.0
 40
1.0
100
AcDbArc
 50
0.0
 51
90.0
  0
LINE
  5
116F
330
2
100
AcDbEntity
  8
画層1
370
    20
100
AcDbLine
 10
-587.0652295960735
 20
145.9587767371689
 30
0.0
 11
-587.0652295960735
 21
144.9587767371689
 31
0.0
  0
ARC
  5
1170
330
2
100
AcDbEntity
  8
画層1
370
    20
100
AcDbCircle
 10
-576.0652295960735
 20
145.9587767371689
 30
0.0
 40
1.0
100
AcDbArc
 50
90.0
 51
180.0
  0
LINE
  5
1171
330
2
100
AcDbEntity
  8
画層1
370
    20
100
AcDbLine
 10
-577.0652295960736
 20
144.9587767371689
 30
0.0
 11
-577.0652295960736
 21
145.9587767371689
 31
0.0
  0
LINE
  5
1172
330
2
100
AcDbEntity
  8
画層1
370
    20
100
AcDbLine
 10
-574.0652295960735
 20
145.9587767371689
 30
0.0
 11
-574.0652295960735
 21
144.9587767371689
 31
0.0
  0
ARC
  5
1173
330
2
100
AcDbEntity
  8
画層1
370
    20
100
AcDbCircle
 10
-575.0652295960735
 20
145.9587767371689
 30
0.0
 40
1.0
100
AcDbArc
 50
0.0
 51
90.0
  0
LINE
  5
1174
330
2
100
AcDbEntity
  8
画層1
370
    20
100
AcDbLine
 10
-576.0652295960735
 20
146.9587767371689
 30
0.0
 11
-575.0652295960735
 21
146.9587767371689
 31
0.0
  0
LINE
  5
1175
330
2
100
AcDbEntity
  8
画層1
370
    20
100
AcDbLine
 10
-563.0652295960735
 20
146.9587767371689
 30
0.0
 11
-562.0652295960735
 21
146.9587767371689
 31
0.0
  0
ARC
  5
1176
330
2
100
AcDbEntity
  8
画層1
370
    20
100
AcDbCircle
 10
-562.0652295960735
 20
145.9587767371689
 30
0.0
 40
1.0
100
AcDbArc
 50
0.0
 51
90.0
  0
LINE
  5
1177
330
2
100
AcDbEntity
  8
画層1
370
    20
100
AcDbLine
 10
-561.0652295960735
 20
145.9587767371689
 30
0.0
 11
-561.0652295960735
 21
144.9587767371689
 31
0.0
  0
LINE
  5
1178
330
2
100
AcDbEntity
  8
画層1
370
    20
100
AcDbLine
 10
-564.0652295960735
 20
144.9587767371689
 30
0.0
 11
-564.0652295960735
 21
145.9587767371689
 31
0.0
  0
ARC
  5
1179
330
2
100
AcDbEntity
  8
画層1
370
    20
100
AcDbCircle
 10
-563.0652295960735
 20
145.9587767371689
 30
0.0
 40
1.0
100
AcDbArc
 50
90.0
 51
180.0
  0
ARC
  5
117A
330
2
100
AcDbEntity
  8
画層1
370
    20
100
AcDbCircle
 10
-550.0652295960735
 20
145.9587767371689
 30
0.0
 40
1.0
100
AcDbArc
 50
90.0
 51
180.0
  0
LINE
  5
117B
330
2
100
AcDbEntity
  8
画層1
370
    20
100
AcDbLine
 10
-551.0652295960735
 20
144.9587767371689
 30
0.0
 11
-551.0652295960735
 21
145.9587767371689
 31
0.0
  0
LINE
  5
117C
330
2
100
AcDbEntity
  8
画層1
370
    20
100
AcDbLine
 10
-548.0652295960735
 20
145.9587767371689
 30
0.0
 11
-548.0652295960735
 21
144.9587767371689
 31
0.0
  0
ARC
  5
117D
330
2
100
AcDbEntity
  8
画層1
370
    20
100
AcDbCircle
 10
-549.0652295960735
 20
145.9587767371689
 30
0.0
 40
1.0
100
AcDbArc
 50
0.0
 51
90.0
  0
LINE
  5
117E
330
2
100
AcDbEntity
  8
画層1
370
    20
100
AcDbLine
 10
-550.0652295960735
 20
146.9587767371689
 30
0.0
 11
-549.0652295960735
 21
146.9587767371689
 31
0.0
  0
LINE
  5
117F
330
2
100
AcDbEntity
  8
画層1
370
    20
100
AcDbLine
 10
-537.0652295960735
 20
146.9587767371689
 30
0.0
 11
-536.0652295960735
 21
146.9587767371689
 31
0.0
  0
ARC
  5
1180
330
2
100
AcDbEntity
  8
画層1
370
    20
100
AcDbCircle
 10
-536.0652295960735
 20
145.9587767371689
 30
0.0
 40
1.0
100
AcDbArc
 50
0.0
 51
90.0
  0
LINE
  5
1181
330
2
100
AcDbEntity
  8
画層1
370
    20
100
AcDbLine
 10
-535.0652295960735
 20
145.9587767371689
 30
0.0
 11
-535.0652295960735
 21
144.9587767371689
 31
0.0
  0
LINE
  5
1182
330
2
100
AcDbEntity
  8
画層1
370
    20
100
AcDbLine
 10
-538.0652295960735
 20
144.9587767371689
 30
0.0
 11
-538.0652295960735
 21
145.9587767371689
 31
0.0
  0
ARC
  5
1183
330
2
100
AcDbEntity
  8
画層1
370
    20
100
AcDbCircle
 10
-537.0652295960735
 20
145.9587767371689
 30
0.0
 40
1.0
100
AcDbArc
 50
90.0
 51
180.0
  0
LINE
  5
1184
330
2
100
AcDbEntity
  8
画層1
370
    20
100
AcDbLine
 10
-626.0652295960735
 20
146.9587767371689
 30
0.0
 11
-525.0652295960735
 21
146.9587767371689
 31
0.0
  0
ARC
  5
118B
330
2
100
AcDbEntity
  8
画層1
370
    20
100
AcDbCircle
 10
-537.0652295960735
 20
123.9587767371689
 30
0.0
 40
1.0
100
AcDbArc
 50
180.0
 51
270.0
  0
LINE
  5
118C
330
2
100
AcDbEntity
  8
画層1
370
    20
100
AcDbLine
 10
-538.0652295960735
 20
124.9587767371689
 30
0.0
 11
-538.0652295960735
 21
123.9587767371689
 31
0.0
  0
LINE
  5
118D
330
2
100
AcDbEntity
  8
画層1
370
    20
100
AcDbLine
 10
-535.0652295960735
 20
123.9587767371689
 30
0.0
 11
-535.0652295960735
 21
124.9587767371689
 31
0.0
  0
ARC
  5
118E
330
2
100
AcDbEntity
  8
画層1
370
    20
100
AcDbCircle
 10
-536.0652295960735
 20
123.9587767371689
 30
0.0
 40
1.0
100
AcDbArc
 50
270.0
 51
0.0
  0
LINE
  5
118F
330
2
100
AcDbEntity
  8
画層1
370
    20
100
AcDbLine
 10
-537.0652295960735
 20
122.9587767371689
 30
0.0
 11
-536.0652295960735
 21
122.9587767371689
 31
0.0
  0
LINE
  5
1190
330
2
100
AcDbEntity
  8
画層1
370
    20
100
AcDbLine
 10
-551.0652295960735
 20
124.9587767371689
 30
0.0
 11
-551.0652295960735
 21
123.9587767371689
 31
0.0
  0
LINE
  5
1191
330
2
100
AcDbEntity
  8
画層1
370
    20
100
AcDbLine
 10
-548.0652295960735
 20
123.9587767371689
 30
0.0
 11
-548.0652295960735
 21
124.9587767371689
 31
0.0
  0
ARC
  5
1192
330
2
100
AcDbEntity
  8
画層1
370
    20
100
AcDbCircle
 10
-550.0652295960735
 20
123.9587767371689
 30
0.0
 40
1.0
100
AcDbArc
 50
180.0
 51
270.0
  0
ARC
  5
1193
330
2
100
AcDbEntity
  8
画層1
370
    20
100
AcDbCircle
 10
-549.0652295960735
 20
123.9587767371689
 30
0.0
 40
1.0
100
AcDbArc
 50
270.0
 51
0.0
  0
LINE
  5
1194
330
2
100
AcDbEntity
  8
画層1
370
    20
100
AcDbLine
 10
-550.0652295960735
 20
122.9587767371689
 30
0.0
 11
-549.0652295960735
 21
122.9587767371689
 31
0.0
  0
LINE
  5
1195
330
2
100
AcDbEntity
  8
画層1
370
    20
100
AcDbLine
 10
-561.0652295960735
 20
123.9587767371689
 30
0.0
 11
-561.0652295960735
 21
124.9587767371689
 31
0.0
  0
LINE
  5
1196
330
2
100
AcDbEntity
  8
画層1
370
    20
100
AcDbLine
 10
-564.0652295960735
 20
124.9587767371689
 30
0.0
 11
-564.0652295960735
 21
123.9587767371689
 31
0.0
  0
LINE
  5
1197
330
2
100
AcDbEntity
  8
画層1
370
    20
100
AcDbLine
 10
-563.0652295960735
 20
122.9587767371689
 30
0.0
 11
-562.0652295960735
 21
122.9587767371689
 31
0.0
  0
ARC
  5
1198
330
2
100
AcDbEntity
  8
画層1
370
    20
100
AcDbCircle
 10
-562.0652295960735
 20
123.9587767371689
 30
0.0
 40
1.0
100
AcDbArc
 50
270.0
 51
0.0
  0
ARC
  5
1199
330
2
100
AcDbEntity
  8
画層1
370
    20
100
AcDbCircle
 10
-563.0652295960735
 20
123.9587767371689
 30
0.0
 40
1.0
100
AcDbArc
 50
180.0
 51
270.0
  0
LINE
  5
119A
330
2
100
AcDbEntity
  8
画層1
370
    20
100
AcDbLine
 10
-603.0652295960735
 20
124.9587767371689
 30
0.0
 11
-603.0652295960735
 21
123.9587767371689
 31
0.0
  0
LINE
  5
119B
330
2
100
AcDbEntity
  8
画層1
370
    20
100
AcDbLine
 10
-600.0652295960735
 20
123.9587767371689
 30
0.0
 11
-600.0652295960735
 21
124.9587767371689
 31
0.0
  0
ARC
  5
119C
330
2
100
AcDbEntity
  8
画層1
370
    20
100
AcDbCircle
 10
-602.0652295960736
 20
123.9587767371689
 30
0.0
 40
1.0
100
AcDbArc
 50
180.0
 51
270.0
  0
ARC
  5
119D
330
2
100
AcDbEntity
  8
画層1
370
    20
100
AcDbCircle
 10
-601.0652295960735
 20
123.9587767371689
 30
0.0
 40
1.0
100
AcDbArc
 50
270.0
 51
0.0
  0
LINE
  5
119E
330
2
100
AcDbEntity
  8
画層1
370
    20
100
AcDbLine
 10
-602.0652295960736
 20
122.9587767371689
 30
0.0
 11
-601.0652295960735
 21
122.9587767371689
 31
0.0
  0
LINE
  5
119F
330
2
100
AcDbEntity
  8
画層1
370
    20
100
AcDbLine
 10
-587.0652295960735
 20
123.9587767371689
 30
0.0
 11
-587.0652295960735
 21
124.9587767371689
 31
0.0
  0
LINE
  5
11A0
330
2
100
AcDbEntity
  8
画層1
370
    20
100
AcDbLine
 10
-590.0652295960735
 20
124.9587767371689
 30
0.0
 11
-590.0652295960735
 21
123.9587767371689
 31
0.0
  0
LINE
  5
11A1
330
2
100
AcDbEntity
  8
画層1
370
    20
100
AcDbLine
 10
-589.0652295960735
 20
122.9587767371689
 30
0.0
 11
-588.0652295960735
 21
122.9587767371689
 31
0.0
  0
ARC
  5
11A2
330
2
100
AcDbEntity
  8
画層1
370
    20
100
AcDbCircle
 10
-588.0652295960735
 20
123.9587767371689
 30
0.0
 40
1.0
100
AcDbArc
 50
270.0
 51
0.0
  0
ARC
  5
11A3
330
2
100
AcDbEntity
  8
画層1
370
    20
100
AcDbCircle
 10
-589.0652295960735
 20
123.9587767371689
 30
0.0
 40
1.0
100
AcDbArc
 50
180.0
 51
270.0
  0
LINE
  5
11A4
330
2
100
AcDbEntity
  8
画層1
370
    20
100
AcDbLine
 10
-577.0652295960736
 20
124.9587767371689
 30
0.0
 11
-577.0652295960736
 21
123.9587767371689
 31
0.0
  0
LINE
  5
11A5
330
2
100
AcDbEntity
  8
画層1
370
    20
100
AcDbLine
 10
-574.0652295960735
 20
123.9587767371689
 30
0.0
 11
-574.0652295960735
 21
124.9587767371689
 31
0.0
  0
ARC
  5
11A6
330
2
100
AcDbEntity
  8
画層1
370
    20
100
AcDbCircle
 10
-576.0652295960735
 20
123.9587767371689
 30
0.0
 40
1.0
100
AcDbArc
 50
180.0
 51
270.0
  0
ARC
  5
11A7
330
2
100
AcDbEntity
  8
画層1
370
    20
100
AcDbCircle
 10
-575.0652295960735
 20
123.9587767371689
 30
0.0
 40
1.0
100
AcDbArc
 50
270.0
 51
0.0
  0
LINE
  5
11A8
330
2
100
AcDbEntity
  8
画層1
370
    20
100
AcDbLine
 10
-576.0652295960735
 20
122.9587767371689
 30
0.0
 11
-575.0652295960735
 21
122.9587767371689
 31
0.0
  0
LINE
  5
11A9
330
2
100
AcDbEntity
  8
画層1
370
    20
100
AcDbLine
 10
-613.0652295960735
 20
123.9587767371689
 30
0.0
 11
-613.0652295960735
 21
124.9587767371689
 31
0.0
  0
LINE
  5
11AA
330
2
100
AcDbEntity
  8
画層1
370
    20
100
AcDbLine
 10
-616.0652295960735
 20
124.9587767371689
 30
0.0
 11
-616.0652295960735
 21
123.9587767371689
 31
0.0
  0
LINE
  5
11AB
330
2
100
AcDbEntity
  8
画層1
370
    20
100
AcDbLine
 10
-615.0652295960735
 20
122.9587767371689
 30
0.0
 11
-614.0652295960735
 21
122.9587767371689
 31
0.0
  0
ARC
  5
11AC
330
2
100
AcDbEntity
  8
画層1
370
    20
100
AcDbCircle
 10
-615.0652295960735
 20
123.9587767371689
 30
0.0
 40
1.0
100
AcDbArc
 50
180.0
 51
270.0
  0
ARC
  5
11AD
330
2
100
AcDbEntity
  8
画層1
370
    20
100
AcDbCircle
 10
-614.0652295960735
 20
123.9587767371689
 30
0.0
 40
1.0
100
AcDbArc
 50
270.0
 51
0.0
  0
LINE
  5
11AE
330
2
100
AcDbEntity
  8
画層1
370
    20
100
AcDbLine
 10
-626.0652295960735
 20
122.9587767371689
 30
0.0
 11
-525.0652295960735
 21
122.9587767371689
 31
0.0
  0
CIRCLE
  5
11B2
330
2
100
AcDbEntity
  8
画層1
370
    20
100
AcDbCircle
 10
-621.0652295960735
 20
134.9587767371689
 30
0.0
 40
2.5
  0
CIRCLE
  5
11B3
330
2
100
AcDbEntity
  8
画層1
370
    20
100
AcDbCircle
 10
-530.0652295960735
 20
134.9587767371689
 30
0.0
 40
2.5
  0
CIRCLE
  5
11B9
330
2
100
AcDbEntity
  8
画層1
370
    20
100
AcDbCircle
 10
-621.5652295960735
 20
336.9587767371689
 30
0.0
 40
4.0
  0
CIRCLE
  5
11BB
330
2
100
AcDbEntity
  8
画層1
370
    20
100
AcDbCircle
 10
-621.5652295960735
 20
336.9587767371689
 30
0.0
 40
3.0
  0
LINE
  5
11BC
330
2
100
AcDbEntity
  8
画層1
370
    20
100
AcDbLine
 10
-622.0670997102823
 20
336.3854908631551
 30
0.0
 11
-622.0670997102823
 21
335.3854908631551
 31
0.0
  0
LINE
  5
11BD
330
2
100
AcDbEntity
  8
画層1
370
    20
100
AcDbLine
 10
-621.0670997102823
 20
335.3854908631551
 30
0.0
 11
-621.0670997102823
 21
336.3854908631551
 31
0.0
  0
LINE
  5
11BE
330
2
100
AcDbEntity
  8
画層1
370
    20
100
AcDbLine
 10
-622.0670997102823
 20
335.3854908631551
 30
0.0
 11
-621.0670997102823
 21
335.3854908631551
 31
0.0
  0
LINE
  5
11BF
330
2
100
AcDbEntity
  8
画層1
370
    20
100
AcDbLine
 10
-620.0670997102823
 20
336.3854908631551
 30
0.0
 11
-620.0670997102823
 21
337.3854908631551
 31
0.0
  0
LINE
  5
11C0
330
2
100
AcDbEntity
  8
画層1
370
    20
100
AcDbLine
 10
-622.0670997102823
 20
338.3854908631551
 30
0.0
 11
-622.0670997102823
 21
337.3854908631551
 31
0.0
  0
LINE
  5
11C1
330
2
100
AcDbEntity
  8
画層1
370
    20
100
AcDbLine
 10
-621.0670997102823
 20
337.3854908631551
 30
0.0
 11
-621.0670997102823
 21
338.3854908631551
 31
0.0
  0
LINE
  5
11C2
330
2
100
AcDbEntity
  8
画層1
370
    20
100
AcDbLine
 10
-621.0670997102823
 20
338.3854908631551
 30
0.0
 11
-622.0670997102823
 21
338.3854908631551
 31
0.0
  0
LINE
  5
11C3
330
2
100
AcDbEntity
  8
画層1
370
    20
100
AcDbLine
 10
-621.0670997102823
 20
336.3854908631551
 30
0.0
 11
-620.0670997102823
 21
336.3854908631551
 31
0.0
  0
LINE
  5
11C4
330
2
100
AcDbEntity
  8
画層1
370
    20
100
AcDbLine
 10
-620.0670997102823
 20
337.3854908631551
 30
0.0
 11
-621.0670997102823
 21
337.3854908631551
 31
0.0
  0
LINE
  5
11C5
330
2
100
AcDbEntity
  8
画層1
370
    20
100
AcDbLine
 10
-622.0670997102823
 20
337.3854908631551
 30
0.0
 11
-623.0670997102824
 21
337.3854908631551
 31
0.0
  0
LINE
  5
11C6
330
2
100
AcDbEntity
  8
画層1
370
    20
100
AcDbLine
 10
-623.0670997102824
 20
337.3854908631551
 30
0.0
 11
-623.0670997102824
 21
336.3854908631551
 31
0.0
  0
LINE
  5
11C7
330
2
100
AcDbEntity
  8
画層1
370
    20
100
AcDbLine
 10
-623.0670997102824
 20
336.3854908631551
 30
0.0
 11
-622.0670997102823
 21
336.3854908631551
 31
0.0
  0
LINE
  5
11CB
330
2
100
AcDbEntity
  8
画層1
370
    20
100
AcDbLine
 10
-626.5652295960735
 20
332.4587767371689
 30
0.0
 11
-626.5652295960735
 21
338.958776737169
 31
0.0
  0
LINE
  5
11CD
330
2
100
AcDbEntity
  8
画層1
370
    20
100
AcDbLine
 10
-501.5652295960735
 20
332.4587767371689
 30
0.0
 11
-501.5652295960735
 21
338.958776737169
 31
0.0
  0
LINE
  5
11CE
330
2
100
AcDbEntity
  8
画層1
370
    20
100
AcDbLine
 10
-503.5652295960735
 20
340.958776737169
 30
0.0
 11
-624.5652295960735
 21
340.958776737169
 31
0.0
  0
ARC
  5
11CF
330
2
100
AcDbEntity
  8
画層1
370
    20
100
AcDbCircle
 10
-503.5652295960735
 20
338.958776737169
 30
0.0
 40
2.0
100
AcDbArc
 50
0.0
 51
90.0
  0
ARC
  5
11D0
330
2
100
AcDbEntity
  8
画層1
370
    20
100
AcDbCircle
 10
-624.5652295960735
 20
338.958776737169
 30
0.0
 40
2.0
100
AcDbArc
 50
90.00000000000003
 51
180.0
  0
CIRCLE
  5
11D1
330
2
100
AcDbEntity
  8
画層1
370
    20
100
AcDbCircle
 10
-506.5652295960735
 20
336.9587767371689
 30
0.0
 40
3.0
  0
LINE
  5
11D2
330
2
100
AcDbEntity
  8
画層1
370
    20
100
AcDbLine
 10
-507.0670997102824
 20
336.3854908631551
 30
0.0
 11
-507.0670997102824
 21
335.3854908631551
 31
0.0
  0
LINE
  5
11D3
330
2
100
AcDbEntity
  8
画層1
370
    20
100
AcDbLine
 10
-506.0670997102824
 20
335.3854908631551
 30
0.0
 11
-506.0670997102824
 21
336.3854908631551
 31
0.0
  0
LINE
  5
11D4
330
2
100
AcDbEntity
  8
画層1
370
    20
100
AcDbLine
 10
-507.0670997102824
 20
335.3854908631551
 30
0.0
 11
-506.0670997102824
 21
335.3854908631551
 31
0.0
  0
LINE
  5
11D5
330
2
100
AcDbEntity
  8
画層1
370
    20
100
AcDbLine
 10
-505.0670997102823
 20
336.3854908631551
 30
0.0
 11
-505.0670997102823
 21
337.3854908631551
 31
0.0
  0
LINE
  5
11D6
330
2
100
AcDbEntity
  8
画層1
370
    20
100
AcDbLine
 10
-507.0670997102824
 20
338.3854908631551
 30
0.0
 11
-507.0670997102824
 21
337.3854908631551
 31
0.0
  0
LINE
  5
11D7
330
2
100
AcDbEntity
  8
画層1
370
    20
100
AcDbLine
 10
-506.0670997102824
 20
337.3854908631551
 30
0.0
 11
-506.0670997102824
 21
338.3854908631551
 31
0.0
  0
LINE
  5
11D8
330
2
100
AcDbEntity
  8
画層1
370
    20
100
AcDbLine
 10
-506.0670997102824
 20
338.3854908631551
 30
0.0
 11
-507.0670997102824
 21
338.3854908631551
 31
0.0
  0
LINE
  5
11D9
330
2
100
AcDbEntity
  8
画層1
370
    20
100
AcDbLine
 10
-506.0670997102824
 20
336.3854908631551
 30
0.0
 11
-505.0670997102823
 21
336.3854908631551
 31
0.0
  0
LINE
  5
11DA
330
2
100
AcDbEntity
  8
画層1
370
    20
100
AcDbLine
 10
-505.0670997102823
 20
337.3854908631551
 30
0.0
 11
-506.0670997102824
 21
337.3854908631551
 31
0.0
  0
LINE
  5
11DB
330
2
100
AcDbEntity
  8
画層1
370
    20
100
AcDbLine
 10
-507.0670997102824
 20
337.3854908631551
 30
0.0
 11
-508.0670997102823
 21
337.3854908631551
 31
0.0
  0
LINE
  5
11DC
330
2
100
AcDbEntity
  8
画層1
370
    20
100
AcDbLine
 10
-508.0670997102823
 20
337.3854908631551
 30
0.0
 11
-508.0670997102823
 21
336.3854908631551
 31
0.0
  0
LINE
  5
11DD
330
2
100
AcDbEntity
  8
画層1
370
    20
100
AcDbLine
 10
-508.0670997102823
 20
336.3854908631551
 30
0.0
 11
-507.0670997102824
 21
336.3854908631551
 31
0.0
  0
CIRCLE
  5
11DE
330
2
100
AcDbEntity
  8
画層1
370
    20
100
AcDbCircle
 10
-506.5652295960735
 20
336.9587767371689
 30
0.0
 40
4.0
  0
LINE
  5
11DF
330
2
100
AcDbEntity
  8
画層1
370
    20
100
AcDbLine
 10
-626.5652295960735
 20
332.4587767371689
 30
0.0
 11
-501.5652295960735
 21
332.4587767371689
 31
0.0
  0
XLINE
  5
11E5
330
2
100
AcDbEntity
  8
画層1
 62
     1
370
    20
100
AcDbXline
 10
-1255.130459192147
 20
493.4175534743379
 30
0.0
 11
0.0
 21
-1.0
 31
0.0
  0
LINE
  5
11E8
330
2
100
AcDbEntity
  8
画層1
370
    20
100
AcDbLine
 10
-501.5652295960735
 20
169.458776737169
 30
0.0
 11
-501.5652295960735
 21
162.9587767371689
 31
0.0
  0
LINE
  5
11E9
330
2
100
AcDbEntity
  8
画層1
370
    20
100
AcDbLine
 10
-503.5652295960735
 20
160.9587767371689
 30
0.0
 11
-624.5652295960735
 21
160.958776737169
 31
0.0
  0
LINE
  5
11EA
330
2
100
AcDbEntity
  8
画層1
370
    20
100
AcDbLine
 10
-626.5652295960735
 20
162.958776737169
 30
0.0
 11
-626.5652295960735
 21
169.458776737169
 31
0.0
  0
ARC
  5
11EB
330
2
100
AcDbEntity
  8
画層1
370
    20
100
AcDbCircle
 10
-624.5652295960735
 20
162.958776737169
 30
0.0
 40
2.0
100
AcDbArc
 50
180.0
 51
270.0
  0
ARC
  5
11EC
330
2
100
AcDbEntity
  8
画層1
370
    20
100
AcDbCircle
 10
-503.5652295960735
 20
162.9587767371689
 30
0.0
 40
2.0
100
AcDbArc
 50
270.0
 51
0.0
  0
LINE
  5
11ED
330
2
100
AcDbEntity
  8
画層1
370
    20
100
AcDbLine
 10
-626.5652295960735
 20
169.458776737169
 30
0.0
 11
-501.5652295960735
 21
169.458776737169
 31
0.0
  0
LINE
  5
11EE
330
2
100
AcDbEntity
  8
画層1
370
    20
100
AcDbLine
 10
-626.5652295960735
 20
332.4587767371689
 30
0.0
 11
-501.5652295960735
 21
332.4587767371689
 31
0.0
  0
LINE
  5
11F2
330
2
100
AcDbEntity
  8
画層1
370
    20
100
AcDbLine
 10
-627.5652295960735
 20
330.9587767371689
 30
0.0
 11
-627.5652295960735
 21
170.9587767371689
 31
0.0
  0
LINE
  5
11F3
330
2
100
AcDbEntity
  8
画層1
370
    20
100
AcDbLine
 10
-500.5652295960735
 20
170.9587767371689
 30
0.0
 11
-500.5652295960735
 21
330.9587767371689
 31
0.0
  0
LINE
  5
11F7
330
2
100
AcDbEntity
  8
画層1
370
    20
100
AcDbLine
 10
-501.5652295960735
 20
332.4587767371689
 30
0.0
 11
-501.5652295960735
 21
330.9587767371689
 31
0.0
  0
LINE
  5
11F8
330
2
100
AcDbEntity
  8
画層1
370
    20
100
AcDbLine
 10
-501.5652295960735
 20
330.9587767371689
 30
0.0
 11
-500.5652295960735
 21
330.9587767371689
 31
0.0
  0
LINE
  5
11FB
330
2
100
AcDbEntity
  8
画層1
370
    20
100
AcDbLine
 10
-627.5652295960735
 20
330.9587767371689
 30
0.0
 11
-626.5652295960735
 21
330.9587767371689
 31
0.0
  0
LINE
  5
11FC
330
2
100
AcDbEntity
  8
画層1
370
    20
100
AcDbLine
 10
-626.5652295960735
 20
330.9587767371689
 30
0.0
 11
-626.5652295960735
 21
332.4587767371689
 31
0.0
  0
LINE
  5
11FE
330
2
100
AcDbEntity
  8
画層1
370
    20
100
AcDbLine
 10
-627.5652295960735
 20
170.9587767371689
 30
0.0
 11
-626.5652295960735
 21
170.9587767371689
 31
0.0
  0
LINE
  5
11FF
330
2
100
AcDbEntity
  8
画層1
370
    20
100
AcDbLine
 10
-626.5652295960735
 20
170.9587767371689
 30
0.0
 11
-626.5652295960735
 21
169.458776737169
 31
0.0
  0
LINE
  5
1200
330
2
100
AcDbEntity
  8
画層1
370
    20
100
AcDbLine
 10
-500.5652295960735
 20
170.9587767371689
 30
0.0
 11
-501.5652295960735
 21
170.9587767371689
 31
0.0
  0
LINE
  5
1201
330
2
100
AcDbEntity
  8
画層1
370
    20
100
AcDbLine
 10
-501.5652295960735
 20
170.9587767371689
 30
0.0
 11
-501.5652295960735
 21
169.458776737169
 31
0.0
  0
LINE
  5
1202
330
2
100
AcDbEntity
  8
画層1
370
    20
100
AcDbLine
 10
-506.0670997102824
 20
163.385490863155
 30
0.0
 11
-506.0670997102824
 21
164.3854908631551
 31
0.0
  0
LINE
  5
1203
330
2
100
AcDbEntity
  8
画層1
370
    20
100
AcDbLine
 10
-507.0670997102824
 20
164.3854908631551
 30
0.0
 11
-507.0670997102824
 21
163.385490863155
 31
0.0
  0
LINE
  5
1204
330
2
100
AcDbEntity
  8
画層1
370
    20
100
AcDbLine
 10
-507.0670997102824
 20
163.385490863155
 30
0.0
 11
-506.0670997102824
 21
163.385490863155
 31
0.0
  0
LINE
  5
1205
330
2
100
AcDbEntity
  8
画層1
370
    20
100
AcDbLine
 10
-508.0670997102823
 20
164.3854908631551
 30
0.0
 11
-507.0670997102824
 21
164.3854908631551
 31
0.0
  0
LINE
  5
1206
330
2
100
AcDbEntity
  8
画層1
370
    20
100
AcDbLine
 10
-508.0670997102823
 20
165.3854908631551
 30
0.0
 11
-508.0670997102823
 21
164.3854908631551
 31
0.0
  0
LINE
  5
1207
330
2
100
AcDbEntity
  8
画層1
370
    20
100
AcDbLine
 10
-507.0670997102824
 20
165.3854908631551
 30
0.0
 11
-508.0670997102823
 21
165.3854908631551
 31
0.0
  0
LINE
  5
1208
330
2
100
AcDbEntity
  8
画層1
370
    20
100
AcDbLine
 10
-505.0670997102823
 20
165.3854908631551
 30
0.0
 11
-506.0670997102824
 21
165.3854908631551
 31
0.0
  0
LINE
  5
1209
330
2
100
AcDbEntity
  8
画層1
370
    20
100
AcDbLine
 10
-506.0670997102824
 20
164.3854908631551
 30
0.0
 11
-505.0670997102823
 21
164.3854908631551
 31
0.0
  0
LINE
  5
120A
330
2
100
AcDbEntity
  8
画層1
370
    20
100
AcDbLine
 10
-506.0670997102824
 20
166.3854908631551
 30
0.0
 11
-507.0670997102824
 21
166.3854908631551
 31
0.0
  0
LINE
  5
120B
330
2
100
AcDbEntity
  8
画層1
370
    20
100
AcDbLine
 10
-506.0670997102824
 20
165.3854908631551
 30
0.0
 11
-506.0670997102824
 21
166.3854908631551
 31
0.0
  0
LINE
  5
120C
330
2
100
AcDbEntity
  8
画層1
370
    20
100
AcDbLine
 10
-507.0670997102824
 20
166.3854908631551
 30
0.0
 11
-507.0670997102824
 21
165.3854908631551
 31
0.0
  0
LINE
  5
120D
330
2
100
AcDbEntity
  8
画層1
370
    20
100
AcDbLine
 10
-505.0670997102823
 20
164.3854908631551
 30
0.0
 11
-505.0670997102823
 21
165.3854908631551
 31
0.0
  0
CIRCLE
  5
120E
330
2
100
AcDbEntity
  8
画層1
370
    20
100
AcDbCircle
 10
-506.5652295960735
 20
164.9587767371689
 30
0.0
 40
4.0
  0
CIRCLE
  5
120F
330
2
100
AcDbEntity
  8
画層1
370
    20
100
AcDbCircle
 10
-506.5652295960735
 20
164.9587767371689
 30
0.0
 40
3.0
  0
CIRCLE
  5
1210
330
2
100
AcDbEntity
  8
画層1
370
    20
100
AcDbCircle
 10
-621.5652295960735
 20
164.9587767371689
 30
0.0
 40
3.0
  0
CIRCLE
  5
1211
330
2
100
AcDbEntity
  8
画層1
370
    20
100
AcDbCircle
 10
-621.5652295960735
 20
164.9587767371689
 30
0.0
 40
4.0
  0
LINE
  5
1212
330
2
100
AcDbEntity
  8
画層1
370
    20
100
AcDbLine
 10
-622.0670997102823
 20
164.3854908631551
 30
0.0
 11
-622.0670997102823
 21
163.385490863155
 31
0.0
  0
LINE
  5
1213
330
2
100
AcDbEntity
  8
画層1
370
    20
100
AcDbLine
 10
-621.0670997102823
 20
163.385490863155
 30
0.0
 11
-621.0670997102823
 21
164.3854908631551
 31
0.0
  0
LINE
  5
1214
330
2
100
AcDbEntity
  8
画層1
370
    20
100
AcDbLine
 10
-622.0670997102823
 20
163.385490863155
 30
0.0
 11
-621.0670997102823
 21
163.385490863155
 31
0.0
  0
LINE
  5
1215
330
2
100
AcDbEntity
  8
画層1
370
    20
100
AcDbLine
 10
-620.0670997102823
 20
164.3854908631551
 30
0.0
 11
-620.0670997102823
 21
165.3854908631551
 31
0.0
  0
LINE
  5
1216
330
2
100
AcDbEntity
  8
画層1
370
    20
100
AcDbLine
 10
-622.0670997102823
 20
166.3854908631551
 30
0.0
 11
-622.0670997102823
 21
165.3854908631551
 31
0.0
  0
LINE
  5
1217
330
2
100
AcDbEntity
  8
画層1
370
    20
100
AcDbLine
 10
-621.0670997102823
 20
165.3854908631551
 30
0.0
 11
-621.0670997102823
 21
166.3854908631551
 31
0.0
  0
LINE
  5
1218
330
2
100
AcDbEntity
  8
画層1
370
    20
100
AcDbLine
 10
-621.0670997102823
 20
166.3854908631551
 30
0.0
 11
-622.0670997102823
 21
166.3854908631551
 31
0.0
  0
LINE
  5
1219
330
2
100
AcDbEntity
  8
画層1
370
    20
100
AcDbLine
 10
-621.0670997102823
 20
164.3854908631551
 30
0.0
 11
-620.0670997102823
 21
164.3854908631551
 31
0.0
  0
LINE
  5
121A
330
2
100
AcDbEntity
  8
画層1
370
    20
100
AcDbLine
 10
-620.0670997102823
 20
165.3854908631551
 30
0.0
 11
-621.0670997102823
 21
165.3854908631551
 31
0.0
  0
LINE
  5
121B
330
2
100
AcDbEntity
  8
画層1
370
    20
100
AcDbLine
 10
-622.0670997102823
 20
165.3854908631551
 30
0.0
 11
-623.0670997102824
 21
165.3854908631551
 31
0.0
  0
LINE
  5
121C
330
2
100
AcDbEntity
  8
画層1
370
    20
100
AcDbLine
 10
-623.0670997102824
 20
165.3854908631551
 30
0.0
 11
-623.0670997102824
 21
164.3854908631551
 31
0.0
  0
LINE
  5
121D
330
2
100
AcDbEntity
  8
画層1
370
    20
100
AcDbLine
 10
-623.0670997102824
 20
164.3854908631551
 30
0.0
 11
-622.0670997102823
 21
164.3854908631551
 31
0.0
  0
CIRCLE
  5
1222
330
2
100
AcDbEntity
  8
画層1
370
    20
100
AcDbCircle
 10
-644.5652295960735
 20
314.958776737169
 30
0.0
 40
5.0
  0
CIRCLE
  5
1223
330
2
100
AcDbEntity
  8
画層1
370
    20
100
AcDbCircle
 10
-644.5652295960735
 20
314.958776737169
 30
0.0
 40
3.0
  0
LINE
  5
1224
330
2
100
AcDbEntity
  8
画層1
370
    20
100
AcDbLine
 10
-645.0670997102823
 20
314.3854908631551
 30
0.0
 11
-645.0670997102823
 21
313.3854908631551
 31
0.0
  0
LINE
  5
1225
330
2
100
AcDbEntity
  8
画層1
370
    20
100
AcDbLine
 10
-644.0670997102824
 20
313.3854908631551
 30
0.0
 11
-644.0670997102824
 21
314.3854908631551
 31
0.0
  0
LINE
  5
1226
330
2
100
AcDbEntity
  8
画層1
370
    20
100
AcDbLine
 10
-645.0670997102823
 20
313.3854908631551
 30
0.0
 11
-644.0670997102824
 21
313.3854908631551
 31
0.0
  0
LINE
  5
1227
330
2
100
AcDbEntity
  8
画層1
370
    20
100
AcDbLine
 10
-643.0670997102823
 20
314.3854908631551
 30
0.0
 11
-643.0670997102823
 21
315.3854908631551
 31
0.0
  0
LINE
  5
1228
330
2
100
AcDbEntity
  8
画層1
370
    20
100
AcDbLine
 10
-645.0670997102823
 20
316.3854908631551
 30
0.0
 11
-645.0670997102823
 21
315.3854908631551
 31
0.0
  0
LINE
  5
1229
330
2
100
AcDbEntity
  8
画層1
370
    20
100
AcDbLine
 10
-644.0670997102824
 20
315.3854908631551
 30
0.0
 11
-644.0670997102824
 21
316.3854908631551
 31
0.0
  0
LINE
  5
122A
330
2
100
AcDbEntity
  8
画層1
370
    20
100
AcDbLine
 10
-644.0670997102824
 20
316.3854908631551
 30
0.0
 11
-645.0670997102823
 21
316.3854908631551
 31
0.0
  0
LINE
  5
122B
330
2
100
AcDbEntity
  8
画層1
370
    20
100
AcDbLine
 10
-644.0670997102824
 20
314.3854908631551
 30
0.0
 11
-643.0670997102823
 21
314.3854908631551
 31
0.0
  0
LINE
  5
122C
330
2
100
AcDbEntity
  8
画層1
370
    20
100
AcDbLine
 10
-643.0670997102823
 20
315.3854908631551
 30
0.0
 11
-644.0670997102824
 21
315.3854908631551
 31
0.0
  0
LINE
  5
122D
330
2
100
AcDbEntity
  8
画層1
370
    20
100
AcDbLine
 10
-645.0670997102823
 20
315.3854908631551
 30
0.0
 11
-646.0670997102823
 21
315.3854908631551
 31
0.0
  0
LINE
  5
122E
330
2
100
AcDbEntity
  8
画層1
370
    20
100
AcDbLine
 10
-646.0670997102823
 20
315.3854908631551
 30
0.0
 11
-646.0670997102823
 21
314.3854908631551
 31
0.0
  0
LINE
  5
122F
330
2
100
AcDbEntity
  8
画層1
370
    20
100
AcDbLine
 10
-646.0670997102823
 20
314.3854908631551
 30
0.0
 11
-645.0670997102823
 21
314.3854908631551
 31
0.0
  0
CIRCLE
  5
1230
330
2
100
AcDbEntity
  8
画層1
370
    20
100
AcDbCircle
 10
-644.5652295960735
 20
176.958776737169
 30
0.0
 40
3.0
  0
CIRCLE
  5
1231
330
2
100
AcDbEntity
  8
画層1
370
    20
100
AcDbCircle
 10
-644.5652295960735
 20
176.958776737169
 30
0.0
 40
5.0
  0
LINE
  5
1232
330
2
100
AcDbEntity
  8
画層1
370
    20
100
AcDbLine
 10
-646.0670997102823
 20
176.385490863155
 30
0.0
 11
-645.0670997102823
 21
176.385490863155
 31
0.0
  0
LINE
  5
1233
330
2
100
AcDbEntity
  8
画層1
370
    20
100
AcDbLine
 10
-645.0670997102823
 20
177.385490863155
 30
0.0
 11
-646.0670997102823
 21
177.385490863155
 31
0.0
  0
LINE
  5
1234
330
2
100
AcDbEntity
  8
画層1
370
    20
100
AcDbLine
 10
-646.0670997102823
 20
177.385490863155
 30
0.0
 11
-646.0670997102823
 21
176.385490863155
 31
0.0
  0
LINE
  5
1235
330
2
100
AcDbEntity
  8
画層1
370
    20
100
AcDbLine
 10
-643.0670997102823
 20
177.385490863155
 30
0.0
 11
-644.0670997102824
 21
177.385490863155
 31
0.0
  0
LINE
  5
1236
330
2
100
AcDbEntity
  8
画層1
370
    20
100
AcDbLine
 10
-644.0670997102824
 20
176.385490863155
 30
0.0
 11
-643.0670997102823
 21
176.385490863155
 31
0.0
  0
LINE
  5
1237
330
2
100
AcDbEntity
  8
画層1
370
    20
100
AcDbLine
 10
-644.0670997102824
 20
178.385490863155
 30
0.0
 11
-645.0670997102823
 21
178.385490863155
 31
0.0
  0
LINE
  5
1238
330
2
100
AcDbEntity
  8
画層1
370
    20
100
AcDbLine
 10
-644.0670997102824
 20
177.385490863155
 30
0.0
 11
-644.0670997102824
 21
178.385490863155
 31
0.0
  0
LINE
  5
1239
330
2
100
AcDbEntity
  8
画層1
370
    20
100
AcDbLine
 10
-645.0670997102823
 20
178.385490863155
 30
0.0
 11
-645.0670997102823
 21
177.385490863155
 31
0.0
  0
LINE
  5
123A
330
2
100
AcDbEntity
  8
画層1
370
    20
100
AcDbLine
 10
-643.0670997102823
 20
176.385490863155
 30
0.0
 11
-643.0670997102823
 21
177.385490863155
 31
0.0
  0
LINE
  5
123B
330
2
100
AcDbEntity
  8
画層1
370
    20
100
AcDbLine
 10
-645.0670997102823
 20
175.385490863155
 30
0.0
 11
-644.0670997102824
 21
175.385490863155
 31
0.0
  0
LINE
  5
123C
330
2
100
AcDbEntity
  8
画層1
370
    20
100
AcDbLine
 10
-644.0670997102824
 20
175.385490863155
 30
0.0
 11
-644.0670997102824
 21
176.385490863155
 31
0.0
  0
LINE
  5
123D
330
2
100
AcDbEntity
  8
画層1
370
    20
100
AcDbLine
 10
-645.0670997102823
 20
176.385490863155
 30
0.0
 11
-645.0670997102823
 21
175.385490863155
 31
0.0
  0
LINE
  5
123E
330
2
100
AcDbEntity
  8
画層1
370
    20
100
AcDbLine
 10
-627.5652295960735
 20
320.958776737169
 30
0.0
 11
-650.5652295960735
 21
320.958776737169
 31
0.0
  0
LINE
  5
123F
330
2
100
AcDbEntity
  8
画層1
370
    20
100
AcDbLine
 10
-650.5652295960735
 20
320.958776737169
 30
0.0
 11
-650.5652295960735
 21
170.9587767371689
 31
0.0
  0
LINE
  5
1240
330
2
100
AcDbEntity
  8
画層1
370
    20
100
AcDbLine
 10
-650.5652295960735
 20
170.9587767371689
 30
0.0
 11
-627.5652295960735
 21
170.9587767371689
 31
0.0
  0
LWPOLYLINE
  5
1246
330
2
100
AcDbEntity
  8
画層1
 62
     1
370
    20
100
AcDbPolyline
 90
        4
 70
     1
 43
0.0
 10
-649.5652295960735
 20
182.9587767371689
 10
-636.5652295960735
 20
182.9587767371689
 10
-636.5652295960735
 20
184.9587767371689
 10
-649.5652295960735
 20
184.9587767371689
  0
LINE
  5
13E1
330
2
100
AcDbEntity
  8
画層1
370
    20
100
AcDbLine
 10
-648.5652292295692
 20
192.9587767256671
 30
0.0
 11
-648.5652292295692
 21
184.9587767256671
 31
0.0
  0
LINE
  5
13E2
330
2
100
AcDbEntity
  8
画層1
370
    20
100
AcDbLine
 10
-637.5652292295692
 20
192.9587767256671
 30
0.0
 11
-637.5652292295692
 21
184.9587767256671
 31
0.0
  0
LINE
  5
13E3
330
2
100
AcDbEntity
  8
画層1
370
    20
100
AcDbLine
 10
-639.0652292295692
 20
190.9587767256672
 30
0.0
 11
-639.0652292295693
 21
186.9587766256671
 31
0.0
  0
LINE
  5
13E4
330
2
100
AcDbEntity
  8
画層1
370
    20
100
AcDbLine
 10
-647.0652292295692
 20
190.9587767256671
 30
0.0
 11
-647.0652292295691
 21
186.9587766256671
 31
0.0
  0
CIRCLE
  5
13E5
330
2
100
AcDbEntity
  8
画層1
370
    20
100
AcDbCircle
 10
-643.0652292295692
 20
188.9587767256671
 30
0.0
 40
3.0
  0
LINE
  5
13E6
330
2
100
AcDbEntity
  8
画層1
370
    20
100
AcDbLine
 10
-649.5652292295692
 20
282.9587767256671
 30
0.0
 11
-649.5652292295692
 21
184.9587767256671
 31
0.0
  0
LINE
  5
13E7
330
2
100
AcDbEntity
  8
画層1
370
    20
100
AcDbLine
 10
-636.5652292295692
 20
282.9587767256671
 30
0.0
 11
-636.5652292295692
 21
184.9587767256671
 31
0.0
  0
LINE
  5
13E8
330
2
100
AcDbEntity
  8
画層1
370
    20
100
AcDbLine
 10
-642.5652292295692
 20
188.4587767256671
 30
0.0
 11
-640.1071893380194
 21
188.4587767256671
 31
0.0
  0
ARC
  5
13E9
330
2
100
AcDbEntity
  8
画層1
370
    20
100
AcDbCircle
 10
-641.0652292295694
 20
186.958776725667
 30
0.0
 40
2.0
100
AcDbArc
 50
270.0
 51
0.0000000000016284
  0
LWPOLYLINE
  5
13EA
330
2
100
AcDbEntity
  8
画層1
370
    20
100
AcDbPolyline
 90
        4
 70
     1
 43
0.0
 10
-649.5652292295692
 20
184.9587767256671
 10
-636.5652292295692
 20
184.9587767256671
 10
-636.5652292295692
 20
182.9587767256671
 10
-649.5652292295692
 20
182.9587767256671
  0
LINE
  5
13EB
330
2
100
AcDbEntity
  8
画層1
370
    20
100
AcDbLine
 10
-643.5652292295692
 20
186.9587767256671
 30
0.0
 11
-642.5652292295692
 21
186.9587767256671
 31
0.0
  0
LINE
  5
13EC
330
2
100
AcDbEntity
  8
画層1
370
    20
100
AcDbLine
 10
-642.5652292295692
 20
186.9587767256671
 30
0.0
 11
-642.5652292295692
 21
188.4587767256671
 31
0.0
  0
LINE
  5
13ED
330
2
100
AcDbEntity
  8
画層1
370
    20
100
AcDbLine
 10
-643.5652292295692
 20
188.4587767256671
 30
0.0
 11
-643.5652292295692
 21
186.9587767256671
 31
0.0
  0
ARC
  5
13EE
330
2
100
AcDbEntity
  8
画層1
370
    20
100
AcDbCircle
 10
-645.0652292295691
 20
186.9587767256669
 30
0.0
 40
2.0
100
AcDbArc
 50
179.9999999999951
 51
269.9999999999934
  0
LINE
  5
13EF
330
2
100
AcDbEntity
  8
画層1
370
    20
100
AcDbLine
 10
-646.023269121119
 20
188.4587767256671
 30
0.0
 11
-643.5652292295692
 21
188.4587767256671
 31
0.0
  0
LINE
  5
13F0
330
2
100
AcDbEntity
  8
画層1
370
    20
100
AcDbLine
 10
-645.0652292295692
 20
184.9587767256671
 30
0.0
 11
-641.0652292295692
 21
184.9587767256671
 31
0.0
  0
LINE
  5
13F1
330
2
100
AcDbEntity
  8
画層1
370
    20
100
AcDbLine
 10
-637.5652292295692
 20
252.9587767256671
 30
0.0
 11
-637.5652292295692
 21
244.9587767256671
 31
0.0
  0
LINE
  5
13F2
330
2
100
AcDbEntity
  8
画層1
370
    20
100
AcDbLine
 10
-648.5652292295692
 20
252.9587767256671
 30
0.0
 11
-648.5652292295692
 21
244.9587767256671
 31
0.0
  0
LINE
  5
13F3
330
2
100
AcDbEntity
  8
画層1
370
    20
100
AcDbLine
 10
-642.5652292295692
 20
249.4587767256671
 30
0.0
 11
-642.5652292295692
 21
250.9587767256671
 31
0.0
  0
LINE
  5
13F4
330
2
100
AcDbEntity
  8
画層1
370
    20
100
AcDbLine
 10
-643.5652292295692
 20
250.9587767256671
 30
0.0
 11
-643.5652292295692
 21
249.4587767256671
 31
0.0
  0
LINE
  5
13F5
330
2
100
AcDbEntity
  8
画層1
370
    20
100
AcDbLine
 10
-639.0652292295692
 20
250.9587767256672
 30
0.0
 11
-639.0652292295693
 21
246.9587766256671
 31
0.0
  0
LINE
  5
13F6
330
2
100
AcDbEntity
  8
画層1
370
    20
100
AcDbLine
 10
-647.0652292295692
 20
250.9587767256671
 30
0.0
 11
-647.0652292295691
 21
246.9587766256671
 31
0.0
  0
CIRCLE
  5
13F7
330
2
100
AcDbEntity
  8
画層1
370
    20
100
AcDbCircle
 10
-643.0652292295692
 20
248.9587767256671
 30
0.0
 40
3.0
  0
LINE
  5
13F8
330
2
100
AcDbEntity
  8
画層1
370
    20
100
AcDbLine
 10
-648.5652292295692
 20
222.9587767256671
 30
0.0
 11
-648.5652292295692
 21
214.9587767256671
 31
0.0
  0
LINE
  5
13F9
330
2
100
AcDbEntity
  8
画層1
370
    20
100
AcDbLine
 10
-637.5652292295692
 20
222.9587767256671
 30
0.0
 11
-637.5652292295692
 21
214.9587767256671
 31
0.0
  0
CIRCLE
  5
13FA
330
2
100
AcDbEntity
  8
画層1
370
    20
100
AcDbCircle
 10
-643.0652292295692
 20
218.9587767256671
 30
0.0
 40
3.0
  0
LINE
  5
13FB
330
2
100
AcDbEntity
  8
画層1
370
    20
100
AcDbLine
 10
-647.0652292295692
 20
220.9587767256671
 30
0.0
 11
-647.0652292295691
 21
216.958776625667
 31
0.0
  0
LINE
  5
13FC
330
2
100
AcDbEntity
  8
画層1
370
    20
100
AcDbLine
 10
-639.0652292295692
 20
220.9587767256672
 30
0.0
 11
-639.0652292295693
 21
216.958776625667
 31
0.0
  0
LWPOLYLINE
  5
13FD
330
2
100
AcDbEntity
  8
画層1
370
    20
100
AcDbPolyline
 90
        4
 70
     1
 43
0.0
 10
-649.5652292295692
 20
204.9587767256671
 10
-636.5652292295692
 20
204.9587767256671
 10
-636.5652292295692
 20
202.9587767256671
 10
-649.5652292295692
 20
202.9587767256671
  0
LINE
  5
13FE
330
2
100
AcDbEntity
  8
画層1
370
    20
100
AcDbLine
 10
-648.5652292295692
 20
202.9587767256671
 30
0.0
 11
-648.5652292295692
 21
194.9587767256671
 31
0.0
  0
LINE
  5
13FF
330
2
100
AcDbEntity
  8
画層1
370
    20
100
AcDbLine
 10
-637.5652292295692
 20
202.9587767256671
 30
0.0
 11
-637.5652292295692
 21
194.9587767256671
 31
0.0
  0
ARC
  5
1400
330
2
100
AcDbEntity
  8
画層1
370
    20
100
AcDbCircle
 10
-641.0652292295694
 20
196.958776725667
 30
0.0
 40
2.0
100
AcDbArc
 50
270.0
 51
0.0000000000016284
  0
ARC
  5
1401
330
2
100
AcDbEntity
  8
画層1
370
    20
100
AcDbCircle
 10
-645.0652292295691
 20
196.9587767256669
 30
0.0
 40
2.0
100
AcDbArc
 50
179.9999999999951
 51
269.9999999999934
  0
CIRCLE
  5
1402
330
2
100
AcDbEntity
  8
画層1
370
    20
100
AcDbCircle
 10
-643.0652292295692
 20
198.9587767256671
 30
0.0
 40
3.0
  0
LINE
  5
1403
330
2
100
AcDbEntity
  8
画層1
370
    20
100
AcDbLine
 10
-640.1071893380194
 20
189.4587767256671
 30
0.0
 11
-642.5652292295692
 21
189.4587767256671
 31
0.0
  0
ARC
  5
1404
330
2
100
AcDbEntity
  8
画層1
370
    20
100
AcDbCircle
 10
-641.0652292295691
 20
190.9587767256672
 30
0.0
 40
2.0
100
AcDbArc
 50
359.9999999999967
 51
90.0
  0
LWPOLYLINE
  5
1405
330
2
100
AcDbEntity
  8
画層1
370
    20
100
AcDbPolyline
 90
        4
 70
     1
 43
0.0
 10
-649.5652292295692
 20
194.9587767256671
 10
-636.5652292295692
 20
194.9587767256671
 10
-636.5652292295692
 20
192.9587767256671
 10
-649.5652292295692
 20
192.9587767256671
  0
LINE
  5
1406
330
2
100
AcDbEntity
  8
画層1
370
    20
100
AcDbLine
 10
-642.5652292295692
 20
189.4587767256671
 30
0.0
 11
-642.5652292295692
 21
190.9587767256671
 31
0.0
  0
LINE
  5
1407
330
2
100
AcDbEntity
  8
画層1
370
    20
100
AcDbLine
 10
-643.5652292295692
 20
190.9587767256671
 30
0.0
 11
-643.5652292295692
 21
189.4587767256671
 31
0.0
  0
LINE
  5
1408
330
2
100
AcDbEntity
  8
画層1
370
    20
100
AcDbLine
 10
-642.5652292295692
 20
190.9587767256671
 30
0.0
 11
-643.5652292295692
 21
190.9587767256671
 31
0.0
  0
LINE
  5
1409
330
2
100
AcDbEntity
  8
画層1
370
    20
100
AcDbLine
 10
-643.5652292295692
 20
189.4587767256671
 30
0.0
 11
-646.023269121119
 21
189.4587767256671
 31
0.0
  0
LINE
  5
140A
330
2
100
AcDbEntity
  8
画層1
370
    20
100
AcDbLine
 10
-645.0652292295692
 20
192.9587767256671
 30
0.0
 11
-641.0652292295692
 21
192.9587767256671
 31
0.0
  0
ARC
  5
140B
330
2
100
AcDbEntity
  8
画層1
370
    20
100
AcDbCircle
 10
-645.0652292295693
 20
190.9587767256671
 30
0.0
 40
2.0
100
AcDbArc
 50
89.99999999999349
 51
180.0000000000016
  0
LINE
  5
140C
330
2
100
AcDbEntity
  8
画層1
370
    20
100
AcDbLine
 10
-645.0652292295692
 20
194.9587767256671
 30
0.0
 11
-641.0652292295692
 21
194.9587767256671
 31
0.0
  0
LINE
  5
140D
330
2
100
AcDbEntity
  8
画層1
370
    20
100
AcDbLine
 10
-640.1071893380194
 20
199.4587767256671
 30
0.0
 11
-642.5652292295692
 21
199.4587767256671
 31
0.0
  0
LINE
  5
140E
330
2
100
AcDbEntity
  8
画層1
370
    20
100
AcDbLine
 10
-642.5652292295692
 20
198.4587767256671
 30
0.0
 11
-640.1071893380194
 21
198.4587767256671
 31
0.0
  0
ARC
  5
140F
330
2
100
AcDbEntity
  8
画層1
370
    20
100
AcDbCircle
 10
-641.0652292295691
 20
200.9587767256672
 30
0.0
 40
2.0
100
AcDbArc
 50
359.9999999999967
 51
90.0
  0
LINE
  5
1410
330
2
100
AcDbEntity
  8
画層1
370
    20
100
AcDbLine
 10
-645.0652292295692
 20
202.9587767256671
 30
0.0
 11
-641.0652292295692
 21
202.9587767256671
 31
0.0
  0
LINE
  5
1411
330
2
100
AcDbEntity
  8
画層1
370
    20
100
AcDbLine
 10
-642.5652292295692
 20
200.9587767256671
 30
0.0
 11
-643.5652292295692
 21
200.9587767256671
 31
0.0
  0
LINE
  5
1412
330
2
100
AcDbEntity
  8
画層1
370
    20
100
AcDbLine
 10
-643.5652292295692
 20
198.4587767256671
 30
0.0
 11
-643.5652292295692
 21
196.9587767256671
 31
0.0
  0
LINE
  5
1413
330
2
100
AcDbEntity
  8
画層1
370
    20
100
AcDbLine
 10
-642.5652292295692
 20
196.9587767256671
 30
0.0
 11
-642.5652292295692
 21
198.4587767256671
 31
0.0
  0
LINE
  5
1414
330
2
100
AcDbEntity
  8
画層1
370
    20
100
AcDbLine
 10
-643.5652292295692
 20
196.9587767256671
 30
0.0
 11
-642.5652292295692
 21
196.9587767256671
 31
0.0
  0
LINE
  5
1415
330
2
100
AcDbEntity
  8
画層1
370
    20
100
AcDbLine
 10
-643.5652292295692
 20
200.9587767256671
 30
0.0
 11
-643.5652292295692
 21
199.4587767256671
 31
0.0
  0
LINE
  5
1416
330
2
100
AcDbEntity
  8
画層1
370
    20
100
AcDbLine
 10
-642.5652292295692
 20
199.4587767256671
 30
0.0
 11
-642.5652292295692
 21
200.9587767256671
 31
0.0
  0
LINE
  5
1417
330
2
100
AcDbEntity
  8
画層1
370
    20
100
AcDbLine
 10
-647.0652292295692
 20
200.9587767256671
 30
0.0
 11
-647.0652292295691
 21
196.9587766256671
 31
0.0
  0
LINE
  5
1418
330
2
100
AcDbEntity
  8
画層1
370
    20
100
AcDbLine
 10
-643.5652292295692
 20
199.4587767256671
 30
0.0
 11
-646.023269121119
 21
199.4587767256671
 31
0.0
  0
LINE
  5
1419
330
2
100
AcDbEntity
  8
画層1
370
    20
100
AcDbLine
 10
-646.023269121119
 20
198.4587767256671
 30
0.0
 11
-643.5652292295692
 21
198.4587767256671
 31
0.0
  0
ARC
  5
141A
330
2
100
AcDbEntity
  8
画層1
370
    20
100
AcDbCircle
 10
-645.0652292295693
 20
200.9587767256671
 30
0.0
 40
2.0
100
AcDbArc
 50
89.99999999999349
 51
180.0000000000016
  0
LINE
  5
141B
330
2
100
AcDbEntity
  8
画層1
370
    20
100
AcDbLine
 10
-639.0652292295692
 20
200.9587767256672
 30
0.0
 11
-639.0652292295693
 21
196.9587766256671
 31
0.0
  0
LINE
  5
141C
330
2
100
AcDbEntity
  8
画層1
370
    20
100
AcDbLine
 10
-648.5652292295692
 20
212.9587767256671
 30
0.0
 11
-648.5652292295692
 21
204.9587767256671
 31
0.0
  0
LINE
  5
141D
330
2
100
AcDbEntity
  8
画層1
370
    20
100
AcDbLine
 10
-637.5652292295692
 20
212.9587767256671
 30
0.0
 11
-637.5652292295692
 21
204.9587767256671
 31
0.0
  0
CIRCLE
  5
141E
330
2
100
AcDbEntity
  8
画層1
370
    20
100
AcDbCircle
 10
-643.0652292295692
 20
208.9587767256671
 30
0.0
 40
3.0
  0
ARC
  5
141F
330
2
100
AcDbEntity
  8
画層1
370
    20
100
AcDbCircle
 10
-645.0652292295693
 20
210.9587767256671
 30
0.0
 40
2.0
100
AcDbArc
 50
89.99999999999349
 51
180.0000000000016
  0
ARC
  5
1420
330
2
100
AcDbEntity
  8
画層1
370
    20
100
AcDbCircle
 10
-641.0652292295691
 20
210.9587767256672
 30
0.0
 40
2.0
100
AcDbArc
 50
359.9999999999967
 51
90.0
  0
LINE
  5
1421
330
2
100
AcDbEntity
  8
画層1
370
    20
100
AcDbLine
 10
-642.5652292295692
 20
208.4587767256671
 30
0.0
 11
-640.1071893380194
 21
208.4587767256671
 31
0.0
  0
ARC
  5
1422
330
2
100
AcDbEntity
  8
画層1
370
    20
100
AcDbCircle
 10
-641.0652292295694
 20
206.958776725667
 30
0.0
 40
2.0
100
AcDbArc
 50
270.0
 51
0.0000000000016284
  0
LINE
  5
1423
330
2
100
AcDbEntity
  8
画層1
370
    20
100
AcDbLine
 10
-640.1071893380194
 20
209.4587767256671
 30
0.0
 11
-642.5652292295692
 21
209.4587767256671
 31
0.0
  0
LINE
  5
1424
330
2
100
AcDbEntity
  8
画層1
370
    20
100
AcDbLine
 10
-642.5652292295692
 20
209.4587767256671
 30
0.0
 11
-642.5652292295692
 21
210.9587767256671
 31
0.0
  0
LINE
  5
1425
330
2
100
AcDbEntity
  8
画層1
370
    20
100
AcDbLine
 10
-643.5652292295692
 20
210.9587767256671
 30
0.0
 11
-643.5652292295692
 21
209.4587767256671
 31
0.0
  0
LINE
  5
1426
330
2
100
AcDbEntity
  8
画層1
370
    20
100
AcDbLine
 10
-643.5652292295692
 20
206.9587767256671
 30
0.0
 11
-642.5652292295692
 21
206.9587767256671
 31
0.0
  0
LINE
  5
1427
330
2
100
AcDbEntity
  8
画層1
370
    20
100
AcDbLine
 10
-642.5652292295692
 20
206.9587767256671
 30
0.0
 11
-642.5652292295692
 21
208.4587767256671
 31
0.0
  0
LINE
  5
1428
330
2
100
AcDbEntity
  8
画層1
370
    20
100
AcDbLine
 10
-643.5652292295692
 20
208.4587767256671
 30
0.0
 11
-643.5652292295692
 21
206.9587767256671
 31
0.0
  0
LINE
  5
1429
330
2
100
AcDbEntity
  8
画層1
370
    20
100
AcDbLine
 10
-642.5652292295692
 20
210.9587767256671
 30
0.0
 11
-643.5652292295692
 21
210.9587767256671
 31
0.0
  0
LINE
  5
142A
330
2
100
AcDbEntity
  8
画層1
370
    20
100
AcDbLine
 10
-647.0652292295692
 20
210.9587767256671
 30
0.0
 11
-647.0652292295691
 21
206.958776625667
 31
0.0
  0
ARC
  5
142B
330
2
100
AcDbEntity
  8
画層1
370
    20
100
AcDbCircle
 10
-645.0652292295691
 20
206.9587767256669
 30
0.0
 40
2.0
100
AcDbArc
 50
179.9999999999951
 51
269.9999999999934
  0
LINE
  5
142C
330
2
100
AcDbEntity
  8
画層1
370
    20
100
AcDbLine
 10
-646.023269121119
 20
208.4587767256671
 30
0.0
 11
-643.5652292295692
 21
208.4587767256671
 31
0.0
  0
LINE
  5
142D
330
2
100
AcDbEntity
  8
画層1
370
    20
100
AcDbLine
 10
-645.0652292295692
 20
204.9587767256671
 30
0.0
 11
-641.0652292295692
 21
204.9587767256671
 31
0.0
  0
LINE
  5
142E
330
2
100
AcDbEntity
  8
画層1
370
    20
100
AcDbLine
 10
-643.5652292295692
 20
209.4587767256671
 30
0.0
 11
-646.023269121119
 21
209.4587767256671
 31
0.0
  0
LINE
  5
142F
330
2
100
AcDbEntity
  8
画層1
370
    20
100
AcDbLine
 10
-639.0652292295692
 20
210.9587767256672
 30
0.0
 11
-639.0652292295693
 21
206.958776625667
 31
0.0
  0
ARC
  5
1430
330
2
100
AcDbEntity
  8
画層1
370
    20
100
AcDbCircle
 10
-641.0652292295694
 20
216.958776725667
 30
0.0
 40
2.0
100
AcDbArc
 50
270.0
 51
0.0000000000016284
  0
LINE
  5
1431
330
2
100
AcDbEntity
  8
画層1
370
    20
100
AcDbLine
 10
-642.5652292295692
 20
218.4587767256671
 30
0.0
 11
-640.1071893380194
 21
218.4587767256671
 31
0.0
  0
LWPOLYLINE
  5
1432
330
2
100
AcDbEntity
  8
画層1
370
    20
100
AcDbPolyline
 90
        4
 70
     1
 43
0.0
 10
-649.5652292295692
 20
214.9587767256671
 10
-636.5652292295692
 20
214.9587767256671
 10
-636.5652292295692
 20
212.9587767256671
 10
-649.5652292295692
 20
212.9587767256671
  0
LINE
  5
1433
330
2
100
AcDbEntity
  8
画層1
370
    20
100
AcDbLine
 10
-645.0652292295692
 20
212.9587767256671
 30
0.0
 11
-641.0652292295692
 21
212.9587767256671
 31
0.0
  0
LINE
  5
1434
330
2
100
AcDbEntity
  8
画層1
370
    20
100
AcDbLine
 10
-643.5652292295692
 20
218.4587767256671
 30
0.0
 11
-643.5652292295692
 21
216.9587767256671
 31
0.0
  0
LINE
  5
1435
330
2
100
AcDbEntity
  8
画層1
370
    20
100
AcDbLine
 10
-642.5652292295692
 20
216.9587767256671
 30
0.0
 11
-642.5652292295692
 21
218.4587767256671
 31
0.0
  0
LINE
  5
1436
330
2
100
AcDbEntity
  8
画層1
370
    20
100
AcDbLine
 10
-643.5652292295692
 20
216.9587767256671
 30
0.0
 11
-642.5652292295692
 21
216.9587767256671
 31
0.0
  0
ARC
  5
1437
330
2
100
AcDbEntity
  8
画層1
370
    20
100
AcDbCircle
 10
-645.0652292295691
 20
216.9587767256669
 30
0.0
 40
2.0
100
AcDbArc
 50
179.9999999999951
 51
269.9999999999934
  0
LINE
  5
1438
330
2
100
AcDbEntity
  8
画層1
370
    20
100
AcDbLine
 10
-645.0652292295692
 20
214.9587767256671
 30
0.0
 11
-641.0652292295692
 21
214.9587767256671
 31
0.0
  0
LINE
  5
1439
330
2
100
AcDbEntity
  8
画層1
370
    20
100
AcDbLine
 10
-646.023269121119
 20
218.4587767256671
 30
0.0
 11
-643.5652292295692
 21
218.4587767256671
 31
0.0
  0
ARC
  5
143A
330
2
100
AcDbEntity
  8
画層1
370
    20
100
AcDbCircle
 10
-641.0652292295694
 20
236.958776725667
 30
0.0
 40
2.0
100
AcDbArc
 50
270.0
 51
0.0000000000016284
  0
ARC
  5
143B
330
2
100
AcDbEntity
  8
画層1
370
    20
100
AcDbCircle
 10
-645.0652292295691
 20
236.9587767256669
 30
0.0
 40
2.0
100
AcDbArc
 50
179.9999999999951
 51
269.9999999999934
  0
LWPOLYLINE
  5
143C
330
2
100
AcDbEntity
  8
画層1
370
    20
100
AcDbPolyline
 90
        4
 70
     1
 43
0.0
 10
-649.5652292295692
 20
234.9587767256671
 10
-636.5652292295692
 20
234.9587767256671
 10
-636.5652292295692
 20
232.9587767256671
 10
-649.5652292295692
 20
232.9587767256671
  0
LINE
  5
143D
330
2
100
AcDbEntity
  8
画層1
370
    20
100
AcDbLine
 10
-648.5652292295692
 20
232.9587767256671
 30
0.0
 11
-648.5652292295692
 21
224.9587767256671
 31
0.0
  0
LINE
  5
143E
330
2
100
AcDbEntity
  8
画層1
370
    20
100
AcDbLine
 10
-637.5652292295692
 20
232.9587767256671
 30
0.0
 11
-637.5652292295692
 21
224.9587767256671
 31
0.0
  0
LINE
  5
143F
330
2
100
AcDbEntity
  8
画層1
370
    20
100
AcDbLine
 10
-642.5652292295692
 20
226.9587767256671
 30
0.0
 11
-642.5652292295692
 21
228.4587767256671
 31
0.0
  0
LINE
  5
1440
330
2
100
AcDbEntity
  8
画層1
370
    20
100
AcDbLine
 10
-643.5652292295692
 20
228.4587767256671
 30
0.0
 11
-643.5652292295692
 21
226.9587767256671
 31
0.0
  0
LINE
  5
1441
330
2
100
AcDbEntity
  8
画層1
370
    20
100
AcDbLine
 10
-639.0652292295692
 20
230.9587767256672
 30
0.0
 11
-639.0652292295693
 21
226.9587766256671
 31
0.0
  0
LINE
  5
1442
330
2
100
AcDbEntity
  8
画層1
370
    20
100
AcDbLine
 10
-647.0652292295692
 20
230.9587767256672
 30
0.0
 11
-647.0652292295691
 21
226.9587766256671
 31
0.0
  0
CIRCLE
  5
1443
330
2
100
AcDbEntity
  8
画層1
370
    20
100
AcDbCircle
 10
-643.0652292295692
 20
228.9587767256671
 30
0.0
 40
3.0
  0
ARC
  5
1444
330
2
100
AcDbEntity
  8
画層1
370
    20
100
AcDbCircle
 10
-641.0652292295691
 20
220.9587767256672
 30
0.0
 40
2.0
100
AcDbArc
 50
359.9999999999967
 51
90.0
  0
LINE
  5
1445
330
2
100
AcDbEntity
  8
画層1
370
    20
100
AcDbLine
 10
-640.1071893380194
 20
219.4587767256671
 30
0.0
 11
-642.5652292295692
 21
219.4587767256671
 31
0.0
  0
ARC
  5
1446
330
2
100
AcDbEntity
  8
画層1
370
    20
100
AcDbCircle
 10
-641.0652292295694
 20
226.958776725667
 30
0.0
 40
2.0
100
AcDbArc
 50
270.0
 51
0.0000000000016284
  0
LWPOLYLINE
  5
1447
330
2
100
AcDbEntity
  8
画層1
370
    20
100
AcDbPolyline
 90
        4
 70
     1
 43
0.0
 10
-649.5652292295692
 20
224.9587767256671
 10
-636.5652292295692
 20
224.9587767256671
 10
-636.5652292295692
 20
222.9587767256671
 10
-649.5652292295692
 20
222.9587767256671
  0
LINE
  5
1448
330
2
100
AcDbEntity
  8
画層1
370
    20
100
AcDbLine
 10
-642.5652292295692
 20
220.9587767256671
 30
0.0
 11
-643.5652292295692
 21
220.9587767256671
 31
0.0
  0
ARC
  5
1449
330
2
100
AcDbEntity
  8
画層1
370
    20
100
AcDbCircle
 10
-645.0652292295693
 20
220.9587767256671
 30
0.0
 40
2.0
100
AcDbArc
 50
89.99999999999349
 51
180.0000000000016
  0
LINE
  5
144A
330
2
100
AcDbEntity
  8
画層1
370
    20
100
AcDbLine
 10
-645.0652292295692
 20
222.9587767256671
 30
0.0
 11
-641.0652292295692
 21
222.9587767256671
 31
0.0
  0
LINE
  5
144B
330
2
100
AcDbEntity
  8
画層1
370
    20
100
AcDbLine
 10
-643.5652292295692
 20
219.4587767256671
 30
0.0
 11
-646.023269121119
 21
219.4587767256671
 31
0.0
  0
LINE
  5
144C
330
2
100
AcDbEntity
  8
画層1
370
    20
100
AcDbLine
 10
-643.5652292295692
 20
220.9587767256671
 30
0.0
 11
-643.5652292295692
 21
219.4587767256671
 31
0.0
  0
LINE
  5
144D
330
2
100
AcDbEntity
  8
画層1
370
    20
100
AcDbLine
 10
-642.5652292295692
 20
219.4587767256671
 30
0.0
 11
-642.5652292295692
 21
220.9587767256671
 31
0.0
  0
LINE
  5
144E
330
2
100
AcDbEntity
  8
画層1
370
    20
100
AcDbLine
 10
-643.5652292295692
 20
226.9587767256671
 30
0.0
 11
-642.5652292295692
 21
226.9587767256671
 31
0.0
  0
ARC
  5
144F
330
2
100
AcDbEntity
  8
画層1
370
    20
100
AcDbCircle
 10
-645.0652292295691
 20
226.9587767256669
 30
0.0
 40
2.0
100
AcDbArc
 50
179.9999999999951
 51
269.9999999999934
  0
LINE
  5
1450
330
2
100
AcDbEntity
  8
画層1
370
    20
100
AcDbLine
 10
-645.0652292295692
 20
224.9587767256671
 30
0.0
 11
-641.0652292295692
 21
224.9587767256671
 31
0.0
  0
ARC
  5
1451
330
2
100
AcDbEntity
  8
画層1
370
    20
100
AcDbCircle
 10
-641.0652292295691
 20
230.9587767256672
 30
0.0
 40
2.0
100
AcDbArc
 50
359.9999999999967
 51
90.0
  0
LINE
  5
1452
330
2
100
AcDbEntity
  8
画層1
370
    20
100
AcDbLine
 10
-642.5652292295692
 20
228.4587767256671
 30
0.0
 11
-640.1071893380194
 21
228.4587767256671
 31
0.0
  0
LINE
  5
1453
330
2
100
AcDbEntity
  8
画層1
370
    20
100
AcDbLine
 10
-640.1071893380194
 20
229.4587767256671
 30
0.0
 11
-642.5652292295692
 21
229.4587767256671
 31
0.0
  0
LINE
  5
1454
330
2
100
AcDbEntity
  8
画層1
370
    20
100
AcDbLine
 10
-642.5652292295692
 20
230.9587767256671
 30
0.0
 11
-643.5652292295692
 21
230.9587767256671
 31
0.0
  0
ARC
  5
1455
330
2
100
AcDbEntity
  8
画層1
370
    20
100
AcDbCircle
 10
-645.0652292295693
 20
230.9587767256672
 30
0.0
 40
2.0
100
AcDbArc
 50
89.99999999999349
 51
180.0000000000016
  0
LINE
  5
1456
330
2
100
AcDbEntity
  8
画層1
370
    20
100
AcDbLine
 10
-645.0652292295692
 20
232.9587767256671
 30
0.0
 11
-641.0652292295692
 21
232.9587767256671
 31
0.0
  0
LINE
  5
1457
330
2
100
AcDbEntity
  8
画層1
370
    20
100
AcDbLine
 10
-646.023269121119
 20
228.4587767256671
 30
0.0
 11
-643.5652292295692
 21
228.4587767256671
 31
0.0
  0
LINE
  5
1458
330
2
100
AcDbEntity
  8
画層1
370
    20
100
AcDbLine
 10
-643.5652292295692
 20
229.4587767256671
 30
0.0
 11
-646.023269121119
 21
229.4587767256671
 31
0.0
  0
LINE
  5
1459
330
2
100
AcDbEntity
  8
画層1
370
    20
100
AcDbLine
 10
-642.5652292295692
 20
229.4587767256671
 30
0.0
 11
-642.5652292295692
 21
230.9587767256671
 31
0.0
  0
LINE
  5
145A
330
2
100
AcDbEntity
  8
画層1
370
    20
100
AcDbLine
 10
-643.5652292295692
 20
230.9587767256671
 30
0.0
 11
-643.5652292295692
 21
229.4587767256671
 31
0.0
  0
LINE
  5
145B
330
2
100
AcDbEntity
  8
画層1
370
    20
100
AcDbLine
 10
-648.5652292295692
 20
242.9587767256671
 30
0.0
 11
-648.5652292295692
 21
234.9587767256671
 31
0.0
  0
LINE
  5
145C
330
2
100
AcDbEntity
  8
画層1
370
    20
100
AcDbLine
 10
-637.5652292295692
 20
242.9587767256671
 30
0.0
 11
-637.5652292295692
 21
234.9587767256671
 31
0.0
  0
ARC
  5
145D
330
2
100
AcDbEntity
  8
画層1
370
    20
100
AcDbCircle
 10
-641.0652292295691
 20
240.9587767256672
 30
0.0
 40
2.0
100
AcDbArc
 50
359.9999999999967
 51
90.0
  0
ARC
  5
145E
330
2
100
AcDbEntity
  8
画層1
370
    20
100
AcDbCircle
 10
-645.0652292295693
 20
240.9587767256671
 30
0.0
 40
2.0
100
AcDbArc
 50
89.99999999999349
 51
180.0000000000016
  0
LINE
  5
145F
330
2
100
AcDbEntity
  8
画層1
370
    20
100
AcDbLine
 10
-640.1071893380194
 20
239.4587767256671
 30
0.0
 11
-642.5652292295692
 21
239.4587767256671
 31
0.0
  0
LINE
  5
1460
330
2
100
AcDbEntity
  8
画層1
370
    20
100
AcDbLine
 10
-642.5652292295692
 20
238.4587767256671
 30
0.0
 11
-640.1071893380194
 21
238.4587767256671
 31
0.0
  0
CIRCLE
  5
1461
330
2
100
AcDbEntity
  8
画層1
370
    20
100
AcDbCircle
 10
-643.0652292295692
 20
238.9587767256671
 30
0.0
 40
3.0
  0
LINE
  5
1462
330
2
100
AcDbEntity
  8
画層1
370
    20
100
AcDbLine
 10
-643.5652292295692
 20
240.9587767256671
 30
0.0
 11
-643.5652292295692
 21
239.4587767256671
 31
0.0
  0
LINE
  5
1463
330
2
100
AcDbEntity
  8
画層1
370
    20
100
AcDbLine
 10
-642.5652292295692
 20
239.4587767256671
 30
0.0
 11
-642.5652292295692
 21
240.9587767256671
 31
0.0
  0
LINE
  5
1464
330
2
100
AcDbEntity
  8
画層1
370
    20
100
AcDbLine
 10
-642.5652292295692
 20
240.9587767256671
 30
0.0
 11
-643.5652292295692
 21
240.9587767256671
 31
0.0
  0
LINE
  5
1465
330
2
100
AcDbEntity
  8
画層1
370
    20
100
AcDbLine
 10
-643.5652292295692
 20
239.4587767256671
 30
0.0
 11
-646.023269121119
 21
239.4587767256671
 31
0.0
  0
LINE
  5
1466
330
2
100
AcDbEntity
  8
画層1
370
    20
100
AcDbLine
 10
-643.5652292295692
 20
238.4587767256671
 30
0.0
 11
-643.5652292295692
 21
236.9587767256671
 31
0.0
  0
LINE
  5
1467
330
2
100
AcDbEntity
  8
画層1
370
    20
100
AcDbLine
 10
-642.5652292295692
 20
236.9587767256671
 30
0.0
 11
-642.5652292295692
 21
238.4587767256671
 31
0.0
  0
LINE
  5
1468
330
2
100
AcDbEntity
  8
画層1
370
    20
100
AcDbLine
 10
-643.5652292295692
 20
236.9587767256671
 30
0.0
 11
-642.5652292295692
 21
236.9587767256671
 31
0.0
  0
LINE
  5
1469
330
2
100
AcDbEntity
  8
画層1
370
    20
100
AcDbLine
 10
-645.0652292295692
 20
234.9587767256671
 30
0.0
 11
-641.0652292295692
 21
234.9587767256671
 31
0.0
  0
LINE
  5
146A
330
2
100
AcDbEntity
  8
画層1
370
    20
100
AcDbLine
 10
-646.023269121119
 20
238.4587767256671
 30
0.0
 11
-643.5652292295692
 21
238.4587767256671
 31
0.0
  0
LINE
  5
146B
330
2
100
AcDbEntity
  8
画層1
370
    20
100
AcDbLine
 10
-647.0652292295692
 20
240.9587767256671
 30
0.0
 11
-647.0652292295691
 21
236.9587766256671
 31
0.0
  0
LINE
  5
146C
330
2
100
AcDbEntity
  8
画層1
370
    20
100
AcDbLine
 10
-639.0652292295692
 20
240.9587767256672
 30
0.0
 11
-639.0652292295693
 21
236.9587766256671
 31
0.0
  0
LINE
  5
146D
330
2
100
AcDbEntity
  8
画層1
370
    20
100
AcDbLine
 10
-640.1071893380194
 20
249.4587767256671
 30
0.0
 11
-642.5652292295692
 21
249.4587767256671
 31
0.0
  0
LINE
  5
146E
330
2
100
AcDbEntity
  8
画層1
370
    20
100
AcDbLine
 10
-642.5652292295692
 20
248.4587767256671
 30
0.0
 11
-640.1071893380194
 21
248.4587767256671
 31
0.0
  0
ARC
  5
146F
330
2
100
AcDbEntity
  8
画層1
370
    20
100
AcDbCircle
 10
-641.0652292295694
 20
246.958776725667
 30
0.0
 40
2.0
100
AcDbArc
 50
270.0
 51
0.0000000000016284
  0
LWPOLYLINE
  5
1470
330
2
100
AcDbEntity
  8
画層1
370
    20
100
AcDbPolyline
 90
        4
 70
     1
 43
0.0
 10
-649.5652292295692
 20
244.9587767256671
 10
-636.5652292295692
 20
244.9587767256671
 10
-636.5652292295692
 20
242.9587767256671
 10
-649.5652292295692
 20
242.9587767256671
  0
LINE
  5
1471
330
2
100
AcDbEntity
  8
画層1
370
    20
100
AcDbLine
 10
-645.0652292295692
 20
242.9587767256671
 30
0.0
 11
-641.0652292295692
 21
242.9587767256671
 31
0.0
  0
LINE
  5
1472
330
2
100
AcDbEntity
  8
画層1
370
    20
100
AcDbLine
 10
-646.023269121119
 20
248.4587767256671
 30
0.0
 11
-643.5652292295692
 21
248.4587767256671
 31
0.0
  0
LINE
  5
1473
330
2
100
AcDbEntity
  8
画層1
370
    20
100
AcDbLine
 10
-643.5652292295692
 20
249.4587767256671
 30
0.0
 11
-646.023269121119
 21
249.4587767256671
 31
0.0
  0
LINE
  5
1474
330
2
100
AcDbEntity
  8
画層1
370
    20
100
AcDbLine
 10
-643.5652292295692
 20
246.9587767256671
 30
0.0
 11
-642.5652292295692
 21
246.9587767256671
 31
0.0
  0
ARC
  5
1475
330
2
100
AcDbEntity
  8
画層1
370
    20
100
AcDbCircle
 10
-645.0652292295691
 20
246.9587767256669
 30
0.0
 40
2.0
100
AcDbArc
 50
179.9999999999951
 51
269.9999999999934
  0
LINE
  5
1476
330
2
100
AcDbEntity
  8
画層1
370
    20
100
AcDbLine
 10
-645.0652292295692
 20
244.9587767256671
 30
0.0
 11
-641.0652292295692
 21
244.9587767256671
 31
0.0
  0
LINE
  5
1477
330
2
100
AcDbEntity
  8
画層1
370
    20
100
AcDbLine
 10
-642.5652292295692
 20
246.9587767256671
 30
0.0
 11
-642.5652292295692
 21
248.4587767256671
 31
0.0
  0
LINE
  5
1478
330
2
100
AcDbEntity
  8
画層1
370
    20
100
AcDbLine
 10
-643.5652292295692
 20
248.4587767256671
 30
0.0
 11
-643.5652292295692
 21
246.9587767256671
 31
0.0
  0
LINE
  5
1479
330
2
100
AcDbEntity
  8
画層1
370
    20
100
AcDbLine
 10
-637.5652292295692
 20
272.9587767256671
 30
0.0
 11
-637.5652292295692
 21
264.9587767256671
 31
0.0
  0
LINE
  5
147A
330
2
100
AcDbEntity
  8
画層1
370
    20
100
AcDbLine
 10
-648.5652292295692
 20
272.9587767256671
 30
0.0
 11
-648.5652292295692
 21
264.9587767256671
 31
0.0
  0
ARC
  5
147B
330
2
100
AcDbEntity
  8
画層1
370
    20
100
AcDbCircle
 10
-641.0652292295694
 20
266.958776725667
 30
0.0
 40
2.0
100
AcDbArc
 50
270.0
 51
0.0000000000016284
  0
ARC
  5
147C
330
2
100
AcDbEntity
  8
画層1
370
    20
100
AcDbCircle
 10
-645.0652292295691
 20
266.9587767256669
 30
0.0
 40
2.0
100
AcDbArc
 50
179.9999999999951
 51
269.9999999999934
  0
LINE
  5
147D
330
2
100
AcDbEntity
  8
画層1
370
    20
100
AcDbLine
 10
-648.5652292295692
 20
262.9587767256671
 30
0.0
 11
-648.5652292295692
 21
254.9587767256671
 31
0.0
  0
LINE
  5
147E
330
2
100
AcDbEntity
  8
画層1
370
    20
100
AcDbLine
 10
-637.5652292295692
 20
262.9587767256671
 30
0.0
 11
-637.5652292295692
 21
254.9587767256671
 31
0.0
  0
LINE
  5
147F
330
2
100
AcDbEntity
  8
画層1
370
    20
100
AcDbLine
 10
-649.5652292295692
 20
262.9587767256671
 30
0.0
 11
-649.5652292295692
 21
254.9587767256671
 31
0.0
  0
CIRCLE
  5
1480
330
2
100
AcDbEntity
  8
画層1
370
    20
100
AcDbCircle
 10
-643.0652292295692
 20
258.9587767256671
 30
0.0
 40
3.0
  0
LINE
  5
1481
330
2
100
AcDbEntity
  8
画層1
370
    20
100
AcDbLine
 10
-643.5652292295692
 20
258.4587767256671
 30
0.0
 11
-643.5652292295692
 21
256.9587767256671
 31
0.0
  0
LINE
  5
1482
330
2
100
AcDbEntity
  8
画層1
370
    20
100
AcDbLine
 10
-642.5652292295692
 20
256.9587767256671
 30
0.0
 11
-642.5652292295692
 21
258.4587767256671
 31
0.0
  0
LINE
  5
1483
330
2
100
AcDbEntity
  8
画層1
370
    20
100
AcDbLine
 10
-647.0652292295692
 20
260.9587767256671
 30
0.0
 11
-647.0652292295691
 21
256.958776625667
 31
0.0
  0
LINE
  5
1484
330
2
100
AcDbEntity
  8
画層1
370
    20
100
AcDbLine
 10
-639.0652292295692
 20
260.9587767256672
 30
0.0
 11
-639.0652292295693
 21
256.958776625667
 31
0.0
  0
ARC
  5
1485
330
2
100
AcDbEntity
  8
画層1
370
    20
100
AcDbCircle
 10
-641.0652292295691
 20
250.9587767256672
 30
0.0
 40
2.0
100
AcDbArc
 50
359.9999999999967
 51
90.0
  0
ARC
  5
1486
330
2
100
AcDbEntity
  8
画層1
370
    20
100
AcDbCircle
 10
-641.0652292295694
 20
256.958776725667
 30
0.0
 40
2.0
100
AcDbArc
 50
270.0
 51
0.0000000000016284
  0
LWPOLYLINE
  5
1487
330
2
100
AcDbEntity
  8
画層1
370
    20
100
AcDbPolyline
 90
        4
 70
     1
 43
0.0
 10
-649.5652292295692
 20
254.9587767256671
 10
-636.5652292295692
 20
254.9587767256671
 10
-636.5652292295692
 20
252.9587767256671
 10
-649.5652292295692
 20
252.9587767256671
  0
LINE
  5
1488
330
2
100
AcDbEntity
  8
画層1
370
    20
100
AcDbLine
 10
-642.5652292295692
 20
250.9587767256671
 30
0.0
 11
-643.5652292295692
 21
250.9587767256671
 31
0.0
  0
ARC
  5
1489
330
2
100
AcDbEntity
  8
画層1
370
    20
100
AcDbCircle
 10
-645.0652292295693
 20
250.9587767256671
 30
0.0
 40
2.0
100
AcDbArc
 50
89.99999999999349
 51
180.0000000000016
  0
LINE
  5
148A
330
2
100
AcDbEntity
  8
画層1
370
    20
100
AcDbLine
 10
-645.0652292295692
 20
252.9587767256671
 30
0.0
 11
-641.0652292295692
 21
252.9587767256671
 31
0.0
  0
LINE
  5
148B
330
2
100
AcDbEntity
  8
画層1
370
    20
100
AcDbLine
 10
-643.5652292295692
 20
256.9587767256671
 30
0.0
 11
-642.5652292295692
 21
256.9587767256671
 31
0.0
  0
ARC
  5
148C
330
2
100
AcDbEntity
  8
画層1
370
    20
100
AcDbCircle
 10
-645.0652292295691
 20
256.9587767256669
 30
0.0
 40
2.0
100
AcDbArc
 50
179.9999999999951
 51
269.9999999999934
  0
LINE
  5
148D
330
2
100
AcDbEntity
  8
画層1
370
    20
100
AcDbLine
 10
-645.0652292295692
 20
254.9587767256671
 30
0.0
 11
-641.0652292295692
 21
254.9587767256671
 31
0.0
  0
LINE
  5
148E
330
2
100
AcDbEntity
  8
画層1
370
    20
100
AcDbLine
 10
-642.5652292295692
 20
258.4587767256671
 30
0.0
 11
-640.1071893380194
 21
258.4587767256671
 31
0.0
  0
LINE
  5
148F
330
2
100
AcDbEntity
  8
画層1
370
    20
100
AcDbLine
 10
-640.1071893380194
 20
259.4587767256671
 30
0.0
 11
-642.5652292295692
 21
259.4587767256671
 31
0.0
  0
ARC
  5
1490
330
2
100
AcDbEntity
  8
画層1
370
    20
100
AcDbCircle
 10
-641.0652292295691
 20
260.9587767256672
 30
0.0
 40
2.0
100
AcDbArc
 50
359.9999999999967
 51
90.0
  0
LWPOLYLINE
  5
1491
330
2
100
AcDbEntity
  8
画層1
370
    20
100
AcDbPolyline
 90
        4
 70
     1
 43
0.0
 10
-649.5652292295692
 20
264.9587767256671
 10
-636.5652292295692
 20
264.9587767256671
 10
-636.5652292295692
 20
262.9587767256671
 10
-649.5652292295692
 20
262.9587767256671
  0
LINE
  5
1492
330
2
100
AcDbEntity
  8
画層1
370
    20
100
AcDbLine
 10
-643.5652292295692
 20
260.9587767256671
 30
0.0
 11
-643.5652292295692
 21
259.4587767256671
 31
0.0
  0
LINE
  5
1493
330
2
100
AcDbEntity
  8
画層1
370
    20
100
AcDbLine
 10
-642.5652292295692
 20
259.4587767256671
 30
0.0
 11
-642.5652292295692
 21
260.9587767256671
 31
0.0
  0
LINE
  5
1494
330
2
100
AcDbEntity
  8
画層1
370
    20
100
AcDbLine
 10
-642.5652292295692
 20
260.9587767256671
 30
0.0
 11
-643.5652292295692
 21
260.9587767256671
 31
0.0
  0
ARC
  5
1495
330
2
100
AcDbEntity
  8
画層1
370
    20
100
AcDbCircle
 10
-645.0652292295693
 20
260.9587767256671
 30
0.0
 40
2.0
100
AcDbArc
 50
89.99999999999349
 51
180.0000000000016
  0
LINE
  5
1496
330
2
100
AcDbEntity
  8
画層1
370
    20
100
AcDbLine
 10
-643.5652292295692
 20
259.4587767256671
 30
0.0
 11
-646.023269121119
 21
259.4587767256671
 31
0.0
  0
LINE
  5
1497
330
2
100
AcDbEntity
  8
画層1
370
    20
100
AcDbLine
 10
-646.023269121119
 20
258.4587767256671
 30
0.0
 11
-643.5652292295692
 21
258.4587767256671
 31
0.0
  0
LINE
  5
1498
330
2
100
AcDbEntity
  8
画層1
370
    20
100
AcDbLine
 10
-645.0652292295692
 20
262.9587767256671
 30
0.0
 11
-641.0652292295692
 21
262.9587767256671
 31
0.0
  0
LINE
  5
1499
330
2
100
AcDbEntity
  8
画層1
370
    20
100
AcDbLine
 10
-645.0652292295692
 20
264.9587767256671
 30
0.0
 11
-641.0652292295692
 21
264.9587767256671
 31
0.0
  0
LWPOLYLINE
  5
149A
330
2
100
AcDbEntity
  8
画層1
370
    20
100
AcDbPolyline
 90
        4
 70
     1
 43
0.0
 10
-649.5652292295692
 20
274.9587767256671
 10
-636.5652292295692
 20
274.9587767256671
 10
-636.5652292295692
 20
272.9587767256671
 10
-649.5652292295692
 20
272.9587767256671
  0
ARC
  5
149B
330
2
100
AcDbEntity
  8
画層1
370
    20
100
AcDbCircle
 10
-641.0652292295691
 20
270.9587767256672
 30
0.0
 40
2.0
100
AcDbArc
 50
359.9999999999967
 51
90.0
  0
LINE
  5
149C
330
2
100
AcDbEntity
  8
画層1
370
    20
100
AcDbLine
 10
-640.1071893380194
 20
269.4587767256671
 30
0.0
 11
-642.5652292295692
 21
269.4587767256671
 31
0.0
  0
LINE
  5
149D
330
2
100
AcDbEntity
  8
画層1
370
    20
100
AcDbLine
 10
-642.5652292295692
 20
268.4587767256671
 30
0.0
 11
-640.1071893380194
 21
268.4587767256671
 31
0.0
  0
CIRCLE
  5
149E
330
2
100
AcDbEntity
  8
画層1
370
    20
100
AcDbCircle
 10
-643.0652292295692
 20
268.9587767256671
 30
0.0
 40
3.0
  0
ARC
  5
149F
330
2
100
AcDbEntity
  8
画層1
370
    20
100
AcDbCircle
 10
-645.0652292295693
 20
270.9587767256671
 30
0.0
 40
2.0
100
AcDbArc
 50
89.99999999999349
 51
180.0000000000016
  0
LINE
  5
14A0
330
2
100
AcDbEntity
  8
画層1
370
    20
100
AcDbLine
 10
-645.0652292295692
 20
272.9587767256671
 30
0.0
 11
-641.0652292295692
 21
272.9587767256671
 31
0.0
  0
LINE
  5
14A1
330
2
100
AcDbEntity
  8
画層1
370
    20
100
AcDbLine
 10
-647.0652292295692
 20
266.9587767256671
 30
0.0
 11
-647.0652292295692
 21
270.9587767256671
 31
0.0
  0
LINE
  5
14A2
330
2
100
AcDbEntity
  8
画層1
370
    20
100
AcDbLine
 10
-642.5652292295692
 20
270.9587767256671
 30
0.0
 11
-643.5652292295692
 21
270.9587767256671
 31
0.0
  0
LINE
  5
14A3
330
2
100
AcDbEntity
  8
画層1
370
    20
100
AcDbLine
 10
-642.5652292295692
 20
269.4587767256671
 30
0.0
 11
-642.5652292295692
 21
270.9587767256671
 31
0.0
  0
LINE
  5
14A4
330
2
100
AcDbEntity
  8
画層1
370
    20
100
AcDbLine
 10
-642.5652292295692
 20
266.9587767256671
 30
0.0
 11
-642.5652292295692
 21
268.4587767256671
 31
0.0
  0
LINE
  5
14A5
330
2
100
AcDbEntity
  8
画層1
370
    20
100
AcDbLine
 10
-643.5652292295692
 20
266.9587767256671
 30
0.0
 11
-642.5652292295692
 21
266.9587767256671
 31
0.0
  0
LINE
  5
14A6
330
2
100
AcDbEntity
  8
画層1
370
    20
100
AcDbLine
 10
-643.5652292295692
 20
268.4587767256671
 30
0.0
 11
-643.5652292295692
 21
266.9587767256671
 31
0.0
  0
LINE
  5
14A7
330
2
100
AcDbEntity
  8
画層1
370
    20
100
AcDbLine
 10
-646.023269121119
 20
268.4587767256671
 30
0.0
 11
-643.5652292295692
 21
268.4587767256671
 31
0.0
  0
LINE
  5
14A8
330
2
100
AcDbEntity
  8
画層1
370
    20
100
AcDbLine
 10
-643.5652292295692
 20
269.4587767256671
 30
0.0
 11
-646.023269121119
 21
269.4587767256671
 31
0.0
  0
LINE
  5
14A9
330
2
100
AcDbEntity
  8
画層1
370
    20
100
AcDbLine
 10
-643.5652292295692
 20
270.9587767256671
 30
0.0
 11
-643.5652292295692
 21
269.4587767256671
 31
0.0
  0
LINE
  5
14AA
330
2
100
AcDbEntity
  8
画層1
370
    20
100
AcDbLine
 10
-639.0652292295692
 20
266.9587767256671
 30
0.0
 11
-639.0652292295692
 21
270.9587767256671
 31
0.0
  0
LINE
  5
14AC
330
2
100
AcDbEntity
  8
画層1
370
    20
100
AcDbLine
 10
-637.5652292295692
 20
282.9587767256671
 30
0.0
 11
-637.5652292295692
 21
274.9587767256671
 31
0.0
  0
ARC
  5
14AD
330
2
100
AcDbEntity
  8
画層1
370
    20
100
AcDbCircle
 10
-641.0652292295694
 20
276.958776725667
 30
0.0
 40
2.0
100
AcDbArc
 50
270.0
 51
0.0000000000016284
  0
ARC
  5
14AE
330
2
100
AcDbEntity
  8
画層1
370
    20
100
AcDbCircle
 10
-645.0652292295691
 20
276.9587767256669
 30
0.0
 40
2.0
100
AcDbArc
 50
179.9999999999951
 51
269.9999999999934
  0
ARC
  5
14AF
330
2
100
AcDbEntity
  8
画層1
370
    20
100
AcDbCircle
 10
-645.0652292295693
 20
280.9587767256672
 30
0.0
 40
2.0
100
AcDbArc
 50
89.99999999999349
 51
180.0000000000016
  0
CIRCLE
  5
14B0
330
2
100
AcDbEntity
  8
画層1
370
    20
100
AcDbCircle
 10
-643.0652292295692
 20
278.9587767256671
 30
0.0
 40
3.0
  0
ARC
  5
14B1
330
2
100
AcDbEntity
  8
画層1
370
    20
100
AcDbCircle
 10
-641.0652292295691
 20
280.9587767256672
 30
0.0
 40
2.0
100
AcDbArc
 50
359.9999999999967
 51
90.0
  0
LINE
  5
14B2
330
2
100
AcDbEntity
  8
画層1
370
    20
100
AcDbLine
 10
-643.5652292295692
 20
279.4587767256671
 30
0.0
 11
-646.023269121119
 21
279.4587767256671
 31
0.0
  0
LINE
  5
14B3
330
2
100
AcDbEntity
  8
画層1
370
    20
100
AcDbLine
 10
-646.023269121119
 20
278.4587767256671
 30
0.0
 11
-643.5652292295692
 21
278.4587767256671
 31
0.0
  0
LINE
  5
14B4
330
2
100
AcDbEntity
  8
画層1
370
    20
100
AcDbLine
 10
-639.0652292295692
 20
276.9587767256671
 30
0.0
 11
-639.0652292295692
 21
280.9587767256671
 31
0.0
  0
LINE
  5
14B5
330
2
100
AcDbEntity
  8
画層1
370
    20
100
AcDbLine
 10
-643.5652292295692
 20
280.9587767256671
 30
0.0
 11
-643.5652292295692
 21
279.4587767256671
 31
0.0
  0
LINE
  5
14B6
330
2
100
AcDbEntity
  8
画層1
370
    20
100
AcDbLine
 10
-643.5652292295692
 20
278.4587767256671
 30
0.0
 11
-643.5652292295692
 21
276.9587767256671
 31
0.0
  0
LINE
  5
14B7
330
2
100
AcDbEntity
  8
画層1
370
    20
100
AcDbLine
 10
-643.5652292295692
 20
276.9587767256671
 30
0.0
 11
-642.5652292295692
 21
276.9587767256671
 31
0.0
  0
LINE
  5
14B8
330
2
100
AcDbEntity
  8
画層1
370
    20
100
AcDbLine
 10
-642.5652292295692
 20
276.9587767256671
 30
0.0
 11
-642.5652292295692
 21
278.4587767256671
 31
0.0
  0
LINE
  5
14B9
330
2
100
AcDbEntity
  8
画層1
370
    20
100
AcDbLine
 10
-642.5652292295692
 20
279.4587767256671
 30
0.0
 11
-642.5652292295692
 21
280.9587767256671
 31
0.0
  0
LINE
  5
14BA
330
2
100
AcDbEntity
  8
画層1
370
    20
100
AcDbLine
 10
-642.5652292295692
 20
280.9587767256671
 30
0.0
 11
-643.5652292295692
 21
280.9587767256671
 31
0.0
  0
LINE
  5
14BB
330
2
100
AcDbEntity
  8
画層1
370
    20
100
AcDbLine
 10
-642.5652292295692
 20
278.4587767256671
 30
0.0
 11
-640.1071893380194
 21
278.4587767256671
 31
0.0
  0
LINE
  5
14BC
330
2
100
AcDbEntity
  8
画層1
370
    20
100
AcDbLine
 10
-640.1071893380194
 20
279.4587767256671
 30
0.0
 11
-642.5652292295692
 21
279.4587767256671
 31
0.0
  0
LWPOLYLINE
  5
14BD
330
2
100
AcDbEntity
  8
画層1
370
    20
100
AcDbPolyline
 90
        4
 70
     1
 43
0.0
 10
-649.5652292295692
 20
284.9587767256671
 10
-636.5652292295692
 20
284.9587767256671
 10
-636.5652292295692
 20
282.9587767256671
 10
-649.5652292295692
 20
282.9587767256671
  0
LINE
  5
14BE
330
2
100
AcDbEntity
  8
画層1
370
    20
100
AcDbLine
 10
-645.0652292295692
 20
282.9587767256671
 30
0.0
 11
-641.0652292295692
 21
282.9587767256671
 31
0.0
  0
LINE
  5
14BF
330
2
100
AcDbEntity
  8
画層1
370
    20
100
AcDbLine
 10
-648.5652292295692
 20
282.9587767256671
 30
0.0
 11
-648.5652292295692
 21
274.9587767256671
 31
0.0
  0
LINE
  5
14C0
330
2
100
AcDbEntity
  8
画層1
370
    20
100
AcDbLine
 10
-647.0652292295692
 20
276.9587767256671
 30
0.0
 11
-647.0652292295692
 21
280.9587767256671
 31
0.0
  0
LWPOLYLINE
  5
14C5
330
2
100
AcDbEntity
  8
画層1
370
    20
100
AcDbPolyline
 90
        8
 70
     1
 43
0.0
 10
-601.5652295960735
 20
209.4587767371689
 10
-527.5652295960735
 20
209.4587767371689
 42
0.4142135623730951
 10
-525.5652295960735
 20
211.4587767371689
 10
-525.5652295960735
 20
326.4587767371689
 42
0.4142135623730951
 10
-527.5652295960735
 20
328.4587767371689
 10
-601.5652295960735
 20
328.4587767371689
 42
0.4142135623730951
 10
-603.5652295960735
 20
326.4587767371689
 10
-603.5652295960735
 20
211.4587767371689
 42
0.4142135623730951
  0
LWPOLYLINE
  5
14CB
330
2
100
AcDbEntity
  8
画層1
370
    20
100
AcDbPolyline
 90
        4
 70
     1
 43
0.0
 10
-595.5652295960735
 20
173.4587767371689
 10
-532.5652295960735
 20
173.4587767371689
 10
-532.5652295960735
 20
208.4587767371689
 10
-595.5652295960735
 20
208.4587767371689
  0
CIRCLE
  5
14D5
330
2
100
AcDbEntity
  8
画層1
370
    20
100
AcDbCircle
 10
-323.5882863869524
 20
308.958776737169
 30
0.0
 40
5.0
  0
LINE
  5
14EA
330
2
100
AcDbEntity
  8
画層1
370
    20
100
AcDbLine
 10
-324.5882863869524
 20
311.9587767371689
 30
0.0
 11
-324.5882863869524
 21
310.958776737169
 31
0.0
  0
LINE
  5
14EB
330
2
100
AcDbEntity
  8
画層1
370
    20
100
AcDbLine
 10
-325.5882863869524
 20
309.9587767371689
 30
0.0
 11
-326.5882863869524
 21
309.9587767371689
 31
0.0
  0
LINE
  5
14EC
330
2
100
AcDbEntity
  8
画層1
370
    20
100
AcDbLine
 10
-326.5882863869524
 20
309.9587767371689
 30
0.0
 11
-326.5882863869524
 21
307.9587767371689
 31
0.0
  0
LINE
  5
14ED
330
2
100
AcDbEntity
  8
画層1
370
    20
100
AcDbLine
 10
-326.5882863869524
 20
307.9587767371689
 30
0.0
 11
-325.5882863869524
 21
307.9587767371689
 31
0.0
  0
LINE
  5
14EE
330
2
100
AcDbEntity
  8
画層1
370
    20
100
AcDbLine
 10
-324.5882863869524
 20
306.958776737169
 30
0.0
 11
-324.5882863869524
 21
305.9587767371689
 31
0.0
  0
LINE
  5
14EF
330
2
100
AcDbEntity
  8
画層1
370
    20
100
AcDbLine
 10
-324.5882863869524
 20
305.9587767371689
 30
0.0
 11
-322.5882863869524
 21
305.9587767371689
 31
0.0
  0
LINE
  5
14F0
330
2
100
AcDbEntity
  8
画層1
370
    20
100
AcDbLine
 10
-322.5882863869524
 20
305.9587767371689
 30
0.0
 11
-322.5882863869524
 21
306.958776737169
 31
0.0
  0
LINE
  5
14F1
330
2
100
AcDbEntity
  8
画層1
370
    20
100
AcDbLine
 10
-321.5882863869524
 20
307.9587767371689
 30
0.0
 11
-320.5882863869524
 21
307.9587767371689
 31
0.0
  0
LINE
  5
14F2
330
2
100
AcDbEntity
  8
画層1
370
    20
100
AcDbLine
 10
-320.5882863869524
 20
307.9587767371689
 30
0.0
 11
-320.5882863869524
 21
309.9587767371689
 31
0.0
  0
LINE
  5
14F3
330
2
100
AcDbEntity
  8
画層1
370
    20
100
AcDbLine
 10
-320.5882863869524
 20
309.9587767371689
 30
0.0
 11
-321.5882863869524
 21
309.9587767371689
 31
0.0
  0
LINE
  5
14F4
330
2
100
AcDbEntity
  8
画層1
370
    20
100
AcDbLine
 10
-322.5882863869524
 20
310.958776737169
 30
0.0
 11
-322.5882863869524
 21
311.9587767371689
 31
0.0
  0
LINE
  5
14F5
330
2
100
AcDbEntity
  8
画層1
370
    20
100
AcDbLine
 10
-322.5882863869524
 20
311.9587767371689
 30
0.0
 11
-324.5882863869524
 21
311.9587767371689
 31
0.0
  0
ARC
  5
14F8
330
2
100
AcDbEntity
  8
画層1
370
    20
100
AcDbCircle
 10
-325.5882863869524
 20
306.958776737169
 30
0.0
 40
1.0
100
AcDbArc
 50
0.0
 51
90.0
  0
ARC
  5
14F9
330
2
100
AcDbEntity
  8
画層1
370
    20
100
AcDbCircle
 10
-321.5882863869524
 20
306.958776737169
 30
0.0
 40
1.0
100
AcDbArc
 50
90.0
 51
180.0
  0
ARC
  5
14FA
330
2
100
AcDbEntity
  8
画層1
370
    20
100
AcDbCircle
 10
-325.5882863869524
 20
310.958776737169
 30
0.0
 40
1.0
100
AcDbArc
 50
270.0
 51
0.0
  0
ARC
  5
14FB
330
2
100
AcDbEntity
  8
画層1
370
    20
100
AcDbCircle
 10
-321.5882863869524
 20
310.958776737169
 30
0.0
 40
1.0
100
AcDbArc
 50
180.0
 51
270.0
  0
LINE
  5
14FC
330
2
100
AcDbEntity
  8
画層1
370
    20
100
AcDbLine
 10
-326.5882863869524
 20
169.9587767371689
 30
0.0
 11
-326.5882863869524
 21
167.9587767371689
 31
0.0
  0
LINE
  5
14FD
330
2
100
AcDbEntity
  8
画層1
370
    20
100
AcDbLine
 10
-320.5882863869524
 20
167.9587767371689
 30
0.0
 11
-320.5882863869524
 21
169.9587767371689
 31
0.0
  0
ARC
  5
14FE
330
2
100
AcDbEntity
  8
画層1
370
    20
100
AcDbCircle
 10
-321.5882863869524
 20
166.9587767371689
 30
0.0
 40
1.0
100
AcDbArc
 50
90.0
 51
180.0
  0
ARC
  5
14FF
330
2
100
AcDbEntity
  8
画層1
370
    20
100
AcDbCircle
 10
-325.5882863869524
 20
166.9587767371689
 30
0.0
 40
1.0
100
AcDbArc
 50
0.0
 51
90.0
  0
CIRCLE
  5
1500
330
2
100
AcDbEntity
  8
画層1
370
    20
100
AcDbCircle
 10
-323.5882863869524
 20
168.9587767371689
 30
0.0
 40
5.0
  0
LINE
  5
1501
330
2
100
AcDbEntity
  8
画層1
370
    20
100
AcDbLine
 10
-321.5882863869524
 20
167.9587767371689
 30
0.0
 11
-320.5882863869524
 21
167.9587767371689
 31
0.0
  0
LINE
  5
1502
330
2
100
AcDbEntity
  8
画層1
370
    20
100
AcDbLine
 10
-324.5882863869524
 20
165.9587767371689
 30
0.0
 11
-322.5882863869524
 21
165.9587767371689
 31
0.0
  0
LINE
  5
1503
330
2
100
AcDbEntity
  8
画層1
370
    20
100
AcDbLine
 10
-322.5882863869524
 20
165.9587767371689
 30
0.0
 11
-322.5882863869524
 21
166.9587767371689
 31
0.0
  0
LINE
  5
1504
330
2
100
AcDbEntity
  8
画層1
370
    20
100
AcDbLine
 10
-324.5882863869524
 20
166.9587767371689
 30
0.0
 11
-324.5882863869524
 21
165.9587767371689
 31
0.0
  0
LINE
  5
1505
330
2
100
AcDbEntity
  8
画層1
370
    20
100
AcDbLine
 10
-326.5882863869524
 20
167.9587767371689
 30
0.0
 11
-325.5882863869524
 21
167.9587767371689
 31
0.0
  0
LINE
  5
1506
330
2
100
AcDbEntity
  8
画層1
370
    20
100
AcDbLine
 10
-320.5882863869524
 20
169.9587767371689
 30
0.0
 11
-321.5882863869524
 21
169.9587767371689
 31
0.0
  0
LINE
  5
1507
330
2
100
AcDbEntity
  8
画層1
370
    20
100
AcDbLine
 10
-322.5882863869524
 20
171.9587767371689
 30
0.0
 11
-324.5882863869524
 21
171.9587767371689
 31
0.0
  0
LINE
  5
1508
330
2
100
AcDbEntity
  8
画層1
370
    20
100
AcDbLine
 10
-322.5882863869524
 20
170.9587767371689
 30
0.0
 11
-322.5882863869524
 21
171.9587767371689
 31
0.0
  0
ARC
  5
1509
330
2
100
AcDbEntity
  8
画層1
370
    20
100
AcDbCircle
 10
-321.5882863869524
 20
170.9587767371689
 30
0.0
 40
1.0
100
AcDbArc
 50
180.0
 51
270.0
  0
LINE
  5
150A
330
2
100
AcDbEntity
  8
画層1
370
    20
100
AcDbLine
 10
-325.5882863869524
 20
169.9587767371689
 30
0.0
 11
-326.5882863869524
 21
169.9587767371689
 31
0.0
  0
LINE
  5
150B
330
2
100
AcDbEntity
  8
画層1
370
    20
100
AcDbLine
 10
-324.5882863869524
 20
171.9587767371689
 30
0.0
 11
-324.5882863869524
 21
170.9587767371689
 31
0.0
  0
ARC
  5
150C
330
2
100
AcDbEntity
  8
画層1
370
    20
100
AcDbCircle
 10
-325.5882863869524
 20
170.9587767371689
 30
0.0
 40
1.0
100
AcDbArc
 50
270.0
 51
0.0
  0
LWPOLYLINE
  5
150F
330
2
100
AcDbEntity
  8
画層1
370
    20
100
AcDbPolyline
 90
        8
 70
     0
 43
0.0
 10
-435.0882863869523
 20
170.458776737169
 10
-390.5882863869523
 20
170.458776737169
 42
-0.4142135623730951
 10
-389.5882863869524
 20
169.458776737169
 10
-389.5882863869524
 20
122.9587767371689
 10
-380.5882863869523
 20
122.9587767371689
 42
0.4142135623730951
 10
-378.5882863869524
 20
124.9587767371689
 10
-378.5882863869524
 20
339.958776737169
 42
0.4142135623730951
 10
-380.5882863869523
 20
341.958776737169
  0
LWPOLYLINE
  5
1510
330
2
100
AcDbEntity
  8
画層1
370
    20
100
AcDbPolyline
 90
        2
 70
     0
 43
0.0
 10
-387.5882863869523
 20
350.9587767371689
 10
-387.5882863869523
 20
341.958776737169
  0
LINE
  5
151D
330
2
100
AcDbEntity
  8
画層1
370
    20
100
AcDbLine
 10
-387.5882863869523
 20
121.9587767371689
 30
0.0
 11
-271.5882863869524
 21
121.9587767371689
 31
0.0
  0
LINE
  5
151E
330
2
100
AcDbEntity
  8
画層1
370
    20
100
AcDbLine
 10
-271.5882863869524
 20
121.9587767371689
 30
0.0
 11
-271.5882863869524
 21
355.9587767371689
 31
0.0
  0
LINE
  5
151F
330
2
100
AcDbEntity
  8
画層1
370
    20
100
AcDbLine
 10
-271.5882863869524
 20
355.9587767371689
 30
0.0
 11
-382.5882863869523
 21
355.9587767371689
 31
0.0
  0
ARC
  5
1520
330
2
100
AcDbEntity
  8
画層1
370
    20
100
AcDbCircle
 10
-382.5882863869523
 20
350.9587767371689
 30
0.0
 40
5.0
100
AcDbArc
 50
90.0
 51
180.0
  0
LINE
  5
154E
330
2
100
AcDbEntity
  8
画層1
370
    20
100
AcDbLine
 10
-387.5882863869523
 20
121.9587767371689
 30
0.0
 11
-387.5882863869523
 21
122.9587767371689
 31
0.0
  0
LINE
  5
1867
330
2
100
AcDbEntity
  8
画層1
370
    20
100
AcDbLine
 10
-389.5882863869524
 20
146.9587767371689
 30
0.0
 11
-399.5882863869524
 21
144.9587767371689
 31
0.0
  0
LINE
  5
1868
330
2
100
AcDbEntity
  8
画層1
370
    20
100
AcDbLine
 10
-399.5882863869524
 20
144.9587767371689
 30
0.0
 11
-399.5882863869524
 21
124.9587767371689
 31
0.0
  0
LINE
  5
1869
330
2
100
AcDbEntity
  8
画層1
370
    20
100
AcDbLine
 10
-399.5882863869524
 20
124.9587767371689
 30
0.0
 11
-389.5882863869524
 21
122.9587767371689
 31
0.0
  0
LINE
  5
186F
330
2
100
AcDbEntity
  8
画層1
370
    20
100
AcDbLine
 10
-389.5882863869524
 20
146.9587767371689
 30
0.0
 11
-405.5882863869523
 21
146.9587767371689
 31
0.0
  0
LINE
  5
1870
330
2
100
AcDbEntity
  8
画層1
370
    20
100
AcDbLine
 10
-407.5882863869524
 20
144.9587767371689
 30
0.0
 11
-407.5882863869524
 21
138.4587767371689
 31
0.0
  0
LINE
  5
1871
330
2
100
AcDbEntity
  8
画層1
370
    20
100
AcDbLine
 10
-405.5882863869523
 20
122.9587767371689
 30
0.0
 11
-389.5882863869524
 21
122.9587767371689
 31
0.0
  0
LINE
  5
1873
330
2
100
AcDbEntity
  8
画層1
370
    20
100
AcDbLine
 10
-399.5882863869524
 20
131.4587767371689
 30
0.0
 11
-408.5882863869524
 21
131.4587767371689
 31
0.0
  0
LINE
  5
1874
330
2
100
AcDbEntity
  8
画層1
370
    20
100
AcDbLine
 10
-408.5882863869524
 20
131.4587767371689
 30
0.0
 11
-408.5882863869524
 21
138.4587767371689
 31
0.0
  0
LINE
  5
1875
330
2
100
AcDbEntity
  8
画層1
370
    20
100
AcDbLine
 10
-408.5882863869524
 20
138.4587767371689
 30
0.0
 11
-399.5882863869524
 21
138.4587767371689
 31
0.0
  0
LINE
  5
1876
330
2
100
AcDbEntity
  8
画層1
370
    20
100
AcDbLine
 10
-407.5882863869524
 20
131.4587767371689
 30
0.0
 11
-407.5882863869524
 21
124.9587767371689
 31
0.0
  0
LWPOLYLINE
  5
187B
330
2
100
AcDbEntity
  8
画層1
370
    20
100
AcDbPolyline
 90
        4
 70
     1
 43
0.0
 10
-410.5882863869523
 20
122.9587767371689
 10
-408.5882863869524
 20
122.9587767371689
 10
-408.5882863869524
 20
146.9587767371689
 10
-410.5882863869523
 20
146.9587767371689
  0
LINE
  5
187F
330
2
100
AcDbEntity
  8
画層1
370
    20
100
AcDbLine
 10
-410.5882863869523
 20
130.958776737169
 30
0.0
 11
-411.5882863869524
 21
130.958776737169
 31
0.0
  0
LINE
  5
1880
330
2
100
AcDbEntity
  8
画層1
370
    20
100
AcDbLine
 10
-413.5882863869523
 20
136.4587767371689
 30
0.0
 11
-413.5882863869523
 21
136.9587767371689
 31
0.0
  0
LINE
  5
1881
330
2
100
AcDbEntity
  8
画層1
370
    20
100
AcDbLine
 10
-411.5882863869524
 20
138.9587767371689
 30
0.0
 11
-410.5882863869523
 21
138.9587767371689
 31
0.0
  0
LINE
  5
1882
330
2
100
AcDbEntity
  8
画層1
370
    20
100
AcDbLine
 10
-411.5882863869524
 20
138.9587767371689
 30
0.0
 11
-411.5882863869524
 21
130.958776737169
 31
0.0
  0
ARC
  5
1883
330
2
100
AcDbEntity
  8
画層1
370
    20
100
AcDbCircle
 10
-411.5882863869524
 20
136.9587767371689
 30
0.0
 40
2.0
100
AcDbArc
 50
90.0
 51
180.0
  0
ARC
  5
1884
330
2
100
AcDbEntity
  8
画層1
370
    20
100
AcDbCircle
 10
-411.5882863869524
 20
132.9587767371689
 30
0.0
 40
2.0
100
AcDbArc
 50
180.0
 51
270.0
  0
LINE
  5
188E
330
2
100
AcDbEntity
  8
画層1
370
    20
100
AcDbLine
 10
-412.5882863869524
 20
135.4587767371689
 30
0.0
 11
-412.5882863869524
 21
134.4587767371689
 31
0.0
  0
LINE
  5
188F
330
2
100
AcDbEntity
  8
画層1
370
    20
100
AcDbLine
 10
-412.5882863869524
 20
135.4587767371689
 30
0.0
 11
-412.5882863869524
 21
135.4587767371689
 31
0.0
  0
LINE
  5
1890
330
2
100
AcDbEntity
  8
画層1
370
    20
100
AcDbLine
 10
-413.5882863869523
 20
133.4587767371689
 30
0.0
 11
-413.5882863869523
 21
136.4587767371689
 31
0.0
  0
ARC
  5
1891
330
2
100
AcDbEntity
  8
画層1
370
    20
100
AcDbCircle
 10
-412.5882863869524
 20
136.4587767371689
 30
0.0
 40
1.0
100
AcDbArc
 50
180.0
 51
270.0
  0
LINE
  5
1893
330
2
100
AcDbEntity
  8
画層1
370
    20
100
AcDbLine
 10
-413.5882863869523
 20
133.4587767371689
 30
0.0
 11
-413.5882863869523
 21
132.9587767371689
 31
0.0
  0
LINE
  5
1894
330
2
100
AcDbEntity
  8
画層1
370
    20
100
AcDbLine
 10
-412.5882863869524
 20
134.4587767371689
 30
0.0
 11
-412.5882863869524
 21
134.4587767371689
 31
0.0
  0
ARC
  5
1895
330
2
100
AcDbEntity
  8
画層1
370
    20
100
AcDbCircle
 10
-412.5882863869524
 20
133.4587767371689
 30
0.0
 40
1.0
100
AcDbArc
 50
90.0
 51
180.0
  0
CIRCLE
  5
18C7
330
2
100
AcDbEntity
  8
画層1
370
    20
100
AcDbCircle
 10
-383.0882863869524
 20
148.9587767371689
 30
0.0
 40
4.0
  0
CIRCLE
  5
18C9
330
2
100
AcDbEntity
  8
画層1
370
    20
100
AcDbCircle
 10
-383.0882863869524
 20
148.9587767371689
 30
0.0
 40
3.0
  0
LINE
  5
18D2
330
2
100
AcDbEntity
  8
画層1
370
    20
100
AcDbLine
 10
-383.5882863869524
 20
150.4587767371689
 30
0.0
 11
-383.5882863869524
 21
149.4587767371689
 31
0.0
  0
LINE
  5
18D3
330
2
100
AcDbEntity
  8
画層1
370
    20
100
AcDbLine
 10
-383.5882863869524
 20
149.4587767371689
 30
0.0
 11
-384.5882863869523
 21
149.4587767371689
 31
0.0
  0
LINE
  5
18D4
330
2
100
AcDbEntity
  8
画層1
370
    20
100
AcDbLine
 10
-384.5882863869523
 20
149.4587767371689
 30
0.0
 11
-384.5882863869523
 21
148.4587767371689
 31
0.0
  0
LINE
  5
18D5
330
2
100
AcDbEntity
  8
画層1
370
    20
100
AcDbLine
 10
-384.5882863869523
 20
148.4587767371689
 30
0.0
 11
-383.5882863869524
 21
148.4587767371689
 31
0.0
  0
LINE
  5
18D6
330
2
100
AcDbEntity
  8
画層1
370
    20
100
AcDbLine
 10
-383.5882863869524
 20
148.4587767371689
 30
0.0
 11
-383.5882863869524
 21
147.4587767371689
 31
0.0
  0
LINE
  5
18D7
330
2
100
AcDbEntity
  8
画層1
370
    20
100
AcDbLine
 10
-383.5882863869524
 20
147.4587767371689
 30
0.0
 11
-382.5882863869523
 21
147.4587767371689
 31
0.0
  0
LINE
  5
18D8
330
2
100
AcDbEntity
  8
画層1
370
    20
100
AcDbLine
 10
-382.5882863869523
 20
147.4587767371689
 30
0.0
 11
-382.5882863869523
 21
148.4587767371689
 31
0.0
  0
LINE
  5
18D9
330
2
100
AcDbEntity
  8
画層1
370
    20
100
AcDbLine
 10
-382.5882863869523
 20
148.4587767371689
 30
0.0
 11
-381.5882863869524
 21
148.4587767371689
 31
0.0
  0
LINE
  5
18DA
330
2
100
AcDbEntity
  8
画層1
370
    20
100
AcDbLine
 10
-381.5882863869524
 20
148.4587767371689
 30
0.0
 11
-381.5882863869524
 21
149.4587767371689
 31
0.0
  0
LINE
  5
18DB
330
2
100
AcDbEntity
  8
画層1
370
    20
100
AcDbLine
 10
-381.5882863869524
 20
149.4587767371689
 30
0.0
 11
-382.5882863869523
 21
149.4587767371689
 31
0.0
  0
LINE
  5
18DC
330
2
100
AcDbEntity
  8
画層1
370
    20
100
AcDbLine
 10
-382.5882863869523
 20
149.4587767371689
 30
0.0
 11
-382.5882863869523
 21
150.4587767371689
 31
0.0
  0
LINE
  5
18DD
330
2
100
AcDbEntity
  8
画層1
370
    20
100
AcDbLine
 10
-382.5882863869523
 20
150.4587767371689
 30
0.0
 11
-383.5882863869524
 21
150.4587767371689
 31
0.0
  0
LINE
  5
18E8
330
2
100
AcDbEntity
  8
画層1
370
    20
100
AcDbLine
 10
-390.5882863869523
 20
168.9587767371689
 30
0.0
 11
-392.5882863869524
 21
168.9587767371689
 31
0.0
  0
LINE
  5
18E9
330
2
100
AcDbEntity
  8
画層1
370
    20
100
AcDbLine
 10
-394.5882863869524
 20
166.9587767371689
 30
0.0
 11
-394.5882863869524
 21
162.9587767371689
 31
0.0
  0
LINE
  5
18EA
330
2
100
AcDbEntity
  8
画層1
370
    20
100
AcDbLine
 10
-392.5882863869524
 20
160.9587767371689
 30
0.0
 11
-390.5882863869523
 21
160.9587767371689
 31
0.0
  0
ARC
  5
18ED
330
2
100
AcDbEntity
  8
画層1
370
    20
100
AcDbCircle
 10
-392.5882863869524
 20
162.9587767371689
 30
0.0
 40
2.0
100
AcDbArc
 50
180.0
 51
270.0
  0
ARC
  5
18EE
330
2
100
AcDbEntity
  8
画層1
370
    20
100
AcDbCircle
 10
-392.5882863869524
 20
166.9587767371689
 30
0.0
 40
2.0
100
AcDbArc
 50
90.0
 51
180.0
  0
LINE
  5
18EF
330
2
100
AcDbEntity
  8
画層1
370
    20
100
AcDbLine
 10
-390.5882863869523
 20
160.9587767371689
 30
0.0
 11
-389.5882863869524
 21
160.9587767371689
 31
0.0
  0
LINE
  5
18F1
330
2
100
AcDbEntity
  8
画層1
370
    20
100
AcDbLine
 10
-390.5882863869523
 20
160.9587767371689
 30
0.0
 11
-390.5882863869523
 21
168.9587767371689
 31
0.0
  0
LINE
  5
18F3
330
2
100
AcDbEntity
  8
画層1
370
    20
100
AcDbLine
 10
-391.0882863869524
 20
169.458776737169
 30
0.0
 11
-435.5882863869524
 21
169.458776737169
 31
0.0
  0
LINE
  5
18F4
330
2
100
AcDbEntity
  8
画層1
370
    20
100
AcDbLine
 10
-436.5882863869524
 20
170.458776737169
 30
0.0
 11
-436.5882863869524
 21
331.458776737169
 31
0.0
  0
LINE
  5
18F6
330
2
100
AcDbEntity
  8
画層1
370
    20
100
AcDbLine
 10
-435.5882863869523
 20
332.4587767371689
 30
0.0
 11
-391.0882863869524
 21
332.4587767371689
 31
0.0
  0
LINE
  5
18F7
330
2
100
AcDbEntity
  8
画層1
370
    20
100
AcDbLine
 10
-390.5882863869523
 20
332.9587767371689
 30
0.0
 11
-390.5882863869523
 21
340.9587767371689
 31
0.0
  0
LINE
  5
18F8
330
2
100
AcDbEntity
  8
画層1
370
    20
100
AcDbLine
 10
-390.5882863869523
 20
340.9587767371689
 30
0.0
 11
-389.5882863869524
 21
340.9587767371689
 31
0.0
  0
CIRCLE
  5
18FA
330
2
100
AcDbEntity
  8
画層1
370
    20
100
AcDbCircle
 10
-383.0882863869524
 20
320.958776737169
 30
0.0
 40
4.0
  0
LINE
  5
18FB
330
2
100
AcDbEntity
  8
画層1
370
    20
100
AcDbLine
 10
-382.5882863869523
 20
322.4587767371689
 30
0.0
 11
-383.5882863869524
 21
322.4587767371689
 31
0.0
  0
LINE
  5
18FC
330
2
100
AcDbEntity
  8
画層1
370
    20
100
AcDbLine
 10
-382.5882863869523
 20
321.458776737169
 30
0.0
 11
-382.5882863869523
 21
322.4587767371689
 31
0.0
  0
LINE
  5
18FD
330
2
100
AcDbEntity
  8
画層1
370
    20
100
AcDbLine
 10
-381.5882863869524
 20
321.458776737169
 30
0.0
 11
-382.5882863869523
 21
321.458776737169
 31
0.0
  0
LINE
  5
18FE
330
2
100
AcDbEntity
  8
画層1
370
    20
100
AcDbLine
 10
-381.5882863869524
 20
320.4587767371689
 30
0.0
 11
-381.5882863869524
 21
321.458776737169
 31
0.0
  0
LINE
  5
18FF
330
2
100
AcDbEntity
  8
画層1
370
    20
100
AcDbLine
 10
-382.5882863869523
 20
320.4587767371689
 30
0.0
 11
-381.5882863869524
 21
320.4587767371689
 31
0.0
  0
LINE
  5
1900
330
2
100
AcDbEntity
  8
画層1
370
    20
100
AcDbLine
 10
-382.5882863869523
 20
319.458776737169
 30
0.0
 11
-382.5882863869523
 21
320.4587767371689
 31
0.0
  0
LINE
  5
1901
330
2
100
AcDbEntity
  8
画層1
370
    20
100
AcDbLine
 10
-383.5882863869524
 20
319.458776737169
 30
0.0
 11
-382.5882863869523
 21
319.458776737169
 31
0.0
  0
LINE
  5
1902
330
2
100
AcDbEntity
  8
画層1
370
    20
100
AcDbLine
 10
-383.5882863869524
 20
320.4587767371689
 30
0.0
 11
-383.5882863869524
 21
319.458776737169
 31
0.0
  0
LINE
  5
1903
330
2
100
AcDbEntity
  8
画層1
370
    20
100
AcDbLine
 10
-384.5882863869523
 20
320.4587767371689
 30
0.0
 11
-383.5882863869524
 21
320.4587767371689
 31
0.0
  0
LINE
  5
1904
330
2
100
AcDbEntity
  8
画層1
370
    20
100
AcDbLine
 10
-384.5882863869523
 20
321.458776737169
 30
0.0
 11
-384.5882863869523
 21
320.4587767371689
 31
0.0
  0
LINE
  5
1905
330
2
100
AcDbEntity
  8
画層1
370
    20
100
AcDbLine
 10
-383.5882863869524
 20
321.458776737169
 30
0.0
 11
-384.5882863869523
 21
321.458776737169
 31
0.0
  0
LINE
  5
1906
330
2
100
AcDbEntity
  8
画層1
370
    20
100
AcDbLine
 10
-383.5882863869524
 20
322.4587767371689
 30
0.0
 11
-383.5882863869524
 21
321.458776737169
 31
0.0
  0
CIRCLE
  5
1907
330
2
100
AcDbEntity
  8
画層1
370
    20
100
AcDbCircle
 10
-383.0882863869524
 20
320.958776737169
 30
0.0
 40
3.0
  0
ARC
  5
1908
330
2
100
AcDbEntity
  8
画層1
370
    20
100
AcDbCircle
 10
-392.5882863869524
 20
334.9587767371689
 30
0.0
 40
2.0
100
AcDbArc
 50
180.0
 51
270.0
  0
LINE
  5
1909
330
2
100
AcDbEntity
  8
画層1
370
    20
100
AcDbLine
 10
-392.5882863869524
 20
332.9587767371689
 30
0.0
 11
-390.5882863869523
 21
332.9587767371689
 31
0.0
  0
LINE
  5
190A
330
2
100
AcDbEntity
  8
画層1
370
    20
100
AcDbLine
 10
-390.5882863869523
 20
340.9587767371689
 30
0.0
 11
-392.5882863869524
 21
340.9587767371689
 31
0.0
  0
LINE
  5
190B
330
2
100
AcDbEntity
  8
画層1
370
    20
100
AcDbLine
 10
-394.5882863869524
 20
338.9587767371689
 30
0.0
 11
-394.5882863869524
 21
334.9587767371689
 31
0.0
  0
ARC
  5
190C
330
2
100
AcDbEntity
  8
画層1
370
    20
100
AcDbCircle
 10
-392.5882863869524
 20
338.9587767371689
 30
0.0
 40
2.0
100
AcDbArc
 50
90.0
 51
180.0
  0
ARC
  5
190F
330
2
100
AcDbEntity
  8
画層1
370
    20
100
AcDbCircle
 10
-435.5882863869523
 20
331.458776737169
 30
0.0
 40
1.0
100
AcDbArc
 50
90.0
 51
180.0
  0
LINE
  5
1911
330
2
100
AcDbEntity
  8
画層1
370
    20
100
AcDbLine
 10
-435.0882863869523
 20
331.458776737169
 30
0.0
 11
-390.5882863869523
 21
331.4587767371689
 31
0.0
  0
ARC
  5
1913
330
2
100
AcDbEntity
  8
画層1
370
    20
100
AcDbCircle
 10
-391.0882863869524
 20
332.9587767371689
 30
0.0
 40
0.5
100
AcDbArc
 50
270.0
 51
0.0
  0
ARC
  5
1914
330
2
100
AcDbEntity
  8
画層1
370
    20
100
AcDbCircle
 10
-391.0882863869524
 20
168.9587767371689
 30
0.0
 40
0.5
100
AcDbArc
 50
0.0
 51
90.0
  0
ARC
  5
1915
330
2
100
AcDbEntity
  8
画層1
370
    20
100
AcDbCircle
 10
-435.5882863869524
 20
170.458776737169
 30
0.0
 40
1.0
100
AcDbArc
 50
180.0
 51
270.0
  0
LINE
  5
1921
330
2
100
AcDbEntity
  8
画層1
370
    20
100
AcDbLine
 10
-435.5882863869523
 20
330.9587767371689
 30
0.0
 11
-417.5882863869524
 21
330.9587767371689
 31
0.0
  0
LINE
  5
1922
330
2
100
AcDbEntity
  8
画層1
370
    20
100
AcDbLine
 10
-415.5882863869524
 20
328.9587767371689
 30
0.0
 11
-415.5882863869524
 21
172.9587767371689
 31
0.0
  0
LINE
  5
1923
330
2
100
AcDbEntity
  8
画層1
370
    20
100
AcDbLine
 10
-417.5882863869524
 20
170.9587767371689
 30
0.0
 11
-435.5882863869523
 21
170.9587767371689
 31
0.0
  0
ARC
  5
1924
330
2
100
AcDbEntity
  8
画層1
370
    20
100
AcDbCircle
 10
-417.5882863869524
 20
172.9587767371689
 30
0.0
 40
2.0
100
AcDbArc
 50
270.0
 51
0.0
  0
ARC
  5
1925
330
2
100
AcDbEntity
  8
画層1
370
    20
100
AcDbCircle
 10
-417.5882863869524
 20
328.9587767371689
 30
0.0
 40
2.0
100
AcDbArc
 50
0.0
 51
90.0
  0
LINE
  5
1927
330
2
100
AcDbEntity
  8
画層1
 62
     1
370
    20
100
AcDbLine
 10
-435.5882863869523
 20
330.9587767371689
 30
0.0
 11
-435.5882863869523
 21
330.9587767371689
 31
0.0
  0
ARC
  5
1928
330
2
100
AcDbEntity
  8
画層1
370
    20
100
AcDbCircle
 10
-435.0882863869523
 20
330.9587767371689
 30
0.0
 40
0.5
100
AcDbArc
 50
90.0
 51
180.0
  0
LINE
  5
1929
330
2
100
AcDbEntity
  8
画層1
 62
     1
370
    20
100
AcDbLine
 10
-435.5882863869523
 20
170.958776737169
 30
0.0
 11
-435.5882863869523
 21
170.9587767371689
 31
0.0
  0
ARC
  5
192A
330
2
100
AcDbEntity
  8
画層1
370
    20
100
AcDbCircle
 10
-435.0882863869523
 20
170.958776737169
 30
0.0
 40
0.5
100
AcDbArc
 50
180.0
 51
270.0
  0
LINE
  5
192B
330
2
100
AcDbEntity
  8
画層1
370
    20
100
AcDbLine
 10
-387.5882863869523
 20
341.958776737169
 30
0.0
 11
-387.5882863869523
 21
122.9587767371689
 31
0.0
  0
LINE
  5
192E
330
2
100
AcDbEntity
  8
画層1
370
    20
100
AcDbLine
 10
-380.5882863869523
 20
341.958776737169
 30
0.0
 11
-389.5882863869524
 21
341.958776737169
 31
0.0
  0
LINE
  5
1930
330
2
100
AcDbEntity
  8
画層1
370
    20
100
AcDbLine
 10
-389.5882863869524
 20
332.4587767371689
 30
0.0
 11
-389.5882863869524
 21
341.958776737169
 31
0.0
  0
ARC
  5
1931
330
2
100
AcDbEntity
  8
画層1
370
    20
100
AcDbCircle
 10
-390.5882863869523
 20
332.4587767371689
 30
0.0
 40
1.0
100
AcDbArc
 50
270.0
 51
0.0
  0
LINE
  5
1932
330
2
100
AcDbEntity
  8
画層1
370
    20
100
AcDbLine
 10
-389.5882863869523
 20
332.4587767371689
 30
0.0
 11
-389.5882863869524
 21
169.458776737169
 31
0.0
  0
LINE
  5
193A
330
2
100
AcDbEntity
  8
画層1
370
    20
100
AcDbLine
 10
-393.5882863869524
 20
165.3854908631551
 30
0.0
 11
-393.5882863869524
 21
164.3854908631551
 31
0.0
  0
ARC
  5
193B
330
2
100
AcDbEntity
  8
画層1
370
    20
100
AcDbCircle
 10
-393.5882863869524
 20
163.385490863155
 30
0.0
 40
1.0
100
AcDbArc
 50
90.0
 51
180.0
  0
ARC
  5
193C
330
2
100
AcDbEntity
  8
画層1
370
    20
100
AcDbCircle
 10
-393.5882863869524
 20
166.3854908631551
 30
0.0
 40
1.0
100
AcDbArc
 50
180.0
 51
270.0
  0
LINE
  5
193D
330
2
100
AcDbEntity
  8
画層1
370
    20
100
AcDbLine
 10
-393.5882863869524
 20
337.3854908631551
 30
0.0
 11
-393.5882863869524
 21
336.3854908631551
 31
0.0
  0
ARC
  5
193E
330
2
100
AcDbEntity
  8
画層1
370
    20
100
AcDbCircle
 10
-393.5882863869524
 20
335.3854908631551
 30
0.0
 40
1.0
100
AcDbArc
 50
90.0
 51
180.0
  0
ARC
  5
193F
330
2
100
AcDbEntity
  8
画層1
370
    20
100
AcDbCircle
 10
-393.5882863869524
 20
338.3854908631551
 30
0.0
 40
1.0
100
AcDbArc
 50
180.0
 51
270.0
  0
LWPOLYLINE
  5
1948
330
2
100
AcDbEntity
  8
画層1
370
    20
100
AcDbPolyline
 90
        4
 70
     1
 43
0.0
 10
-398.1882863869524
 20
170.9587767371689
 10
-396.5882863869524
 20
170.9587767371689
 10
-396.5882863869524
 20
320.958776737169
 10
-398.1882863869524
 20
320.958776737169
  0
LINE
  5
194E
330
2
100
AcDbEntity
  8
画層1
370
    20
100
AcDbLine
 10
-389.5882863869524
 20
171.958776737169
 30
0.0
 11
-396.5882863869524
 21
171.958776737169
 31
0.0
  0
LINE
  5
194F
330
2
100
AcDbEntity
  8
画層1
370
    20
100
AcDbLine
 10
-398.1882863869524
 20
171.958776737169
 30
0.0
 11
-403.1882863869524
 21
171.958776737169
 31
0.0
  0
LINE
  5
1950
330
2
100
AcDbEntity
  8
画層1
370
    20
100
AcDbLine
 10
-403.1882863869524
 20
171.958776737169
 30
0.0
 11
-403.1882863869524
 21
181.958776737169
 31
0.0
  0
LINE
  5
1951
330
2
100
AcDbEntity
  8
画層1
370
    20
100
AcDbLine
 10
-403.1882863869524
 20
181.958776737169
 30
0.0
 11
-398.1882863869524
 21
181.958776737169
 31
0.0
  0
LINE
  5
1952
330
2
100
AcDbEntity
  8
画層1
370
    20
100
AcDbLine
 10
-396.5882863869524
 20
181.958776737169
 30
0.0
 11
-389.5882863869524
 21
181.958776737169
 31
0.0
  0
LINE
  5
1953
330
2
100
AcDbEntity
  8
画層1
370
    20
100
AcDbLine
 10
-403.1882863869523
 20
319.958776737169
 30
0.0
 11
-398.1882863869523
 21
319.958776737169
 31
0.0
  0
LINE
  5
1954
330
2
100
AcDbEntity
  8
画層1
370
    20
100
AcDbLine
 10
-398.1882863869523
 20
309.958776737169
 30
0.0
 11
-403.1882863869523
 21
309.958776737169
 31
0.0
  0
LINE
  5
1955
330
2
100
AcDbEntity
  8
画層1
370
    20
100
AcDbLine
 10
-403.1882863869523
 20
309.958776737169
 30
0.0
 11
-403.1882863869523
 21
319.958776737169
 31
0.0
  0
LINE
  5
1956
330
2
100
AcDbEntity
  8
画層1
370
    20
100
AcDbLine
 10
-396.5882863869523
 20
319.958776737169
 30
0.0
 11
-389.5882863869523
 21
319.958776737169
 31
0.0
  0
LINE
  5
1957
330
2
100
AcDbEntity
  8
画層1
370
    20
100
AcDbLine
 10
-389.5882863869523
 20
309.958776737169
 30
0.0
 11
-396.5882863869523
 21
309.958776737169
 31
0.0
  0
LINE
  5
195D
330
2
100
AcDbEntity
  8
画層1
370
    20
100
AcDbLine
 10
-398.1882863869524
 20
182.9587767371689
 30
0.0
 11
-413.5882863869523
 21
182.9587767371689
 31
0.0
  0
LINE
  5
195E
330
2
100
AcDbEntity
  8
画層1
370
    20
100
AcDbLine
 10
-413.5882863869523
 20
182.9587767371689
 30
0.0
 11
-413.5882863869523
 21
184.9587767371689
 31
0.0
  0
LINE
  5
1961
330
2
100
AcDbEntity
  8
画層1
370
    20
100
AcDbLine
 10
-413.5882863869523
 20
184.9587767371689
 30
0.0
 11
-402.1882863869524
 21
184.9587767371689
 31
0.0
  0
LINE
  5
1990
330
2
100
AcDbEntity
  8
画層1
370
    20
100
AcDbLine
 10
-405.1882863869524
 20
184.9587767371689
 30
0.0
 11
-405.1882863869524
 21
192.9587767371689
 31
0.0
  0
LINE
  5
1991
330
2
100
AcDbEntity
  8
画層1
370
    20
100
AcDbLine
 10
-406.6882863869524
 20
184.9587767371689
 30
0.0
 11
-406.6882863869524
 21
192.9587767371689
 31
0.0
  0
LINE
  5
1992
330
2
100
AcDbEntity
  8
画層1
370
    20
100
AcDbLine
 10
-408.1882863869524
 20
184.9587767371689
 30
0.0
 11
-408.1882863869524
 21
192.9587767371689
 31
0.0
  0
LINE
  5
1995
330
2
100
AcDbEntity
  8
画層1
370
    20
100
AcDbLine
 10
-408.1882863869524
 20
185.9587767371689
 30
0.0
 11
-409.1882863869524
 21
185.9587767371689
 31
0.0
  0
LINE
  5
1996
330
2
100
AcDbEntity
  8
画層1
370
    20
100
AcDbLine
 10
-409.1882863869524
 20
185.9587767371689
 30
0.0
 11
-409.1882863869524
 21
191.9587767371689
 31
0.0
  0
LINE
  5
1997
330
2
100
AcDbEntity
  8
画層1
370
    20
100
AcDbLine
 10
-409.1882863869524
 20
191.9587767371689
 30
0.0
 11
-408.1882863869524
 21
191.9587767371689
 31
0.0
  0
LINE
  5
1999
330
2
100
AcDbEntity
  8
画層1
370
    20
100
AcDbLine
 10
-409.1882863869524
 20
185.9587767371689
 30
0.0
 11
-411.1882863869524
 21
185.9587767371689
 31
0.0
  0
LINE
  5
199A
330
2
100
AcDbEntity
  8
画層1
370
    20
100
AcDbLine
 10
-412.1882863869524
 20
186.9587767371689
 30
0.0
 11
-412.1882863869524
 21
190.9587767371689
 31
0.0
  0
LINE
  5
199B
330
2
100
AcDbEntity
  8
画層1
370
    20
100
AcDbLine
 10
-411.1882863869523
 20
191.9587767371689
 30
0.0
 11
-409.1882863869524
 21
191.9587767371689
 31
0.0
  0
ARC
  5
199C
330
2
100
AcDbEntity
  8
画層1
370
    20
100
AcDbCircle
 10
-411.1882863869524
 20
186.9587767371689
 30
0.0
 40
1.0
100
AcDbArc
 50
180.0
 51
270.0
  0
ARC
  5
199D
330
2
100
AcDbEntity
  8
画層1
370
    20
100
AcDbCircle
 10
-411.1882863869523
 20
190.9587767371689
 30
0.0
 40
1.0
100
AcDbArc
 50
90.0
 51
179.9999999999993
  0
LINE
  5
19A1
330
2
100
AcDbEntity
  8
画層1
370
    20
100
AcDbLine
 10
-402.1882863869524
 20
192.9587767371689
 30
0.0
 11
-413.5882863869523
 21
192.9587767371689
 31
0.0
  0
LINE
  5
19A2
330
2
100
AcDbEntity
  8
画層1
370
    20
100
AcDbLine
 10
-413.5882863869523
 20
192.9587767371689
 30
0.0
 11
-413.5882863869523
 21
194.9587767371689
 31
0.0
  0
LINE
  5
19A3
330
2
100
AcDbEntity
  8
画層1
370
    20
100
AcDbLine
 10
-413.5882863869523
 20
194.9587767371689
 30
0.0
 11
-402.1882863869524
 21
194.9587767371689
 31
0.0
  0
LINE
  5
19A4
330
2
100
AcDbEntity
  8
画層1
370
    20
100
AcDbLine
 10
-402.1882863869524
 20
184.9587767371689
 30
0.0
 11
-402.1882863869524
 21
192.9587767371689
 31
0.0
  0
LINE
  5
19A9
330
2
100
AcDbEntity
  8
画層1
370
    20
100
AcDbLine
 10
-411.1882863869524
 20
189.458776737169
 30
0.0
 11
-411.1882863869524
 21
188.4587767371689
 31
0.0
  0
ARC
  5
19B1
330
2
100
AcDbEntity
  8
画層1
370
    20
100
AcDbCircle
 10
-411.1882863869524
 20
187.4587767371689
 30
0.0
 40
1.0
100
AcDbArc
 50
90.0
 51
180.0
  0
ARC
  5
19B2
330
2
100
AcDbEntity
  8
画層1
370
    20
100
AcDbCircle
 10
-411.1882863869524
 20
190.4587767371689
 30
0.0
 40
1.0
100
AcDbArc
 50
180.0
 51
270.0
  0
LINE
  5
19B3
330
2
100
AcDbEntity
  8
画層1
370
    20
100
AcDbLine
 10
-411.1882863869524
 20
199.4587767371689
 30
0.0
 11
-411.1882863869524
 21
198.4587767371689
 31
0.0
  0
LINE
  5
19B4
330
2
100
AcDbEntity
  8
画層1
370
    20
100
AcDbLine
 10
-412.1882863869524
 20
196.9587767371689
 30
0.0
 11
-412.1882863869524
 21
200.9587767371689
 31
0.0
  0
LINE
  5
19B5
330
2
100
AcDbEntity
  8
画層1
370
    20
100
AcDbLine
 10
-409.1882863869524
 20
195.9587767371689
 30
0.0
 11
-409.1882863869524
 21
201.9587767371689
 31
0.0
  0
LINE
  5
19B6
330
2
100
AcDbEntity
  8
画層1
370
    20
100
AcDbLine
 10
-409.1882863869524
 20
195.9587767371689
 30
0.0
 11
-411.1882863869524
 21
195.9587767371689
 31
0.0
  0
ARC
  5
19B7
330
2
100
AcDbEntity
  8
画層1
370
    20
100
AcDbCircle
 10
-411.1882863869524
 20
197.4587767371689
 30
0.0
 40
1.0
100
AcDbArc
 50
90.0
 51
180.0
  0
ARC
  5
19B8
330
2
100
AcDbEntity
  8
画層1
370
    20
100
AcDbCircle
 10
-411.1882863869524
 20
196.9587767371689
 30
0.0
 40
1.0
100
AcDbArc
 50
180.0
 51
270.0
  0
LINE
  5
19B9
330
2
100
AcDbEntity
  8
画層1
370
    20
100
AcDbLine
 10
-408.1882863869524
 20
195.9587767371689
 30
0.0
 11
-409.1882863869524
 21
195.9587767371689
 31
0.0
  0
LINE
  5
19BA
330
2
100
AcDbEntity
  8
画層1
370
    20
100
AcDbLine
 10
-413.5882863869523
 20
204.958776737169
 30
0.0
 11
-402.1882863869524
 21
204.958776737169
 31
0.0
  0
LINE
  5
19BB
330
2
100
AcDbEntity
  8
画層1
370
    20
100
AcDbLine
 10
-402.1882863869524
 20
202.9587767371689
 30
0.0
 11
-413.5882863869523
 21
202.9587767371689
 31
0.0
  0
LINE
  5
19BC
330
2
100
AcDbEntity
  8
画層1
370
    20
100
AcDbLine
 10
-411.1882863869523
 20
201.9587767371689
 30
0.0
 11
-409.1882863869524
 21
201.9587767371689
 31
0.0
  0
ARC
  5
19BD
330
2
100
AcDbEntity
  8
画層1
370
    20
100
AcDbCircle
 10
-411.1882863869524
 20
200.458776737169
 30
0.0
 40
1.0
100
AcDbArc
 50
180.0
 51
270.0
  0
LINE
  5
19BE
330
2
100
AcDbEntity
  8
画層1
370
    20
100
AcDbLine
 10
-413.5882863869523
 20
202.9587767371689
 30
0.0
 11
-413.5882863869523
 21
204.958776737169
 31
0.0
  0
ARC
  5
19BF
330
2
100
AcDbEntity
  8
画層1
370
    20
100
AcDbCircle
 10
-411.1882863869523
 20
200.9587767371689
 30
0.0
 40
1.0
100
AcDbArc
 50
90.0
 51
179.9999999999993
  0
LINE
  5
19C0
330
2
100
AcDbEntity
  8
画層1
370
    20
100
AcDbLine
 10
-409.1882863869524
 20
201.9587767371689
 30
0.0
 11
-408.1882863869524
 21
201.9587767371689
 31
0.0
  0
LINE
  5
19C2
330
2
100
AcDbEntity
  8
画層1
370
    20
100
AcDbLine
 10
-402.1882863869524
 20
194.9587767371689
 30
0.0
 11
-402.1882863869524
 21
202.9587767371689
 31
0.0
  0
LINE
  5
19C3
330
2
100
AcDbEntity
  8
画層1
370
    20
100
AcDbLine
 10
-408.1882863869524
 20
194.9587767371689
 30
0.0
 11
-408.1882863869524
 21
202.9587767371689
 31
0.0
  0
LINE
  5
19C4
330
2
100
AcDbEntity
  8
画層1
370
    20
100
AcDbLine
 10
-406.6882863869524
 20
194.9587767371689
 30
0.0
 11
-406.6882863869524
 21
202.9587767371689
 31
0.0
  0
LINE
  5
19C5
330
2
100
AcDbEntity
  8
画層1
370
    20
100
AcDbLine
 10
-405.1882863869524
 20
194.9587767371689
 30
0.0
 11
-405.1882863869524
 21
202.9587767371689
 31
0.0
  0
LINE
  5
19D8
330
2
100
AcDbEntity
  8
画層1
370
    20
100
AcDbLine
 10
-405.1882863869524
 20
204.958776737169
 30
0.0
 11
-405.1882863869524
 21
212.958776737169
 31
0.0
  0
LINE
  5
19D9
330
2
100
AcDbEntity
  8
画層1
370
    20
100
AcDbLine
 10
-406.6882863869524
 20
204.958776737169
 30
0.0
 11
-406.6882863869524
 21
212.958776737169
 31
0.0
  0
LINE
  5
19DA
330
2
100
AcDbEntity
  8
画層1
370
    20
100
AcDbLine
 10
-408.1882863869524
 20
204.958776737169
 30
0.0
 11
-408.1882863869524
 21
212.958776737169
 31
0.0
  0
LINE
  5
19DB
330
2
100
AcDbEntity
  8
画層1
370
    20
100
AcDbLine
 10
-402.1882863869524
 20
204.958776737169
 30
0.0
 11
-402.1882863869524
 21
212.958776737169
 31
0.0
  0
ARC
  5
19DC
330
2
100
AcDbEntity
  8
画層1
370
    20
100
AcDbCircle
 10
-411.1882863869524
 20
207.4587767371689
 30
0.0
 40
1.0
100
AcDbArc
 50
90.0
 51
180.0
  0
LINE
  5
19DD
330
2
100
AcDbEntity
  8
画層1
370
    20
100
AcDbLine
 10
-409.1882863869524
 20
205.9587767371689
 30
0.0
 11
-409.1882863869524
 21
211.9587767371689
 31
0.0
  0
LINE
  5
19DE
330
2
100
AcDbEntity
  8
画層1
370
    20
100
AcDbLine
 10
-412.1882863869524
 20
206.9587767371689
 30
0.0
 11
-412.1882863869524
 21
210.9587767371689
 31
0.0
  0
LINE
  5
19DF
330
2
100
AcDbEntity
  8
画層1
370
    20
100
AcDbLine
 10
-409.1882863869524
 20
205.9587767371689
 30
0.0
 11
-411.1882863869524
 21
205.9587767371689
 31
0.0
  0
ARC
  5
19E0
330
2
100
AcDbEntity
  8
画層1
370
    20
100
AcDbCircle
 10
-411.1882863869524
 20
206.9587767371689
 30
0.0
 40
1.0
100
AcDbArc
 50
180.0
 51
270.0
  0
LINE
  5
19E1
330
2
100
AcDbEntity
  8
画層1
370
    20
100
AcDbLine
 10
-408.1882863869524
 20
205.9587767371689
 30
0.0
 11
-409.1882863869524
 21
205.9587767371689
 31
0.0
  0
LINE
  5
19E2
330
2
100
AcDbEntity
  8
画層1
370
    20
100
AcDbLine
 10
-411.1882863869523
 20
211.9587767371689
 30
0.0
 11
-409.1882863869524
 21
211.9587767371689
 31
0.0
  0
LINE
  5
19E3
330
2
100
AcDbEntity
  8
画層1
370
    20
100
AcDbLine
 10
-402.1882863869524
 20
212.958776737169
 30
0.0
 11
-413.5882863869523
 21
212.958776737169
 31
0.0
  0
LINE
  5
19E4
330
2
100
AcDbEntity
  8
画層1
370
    20
100
AcDbLine
 10
-413.5882863869523
 20
214.958776737169
 30
0.0
 11
-402.1882863869524
 21
214.958776737169
 31
0.0
  0
ARC
  5
19E5
330
2
100
AcDbEntity
  8
画層1
370
    20
100
AcDbCircle
 10
-411.1882863869523
 20
210.9587767371689
 30
0.0
 40
1.0
100
AcDbArc
 50
90.0
 51
179.9999999999993
  0
LINE
  5
19E6
330
2
100
AcDbEntity
  8
画層1
370
    20
100
AcDbLine
 10
-413.5882863869523
 20
212.958776737169
 30
0.0
 11
-413.5882863869523
 21
214.958776737169
 31
0.0
  0
ARC
  5
19E7
330
2
100
AcDbEntity
  8
画層1
370
    20
100
AcDbCircle
 10
-411.1882863869524
 20
210.4587767371689
 30
0.0
 40
1.0
100
AcDbArc
 50
180.0
 51
270.0
  0
LINE
  5
19E8
330
2
100
AcDbEntity
  8
画層1
370
    20
100
AcDbLine
 10
-411.1882863869524
 20
209.4587767371689
 30
0.0
 11
-411.1882863869524
 21
208.4587767371689
 31
0.0
  0
LINE
  5
19E9
330
2
100
AcDbEntity
  8
画層1
370
    20
100
AcDbLine
 10
-409.1882863869524
 20
211.9587767371689
 30
0.0
 11
-408.1882863869524
 21
211.9587767371689
 31
0.0
  0
LINE
  5
19EB
330
2
100
AcDbEntity
  8
画層1
370
    20
100
AcDbLine
 10
-412.1882863869524
 20
216.9587767371689
 30
0.0
 11
-412.1882863869524
 21
220.9587767371689
 31
0.0
  0
LINE
  5
19EC
330
2
100
AcDbEntity
  8
画層1
370
    20
100
AcDbLine
 10
-409.1882863869524
 20
215.9587767371689
 30
0.0
 11
-409.1882863869524
 21
221.9587767371689
 31
0.0
  0
LINE
  5
19ED
330
2
100
AcDbEntity
  8
画層1
370
    20
100
AcDbLine
 10
-402.1882863869524
 20
214.958776737169
 30
0.0
 11
-402.1882863869524
 21
222.9587767371689
 31
0.0
  0
LINE
  5
19EE
330
2
100
AcDbEntity
  8
画層1
370
    20
100
AcDbLine
 10
-408.1882863869524
 20
214.958776737169
 30
0.0
 11
-408.1882863869524
 21
222.9587767371689
 31
0.0
  0
LINE
  5
19EF
330
2
100
AcDbEntity
  8
画層1
370
    20
100
AcDbLine
 10
-406.6882863869524
 20
214.958776737169
 30
0.0
 11
-406.6882863869524
 21
222.9587767371689
 31
0.0
  0
LINE
  5
19F0
330
2
100
AcDbEntity
  8
画層1
370
    20
100
AcDbLine
 10
-405.1882863869524
 20
214.958776737169
 30
0.0
 11
-405.1882863869524
 21
222.9587767371689
 31
0.0
  0
LINE
  5
19F1
330
2
100
AcDbEntity
  8
画層1
370
    20
100
AcDbLine
 10
-409.1882863869524
 20
215.9587767371689
 30
0.0
 11
-411.1882863869524
 21
215.9587767371689
 31
0.0
  0
ARC
  5
19F2
330
2
100
AcDbEntity
  8
画層1
370
    20
100
AcDbCircle
 10
-411.1882863869524
 20
216.9587767371689
 30
0.0
 40
1.0
100
AcDbArc
 50
180.0
 51
270.0
  0
LINE
  5
19F3
330
2
100
AcDbEntity
  8
画層1
370
    20
100
AcDbLine
 10
-408.1882863869524
 20
215.9587767371689
 30
0.0
 11
-409.1882863869524
 21
215.9587767371689
 31
0.0
  0
LINE
  5
19F4
330
2
100
AcDbEntity
  8
画層1
370
    20
100
AcDbLine
 10
-413.5882863869523
 20
224.9587767371689
 30
0.0
 11
-402.1882863869524
 21
224.9587767371689
 31
0.0
  0
LINE
  5
19F5
330
2
100
AcDbEntity
  8
画層1
370
    20
100
AcDbLine
 10
-402.1882863869524
 20
222.9587767371689
 30
0.0
 11
-413.5882863869523
 21
222.9587767371689
 31
0.0
  0
LINE
  5
19F6
330
2
100
AcDbEntity
  8
画層1
370
    20
100
AcDbLine
 10
-411.1882863869523
 20
221.9587767371689
 30
0.0
 11
-409.1882863869524
 21
221.9587767371689
 31
0.0
  0
LINE
  5
19F7
330
2
100
AcDbEntity
  8
画層1
370
    20
100
AcDbLine
 10
-411.1882863869524
 20
219.458776737169
 30
0.0
 11
-411.1882863869524
 21
218.4587767371689
 31
0.0
  0
ARC
  5
19F8
330
2
100
AcDbEntity
  8
画層1
370
    20
100
AcDbCircle
 10
-411.1882863869524
 20
220.4587767371689
 30
0.0
 40
1.0
100
AcDbArc
 50
180.0
 51
270.0
  0
LINE
  5
19F9
330
2
100
AcDbEntity
  8
画層1
370
    20
100
AcDbLine
 10
-413.5882863869523
 20
222.9587767371689
 30
0.0
 11
-413.5882863869523
 21
224.9587767371689
 31
0.0
  0
ARC
  5
19FA
330
2
100
AcDbEntity
  8
画層1
370
    20
100
AcDbCircle
 10
-411.1882863869523
 20
220.9587767371689
 30
0.0
 40
1.0
100
AcDbArc
 50
90.0
 51
179.9999999999993
  0
ARC
  5
19FB
330
2
100
AcDbEntity
  8
画層1
370
    20
100
AcDbCircle
 10
-411.1882863869524
 20
217.458776737169
 30
0.0
 40
1.0
100
AcDbArc
 50
90.0
 51
180.0
  0
LINE
  5
19FC
330
2
100
AcDbEntity
  8
画層1
370
    20
100
AcDbLine
 10
-409.1882863869524
 20
221.9587767371689
 30
0.0
 11
-408.1882863869524
 21
221.9587767371689
 31
0.0
  0
ARC
  5
19FE
330
2
100
AcDbEntity
  8
画層1
370
    20
100
AcDbCircle
 10
-411.1882863869524
 20
226.9587767371689
 30
0.0
 40
1.0
100
AcDbArc
 50
180.0
 51
270.0
  0
LINE
  5
19FF
330
2
100
AcDbEntity
  8
画層1
370
    20
100
AcDbLine
 10
-405.1882863869524
 20
224.9587767371689
 30
0.0
 11
-405.1882863869524
 21
232.9587767371689
 31
0.0
  0
LINE
  5
1A00
330
2
100
AcDbEntity
  8
画層1
370
    20
100
AcDbLine
 10
-406.6882863869524
 20
224.9587767371689
 30
0.0
 11
-406.6882863869524
 21
232.9587767371689
 31
0.0
  0
LINE
  5
1A01
330
2
100
AcDbEntity
  8
画層1
370
    20
100
AcDbLine
 10
-408.1882863869524
 20
224.9587767371689
 30
0.0
 11
-408.1882863869524
 21
232.9587767371689
 31
0.0
  0
LINE
  5
1A02
330
2
100
AcDbEntity
  8
画層1
370
    20
100
AcDbLine
 10
-402.1882863869524
 20
224.9587767371689
 30
0.0
 11
-402.1882863869524
 21
232.9587767371689
 31
0.0
  0
LINE
  5
1A03
330
2
100
AcDbEntity
  8
画層1
370
    20
100
AcDbLine
 10
-409.1882863869524
 20
225.9587767371689
 30
0.0
 11
-409.1882863869524
 21
231.958776737169
 31
0.0
  0
LINE
  5
1A04
330
2
100
AcDbEntity
  8
画層1
370
    20
100
AcDbLine
 10
-409.1882863869524
 20
225.9587767371689
 30
0.0
 11
-411.1882863869524
 21
225.9587767371689
 31
0.0
  0
LINE
  5
1A05
330
2
100
AcDbEntity
  8
画層1
370
    20
100
AcDbLine
 10
-408.1882863869524
 20
225.9587767371689
 30
0.0
 11
-409.1882863869524
 21
225.9587767371689
 31
0.0
  0
LINE
  5
1A06
330
2
100
AcDbEntity
  8
画層1
370
    20
100
AcDbLine
 10
-411.1882863869523
 20
231.9587767371689
 30
0.0
 11
-409.1882863869524
 21
231.958776737169
 31
0.0
  0
LINE
  5
1A07
330
2
100
AcDbEntity
  8
画層1
370
    20
100
AcDbLine
 10
-402.1882863869524
 20
232.9587767371689
 30
0.0
 11
-413.5882863869523
 21
232.9587767371689
 31
0.0
  0
LINE
  5
1A08
330
2
100
AcDbEntity
  8
画層1
370
    20
100
AcDbLine
 10
-413.5882863869523
 20
234.9587767371689
 30
0.0
 11
-402.1882863869524
 21
234.9587767371689
 31
0.0
  0
ARC
  5
1A09
330
2
100
AcDbEntity
  8
画層1
370
    20
100
AcDbCircle
 10
-411.1882863869524
 20
227.458776737169
 30
0.0
 40
1.0
100
AcDbArc
 50
90.0
 51
180.0
  0
ARC
  5
1A0A
330
2
100
AcDbEntity
  8
画層1
370
    20
100
AcDbCircle
 10
-411.1882863869523
 20
230.9587767371689
 30
0.0
 40
1.0
100
AcDbArc
 50
90.0
 51
179.9999999999993
  0
LINE
  5
1A0B
330
2
100
AcDbEntity
  8
画層1
370
    20
100
AcDbLine
 10
-413.5882863869523
 20
232.9587767371689
 30
0.0
 11
-413.5882863869523
 21
234.9587767371689
 31
0.0
  0
ARC
  5
1A0C
330
2
100
AcDbEntity
  8
画層1
370
    20
100
AcDbCircle
 10
-411.1882863869524
 20
230.4587767371689
 30
0.0
 40
1.0
100
AcDbArc
 50
180.0
 51
270.0
  0
LINE
  5
1A0D
330
2
100
AcDbEntity
  8
画層1
370
    20
100
AcDbLine
 10
-411.1882863869524
 20
229.458776737169
 30
0.0
 11
-411.1882863869524
 21
228.4587767371689
 31
0.0
  0
LINE
  5
1A0E
330
2
100
AcDbEntity
  8
画層1
370
    20
100
AcDbLine
 10
-412.1882863869524
 20
226.9587767371689
 30
0.0
 11
-412.1882863869524
 21
230.9587767371689
 31
0.0
  0
LINE
  5
1A0F
330
2
100
AcDbEntity
  8
画層1
370
    20
100
AcDbLine
 10
-409.1882863869524
 20
231.958776737169
 30
0.0
 11
-408.1882863869524
 21
231.958776737169
 31
0.0
  0
LINE
  5
1A11
330
2
100
AcDbEntity
  8
画層1
370
    20
100
AcDbLine
 10
-413.5882863869523
 20
242.9587767371689
 30
0.0
 11
-413.5882863869523
 21
244.9587767371689
 31
0.0
  0
LINE
  5
1A12
330
2
100
AcDbEntity
  8
画層1
370
    20
100
AcDbLine
 10
-402.1882863869524
 20
234.9587767371689
 30
0.0
 11
-402.1882863869524
 21
242.9587767371689
 31
0.0
  0
LINE
  5
1A13
330
2
100
AcDbEntity
  8
画層1
370
    20
100
AcDbLine
 10
-408.1882863869524
 20
234.9587767371689
 30
0.0
 11
-408.1882863869524
 21
242.9587767371689
 31
0.0
  0
LINE
  5
1A14
330
2
100
AcDbEntity
  8
画層1
370
    20
100
AcDbLine
 10
-406.6882863869524
 20
234.9587767371689
 30
0.0
 11
-406.6882863869524
 21
242.9587767371689
 31
0.0
  0
LINE
  5
1A15
330
2
100
AcDbEntity
  8
画層1
370
    20
100
AcDbLine
 10
-405.1882863869524
 20
234.9587767371689
 30
0.0
 11
-405.1882863869524
 21
242.9587767371689
 31
0.0
  0
LINE
  5
1A16
330
2
100
AcDbEntity
  8
画層1
370
    20
100
AcDbLine
 10
-402.1882863869524
 20
242.9587767371689
 30
0.0
 11
-413.5882863869523
 21
242.9587767371689
 31
0.0
  0
LINE
  5
1A17
330
2
100
AcDbEntity
  8
画層1
370
    20
100
AcDbLine
 10
-411.1882863869523
 20
241.9587767371689
 30
0.0
 11
-409.1882863869524
 21
241.958776737169
 31
0.0
  0
LINE
  5
1A18
330
2
100
AcDbEntity
  8
画層1
370
    20
100
AcDbLine
 10
-412.1882863869524
 20
236.9587767371689
 30
0.0
 11
-412.1882863869524
 21
240.9587767371689
 31
0.0
  0
LINE
  5
1A19
330
2
100
AcDbEntity
  8
画層1
370
    20
100
AcDbLine
 10
-411.1882863869524
 20
239.4587767371689
 30
0.0
 11
-411.1882863869524
 21
238.4587767371689
 31
0.0
  0
ARC
  5
1A1A
330
2
100
AcDbEntity
  8
画層1
370
    20
100
AcDbCircle
 10
-411.1882863869524
 20
240.4587767371689
 30
0.0
 40
1.0
100
AcDbArc
 50
180.0
 51
270.0
  0
ARC
  5
1A1B
330
2
100
AcDbEntity
  8
画層1
370
    20
100
AcDbCircle
 10
-411.1882863869523
 20
240.9587767371689
 30
0.0
 40
1.0
100
AcDbArc
 50
90.0
 51
179.9999999999993
  0
ARC
  5
1A1C
330
2
100
AcDbEntity
  8
画層1
370
    20
100
AcDbCircle
 10
-411.1882863869524
 20
237.4587767371689
 30
0.0
 40
1.0
100
AcDbArc
 50
90.0
 51
180.0
  0
ARC
  5
1A1D
330
2
100
AcDbEntity
  8
画層1
370
    20
100
AcDbCircle
 10
-411.1882863869524
 20
236.9587767371689
 30
0.0
 40
1.0
100
AcDbArc
 50
180.0
 51
270.0
  0
LINE
  5
1A1E
330
2
100
AcDbEntity
  8
画層1
370
    20
100
AcDbLine
 10
-409.1882863869524
 20
241.958776737169
 30
0.0
 11
-408.1882863869524
 21
241.958776737169
 31
0.0
  0
LINE
  5
1A1F
330
2
100
AcDbEntity
  8
画層1
370
    20
100
AcDbLine
 10
-409.1882863869524
 20
235.958776737169
 30
0.0
 11
-409.1882863869524
 21
241.958776737169
 31
0.0
  0
LINE
  5
1A20
330
2
100
AcDbEntity
  8
画層1
370
    20
100
AcDbLine
 10
-413.5882863869523
 20
244.9587767371689
 30
0.0
 11
-402.1882863869524
 21
244.9587767371689
 31
0.0
  0
LINE
  5
1A21
330
2
100
AcDbEntity
  8
画層1
370
    20
100
AcDbLine
 10
-409.1882863869524
 20
235.958776737169
 30
0.0
 11
-411.1882863869524
 21
235.9587767371689
 31
0.0
  0
LINE
  5
1A22
330
2
100
AcDbEntity
  8
画層1
370
    20
100
AcDbLine
 10
-408.1882863869524
 20
235.958776737169
 30
0.0
 11
-409.1882863869524
 21
235.958776737169
 31
0.0
  0
LINE
  5
1A23
330
2
100
AcDbEntity
  8
画層1
370
    20
100
AcDbLine
 10
-409.1882863869524
 20
245.958776737169
 30
0.0
 11
-411.1882863869524
 21
245.9587767371689
 31
0.0
  0
ARC
  5
1A24
330
2
100
AcDbEntity
  8
画層1
370
    20
100
AcDbCircle
 10
-411.1882863869524
 20
246.9587767371689
 30
0.0
 40
1.0
100
AcDbArc
 50
180.0
 51
270.0
  0
ARC
  5
1A25
330
2
100
AcDbEntity
  8
画層1
370
    20
100
AcDbCircle
 10
-411.1882863869524
 20
247.4587767371689
 30
0.0
 40
1.0
100
AcDbArc
 50
90.0
 51
180.0
  0
LINE
  5
1A26
330
2
100
AcDbEntity
  8
画層1
370
    20
100
AcDbLine
 10
-412.1882863869524
 20
246.9587767371689
 30
0.0
 11
-412.1882863869524
 21
250.9587767371689
 31
0.0
  0
LINE
  5
1A27
330
2
100
AcDbEntity
  8
画層1
370
    20
100
AcDbLine
 10
-408.1882863869524
 20
245.958776737169
 30
0.0
 11
-409.1882863869524
 21
245.958776737169
 31
0.0
  0
LINE
  5
1A28
330
2
100
AcDbEntity
  8
画層1
370
    20
100
AcDbLine
 10
-409.1882863869524
 20
245.958776737169
 30
0.0
 11
-409.1882863869524
 21
251.9587767371689
 31
0.0
  0
LINE
  5
1A29
330
2
100
AcDbEntity
  8
画層1
370
    20
100
AcDbLine
 10
-405.1882863869524
 20
244.9587767371689
 30
0.0
 11
-405.1882863869524
 21
252.9587767371689
 31
0.0
  0
LINE
  5
1A2A
330
2
100
AcDbEntity
  8
画層1
370
    20
100
AcDbLine
 10
-406.6882863869524
 20
244.9587767371689
 30
0.0
 11
-406.6882863869524
 21
252.9587767371689
 31
0.0
  0
LINE
  5
1A2B
330
2
100
AcDbEntity
  8
画層1
370
    20
100
AcDbLine
 10
-408.1882863869524
 20
244.9587767371689
 30
0.0
 11
-408.1882863869524
 21
252.9587767371689
 31
0.0
  0
LINE
  5
1A2C
330
2
100
AcDbEntity
  8
画層1
370
    20
100
AcDbLine
 10
-402.1882863869524
 20
244.9587767371689
 30
0.0
 11
-402.1882863869524
 21
252.9587767371689
 31
0.0
  0
LINE
  5
1A2D
330
2
100
AcDbEntity
  8
画層1
370
    20
100
AcDbLine
 10
-413.5882863869523
 20
252.9587767371689
 30
0.0
 11
-413.5882863869523
 21
254.958776737169
 31
0.0
  0
LINE
  5
1A2E
330
2
100
AcDbEntity
  8
画層1
370
    20
100
AcDbLine
 10
-411.1882863869523
 20
251.9587767371689
 30
0.0
 11
-409.1882863869524
 21
251.9587767371689
 31
0.0
  0
LINE
  5
1A2F
330
2
100
AcDbEntity
  8
画層1
370
    20
100
AcDbLine
 10
-402.1882863869524
 20
252.9587767371689
 30
0.0
 11
-413.5882863869523
 21
252.9587767371689
 31
0.0
  0
ARC
  5
1A30
330
2
100
AcDbEntity
  8
画層1
370
    20
100
AcDbCircle
 10
-411.1882863869523
 20
250.9587767371689
 30
0.0
 40
1.0
100
AcDbArc
 50
90.0
 51
179.9999999999993
  0
ARC
  5
1A31
330
2
100
AcDbEntity
  8
画層1
370
    20
100
AcDbCircle
 10
-411.1882863869524
 20
250.458776737169
 30
0.0
 40
1.0
100
AcDbArc
 50
180.0
 51
270.0
  0
LINE
  5
1A32
330
2
100
AcDbEntity
  8
画層1
370
    20
100
AcDbLine
 10
-409.1882863869524
 20
251.9587767371689
 30
0.0
 11
-408.1882863869524
 21
251.9587767371689
 31
0.0
  0
LINE
  5
1A33
330
2
100
AcDbEntity
  8
画層1
370
    20
100
AcDbLine
 10
-413.5882863869523
 20
254.958776737169
 30
0.0
 11
-402.1882863869524
 21
254.958776737169
 31
0.0
  0
LINE
  5
1A35
330
2
100
AcDbEntity
  8
画層1
370
    20
100
AcDbLine
 10
-411.1882863869524
 20
249.4587767371689
 30
0.0
 11
-411.1882863869524
 21
248.458776737169
 31
0.0
  0
LINE
  5
1A37
330
2
100
AcDbEntity
  8
画層1
370
    20
100
AcDbLine
 10
-413.5882863869523
 20
262.958776737169
 30
0.0
 11
-413.5882863869523
 21
264.958776737169
 31
0.0
  0
LINE
  5
1A38
330
2
100
AcDbEntity
  8
画層1
370
    20
100
AcDbLine
 10
-402.1882863869524
 20
262.958776737169
 30
0.0
 11
-413.5882863869523
 21
262.958776737169
 31
0.0
  0
LINE
  5
1A39
330
2
100
AcDbEntity
  8
画層1
370
    20
100
AcDbLine
 10
-411.1882863869523
 20
261.9587767371689
 30
0.0
 11
-409.1882863869524
 21
261.9587767371689
 31
0.0
  0
LINE
  5
1A3A
330
2
100
AcDbEntity
  8
画層1
370
    20
100
AcDbLine
 10
-409.1882863869524
 20
255.9587767371689
 30
0.0
 11
-411.1882863869524
 21
255.9587767371689
 31
0.0
  0
LINE
  5
1A3B
330
2
100
AcDbEntity
  8
画層1
370
    20
100
AcDbLine
 10
-411.1882863869524
 20
259.4587767371689
 30
0.0
 11
-411.1882863869524
 21
258.458776737169
 31
0.0
  0
ARC
  5
1A3C
330
2
100
AcDbEntity
  8
画層1
370
    20
100
AcDbCircle
 10
-411.1882863869524
 20
260.4587767371689
 30
0.0
 40
1.0
100
AcDbArc
 50
180.0
 51
270.0
  0
ARC
  5
1A3D
330
2
100
AcDbEntity
  8
画層1
370
    20
100
AcDbCircle
 10
-411.1882863869523
 20
260.9587767371689
 30
0.0
 40
1.0
100
AcDbArc
 50
90.0
 51
179.9999999999993
  0
LINE
  5
1A3E
330
2
100
AcDbEntity
  8
画層1
370
    20
100
AcDbLine
 10
-412.1882863869524
 20
256.9587767371689
 30
0.0
 11
-412.1882863869524
 21
260.9587767371689
 31
0.0
  0
ARC
  5
1A3F
330
2
100
AcDbEntity
  8
画層1
370
    20
100
AcDbCircle
 10
-411.1882863869524
 20
257.4587767371689
 30
0.0
 40
1.0
100
AcDbArc
 50
90.0
 51
180.0
  0
ARC
  5
1A40
330
2
100
AcDbEntity
  8
画層1
370
    20
100
AcDbCircle
 10
-411.1882863869524
 20
256.9587767371689
 30
0.0
 40
1.0
100
AcDbArc
 50
180.0
 51
270.0
  0
LINE
  5
1A41
330
2
100
AcDbEntity
  8
画層1
370
    20
100
AcDbLine
 10
-409.1882863869524
 20
261.9587767371689
 30
0.0
 11
-408.1882863869524
 21
261.9587767371689
 31
0.0
  0
LINE
  5
1A42
330
2
100
AcDbEntity
  8
画層1
370
    20
100
AcDbLine
 10
-409.1882863869524
 20
255.9587767371689
 30
0.0
 11
-409.1882863869524
 21
261.9587767371689
 31
0.0
  0
LINE
  5
1A43
330
2
100
AcDbEntity
  8
画層1
370
    20
100
AcDbLine
 10
-408.1882863869524
 20
255.9587767371689
 30
0.0
 11
-409.1882863869524
 21
255.9587767371689
 31
0.0
  0
LINE
  5
1A44
330
2
100
AcDbEntity
  8
画層1
370
    20
100
AcDbLine
 10
-402.1882863869524
 20
254.958776737169
 30
0.0
 11
-402.1882863869524
 21
262.958776737169
 31
0.0
  0
LINE
  5
1A45
330
2
100
AcDbEntity
  8
画層1
370
    20
100
AcDbLine
 10
-408.1882863869524
 20
254.958776737169
 30
0.0
 11
-408.1882863869524
 21
262.958776737169
 31
0.0
  0
LINE
  5
1A46
330
2
100
AcDbEntity
  8
画層1
370
    20
100
AcDbLine
 10
-406.6882863869524
 20
254.958776737169
 30
0.0
 11
-406.6882863869524
 21
262.958776737169
 31
0.0
  0
LINE
  5
1A47
330
2
100
AcDbEntity
  8
画層1
370
    20
100
AcDbLine
 10
-405.1882863869524
 20
254.958776737169
 30
0.0
 11
-405.1882863869524
 21
262.958776737169
 31
0.0
  0
LINE
  5
1A48
330
2
100
AcDbEntity
  8
画層1
370
    20
100
AcDbLine
 10
-413.5882863869523
 20
264.958776737169
 30
0.0
 11
-402.1882863869524
 21
264.958776737169
 31
0.0
  0
LINE
  5
1A4A
330
2
100
AcDbEntity
  8
画層1
370
    20
100
AcDbLine
 10
-405.1882863869524
 20
264.958776737169
 30
0.0
 11
-405.1882863869524
 21
272.9587767371689
 31
0.0
  0
LINE
  5
1A4B
330
2
100
AcDbEntity
  8
画層1
370
    20
100
AcDbLine
 10
-406.6882863869524
 20
264.958776737169
 30
0.0
 11
-406.6882863869524
 21
272.9587767371689
 31
0.0
  0
LINE
  5
1A4C
330
2
100
AcDbEntity
  8
画層1
370
    20
100
AcDbLine
 10
-408.1882863869524
 20
264.958776737169
 30
0.0
 11
-408.1882863869524
 21
272.9587767371689
 31
0.0
  0
LINE
  5
1A4D
330
2
100
AcDbEntity
  8
画層1
370
    20
100
AcDbLine
 10
-402.1882863869524
 20
264.958776737169
 30
0.0
 11
-402.1882863869524
 21
272.9587767371689
 31
0.0
  0
LINE
  5
1A4E
330
2
100
AcDbEntity
  8
画層1
370
    20
100
AcDbLine
 10
-409.1882863869524
 20
265.9587767371689
 30
0.0
 11
-411.1882863869524
 21
265.9587767371689
 31
0.0
  0
LINE
  5
1A4F
330
2
100
AcDbEntity
  8
画層1
370
    20
100
AcDbLine
 10
-411.1882863869523
 20
271.9587767371689
 30
0.0
 11
-409.1882863869524
 21
271.9587767371689
 31
0.0
  0
ARC
  5
1A50
330
2
100
AcDbEntity
  8
画層1
370
    20
100
AcDbCircle
 10
-411.1882863869524
 20
266.9587767371689
 30
0.0
 40
1.0
100
AcDbArc
 50
180.0
 51
270.0
  0
ARC
  5
1A51
330
2
100
AcDbEntity
  8
画層1
370
    20
100
AcDbCircle
 10
-411.1882863869524
 20
267.458776737169
 30
0.0
 40
1.0
100
AcDbArc
 50
90.0
 51
180.0
  0
LINE
  5
1A52
330
2
100
AcDbEntity
  8
画層1
370
    20
100
AcDbLine
 10
-412.1882863869524
 20
266.9587767371689
 30
0.0
 11
-412.1882863869524
 21
270.9587767371689
 31
0.0
  0
ARC
  5
1A53
330
2
100
AcDbEntity
  8
画層1
370
    20
100
AcDbCircle
 10
-411.1882863869523
 20
270.9587767371689
 30
0.0
 40
1.0
100
AcDbArc
 50
90.0
 51
179.9999999999993
  0
ARC
  5
1A54
330
2
100
AcDbEntity
  8
画層1
370
    20
100
AcDbCircle
 10
-411.1882863869524
 20
270.4587767371689
 30
0.0
 40
1.0
100
AcDbArc
 50
180.0
 51
270.0
  0
LINE
  5
1A55
330
2
100
AcDbEntity
  8
画層1
370
    20
100
AcDbLine
 10
-411.1882863869524
 20
269.458776737169
 30
0.0
 11
-411.1882863869524
 21
268.4587767371689
 31
0.0
  0
LINE
  5
1A56
330
2
100
AcDbEntity
  8
画層1
370
    20
100
AcDbLine
 10
-408.1882863869524
 20
265.9587767371689
 30
0.0
 11
-409.1882863869524
 21
265.9587767371689
 31
0.0
  0
LINE
  5
1A57
330
2
100
AcDbEntity
  8
画層1
370
    20
100
AcDbLine
 10
-409.1882863869524
 20
265.9587767371689
 30
0.0
 11
-409.1882863869524
 21
271.9587767371689
 31
0.0
  0
LINE
  5
1A58
330
2
100
AcDbEntity
  8
画層1
370
    20
100
AcDbLine
 10
-409.1882863869524
 20
271.9587767371689
 30
0.0
 11
-408.1882863869524
 21
271.9587767371689
 31
0.0
  0
LINE
  5
1A59
330
2
100
AcDbEntity
  8
画層1
370
    20
100
AcDbLine
 10
-413.5882863869523
 20
274.9587767371689
 30
0.0
 11
-402.1882863869524
 21
274.9587767371689
 31
0.0
  0
LINE
  5
1A5A
330
2
100
AcDbEntity
  8
画層1
370
    20
100
AcDbLine
 10
-402.1882863869524
 20
272.9587767371689
 30
0.0
 11
-413.5882863869523
 21
272.9587767371689
 31
0.0
  0
LINE
  5
1A5B
330
2
100
AcDbEntity
  8
画層1
370
    20
100
AcDbLine
 10
-413.5882863869523
 20
272.9587767371689
 30
0.0
 11
-413.5882863869523
 21
274.9587767371689
 31
0.0
  0
LINE
  5
1A5D
330
2
100
AcDbEntity
  8
画層1
370
    20
100
AcDbLine
 10
-409.1882863869524
 20
275.9587767371689
 30
0.0
 11
-409.1882863869524
 21
281.958776737169
 31
0.0
  0
ARC
  5
1A5E
330
2
100
AcDbEntity
  8
画層1
370
    20
100
AcDbCircle
 10
-411.1882863869523
 20
280.9587767371689
 30
0.0
 40
1.0
100
AcDbArc
 50
90.0
 51
179.9999999999993
  0
LINE
  5
1A5F
330
2
100
AcDbEntity
  8
画層1
370
    20
100
AcDbLine
 10
-402.1882863869524
 20
274.9587767371689
 30
0.0
 11
-402.1882863869524
 21
282.9587767371689
 31
0.0
  0
LINE
  5
1A60
330
2
100
AcDbEntity
  8
画層1
370
    20
100
AcDbLine
 10
-408.1882863869524
 20
274.9587767371689
 30
0.0
 11
-408.1882863869524
 21
282.9587767371689
 31
0.0
  0
LINE
  5
1A61
330
2
100
AcDbEntity
  8
画層1
370
    20
100
AcDbLine
 10
-406.6882863869524
 20
274.9587767371689
 30
0.0
 11
-406.6882863869524
 21
282.9587767371689
 31
0.0
  0
LINE
  5
1A62
330
2
100
AcDbEntity
  8
画層1
370
    20
100
AcDbLine
 10
-405.1882863869524
 20
274.9587767371689
 30
0.0
 11
-405.1882863869524
 21
282.9587767371689
 31
0.0
  0
LINE
  5
1A63
330
2
100
AcDbEntity
  8
画層1
370
    20
100
AcDbLine
 10
-409.1882863869524
 20
275.9587767371689
 30
0.0
 11
-411.1882863869524
 21
275.9587767371689
 31
0.0
  0
LINE
  5
1A64
330
2
100
AcDbEntity
  8
画層1
370
    20
100
AcDbLine
 10
-411.1882863869524
 20
279.458776737169
 30
0.0
 11
-411.1882863869524
 21
278.4587767371689
 31
0.0
  0
ARC
  5
1A65
330
2
100
AcDbEntity
  8
画層1
370
    20
100
AcDbCircle
 10
-411.1882863869524
 20
280.4587767371689
 30
0.0
 40
1.0
100
AcDbArc
 50
180.0
 51
270.0
  0
LINE
  5
1A66
330
2
100
AcDbEntity
  8
画層1
370
    20
100
AcDbLine
 10
-412.1882863869524
 20
276.9587767371689
 30
0.0
 11
-412.1882863869524
 21
280.9587767371689
 31
0.0
  0
ARC
  5
1A67
330
2
100
AcDbEntity
  8
画層1
370
    20
100
AcDbCircle
 10
-411.1882863869524
 20
277.458776737169
 30
0.0
 40
1.0
100
AcDbArc
 50
90.0
 51
180.0
  0
ARC
  5
1A68
330
2
100
AcDbEntity
  8
画層1
370
    20
100
AcDbCircle
 10
-411.1882863869524
 20
276.9587767371689
 30
0.0
 40
1.0
100
AcDbArc
 50
180.0
 51
270.0
  0
LINE
  5
1A69
330
2
100
AcDbEntity
  8
画層1
370
    20
100
AcDbLine
 10
-408.1882863869524
 20
275.9587767371689
 30
0.0
 11
-409.1882863869524
 21
275.9587767371689
 31
0.0
  0
LINE
  5
1A6A
330
2
100
AcDbEntity
  8
画層1
370
    20
100
AcDbLine
 10
-402.1882863869524
 20
282.9587767371689
 30
0.0
 11
-413.5882863869523
 21
282.9587767371689
 31
0.0
  0
LINE
  5
1A6B
330
2
100
AcDbEntity
  8
画層1
370
    20
100
AcDbLine
 10
-413.5882863869523
 20
284.9587767371689
 30
0.0
 11
-398.1882863869524
 21
284.9587767371689
 31
0.0
  0
LINE
  5
1A6C
330
2
100
AcDbEntity
  8
画層1
370
    20
100
AcDbLine
 10
-411.1882863869523
 20
281.9587767371689
 30
0.0
 11
-409.1882863869524
 21
281.958776737169
 31
0.0
  0
LINE
  5
1A6D
330
2
100
AcDbEntity
  8
画層1
370
    20
100
AcDbLine
 10
-413.5882863869523
 20
282.9587767371689
 30
0.0
 11
-413.5882863869523
 21
284.9587767371689
 31
0.0
  0
LINE
  5
1A6E
330
2
100
AcDbEntity
  8
画層1
370
    20
100
AcDbLine
 10
-409.1882863869524
 20
281.958776737169
 30
0.0
 11
-408.1882863869524
 21
281.958776737169
 31
0.0
  0
CIRCLE
  5
1A72
330
2
100
AcDbEntity
  8
画層1
370
    20
100
AcDbCircle
 10
-640.5652295960735
 20
295.9587767256671
 30
0.0
 40
3.0
  0
ARC
  5
1A77
330
2
100
AcDbEntity
  8
画層1
370
    20
100
AcDbCircle
 10
-640.5652295960735
 20
295.9587767256671
 30
0.0
 40
2.5
100
AcDbArc
 50
306.8698976458439
 51
233.1301023541559
  0
CIRCLE
  5
1A79
330
2
100
AcDbEntity
  8
画層1
370
    20
100
AcDbCircle
 10
-640.5652295960735
 20
295.9587767256671
 30
0.0
 40
1.0
  0
LINE
  5
1A7F
330
2
100
AcDbEntity
  8
画層1
370
    20
100
AcDbLine
 10
-642.0652295960735
 20
293.9587767256671
 30
0.0
 11
-641.1652295960736
 21
295.158776725667
 31
0.0
  0
LINE
  5
1A80
330
2
100
AcDbEntity
  8
画層1
370
    20
100
AcDbLine
 10
-639.9652295960735
 20
295.158776725667
 30
0.0
 11
-639.0652295960735
 21
293.9587767256671
 31
0.0
  0
LINE
  5
1A88
330
2
100
AcDbEntity
  8
画層1
370
    20
100
AcDbLine
 10
-639.7037946509458
 20
295.4509087946921
 30
0.0
 11
-638.3710817330252
 21
294.6651940334833
 31
0.0
  0
CIRCLE
  5
1A90
330
2
100
AcDbEntity
  8
画層1
370
    20
100
AcDbCircle
 10
-640.5652295960735
 20
306.4587767256671
 30
0.0
 40
1.5
  0
DIMENSION
  5
1A91
330
2
100
AcDbEntity
  8
画層1
 62
     1
370
    20
100
AcDbDimension
  2
*D10
 10
-625.5652295960735
 20
370.982616666706
 30
0.0
 11
-575.5652295960735
 21
373.232616666706
 31
0.0
 70
    32
 71
     5
 42
-1.0
  3
STANDARD_WS
100
AcDbAlignedDimension
 13
-525.5652295960735
 23
348.9587767371689
 33
0.0
 14
-625.5652295960735
 24
348.9587767371689
 34
0.0
100
AcDbRotatedDimension
1001
ACAD
1000
DSTYLE
1002
{
1070
    47
1040
0.6
1070
   140
1040
50.0
1070
   146
1040
0.5
1070
   147
1040
1.0
1070
   173
1070
     0
1070
   271
1070
     0
1070
   272
1070
     0
1070
   284
1070
     8
1070
   341
1005
28
1070
     5
1000
OPEN30
1070
     6
1000

1070
     7
1000

1002
}
  0
DIMENSION
  5
1A9E
330
2
100
AcDbEntity
  8
画層1
 62
     1
370
    20
100
AcDbDimension
  2
*D11
 10
-660.0652295960735
 20
377.6934791615356
 30
0.0
 11
-575.5652295960735
 21
379.9434791615356
 31
0.0
 70
    32
 71
     5
 42
-1.0
  3
STANDARD_WS
100
AcDbAlignedDimension
 13
-491.0652295960735
 23
320.958776737169
 33
0.0
 14
-660.0652295960735
 24
320.958776737169
 34
0.0
100
AcDbRotatedDimension
1001
ACAD
1000
DSTYLE
1002
{
1070
    47
1040
0.6
1070
   140
1040
50.0
1070
   146
1040
0.5
1070
   147
1040
1.0
1070
   173
1070
     0
1070
   271
1070
     0
1070
   272
1070
     0
1070
   284
1070
     8
1070
   341
1005
28
1070
     5
1000
OPEN30
1070
     6
1000

1070
     7
1000

1002
}
  0
DIMENSION
  5
1AAC
330
2
100
AcDbEntity
  8
画層1
 62
     1
370
    20
100
AcDbDimension
  2
*D12
 10
-473.5976473984378
 20
348.9587767371689
 30
0.0
 11
-475.8476473984379
 21
238.9587767371688
 31
0.0
 70
    32
 71
     5
 42
-1.0
  3
STANDARD_WS
100
AcDbAlignedDimension
 13
-525.0652295960735
 23
128.9587767371689
 33
0.0
 14
-525.5652295960735
 24
348.9587767371689
 34
0.0
 50
90.0
100
AcDbRotatedDimension
1001
ACAD
1000
DSTYLE
1002
{
1070
    47
1040
0.6
1070
   140
1040
50.0
1070
   146
1040
0.5
1070
   147
1040
1.0
1070
   173
1070
     0
1070
   271
1070
     0
1070
   272
1070
     0
1070
   284
1070
     8
1070
   341
1005
28
1070
     5
1000
OPEN30
1070
     6
1000

1070
     7
1000

1002
}
  0
DIMENSION
  5
1AB9
330
2
100
AcDbEntity
  8
画層1
 62
     1
370
    20
100
AcDbDimension
  2
*D13
 10
-482.3625546102694
 20
134.9161999577347
 30
0.0
 11
-484.6125546102694
 21
131.9374883474518
 31
0.0
 70
    32
 71
     5
 42
-1.0
  3
STANDARD_WS
100
AcDbAlignedDimension
 13
-525.0652295960735
 23
128.9587767371689
 33
0.0
 14
-525.0652295960735
 24
134.9161999577347
 34
0.0
 50
90.0
100
AcDbRotatedDimension
1001
ACAD
1000
DSTYLE
1002
{
1070
    47
1040
0.6
1070
   140
1040
50.0
1070
   146
1040
0.5
1070
   147
1040
1.0
1070
   173
1070
     0
1070
   271
1070
     0
1070
   272
1070
     0
1070
   284
1070
     8
1070
   341
1005
28
1070
     5
1000
OPEN30
1070
     6
1000

1070
     7
1000

1002
}
  0
DIMENSION
  5
1AC6
330
2
100
AcDbEntity
  8
画層1
 62
     1
370
    20
100
AcDbDimension
  2
*D14
 10
-465.9598891989801
 20
355.9587767371689
 30
0.0
 11
-468.2098891989801
 21
238.9587767371688
 31
0.0
 70
    32
 71
     5
 42
-1.0
  3
STANDARD_WS
100
AcDbAlignedDimension
 13
-496.4652295960736
 23
121.9587767371689
 33
0.0
 14
-496.4652295960736
 24
355.9587767371689
 34
0.0
 50
90.0
100
AcDbRotatedDimension
1001
ACAD
1000
DSTYLE
1002
{
1070
    47
1040
0.6
1070
   140
1040
50.0
1070
   146
1040
0.5
1070
   147
1040
1.0
1070
   173
1070
     0
1070
   271
1070
     0
1070
   272
1070
     0
1070
   284
1070
     8
1070
   341
1005
28
1070
     5
1000
OPEN30
1070
     6
1000

1070
     7
1000

1002
}
  0
DIMENSION
  5
1AD3
330
2
100
AcDbEntity
  8
画層1
 62
     1
370
    20
100
AcDbDimension
  2
*D15
 10
-413.5882863869523
 20
366.4862819143459
 30
0.0
 11
-342.5882863869524
 21
368.7362819143459
 31
0.0
 70
    32
 71
     5
 42
-1.0
  3
STANDARD_WS
100
AcDbAlignedDimension
 13
-271.5882863869524
 23
355.9587767371689
 33
0.0
 14
-413.5882863869523
 24
284.9587767371689
 34
0.0
100
AcDbRotatedDimension
1001
ACAD
1000
DSTYLE
1002
{
1070
    47
1040
0.6
1070
   140
1040
50.0
1070
   146
1040
0.5
1070
   147
1040
1.0
1070
   173
1070
     0
1070
   271
1070
     0
1070
   272
1070
     0
1070
   284
1070
     8
1070
   341
1005
28
1070
     5
1000
OPEN30
1070
     6
1000

1070
     7
1000

1002
}
  0
DIMENSION
  5
1AE0
330
2
100
AcDbEntity
  8
画層1
 62
     1
370
    20
100
AcDbDimension
  2
*D16
 10
-436.5882863869523
 20
371.8398137453925
 30
0.0
 11
-354.0882863869524
 21
374.0898137453925
 31
0.0
 70
    32
 71
     5
 42
-1.0
  3
STANDARD_WS
100
AcDbAlignedDimension
 13
-271.5882863869524
 23
367.7362819143459
 33
0.0
 14
-436.5882863869523
 24
331.458776737169
 34
0.0
100
AcDbRotatedDimension
1001
ACAD
1000
DSTYLE
1002
{
1070
    47
1040
0.6
1070
   140
1040
50.0
1070
   146
1040
0.5
1070
   147
1040
1.0
1070
   173
1070
     0
1070
   271
1070
     0
1070
   272
1070
     0
1070
   284
1070
     8
1070
   341
1005
28
1070
     5
1000
OPEN30
1070
     6
1000

1070
     7
1000

1002
}
  0
DIMENSION
  5
1AED
330
2
100
AcDbEntity
  8
画層1
 62
     1
370
    20
100
AcDbDimension
  2
*D17
 10
-407.5882863869524
 20
108.3534478277995
 30
0.0
 11
-339.5882863869524
 21
110.6034478277995
 31
0.0
 70
    32
 71
     5
 42
-1.0
  3
STANDARD_WS
100
AcDbAlignedDimension
 13
-271.5882863869524
 23
121.9587767371689
 33
0.0
 14
-407.5882863869524
 24
124.9587767371689
 34
0.0
100
AcDbRotatedDimension
1001
ACAD
1000
DSTYLE
1002
{
1070
    47
1040
0.6
1070
   140
1040
50.0
1070
   146
1040
0.5
1070
   147
1040
1.0
1070
   173
1070
     0
1070
   271
1070
     0
1070
   272
1070
     0
1070
   284
1070
     8
1070
   341
1005
28
1070
     5
1000
OPEN30
1070
     6
1000

1070
     7
1000

1002
}
  0
ARC
  5
1B03
330
2
100
AcDbEntity
  8
画層1
370
    20
100
AcDbCircle
 10
-405.5882863869523
 20
124.9587767371689
 30
0.0
 40
2.0
100
AcDbArc
 50
180.0
 51
270.0
  0
ARC
  5
1B04
330
2
100
AcDbEntity
  8
画層1
370
    20
100
AcDbCircle
 10
-405.5882863869523
 20
144.9587767371689
 30
0.0
 40
2.0
100
AcDbArc
 50
90.0
 51
180.0
  0
ENDSEC
  0
SECTION
  2
OBJECTS
  0
DICTIONARY
  5
9
330
0
100
AcDbDictionary
281
     1
  3
ACAD_GROUP
350
23
  3
ACAD_LAYOUT
350
D
  3
ACAD_MLINESTYLE
350
24
  3
ACAD_PLOTSETTINGS
350
25
  3
ACAD_PLOTSTYLENAME
350
8
  3
DWGPROPS
350
B1B
  0
DICTIONARY
  5
3
330
2
100
AcDbDictionary
280
     1
281
     1
  3
ACAD_LAYOUTSELFREF
360
1B68
  0
DICTIONARY
  5
F
330
E
100
AcDbDictionary
280
     1
281
     1
  3
ACAD_LAYOUTSELFREF
360
1B6B
  0
DICTIONARY
  5
23
102
{ACAD_REACTORS
330
9
102
}
330
9
100
AcDbDictionary
281
     1
  0
DICTIONARY
  5
D
102
{ACAD_REACTORS
330
9
102
}
330
9
100
AcDbDictionary
281
     1
  3
Model
350
560
  3
ﾚｲｱｳﾄ1
350
561
  0
DICTIONARY
  5
24
102
{ACAD_REACTORS
330
9
102
}
330
9
100
AcDbDictionary
281
     1
  3
STANDARD
350
34
  0
DICTIONARY
  5
25
102
{ACAD_REACTORS
330
9
102
}
330
9
100
AcDbDictionary
281
     1
  0
ACDBDICTIONARYWDFLT
  5
8
102
{ACAD_REACTORS
330
9
102
}
330
9
100
AcDbDictionary
281
     1
  3
Normal
350
7
100
AcDbDictionaryWithDefault
340
7
  0
XRECORD
  5
B1B
102
{ACAD_REACTORS
330
9
102
}
330
9
100
AcDbXrecord
280
     1
  1
DWGPROPS COOKIE
  2

  3

  4

  6

  7

  8

  9

300
=
301
=
302
=
303
=
304
=
305
=
306
=
307
=
308
=
309
=
 40
3.889878958333333
 41
2450995.462150231
 42
2454049.770371816
  1

 90
        0
  0
XRECORD
  5
1B68
102
{ACAD_REACTORS
330
3
102
}
330
3
100
AcDbXrecord
280
     1
340
2
  0
XRECORD
  5
1B6B
102
{ACAD_REACTORS
330
F
102
}
330
F
100
AcDbXrecord
280
     1
340
E
  0
LAYOUT
  5
560
102
{ACAD_REACTORS
330
D
102
}
330
D
100
AcDbPlotSettings
  1

  2
DocuPrint 360
  4
A3
  6

 40
5.238749980926513
 41
5.238728046417236
 42
5.32342529296875
 43
5.238739013671875
 44
296.9683227539062
 45
419.9889831542968
 46
0.0
 47
0.0
 48
0.0
 49
0.0
140
0.0
141
0.0
142
1.0
143
1.0
 70
 11952
 72
     1
 73
     1
 74
     1
  7

 75
    16
147
1.0
148
666.0799534367793
149
-107.0873487558969
100
AcDbLayout
  1
Model
 70
     1
 71
     0
 10
0.0
 20
0.0
 11
12.0
 21
9.0
 12
0.0
 22
0.0
 32
0.0
 14
0.0
 24
0.0
 34
0.0
 15
0.0
 25
0.0
 35
0.0
146
0.0
 13
0.0
 23
0.0
 33
0.0
 16
1.0
 26
0.0
 36
0.0
 17
0.0
 27
1.0
 37
0.0
 76
     0
330
2
  0
LAYOUT
  5
561
102
{ACAD_REACTORS
330
D
102
}
330
D
100
AcDbPlotSettings
  1

  2
EPSON MJ-6000C
  4

  6

 40
0.0
 41
0.0
 42
0.0
 43
0.0
 44
0.0
 45
0.0
 46
0.0
 47
0.0
 48
0.0
 49
0.0
140
0.0
141
0.0
142
1.0
143
1.0
 70
   688
 72
     0
 73
     0
 74
     5
  7

 75
    16
147
1.0
148
0.0
149
0.0
100
AcDbLayout
  1
ﾚｲｱｳﾄ1
 70
     1
 71
     1
 10
0.0
 20
0.0
 11
420.0
 21
297.0
 12
0.0
 22
0.0
 32
0.0
 14
1.000000000000000E+20
 24
1.000000000000000E+20
 34
1.000000000000000E+20
 15
-1.000000000000000E+20
 25
-1.000000000000000E+20
 35
-1.000000000000000E+20
146
0.0
 13
0.0
 23
0.0
 33
0.0
 16
1.0
 26
0.0
 36
0.0
 17
0.0
 27
1.0
 37
0.0
 76
     0
330
E
  0
MLINESTYLE
  5
34
102
{ACAD_REACTORS
330
24
102
}
330
24
100
AcDbMlineStyle
  2
STANDARD
 70
     0
  3

 62
   256
 51
90.0
 52
90.0
 71
     2
 49
0.5
 62
   256
  6
BYLAYER
 49
-0.5
 62
   256
  6
BYLAYER
  0
ACDBPLACEHOLDER
  5
7
102
{ACAD_REACTORS
330
8
102
}
330
8
  0
ENDSEC
  0
EOF
