  0
SECTION
  2
HEADER
  9
$ACADVER
  1
AC1015
  9
$ACADMAINTVER
 70
     6
  9
$DWGCODEPAGE
  3
ANSI_932
  9
$INSBASE
 10
0.0
 20
0.0
 30
0.0
  9
$EXTMIN
 10
-695.599271347783
 20
18.23046281672782
 30
-0.0015258207003583
  9
$EXTMAX
 10
-54.11862496780486
 20
462.7650366243783
 30
0.0000000349246037
  9
$LIMMIN
 10
0.0
 20
0.0
  9
$LIMMAX
 10
420.0
 20
297.0
  9
$ORTHOMODE
 70
     1
  9
$REGENMODE
 70
     1
  9
$FILLMODE
 70
     1
  9
$QTEXTMODE
 70
     0
  9
$MIRRTEXT
 70
     1
  9
$LTSCALE
 40
0.2
  9
$ATTMODE
 70
     1
  9
$TEXTSIZE
 40
2.5
  9
$TRACEWID
 40
1.0
  9
$TEXTSTYLE
  7
STYLE1
  9
$CLAYER
  8
画層1
  9
$CELTYPE
  6
BYLAYER
  9
$CECOLOR
 62
     1
  9
$CELTSCALE
 40
1.0
  9
$DISPSILH
 70
     0
  9
$DIMSCALE
 40
1.0
  9
$DIMASZ
 40
1.5
  9
$DIMEXO
 40
0.63
  9
$DIMDLI
 40
3.75
  9
$DIMRND
 40
0.0
  9
$DIMDLE
 40
0.0
  9
$DIMEXE
 40
1.25
  9
$DIMTP
 40
0.6
  9
$DIMTM
 40
0.0
  9
$DIMTXT
 40
50.0
  9
$DIMCEN
 40
2.5
  9
$DIMTSZ
 40
0.0
  9
$DIMTOL
 70
     0
  9
$DIMLIM
 70
     0
  9
$DIMTIH
 70
     0
  9
$DIMTOH
 70
     0
  9
$DIMSE1
 70
     0
  9
$DIMSE2
 70
     0
  9
$DIMTAD
 70
     1
  9
$DIMZIN
 70
     8
  9
$DIMBLK
  1
OPEN30
  9
$DIMASO
 70
     1
  9
$DIMSHO
 70
     1
  9
$DIMPOST
  1

  9
$DIMAPOST
  1

  9
$DIMALT
 70
     0
  9
$DIMALTD
 70
     4
  9
$DIMALTF
 40
0.04
  9
$DIMLFAC
 40
1.0
  9
$DIMTOFL
 70
     1
  9
$DIMTVP
 40
0.0
  9
$DIMTIX
 70
     0
  9
$DIMSOXD
 70
     0
  9
$DIMSAH
 70
     0
  9
$DIMBLK1
  1

  9
$DIMBLK2
  1

  9
$DIMSTYLE
  2
STANDARD_WS
  9
$DIMCLRD
 70
     0
  9
$DIMCLRE
 70
     0
  9
$DIMCLRT
 70
     0
  9
$DIMTFAC
 40
0.5
  9
$DIMGAP
 40
1.0
  9
$DIMJUST
 70
     0
  9
$DIMSD1
 70
     0
  9
$DIMSD2
 70
     0
  9
$DIMTOLJ
 70
     1
  9
$DIMTZIN
 70
     8
  9
$DIMALTZ
 70
     0
  9
$DIMALTTZ
 70
     0
  9
$DIMUPT
 70
     0
  9
$DIMDEC
 70
     0
  9
$DIMTDEC
 70
     0
  9
$DIMALTU
 70
     8
  9
$DIMALTTD
 70
     4
  9
$DIMTXSTY
  7
STANDARD
  9
$DIMAUNIT
 70
     0
  9
$DIMADEC
 70
     0
  9
$DIMALTRND
 40
0.0
  9
$DIMAZIN
 70
     0
  9
$DIMDSEP
 70
    46
  9
$DIMATFIT
 70
     3
  9
$DIMFRAC
 70
     0
  9
$DIMLDRBLK
  1
OPEN30
  9
$DIMLUNIT
 70
     2
  9
$DIMLWD
 70
    -2
  9
$DIMLWE
 70
    -2
  9
$DIMTMOVE
 70
     0
  9
$LUNITS
 70
     2
  9
$LUPREC
 70
     4
  9
$SKETCHINC
 40
1.0
  9
$FILLETRAD
 40
5.0
  9
$AUNITS
 70
     0
  9
$AUPREC
 70
     0
  9
$MENU
  1
acad
  9
$ELEVATION
 40
0.0
  9
$PELEVATION
 40
0.0
  9
$THICKNESS
 40
0.0
  9
$LIMCHECK
 70
     0
  9
$CHAMFERA
 40
4.0
  9
$CHAMFERB
 40
4.0
  9
$CHAMFERC
 40
20.0
  9
$CHAMFERD
 40
0.0
  9
$SKPOLY
 70
     0
  9
$TDCREATE
 40
2450995.462150231
  9
$TDUCREATE
 40
2450995.087150231
  9
$TDUPDATE
 40
2454393.454915174
  9
$TDUUPDATE
 40
2454393.079915174
  9
$TDINDWG
 40
6.5929775926
  9
$TDUSRTIMER
 40
6.5929737731
  9
$USRTIMER
 70
     1
  9
$ANGBASE
 50
0.0
  9
$ANGDIR
 70
     0
  9
$PDMODE
 70
     0
  9
$PDSIZE
 40
0.0
  9
$PLINEWID
 40
10.0
  9
$SPLFRAME
 70
     0
  9
$SPLINETYPE
 70
     6
  9
$SPLINESEGS
 70
     8
  9
$HANDSEED
  5
21B7
  9
$SURFTAB1
 70
     6
  9
$SURFTAB2
 70
     6
  9
$SURFTYPE
 70
     6
  9
$SURFU
 70
     6
  9
$SURFV
 70
     6
  9
$UCSBASE
  2

  9
$UCSNAME
  2

  9
$UCSORG
 10
0.0
 20
0.0
 30
0.0
  9
$UCSXDIR
 10
1.0
 20
0.0
 30
0.0
  9
$UCSYDIR
 10
0.0
 20
1.0
 30
0.0
  9
$UCSORTHOREF
  2

  9
$UCSORTHOVIEW
 70
     0
  9
$UCSORGTOP
 10
0.0
 20
0.0
 30
0.0
  9
$UCSORGBOTTOM
 10
0.0
 20
0.0
 30
0.0
  9
$UCSORGLEFT
 10
0.0
 20
0.0
 30
0.0
  9
$UCSORGRIGHT
 10
0.0
 20
0.0
 30
0.0
  9
$UCSORGFRONT
 10
0.0
 20
0.0
 30
0.0
  9
$UCSORGBACK
 10
0.0
 20
0.0
 30
0.0
  9
$PUCSBASE
  2

  9
$PUCSNAME
  2

  9
$PUCSORG
 10
0.0
 20
0.0
 30
0.0
  9
$PUCSXDIR
 10
1.0
 20
0.0
 30
0.0
  9
$PUCSYDIR
 10
0.0
 20
1.0
 30
0.0
  9
$PUCSORTHOREF
  2

  9
$PUCSORTHOVIEW
 70
     0
  9
$PUCSORGTOP
 10
0.0
 20
0.0
 30
0.0
  9
$PUCSORGBOTTOM
 10
0.0
 20
0.0
 30
0.0
  9
$PUCSORGLEFT
 10
0.0
 20
0.0
 30
0.0
  9
$PUCSORGRIGHT
 10
0.0
 20
0.0
 30
0.0
  9
$PUCSORGFRONT
 10
0.0
 20
0.0
 30
0.0
  9
$PUCSORGBACK
 10
0.0
 20
0.0
 30
0.0
  9
$USERI1
 70
     0
  9
$USERI2
 70
     0
  9
$USERI3
 70
     0
  9
$USERI4
 70
     0
  9
$USERI5
 70
     0
  9
$USERR1
 40
0.0
  9
$USERR2
 40
0.0
  9
$USERR3
 40
0.0
  9
$USERR4
 40
0.0
  9
$USERR5
 40
0.0
  9
$WORLDVIEW
 70
     1
  9
$SHADEDGE
 70
     3
  9
$SHADEDIF
 70
    70
  9
$TILEMODE
 70
     1
  9
$MAXACTVP
 70
    48
  9
$PINSBASE
 10
0.0
 20
0.0
 30
0.0
  9
$PLIMCHECK
 70
     0
  9
$PEXTMIN
 10
1.000000000000000E+20
 20
1.000000000000000E+20
 30
1.000000000000000E+20
  9
$PEXTMAX
 10
-1.000000000000000E+20
 20
-1.000000000000000E+20
 30
-1.000000000000000E+20
  9
$PLIMMIN
 10
0.0
 20
0.0
  9
$PLIMMAX
 10
420.0
 20
297.0
  9
$UNITMODE
 70
     0
  9
$VISRETAIN
 70
     1
  9
$PLINEGEN
 70
     0
  9
$PSLTSCALE
 70
     1
  9
$TREEDEPTH
 70
  3020
  9
$CMLSTYLE
  2
STANDARD
  9
$CMLJUST
 70
     0
  9
$CMLSCALE
 40
20.0
  9
$PROXYGRAPHICS
 70
     1
  9
$MEASUREMENT
 70
     1
  9
$CELWEIGHT
370
    20
  9
$ENDCAPS
280
     0
  9
$JOINSTYLE
280
     0
  9
$LWDISPLAY
290
     0
  9
$INSUNITS
 70
     0
  9
$HYPERLINKBASE
  1

  9
$STYLESHEET
  1

  9
$XEDIT
290
     1
  9
$CEPSNTYPE
380
     0
  9
$PSTYLEMODE
290
     1
  9
$FINGERPRINTGUID
  2
{12426522-B208-11D3-A790-004026173390}
  9
$VERSIONGUID
  2
{4046FE2D-CA6C-4917-B925-35F49E43A994}
  9
$EXTNAMES
290
     1
  9
$PSVPSCALE
 40
0.0
  9
$OLESTARTUP
290
     0
  0
ENDSEC
  0
SECTION
  2
CLASSES
  0
CLASS
  1
DICTIONARYVAR
  2
AcDbDictionaryVar
  3
AutoCAD 2000
 90
        0
280
     0
281
     0
  0
CLASS
  1
LWPOLYLINE
  2
AcDbPolyline
  3
AutoCAD 2000
 90
    32768
280
     0
281
     1
  0
CLASS
  1
OLE2FRAME
  2
AcDbOle2Frame
  3
AutoCAD 2000
 90
    32768
280
     0
281
     1
  0
CLASS
  1
HATCH
  2
AcDbHatch
  3
AutoCAD 2000
 90
    32768
280
     0
281
     1
  0
CLASS
  1
ACDBDICTIONARYWDFLT
  2
AcDbDictionaryWithDefault
  3
AutoCAD 2000
 90
        0
280
     0
281
     0
  0
CLASS
  1
ACDBPLACEHOLDER
  2
AcDbPlaceHolder
  3
AutoCAD 2000
 90
        0
280
     0
281
     0
  0
CLASS
  1
LAYOUT
  2
AcDbLayout
  3
AutoCAD 2000
 90
        0
280
     0
281
     0
  0
CLASS
  1
LONG_TRANSACTION
  2
AcDbLongTransaction
  3
AutoCAD 2000
 90
    32768
280
     0
281
     0
  0
CLASS
  1
LWPOLYLINE
  2
AcDbPolyline
  3
AutoCAD 2000
 90
    32768
280
     0
281
     1
  0
CLASS
  1
HATCH
  2
AcDbHatch
  3
AutoCAD 2000
 90
    32768
280
     0
281
     1
  0
CLASS
  1
XRECORD
  2
AcDbXrecord
  3
AutoCAD 2000
 90
    32768
280
     0
281
     0
  0
CLASS
  1
LONG_TRANSACTION
  2
AcDbLongTransaction
  3
AutoCAD 2000
 90
    32768
280
     0
281
     0
  0
CLASS
  1
LWPOLYLINE
  2
AcDbPolyline
  3
AutoCAD 2000
 90
    32768
280
     0
281
     1
  0
CLASS
  1
HATCH
  2
AcDbHatch
  3
AutoCAD 2000
 90
    32768
280
     0
281
     1
  0
CLASS
  1
XRECORD
  2
AcDbXrecord
  3
AutoCAD 2000
 90
    32768
280
     0
281
     0
  0
CLASS
  1
LONG_TRANSACTION
  2
AcDbLongTransaction
  3
AutoCAD 2000
 90
    32768
280
     0
281
     0
  0
CLASS
  1
LWPOLYLINE
  2
AcDbPolyline
  3
AutoCAD 2000
 90
    32768
280
     0
281
     1
  0
CLASS
  1
HATCH
  2
AcDbHatch
  3
AutoCAD 2000
 90
    32768
280
     0
281
     1
  0
CLASS
  1
XRECORD
  2
AcDbXrecord
  3
AutoCAD 2000
 90
    32768
280
     0
281
     0
  0
CLASS
  1
LONG_TRANSACTION
  2
AcDbLongTransaction
  3
AutoCAD 2000
 90
    32768
280
     0
281
     0
  0
CLASS
  1
LWPOLYLINE
  2
AcDbPolyline
  3
AutoCAD 2000
 90
    32768
280
     0
281
     1
  0
CLASS
  1
HATCH
  2
AcDbHatch
  3
AutoCAD 2000
 90
    32768
280
     0
281
     1
  0
CLASS
  1
XRECORD
  2
AcDbXrecord
  3
AutoCAD 2000
 90
    32768
280
     0
281
     0
  0
CLASS
  1
LONG_TRANSACTION
  2
AcDbLongTransaction
  3
AutoCAD 2000
 90
    32768
280
     0
281
     0
  0
CLASS
  1
LWPOLYLINE
  2
AcDbPolyline
  3
AutoCAD 2000
 90
    32768
280
     0
281
     1
  0
CLASS
  1
HATCH
  2
AcDbHatch
  3
AutoCAD 2000
 90
    32768
280
     0
281
     1
  0
CLASS
  1
XRECORD
  2
AcDbXrecord
  3
AutoCAD 2000
 90
    32768
280
     0
281
     0
  0
CLASS
  1
LONG_TRANSACTION
  2
AcDbLongTransaction
  3
AutoCAD 2000
 90
    32768
280
     0
281
     0
  0
CLASS
  1
LWPOLYLINE
  2
AcDbPolyline
  3
AutoCAD 2000
 90
    32768
280
     0
281
     1
  0
CLASS
  1
HATCH
  2
AcDbHatch
  3
AutoCAD 2000
 90
    32768
280
     0
281
     1
  0
CLASS
  1
XRECORD
  2
AcDbXrecord
  3
AutoCAD 2000
 90
    32768
280
     0
281
     0
  0
CLASS
  1
LONG_TRANSACTION
  2
AcDbLongTransaction
  3
AutoCAD 2000
 90
    32768
280
     0
281
     0
  0
CLASS
  1
LWPOLYLINE
  2
AcDbPolyline
  3
AutoCAD 2000
 90
    32768
280
     0
281
     1
  0
CLASS
  1
HATCH
  2
AcDbHatch
  3
AutoCAD 2000
 90
    32768
280
     0
281
     1
  0
CLASS
  1
XRECORD
  2
AcDbXrecord
  3
AutoCAD 2000
 90
    32768
280
     0
281
     0
  0
CLASS
  1
LONG_TRANSACTION
  2
AcDbLongTransaction
  3
AutoCAD 2000
 90
    32768
280
     0
281
     0
  0
CLASS
  1
LWPOLYLINE
  2
AcDbPolyline
  3
AutoCAD 2000
 90
    32768
280
     0
281
     1
  0
CLASS
  1
HATCH
  2
AcDbHatch
  3
AutoCAD 2000
 90
    32768
280
     0
281
     1
  0
CLASS
  1
XRECORD
  2
AcDbXrecord
  3
AutoCAD 2000
 90
    32768
280
     0
281
     0
  0
CLASS
  1
LONG_TRANSACTION
  2
AcDbLongTransaction
  3
AutoCAD 2000
 90
    32768
280
     0
281
     0
  0
CLASS
  1
LWPOLYLINE
  2
AcDbPolyline
  3
AutoCAD 2000
 90
    32768
280
     0
281
     1
  0
CLASS
  1
HATCH
  2
AcDbHatch
  3
AutoCAD 2000
 90
    32768
280
     0
281
     1
  0
CLASS
  1
XRECORD
  2
AcDbXrecord
  3
AutoCAD 2000
 90
    32768
280
     0
281
     0
  0
CLASS
  1
LONG_TRANSACTION
  2
AcDbLongTransaction
  3
AutoCAD 2000
 90
    32768
280
     0
281
     0
  0
CLASS
  1
LWPOLYLINE
  2
AcDbPolyline
  3
AutoCAD 2000
 90
    32768
280
     0
281
     1
  0
CLASS
  1
HATCH
  2
AcDbHatch
  3
AutoCAD 2000
 90
    32768
280
     0
281
     1
  0
CLASS
  1
XRECORD
  2
AcDbXrecord
  3
AutoCAD 2000
 90
    32768
280
     0
281
     0
  0
CLASS
  1
LONG_TRANSACTION
  2
AcDbLongTransaction
  3
AutoCAD 2000
 90
    32768
280
     0
281
     0
  0
CLASS
  1
LWPOLYLINE
  2
AcDbPolyline
  3
AutoCAD 2000
 90
    32768
280
     0
281
     1
  0
CLASS
  1
HATCH
  2
AcDbHatch
  3
AutoCAD 2000
 90
    32768
280
     0
281
     1
  0
CLASS
  1
XRECORD
  2
AcDbXrecord
  3
AutoCAD 2000
 90
    32768
280
     0
281
     0
  0
CLASS
  1
LONG_TRANSACTION
  2
AcDbLongTransaction
  3
AutoCAD 2000
 90
    32768
280
     0
281
     0
  0
CLASS
  1
LWPOLYLINE
  2
AcDbPolyline
  3
AutoCAD 2000
 90
    32768
280
     0
281
     1
  0
CLASS
  1
HATCH
  2
AcDbHatch
  3
AutoCAD 2000
 90
    32768
280
     0
281
     1
  0
CLASS
  1
XRECORD
  2
AcDbXrecord
  3
AutoCAD 2000
 90
    32768
280
     0
281
     0
  0
CLASS
  1
LONG_TRANSACTION
  2
AcDbLongTransaction
  3
AutoCAD 2000
 90
    32768
280
     0
281
     0
  0
CLASS
  1
LWPOLYLINE
  2
AcDbPolyline
  3
AutoCAD 2000
 90
    32768
280
     0
281
     1
  0
CLASS
  1
HATCH
  2
AcDbHatch
  3
AutoCAD 2000
 90
    32768
280
     0
281
     1
  0
CLASS
  1
XRECORD
  2
AcDbXrecord
  3
AutoCAD 2000
 90
    32768
280
     0
281
     0
  0
CLASS
  1
LONG_TRANSACTION
  2
AcDbLongTransaction
  3
AutoCAD 2000
 90
    32768
280
     0
281
     0
  0
CLASS
  1
LWPOLYLINE
  2
AcDbPolyline
  3
AutoCAD 2000
 90
    32768
280
     0
281
     1
  0
CLASS
  1
HATCH
  2
AcDbHatch
  3
AutoCAD 2000
 90
    32768
280
     0
281
     1
  0
CLASS
  1
XRECORD
  2
AcDbXrecord
  3
AutoCAD 2000
 90
    32768
280
     0
281
     0
  0
CLASS
  1
LONG_TRANSACTION
  2
AcDbLongTransaction
  3
AutoCAD 2000
 90
    32768
280
     0
281
     0
  0
CLASS
  1
LWPOLYLINE
  2
AcDbPolyline
  3
AutoCAD 2000
 90
    32768
280
     0
281
     1
  0
CLASS
  1
HATCH
  2
AcDbHatch
  3
AutoCAD 2000
 90
    32768
280
     0
281
     1
  0
CLASS
  1
XRECORD
  2
AcDbXrecord
  3
AutoCAD 2000
 90
    32768
280
     0
281
     0
  0
CLASS
  1
LONG_TRANSACTION
  2
AcDbLongTransaction
  3
AutoCAD 2000
 90
    32768
280
     0
281
     0
  0
CLASS
  1
LWPOLYLINE
  2
AcDbPolyline
  3
AutoCAD 2000
 90
    32768
280
     0
281
     1
  0
CLASS
  1
HATCH
  2
AcDbHatch
  3
AutoCAD 2000
 90
    32768
280
     0
281
     1
  0
CLASS
  1
XRECORD
  2
AcDbXrecord
  3
AutoCAD 2000
 90
    32768
280
     0
281
     0
  0
CLASS
  1
LONG_TRANSACTION
  2
AcDbLongTransaction
  3
AutoCAD 2000
 90
    32768
280
     0
281
     0
  0
CLASS
  1
LWPOLYLINE
  2
AcDbPolyline
  3
AutoCAD 2000
 90
    32768
280
     0
281
     1
  0
CLASS
  1
HATCH
  2
AcDbHatch
  3
AutoCAD 2000
 90
    32768
280
     0
281
     1
  0
CLASS
  1
XRECORD
  2
AcDbXrecord
  3
AutoCAD 2000
 90
    32768
280
     0
281
     0
  0
CLASS
  1
LONG_TRANSACTION
  2
AcDbLongTransaction
  3
AutoCAD 2000
 90
    32768
280
     0
281
     0
  0
CLASS
  1
LWPOLYLINE
  2
AcDbPolyline
  3
AutoCAD 2000
 90
    32768
280
     0
281
     1
  0
CLASS
  1
HATCH
  2
AcDbHatch
  3
AutoCAD 2000
 90
    32768
280
     0
281
     1
  0
CLASS
  1
XRECORD
  2
AcDbXrecord
  3
AutoCAD 2000
 90
    32768
280
     0
281
     0
  0
CLASS
  1
LONG_TRANSACTION
  2
AcDbLongTransaction
  3
AutoCAD 2000
 90
    32768
280
     0
281
     0
  0
CLASS
  1
LWPOLYLINE
  2
AcDbPolyline
  3
AutoCAD 2000
 90
    32768
280
     0
281
     1
  0
CLASS
  1
HATCH
  2
AcDbHatch
  3
AutoCAD 2000
 90
    32768
280
     0
281
     1
  0
CLASS
  1
XRECORD
  2
AcDbXrecord
  3
AutoCAD 2000
 90
    32768
280
     0
281
     0
  0
CLASS
  1
LONG_TRANSACTION
  2
AcDbLongTransaction
  3
AutoCAD 2000
 90
    32768
280
     0
281
     0
  0
CLASS
  1
LWPOLYLINE
  2
AcDbPolyline
  3
AutoCAD 2000
 90
    32768
280
     0
281
     1
  0
CLASS
  1
HATCH
  2
AcDbHatch
  3
AutoCAD 2000
 90
    32768
280
     0
281
     1
  0
CLASS
  1
XRECORD
  2
AcDbXrecord
  3
AutoCAD 2000
 90
    32768
280
     0
281
     0
  0
CLASS
  1
LONG_TRANSACTION
  2
AcDbLongTransaction
  3
AutoCAD 2000
 90
    32768
280
     0
281
     0
  0
CLASS
  1
LWPOLYLINE
  2
AcDbPolyline
  3
AutoCAD 2000
 90
    32768
280
     0
281
     1
  0
CLASS
  1
HATCH
  2
AcDbHatch
  3
AutoCAD 2000
 90
    32768
280
     0
281
     1
  0
CLASS
  1
XRECORD
  2
AcDbXrecord
  3
AutoCAD 2000
 90
    32768
280
     0
281
     0
  0
ENDSEC
  0
SECTION
  2
TABLES
  0
TABLE
  2
VPORT
  5
1E
330
0
100
AcDbSymbolTable
 70
     4
  0
VPORT
  5
21B6
330
1E
100
AcDbSymbolTableRecord
100
AcDbViewportTableRecord
  2
*Active
 70
     0
 10
0.0
 20
0.0
 11
1.0
 21
1.0
 12
-590.0811698598424
 22
306.7782046085432
 13
0.0
 23
0.0
 14
1.0
 24
1.0
 15
2.0
 25
2.0
 16
0.0
 26
0.0
 36
1.0
 17
0.0
 27
0.0
 37
0.0
 40
879.0299408732742
 41
1.709909909909909
 42
50.0
 43
0.0
 44
0.0
 50
0.0
 51
0.0
 71
     0
 72
   100
 73
     1
 74
     1
 75
     0
 76
     0
 77
     0
 78
     0
281
     0
 65
     1
110
0.0
120
0.0
130
0.0
111
1.0
121
0.0
131
0.0
112
0.0
122
1.0
132
0.0
 79
     0
146
0.0
  0
ENDTAB
  0
TABLE
  2
LTYPE
  5
19
330
0
100
AcDbSymbolTable
 70
     3
  0
LTYPE
  5
1A
330
19
100
AcDbSymbolTableRecord
100
AcDbLinetypeTableRecord
  2
BYBLOCK
 70
     0
  3

 72
    65
 73
     0
 40
0.0
  0
LTYPE
  5
1B
330
19
100
AcDbSymbolTableRecord
100
AcDbLinetypeTableRecord
  2
BYLAYER
 70
     0
  3

 72
    65
 73
     0
 40
0.0
  0
LTYPE
  5
A
330
19
100
AcDbSymbolTableRecord
100
AcDbLinetypeTableRecord
  2
CONTINUOUS
 70
     0
  3
Solid line
 72
    65
 73
     0
 40
0.0
  0
LTYPE
  5
68
330
19
100
AcDbSymbolTableRecord
100
AcDbLinetypeTableRecord
  2
DASHED2
 70
     0
  3
Dashed (.5x) _ _ _ _ _ _ _ _ _ _ _ _ _ _ _ _ _
 72
    65
 73
     2
 40
9.529999999999999
 49
6.349999999999998
 74
     0
 49
-3.18
 74
     0
  0
LTYPE
  5
76
330
19
100
AcDbSymbolTableRecord
100
AcDbLinetypeTableRecord
  2
CENTER
 70
     0
  3
Center ____ _ ____ _ ____ _ ____ _ ____ _ ____
 72
    65
 73
     4
 40
50.8
 49
31.75
 74
     0
 49
-6.349999999999998
 74
     0
 49
6.349999999999998
 74
     0
 49
-6.349999999999998
 74
     0
  0
ENDTAB
  0
TABLE
  2
LAYER
  5
14
330
0
100
AcDbSymbolTable
 70
     3
  0
LAYER
  5
6
330
14
100
AcDbSymbolTableRecord
100
AcDbLayerTableRecord
  2
0
 70
     0
 62
     7
  6
CONTINUOUS
370
    -3
390
7
  0
LAYER
  5
3F
330
14
100
AcDbSymbolTableRecord
100
AcDbLayerTableRecord
  2
DEFPOINTS
 70
     0
 62
     7
  6
CONTINUOUS
290
     0
370
    -3
390
7
  0
LAYER
  5
26
330
14
100
AcDbSymbolTableRecord
100
AcDbLayerTableRecord
  2
画層1
 70
     0
 62
     7
  6
CONTINUOUS
370
    -3
390
7
  0
ENDTAB
  0
TABLE
  2
STYLE
  5
15
330
0
100
AcDbSymbolTable
 70
     2
  0
STYLE
  5
16
330
15
100
AcDbSymbolTableRecord
100
AcDbTextStyleTableRecord
  2
STANDARD
 70
     0
 40
2.5
 41
1.0
 50
0.0
 71
     0
 42
1.5
  3
MS PMincho.ttf
  4

1001
ACAD
1000
MS PMincho
1071
    32786
  0
STYLE
  5
27
330
15
100
AcDbSymbolTableRecord
100
AcDbTextStyleTableRecord
  2
STYLE1
 70
     0
 40
2.5
 41
1.0
 50
0.0
 71
     0
 42
2.5
  3
MS Gothic.ttf
  4

1001
ACAD
1000
MS Gothic
1071
    32817
  0
ENDTAB
  0
TABLE
  2
VIEW
  5
1C
330
0
100
AcDbSymbolTable
 70
     0
  0
ENDTAB
  0
TABLE
  2
UCS
  5
1D
330
0
100
AcDbSymbolTable
 70
     0
  0
ENDTAB
  0
TABLE
  2
APPID
  5
20
330
0
100
AcDbSymbolTable
 70
     1
  0
APPID
  5
17
330
20
100
AcDbSymbolTableRecord
100
AcDbRegAppTableRecord
  2
ACAD
 70
     0
  0
ENDTAB
  0
TABLE
  2
DIMSTYLE
  5
21
330
0
100
AcDbSymbolTable
 70
     1
100
AcDbDimStyleTable
 71
     1
340
35
  0
DIMSTYLE
105
35
102
{ACAD_REACTORS
330
1EC0
330
1ECD
330
1EDE
330
1F3B
330
1F48
330
1F55
330
1F62
330
1F2E
330
1F21
330
1FD6
330
2001
102
}
330
21
100
AcDbSymbolTableRecord
100
AcDbDimStyleTableRecord
  2
STANDARD_WS
 70
     0
 41
1.5
 42
0.63
 43
3.75
 44
1.25
 73
     0
 74
     0
 77
     1
 78
     8
140
2.5
141
2.5
143
0.04
147
0.63
171
     4
172
     1
173
     1
273
     8
274
     4
340
16
341
2E
343
2E
344
2E
  0
ENDTAB
  0
TABLE
  2
BLOCK_RECORD
  5
1
330
0
100
AcDbSymbolTable
 70
    14
  0
BLOCK_RECORD
  5
2
102
{ACAD_XDICTIONARY
360
3
102
}
330
1
100
AcDbSymbolTableRecord
100
AcDbBlockTableRecord
  2
*MODEL_SPACE
340
560
  0
BLOCK_RECORD
  5
E
102
{ACAD_XDICTIONARY
360
F
102
}
330
1
100
AcDbSymbolTableRecord
100
AcDbBlockTableRecord
  2
*PAPER_SPACE
340
561
  0
BLOCK_RECORD
  5
2E
330
1
100
AcDbSymbolTableRecord
100
AcDbBlockTableRecord
  2
_OPEN
340
0
  0
BLOCK_RECORD
  5
28
330
1
100
AcDbSymbolTableRecord
100
AcDbBlockTableRecord
  2
_OPEN30
340
0
102
{BLKREFS
331
1EC5
331
1EC6
331
1ED4
331
1ED5
331
1EE3
331
1EE4
331
1EEE
331
1EEF
331
1EF7
331
1EF8
331
1F00
331
1F01
331
1F0B
331
1F0C
331
1F26
331
1F27
331
1F33
331
1F34
331
1F40
331
1F41
331
1F4D
331
1F4E
331
1F5A
331
1F5B
331
1F67
331
1F68
331
1FBE
331
1FBF
331
1FC7
331
1FC8
331
1FD0
331
1FD1
331
1FDB
331
1FDC
331
1FE7
331
1FE8
331
1FF1
331
1FF2
331
1FFB
331
1FFC
331
2006
331
2007
331
2012
331
2013
331
201D
331
201E
331
2026
331
2027
331
2030
331
2031
331
203A
331
203B
331
2043
331
2044
331
204C
331
204D
331
2055
331
2056
331
205E
331
205F
331
2067
331
2068
102
}
  0
BLOCK_RECORD
  5
121
330
1
100
AcDbSymbolTableRecord
100
AcDbBlockTableRecord
  2
_DOTSMALL
340
0
  0
BLOCK_RECORD
  5
1EC1
330
1
100
AcDbSymbolTableRecord
100
AcDbBlockTableRecord
  2
*D3
340
0
  0
BLOCK_RECORD
  5
1ECE
330
1
100
AcDbSymbolTableRecord
100
AcDbBlockTableRecord
  2
*D4
340
0
  0
BLOCK_RECORD
  5
1EDF
330
1
100
AcDbSymbolTableRecord
100
AcDbBlockTableRecord
  2
*D5
340
0
  0
BLOCK_RECORD
  5
1F22
330
1
100
AcDbSymbolTableRecord
100
AcDbBlockTableRecord
  2
*D6
340
0
  0
BLOCK_RECORD
  5
1F2F
330
1
100
AcDbSymbolTableRecord
100
AcDbBlockTableRecord
  2
*D7
340
0
  0
BLOCK_RECORD
  5
1F3C
330
1
100
AcDbSymbolTableRecord
100
AcDbBlockTableRecord
  2
*D8
340
0
  0
BLOCK_RECORD
  5
1F49
330
1
100
AcDbSymbolTableRecord
100
AcDbBlockTableRecord
  2
*D9
340
0
  0
BLOCK_RECORD
  5
1F56
330
1
100
AcDbSymbolTableRecord
100
AcDbBlockTableRecord
  2
*D10
340
0
  0
BLOCK_RECORD
  5
1F63
330
1
100
AcDbSymbolTableRecord
100
AcDbBlockTableRecord
  2
*D11
340
0
  0
BLOCK_RECORD
  5
1FD7
330
1
100
AcDbSymbolTableRecord
100
AcDbBlockTableRecord
  2
*D12
340
0
  0
BLOCK_RECORD
  5
2002
330
1
100
AcDbSymbolTableRecord
100
AcDbBlockTableRecord
  2
*D13
340
0
  0
ENDTAB
  0
ENDSEC
  0
SECTION
  2
BLOCKS
  0
BLOCK
  5
5
330
2
100
AcDbEntity
  8
0
100
AcDbBlockBegin
  2
*MODEL_SPACE
 70
     0
 10
0.0
 20
0.0
 30
0.0
  3
*MODEL_SPACE
  1

  0
ENDBLK
  5
B
330
2
100
AcDbEntity
  8
0
100
AcDbBlockEnd
  0
BLOCK
  5
11
330
E
100
AcDbEntity
 67
     1
  8
0
100
AcDbBlockBegin
  2
*PAPER_SPACE
 70
     0
 10
0.0
 20
0.0
 30
0.0
  3
*PAPER_SPACE
  1

  0
ENDBLK
  5
12
330
E
100
AcDbEntity
 67
     1
  8
0
100
AcDbBlockEnd
  0
BLOCK
  5
32
330
2E
100
AcDbEntity
  8
0
100
AcDbBlockBegin
  2
_OPEN
 70
     0
 10
0.0
 20
0.0
 30
0.0
  3
_OPEN
  1

  0
LINE
  5
2F
330
2E
100
AcDbEntity
  8
0
  6
ByBlock
 62
     0
100
AcDbLine
 10
-1.0
 20
0.17
 30
0.0
 11
0.0
 21
0.0
 31
0.0
  0
LINE
  5
30
330
2E
100
AcDbEntity
  8
0
  6
ByBlock
 62
     0
100
AcDbLine
 10
0.0
 20
0.0
 30
0.0
 11
-1.0
 21
-0.17
 31
0.0
  0
LINE
  5
31
330
2E
100
AcDbEntity
  8
0
  6
ByBlock
 62
     0
100
AcDbLine
 10
0.0
 20
0.0
 30
0.0
 11
-1.0
 21
0.0
 31
0.0
  0
ENDBLK
  5
33
330
2E
100
AcDbEntity
  8
0
100
AcDbBlockEnd
  0
BLOCK
  5
2C
330
28
100
AcDbEntity
  8
0
100
AcDbBlockBegin
  2
_OPEN30
 70
     0
 10
0.0
 20
0.0
 30
0.0
  3
_OPEN30
  1

  0
LINE
  5
29
330
28
100
AcDbEntity
  8
0
  6
ByBlock
 62
     0
100
AcDbLine
 10
-1.0
 20
0.27
 30
0.0
 11
0.0
 21
0.0
 31
0.0
  0
LINE
  5
2A
330
28
100
AcDbEntity
  8
0
  6
ByBlock
 62
     0
100
AcDbLine
 10
0.0
 20
0.0
 30
0.0
 11
-1.0
 21
-0.27
 31
0.0
  0
LINE
  5
2B
330
28
100
AcDbEntity
  8
0
  6
ByBlock
 62
     0
100
AcDbLine
 10
0.0
 20
0.0
 30
0.0
 11
-1.0
 21
0.0
 31
0.0
  0
ENDBLK
  5
2D
330
28
100
AcDbEntity
  8
0
100
AcDbBlockEnd
  0
BLOCK
  5
123
330
121
100
AcDbEntity
  8
0
 62
     1
100
AcDbBlockBegin
  2
_DOTSMALL
 70
     0
 10
0.0
 20
0.0
 30
0.0
  3
_DOTSMALL
  1

  0
LWPOLYLINE
  5
122
330
121
100
AcDbEntity
  8
画層1
 62
     0
100
AcDbPolyline
 90
        2
 70
     1
 43
0.5
 10
-0.06
 20
0.0
 42
1.0
 10
0.06
 20
0.0
 42
1.0
  0
ENDBLK
  5
124
330
121
100
AcDbEntity
  8
0
 62
     1
100
AcDbBlockEnd
  0
BLOCK
  5
1ECB
330
1EC1
100
AcDbEntity
  8
0
 62
     1
370
    20
100
AcDbBlockBegin
  2
*D3
 70
     1
 10
0.0
 20
0.0
 30
0.0
  3
*D3
  1

  0
LINE
  5
1EFD
330
1EC1
100
AcDbEntity
  8
画層1
 62
     0
370
    -2
100
AcDbLine
 10
-93.09040117899707
 20
408.588776737169
 30
0.0
 11
-93.09040117899707
 21
449.2653986647728
 31
0.0
  0
LINE
  5
1EFE
330
1EC1
100
AcDbEntity
  8
画層1
 62
     0
370
    -2
100
AcDbLine
 10
-228.090401178997
 20
408.588776737169
 30
0.0
 11
-228.090401178997
 21
449.2653986647728
 31
0.0
  0
LINE
  5
1EFF
330
1EC1
100
AcDbEntity
  8
画層1
 62
     0
370
    -2
100
AcDbLine
 10
-94.59040117899707
 20
448.0153986647728
 30
0.0
 11
-226.5904011789971
 21
448.0153986647728
 31
0.0
  0
INSERT
  5
1F00
330
1EC1
100
AcDbEntity
  8
画層1
 62
     0
370
    -2
100
AcDbBlockReference
  2
_OPEN30
 10
-93.09040117899707
 20
448.0153986647728
 30
0.0
 41
1.5
 42
1.5
 43
1.5
  0
INSERT
  5
1F01
330
1EC1
100
AcDbEntity
  8
画層1
 62
     0
370
    -2
100
AcDbBlockReference
  2
_OPEN30
 10
-228.090401178997
 20
448.0153986647728
 30
0.0
 41
1.5
 42
1.5
 43
1.5
 50
180.0
  0
MTEXT
  5
1F02
330
1EC1
100
AcDbEntity
  8
画層1
 62
     0
370
    20
100
AcDbMText
 10
-160.590401178997
 20
450.2653986647728
 30
0.0
 40
2.5
 41
0.0
 71
     5
 72
     1
  1
\A1;135
 73
     1
 44
1.0
  0
POINT
  5
1F03
330
1EC1
100
AcDbEntity
  8
DEFPOINTS
 62
     0
370
    20
100
AcDbPoint
 10
-93.09040117899707
 20
407.958776737169
 30
0.0
  0
POINT
  5
1F04
330
1EC1
100
AcDbEntity
  8
DEFPOINTS
 62
     0
370
    20
100
AcDbPoint
 10
-228.090401178997
 20
407.958776737169
 30
0.0
  0
POINT
  5
1F05
330
1EC1
100
AcDbEntity
  8
DEFPOINTS
 62
     0
370
    20
100
AcDbPoint
 10
-228.090401178997
 20
448.0153986647728
 30
0.0
  0
ENDBLK
  5
1ECC
330
1EC1
100
AcDbEntity
  8
0
 62
     1
370
    20
100
AcDbBlockEnd
  0
BLOCK
  5
1EDA
330
1ECE
100
AcDbEntity
  8
0
 62
     1
370
    20
100
AcDbBlockBegin
  2
*D4
 70
     1
 10
0.0
 20
0.0
 30
0.0
  3
*D4
  1

  0
LINE
  5
1F06
330
1ECE
100
AcDbEntity
  8
画層1
 62
     0
370
    -2
100
AcDbLine
 10
-228.090401178997
 20
448.6453986647728
 30
0.0
 11
-228.090401178997
 21
449.2653986647728
 31
0.0
  0
LINE
  5
1F07
330
1ECE
100
AcDbEntity
  8
画層1
 62
     0
370
    -2
100
AcDbLine
 10
-231.0904011789971
 20
408.588776737169
 30
0.0
 11
-231.0904011789971
 21
449.2653986647728
 31
0.0
  0
LINE
  5
1F08
330
1ECE
100
AcDbEntity
  8
画層1
 62
     0
370
    -2
100
AcDbLine
 10
-226.5904011789971
 20
448.0153986647728
 30
0.0
 11
-225.0904011789971
 21
448.0153986647728
 31
0.0
  0
LINE
  5
1F09
330
1ECE
100
AcDbEntity
  8
画層1
 62
     0
370
    -2
100
AcDbLine
 10
-232.5904011789971
 20
448.0153986647728
 30
0.0
 11
-237.4527607295588
 21
448.0153986647728
 31
0.0
  0
LINE
  5
1F0A
330
1ECE
100
AcDbEntity
  8
画層1
 62
     0
370
    -2
100
AcDbLine
 10
-228.090401178997
 20
448.0153986647728
 30
0.0
 11
-231.0904011789971
 21
448.0153986647728
 31
0.0
  0
INSERT
  5
1F0B
330
1ECE
100
AcDbEntity
  8
画層1
 62
     0
370
    -2
100
AcDbBlockReference
  2
_OPEN30
 10
-228.090401178997
 20
448.0153986647728
 30
0.0
 41
1.5
 42
1.5
 43
1.5
 50
180.0
  0
INSERT
  5
1F0C
330
1ECE
100
AcDbEntity
  8
画層1
 62
     0
370
    -2
100
AcDbBlockReference
  2
_OPEN30
 10
-231.0904011789971
 20
448.0153986647728
 30
0.0
 41
1.5
 42
1.5
 43
1.5
  0
MTEXT
  5
1F0D
330
1ECE
100
AcDbEntity
  8
画層1
 62
     0
370
    20
100
AcDbMText
 10
-235.771580954278
 20
450.2653986647728
 30
0.0
 40
2.5
 41
0.0
 71
     5
 72
     1
  1
\A1;3
 73
     1
 44
1.0
  0
POINT
  5
1F0E
330
1ECE
100
AcDbEntity
  8
DEFPOINTS
 62
     0
370
    20
100
AcDbPoint
 10
-228.090401178997
 20
448.0153986647728
 30
0.0
  0
POINT
  5
1F0F
330
1ECE
100
AcDbEntity
  8
DEFPOINTS
 62
     0
370
    20
100
AcDbPoint
 10
-231.0904011789971
 20
407.958776737169
 30
0.0
  0
POINT
  5
1F10
330
1ECE
100
AcDbEntity
  8
DEFPOINTS
 62
     0
370
    20
100
AcDbPoint
 10
-231.0904011789971
 20
448.0153986647728
 30
0.0
  0
ENDBLK
  5
1EDB
330
1ECE
100
AcDbEntity
  8
0
 62
     1
370
    20
100
AcDbBlockEnd
  0
BLOCK
  5
1EE9
330
1EDF
100
AcDbEntity
  8
0
 62
     1
370
    20
100
AcDbBlockBegin
  2
*D5
 70
     1
 10
0.0
 20
0.0
 30
0.0
  3
*D5
  1

  0
LINE
  5
1EF4
330
1EDF
100
AcDbEntity
  8
画層1
 62
     0
370
    -2
100
AcDbLine
 10
-93.09040117899707
 20
449.8953986647729
 30
0.0
 11
-93.09040117899707
 21
459.8996430730058
 31
0.0
  0
LINE
  5
1EF5
330
1EDF
100
AcDbEntity
  8
画層1
 62
     0
370
    -2
100
AcDbLine
 10
-351.0904011789971
 20
364.588776737169
 30
0.0
 11
-351.0904011789971
 21
459.8996430730058
 31
0.0
  0
LINE
  5
1EF6
330
1EDF
100
AcDbEntity
  8
画層1
 62
     0
370
    -2
100
AcDbLine
 10
-94.59040117899707
 20
458.6496430730058
 30
0.0
 11
-349.5904011789971
 21
458.6496430730058
 31
0.0
  0
INSERT
  5
1EF7
330
1EDF
100
AcDbEntity
  8
画層1
 62
     0
370
    -2
100
AcDbBlockReference
  2
_OPEN30
 10
-93.09040117899707
 20
458.6496430730058
 30
0.0
 41
1.5
 42
1.5
 43
1.5
  0
INSERT
  5
1EF8
330
1EDF
100
AcDbEntity
  8
画層1
 62
     0
370
    -2
100
AcDbBlockReference
  2
_OPEN30
 10
-351.0904011789971
 20
458.6496430730058
 30
0.0
 41
1.5
 42
1.5
 43
1.5
 50
180.0
  0
MTEXT
  5
1EF9
330
1EDF
100
AcDbEntity
  8
画層1
 62
     0
370
    20
100
AcDbMText
 10
-222.0904011789971
 20
460.8996430730058
 30
0.0
 40
2.5
 41
0.0
 71
     5
 72
     1
  1
\A1;258
 73
     1
 44
1.0
  0
POINT
  5
1EFA
330
1EDF
100
AcDbEntity
  8
DEFPOINTS
 62
     0
370
    20
100
AcDbPoint
 10
-93.09040117899707
 20
449.2653986647728
 30
0.0
  0
POINT
  5
1EFB
330
1EDF
100
AcDbEntity
  8
DEFPOINTS
 62
     0
370
    20
100
AcDbPoint
 10
-351.0904011789971
 20
363.958776737169
 30
0.0
  0
POINT
  5
1EFC
330
1EDF
100
AcDbEntity
  8
DEFPOINTS
 62
     0
370
    20
100
AcDbPoint
 10
-351.0904011789971
 20
458.6496430730058
 30
0.0
  0
ENDBLK
  5
1EEA
330
1EDF
100
AcDbEntity
  8
0
 62
     1
370
    20
100
AcDbBlockEnd
  0
BLOCK
  5
1F2C
330
1F22
100
AcDbEntity
  8
0
 62
     1
370
    20
100
AcDbBlockBegin
  2
*D6
 70
     1
 10
0.0
 20
0.0
 30
0.0
  3
*D6
  1

  0
LINE
  5
2049
330
1F22
100
AcDbEntity
  8
画層1
 62
     0
370
    -2
100
AcDbLine
 10
-504.9352295960735
 20
88.91835416359674
 30
0.0
 11
-437.8456974607892
 21
88.91835416359674
 31
0.0
  0
LINE
  5
204A
330
1F22
100
AcDbEntity
  8
画層1
 62
     0
370
    -2
100
AcDbLine
 10
-504.9352295960735
 20
398.9587767371689
 30
0.0
 11
-437.8456974607891
 21
398.9587767371689
 31
0.0
  0
LINE
  5
204B
330
1F22
100
AcDbEntity
  8
画層1
 62
     0
370
    -2
100
AcDbLine
 10
-439.0956974607892
 20
90.41835416359672
 30
0.0
 11
-439.0956974607891
 21
397.4587767371689
 31
0.0
  0
INSERT
  5
204C
330
1F22
100
AcDbEntity
  8
画層1
 62
     0
370
    -2
100
AcDbBlockReference
  2
_OPEN30
 10
-439.0956974607892
 20
88.91835416359674
 30
0.0
 41
1.5
 42
1.5
 43
1.5
 50
270.0
  0
INSERT
  5
204D
330
1F22
100
AcDbEntity
  8
画層1
 62
     0
370
    -2
100
AcDbBlockReference
  2
_OPEN30
 10
-439.0956974607891
 20
398.9587767371689
 30
0.0
 41
1.5
 42
1.5
 43
1.5
 50
90.0
  0
MTEXT
  5
204E
330
1F22
100
AcDbEntity
  8
画層1
 62
     0
370
    20
100
AcDbMText
 10
-441.3456974607892
 20
243.9385654503827
 30
0.0
 40
2.5
 41
0.0
 71
     5
 72
     1
  1
\A1;310
 11
0.0000000000000001
 21
1.0
 31
0.0
 73
     1
 44
1.0
  0
POINT
  5
204F
330
1F22
100
AcDbEntity
  8
DEFPOINTS
 62
     0
370
    20
100
AcDbPoint
 10
-505.5652295960735
 20
88.91835416359674
 30
0.0
  0
POINT
  5
2050
330
1F22
100
AcDbEntity
  8
DEFPOINTS
 62
     0
370
    20
100
AcDbPoint
 10
-505.5652295960735
 20
398.9587767371689
 30
0.0
  0
POINT
  5
2051
330
1F22
100
AcDbEntity
  8
DEFPOINTS
 62
     0
370
    20
100
AcDbPoint
 10
-439.0956974607891
 20
398.9587767371689
 30
0.0
  0
ENDBLK
  5
1F2D
330
1F22
100
AcDbEntity
  8
0
 62
     1
370
    20
100
AcDbBlockEnd
  0
BLOCK
  5
1F39
330
1F2F
100
AcDbEntity
  8
0
 62
     1
370
    20
100
AcDbBlockBegin
  2
*D7
 70
     1
 10
0.0
 20
0.0
 30
0.0
  3
*D7
  1

  0
LINE
  5
2052
330
1F2F
100
AcDbEntity
  8
画層1
 62
     0
370
    -2
100
AcDbLine
 10
-464.9352295960735
 20
408.9587767371689
 30
0.0
 11
-425.8252085190048
 21
408.9587767371689
 31
0.0
  0
LINE
  5
2053
330
1F2F
100
AcDbEntity
  8
画層1
 62
     0
370
    -2
100
AcDbLine
 10
-464.9352295960735
 20
78.95877673716899
 30
0.0
 11
-425.8252085190049
 21
78.95877673716899
 31
0.0
  0
LINE
  5
2054
330
1F2F
100
AcDbEntity
  8
画層1
 62
     0
370
    -2
100
AcDbLine
 10
-427.0752085190048
 20
407.4587767371689
 30
0.0
 11
-427.0752085190049
 21
80.45877673716899
 31
0.0
  0
INSERT
  5
2055
330
1F2F
100
AcDbEntity
  8
画層1
 62
     0
370
    -2
100
AcDbBlockReference
  2
_OPEN30
 10
-427.0752085190048
 20
408.9587767371689
 30
0.0
 41
1.5
 42
1.5
 43
1.5
 50
90.0
  0
INSERT
  5
2056
330
1F2F
100
AcDbEntity
  8
画層1
 62
     0
370
    -2
100
AcDbBlockReference
  2
_OPEN30
 10
-427.0752085190049
 20
78.95877673716899
 30
0.0
 41
1.5
 42
1.5
 43
1.5
 50
270.0
  0
MTEXT
  5
2057
330
1F2F
100
AcDbEntity
  8
画層1
 62
     0
370
    20
100
AcDbMText
 10
-429.3252085190049
 20
243.9587767371689
 30
0.0
 40
2.5
 41
0.0
 71
     5
 72
     1
  1
\A1;330
 11
0.0000000000000001
 21
1.0
 31
0.0
 73
     1
 44
1.0
  0
POINT
  5
2058
330
1F2F
100
AcDbEntity
  8
DEFPOINTS
 62
     0
370
    20
100
AcDbPoint
 10
-465.5652295960735
 20
408.9587767371689
 30
0.0
  0
POINT
  5
2059
330
1F2F
100
AcDbEntity
  8
DEFPOINTS
 62
     0
370
    20
100
AcDbPoint
 10
-465.5652295960735
 20
78.95877673716899
 30
0.0
  0
POINT
  5
205A
330
1F2F
100
AcDbEntity
  8
DEFPOINTS
 62
     0
370
    20
100
AcDbPoint
 10
-427.0752085190049
 20
78.95877673716899
 30
0.0
  0
ENDBLK
  5
1F3A
330
1F2F
100
AcDbEntity
  8
0
 62
     1
370
    20
100
AcDbBlockEnd
  0
BLOCK
  5
1F46
330
1F3C
100
AcDbEntity
  8
0
 62
     1
370
    20
100
AcDbBlockBegin
  2
*D8
 70
     1
 10
0.0
 20
0.0
 30
0.0
  3
*D8
  1

  0
LINE
  5
2040
330
1F3C
100
AcDbEntity
  8
画層1
 62
     0
370
    -2
100
AcDbLine
 10
-505.5652295960735
 20
400.588776737169
 30
0.0
 11
-505.5652295960735
 21
433.675624805526
 31
0.0
  0
LINE
  5
2041
330
1F3C
100
AcDbEntity
  8
画層1
 62
     0
370
    -2
100
AcDbLine
 10
-645.5652295960735
 20
400.588776737169
 30
0.0
 11
-645.5652295960735
 21
433.675624805526
 31
0.0
  0
LINE
  5
2042
330
1F3C
100
AcDbEntity
  8
画層1
 62
     0
370
    -2
100
AcDbLine
 10
-507.0652295960735
 20
432.4256248055259
 30
0.0
 11
-644.0652295960735
 21
432.4256248055259
 31
0.0
  0
INSERT
  5
2043
330
1F3C
100
AcDbEntity
  8
画層1
 62
     0
370
    -2
100
AcDbBlockReference
  2
_OPEN30
 10
-505.5652295960735
 20
432.4256248055259
 30
0.0
 41
1.5
 42
1.5
 43
1.5
  0
INSERT
  5
2044
330
1F3C
100
AcDbEntity
  8
画層1
 62
     0
370
    -2
100
AcDbBlockReference
  2
_OPEN30
 10
-645.5652295960735
 20
432.4256248055259
 30
0.0
 41
1.5
 42
1.5
 43
1.5
 50
180.0
  0
MTEXT
  5
2045
330
1F3C
100
AcDbEntity
  8
画層1
 62
     0
370
    20
100
AcDbMText
 10
-575.5652295960735
 20
434.6756248055259
 30
0.0
 40
2.5
 41
0.0
 71
     5
 72
     1
  1
\A1;140
 73
     1
 44
1.0
  0
POINT
  5
2046
330
1F3C
100
AcDbEntity
  8
DEFPOINTS
 62
     0
370
    20
100
AcDbPoint
 10
-505.5652295960735
 20
399.958776737169
 30
0.0
  0
POINT
  5
2047
330
1F3C
100
AcDbEntity
  8
DEFPOINTS
 62
     0
370
    20
100
AcDbPoint
 10
-645.5652295960735
 20
399.958776737169
 30
0.0
  0
POINT
  5
2048
330
1F3C
100
AcDbEntity
  8
DEFPOINTS
 62
     0
370
    20
100
AcDbPoint
 10
-645.5652295960735
 20
432.4256248055259
 30
0.0
  0
ENDBLK
  5
1F47
330
1F3C
100
AcDbEntity
  8
0
 62
     1
370
    20
100
AcDbBlockEnd
  0
BLOCK
  5
1F53
330
1F49
100
AcDbEntity
  8
0
 62
     1
370
    20
100
AcDbBlockBegin
  2
*D9
 70
     1
 10
0.0
 20
0.0
 30
0.0
  3
*D9
  1

  0
LINE
  5
2023
330
1F49
100
AcDbEntity
  8
画層1
 62
     0
370
    -2
100
AcDbLine
 10
-465.5652295960735
 20
409.588776737169
 30
0.0
 11
-465.5652295960735
 21
445.5974063350931
 31
0.0
  0
LINE
  5
2024
330
1F49
100
AcDbEntity
  8
画層1
 62
     0
370
    -2
100
AcDbLine
 10
-685.5652295960735
 20
409.588776737169
 30
0.0
 11
-685.5652295960735
 21
445.5974063350931
 31
0.0
  0
LINE
  5
2025
330
1F49
100
AcDbEntity
  8
画層1
 62
     0
370
    -2
100
AcDbLine
 10
-467.0652295960735
 20
444.3474063350931
 30
0.0
 11
-684.0652295960735
 21
444.3474063350931
 31
0.0
  0
INSERT
  5
2026
330
1F49
100
AcDbEntity
  8
画層1
 62
     0
370
    -2
100
AcDbBlockReference
  2
_OPEN30
 10
-465.5652295960735
 20
444.3474063350931
 30
0.0
 41
1.5
 42
1.5
 43
1.5
  0
INSERT
  5
2027
330
1F49
100
AcDbEntity
  8
画層1
 62
     0
370
    -2
100
AcDbBlockReference
  2
_OPEN30
 10
-685.5652295960735
 20
444.3474063350931
 30
0.0
 41
1.5
 42
1.5
 43
1.5
 50
180.0
  0
MTEXT
  5
2028
330
1F49
100
AcDbEntity
  8
画層1
 62
     0
370
    20
100
AcDbMText
 10
-575.5652295960735
 20
446.5974063350931
 30
0.0
 40
2.5
 41
0.0
 71
     5
 72
     1
  1
\A1;220
 73
     1
 44
1.0
  0
POINT
  5
2029
330
1F49
100
AcDbEntity
  8
DEFPOINTS
 62
     0
370
    20
100
AcDbPoint
 10
-465.5652295960735
 20
408.9587767371689
 30
0.0
  0
POINT
  5
202A
330
1F49
100
AcDbEntity
  8
DEFPOINTS
 62
     0
370
    20
100
AcDbPoint
 10
-685.5652295960735
 20
408.9587767371689
 30
0.0
  0
POINT
  5
202B
330
1F49
100
AcDbEntity
  8
DEFPOINTS
 62
     0
370
    20
100
AcDbPoint
 10
-685.5652295960735
 20
444.3474063350931
 30
0.0
  0
ENDBLK
  5
1F54
330
1F49
100
AcDbEntity
  8
0
 62
     1
370
    20
100
AcDbBlockEnd
  0
BLOCK
  5
1F60
330
1F56
100
AcDbEntity
  8
0
 62
     1
370
    20
100
AcDbBlockBegin
  2
*D10
 70
     1
 10
0.0
 20
0.0
 30
0.0
  3
*D10
  1

  0
LINE
  5
205B
330
1F56
100
AcDbEntity
  8
画層1
 62
     0
370
    -2
100
AcDbLine
 10
-534.5652295960735
 20
92.32877673716899
 30
0.0
 11
-534.5652295960735
 21
58.20783016993903
 31
0.0
  0
LINE
  5
205C
330
1F56
100
AcDbEntity
  8
画層1
 62
     0
370
    -2
100
AcDbLine
 10
-616.5652295960735
 20
92.32877673716899
 30
0.0
 11
-616.5652295960735
 21
58.20783016993903
 31
0.0
  0
LINE
  5
205D
330
1F56
100
AcDbEntity
  8
画層1
 62
     0
370
    -2
100
AcDbLine
 10
-536.0652295960735
 20
59.45783016993903
 30
0.0
 11
-615.0652295960735
 21
59.45783016993903
 31
0.0
  0
INSERT
  5
205E
330
1F56
100
AcDbEntity
  8
画層1
 62
     0
370
    -2
100
AcDbBlockReference
  2
_OPEN30
 10
-534.5652295960735
 20
59.45783016993903
 30
0.0
 41
1.5
 42
1.5
 43
1.5
  0
INSERT
  5
205F
330
1F56
100
AcDbEntity
  8
画層1
 62
     0
370
    -2
100
AcDbBlockReference
  2
_OPEN30
 10
-616.5652295960735
 20
59.45783016993903
 30
0.0
 41
1.5
 42
1.5
 43
1.5
 50
180.0
  0
MTEXT
  5
2060
330
1F56
100
AcDbEntity
  8
画層1
 62
     0
370
    20
100
AcDbMText
 10
-575.5652295960735
 20
61.70783016993903
 30
0.0
 40
2.5
 41
0.0
 71
     5
 72
     1
  1
\A1;82
 73
     1
 44
1.0
  0
POINT
  5
2061
330
1F56
100
AcDbEntity
  8
DEFPOINTS
 62
     0
370
    20
100
AcDbPoint
 10
-534.5652295960735
 20
92.95877673716899
 30
0.0
  0
POINT
  5
2062
330
1F56
100
AcDbEntity
  8
DEFPOINTS
 62
     0
370
    20
100
AcDbPoint
 10
-616.5652295960735
 20
92.95877673716899
 30
0.0
  0
POINT
  5
2063
330
1F56
100
AcDbEntity
  8
DEFPOINTS
 62
     0
370
    20
100
AcDbPoint
 10
-616.5652295960735
 20
59.45783016993903
 30
0.0
  0
ENDBLK
  5
1F61
330
1F56
100
AcDbEntity
  8
0
 62
     1
370
    20
100
AcDbBlockEnd
  0
BLOCK
  5
1F6D
330
1F63
100
AcDbEntity
  8
0
 62
     1
370
    20
100
AcDbBlockBegin
  2
*D11
 70
     1
 10
0.0
 20
0.0
 30
0.0
  3
*D11
  1

  0
LINE
  5
2064
330
1F63
100
AcDbEntity
  8
画層1
 62
     0
370
    -2
100
AcDbLine
 10
-601.5652295960735
 20
78.32877673716899
 30
0.0
 11
-601.5652295960735
 21
68.07148565492775
 31
0.0
  0
LINE
  5
2065
330
1F63
100
AcDbEntity
  8
画層1
 62
     0
370
    -2
100
AcDbLine
 10
-631.5652295960735
 20
78.32877673716899
 30
0.0
 11
-631.5652295960735
 21
68.07148565492775
 31
0.0
  0
LINE
  5
2066
330
1F63
100
AcDbEntity
  8
画層1
 62
     0
370
    -2
100
AcDbLine
 10
-603.0652295960735
 20
69.32148565492775
 30
0.0
 11
-630.0652295960735
 21
69.32148565492775
 31
0.0
  0
INSERT
  5
2067
330
1F63
100
AcDbEntity
  8
画層1
 62
     0
370
    -2
100
AcDbBlockReference
  2
_OPEN30
 10
-601.5652295960735
 20
69.32148565492775
 30
0.0
 41
1.5
 42
1.5
 43
1.5
  0
INSERT
  5
2068
330
1F63
100
AcDbEntity
  8
画層1
 62
     0
370
    -2
100
AcDbBlockReference
  2
_OPEN30
 10
-631.5652295960735
 20
69.32148565492775
 30
0.0
 41
1.5
 42
1.5
 43
1.5
 50
180.0
  0
MTEXT
  5
2069
330
1F63
100
AcDbEntity
  8
画層1
 62
     0
370
    20
100
AcDbMText
 10
-616.5652295960735
 20
71.57148565492775
 30
0.0
 40
2.5
 41
0.0
 71
     5
 72
     1
  1
\A1;30
 73
     1
 44
1.0
  0
POINT
  5
206A
330
1F63
100
AcDbEntity
  8
DEFPOINTS
 62
     0
370
    20
100
AcDbPoint
 10
-601.5652295960735
 20
78.95877673716899
 30
0.0
  0
POINT
  5
206B
330
1F63
100
AcDbEntity
  8
DEFPOINTS
 62
     0
370
    20
100
AcDbPoint
 10
-631.5652295960735
 20
78.95877673716899
 30
0.0
  0
POINT
  5
206C
330
1F63
100
AcDbEntity
  8
DEFPOINTS
 62
     0
370
    20
100
AcDbPoint
 10
-631.5652295960735
 20
69.32148565492775
 30
0.0
  0
ENDBLK
  5
1F6E
330
1F63
100
AcDbEntity
  8
0
 62
     1
370
    20
100
AcDbBlockEnd
  0
BLOCK
  5
1FE1
330
1FD7
100
AcDbEntity
  8
0
 62
     1
370
    20
100
AcDbBlockBegin
  2
*D12
 70
     1
 10
0.0
 20
0.0
 30
0.0
  3
*D12
  1

  0
LINE
  5
2036
330
1FD7
100
AcDbEntity
  8
画層1
 62
     0
370
    -2
100
AcDbLine
 10
-501.0652295960736
 20
399.5887767371689
 30
0.0
 11
-501.0652295960736
 21
422.2262454311044
 31
0.0
  0
LINE
  5
2037
330
1FD7
100
AcDbEntity
  8
画層1
 62
     0
370
    -2
100
AcDbLine
 10
-510.0652295960735
 20
399.5887767371689
 30
0.0
 11
-510.0652295960735
 21
422.2262454311044
 31
0.0
  0
LINE
  5
2038
330
1FD7
100
AcDbEntity
  8
画層1
 62
     0
370
    -2
100
AcDbLine
 10
-502.5652295960735
 20
420.9762454311044
 30
0.0
 11
-508.5652295960735
 21
420.9762454311044
 31
0.0
  0
LINE
  5
2039
330
1FD7
100
AcDbEntity
  8
画層1
 62
     0
370
    -2
100
AcDbLine
 10
-510.0652295960735
 20
420.9762454311044
 30
0.0
 11
-516.5969123920224
 21
420.9762454311044
 31
0.0
  0
INSERT
  5
203A
330
1FD7
100
AcDbEntity
  8
画層1
 62
     0
370
    -2
100
AcDbBlockReference
  2
_OPEN30
 10
-501.0652295960736
 20
420.9762454311044
 30
0.0
 41
1.5
 42
1.5
 43
1.5
  0
INSERT
  5
203B
330
1FD7
100
AcDbEntity
  8
画層1
 62
     0
370
    -2
100
AcDbBlockReference
  2
_OPEN30
 10
-510.0652295960735
 20
420.9762454311044
 30
0.0
 41
1.5
 42
1.5
 43
1.5
 50
180.0
  0
MTEXT
  5
203C
330
1FD7
100
AcDbEntity
  8
画層1
 62
     0
370
    20
100
AcDbMText
 10
-514.8735977852809
 20
423.2262454311044
 30
0.0
 40
2.5
 41
0.0
 71
     5
 72
     1
  1
\A1;9
 73
     1
 44
1.0
  0
POINT
  5
203D
330
1FD7
100
AcDbEntity
  8
DEFPOINTS
 62
     0
370
    20
100
AcDbPoint
 10
-501.0652295960736
 20
398.9587767371689
 30
0.0
  0
POINT
  5
203E
330
1FD7
100
AcDbEntity
  8
DEFPOINTS
 62
     0
370
    20
100
AcDbPoint
 10
-510.0652295960735
 20
398.9587767371689
 30
0.0
  0
POINT
  5
203F
330
1FD7
100
AcDbEntity
  8
DEFPOINTS
 62
     0
370
    20
100
AcDbPoint
 10
-510.0652295960735
 20
420.9762454311044
 30
0.0
  0
ENDBLK
  5
1FE2
330
1FD7
100
AcDbEntity
  8
0
 62
     1
370
    20
100
AcDbBlockEnd
  0
BLOCK
  5
200C
330
2002
100
AcDbEntity
  8
0
 62
     1
370
    20
100
AcDbBlockBegin
  2
*D13
 70
     1
 10
0.0
 20
0.0
 30
0.0
  3
*D13
  1

  0
LINE
  5
202C
330
2002
100
AcDbEntity
  8
画層1
 62
     0
370
    -2
100
AcDbLine
 10
-650.0652295960735
 20
399.5887767371689
 30
0.0
 11
-650.0652295960735
 21
422.2262454311044
 31
0.0
  0
LINE
  5
202D
330
2002
100
AcDbEntity
  8
画層1
 62
     0
370
    -2
100
AcDbLine
 10
-641.0652295960735
 20
399.5887767371689
 30
0.0
 11
-641.0652295960735
 21
422.2262454311044
 31
0.0
  0
LINE
  5
202E
330
2002
100
AcDbEntity
  8
画層1
 62
     0
370
    -2
100
AcDbLine
 10
-648.5652295960735
 20
420.9762454311044
 30
0.0
 11
-642.5652295960735
 21
420.9762454311044
 31
0.0
  0
LINE
  5
202F
330
2002
100
AcDbEntity
  8
画層1
 62
     0
370
    -2
100
AcDbLine
 10
-641.0652295960735
 20
420.9762454311044
 30
0.0
 11
-635.8188305568384
 21
420.9762454311044
 31
0.0
  0
INSERT
  5
2030
330
2002
100
AcDbEntity
  8
画層1
 62
     0
370
    -2
100
AcDbBlockReference
  2
_OPEN30
 10
-650.0652295960735
 20
420.9762454311044
 30
0.0
 41
1.5
 42
1.5
 43
1.5
 50
180.0
  0
INSERT
  5
2031
330
2002
100
AcDbEntity
  8
画層1
 62
     0
370
    -2
100
AcDbBlockReference
  2
_OPEN30
 10
-641.0652295960735
 20
420.9762454311044
 30
0.0
 41
1.5
 42
1.5
 43
1.5
  0
MTEXT
  5
2032
330
2002
100
AcDbEntity
  8
画層1
 62
     0
370
    20
100
AcDbMText
 10
-637.54214516358
 20
423.2262454311044
 30
0.0
 40
2.5
 41
0.0
 71
     5
 72
     1
  1
\A1;9
 73
     1
 44
1.0
  0
POINT
  5
2033
330
2002
100
AcDbEntity
  8
DEFPOINTS
 62
     0
370
    20
100
AcDbPoint
 10
-650.0652295960735
 20
398.9587767371689
 30
0.0
  0
POINT
  5
2034
330
2002
100
AcDbEntity
  8
DEFPOINTS
 62
     0
370
    20
100
AcDbPoint
 10
-641.0652295960735
 20
398.9587767371689
 30
0.0
  0
POINT
  5
2035
330
2002
100
AcDbEntity
  8
DEFPOINTS
 62
     0
370
    20
100
AcDbPoint
 10
-641.0652295960735
 20
420.9762454311044
 30
0.0
  0
ENDBLK
  5
200D
330
2002
100
AcDbEntity
  8
0
 62
     1
370
    20
100
AcDbBlockEnd
  0
ENDSEC
  0
SECTION
  2
ENTITIES
  0
LINE
  5
B81
330
2
100
AcDbEntity
  8
画層1
  6
CENTER
 62
     0
370
    20
100
AcDbLine
 10
-695.5652295960735
 20
243.958776737169
 30
0.0
 11
-455.5652295960735
 21
243.958776737169
 31
0.0
  0
LINE
  5
B84
330
2
100
AcDbEntity
  8
画層1
  6
CENTER
 62
     0
370
    20
100
AcDbLine
 10
-575.5652295960735
 20
418.958776737169
 30
0.0
 11
-575.5652295960735
 21
68.95877673716899
 31
0.0
  0
LINE
  5
BB4
330
2
100
AcDbEntity
  8
画層1
  6
CENTER
 62
     0
370
    20
100
AcDbLine
 10
-387.0904011789971
 20
243.958776737169
 30
0.0
 11
-54.15396676600903
 21
243.958776737169
 31
0.0
  0
LWPOLYLINE
  5
118D
330
2
100
AcDbEntity
  8
画層1
370
    20
100
AcDbPolyline
 90
        4
 70
     1
 43
0.0
 10
-671.9652295960734
 20
149.258776737169
 10
-658.9652295960735
 20
149.258776737169
 10
-658.9652295960735
 20
147.258776737169
 10
-671.9652295960734
 20
147.258776737169
  0
LWPOLYLINE
  5
118E
330
2
100
AcDbEntity
  8
画層1
370
    20
100
AcDbPolyline
 90
        4
 70
     1
 43
0.0
 10
-671.9652295960734
 20
159.2587767371689
 10
-658.9652295960735
 20
159.2587767371689
 10
-658.9652295960735
 20
157.258776737169
 10
-671.9652295960734
 20
157.258776737169
  0
LWPOLYLINE
  5
118F
330
2
100
AcDbEntity
  8
画層1
370
    20
100
AcDbPolyline
 90
        4
 70
     1
 43
0.0
 10
-671.9652295960734
 20
169.258776737169
 10
-658.9652295960735
 20
169.258776737169
 10
-658.9652295960735
 20
167.2587767371689
 10
-671.9652295960734
 20
167.2587767371689
  0
LWPOLYLINE
  5
1190
330
2
100
AcDbEntity
  8
画層1
370
    20
100
AcDbPolyline
 90
        4
 70
     1
 43
0.0
 10
-671.9652295960734
 20
179.258776737169
 10
-658.9652295960735
 20
179.258776737169
 10
-658.9652295960735
 20
177.258776737169
 10
-671.9652295960734
 20
177.258776737169
  0
LWPOLYLINE
  5
1191
330
2
100
AcDbEntity
  8
画層1
370
    20
100
AcDbPolyline
 90
        4
 70
     1
 43
0.0
 10
-671.9652295960734
 20
189.258776737169
 10
-658.9652295960735
 20
189.258776737169
 10
-658.9652295960735
 20
187.2587767371689
 10
-671.9652295960734
 20
187.2587767371689
  0
LWPOLYLINE
  5
1192
330
2
100
AcDbEntity
  8
画層1
370
    20
100
AcDbPolyline
 90
        4
 70
     1
 43
0.0
 10
-671.9652295960734
 20
199.258776737169
 10
-658.9652295960735
 20
199.258776737169
 10
-658.9652295960735
 20
197.258776737169
 10
-671.9652295960734
 20
197.258776737169
  0
LWPOLYLINE
  5
1193
330
2
100
AcDbEntity
  8
画層1
370
    20
100
AcDbPolyline
 90
        4
 70
     1
 43
0.0
 10
-671.9652295960734
 20
209.258776737169
 10
-658.9652295960735
 20
209.258776737169
 10
-658.9652295960735
 20
207.258776737169
 10
-671.9652295960734
 20
207.258776737169
  0
LWPOLYLINE
  5
1194
330
2
100
AcDbEntity
  8
画層1
370
    20
100
AcDbPolyline
 90
        4
 70
     1
 43
0.0
 10
-671.9652295960734
 20
219.258776737169
 10
-658.9652295960735
 20
219.258776737169
 10
-658.9652295960735
 20
217.258776737169
 10
-671.9652295960734
 20
217.258776737169
  0
LWPOLYLINE
  5
1195
330
2
100
AcDbEntity
  8
画層1
370
    20
100
AcDbPolyline
 90
        4
 70
     1
 43
0.0
 10
-671.9652295960734
 20
229.2587767371689
 10
-658.9652295960735
 20
229.2587767371689
 10
-658.9652295960735
 20
227.2587767371689
 10
-671.9652295960734
 20
227.2587767371689
  0
LINE
  5
1197
330
2
100
AcDbEntity
  8
画層1
370
    20
100
AcDbLine
 10
-658.9652295960735
 20
229.2587767371689
 30
0.0
 11
-658.9652295960735
 21
149.258776737169
 31
0.0
  0
LINE
  5
1198
330
2
100
AcDbEntity
  8
画層1
370
    20
100
AcDbLine
 10
-671.9652295960734
 20
229.2587767371689
 30
0.0
 11
-671.9652295960734
 21
149.258776737169
 31
0.0
  0
LINE
  5
11B1
330
2
100
AcDbEntity
  8
画層1
370
    20
100
AcDbLine
 10
-667.4652295960735
 20
229.2587767371689
 30
0.0
 11
-663.4652295960735
 21
229.2587767371689
 31
0.0
  0
LINE
  5
11B9
330
2
100
AcDbEntity
  8
画層1
370
    20
100
AcDbLine
 10
-661.4652295960735
 20
225.2587767371691
 30
0.0
 11
-661.4652295960736
 21
221.2587766371689
 31
0.0
  0
LINE
  5
11BB
330
2
100
AcDbEntity
  8
画層1
370
    20
100
AcDbLine
 10
-669.4652295960735
 20
225.258776737169
 30
0.0
 11
-669.4652295960734
 21
221.2587766371689
 31
0.0
  0
LINE
  5
11BD
330
2
100
AcDbEntity
  8
画層1
370
    20
100
AcDbLine
 10
-664.9652295960735
 20
221.258776737169
 30
0.0
 11
-664.9652295960735
 21
222.7587767371689
 31
0.0
  0
LINE
  5
11BE
330
2
100
AcDbEntity
  8
画層1
370
    20
100
AcDbLine
 10
-665.9652295960735
 20
222.7587767371689
 30
0.0
 11
-665.9652295960735
 21
221.258776737169
 31
0.0
  0
CIRCLE
  5
11BF
330
2
100
AcDbEntity
  8
画層1
370
    20
100
AcDbCircle
 10
-665.4652295960735
 20
223.2587767371689
 30
0.0
 40
3.0
  0
LINE
  5
11C0
330
2
100
AcDbEntity
  8
画層1
370
    20
100
AcDbLine
 10
-667.4652295960735
 20
219.258776737169
 30
0.0
 11
-663.4652295960735
 21
219.258776737169
 31
0.0
  0
ARC
  5
11C1
330
2
100
AcDbEntity
  8
画層1
370
    20
100
AcDbCircle
 10
-667.4652295960734
 20
221.2587767371688
 30
0.0
 40
2.0
100
AcDbArc
 50
179.9999999999951
 51
269.9999999999967
  0
ARC
  5
11C2
330
2
100
AcDbEntity
  8
画層1
370
    20
100
AcDbCircle
 10
-663.4652295960736
 20
221.2587767371689
 30
0.0
 40
2.0
100
AcDbArc
 50
270.0000000000032
 51
0.0000000000016284
  0
LINE
  5
11C3
330
2
100
AcDbEntity
  8
画層1
370
    20
100
AcDbLine
 10
-665.9652295960735
 20
221.258776737169
 30
0.0
 11
-664.9652295960735
 21
221.258776737169
 31
0.0
  0
LINE
  5
11C4
330
2
100
AcDbEntity
  8
画層1
370
    20
100
AcDbLine
 10
-667.4652295960735
 20
227.2587767371689
 30
0.0
 11
-663.4652295960735
 21
227.2587767371689
 31
0.0
  0
LINE
  5
11C5
330
2
100
AcDbEntity
  8
画層1
370
    20
100
AcDbLine
 10
-668.4232694876233
 20
222.7587767371689
 30
0.0
 11
-665.9652295960735
 21
222.7587767371689
 31
0.0
  0
LINE
  5
11C6
330
2
100
AcDbEntity
  8
画層1
370
    20
100
AcDbLine
 10
-665.9652295960735
 20
223.758776737169
 30
0.0
 11
-668.4232694876233
 21
223.758776737169
 31
0.0
  0
ARC
  5
11C7
330
2
100
AcDbEntity
  8
画層1
370
    20
100
AcDbCircle
 10
-667.4652295960736
 20
225.258776737169
 30
0.0
 40
2.0
100
AcDbArc
 50
89.99999999999674
 51
180.0000000000016
  0
ARC
  5
11C8
330
2
100
AcDbEntity
  8
画層1
370
    20
100
AcDbCircle
 10
-663.4652295960734
 20
225.2587767371691
 30
0.0
 40
2.0
100
AcDbArc
 50
359.9999999999967
 51
90.00000000000325
  0
LINE
  5
11C9
330
2
100
AcDbEntity
  8
画層1
370
    20
100
AcDbLine
 10
-664.9652295960735
 20
225.2587767371689
 30
0.0
 11
-665.9652295960735
 21
225.2587767371689
 31
0.0
  0
LINE
  5
11CA
330
2
100
AcDbEntity
  8
画層1
370
    20
100
AcDbLine
 10
-664.9652295960735
 20
223.758776737169
 30
0.0
 11
-664.9652295960735
 21
225.2587767371689
 31
0.0
  0
LINE
  5
11CB
330
2
100
AcDbEntity
  8
画層1
370
    20
100
AcDbLine
 10
-662.5071897045237
 20
223.758776737169
 30
0.0
 11
-664.9652295960735
 21
223.758776737169
 31
0.0
  0
LINE
  5
11CC
330
2
100
AcDbEntity
  8
画層1
370
    20
100
AcDbLine
 10
-664.9652295960735
 20
222.7587767371689
 30
0.0
 11
-662.5071897045237
 21
222.7587767371689
 31
0.0
  0
LINE
  5
11CD
330
2
100
AcDbEntity
  8
画層1
370
    20
100
AcDbLine
 10
-665.9652295960735
 20
225.2587767371689
 30
0.0
 11
-665.9652295960735
 21
223.758776737169
 31
0.0
  0
CIRCLE
  5
11CF
330
2
100
AcDbEntity
  8
画層1
370
    20
100
AcDbCircle
 10
-665.4652295960735
 20
213.258776737169
 30
0.0
 40
3.0
  0
LINE
  5
11D0
330
2
100
AcDbEntity
  8
画層1
370
    20
100
AcDbLine
 10
-665.9652295960735
 20
212.7587767371689
 30
0.0
 11
-665.9652295960735
 21
211.258776737169
 31
0.0
  0
LINE
  5
11D1
330
2
100
AcDbEntity
  8
画層1
370
    20
100
AcDbLine
 10
-664.9652295960735
 20
211.258776737169
 30
0.0
 11
-664.9652295960735
 21
212.7587767371689
 31
0.0
  0
LINE
  5
11D2
330
2
100
AcDbEntity
  8
画層1
370
    20
100
AcDbLine
 10
-669.4652295960735
 20
215.258776737169
 30
0.0
 11
-669.4652295960734
 21
211.2587766371689
 31
0.0
  0
LINE
  5
11D3
330
2
100
AcDbEntity
  8
画層1
370
    20
100
AcDbLine
 10
-661.4652295960735
 20
215.2587767371691
 30
0.0
 11
-661.4652295960736
 21
211.2587766371689
 31
0.0
  0
LINE
  5
11D4
330
2
100
AcDbEntity
  8
画層1
370
    20
100
AcDbLine
 10
-667.4652295960735
 20
209.258776737169
 30
0.0
 11
-663.4652295960735
 21
209.258776737169
 31
0.0
  0
ARC
  5
11D5
330
2
100
AcDbEntity
  8
画層1
370
    20
100
AcDbCircle
 10
-667.4652295960734
 20
211.2587767371688
 30
0.0
 40
2.0
100
AcDbArc
 50
179.9999999999951
 51
269.9999999999967
  0
LINE
  5
11D6
330
2
100
AcDbEntity
  8
画層1
370
    20
100
AcDbLine
 10
-665.9652295960735
 20
211.258776737169
 30
0.0
 11
-664.9652295960735
 21
211.258776737169
 31
0.0
  0
ARC
  5
11D7
330
2
100
AcDbEntity
  8
画層1
370
    20
100
AcDbCircle
 10
-663.4652295960736
 20
211.2587767371689
 30
0.0
 40
2.0
100
AcDbArc
 50
270.0000000000032
 51
0.0000000000016284
  0
LINE
  5
11D8
330
2
100
AcDbEntity
  8
画層1
370
    20
100
AcDbLine
 10
-665.9652295960735
 20
213.758776737169
 30
0.0
 11
-668.4232694876233
 21
213.758776737169
 31
0.0
  0
LINE
  5
11D9
330
2
100
AcDbEntity
  8
画層1
370
    20
100
AcDbLine
 10
-668.4232694876233
 20
212.7587767371689
 30
0.0
 11
-665.9652295960735
 21
212.7587767371689
 31
0.0
  0
LINE
  5
11DA
330
2
100
AcDbEntity
  8
画層1
370
    20
100
AcDbLine
 10
-667.4652295960735
 20
217.258776737169
 30
0.0
 11
-663.4652295960735
 21
217.258776737169
 31
0.0
  0
ARC
  5
11DB
330
2
100
AcDbEntity
  8
画層1
370
    20
100
AcDbCircle
 10
-667.4652295960736
 20
215.258776737169
 30
0.0
 40
2.0
100
AcDbArc
 50
89.99999999999674
 51
180.0000000000016
  0
LINE
  5
11DC
330
2
100
AcDbEntity
  8
画層1
370
    20
100
AcDbLine
 10
-665.9652295960735
 20
215.258776737169
 30
0.0
 11
-665.9652295960735
 21
213.758776737169
 31
0.0
  0
LINE
  5
11DD
330
2
100
AcDbEntity
  8
画層1
370
    20
100
AcDbLine
 10
-664.9652295960735
 20
212.7587767371689
 30
0.0
 11
-662.5071897045237
 21
212.7587767371689
 31
0.0
  0
LINE
  5
11DE
330
2
100
AcDbEntity
  8
画層1
370
    20
100
AcDbLine
 10
-662.5071897045237
 20
213.758776737169
 30
0.0
 11
-664.9652295960735
 21
213.758776737169
 31
0.0
  0
LINE
  5
11DF
330
2
100
AcDbEntity
  8
画層1
370
    20
100
AcDbLine
 10
-664.9652295960735
 20
213.758776737169
 30
0.0
 11
-664.9652295960735
 21
215.258776737169
 31
0.0
  0
LINE
  5
11E0
330
2
100
AcDbEntity
  8
画層1
370
    20
100
AcDbLine
 10
-664.9652295960735
 20
215.258776737169
 30
0.0
 11
-665.9652295960735
 21
215.258776737169
 31
0.0
  0
ARC
  5
11E1
330
2
100
AcDbEntity
  8
画層1
370
    20
100
AcDbCircle
 10
-663.4652295960734
 20
215.2587767371691
 30
0.0
 40
2.0
100
AcDbArc
 50
359.9999999999967
 51
90.00000000000325
  0
LINE
  5
11E2
330
2
100
AcDbEntity
  8
画層1
370
    20
100
AcDbLine
 10
-661.4652295960735
 20
205.2587767371691
 30
0.0
 11
-661.4652295960736
 21
201.258776637169
 31
0.0
  0
LINE
  5
11E3
330
2
100
AcDbEntity
  8
画層1
370
    20
100
AcDbLine
 10
-669.4652295960735
 20
205.258776737169
 30
0.0
 11
-669.4652295960734
 21
201.258776637169
 31
0.0
  0
CIRCLE
  5
11E4
330
2
100
AcDbEntity
  8
画層1
370
    20
100
AcDbCircle
 10
-665.4652295960735
 20
203.258776737169
 30
0.0
 40
3.0
  0
LINE
  5
11E5
330
2
100
AcDbEntity
  8
画層1
370
    20
100
AcDbLine
 10
-668.4232694876233
 20
202.758776737169
 30
0.0
 11
-665.9652295960735
 21
202.758776737169
 31
0.0
  0
LINE
  5
11E6
330
2
100
AcDbEntity
  8
画層1
370
    20
100
AcDbLine
 10
-667.4652295960735
 20
199.258776737169
 30
0.0
 11
-663.4652295960735
 21
199.258776737169
 31
0.0
  0
ARC
  5
11E7
330
2
100
AcDbEntity
  8
画層1
370
    20
100
AcDbCircle
 10
-667.4652295960734
 20
201.2587767371688
 30
0.0
 40
2.0
100
AcDbArc
 50
179.9999999999951
 51
269.9999999999967
  0
LINE
  5
11E8
330
2
100
AcDbEntity
  8
画層1
370
    20
100
AcDbLine
 10
-664.9652295960735
 20
202.758776737169
 30
0.0
 11
-662.5071897045237
 21
202.758776737169
 31
0.0
  0
ARC
  5
11E9
330
2
100
AcDbEntity
  8
画層1
370
    20
100
AcDbCircle
 10
-663.4652295960736
 20
201.2587767371689
 30
0.0
 40
2.0
100
AcDbArc
 50
270.0000000000032
 51
0.0000000000016284
  0
LINE
  5
11EA
330
2
100
AcDbEntity
  8
画層1
370
    20
100
AcDbLine
 10
-665.9652295960735
 20
201.258776737169
 30
0.0
 11
-664.9652295960735
 21
201.258776737169
 31
0.0
  0
LINE
  5
11EB
330
2
100
AcDbEntity
  8
画層1
370
    20
100
AcDbLine
 10
-664.9652295960735
 20
201.258776737169
 30
0.0
 11
-664.9652295960735
 21
202.758776737169
 31
0.0
  0
LINE
  5
11EC
330
2
100
AcDbEntity
  8
画層1
370
    20
100
AcDbLine
 10
-665.9652295960735
 20
202.758776737169
 30
0.0
 11
-665.9652295960735
 21
201.258776737169
 31
0.0
  0
LINE
  5
11ED
330
2
100
AcDbEntity
  8
画層1
370
    20
100
AcDbLine
 10
-667.4652295960735
 20
207.258776737169
 30
0.0
 11
-663.4652295960735
 21
207.258776737169
 31
0.0
  0
LINE
  5
11EE
330
2
100
AcDbEntity
  8
画層1
370
    20
100
AcDbLine
 10
-665.9652295960735
 20
203.758776737169
 30
0.0
 11
-668.4232694876233
 21
203.758776737169
 31
0.0
  0
ARC
  5
11EF
330
2
100
AcDbEntity
  8
画層1
370
    20
100
AcDbCircle
 10
-667.4652295960736
 20
205.258776737169
 30
0.0
 40
2.0
100
AcDbArc
 50
89.99999999999674
 51
180.0000000000016
  0
ARC
  5
11F0
330
2
100
AcDbEntity
  8
画層1
370
    20
100
AcDbCircle
 10
-663.4652295960734
 20
205.2587767371691
 30
0.0
 40
2.0
100
AcDbArc
 50
359.9999999999967
 51
90.00000000000325
  0
LINE
  5
11F1
330
2
100
AcDbEntity
  8
画層1
370
    20
100
AcDbLine
 10
-664.9652295960735
 20
205.258776737169
 30
0.0
 11
-665.9652295960735
 21
205.258776737169
 31
0.0
  0
LINE
  5
11F2
330
2
100
AcDbEntity
  8
画層1
370
    20
100
AcDbLine
 10
-664.9652295960735
 20
203.758776737169
 30
0.0
 11
-664.9652295960735
 21
205.258776737169
 31
0.0
  0
LINE
  5
11F3
330
2
100
AcDbEntity
  8
画層1
370
    20
100
AcDbLine
 10
-662.5071897045237
 20
203.758776737169
 30
0.0
 11
-664.9652295960735
 21
203.758776737169
 31
0.0
  0
LINE
  5
11F4
330
2
100
AcDbEntity
  8
画層1
370
    20
100
AcDbLine
 10
-665.9652295960735
 20
205.258776737169
 30
0.0
 11
-665.9652295960735
 21
203.758776737169
 31
0.0
  0
LINE
  5
11F5
330
2
100
AcDbEntity
  8
画層1
370
    20
100
AcDbLine
 10
-665.9652295960735
 20
195.258776737169
 30
0.0
 11
-665.9652295960735
 21
193.758776737169
 31
0.0
  0
LINE
  5
11F6
330
2
100
AcDbEntity
  8
画層1
370
    20
100
AcDbLine
 10
-664.9652295960735
 20
193.758776737169
 30
0.0
 11
-664.9652295960735
 21
195.258776737169
 31
0.0
  0
CIRCLE
  5
11F7
330
2
100
AcDbEntity
  8
画層1
370
    20
100
AcDbCircle
 10
-665.4652295960735
 20
193.2587767371689
 30
0.0
 40
3.0
  0
LINE
  5
11F8
330
2
100
AcDbEntity
  8
画層1
370
    20
100
AcDbLine
 10
-669.4652295960735
 20
195.258776737169
 30
0.0
 11
-669.4652295960734
 21
191.2587766371689
 31
0.0
  0
LINE
  5
11F9
330
2
100
AcDbEntity
  8
画層1
370
    20
100
AcDbLine
 10
-661.4652295960735
 20
195.2587767371691
 30
0.0
 11
-661.4652295960736
 21
191.2587766371689
 31
0.0
  0
LINE
  5
11FA
330
2
100
AcDbEntity
  8
画層1
370
    20
100
AcDbLine
 10
-665.9652295960735
 20
193.758776737169
 30
0.0
 11
-668.4232694876233
 21
193.758776737169
 31
0.0
  0
LINE
  5
11FB
330
2
100
AcDbEntity
  8
画層1
370
    20
100
AcDbLine
 10
-667.4652295960735
 20
189.258776737169
 30
0.0
 11
-663.4652295960735
 21
189.258776737169
 31
0.0
  0
LINE
  5
11FC
330
2
100
AcDbEntity
  8
画層1
370
    20
100
AcDbLine
 10
-668.4232694876233
 20
192.758776737169
 30
0.0
 11
-665.9652295960735
 21
192.758776737169
 31
0.0
  0
ARC
  5
11FD
330
2
100
AcDbEntity
  8
画層1
370
    20
100
AcDbCircle
 10
-667.4652295960734
 20
191.2587767371688
 30
0.0
 40
2.0
100
AcDbArc
 50
179.9999999999951
 51
269.9999999999967
  0
LINE
  5
11FE
330
2
100
AcDbEntity
  8
画層1
370
    20
100
AcDbLine
 10
-662.5071897045237
 20
193.758776737169
 30
0.0
 11
-664.9652295960735
 21
193.758776737169
 31
0.0
  0
LINE
  5
11FF
330
2
100
AcDbEntity
  8
画層1
370
    20
100
AcDbLine
 10
-665.9652295960735
 20
192.758776737169
 30
0.0
 11
-665.9652295960735
 21
191.258776737169
 31
0.0
  0
LINE
  5
1200
330
2
100
AcDbEntity
  8
画層1
370
    20
100
AcDbLine
 10
-664.9652295960735
 20
191.258776737169
 30
0.0
 11
-664.9652295960735
 21
192.758776737169
 31
0.0
  0
LINE
  5
1201
330
2
100
AcDbEntity
  8
画層1
370
    20
100
AcDbLine
 10
-665.9652295960735
 20
191.258776737169
 30
0.0
 11
-664.9652295960735
 21
191.258776737169
 31
0.0
  0
ARC
  5
1202
330
2
100
AcDbEntity
  8
画層1
370
    20
100
AcDbCircle
 10
-663.4652295960736
 20
191.2587767371689
 30
0.0
 40
2.0
100
AcDbArc
 50
270.0000000000032
 51
0.0000000000016284
  0
LINE
  5
1203
330
2
100
AcDbEntity
  8
画層1
370
    20
100
AcDbLine
 10
-664.9652295960735
 20
192.758776737169
 30
0.0
 11
-662.5071897045237
 21
192.758776737169
 31
0.0
  0
LINE
  5
1204
330
2
100
AcDbEntity
  8
画層1
370
    20
100
AcDbLine
 10
-667.4652295960735
 20
197.258776737169
 30
0.0
 11
-663.4652295960735
 21
197.258776737169
 31
0.0
  0
ARC
  5
1205
330
2
100
AcDbEntity
  8
画層1
370
    20
100
AcDbCircle
 10
-667.4652295960736
 20
195.258776737169
 30
0.0
 40
2.0
100
AcDbArc
 50
89.99999999999674
 51
180.0000000000016
  0
LINE
  5
1206
330
2
100
AcDbEntity
  8
画層1
370
    20
100
AcDbLine
 10
-664.9652295960735
 20
195.258776737169
 30
0.0
 11
-665.9652295960735
 21
195.258776737169
 31
0.0
  0
ARC
  5
1207
330
2
100
AcDbEntity
  8
画層1
370
    20
100
AcDbCircle
 10
-663.4652295960734
 20
195.2587767371691
 30
0.0
 40
2.0
100
AcDbArc
 50
359.9999999999967
 51
90.00000000000325
  0
LINE
  5
1208
330
2
100
AcDbEntity
  8
画層1
370
    20
100
AcDbLine
 10
-661.4652295960735
 20
185.2587767371691
 30
0.0
 11
-661.4652295960736
 21
181.2587766371689
 31
0.0
  0
LINE
  5
1209
330
2
100
AcDbEntity
  8
画層1
370
    20
100
AcDbLine
 10
-669.4652295960735
 20
185.258776737169
 30
0.0
 11
-669.4652295960734
 21
181.2587766371689
 31
0.0
  0
CIRCLE
  5
120A
330
2
100
AcDbEntity
  8
画層1
370
    20
100
AcDbCircle
 10
-665.4652295960735
 20
183.2587767371689
 30
0.0
 40
3.0
  0
LINE
  5
120B
330
2
100
AcDbEntity
  8
画層1
370
    20
100
AcDbLine
 10
-664.9652295960735
 20
183.758776737169
 30
0.0
 11
-664.9652295960735
 21
185.2587767371689
 31
0.0
  0
LINE
  5
120C
330
2
100
AcDbEntity
  8
画層1
370
    20
100
AcDbLine
 10
-665.9652295960735
 20
185.2587767371689
 30
0.0
 11
-665.9652295960735
 21
183.758776737169
 31
0.0
  0
LINE
  5
120D
330
2
100
AcDbEntity
  8
画層1
370
    20
100
AcDbLine
 10
-668.4232694876233
 20
182.758776737169
 30
0.0
 11
-665.9652295960735
 21
182.758776737169
 31
0.0
  0
LINE
  5
120E
330
2
100
AcDbEntity
  8
画層1
370
    20
100
AcDbLine
 10
-667.4652295960735
 20
179.258776737169
 30
0.0
 11
-663.4652295960735
 21
179.258776737169
 31
0.0
  0
LINE
  5
120F
330
2
100
AcDbEntity
  8
画層1
370
    20
100
AcDbLine
 10
-665.9652295960735
 20
183.758776737169
 30
0.0
 11
-668.4232694876233
 21
183.758776737169
 31
0.0
  0
ARC
  5
1210
330
2
100
AcDbEntity
  8
画層1
370
    20
100
AcDbCircle
 10
-667.4652295960734
 20
181.2587767371688
 30
0.0
 40
2.0
100
AcDbArc
 50
179.9999999999951
 51
269.9999999999967
  0
LINE
  5
1211
330
2
100
AcDbEntity
  8
画層1
370
    20
100
AcDbLine
 10
-664.9652295960735
 20
182.758776737169
 30
0.0
 11
-662.5071897045237
 21
182.758776737169
 31
0.0
  0
ARC
  5
1212
330
2
100
AcDbEntity
  8
画層1
370
    20
100
AcDbCircle
 10
-663.4652295960736
 20
181.2587767371689
 30
0.0
 40
2.0
100
AcDbArc
 50
270.0000000000032
 51
0.0000000000016284
  0
LINE
  5
1213
330
2
100
AcDbEntity
  8
画層1
370
    20
100
AcDbLine
 10
-665.9652295960735
 20
181.258776737169
 30
0.0
 11
-664.9652295960735
 21
181.258776737169
 31
0.0
  0
LINE
  5
1214
330
2
100
AcDbEntity
  8
画層1
370
    20
100
AcDbLine
 10
-664.9652295960735
 20
181.258776737169
 30
0.0
 11
-664.9652295960735
 21
182.758776737169
 31
0.0
  0
LINE
  5
1215
330
2
100
AcDbEntity
  8
画層1
370
    20
100
AcDbLine
 10
-665.9652295960735
 20
182.758776737169
 30
0.0
 11
-665.9652295960735
 21
181.258776737169
 31
0.0
  0
LINE
  5
1216
330
2
100
AcDbEntity
  8
画層1
370
    20
100
AcDbLine
 10
-662.5071897045237
 20
183.758776737169
 30
0.0
 11
-664.9652295960735
 21
183.758776737169
 31
0.0
  0
LINE
  5
1217
330
2
100
AcDbEntity
  8
画層1
370
    20
100
AcDbLine
 10
-667.4652295960735
 20
187.2587767371689
 30
0.0
 11
-663.4652295960735
 21
187.2587767371689
 31
0.0
  0
ARC
  5
1218
330
2
100
AcDbEntity
  8
画層1
370
    20
100
AcDbCircle
 10
-667.4652295960736
 20
185.258776737169
 30
0.0
 40
2.0
100
AcDbArc
 50
89.99999999999674
 51
180.0000000000016
  0
ARC
  5
1219
330
2
100
AcDbEntity
  8
画層1
370
    20
100
AcDbCircle
 10
-663.4652295960734
 20
185.2587767371691
 30
0.0
 40
2.0
100
AcDbArc
 50
359.9999999999967
 51
90.00000000000325
  0
LINE
  5
121A
330
2
100
AcDbEntity
  8
画層1
370
    20
100
AcDbLine
 10
-664.9652295960735
 20
185.2587767371689
 30
0.0
 11
-665.9652295960735
 21
185.2587767371689
 31
0.0
  0
ARC
  5
121B
330
2
100
AcDbEntity
  8
画層1
370
    20
100
AcDbCircle
 10
-663.4652295960734
 20
175.2587767371691
 30
0.0
 40
2.0
100
AcDbArc
 50
359.9999999999967
 51
90.00000000000325
  0
ARC
  5
121C
330
2
100
AcDbEntity
  8
画層1
370
    20
100
AcDbCircle
 10
-667.4652295960736
 20
175.258776737169
 30
0.0
 40
2.0
100
AcDbArc
 50
89.99999999999674
 51
180.0000000000016
  0
CIRCLE
  5
121D
330
2
100
AcDbEntity
  8
画層1
370
    20
100
AcDbCircle
 10
-665.4652295960735
 20
173.258776737169
 30
0.0
 40
3.0
  0
LINE
  5
121E
330
2
100
AcDbEntity
  8
画層1
370
    20
100
AcDbLine
 10
-665.9652295960735
 20
173.758776737169
 30
0.0
 11
-668.4232694876233
 21
173.758776737169
 31
0.0
  0
LINE
  5
121F
330
2
100
AcDbEntity
  8
画層1
370
    20
100
AcDbLine
 10
-667.4652295960735
 20
169.258776737169
 30
0.0
 11
-663.4652295960735
 21
169.258776737169
 31
0.0
  0
LINE
  5
1220
330
2
100
AcDbEntity
  8
画層1
370
    20
100
AcDbLine
 10
-668.4232694876233
 20
172.7587767371689
 30
0.0
 11
-665.9652295960735
 21
172.7587767371689
 31
0.0
  0
ARC
  5
1221
330
2
100
AcDbEntity
  8
画層1
370
    20
100
AcDbCircle
 10
-667.4652295960734
 20
171.2587767371688
 30
0.0
 40
2.0
100
AcDbArc
 50
179.9999999999951
 51
269.9999999999967
  0
LINE
  5
1222
330
2
100
AcDbEntity
  8
画層1
370
    20
100
AcDbLine
 10
-669.4652295960735
 20
175.258776737169
 30
0.0
 11
-669.4652295960734
 21
171.2587766371689
 31
0.0
  0
LINE
  5
1223
330
2
100
AcDbEntity
  8
画層1
370
    20
100
AcDbLine
 10
-664.9652295960735
 20
175.258776737169
 30
0.0
 11
-665.9652295960735
 21
175.258776737169
 31
0.0
  0
LINE
  5
1224
330
2
100
AcDbEntity
  8
画層1
370
    20
100
AcDbLine
 10
-662.5071897045237
 20
173.758776737169
 30
0.0
 11
-664.9652295960735
 21
173.758776737169
 31
0.0
  0
LINE
  5
1225
330
2
100
AcDbEntity
  8
画層1
370
    20
100
AcDbLine
 10
-665.9652295960735
 20
172.7587767371689
 30
0.0
 11
-665.9652295960735
 21
171.258776737169
 31
0.0
  0
LINE
  5
1226
330
2
100
AcDbEntity
  8
画層1
370
    20
100
AcDbLine
 10
-664.9652295960735
 20
171.258776737169
 30
0.0
 11
-664.9652295960735
 21
172.7587767371689
 31
0.0
  0
LINE
  5
1227
330
2
100
AcDbEntity
  8
画層1
370
    20
100
AcDbLine
 10
-665.9652295960735
 20
171.258776737169
 30
0.0
 11
-664.9652295960735
 21
171.258776737169
 31
0.0
  0
ARC
  5
1228
330
2
100
AcDbEntity
  8
画層1
370
    20
100
AcDbCircle
 10
-663.4652295960736
 20
171.2587767371689
 30
0.0
 40
2.0
100
AcDbArc
 50
270.0000000000032
 51
0.0000000000016284
  0
LINE
  5
1229
330
2
100
AcDbEntity
  8
画層1
370
    20
100
AcDbLine
 10
-664.9652295960735
 20
172.7587767371689
 30
0.0
 11
-662.5071897045237
 21
172.7587767371689
 31
0.0
  0
LINE
  5
122A
330
2
100
AcDbEntity
  8
画層1
370
    20
100
AcDbLine
 10
-665.9652295960735
 20
175.258776737169
 30
0.0
 11
-665.9652295960735
 21
173.758776737169
 31
0.0
  0
LINE
  5
122B
330
2
100
AcDbEntity
  8
画層1
370
    20
100
AcDbLine
 10
-664.9652295960735
 20
173.758776737169
 30
0.0
 11
-664.9652295960735
 21
175.258776737169
 31
0.0
  0
LINE
  5
122C
330
2
100
AcDbEntity
  8
画層1
370
    20
100
AcDbLine
 10
-661.4652295960735
 20
175.2587767371691
 30
0.0
 11
-661.4652295960736
 21
171.2587766371689
 31
0.0
  0
LINE
  5
122D
330
2
100
AcDbEntity
  8
画層1
370
    20
100
AcDbLine
 10
-667.4652295960735
 20
177.258776737169
 30
0.0
 11
-663.4652295960735
 21
177.258776737169
 31
0.0
  0
ARC
  5
122E
330
2
100
AcDbEntity
  8
画層1
370
    20
100
AcDbCircle
 10
-667.4652295960736
 20
165.258776737169
 30
0.0
 40
2.0
100
AcDbArc
 50
89.99999999999674
 51
180.0000000000016
  0
ARC
  5
122F
330
2
100
AcDbEntity
  8
画層1
370
    20
100
AcDbCircle
 10
-663.4652295960734
 20
165.2587767371691
 30
0.0
 40
2.0
100
AcDbArc
 50
359.9999999999967
 51
90.00000000000325
  0
LINE
  5
1230
330
2
100
AcDbEntity
  8
画層1
370
    20
100
AcDbLine
 10
-668.4232694876233
 20
162.758776737169
 30
0.0
 11
-665.9652295960735
 21
162.758776737169
 31
0.0
  0
LINE
  5
1231
330
2
100
AcDbEntity
  8
画層1
370
    20
100
AcDbLine
 10
-667.4652295960735
 20
159.2587767371689
 30
0.0
 11
-663.4652295960735
 21
159.2587767371689
 31
0.0
  0
LINE
  5
1232
330
2
100
AcDbEntity
  8
画層1
370
    20
100
AcDbLine
 10
-665.9652295960735
 20
163.758776737169
 30
0.0
 11
-668.4232694876233
 21
163.758776737169
 31
0.0
  0
CIRCLE
  5
1233
330
2
100
AcDbEntity
  8
画層1
370
    20
100
AcDbCircle
 10
-665.4652295960735
 20
163.2587767371689
 30
0.0
 40
3.0
  0
LINE
  5
1234
330
2
100
AcDbEntity
  8
画層1
370
    20
100
AcDbLine
 10
-669.4652295960735
 20
165.258776737169
 30
0.0
 11
-669.4652295960734
 21
161.2587766371689
 31
0.0
  0
ARC
  5
1235
330
2
100
AcDbEntity
  8
画層1
370
    20
100
AcDbCircle
 10
-667.4652295960734
 20
161.2587767371688
 30
0.0
 40
2.0
100
AcDbArc
 50
179.9999999999951
 51
269.9999999999967
  0
LINE
  5
1236
330
2
100
AcDbEntity
  8
画層1
370
    20
100
AcDbLine
 10
-661.4652295960735
 20
165.2587767371691
 30
0.0
 11
-661.4652295960736
 21
161.2587766371689
 31
0.0
  0
LINE
  5
1237
330
2
100
AcDbEntity
  8
画層1
370
    20
100
AcDbLine
 10
-664.9652295960735
 20
163.758776737169
 30
0.0
 11
-664.9652295960735
 21
165.258776737169
 31
0.0
  0
LINE
  5
1238
330
2
100
AcDbEntity
  8
画層1
370
    20
100
AcDbLine
 10
-665.9652295960735
 20
165.258776737169
 30
0.0
 11
-665.9652295960735
 21
163.758776737169
 31
0.0
  0
LINE
  5
1239
330
2
100
AcDbEntity
  8
画層1
370
    20
100
AcDbLine
 10
-664.9652295960735
 20
162.758776737169
 30
0.0
 11
-662.5071897045237
 21
162.758776737169
 31
0.0
  0
ARC
  5
123A
330
2
100
AcDbEntity
  8
画層1
370
    20
100
AcDbCircle
 10
-663.4652295960736
 20
161.2587767371689
 30
0.0
 40
2.0
100
AcDbArc
 50
270.0000000000032
 51
0.0000000000016284
  0
LINE
  5
123B
330
2
100
AcDbEntity
  8
画層1
370
    20
100
AcDbLine
 10
-665.9652295960735
 20
161.258776737169
 30
0.0
 11
-664.9652295960735
 21
161.258776737169
 31
0.0
  0
LINE
  5
123C
330
2
100
AcDbEntity
  8
画層1
370
    20
100
AcDbLine
 10
-664.9652295960735
 20
161.258776737169
 30
0.0
 11
-664.9652295960735
 21
162.758776737169
 31
0.0
  0
LINE
  5
123D
330
2
100
AcDbEntity
  8
画層1
370
    20
100
AcDbLine
 10
-665.9652295960735
 20
162.758776737169
 30
0.0
 11
-665.9652295960735
 21
161.258776737169
 31
0.0
  0
LINE
  5
123E
330
2
100
AcDbEntity
  8
画層1
370
    20
100
AcDbLine
 10
-662.5071897045237
 20
163.758776737169
 30
0.0
 11
-664.9652295960735
 21
163.758776737169
 31
0.0
  0
LINE
  5
123F
330
2
100
AcDbEntity
  8
画層1
370
    20
100
AcDbLine
 10
-664.9652295960735
 20
165.258776737169
 30
0.0
 11
-665.9652295960735
 21
165.258776737169
 31
0.0
  0
LINE
  5
1240
330
2
100
AcDbEntity
  8
画層1
370
    20
100
AcDbLine
 10
-667.4652295960735
 20
167.2587767371689
 30
0.0
 11
-663.4652295960735
 21
167.2587767371689
 31
0.0
  0
ARC
  5
1241
330
2
100
AcDbEntity
  8
画層1
370
    20
100
AcDbCircle
 10
-663.4652295960734
 20
155.2587767371691
 30
0.0
 40
2.0
100
AcDbArc
 50
359.9999999999967
 51
90.00000000000325
  0
ARC
  5
1242
330
2
100
AcDbEntity
  8
画層1
370
    20
100
AcDbCircle
 10
-667.4652295960736
 20
155.258776737169
 30
0.0
 40
2.0
100
AcDbArc
 50
89.99999999999674
 51
180.0000000000016
  0
LINE
  5
1243
330
2
100
AcDbEntity
  8
画層1
370
    20
100
AcDbLine
 10
-667.4652295960735
 20
157.258776737169
 30
0.0
 11
-663.4652295960735
 21
157.258776737169
 31
0.0
  0
CIRCLE
  5
1244
330
2
100
AcDbEntity
  8
画層1
370
    20
100
AcDbCircle
 10
-665.4652295960735
 20
153.258776737169
 30
0.0
 40
3.0
  0
LINE
  5
1245
330
2
100
AcDbEntity
  8
画層1
370
    20
100
AcDbLine
 10
-665.9652295960735
 20
153.758776737169
 30
0.0
 11
-668.4232694876233
 21
153.758776737169
 31
0.0
  0
LINE
  5
1246
330
2
100
AcDbEntity
  8
画層1
370
    20
100
AcDbLine
 10
-667.4652295960735
 20
149.258776737169
 30
0.0
 11
-663.4652295960735
 21
149.258776737169
 31
0.0
  0
LINE
  5
1247
330
2
100
AcDbEntity
  8
画層1
370
    20
100
AcDbLine
 10
-668.4232694876233
 20
152.758776737169
 30
0.0
 11
-665.9652295960735
 21
152.758776737169
 31
0.0
  0
ARC
  5
1248
330
2
100
AcDbEntity
  8
画層1
370
    20
100
AcDbCircle
 10
-667.4652295960734
 20
151.2587767371688
 30
0.0
 40
2.0
100
AcDbArc
 50
179.9999999999951
 51
269.9999999999967
  0
LINE
  5
1249
330
2
100
AcDbEntity
  8
画層1
370
    20
100
AcDbLine
 10
-669.4652295960735
 20
155.258776737169
 30
0.0
 11
-669.4652295960734
 21
151.2587766371689
 31
0.0
  0
LINE
  5
124A
330
2
100
AcDbEntity
  8
画層1
370
    20
100
AcDbLine
 10
-664.9652295960735
 20
155.258776737169
 30
0.0
 11
-665.9652295960735
 21
155.258776737169
 31
0.0
  0
LINE
  5
124B
330
2
100
AcDbEntity
  8
画層1
370
    20
100
AcDbLine
 10
-662.5071897045237
 20
153.758776737169
 30
0.0
 11
-664.9652295960735
 21
153.758776737169
 31
0.0
  0
LINE
  5
124C
330
2
100
AcDbEntity
  8
画層1
370
    20
100
AcDbLine
 10
-665.9652295960735
 20
152.758776737169
 30
0.0
 11
-665.9652295960735
 21
151.258776737169
 31
0.0
  0
LINE
  5
124D
330
2
100
AcDbEntity
  8
画層1
370
    20
100
AcDbLine
 10
-664.9652295960735
 20
151.258776737169
 30
0.0
 11
-664.9652295960735
 21
152.758776737169
 31
0.0
  0
LINE
  5
124E
330
2
100
AcDbEntity
  8
画層1
370
    20
100
AcDbLine
 10
-665.9652295960735
 20
151.258776737169
 30
0.0
 11
-664.9652295960735
 21
151.258776737169
 31
0.0
  0
ARC
  5
124F
330
2
100
AcDbEntity
  8
画層1
370
    20
100
AcDbCircle
 10
-663.4652295960736
 20
151.2587767371689
 30
0.0
 40
2.0
100
AcDbArc
 50
270.0000000000032
 51
0.0000000000016284
  0
LINE
  5
1250
330
2
100
AcDbEntity
  8
画層1
370
    20
100
AcDbLine
 10
-664.9652295960735
 20
152.758776737169
 30
0.0
 11
-662.5071897045237
 21
152.758776737169
 31
0.0
  0
LINE
  5
1251
330
2
100
AcDbEntity
  8
画層1
370
    20
100
AcDbLine
 10
-665.9652295960735
 20
155.258776737169
 30
0.0
 11
-665.9652295960735
 21
153.758776737169
 31
0.0
  0
LINE
  5
1252
330
2
100
AcDbEntity
  8
画層1
370
    20
100
AcDbLine
 10
-664.9652295960735
 20
153.758776737169
 30
0.0
 11
-664.9652295960735
 21
155.258776737169
 31
0.0
  0
LINE
  5
1253
330
2
100
AcDbEntity
  8
画層1
370
    20
100
AcDbLine
 10
-661.4652295960735
 20
155.2587767371691
 30
0.0
 11
-661.4652295960736
 21
151.2587766371689
 31
0.0
  0
CIRCLE
  5
1256
330
2
100
AcDbEntity
  8
画層1
370
    20
100
AcDbCircle
 10
-666.9652295960735
 20
241.008776737169
 30
0.0
 40
2.75
  0
CIRCLE
  5
1258
330
2
100
AcDbEntity
  8
画層1
370
    20
100
AcDbCircle
 10
-666.9652295960735
 20
241.008776737169
 30
0.0
 40
1.0
  0
LINE
  5
1259
330
2
100
AcDbEntity
  8
画層1
370
    20
100
AcDbLine
 10
-667.5401891706496
 20
240.1905949189871
 30
0.0
 11
-667.5401891706496
 21
240.1905949189871
 31
0.0
  0
LINE
  5
125A
330
2
100
AcDbEntity
  8
画層1
370
    20
100
AcDbLine
 10
-667.5401891706496
 20
240.1905949189871
 30
0.0
 11
-667.5401891706496
 21
240.1905949189871
 31
0.0
  0
LINE
  5
125B
330
2
100
AcDbEntity
  8
画層1
370
    20
100
AcDbLine
 10
-667.5401891706496
 20
240.1905949189871
 30
0.0
 11
-667.5401891706496
 21
240.1905949189871
 31
0.0
  0
LINE
  5
125D
330
2
100
AcDbEntity
  8
画層1
370
    20
100
AcDbLine
 10
-667.5401891706496
 20
240.1905949189871
 30
0.0
 11
-668.2588886388697
 21
239.1678676462599
 31
0.0
  0
LINE
  5
125E
330
2
100
AcDbEntity
  8
画層1
370
    20
100
AcDbLine
 10
-666.3902700214975
 20
240.1905949189871
 30
0.0
 11
-665.6715705532773
 21
239.1678676462599
 31
0.0
  0
ARC
  5
125F
330
2
100
AcDbEntity
  8
画層1
370
    20
100
AcDbCircle
 10
-666.9652295960735
 20
241.008776737169
 30
0.0
 40
2.250000000000008
100
AcDbArc
 50
305.096801227586
 51
234.9031987724139
  0
LINE
  5
1262
330
2
100
AcDbEntity
  8
画層1
370
    20
100
AcDbLine
 10
-666.3902700214975
 20
258.1905949189871
 30
0.0
 11
-665.6715705532773
 21
257.1678676462599
 31
0.0
  0
LINE
  5
1263
330
2
100
AcDbEntity
  8
画層1
370
    20
100
AcDbLine
 10
-667.5401891706496
 20
258.1905949189871
 30
0.0
 11
-668.2588886388697
 21
257.1678676462599
 31
0.0
  0
ARC
  5
1264
330
2
100
AcDbEntity
  8
画層1
370
    20
100
AcDbCircle
 10
-666.9652295960735
 20
259.008776737169
 30
0.0
 40
2.250000000000008
100
AcDbArc
 50
305.096801227586
 51
234.9031987724139
  0
CIRCLE
  5
1265
330
2
100
AcDbEntity
  8
画層1
370
    20
100
AcDbCircle
 10
-666.9652295960735
 20
259.008776737169
 30
0.0
 40
2.75
  0
LINE
  5
1266
330
2
100
AcDbEntity
  8
画層1
370
    20
100
AcDbLine
 10
-667.5401891706496
 20
258.1905949189871
 30
0.0
 11
-667.5401891706496
 21
258.1905949189871
 31
0.0
  0
LINE
  5
1267
330
2
100
AcDbEntity
  8
画層1
370
    20
100
AcDbLine
 10
-667.5401891706496
 20
258.1905949189871
 30
0.0
 11
-667.5401891706496
 21
258.1905949189871
 31
0.0
  0
LINE
  5
1268
330
2
100
AcDbEntity
  8
画層1
370
    20
100
AcDbLine
 10
-667.5401891706496
 20
258.1905949189871
 30
0.0
 11
-667.5401891706496
 21
258.1905949189871
 31
0.0
  0
CIRCLE
  5
1269
330
2
100
AcDbEntity
  8
画層1
370
    20
100
AcDbCircle
 10
-666.9652295960735
 20
259.008776737169
 30
0.0
 40
1.0
  0
LINE
  5
126B
330
2
100
AcDbEntity
  8
画層1
370
    20
100
AcDbLine
 10
-666.0013565359296
 20
240.7424147204908
 30
0.0
 11
-664.7965152107498
 21
240.409462199643
 31
0.0
  0
LINE
  5
126C
330
2
100
AcDbEntity
  8
画層1
370
    20
100
AcDbLine
 10
-666.0013565359296
 20
258.7424147204907
 30
0.0
 11
-664.7965152107498
 21
258.409462199643
 31
0.0
  0
CIRCLE
  5
1272
330
2
100
AcDbEntity
  8
画層1
370
    20
100
AcDbCircle
 10
-662.4652295960735
 20
269.258776737169
 30
0.0
 40
1.5
  0
LINE
  5
1275
330
2
100
AcDbEntity
  8
画層1
370
    20
100
AcDbLine
 10
-671.9652295960734
 20
227.2587767371689
 30
0.0
 11
-671.9652295960734
 21
219.258776737169
 31
0.0
  0
LINE
  5
1278
330
2
100
AcDbEntity
  8
画層1
370
    20
100
AcDbLine
 10
-659.9652295960735
 20
227.2587767371689
 30
0.0
 11
-659.9652295960735
 21
219.258776737169
 31
0.0
  0
LINE
  5
1279
330
2
100
AcDbEntity
  8
画層1
370
    20
100
AcDbLine
 10
-670.9652295960735
 20
227.2587767371689
 30
0.0
 11
-670.9652295960735
 21
219.258776737169
 31
0.0
  0
LINE
  5
127A
330
2
100
AcDbEntity
  8
画層1
370
    20
100
AcDbLine
 10
-670.9652295960735
 20
217.258776737169
 30
0.0
 11
-670.9652295960735
 21
209.258776737169
 31
0.0
  0
LINE
  5
127B
330
2
100
AcDbEntity
  8
画層1
370
    20
100
AcDbLine
 10
-659.9652295960735
 20
217.258776737169
 30
0.0
 11
-659.9652295960735
 21
209.258776737169
 31
0.0
  0
LINE
  5
127C
330
2
100
AcDbEntity
  8
画層1
370
    20
100
AcDbLine
 10
-659.9652295960735
 20
207.258776737169
 30
0.0
 11
-659.9652295960735
 21
199.258776737169
 31
0.0
  0
LINE
  5
127D
330
2
100
AcDbEntity
  8
画層1
370
    20
100
AcDbLine
 10
-670.9652295960735
 20
207.258776737169
 30
0.0
 11
-670.9652295960735
 21
199.258776737169
 31
0.0
  0
LINE
  5
127E
330
2
100
AcDbEntity
  8
画層1
370
    20
100
AcDbLine
 10
-659.9652295960735
 20
197.258776737169
 30
0.0
 11
-659.9652295960735
 21
189.258776737169
 31
0.0
  0
LINE
  5
127F
330
2
100
AcDbEntity
  8
画層1
370
    20
100
AcDbLine
 10
-670.9652295960735
 20
197.258776737169
 30
0.0
 11
-670.9652295960735
 21
189.258776737169
 31
0.0
  0
LINE
  5
1280
330
2
100
AcDbEntity
  8
画層1
370
    20
100
AcDbLine
 10
-659.9652295960735
 20
187.2587767371689
 30
0.0
 11
-659.9652295960735
 21
179.258776737169
 31
0.0
  0
LINE
  5
1281
330
2
100
AcDbEntity
  8
画層1
370
    20
100
AcDbLine
 10
-670.9652295960735
 20
187.2587767371689
 30
0.0
 11
-670.9652295960735
 21
179.258776737169
 31
0.0
  0
LINE
  5
1282
330
2
100
AcDbEntity
  8
画層1
370
    20
100
AcDbLine
 10
-659.9652295960735
 20
177.258776737169
 30
0.0
 11
-659.9652295960735
 21
169.258776737169
 31
0.0
  0
LINE
  5
1283
330
2
100
AcDbEntity
  8
画層1
370
    20
100
AcDbLine
 10
-670.9652295960735
 20
177.258776737169
 30
0.0
 11
-670.9652295960735
 21
169.258776737169
 31
0.0
  0
LINE
  5
1284
330
2
100
AcDbEntity
  8
画層1
370
    20
100
AcDbLine
 10
-659.9652295960735
 20
167.2587767371689
 30
0.0
 11
-659.9652295960735
 21
159.2587767371689
 31
0.0
  0
LINE
  5
1285
330
2
100
AcDbEntity
  8
画層1
370
    20
100
AcDbLine
 10
-670.9652295960735
 20
167.2587767371689
 30
0.0
 11
-670.9652295960735
 21
159.2587767371689
 31
0.0
  0
LINE
  5
1286
330
2
100
AcDbEntity
  8
画層1
370
    20
100
AcDbLine
 10
-659.9652295960735
 20
157.258776737169
 30
0.0
 11
-659.9652295960735
 21
149.258776737169
 31
0.0
  0
LINE
  5
1287
330
2
100
AcDbEntity
  8
画層1
370
    20
100
AcDbLine
 10
-670.9652295960735
 20
157.258776737169
 30
0.0
 11
-670.9652295960735
 21
149.258776737169
 31
0.0
  0
LINE
  5
1365
330
2
100
AcDbEntity
  8
画層1
370
    20
100
AcDbLine
 10
-347.0904011789971
 20
407.958776737169
 30
0.0
 11
-93.09040117899707
 21
407.958776737169
 31
0.0
  0
LINE
  5
1366
330
2
100
AcDbEntity
  8
画層1
370
    20
100
AcDbLine
 10
-93.09040117899707
 20
407.958776737169
 30
0.0
 11
-93.09040117899707
 21
79.95877673716899
 31
0.0
  0
LINE
  5
1367
330
2
100
AcDbEntity
  8
画層1
370
    20
100
AcDbLine
 10
-93.09040117899707
 20
79.95877673716899
 30
0.0
 11
-347.0904011789971
 21
79.95877673716899
 31
0.0
  0
LINE
  5
1A1E
330
2
100
AcDbEntity
  8
画層1
 62
     0
370
    20
100
AcDbLine
 10
-347.0904011789971
 20
79.95877673716899
 30
0.0
 11
-347.0904011789971
 21
407.958776737169
 31
0.0
  0
TEXT
  5
1AF9
330
2
100
AcDbEntity
  8
画層1
 62
     0
370
    20
100
AcDbText
 10
-488.4837263916097
 20
20.06959330175158
 30
0.0
 40
10.0
  1
PAC30Z 60A,90A,135A
  7
STYLE1
100
AcDbText
  0
LINE
  5
1C37
330
2
100
AcDbEntity
  8
画層1
 62
     0
370
    20
100
AcDbLine
 10
-685.5652295960735
 20
408.9587767371689
 30
0.0
 11
-465.5652295960735
 21
408.9587767371689
 31
0.0
  0
LINE
  5
1C38
330
2
100
AcDbEntity
  8
画層1
 62
     0
370
    20
100
AcDbLine
 10
-465.5652295960735
 20
408.9587767371689
 30
0.0
 11
-465.5652295960735
 21
78.95877673716899
 31
0.0
  0
LINE
  5
1C39
330
2
100
AcDbEntity
  8
画層1
 62
     0
370
    20
100
AcDbLine
 10
-465.5652295960735
 20
78.95877673716899
 30
0.0
 11
-685.5652295960735
 21
78.95877673716899
 31
0.0
  0
LINE
  5
1C3A
330
2
100
AcDbEntity
  8
画層1
 62
     0
370
    20
100
AcDbLine
 10
-685.5652295960735
 20
280.9587767371689
 30
0.0
 11
-685.5652295960735
 21
408.9587767371689
 31
0.0
  0
LINE
  5
1C3E
330
2
100
AcDbEntity
  8
画層1
 62
     0
370
    20
100
AcDbLine
 10
-683.5652295960736
 20
139.2587767371689
 30
0.0
 11
-647.5652295960735
 21
139.2587767371689
 31
0.0
  0
LINE
  5
1C40
330
2
100
AcDbEntity
  8
画層1
 62
     0
370
    20
100
AcDbLine
 10
-683.5652295960735
 20
279.2587767371689
 30
0.0
 11
-647.5652295960735
 21
279.2587767371689
 31
0.0
  0
LINE
  5
1C42
330
2
100
AcDbEntity
  8
画層1
 62
     0
370
    20
100
AcDbLine
 10
-685.5652295960736
 20
137.2587767371689
 30
0.0
 11
-685.5652295960735
 21
78.95877673716899
 31
0.0
  0
ARC
  5
1C49
330
2
100
AcDbEntity
  8
画層1
 62
     0
370
    20
100
AcDbCircle
 10
-683.5652295960735
 20
281.258776737169
 30
0.0
 40
2.0
100
AcDbArc
 50
180.0
 51
270.0
  0
ARC
  5
1C4A
330
2
100
AcDbEntity
  8
画層1
 62
     0
370
    20
100
AcDbCircle
 10
-683.5652295960736
 20
137.2587767371689
 30
0.0
 40
2.0
100
AcDbArc
 50
90.0
 51
180.0
  0
LINE
  5
1C4F
330
2
100
AcDbEntity
  8
画層1
 62
     0
370
    20
100
AcDbLine
 10
-647.5652295960735
 20
151.258776737169
 30
0.0
 11
-647.5652295960735
 21
139.2587767371689
 31
0.0
  0
LINE
  5
1C53
330
2
100
AcDbEntity
  8
画層1
 62
     0
370
    20
100
AcDbLine
 10
-673.9652295960735
 20
139.2587767371689
 30
0.0
 11
-673.9652295960735
 21
278.958776737169
 31
0.0
  0
LINE
  5
1C54
330
2
100
AcDbEntity
  8
画層1
 62
     0
370
    20
100
AcDbLine
 10
-675.5652295960735
 20
139.2587767371689
 30
0.0
 11
-675.5652295960735
 21
278.958776737169
 31
0.0
  0
CIRCLE
  5
1C5A
330
2
100
AcDbEntity
  8
画層1
  6
DASHED2
 62
     0
370
    20
100
AcDbCircle
 10
-505.5652295960735
 20
88.95877673716899
 30
0.0
 40
4.5
  0
CIRCLE
  5
1C5C
330
2
100
AcDbEntity
  8
画層1
  6
DASHED2
 62
     0
370
    20
100
AcDbCircle
 10
-645.5652295960735
 20
88.95877673716899
 30
0.0
 40
4.5
  0
CIRCLE
  5
1C5F
330
2
100
AcDbEntity
  8
画層1
 62
     0
370
    20
100
AcDbCircle
 10
-680.5652295960735
 20
123.9587767371689
 30
0.0
 40
4.0
  0
CIRCLE
  5
1C60
330
2
100
AcDbEntity
  8
画層1
 62
     0
370
    20
100
AcDbCircle
 10
-470.5652295960735
 20
123.9587767371689
 30
0.0
 40
4.0
  0
CIRCLE
  5
1C61
330
2
100
AcDbEntity
  8
画層1
 62
     0
370
    20
100
AcDbCircle
 10
-680.5652295960735
 20
363.9587767371689
 30
0.0
 40
4.0
  0
CIRCLE
  5
1C62
330
2
100
AcDbEntity
  8
画層1
 62
     0
370
    20
100
AcDbCircle
 10
-470.5652295960735
 20
363.9587767371689
 30
0.0
 40
4.0
  0
LINE
  5
1C6B
330
2
100
AcDbEntity
  8
画層1
  6
DASHED2
 62
     0
370
    20
100
AcDbLine
 10
-650.0652295960735
 20
398.9587767371689
 30
0.0
 11
-650.0652295960735
 21
392.8890622869148
 31
0.0
  0
ARC
  5
1C72
330
2
100
AcDbEntity
  8
画層1
  6
DASHED2
 62
     0
370
    20
100
AcDbCircle
 10
-645.5652295960735
 20
383.9587767371689
 30
0.0
 40
9.999999999999985
100
AcDbArc
 50
116.743683950403
 51
63.25631604959696
  0
LINE
  5
1C73
330
2
100
AcDbEntity
  8
画層1
  6
DASHED2
 62
     0
370
    20
100
AcDbLine
 10
-641.0652295960735
 20
398.9587767371689
 30
0.0
 11
-641.0652295960735
 21
392.8890622869148
 31
0.0
  0
LINE
  5
1C74
330
2
100
AcDbEntity
  8
画層1
  6
DASHED2
 62
     0
370
    20
100
AcDbLine
 10
-650.0652295960735
 20
398.9587767371689
 30
0.0
 11
-650.0652295960735
 21
392.8890622869148
 31
0.0
  0
ARC
  5
1C76
330
2
100
AcDbEntity
  8
画層1
  6
DASHED2
 62
     0
370
    20
100
AcDbCircle
 10
-645.5652295960735
 20
398.9587767371689
 30
0.0
 40
4.5
100
AcDbArc
 50
0.0
 51
180.0
  0
ARC
  5
1C77
330
2
100
AcDbEntity
  8
画層1
  6
DASHED2
 62
     0
370
    20
100
AcDbCircle
 10
-505.5652295960735
 20
398.9587767371689
 30
0.0
 40
4.5
100
AcDbArc
 50
0.0
 51
180.0
  0
ARC
  5
1C78
330
2
100
AcDbEntity
  8
画層1
  6
DASHED2
 62
     0
370
    20
100
AcDbCircle
 10
-505.5652295960735
 20
383.9587767371689
 30
0.0
 40
9.999999999999985
100
AcDbArc
 50
116.743683950403
 51
63.25631604959696
  0
LINE
  5
1C79
330
2
100
AcDbEntity
  8
画層1
  6
DASHED2
 62
     0
370
    20
100
AcDbLine
 10
-510.0652295960735
 20
398.9587767371689
 30
0.0
 11
-510.0652295960735
 21
392.8890622869148
 31
0.0
  0
LINE
  5
1C7A
330
2
100
AcDbEntity
  8
画層1
  6
DASHED2
 62
     0
370
    20
100
AcDbLine
 10
-501.0652295960735
 20
398.9587767371689
 30
0.0
 11
-501.0652295960735
 21
392.8890622869148
 31
0.0
  0
LINE
  5
1C7B
330
2
100
AcDbEntity
  8
画層1
  6
DASHED2
 62
     0
370
    20
100
AcDbLine
 10
-510.0652295960735
 20
398.9587767371689
 30
0.0
 11
-510.0652295960735
 21
392.8890622869148
 31
0.0
  0
CIRCLE
  5
1C7F
330
2
100
AcDbEntity
  8
画層1
  6
DASHED2
 62
     0
370
    20
100
AcDbCircle
 10
-616.5652295960735
 20
331.458776737169
 30
0.0
 40
12.5
  0
CIRCLE
  5
1C80
330
2
100
AcDbEntity
  8
画層1
  6
DASHED2
 62
     0
370
    20
100
AcDbCircle
 10
-534.5652295960735
 20
331.458776737169
 30
0.0
 40
12.5
  0
CIRCLE
  5
1C84
330
2
100
AcDbEntity
  8
画層1
  6
DASHED2
 62
     0
370
    20
100
AcDbCircle
 10
-616.5652295960735
 20
92.95877673716899
 30
0.0
 40
4.5
  0
CIRCLE
  5
1C85
330
2
100
AcDbEntity
  8
画層1
  6
DASHED2
 62
     0
370
    20
100
AcDbCircle
 10
-534.5652295960735
 20
92.95877673716899
 30
0.0
 40
4.5
  0
LINE
  5
1C8B
330
2
100
AcDbEntity
  8
画層1
  6
DASHED2
 62
     0
370
    20
100
AcDbLine
 10
-631.5652295960735
 20
78.95877673716899
 30
0.0
 11
-631.5652295960735
 21
131.4587767371689
 31
0.0
  0
LINE
  5
1C8C
330
2
100
AcDbEntity
  8
画層1
  6
DASHED2
 62
     0
370
    20
100
AcDbLine
 10
-631.5652295960735
 20
131.4587767371689
 30
0.0
 11
-601.5652295960735
 21
131.4587767371689
 31
0.0
  0
LINE
  5
1C8D
330
2
100
AcDbEntity
  8
画層1
  6
DASHED2
 62
     0
370
    20
100
AcDbLine
 10
-601.5652295960735
 20
131.4587767371689
 30
0.0
 11
-601.5652295960735
 21
78.95877673716899
 31
0.0
  0
LINE
  5
1C8E
330
2
100
AcDbEntity
  8
画層1
  6
DASHED2
 62
     0
370
    20
100
AcDbLine
 10
-631.5652295960735
 20
128.4587767371689
 30
0.0
 11
-601.5652295960735
 21
128.4587767371689
 31
0.0
  0
LINE
  5
1C8F
330
2
100
AcDbEntity
  8
画層1
  6
DASHED2
 62
     0
370
    20
100
AcDbLine
 10
-519.5652295960735
 20
131.4587767371689
 30
0.0
 11
-519.5652295960735
 21
78.95877673716899
 31
0.0
  0
LINE
  5
1C90
330
2
100
AcDbEntity
  8
画層1
  6
DASHED2
 62
     0
370
    20
100
AcDbLine
 10
-549.5652295960735
 20
78.95877673716899
 30
0.0
 11
-549.5652295960735
 21
131.4587767371689
 31
0.0
  0
LINE
  5
1C91
330
2
100
AcDbEntity
  8
画層1
  6
DASHED2
 62
     0
370
    20
100
AcDbLine
 10
-549.5652295960735
 20
128.4587767371689
 30
0.0
 11
-519.5652295960735
 21
128.4587767371689
 31
0.0
  0
LINE
  5
1C92
330
2
100
AcDbEntity
  8
画層1
  6
DASHED2
 62
     0
370
    20
100
AcDbLine
 10
-549.5652295960735
 20
131.4587767371689
 30
0.0
 11
-519.5652295960735
 21
131.4587767371689
 31
0.0
  0
LWPOLYLINE
  5
1C9C
330
2
100
AcDbEntity
  8
画層1
  6
DASHED2
 62
     0
370
    20
100
AcDbPolyline
 90
        4
 70
     1
 43
0.0
 10
-558.5652295960735
 20
307.4587767371689
 10
-510.5652295960735
 20
307.4587767371689
 10
-510.5652295960735
 20
355.4587767371689
 10
-558.5652295960735
 20
355.4587767371689
  0
LWPOLYLINE
  5
1C9D
330
2
100
AcDbEntity
  8
画層1
  6
DASHED2
 62
     0
370
    20
100
AcDbPolyline
 90
        4
 70
     1
 43
0.0
 10
-640.5652295960735
 20
307.4587767371689
 10
-592.5652295960735
 20
307.4587767371689
 10
-592.5652295960735
 20
355.4587767371689
 10
-640.5652295960735
 20
355.4587767371689
  0
LINE
  5
1C9E
330
2
100
AcDbEntity
  8
画層1
  6
DASHED2
 62
     0
370
    20
100
AcDbLine
 10
-601.5652295960735
 20
355.458776737169
 30
0.0
 11
-601.5652295960735
 21
408.9587767371689
 31
0.0
  0
LINE
  5
1C9F
330
2
100
AcDbEntity
  8
画層1
  6
DASHED2
 62
     0
370
    20
100
AcDbLine
 10
-631.5652295960735
 20
358.458776737169
 30
0.0
 11
-601.5652295960735
 21
358.458776737169
 31
0.0
  0
LINE
  5
1CA0
330
2
100
AcDbEntity
  8
画層1
  6
DASHED2
 62
     0
370
    20
100
AcDbLine
 10
-631.5652295960735
 20
355.458776737169
 30
0.0
 11
-601.5652295960735
 21
355.458776737169
 31
0.0
  0
LINE
  5
1CA1
330
2
100
AcDbEntity
  8
画層1
  6
DASHED2
 62
     0
370
    20
100
AcDbLine
 10
-549.5652295960735
 20
355.458776737169
 30
0.0
 11
-519.5652295960735
 21
355.458776737169
 31
0.0
  0
LINE
  5
1CA2
330
2
100
AcDbEntity
  8
画層1
  6
DASHED2
 62
     0
370
    20
100
AcDbLine
 10
-549.5652295960735
 20
358.458776737169
 30
0.0
 11
-519.5652295960735
 21
358.458776737169
 31
0.0
  0
LINE
  5
1CA3
330
2
100
AcDbEntity
  8
画層1
  6
DASHED2
 62
     0
370
    20
100
AcDbLine
 10
-519.5652295960735
 20
355.458776737169
 30
0.0
 11
-519.5652295960735
 21
408.9587767371689
 31
0.0
  0
LINE
  5
1CA4
330
2
100
AcDbEntity
  8
画層1
  6
DASHED2
 62
     0
370
    20
100
AcDbLine
 10
-549.5652295960735
 20
408.9587767371689
 30
0.0
 11
-549.5652295960735
 21
355.458776737169
 31
0.0
  0
LINE
  5
1CA5
330
2
100
AcDbEntity
  8
画層1
  6
DASHED2
 62
     0
370
    20
100
AcDbLine
 10
-631.5652295960735
 20
408.9587767371689
 30
0.0
 11
-631.5652295960735
 21
355.458776737169
 31
0.0
  0
CIRCLE
  5
1CA6
330
2
100
AcDbEntity
  8
画層1
  6
DASHED2
 62
     0
370
    20
100
AcDbCircle
 10
-616.5652295960735
 20
394.9587767371689
 30
0.0
 40
4.5
  0
CIRCLE
  5
1CA7
330
2
100
AcDbEntity
  8
画層1
  6
DASHED2
 62
     0
370
    20
100
AcDbCircle
 10
-534.5652295960735
 20
394.9587767371689
 30
0.0
 40
4.5
  0
LINE
  5
1D39
330
2
100
AcDbEntity
  8
画層1
 62
     0
370
    20
100
AcDbLine
 10
-649.5652295960735
 20
151.258776737169
 30
0.0
 11
-649.5652295960735
 21
267.258776737169
 31
0.0
  0
LINE
  5
1D3A
330
2
100
AcDbEntity
  8
画層1
 62
     0
370
    20
100
AcDbLine
 10
-649.5652295960735
 20
151.258776737169
 30
0.0
 11
-647.5652295960735
 21
151.258776737169
 31
0.0
  0
LINE
  5
1D3B
330
2
100
AcDbEntity
  8
画層1
 62
     0
370
    20
100
AcDbLine
 10
-649.5652295960735
 20
267.258776737169
 30
0.0
 11
-647.5652295960735
 21
267.258776737169
 31
0.0
  0
LINE
  5
1D3C
330
2
100
AcDbEntity
  8
画層1
 62
     0
370
    20
100
AcDbLine
 10
-647.5652295960735
 20
279.2587767371689
 30
0.0
 11
-647.5652295960735
 21
267.258776737169
 31
0.0
  0
LINE
  5
1DAA
330
2
100
AcDbEntity
  8
画層1
  6
DASHED2
 62
     0
370
    20
100
AcDbLine
 10
-673.9652295960735
 20
139.2587767371689
 30
0.0
 11
-673.9652295960735
 21
78.95877673716899
 31
0.0
  0
LINE
  5
1DAB
330
2
100
AcDbEntity
  8
画層1
  6
DASHED2
 62
     0
370
    20
100
AcDbLine
 10
-675.5652295960735
 20
139.2587767371689
 30
0.0
 11
-675.5652295960735
 21
78.95877673716899
 31
0.0
  0
LINE
  5
1DAC
330
2
100
AcDbEntity
  8
画層1
  6
DASHED2
 62
     0
370
    20
100
AcDbLine
 10
-673.9652295960735
 20
278.958776737169
 30
0.0
 11
-673.9652295960735
 21
408.9587767371689
 31
0.0
  0
LINE
  5
1DAD
330
2
100
AcDbEntity
  8
画層1
  6
DASHED2
 62
     0
370
    20
100
AcDbLine
 10
-675.5652295960735
 20
278.6587767371691
 30
0.0
 11
-675.5652295960735
 21
408.658776737169
 31
0.0
  0
LINE
  5
1DAF
330
2
100
AcDbEntity
  8
画層1
  6
DASHED2
 62
     0
370
    20
100
AcDbLine
 10
-477.1652295960735
 20
408.9587767371689
 30
0.0
 11
-477.1652295960735
 21
78.95877673716899
 31
0.0
  0
LINE
  5
1DB1
330
2
100
AcDbEntity
  8
画層1
  6
DASHED2
 62
     0
370
    20
100
AcDbLine
 10
-475.5652295960735
 20
408.9587767371689
 30
0.0
 11
-475.5652295960735
 21
78.95877673716899
 31
0.0
  0
LINE
  5
1DB8
330
2
100
AcDbEntity
  8
画層1
 62
     0
370
    20
100
AcDbLine
 10
-345.4904011789971
 20
79.95877673716899
 30
0.0
 11
-345.4904011789971
 21
407.958776737169
 31
0.0
  0
CIRCLE
  5
1DBB
330
2
100
AcDbEntity
  8
画層1
 62
     0
370
    20
100
AcDbCircle
 10
-212.090401178997
 20
349.9587767371689
 30
0.0
 40
3.0
  0
CIRCLE
  5
1DBC
330
2
100
AcDbEntity
  8
画層1
 62
     0
370
    20
100
AcDbCircle
 10
-212.090401178997
 20
139.9587767371689
 30
0.0
 40
3.0
  0
CIRCLE
  5
1DC0
330
2
100
AcDbEntity
  8
画層1
 62
     0
370
    20
100
AcDbCircle
 10
-193.090401178997
 20
332.9587767371689
 30
0.0
 40
2.0
  0
CIRCLE
  5
1DC1
330
2
100
AcDbEntity
  8
画層1
 62
     0
370
    20
100
AcDbCircle
 10
-118.090401178997
 20
332.9587767371689
 30
0.0
 40
2.0
  0
CIRCLE
  5
1DC4
330
2
100
AcDbEntity
  8
画層1
 62
     0
370
    20
100
AcDbCircle
 10
-292.0904011789971
 20
145.9587767371689
 30
0.0
 40
1.75
  0
CIRCLE
  5
1DC5
330
2
100
AcDbEntity
  8
画層1
 62
     0
370
    20
100
AcDbCircle
 10
-292.0904011789971
 20
229.958776737169
 30
0.0
 40
1.75
  0
LINE
  5
1DCE
330
2
100
AcDbEntity
  8
画層1
  6
DASHED2
 62
     0
370
    20
100
AcDbLine
 10
-278.0904011789971
 20
358.458776737169
 30
0.0
 11
-233.0904011789971
 21
358.4587767371691
 31
0.0
  0
LINE
  5
1DCF
330
2
100
AcDbEntity
  8
画層1
  6
DASHED2
 62
     0
370
    20
100
AcDbLine
 10
-231.0904011789971
 20
361.458776737169
 30
0.0
 11
-231.0904011789971
 21
407.958776737169
 31
0.0
  0
LINE
  5
1DD0
330
2
100
AcDbEntity
  8
画層1
  6
DASHED2
 62
     0
370
    20
100
AcDbLine
 10
-278.0904011789971
 20
358.458776737169
 30
0.0
 11
-278.0904011789971
 21
355.458776737169
 31
0.0
  0
LINE
  5
1DD1
330
2
100
AcDbEntity
  8
画層1
  6
DASHED2
 62
     0
370
    20
100
AcDbLine
 10
-278.0904011789971
 20
355.458776737169
 30
0.0
 11
-230.0904011789971
 21
355.458776737169
 31
0.0
  0
LINE
  5
1DD2
330
2
100
AcDbEntity
  8
画層1
  6
DASHED2
 62
     0
370
    20
100
AcDbLine
 10
-228.0904011789971
 20
379.958776737169
 30
0.0
 11
-228.090401178997
 21
407.958776737169
 31
0.0
  0
ARC
  5
1DD3
330
2
100
AcDbEntity
  8
画層1
  6
DASHED2
 62
     0
370
    20
100
AcDbCircle
 10
-230.0904011789971
 20
357.458776737169
 30
0.0
 40
2.0
100
AcDbArc
 50
270.0
 51
0.0
  0
ARC
  5
1DD4
330
2
100
AcDbEntity
  8
画層1
  6
DASHED2
 62
     0
370
    20
100
AcDbCircle
 10
-233.0904011789971
 20
360.4422898375526
 30
0.0
 40
2.0
100
AcDbArc
 50
270.0
 51
0.0
  0
LINE
  5
1DD8
330
2
100
AcDbEntity
  8
画層1
  6
DASHED2
 62
     0
370
    20
100
AcDbLine
 10
-231.0904011789971
 20
389.458776737169
 30
0.0
 11
-228.0904011789971
 21
389.458776737169
 31
0.0
  0
LINE
  5
1DD9
330
2
100
AcDbEntity
  8
画層1
  6
DASHED2
 62
     0
370
    20
100
AcDbLine
 10
-231.090401178997
 20
398.458776737169
 30
0.0
 11
-228.0904011789971
 21
398.458776737169
 31
0.0
  0
LINE
  5
1E12
330
2
100
AcDbEntity
  8
画層1
  6
DASHED2
 62
     0
370
    20
100
AcDbLine
 10
-228.0904011789971
 20
379.958776737169
 30
0.0
 11
-228.0904011789971
 21
107.958776737169
 31
0.0
  0
LINE
  5
1E13
330
2
100
AcDbEntity
  8
画層1
  6
DASHED2
 62
     0
370
    20
100
AcDbLine
 10
-218.0904011789971
 20
379.958776737169
 30
0.0
 11
-228.0904011789971
 21
379.958776737169
 31
0.0
  0
LINE
  5
1E14
330
2
100
AcDbEntity
  8
画層1
  6
DASHED2
 62
     0
370
    20
100
AcDbLine
 10
-218.0904011789971
 20
107.958776737169
 30
0.0
 11
-228.0904011789971
 21
107.958776737169
 31
0.0
  0
LINE
  5
1E15
330
2
100
AcDbEntity
  8
画層1
  6
DASHED2
 62
     0
370
    20
100
AcDbLine
 10
-218.0904011789971
 20
379.958776737169
 30
0.0
 11
-218.0904011789971
 21
107.958776737169
 31
0.0
  0
LINE
  5
1E1E
330
2
100
AcDbEntity
  8
画層1
  6
DASHED2
 62
     0
370
    20
100
AcDbLine
 10
-231.0904011789971
 20
79.95877673716899
 30
0.0
 11
-231.0904011789971
 21
127.458776737169
 31
0.0
  0
LINE
  5
1E1F
330
2
100
AcDbEntity
  8
画層1
  6
DASHED2
 62
     0
370
    20
100
AcDbLine
 10
-233.0904011789971
 20
129.458776737169
 30
0.0
 11
-278.0904011789971
 21
129.4587767371689
 31
0.0
  0
LINE
  5
1E20
330
2
100
AcDbEntity
  8
画層1
  6
DASHED2
 62
     0
370
    20
100
AcDbLine
 10
-278.0904011789971
 20
129.4587767371689
 30
0.0
 11
-278.0904011789971
 21
132.4587767371689
 31
0.0
  0
LINE
  5
1E21
330
2
100
AcDbEntity
  8
画層1
  6
DASHED2
 62
     0
370
    20
100
AcDbLine
 10
-278.0904011789971
 20
132.4587767371689
 30
0.0
 11
-230.0904011789971
 21
132.4587767371689
 31
0.0
  0
LINE
  5
1E22
330
2
100
AcDbEntity
  8
画層1
  6
DASHED2
 62
     0
370
    20
100
AcDbLine
 10
-228.0904011789971
 20
107.958776737169
 30
0.0
 11
-228.0904011789971
 21
79.95877673716899
 31
0.0
  0
LINE
  5
1E23
330
2
100
AcDbEntity
  8
画層1
  6
DASHED2
 62
     0
370
    20
100
AcDbLine
 10
-231.0904011789971
 20
98.45877673716898
 30
0.0
 11
-228.0904011789971
 21
98.45877673716898
 31
0.0
  0
LINE
  5
1E24
330
2
100
AcDbEntity
  8
画層1
  6
DASHED2
 62
     0
370
    20
100
AcDbLine
 10
-231.0904011789971
 20
89.45877673716898
 30
0.0
 11
-228.0904011789971
 21
89.45877673716898
 31
0.0
  0
ARC
  5
1E25
330
2
100
AcDbEntity
  8
画層1
  6
DASHED2
 62
     0
370
    20
100
AcDbCircle
 10
-230.0904011789971
 20
130.4587767371689
 30
0.0
 40
2.0
100
AcDbArc
 50
0.0
 51
90.0
  0
ARC
  5
1E26
330
2
100
AcDbEntity
  8
画層1
  6
DASHED2
 62
     0
370
    20
100
AcDbCircle
 10
-233.0904011789971
 20
127.458776737169
 30
0.0
 40
2.0
100
AcDbArc
 50
0.0
 51
90.0
  0
LWPOLYLINE
  5
1E63
330
2
100
AcDbEntity
  8
画層1
  6
DASHED2
 62
     0
370
    20
100
AcDbPolyline
 90
        4
 70
     1
 43
0.0
 10
-286.090401178997
 20
307.458776737169
 10
-238.090401178997
 20
307.458776737169
 10
-238.090401178997
 20
355.458776737169
 10
-286.090401178997
 20
355.458776737169
  0
LINE
  5
1E64
330
2
100
AcDbEntity
  8
画層1
  6
DASHED2
 62
     0
370
    20
100
AcDbLine
 10
-286.090401178997
 20
309.458776737169
 30
0.0
 11
-328.090401178997
 21
309.458776737169
 31
0.0
  0
LINE
  5
1E65
330
2
100
AcDbEntity
  8
画層1
  6
DASHED2
 62
     0
370
    20
100
AcDbLine
 10
-328.090401178997
 20
309.458776737169
 30
0.0
 11
-328.090401178997
 21
353.458776737169
 31
0.0
  0
LINE
  5
1E66
330
2
100
AcDbEntity
  8
画層1
  6
DASHED2
 62
     0
370
    20
100
AcDbLine
 10
-328.090401178997
 20
353.458776737169
 30
0.0
 11
-286.090401178997
 21
353.458776737169
 31
0.0
  0
LWPOLYLINE
  5
1E6B
330
2
100
AcDbEntity
  8
画層1
  6
DASHED2
 62
     0
370
    20
100
AcDbPolyline
 90
        4
 70
     1
 43
0.0
 10
-251.0904011789971
 20
437.958776737169
 10
-249.0904011789971
 20
437.958776737169
 10
-249.0904011789971
 20
363.958776737169
 10
-251.0904011789971
 20
363.958776737169
  0
LWPOLYLINE
  5
1E6D
330
2
100
AcDbEntity
  8
画層1
  6
DASHED2
 62
     0
370
    20
100
AcDbPolyline
 90
        4
 70
     1
 43
0.0
 10
-251.0904011789971
 20
49.95877673716893
 10
-249.0904011789971
 20
49.95877673716893
 10
-249.0904011789971
 20
123.9587767371689
 10
-251.0904011789971
 20
123.9587767371689
  0
ARC
  5
1E74
330
2
100
AcDbEntity
  8
画層1
 62
     0
370
    20
100
AcDbCircle
 10
-346.9237345123304
 20
363.958776737169
 30
0.0
 40
4.166666666666617
100
AcDbArc
 50
106.2602047083124
 51
253.739795291688
  0
LINE
  5
1E7C
330
2
100
AcDbEntity
  8
画層1
 62
     0
370
    20
100
AcDbLine
 10
-347.0904011789971
 20
408.2587767371689
 30
0.0
 11
-338.0904011789971
 21
408.2587767371689
 31
0.0
  0
LINE
  5
1E7D
330
2
100
AcDbEntity
  8
画層1
 62
     1
370
    20
100
AcDbLine
 10
-338.0904011789971
 20
408.2587767371689
 30
0.0
 11
-338.0904011789971
 21
409.2587767371689
 31
0.0
  0
LINE
  5
1E7E
330
2
100
AcDbEntity
  8
画層1
 62
     0
370
    20
100
AcDbLine
 10
-338.0904011789971
 20
409.2587767371689
 30
0.0
 11
-348.0904011789971
 21
409.2587767371689
 31
0.0
  0
LINE
  5
1E7F
330
2
100
AcDbEntity
  8
画層1
 62
     0
370
    20
100
AcDbLine
 10
-348.0904011789971
 20
409.2587767371689
 30
0.0
 11
-348.0904011789971
 21
78.65877673716898
 31
0.0
  0
LINE
  5
1EB4
330
2
100
AcDbEntity
  8
画層1
 62
     0
370
    20
100
AcDbLine
 10
-347.0904011789971
 20
408.2587767371689
 30
0.0
 11
-347.0904011789971
 21
79.65877673716898
 31
0.0
  0
LINE
  5
1EB5
330
2
100
AcDbEntity
  8
画層1
 62
     0
370
    20
100
AcDbLine
 10
-348.0904011789971
 20
78.65877673716898
 30
0.0
 11
-348.0904011789971
 21
409.2587767371689
 31
0.0
  0
LINE
  5
1EB6
330
2
100
AcDbEntity
  8
画層1
 62
     0
370
    20
100
AcDbLine
 10
-347.0904011789971
 20
79.65877673716898
 30
0.0
 11
-338.0904011789971
 21
79.65877673716898
 31
0.0
  0
LINE
  5
1EB7
330
2
100
AcDbEntity
  8
画層1
 62
     0
370
    20
100
AcDbLine
 10
-338.0904011789971
 20
79.65877673716898
 30
0.0
 11
-338.0904011789971
 21
78.65877673716898
 31
0.0
  0
LINE
  5
1EB8
330
2
100
AcDbEntity
  8
画層1
 62
     0
370
    20
100
AcDbLine
 10
-338.0904011789971
 20
78.65877673716898
 30
0.0
 11
-348.0904011789971
 21
78.65877673716898
 31
0.0
  0
ARC
  5
1EB9
330
2
100
AcDbEntity
  8
画層1
 62
     0
370
    20
100
AcDbCircle
 10
-348.0904011789971
 20
123.9587767371689
 30
0.0
 40
4.0
100
AcDbArc
 50
90.00000000000003
 51
270.0
  0
LINE
  5
1EBA
330
2
100
AcDbEntity
  8
画層1
 62
     0
370
    20
100
AcDbLine
 10
-249.0904011789971
 20
437.958776737169
 30
0.0
 11
-249.0904011789971
 21
407.958776737169
 31
0.0
  0
LINE
  5
1EBB
330
2
100
AcDbEntity
  8
画層1
 62
     0
370
    20
100
AcDbLine
 10
-251.0904011789971
 20
437.958776737169
 30
0.0
 11
-251.0904011789971
 21
407.958776737169
 31
0.0
  0
LINE
  5
1EBC
330
2
100
AcDbEntity
  8
画層1
 62
     0
370
    20
100
AcDbLine
 10
-251.0904011789971
 20
437.958776737169
 30
0.0
 11
-249.0904011789971
 21
437.958776737169
 31
0.0
  0
LINE
  5
1EBD
330
2
100
AcDbEntity
  8
画層1
 62
     0
370
    20
100
AcDbLine
 10
-251.0904011789971
 20
79.95877673716899
 30
0.0
 11
-251.0904011789971
 21
49.95877673716893
 31
0.0
  0
LINE
  5
1EBE
330
2
100
AcDbEntity
  8
画層1
 62
     0
370
    20
100
AcDbLine
 10
-251.0904011789971
 20
49.95877673716893
 30
0.0
 11
-249.0904011789971
 21
49.95877673716893
 31
0.0
  0
LINE
  5
1EBF
330
2
100
AcDbEntity
  8
画層1
 62
     0
370
    20
100
AcDbLine
 10
-249.0904011789971
 20
49.95877673716893
 30
0.0
 11
-249.0904011789971
 21
79.95877673716899
 31
0.0
  0
DIMENSION
  5
1EC0
330
2
100
AcDbEntity
  8
画層1
 62
     0
370
    20
100
AcDbDimension
  2
*D3
 10
-228.090401178997
 20
448.0153986647728
 30
0.0
 11
-160.590401178997
 21
450.2653986647728
 31
0.0
 70
    32
 71
     5
 42
135.0
  3
STANDARD_WS
100
AcDbAlignedDimension
 13
-93.09040117899707
 23
407.958776737169
 33
0.0
 14
-228.090401178997
 24
407.958776737169
 34
0.0
100
AcDbRotatedDimension
1001
ACAD
1000
DSTYLE
1002
{
1070
    47
1040
0.6
1070
   140
1040
50.0
1070
   146
1040
0.5
1070
   147
1040
1.0
1070
   173
1070
     0
1070
   271
1070
     0
1070
   272
1070
     0
1070
   284
1070
     8
1070
   341
1005
28
1070
   342
1005
28
1070
   343
1005
0
1070
   344
1005
0
1002
}
  0
DIMENSION
  5
1ECD
330
2
100
AcDbEntity
  8
画層1
 62
     0
370
    20
100
AcDbDimension
  2
*D4
 10
-231.0904011789971
 20
448.0153986647728
 30
0.0
 11
-235.771580954278
 21
450.2653986647728
 31
0.0
 70
    32
 71
     5
 42
3.0
  3
STANDARD_WS
100
AcDbAlignedDimension
 13
-228.090401178997
 23
448.0153986647728
 33
0.0
 14
-231.0904011789971
 24
407.958776737169
 34
0.0
100
AcDbRotatedDimension
1001
ACAD
1000
DSTYLE
1002
{
1070
    47
1040
0.6
1070
   140
1040
50.0
1070
   146
1040
0.5
1070
   147
1040
1.0
1070
   173
1070
     0
1070
   271
1070
     0
1070
   272
1070
     0
1070
   284
1070
     8
1070
   341
1005
28
1070
   342
1005
28
1070
   343
1005
0
1070
   344
1005
0
1002
}
  0
DIMENSION
  5
1EDE
330
2
100
AcDbEntity
  8
画層1
 62
     0
370
    20
100
AcDbDimension
  2
*D5
 10
-351.0904011789971
 20
458.6496430730058
 30
0.0
 11
-222.0904011789971
 21
460.8996430730058
 31
0.0
 70
    32
 71
     5
 42
258.0
  3
STANDARD_WS
100
AcDbAlignedDimension
 13
-93.09040117899707
 23
449.2653986647728
 33
0.0
 14
-351.0904011789971
 24
363.958776737169
 34
0.0
100
AcDbRotatedDimension
1001
ACAD
1000
DSTYLE
1002
{
1070
    47
1040
0.6
1070
   140
1040
50.0
1070
   146
1040
0.5
1070
   147
1040
1.0
1070
   173
1070
     0
1070
   271
1070
     0
1070
   272
1070
     0
1070
   284
1070
     8
1070
   341
1005
28
1070
   342
1005
28
1070
   343
1005
0
1070
   344
1005
0
1002
}
  0
DIMENSION
  5
1F21
330
2
100
AcDbEntity
  8
画層1
 62
     0
370
    20
100
AcDbDimension
  2
*D6
 10
-439.0956974607891
 20
398.9587767371689
 30
0.0
 11
-441.3456974607892
 21
243.9385654503827
 31
0.0
 70
    32
 71
     5
 42
310.0404225735722
  3
STANDARD_WS
100
AcDbAlignedDimension
 13
-505.5652295960735
 23
88.91835416359674
 33
0.0
 14
-505.5652295960735
 24
398.9587767371689
 34
0.0
 50
90.0
100
AcDbRotatedDimension
1001
ACAD
1000
DSTYLE
1002
{
1070
    47
1040
0.6
1070
   140
1040
50.0
1070
   146
1040
0.5
1070
   147
1040
1.0
1070
   173
1070
     0
1070
   271
1070
     0
1070
   272
1070
     0
1070
   284
1070
     8
1070
   341
1005
28
1070
   342
1005
28
1070
   343
1005
0
1070
   344
1005
0
1002
}
  0
DIMENSION
  5
1F2E
330
2
100
AcDbEntity
  8
画層1
 62
     0
370
    20
100
AcDbDimension
  2
*D7
 10
-427.0752085190049
 20
78.95877673716899
 30
0.0
 11
-429.3252085190049
 21
243.9587767371689
 31
0.0
 70
    32
 71
     5
 42
330.0
  3
STANDARD_WS
100
AcDbAlignedDimension
 13
-465.5652295960735
 23
408.9587767371689
 33
0.0
 14
-465.5652295960735
 24
78.95877673716899
 34
0.0
 50
90.0
100
AcDbRotatedDimension
1001
ACAD
1000
DSTYLE
1002
{
1070
    47
1040
0.6
1070
   140
1040
50.0
1070
   146
1040
0.5
1070
   147
1040
1.0
1070
   173
1070
     0
1070
   271
1070
     0
1070
   272
1070
     0
1070
   284
1070
     8
1070
   341
1005
28
1070
   342
1005
28
1070
   343
1005
0
1070
   344
1005
0
1002
}
  0
DIMENSION
  5
1F3B
330
2
100
AcDbEntity
  8
画層1
 62
     0
370
    20
100
AcDbDimension
  2
*D8
 10
-645.5652295960735
 20
432.4256248055259
 30
0.0
 11
-575.5652295960735
 21
434.6756248055259
 31
0.0
 70
    32
 71
     5
 42
140.0
  3
STANDARD_WS
100
AcDbAlignedDimension
 13
-505.5652295960735
 23
399.958776737169
 33
0.0
 14
-645.5652295960735
 24
399.958776737169
 34
0.0
100
AcDbRotatedDimension
1001
ACAD
1000
DSTYLE
1002
{
1070
    47
1040
0.6
1070
   140
1040
50.0
1070
   146
1040
0.5
1070
   147
1040
1.0
1070
   173
1070
     0
1070
   271
1070
     0
1070
   272
1070
     0
1070
   284
1070
     8
1070
   341
1005
28
1070
   342
1005
28
1070
   343
1005
0
1070
   344
1005
0
1002
}
  0
DIMENSION
  5
1F48
330
2
100
AcDbEntity
  8
画層1
 62
     0
370
    20
100
AcDbDimension
  2
*D9
 10
-685.5652295960735
 20
444.3474063350931
 30
0.0
 11
-575.5652295960735
 21
446.5974063350931
 31
0.0
 70
    32
 71
     5
 42
220.0
  3
STANDARD_WS
100
AcDbAlignedDimension
 13
-465.5652295960735
 23
408.9587767371689
 33
0.0
 14
-685.5652295960735
 24
408.9587767371689
 34
0.0
100
AcDbRotatedDimension
1001
ACAD
1000
DSTYLE
1002
{
1070
    47
1040
0.6
1070
   140
1040
50.0
1070
   146
1040
0.5
1070
   147
1040
1.0
1070
   173
1070
     0
1070
   271
1070
     0
1070
   272
1070
     0
1070
   284
1070
     8
1070
   341
1005
28
1070
   342
1005
28
1070
   343
1005
0
1070
   344
1005
0
1002
}
  0
DIMENSION
  5
1F55
330
2
100
AcDbEntity
  8
画層1
 62
     0
370
    20
100
AcDbDimension
  2
*D10
 10
-616.5652295960735
 20
59.45783016993903
 30
0.0
 11
-575.5652295960735
 21
61.70783016993903
 31
0.0
 70
    32
 71
     5
 42
82.0
  3
STANDARD_WS
100
AcDbAlignedDimension
 13
-534.5652295960735
 23
92.95877673716899
 33
0.0
 14
-616.5652295960735
 24
92.95877673716899
 34
0.0
100
AcDbRotatedDimension
1001
ACAD
1000
DSTYLE
1002
{
1070
    47
1040
0.6
1070
   140
1040
50.0
1070
   146
1040
0.5
1070
   147
1040
1.0
1070
   173
1070
     0
1070
   271
1070
     0
1070
   272
1070
     0
1070
   284
1070
     8
1070
   341
1005
28
1070
   342
1005
28
1070
   343
1005
0
1070
   344
1005
0
1002
}
  0
DIMENSION
  5
1F62
330
2
100
AcDbEntity
  8
画層1
 62
     0
370
    20
100
AcDbDimension
  2
*D11
 10
-631.5652295960735
 20
69.32148565492775
 30
0.0
 11
-616.5652295960735
 21
71.57148565492775
 31
0.0
 70
    32
 71
     5
 42
30.0
  3
STANDARD_WS
100
AcDbAlignedDimension
 13
-601.5652295960735
 23
78.95877673716899
 33
0.0
 14
-631.5652295960735
 24
78.95877673716899
 34
0.0
100
AcDbRotatedDimension
1001
ACAD
1000
DSTYLE
1002
{
1070
    47
1040
0.6
1070
   140
1040
50.0
1070
   146
1040
0.5
1070
   147
1040
1.0
1070
   173
1070
     0
1070
   271
1070
     0
1070
   272
1070
     0
1070
   284
1070
     8
1070
   341
1005
28
1070
   342
1005
28
1070
   343
1005
0
1070
   344
1005
0
1002
}
  0
DIMENSION
  5
1FD6
330
2
100
AcDbEntity
  8
画層1
 62
     0
370
    20
100
AcDbDimension
  2
*D12
 10
-510.0652295960735
 20
420.9762454311044
 30
0.0
 11
-514.8735977852809
 21
420.9762454311044
 31
0.0
 70
   160
 71
     5
 42
8.999999999999943
  3
STANDARD_WS
100
AcDbAlignedDimension
 13
-501.0652295960736
 23
398.9587767371689
 33
0.0
 14
-510.0652295960735
 24
398.9587767371689
 34
0.0
100
AcDbRotatedDimension
1001
ACAD
1000
DSTYLE
1002
{
1070
    47
1040
0.6
1070
    77
1070
     3
1070
   140
1040
50.0
1070
   146
1040
0.5
1070
   147
1040
1.0
1070
   173
1070
     0
1070
   271
1070
     0
1070
   272
1070
     0
1070
   284
1070
     8
1070
   341
1005
28
1070
   342
1005
28
1070
   343
1005
0
1070
   344
1005
0
1002
}
  0
DIMENSION
  5
2001
330
2
100
AcDbEntity
  8
画層1
 62
     0
370
    20
100
AcDbDimension
  2
*D13
 10
-641.0652295960735
 20
420.9762454311044
 30
0.0
 11
-637.54214516358
 21
420.9762454311044
 31
0.0
 70
   160
 71
     5
 42
9.0
  3
STANDARD_WS
100
AcDbAlignedDimension
 13
-650.0652295960735
 23
398.9587767371689
 33
0.0
 14
-641.0652295960735
 24
398.9587767371689
 34
0.0
100
AcDbRotatedDimension
1001
ACAD
1000
DSTYLE
1002
{
1070
    47
1040
0.6
1070
   140
1040
50.0
1070
   146
1040
0.5
1070
   147
1040
1.0
1070
   173
1070
     0
1070
   271
1070
     0
1070
   272
1070
     0
1070
   284
1070
     8
1070
   341
1005
28
1070
   342
1005
28
1070
   343
1005
0
1070
   344
1005
0
1002
}
  0
LINE
  5
2077
330
2
100
AcDbEntity
  8
画層1
  6
DASHED2
 62
     0
370
    20
100
AcDbLine
 10
-660.5652295960735
 20
408.9587767371689
 30
0.0
 11
-660.5652295960735
 21
368.958776737169
 31
0.0
  0
LINE
  5
2078
330
2
100
AcDbEntity
  8
画層1
  6
DASHED2
 62
     0
370
    20
100
AcDbLine
 10
-655.5652295960735
 20
363.9587767371689
 30
0.0
 11
-495.5652295960736
 21
363.958776737169
 31
0.0
  0
LINE
  5
2079
330
2
100
AcDbEntity
  8
画層1
  6
DASHED2
 62
     0
370
    20
100
AcDbLine
 10
-490.5652295960735
 20
368.958776737169
 30
0.0
 11
-490.5652295960735
 21
408.9587767371689
 31
0.0
  0
LINE
  5
207A
330
2
100
AcDbEntity
  8
画層1
 62
     0
370
    20
100
AcDbLine
 10
-495.5652295960736
 20
437.9587767371691
 30
0.0
 11
-655.5652295960735
 21
437.9587767371691
 31
0.0
  0
ARC
  5
207C
330
2
100
AcDbEntity
  8
画層1
  6
DASHED2
 62
     0
370
    20
100
AcDbCircle
 10
-655.5652295960735
 20
368.958776737169
 30
0.0
 40
5.0
100
AcDbArc
 50
180.0
 51
270.0
  0
ARC
  5
207D
330
2
100
AcDbEntity
  8
画層1
  6
DASHED2
 62
     0
370
    20
100
AcDbCircle
 10
-495.5652295960736
 20
368.958776737169
 30
0.0
 40
5.0
100
AcDbArc
 50
270.0
 51
0.0
  0
ARC
  5
207E
330
2
100
AcDbEntity
  8
画層1
 62
     0
370
    20
100
AcDbCircle
 10
-655.5652295960735
 20
432.958776737169
 30
0.0
 40
5.0
100
AcDbArc
 50
90.0
 51
180.0
  0
ARC
  5
207F
330
2
100
AcDbEntity
  8
画層1
 62
     0
370
    20
100
AcDbCircle
 10
-495.5652295960736
 20
432.958776737169
 30
0.0
 40
5.0
100
AcDbArc
 50
359.9999999999999
 51
89.99999999999998
  0
LINE
  5
2080
330
2
100
AcDbEntity
  8
画層1
 62
     0
370
    20
100
AcDbLine
 10
-660.5652295960735
 20
408.9587767371689
 30
0.0
 11
-660.5652295960735
 21
432.958776737169
 31
0.0
  0
LINE
  5
2081
330
2
100
AcDbEntity
  8
画層1
 62
     0
370
    20
100
AcDbLine
 10
-490.5652295960735
 20
432.958776737169
 30
0.0
 11
-490.5652295960735
 21
408.9587767371689
 31
0.0
  0
ARC
  5
2082
330
2
100
AcDbEntity
  8
画層1
 62
     0
370
    20
100
AcDbCircle
 10
-655.5652295960735
 20
54.95877673716887
 30
0.0
 40
5.0
100
AcDbArc
 50
180.0
 51
270.0
  0
LINE
  5
2083
330
2
100
AcDbEntity
  8
画層1
 62
     0
370
    20
100
AcDbLine
 10
-660.5652295960735
 20
78.95877673716899
 30
0.0
 11
-660.5652295960735
 21
54.95877673716887
 31
0.0
  0
LINE
  5
2084
330
2
100
AcDbEntity
  8
画層1
 62
     0
370
    20
100
AcDbLine
 10
-495.5652295960736
 20
49.95877673716887
 30
0.0
 11
-655.5652295960735
 21
49.95877673716887
 31
0.0
  0
ARC
  5
2085
330
2
100
AcDbEntity
  8
画層1
  6
DASHED2
 62
     0
370
    20
100
AcDbCircle
 10
-655.5652295960735
 20
118.9587767371689
 30
0.0
 40
5.0
100
AcDbArc
 50
90.00000000000003
 51
180.0
  0
LINE
  5
2086
330
2
100
AcDbEntity
  8
画層1
  6
DASHED2
 62
     0
370
    20
100
AcDbLine
 10
-655.5652295960735
 20
123.9587767371689
 30
0.0
 11
-495.5652295960736
 21
123.9587767371689
 31
0.0
  0
LINE
  5
2087
330
2
100
AcDbEntity
  8
画層1
  6
DASHED2
 62
     0
370
    20
100
AcDbLine
 10
-660.5652295960735
 20
78.95877673716899
 30
0.0
 11
-660.5652295960735
 21
118.9587767371689
 31
0.0
  0
LINE
  5
2088
330
2
100
AcDbEntity
  8
画層1
  6
DASHED2
 62
     0
370
    20
100
AcDbLine
 10
-490.5652295960735
 20
118.9587767371689
 30
0.0
 11
-490.5652295960735
 21
78.95877673716899
 31
0.0
  0
ARC
  5
2089
330
2
100
AcDbEntity
  8
画層1
  6
DASHED2
 62
     0
370
    20
100
AcDbCircle
 10
-495.5652295960736
 20
118.9587767371689
 30
0.0
 40
5.0
100
AcDbArc
 50
0.0
 51
90.00000000000003
  0
LINE
  5
208A
330
2
100
AcDbEntity
  8
画層1
 62
     0
370
    20
100
AcDbLine
 10
-490.5652295960735
 20
54.95877673716887
 30
0.0
 11
-490.5652295960735
 21
78.95877673716899
 31
0.0
  0
ARC
  5
208B
330
2
100
AcDbEntity
  8
画層1
 62
     0
370
    20
100
AcDbCircle
 10
-495.5652295960736
 20
54.95877673716887
 30
0.0
 40
5.0
100
AcDbArc
 50
270.0
 51
0.0000000000000649
  0
ENDSEC
  0
SECTION
  2
OBJECTS
  0
DICTIONARY
  5
9
330
0
100
AcDbDictionary
281
     1
  3
ACAD_GROUP
350
23
  3
ACAD_LAYOUT
350
D
  3
ACAD_MLINESTYLE
350
24
  3
ACAD_PLOTSETTINGS
350
25
  3
ACAD_PLOTSTYLENAME
350
8
  3
AcDbVariableDictionary
350
115B
  3
DWGPROPS
350
B1B
  0
DICTIONARY
  5
3
330
2
100
AcDbDictionary
280
     1
281
     1
  0
DICTIONARY
  5
F
330
E
100
AcDbDictionary
280
     1
281
     1
  0
DICTIONARY
  5
23
102
{ACAD_REACTORS
330
9
102
}
330
9
100
AcDbDictionary
281
     1
  0
DICTIONARY
  5
D
102
{ACAD_REACTORS
330
9
102
}
330
9
100
AcDbDictionary
281
     1
  3
Model
350
560
  3
ﾚｲｱｳﾄ1
350
561
  0
DICTIONARY
  5
24
102
{ACAD_REACTORS
330
9
102
}
330
9
100
AcDbDictionary
281
     1
  3
STANDARD
350
34
  0
DICTIONARY
  5
25
102
{ACAD_REACTORS
330
9
102
}
330
9
100
AcDbDictionary
281
     1
  0
ACDBDICTIONARYWDFLT
  5
8
102
{ACAD_REACTORS
330
9
102
}
330
9
100
AcDbDictionary
281
     1
  3
Normal
350
7
100
AcDbDictionaryWithDefault
340
7
  0
DICTIONARY
  5
115B
102
{ACAD_REACTORS
330
9
102
}
330
9
100
AcDbDictionary
281
     1
  3
SORTENTS
350
115C
  0
XRECORD
  5
B1B
102
{ACAD_REACTORS
330
9
102
}
330
9
100
AcDbXrecord
280
     1
  1
DWGPROPS COOKIE
  2

  3

  4

  6

  7

  8

  9

300
=
301
=
302
=
303
=
304
=
305
=
306
=
307
=
308
=
309
=
 40
3.889878958333333
 41
2450995.462150231
 42
2454049.770371816
  1

 90
        0
  0
LAYOUT
  5
560
102
{ACAD_REACTORS
330
D
102
}
330
D
100
AcDbPlotSettings
  1

  2
DocuPrint 360
  4
A3
  6

 40
5.238749980926513
 41
5.238728046417236
 42
5.32342529296875
 43
5.238739013671875
 44
296.9683227539062
 45
419.9889831542968
 46
0.0
 47
0.0
 48
0.0
 49
0.0
140
0.0
141
0.0
142
1.0
143
1.0
 70
 11952
 72
     1
 73
     1
 74
     1
  7

 75
    16
147
1.0
148
643.5922839751201
149
-108.5339784519811
100
AcDbLayout
  1
Model
 70
     1
 71
     0
 10
0.0
 20
0.0
 11
12.0
 21
9.0
 12
0.0
 22
0.0
 32
0.0
 14
0.0
 24
0.0
 34
0.0
 15
0.0
 25
0.0
 35
0.0
146
0.0
 13
0.0
 23
0.0
 33
0.0
 16
1.0
 26
0.0
 36
0.0
 17
0.0
 27
1.0
 37
0.0
 76
     0
330
2
  0
LAYOUT
  5
561
102
{ACAD_REACTORS
330
D
102
}
330
D
100
AcDbPlotSettings
  1

  2
EPSON MJ-6000C
  4

  6

 40
0.0
 41
0.0
 42
0.0
 43
0.0
 44
0.0
 45
0.0
 46
0.0
 47
0.0
 48
0.0
 49
0.0
140
0.0
141
0.0
142
1.0
143
1.0
 70
   688
 72
     0
 73
     0
 74
     5
  7

 75
    16
147
1.0
148
0.0
149
0.0
100
AcDbLayout
  1
ﾚｲｱｳﾄ1
 70
     1
 71
     1
 10
0.0
 20
0.0
 11
420.0
 21
297.0
 12
0.0
 22
0.0
 32
0.0
 14
1.000000000000000E+20
 24
1.000000000000000E+20
 34
1.000000000000000E+20
 15
-1.000000000000000E+20
 25
-1.000000000000000E+20
 35
-1.000000000000000E+20
146
0.0
 13
0.0
 23
0.0
 33
0.0
 16
1.0
 26
0.0
 36
0.0
 17
0.0
 27
1.0
 37
0.0
 76
     0
330
E
  0
MLINESTYLE
  5
34
102
{ACAD_REACTORS
330
24
102
}
330
24
100
AcDbMlineStyle
  2
STANDARD
 70
     0
  3

 62
   256
 51
90.0
 52
90.0
 71
     2
 49
0.5
 62
   256
  6
BYLAYER
 49
-0.5
 62
   256
  6
BYLAYER
  0
ACDBPLACEHOLDER
  5
7
102
{ACAD_REACTORS
330
8
102
}
330
8
  0
DICTIONARYVAR
  5
115C
102
{ACAD_REACTORS
330
115B
102
}
330
115B
100
DictionaryVariables
280
     0
  1
96
  0
ENDSEC
  0
EOF
