  0
SECTION
  2
HEADER
  9
$ACADVER
  1
AC1015
  9
$ACADMAINTVER
 70
     6
  9
$DWGCODEPAGE
  3
ANSI_932
  9
$INSBASE
 10
0.0
 20
0.0
 30
0.0
  9
$EXTMIN
 10
-979.8777026721086
 20
-129.357673931073
 30
0.0
  9
$EXTMAX
 10
273.1419720262706
 20
596.7979618861811
 30
0.0
  9
$LIMMIN
 10
0.0
 20
0.0
  9
$LIMMAX
 10
420.0
 20
297.0
  9
$ORTHOMODE
 70
     1
  9
$REGENMODE
 70
     1
  9
$FILLMODE
 70
     1
  9
$QTEXTMODE
 70
     0
  9
$MIRRTEXT
 70
     1
  9
$LTSCALE
 40
0.2
  9
$ATTMODE
 70
     1
  9
$TEXTSIZE
 40
2.5
  9
$TRACEWID
 40
1.0
  9
$TEXTSTYLE
  7
STYLE1
  9
$CLAYER
  8
画層1
  9
$CELTYPE
  6
BYLAYER
  9
$CECOLOR
 62
     1
  9
$CELTSCALE
 40
1.0
  9
$DISPSILH
 70
     0
  9
$DIMSCALE
 40
1.0
  9
$DIMASZ
 40
1.5
  9
$DIMEXO
 40
0.63
  9
$DIMDLI
 40
3.75
  9
$DIMRND
 40
0.0
  9
$DIMDLE
 40
0.0
  9
$DIMEXE
 40
1.25
  9
$DIMTP
 40
0.6
  9
$DIMTM
 40
0.0
  9
$DIMTXT
 40
50.0
  9
$DIMCEN
 40
2.5
  9
$DIMTSZ
 40
0.0
  9
$DIMTOL
 70
     0
  9
$DIMLIM
 70
     0
  9
$DIMTIH
 70
     0
  9
$DIMTOH
 70
     0
  9
$DIMSE1
 70
     0
  9
$DIMSE2
 70
     0
  9
$DIMTAD
 70
     1
  9
$DIMZIN
 70
     8
  9
$DIMBLK
  1
OPEN30
  9
$DIMASO
 70
     1
  9
$DIMSHO
 70
     1
  9
$DIMPOST
  1

  9
$DIMAPOST
  1

  9
$DIMALT
 70
     0
  9
$DIMALTD
 70
     4
  9
$DIMALTF
 40
0.04
  9
$DIMLFAC
 40
1.0
  9
$DIMTOFL
 70
     1
  9
$DIMTVP
 40
0.0
  9
$DIMTIX
 70
     0
  9
$DIMSOXD
 70
     0
  9
$DIMSAH
 70
     0
  9
$DIMBLK1
  1

  9
$DIMBLK2
  1

  9
$DIMSTYLE
  2
STANDARD_WS
  9
$DIMCLRD
 70
     0
  9
$DIMCLRE
 70
     0
  9
$DIMCLRT
 70
     0
  9
$DIMTFAC
 40
0.5
  9
$DIMGAP
 40
1.0
  9
$DIMJUST
 70
     0
  9
$DIMSD1
 70
     0
  9
$DIMSD2
 70
     0
  9
$DIMTOLJ
 70
     1
  9
$DIMTZIN
 70
     8
  9
$DIMALTZ
 70
     0
  9
$DIMALTTZ
 70
     0
  9
$DIMUPT
 70
     0
  9
$DIMDEC
 70
     0
  9
$DIMTDEC
 70
     0
  9
$DIMALTU
 70
     8
  9
$DIMALTTD
 70
     4
  9
$DIMTXSTY
  7
STANDARD
  9
$DIMAUNIT
 70
     0
  9
$DIMADEC
 70
     0
  9
$DIMALTRND
 40
0.0
  9
$DIMAZIN
 70
     0
  9
$DIMDSEP
 70
    46
  9
$DIMATFIT
 70
     3
  9
$DIMFRAC
 70
     0
  9
$DIMLDRBLK
  1
OPEN30
  9
$DIMLUNIT
 70
     2
  9
$DIMLWD
 70
    -2
  9
$DIMLWE
 70
    -2
  9
$DIMTMOVE
 70
     0
  9
$LUNITS
 70
     2
  9
$LUPREC
 70
     4
  9
$SKETCHINC
 40
1.0
  9
$FILLETRAD
 40
5.0
  9
$AUNITS
 70
     0
  9
$AUPREC
 70
     0
  9
$MENU
  1
acad
  9
$ELEVATION
 40
0.0
  9
$PELEVATION
 40
0.0
  9
$THICKNESS
 40
0.0
  9
$LIMCHECK
 70
     0
  9
$CHAMFERA
 40
4.0
  9
$CHAMFERB
 40
4.0
  9
$CHAMFERC
 40
20.0
  9
$CHAMFERD
 40
0.0
  9
$SKPOLY
 70
     0
  9
$TDCREATE
 40
2450995.462150231
  9
$TDUCREATE
 40
2450995.087150231
  9
$TDUPDATE
 40
2454403.473971527
  9
$TDUUPDATE
 40
2454403.098971528
  9
$TDINDWG
 40
8.1031025694
  9
$TDUSRTIMER
 40
8.1030987500
  9
$USRTIMER
 70
     1
  9
$ANGBASE
 50
0.0
  9
$ANGDIR
 70
     0
  9
$PDMODE
 70
     0
  9
$PDSIZE
 40
0.0
  9
$PLINEWID
 40
10.0
  9
$SPLFRAME
 70
     0
  9
$SPLINETYPE
 70
     6
  9
$SPLINESEGS
 70
     8
  9
$HANDSEED
  5
2DEA
  9
$SURFTAB1
 70
     6
  9
$SURFTAB2
 70
     6
  9
$SURFTYPE
 70
     6
  9
$SURFU
 70
     6
  9
$SURFV
 70
     6
  9
$UCSBASE
  2

  9
$UCSNAME
  2

  9
$UCSORG
 10
0.0
 20
0.0
 30
0.0
  9
$UCSXDIR
 10
1.0
 20
0.0
 30
0.0
  9
$UCSYDIR
 10
0.0
 20
1.0
 30
0.0
  9
$UCSORTHOREF
  2

  9
$UCSORTHOVIEW
 70
     0
  9
$UCSORGTOP
 10
0.0
 20
0.0
 30
0.0
  9
$UCSORGBOTTOM
 10
0.0
 20
0.0
 30
0.0
  9
$UCSORGLEFT
 10
0.0
 20
0.0
 30
0.0
  9
$UCSORGRIGHT
 10
0.0
 20
0.0
 30
0.0
  9
$UCSORGFRONT
 10
0.0
 20
0.0
 30
0.0
  9
$UCSORGBACK
 10
0.0
 20
0.0
 30
0.0
  9
$PUCSBASE
  2

  9
$PUCSNAME
  2

  9
$PUCSORG
 10
0.0
 20
0.0
 30
0.0
  9
$PUCSXDIR
 10
1.0
 20
0.0
 30
0.0
  9
$PUCSYDIR
 10
0.0
 20
1.0
 30
0.0
  9
$PUCSORTHOREF
  2

  9
$PUCSORTHOVIEW
 70
     0
  9
$PUCSORGTOP
 10
0.0
 20
0.0
 30
0.0
  9
$PUCSORGBOTTOM
 10
0.0
 20
0.0
 30
0.0
  9
$PUCSORGLEFT
 10
0.0
 20
0.0
 30
0.0
  9
$PUCSORGRIGHT
 10
0.0
 20
0.0
 30
0.0
  9
$PUCSORGFRONT
 10
0.0
 20
0.0
 30
0.0
  9
$PUCSORGBACK
 10
0.0
 20
0.0
 30
0.0
  9
$USERI1
 70
     0
  9
$USERI2
 70
     0
  9
$USERI3
 70
     0
  9
$USERI4
 70
     0
  9
$USERI5
 70
     0
  9
$USERR1
 40
0.0
  9
$USERR2
 40
0.0
  9
$USERR3
 40
0.0
  9
$USERR4
 40
0.0
  9
$USERR5
 40
0.0
  9
$WORLDVIEW
 70
     1
  9
$SHADEDGE
 70
     3
  9
$SHADEDIF
 70
    70
  9
$TILEMODE
 70
     1
  9
$MAXACTVP
 70
    48
  9
$PINSBASE
 10
0.0
 20
0.0
 30
0.0
  9
$PLIMCHECK
 70
     0
  9
$PEXTMIN
 10
0.0
 20
0.0
 30
0.0
  9
$PEXTMAX
 10
0.0
 20
0.0
 30
0.0
  9
$PLIMMIN
 10
0.0
 20
0.0
  9
$PLIMMAX
 10
420.0
 20
297.0
  9
$UNITMODE
 70
     0
  9
$VISRETAIN
 70
     1
  9
$PLINEGEN
 70
     0
  9
$PSLTSCALE
 70
     1
  9
$TREEDEPTH
 70
  3020
  9
$CMLSTYLE
  2
STANDARD
  9
$CMLJUST
 70
     0
  9
$CMLSCALE
 40
20.0
  9
$PROXYGRAPHICS
 70
     1
  9
$MEASUREMENT
 70
     1
  9
$CELWEIGHT
370
    20
  9
$ENDCAPS
280
     0
  9
$JOINSTYLE
280
     0
  9
$LWDISPLAY
290
     0
  9
$INSUNITS
 70
     0
  9
$HYPERLINKBASE
  1

  9
$STYLESHEET
  1

  9
$XEDIT
290
     1
  9
$CEPSNTYPE
380
     0
  9
$PSTYLEMODE
290
     1
  9
$FINGERPRINTGUID
  2
{12426522-B208-11D3-A790-004026173390}
  9
$VERSIONGUID
  2
{92D02DCF-8825-4041-B5F8-6E6369AA855E}
  9
$EXTNAMES
290
     1
  9
$PSVPSCALE
 40
0.0
  9
$OLESTARTUP
290
     0
  0
ENDSEC
  0
SECTION
  2
CLASSES
  0
CLASS
  1
DICTIONARYVAR
  2
AcDbDictionaryVar
  3
AutoCAD 2000
 90
        0
280
     0
281
     0
  0
CLASS
  1
LWPOLYLINE
  2
AcDbPolyline
  3
AutoCAD 2000
 90
    32768
280
     0
281
     1
  0
CLASS
  1
OLE2FRAME
  2
AcDbOle2Frame
  3
AutoCAD 2000
 90
    32768
280
     0
281
     1
  0
CLASS
  1
HATCH
  2
AcDbHatch
  3
AutoCAD 2000
 90
    32768
280
     0
281
     1
  0
CLASS
  1
ACDBDICTIONARYWDFLT
  2
AcDbDictionaryWithDefault
  3
AutoCAD 2000
 90
        0
280
     0
281
     0
  0
CLASS
  1
ACDBPLACEHOLDER
  2
AcDbPlaceHolder
  3
AutoCAD 2000
 90
        0
280
     0
281
     0
  0
CLASS
  1
LAYOUT
  2
AcDbLayout
  3
AutoCAD 2000
 90
        0
280
     0
281
     0
  0
CLASS
  1
LONG_TRANSACTION
  2
AcDbLongTransaction
  3
AutoCAD 2000
 90
    32768
280
     0
281
     0
  0
CLASS
  1
LWPOLYLINE
  2
AcDbPolyline
  3
AutoCAD 2000
 90
    32768
280
     0
281
     1
  0
CLASS
  1
HATCH
  2
AcDbHatch
  3
AutoCAD 2000
 90
    32768
280
     0
281
     1
  0
CLASS
  1
XRECORD
  2
AcDbXrecord
  3
AutoCAD 2000
 90
    32768
280
     0
281
     0
  0
CLASS
  1
LONG_TRANSACTION
  2
AcDbLongTransaction
  3
AutoCAD 2000
 90
    32768
280
     0
281
     0
  0
CLASS
  1
LWPOLYLINE
  2
AcDbPolyline
  3
AutoCAD 2000
 90
    32768
280
     0
281
     1
  0
CLASS
  1
HATCH
  2
AcDbHatch
  3
AutoCAD 2000
 90
    32768
280
     0
281
     1
  0
CLASS
  1
XRECORD
  2
AcDbXrecord
  3
AutoCAD 2000
 90
    32768
280
     0
281
     0
  0
CLASS
  1
LONG_TRANSACTION
  2
AcDbLongTransaction
  3
AutoCAD 2000
 90
    32768
280
     0
281
     0
  0
CLASS
  1
LWPOLYLINE
  2
AcDbPolyline
  3
AutoCAD 2000
 90
    32768
280
     0
281
     1
  0
CLASS
  1
HATCH
  2
AcDbHatch
  3
AutoCAD 2000
 90
    32768
280
     0
281
     1
  0
CLASS
  1
XRECORD
  2
AcDbXrecord
  3
AutoCAD 2000
 90
    32768
280
     0
281
     0
  0
CLASS
  1
LONG_TRANSACTION
  2
AcDbLongTransaction
  3
AutoCAD 2000
 90
    32768
280
     0
281
     0
  0
CLASS
  1
LWPOLYLINE
  2
AcDbPolyline
  3
AutoCAD 2000
 90
    32768
280
     0
281
     1
  0
CLASS
  1
HATCH
  2
AcDbHatch
  3
AutoCAD 2000
 90
    32768
280
     0
281
     1
  0
CLASS
  1
XRECORD
  2
AcDbXrecord
  3
AutoCAD 2000
 90
    32768
280
     0
281
     0
  0
CLASS
  1
LONG_TRANSACTION
  2
AcDbLongTransaction
  3
AutoCAD 2000
 90
    32768
280
     0
281
     0
  0
CLASS
  1
LWPOLYLINE
  2
AcDbPolyline
  3
AutoCAD 2000
 90
    32768
280
     0
281
     1
  0
CLASS
  1
HATCH
  2
AcDbHatch
  3
AutoCAD 2000
 90
    32768
280
     0
281
     1
  0
CLASS
  1
XRECORD
  2
AcDbXrecord
  3
AutoCAD 2000
 90
    32768
280
     0
281
     0
  0
CLASS
  1
LONG_TRANSACTION
  2
AcDbLongTransaction
  3
AutoCAD 2000
 90
    32768
280
     0
281
     0
  0
CLASS
  1
LWPOLYLINE
  2
AcDbPolyline
  3
AutoCAD 2000
 90
    32768
280
     0
281
     1
  0
CLASS
  1
HATCH
  2
AcDbHatch
  3
AutoCAD 2000
 90
    32768
280
     0
281
     1
  0
CLASS
  1
XRECORD
  2
AcDbXrecord
  3
AutoCAD 2000
 90
    32768
280
     0
281
     0
  0
CLASS
  1
LONG_TRANSACTION
  2
AcDbLongTransaction
  3
AutoCAD 2000
 90
    32768
280
     0
281
     0
  0
CLASS
  1
LWPOLYLINE
  2
AcDbPolyline
  3
AutoCAD 2000
 90
    32768
280
     0
281
     1
  0
CLASS
  1
HATCH
  2
AcDbHatch
  3
AutoCAD 2000
 90
    32768
280
     0
281
     1
  0
CLASS
  1
XRECORD
  2
AcDbXrecord
  3
AutoCAD 2000
 90
    32768
280
     0
281
     0
  0
CLASS
  1
LONG_TRANSACTION
  2
AcDbLongTransaction
  3
AutoCAD 2000
 90
    32768
280
     0
281
     0
  0
CLASS
  1
LWPOLYLINE
  2
AcDbPolyline
  3
AutoCAD 2000
 90
    32768
280
     0
281
     1
  0
CLASS
  1
HATCH
  2
AcDbHatch
  3
AutoCAD 2000
 90
    32768
280
     0
281
     1
  0
CLASS
  1
XRECORD
  2
AcDbXrecord
  3
AutoCAD 2000
 90
    32768
280
     0
281
     0
  0
CLASS
  1
LONG_TRANSACTION
  2
AcDbLongTransaction
  3
AutoCAD 2000
 90
    32768
280
     0
281
     0
  0
CLASS
  1
LWPOLYLINE
  2
AcDbPolyline
  3
AutoCAD 2000
 90
    32768
280
     0
281
     1
  0
CLASS
  1
HATCH
  2
AcDbHatch
  3
AutoCAD 2000
 90
    32768
280
     0
281
     1
  0
CLASS
  1
XRECORD
  2
AcDbXrecord
  3
AutoCAD 2000
 90
    32768
280
     0
281
     0
  0
CLASS
  1
LONG_TRANSACTION
  2
AcDbLongTransaction
  3
AutoCAD 2000
 90
    32768
280
     0
281
     0
  0
CLASS
  1
LWPOLYLINE
  2
AcDbPolyline
  3
AutoCAD 2000
 90
    32768
280
     0
281
     1
  0
CLASS
  1
HATCH
  2
AcDbHatch
  3
AutoCAD 2000
 90
    32768
280
     0
281
     1
  0
CLASS
  1
XRECORD
  2
AcDbXrecord
  3
AutoCAD 2000
 90
    32768
280
     0
281
     0
  0
CLASS
  1
LONG_TRANSACTION
  2
AcDbLongTransaction
  3
AutoCAD 2000
 90
    32768
280
     0
281
     0
  0
CLASS
  1
LWPOLYLINE
  2
AcDbPolyline
  3
AutoCAD 2000
 90
    32768
280
     0
281
     1
  0
CLASS
  1
HATCH
  2
AcDbHatch
  3
AutoCAD 2000
 90
    32768
280
     0
281
     1
  0
CLASS
  1
XRECORD
  2
AcDbXrecord
  3
AutoCAD 2000
 90
    32768
280
     0
281
     0
  0
CLASS
  1
LONG_TRANSACTION
  2
AcDbLongTransaction
  3
AutoCAD 2000
 90
    32768
280
     0
281
     0
  0
CLASS
  1
LWPOLYLINE
  2
AcDbPolyline
  3
AutoCAD 2000
 90
    32768
280
     0
281
     1
  0
CLASS
  1
HATCH
  2
AcDbHatch
  3
AutoCAD 2000
 90
    32768
280
     0
281
     1
  0
CLASS
  1
XRECORD
  2
AcDbXrecord
  3
AutoCAD 2000
 90
    32768
280
     0
281
     0
  0
CLASS
  1
LONG_TRANSACTION
  2
AcDbLongTransaction
  3
AutoCAD 2000
 90
    32768
280
     0
281
     0
  0
CLASS
  1
LWPOLYLINE
  2
AcDbPolyline
  3
AutoCAD 2000
 90
    32768
280
     0
281
     1
  0
CLASS
  1
HATCH
  2
AcDbHatch
  3
AutoCAD 2000
 90
    32768
280
     0
281
     1
  0
CLASS
  1
XRECORD
  2
AcDbXrecord
  3
AutoCAD 2000
 90
    32768
280
     0
281
     0
  0
CLASS
  1
LONG_TRANSACTION
  2
AcDbLongTransaction
  3
AutoCAD 2000
 90
    32768
280
     0
281
     0
  0
CLASS
  1
LWPOLYLINE
  2
AcDbPolyline
  3
AutoCAD 2000
 90
    32768
280
     0
281
     1
  0
CLASS
  1
HATCH
  2
AcDbHatch
  3
AutoCAD 2000
 90
    32768
280
     0
281
     1
  0
CLASS
  1
XRECORD
  2
AcDbXrecord
  3
AutoCAD 2000
 90
    32768
280
     0
281
     0
  0
CLASS
  1
LONG_TRANSACTION
  2
AcDbLongTransaction
  3
AutoCAD 2000
 90
    32768
280
     0
281
     0
  0
CLASS
  1
LWPOLYLINE
  2
AcDbPolyline
  3
AutoCAD 2000
 90
    32768
280
     0
281
     1
  0
CLASS
  1
HATCH
  2
AcDbHatch
  3
AutoCAD 2000
 90
    32768
280
     0
281
     1
  0
CLASS
  1
XRECORD
  2
AcDbXrecord
  3
AutoCAD 2000
 90
    32768
280
     0
281
     0
  0
CLASS
  1
LONG_TRANSACTION
  2
AcDbLongTransaction
  3
AutoCAD 2000
 90
    32768
280
     0
281
     0
  0
CLASS
  1
LWPOLYLINE
  2
AcDbPolyline
  3
AutoCAD 2000
 90
    32768
280
     0
281
     1
  0
CLASS
  1
HATCH
  2
AcDbHatch
  3
AutoCAD 2000
 90
    32768
280
     0
281
     1
  0
CLASS
  1
XRECORD
  2
AcDbXrecord
  3
AutoCAD 2000
 90
    32768
280
     0
281
     0
  0
CLASS
  1
LONG_TRANSACTION
  2
AcDbLongTransaction
  3
AutoCAD 2000
 90
    32768
280
     0
281
     0
  0
CLASS
  1
LWPOLYLINE
  2
AcDbPolyline
  3
AutoCAD 2000
 90
    32768
280
     0
281
     1
  0
CLASS
  1
HATCH
  2
AcDbHatch
  3
AutoCAD 2000
 90
    32768
280
     0
281
     1
  0
CLASS
  1
XRECORD
  2
AcDbXrecord
  3
AutoCAD 2000
 90
    32768
280
     0
281
     0
  0
CLASS
  1
LONG_TRANSACTION
  2
AcDbLongTransaction
  3
AutoCAD 2000
 90
    32768
280
     0
281
     0
  0
CLASS
  1
LWPOLYLINE
  2
AcDbPolyline
  3
AutoCAD 2000
 90
    32768
280
     0
281
     1
  0
CLASS
  1
HATCH
  2
AcDbHatch
  3
AutoCAD 2000
 90
    32768
280
     0
281
     1
  0
CLASS
  1
XRECORD
  2
AcDbXrecord
  3
AutoCAD 2000
 90
    32768
280
     0
281
     0
  0
CLASS
  1
LONG_TRANSACTION
  2
AcDbLongTransaction
  3
AutoCAD 2000
 90
    32768
280
     0
281
     0
  0
CLASS
  1
LWPOLYLINE
  2
AcDbPolyline
  3
AutoCAD 2000
 90
    32768
280
     0
281
     1
  0
CLASS
  1
HATCH
  2
AcDbHatch
  3
AutoCAD 2000
 90
    32768
280
     0
281
     1
  0
CLASS
  1
XRECORD
  2
AcDbXrecord
  3
AutoCAD 2000
 90
    32768
280
     0
281
     0
  0
CLASS
  1
LONG_TRANSACTION
  2
AcDbLongTransaction
  3
AutoCAD 2000
 90
    32768
280
     0
281
     0
  0
CLASS
  1
LWPOLYLINE
  2
AcDbPolyline
  3
AutoCAD 2000
 90
    32768
280
     0
281
     1
  0
CLASS
  1
HATCH
  2
AcDbHatch
  3
AutoCAD 2000
 90
    32768
280
     0
281
     1
  0
CLASS
  1
XRECORD
  2
AcDbXrecord
  3
AutoCAD 2000
 90
    32768
280
     0
281
     0
  0
CLASS
  1
LONG_TRANSACTION
  2
AcDbLongTransaction
  3
AutoCAD 2000
 90
    32768
280
     0
281
     0
  0
CLASS
  1
LWPOLYLINE
  2
AcDbPolyline
  3
AutoCAD 2000
 90
    32768
280
     0
281
     1
  0
CLASS
  1
HATCH
  2
AcDbHatch
  3
AutoCAD 2000
 90
    32768
280
     0
281
     1
  0
CLASS
  1
XRECORD
  2
AcDbXrecord
  3
AutoCAD 2000
 90
    32768
280
     0
281
     0
  0
CLASS
  1
LONG_TRANSACTION
  2
AcDbLongTransaction
  3
AutoCAD 2000
 90
    32768
280
     0
281
     0
  0
CLASS
  1
LWPOLYLINE
  2
AcDbPolyline
  3
AutoCAD 2000
 90
    32768
280
     0
281
     1
  0
CLASS
  1
HATCH
  2
AcDbHatch
  3
AutoCAD 2000
 90
    32768
280
     0
281
     1
  0
CLASS
  1
XRECORD
  2
AcDbXrecord
  3
AutoCAD 2000
 90
    32768
280
     0
281
     0
  0
CLASS
  1
LONG_TRANSACTION
  2
AcDbLongTransaction
  3
AutoCAD 2000
 90
    32768
280
     0
281
     0
  0
CLASS
  1
LWPOLYLINE
  2
AcDbPolyline
  3
AutoCAD 2000
 90
    32768
280
     0
281
     1
  0
CLASS
  1
HATCH
  2
AcDbHatch
  3
AutoCAD 2000
 90
    32768
280
     0
281
     1
  0
CLASS
  1
XRECORD
  2
AcDbXrecord
  3
AutoCAD 2000
 90
    32768
280
     0
281
     0
  0
CLASS
  1
LONG_TRANSACTION
  2
AcDbLongTransaction
  3
AutoCAD 2000
 90
    32768
280
     0
281
     0
  0
CLASS
  1
LWPOLYLINE
  2
AcDbPolyline
  3
AutoCAD 2000
 90
    32768
280
     0
281
     1
  0
CLASS
  1
HATCH
  2
AcDbHatch
  3
AutoCAD 2000
 90
    32768
280
     0
281
     1
  0
CLASS
  1
XRECORD
  2
AcDbXrecord
  3
AutoCAD 2000
 90
    32768
280
     0
281
     0
  0
CLASS
  1
LONG_TRANSACTION
  2
AcDbLongTransaction
  3
AutoCAD 2000
 90
    32768
280
     0
281
     0
  0
CLASS
  1
LWPOLYLINE
  2
AcDbPolyline
  3
AutoCAD 2000
 90
    32768
280
     0
281
     1
  0
CLASS
  1
HATCH
  2
AcDbHatch
  3
AutoCAD 2000
 90
    32768
280
     0
281
     1
  0
CLASS
  1
XRECORD
  2
AcDbXrecord
  3
AutoCAD 2000
 90
    32768
280
     0
281
     0
  0
CLASS
  1
LONG_TRANSACTION
  2
AcDbLongTransaction
  3
AutoCAD 2000
 90
    32768
280
     0
281
     0
  0
CLASS
  1
LWPOLYLINE
  2
AcDbPolyline
  3
AutoCAD 2000
 90
    32768
280
     0
281
     1
  0
CLASS
  1
HATCH
  2
AcDbHatch
  3
AutoCAD 2000
 90
    32768
280
     0
281
     1
  0
CLASS
  1
XRECORD
  2
AcDbXrecord
  3
AutoCAD 2000
 90
    32768
280
     0
281
     0
  0
CLASS
  1
LONG_TRANSACTION
  2
AcDbLongTransaction
  3
AutoCAD 2000
 90
    32768
280
     0
281
     0
  0
CLASS
  1
LWPOLYLINE
  2
AcDbPolyline
  3
AutoCAD 2000
 90
    32768
280
     0
281
     1
  0
CLASS
  1
HATCH
  2
AcDbHatch
  3
AutoCAD 2000
 90
    32768
280
     0
281
     1
  0
CLASS
  1
XRECORD
  2
AcDbXrecord
  3
AutoCAD 2000
 90
    32768
280
     0
281
     0
  0
CLASS
  1
LONG_TRANSACTION
  2
AcDbLongTransaction
  3
AutoCAD 2000
 90
    32768
280
     0
281
     0
  0
CLASS
  1
LWPOLYLINE
  2
AcDbPolyline
  3
AutoCAD 2000
 90
    32768
280
     0
281
     1
  0
CLASS
  1
HATCH
  2
AcDbHatch
  3
AutoCAD 2000
 90
    32768
280
     0
281
     1
  0
CLASS
  1
XRECORD
  2
AcDbXrecord
  3
AutoCAD 2000
 90
    32768
280
     0
281
     0
  0
CLASS
  1
LONG_TRANSACTION
  2
AcDbLongTransaction
  3
AutoCAD 2000
 90
    32768
280
     0
281
     0
  0
CLASS
  1
LWPOLYLINE
  2
AcDbPolyline
  3
AutoCAD 2000
 90
    32768
280
     0
281
     1
  0
CLASS
  1
HATCH
  2
AcDbHatch
  3
AutoCAD 2000
 90
    32768
280
     0
281
     1
  0
CLASS
  1
XRECORD
  2
AcDbXrecord
  3
AutoCAD 2000
 90
    32768
280
     0
281
     0
  0
CLASS
  1
LONG_TRANSACTION
  2
AcDbLongTransaction
  3
AutoCAD 2000
 90
    32768
280
     0
281
     0
  0
CLASS
  1
LWPOLYLINE
  2
AcDbPolyline
  3
AutoCAD 2000
 90
    32768
280
     0
281
     1
  0
CLASS
  1
HATCH
  2
AcDbHatch
  3
AutoCAD 2000
 90
    32768
280
     0
281
     1
  0
CLASS
  1
XRECORD
  2
AcDbXrecord
  3
AutoCAD 2000
 90
    32768
280
     0
281
     0
  0
CLASS
  1
LONG_TRANSACTION
  2
AcDbLongTransaction
  3
AutoCAD 2000
 90
    32768
280
     0
281
     0
  0
CLASS
  1
LWPOLYLINE
  2
AcDbPolyline
  3
AutoCAD 2000
 90
    32768
280
     0
281
     1
  0
CLASS
  1
HATCH
  2
AcDbHatch
  3
AutoCAD 2000
 90
    32768
280
     0
281
     1
  0
CLASS
  1
XRECORD
  2
AcDbXrecord
  3
AutoCAD 2000
 90
    32768
280
     0
281
     0
  0
ENDSEC
  0
SECTION
  2
TABLES
  0
TABLE
  2
VPORT
  5
1E
330
0
100
AcDbSymbolTable
 70
     3
  0
VPORT
  5
2DE9
330
1E
100
AcDbSymbolTableRecord
100
AcDbViewportTableRecord
  2
*Active
 70
     0
 10
0.0
 20
0.0
 11
1.0
 21
1.0
 12
-39.05645572044886
 22
9.224268775929203
 13
0.0
 23
0.0
 14
1.0
 24
1.0
 15
2.0
 25
2.0
 16
0.0
 26
0.0
 36
1.0
 17
0.0
 27
0.0
 37
0.0
 40
1365.353529203558
 41
1.709909909909909
 42
50.0
 43
0.0
 44
0.0
 50
0.0
 51
0.0
 71
     0
 72
   100
 73
     1
 74
     1
 75
     0
 76
     0
 77
     0
 78
     0
281
     0
 65
     1
110
0.0
120
0.0
130
0.0
111
1.0
121
0.0
131
0.0
112
0.0
122
1.0
132
0.0
 79
     0
146
0.0
  0
ENDTAB
  0
TABLE
  2
LTYPE
  5
19
330
0
100
AcDbSymbolTable
 70
     3
  0
LTYPE
  5
1A
330
19
100
AcDbSymbolTableRecord
100
AcDbLinetypeTableRecord
  2
BYBLOCK
 70
     0
  3

 72
    65
 73
     0
 40
0.0
  0
LTYPE
  5
1B
330
19
100
AcDbSymbolTableRecord
100
AcDbLinetypeTableRecord
  2
BYLAYER
 70
     0
  3

 72
    65
 73
     0
 40
0.0
  0
LTYPE
  5
A
330
19
100
AcDbSymbolTableRecord
100
AcDbLinetypeTableRecord
  2
CONTINUOUS
 70
     0
  3
Solid line
 72
    65
 73
     0
 40
0.0
  0
LTYPE
  5
68
330
19
100
AcDbSymbolTableRecord
100
AcDbLinetypeTableRecord
  2
DASHED2
 70
     0
  3
Dashed (.5x) _ _ _ _ _ _ _ _ _ _ _ _ _ _ _ _ _
 72
    65
 73
     2
 40
9.529999999999999
 49
6.349999999999998
 74
     0
 49
-3.18
 74
     0
  0
LTYPE
  5
76
330
19
100
AcDbSymbolTableRecord
100
AcDbLinetypeTableRecord
  2
CENTER
 70
     0
  3
Center ____ _ ____ _ ____ _ ____ _ ____ _ ____
 72
    65
 73
     4
 40
50.8
 49
31.75
 74
     0
 49
-6.349999999999998
 74
     0
 49
6.349999999999998
 74
     0
 49
-6.349999999999998
 74
     0
  0
ENDTAB
  0
TABLE
  2
LAYER
  5
14
330
0
100
AcDbSymbolTable
 70
     3
  0
LAYER
  5
6
330
14
100
AcDbSymbolTableRecord
100
AcDbLayerTableRecord
  2
0
 70
     0
 62
     7
  6
CONTINUOUS
370
    -3
390
7
  0
LAYER
  5
3F
330
14
100
AcDbSymbolTableRecord
100
AcDbLayerTableRecord
  2
DEFPOINTS
 70
     0
 62
     7
  6
CONTINUOUS
290
     0
370
    -3
390
7
  0
LAYER
  5
26
330
14
100
AcDbSymbolTableRecord
100
AcDbLayerTableRecord
  2
画層1
 70
     0
 62
     7
  6
CONTINUOUS
370
    -3
390
7
  0
ENDTAB
  0
TABLE
  2
STYLE
  5
15
330
0
100
AcDbSymbolTable
 70
     2
  0
STYLE
  5
16
330
15
100
AcDbSymbolTableRecord
100
AcDbTextStyleTableRecord
  2
STANDARD
 70
     0
 40
2.5
 41
1.0
 50
0.0
 71
     0
 42
1.5
  3
MS PMincho.ttf
  4

1001
ACAD
1000
MS PMincho
1071
    32786
  0
STYLE
  5
27
330
15
100
AcDbSymbolTableRecord
100
AcDbTextStyleTableRecord
  2
STYLE1
 70
     0
 40
2.5
 41
1.0
 50
0.0
 71
     0
 42
2.5
  3
MS Gothic.ttf
  4

1001
ACAD
1000
MS Gothic
1071
    32817
  0
ENDTAB
  0
TABLE
  2
VIEW
  5
1C
330
0
100
AcDbSymbolTable
 70
     0
  0
ENDTAB
  0
TABLE
  2
UCS
  5
1D
330
0
100
AcDbSymbolTable
 70
     0
  0
ENDTAB
  0
TABLE
  2
APPID
  5
20
330
0
100
AcDbSymbolTable
 70
     1
  0
APPID
  5
17
330
20
100
AcDbSymbolTableRecord
100
AcDbRegAppTableRecord
  2
ACAD
 70
     0
  0
ENDTAB
  0
TABLE
  2
DIMSTYLE
  5
21
330
0
100
AcDbSymbolTable
 70
     1
100
AcDbDimStyleTable
 71
     1
340
35
  0
DIMSTYLE
105
35
102
{ACAD_REACTORS
330
2C7F
330
2C96
330
2CA3
330
2CB0
330
2CC6
330
2CDD
330
2CEA
330
2D09
330
2D16
330
2D3E
102
}
330
21
100
AcDbSymbolTableRecord
100
AcDbDimStyleTableRecord
  2
STANDARD_WS
 70
     0
 41
1.5
 42
0.63
 43
3.75
 44
1.25
 73
     0
 74
     0
 77
     1
 78
     8
140
2.5
141
2.5
143
0.04
147
0.63
171
     4
172
     1
173
     1
273
     8
274
     4
340
16
341
2E
343
2E
344
2E
  0
ENDTAB
  0
TABLE
  2
BLOCK_RECORD
  5
1
330
0
100
AcDbSymbolTable
 70
    13
  0
BLOCK_RECORD
  5
2
102
{ACAD_XDICTIONARY
360
3
102
}
330
1
100
AcDbSymbolTableRecord
100
AcDbBlockTableRecord
  2
*MODEL_SPACE
340
560
  0
BLOCK_RECORD
  5
E
102
{ACAD_XDICTIONARY
360
F
102
}
330
1
100
AcDbSymbolTableRecord
100
AcDbBlockTableRecord
  2
*PAPER_SPACE
340
561
  0
BLOCK_RECORD
  5
2E
330
1
100
AcDbSymbolTableRecord
100
AcDbBlockTableRecord
  2
_OPEN
340
0
  0
BLOCK_RECORD
  5
28
330
1
100
AcDbSymbolTableRecord
100
AcDbBlockTableRecord
  2
_OPEN30
340
0
102
{BLKREFS
331
2C84
331
2C85
331
2C90
331
2C91
331
2C9B
331
2C9C
331
2CA8
331
2CA9
331
2CB5
331
2CB6
331
2CC0
331
2CC1
331
2CCB
331
2CCC
331
2CD6
331
2CD7
331
2CE2
331
2CE3
331
2CEF
331
2CF0
331
2CFA
331
2CFB
331
2D0E
331
2D0F
331
2D1B
331
2D1C
331
2D26
331
2D27
331
2D2F
331
2D30
331
2D38
331
2D39
331
2D43
331
2D44
331
2D4F
331
2D50
331
2D59
331
2D5A
102
}
  0
BLOCK_RECORD
  5
121
330
1
100
AcDbSymbolTableRecord
100
AcDbBlockTableRecord
  2
_DOTSMALL
340
0
  0
BLOCK_RECORD
  5
2C80
330
1
100
AcDbSymbolTableRecord
100
AcDbBlockTableRecord
  2
*D3
340
0
  0
BLOCK_RECORD
  5
2C97
330
1
100
AcDbSymbolTableRecord
100
AcDbBlockTableRecord
  2
*D4
340
0
  0
BLOCK_RECORD
  5
2CA4
330
1
100
AcDbSymbolTableRecord
100
AcDbBlockTableRecord
  2
*D5
340
0
  0
BLOCK_RECORD
  5
2CB1
330
1
100
AcDbSymbolTableRecord
100
AcDbBlockTableRecord
  2
*D6
340
0
  0
BLOCK_RECORD
  5
2CC7
330
1
100
AcDbSymbolTableRecord
100
AcDbBlockTableRecord
  2
*D7
340
0
  0
BLOCK_RECORD
  5
2CDE
330
1
100
AcDbSymbolTableRecord
100
AcDbBlockTableRecord
  2
*D8
340
0
  0
BLOCK_RECORD
  5
2CEB
330
1
100
AcDbSymbolTableRecord
100
AcDbBlockTableRecord
  2
*D9
340
0
  0
BLOCK_RECORD
  5
2D0A
330
1
100
AcDbSymbolTableRecord
100
AcDbBlockTableRecord
  2
*D10
340
0
  0
BLOCK_RECORD
  5
2D17
330
1
100
AcDbSymbolTableRecord
100
AcDbBlockTableRecord
  2
*D11
340
0
  0
BLOCK_RECORD
  5
2D3F
330
1
100
AcDbSymbolTableRecord
100
AcDbBlockTableRecord
  2
*D12
340
0
  0
ENDTAB
  0
ENDSEC
  0
SECTION
  2
BLOCKS
  0
BLOCK
  5
5
330
2
100
AcDbEntity
  8
0
100
AcDbBlockBegin
  2
*MODEL_SPACE
 70
     0
 10
0.0
 20
0.0
 30
0.0
  3
*MODEL_SPACE
  1

  0
ENDBLK
  5
B
330
2
100
AcDbEntity
  8
0
100
AcDbBlockEnd
  0
BLOCK
  5
11
330
E
100
AcDbEntity
 67
     1
  8
0
100
AcDbBlockBegin
  2
*PAPER_SPACE
 70
     0
 10
0.0
 20
0.0
 30
0.0
  3
*PAPER_SPACE
  1

  0
ENDBLK
  5
12
330
E
100
AcDbEntity
 67
     1
  8
0
100
AcDbBlockEnd
  0
BLOCK
  5
32
330
2E
100
AcDbEntity
  8
0
100
AcDbBlockBegin
  2
_OPEN
 70
     0
 10
0.0
 20
0.0
 30
0.0
  3
_OPEN
  1

  0
LINE
  5
2F
330
2E
100
AcDbEntity
  8
0
  6
ByBlock
 62
     0
100
AcDbLine
 10
-1.0
 20
0.17
 30
0.0
 11
0.0
 21
0.0
 31
0.0
  0
LINE
  5
30
330
2E
100
AcDbEntity
  8
0
  6
ByBlock
 62
     0
100
AcDbLine
 10
0.0
 20
0.0
 30
0.0
 11
-1.0
 21
-0.17
 31
0.0
  0
LINE
  5
31
330
2E
100
AcDbEntity
  8
0
  6
ByBlock
 62
     0
100
AcDbLine
 10
0.0
 20
0.0
 30
0.0
 11
-1.0
 21
0.0
 31
0.0
  0
ENDBLK
  5
33
330
2E
100
AcDbEntity
  8
0
100
AcDbBlockEnd
  0
BLOCK
  5
2C
330
28
100
AcDbEntity
  8
0
100
AcDbBlockBegin
  2
_OPEN30
 70
     0
 10
0.0
 20
0.0
 30
0.0
  3
_OPEN30
  1

  0
LINE
  5
29
330
28
100
AcDbEntity
  8
0
  6
ByBlock
 62
     0
100
AcDbLine
 10
-1.0
 20
0.27
 30
0.0
 11
0.0
 21
0.0
 31
0.0
  0
LINE
  5
2A
330
28
100
AcDbEntity
  8
0
  6
ByBlock
 62
     0
100
AcDbLine
 10
0.0
 20
0.0
 30
0.0
 11
-1.0
 21
-0.27
 31
0.0
  0
LINE
  5
2B
330
28
100
AcDbEntity
  8
0
  6
ByBlock
 62
     0
100
AcDbLine
 10
0.0
 20
0.0
 30
0.0
 11
-1.0
 21
0.0
 31
0.0
  0
ENDBLK
  5
2D
330
28
100
AcDbEntity
  8
0
100
AcDbBlockEnd
  0
BLOCK
  5
123
330
121
100
AcDbEntity
  8
0
 62
     1
100
AcDbBlockBegin
  2
_DOTSMALL
 70
     0
 10
0.0
 20
0.0
 30
0.0
  3
_DOTSMALL
  1

  0
LWPOLYLINE
  5
122
330
121
100
AcDbEntity
  8
画層1
 62
     0
100
AcDbPolyline
 90
        2
 70
     1
 43
0.5
 10
-0.06
 20
0.0
 42
1.0
 10
0.06
 20
0.0
 42
1.0
  0
ENDBLK
  5
124
330
121
100
AcDbEntity
  8
0
 62
     1
100
AcDbBlockEnd
  0
BLOCK
  5
2C8A
330
2C80
100
AcDbEntity
  8
0
 62
     1
370
    20
100
AcDbBlockBegin
  2
*D3
 70
     1
 10
0.0
 20
0.0
 30
0.0
  3
*D3
  1

  0
LINE
  5
2C8C
330
2C80
100
AcDbEntity
  8
画層1
 62
     0
370
    -2
100
AcDbLine
 10
-456.0652295960735
 20
504.588776737169
 30
0.0
 11
-456.0652295960735
 21
571.6687782811657
 31
0.0
  0
LINE
  5
2C8D
330
2C80
100
AcDbEntity
  8
画層1
 62
     0
370
    -2
100
AcDbLine
 10
-445.0652295960735
 20
504.588776737169
 30
0.0
 11
-445.0652295960735
 21
571.6687782811657
 31
0.0
  0
LINE
  5
2C8E
330
2C80
100
AcDbEntity
  8
画層1
 62
     0
370
    -2
100
AcDbLine
 10
-454.5652295960735
 20
570.4187782811657
 30
0.0
 11
-446.5652295960735
 21
570.4187782811657
 31
0.0
  0
LINE
  5
2C8F
330
2C80
100
AcDbEntity
  8
画層1
 62
     0
370
    -2
100
AcDbLine
 10
-445.0652295960735
 20
570.4187782811657
 30
0.0
 11
-435.028618018843
 21
570.4187782811657
 31
0.0
  0
INSERT
  5
2C90
330
2C80
100
AcDbEntity
  8
画層1
 62
     0
370
    -2
100
AcDbBlockReference
  2
_OPEN30
 10
-456.0652295960735
 20
570.4187782811657
 30
0.0
 41
1.5
 42
1.5
 43
1.5
 50
180.0
  0
INSERT
  5
2C91
330
2C80
100
AcDbEntity
  8
画層1
 62
     0
370
    -2
100
AcDbBlockReference
  2
_OPEN30
 10
-445.0652295960735
 20
570.4187782811657
 30
0.0
 41
1.5
 42
1.5
 43
1.5
  0
MTEXT
  5
2C92
330
2C80
100
AcDbEntity
  8
画層1
 62
     0
370
    20
100
AcDbMText
 10
-437.4401348727756
 20
572.6687782811657
 30
0.0
 40
2.5
 41
0.0
 71
     5
 72
     1
  1
\A1;11
 73
     1
 44
1.0
  0
POINT
  5
2C93
330
2C80
100
AcDbEntity
  8
DEFPOINTS
 62
     0
370
    20
100
AcDbPoint
 10
-456.0652295960735
 20
503.958776737169
 30
0.0
  0
POINT
  5
2C94
330
2C80
100
AcDbEntity
  8
DEFPOINTS
 62
     0
370
    20
100
AcDbPoint
 10
-445.0652295960735
 20
503.958776737169
 30
0.0
  0
POINT
  5
2C95
330
2C80
100
AcDbEntity
  8
DEFPOINTS
 62
     0
370
    20
100
AcDbPoint
 10
-445.0652295960735
 20
570.4187782811657
 30
0.0
  0
ENDBLK
  5
2C8B
330
2C80
100
AcDbEntity
  8
0
 62
     1
370
    20
100
AcDbBlockEnd
  0
BLOCK
  5
2CA1
330
2C97
100
AcDbEntity
  8
0
 62
     1
370
    20
100
AcDbBlockBegin
  2
*D4
 70
     1
 10
0.0
 20
0.0
 30
0.0
  3
*D4
  1

  0
LINE
  5
2C98
330
2C97
100
AcDbEntity
  8
画層1
 62
     0
370
    -2
100
AcDbLine
 10
-450.5652295960735
 20
504.588776737169
 30
0.0
 11
-450.5652295960735
 21
583.9729776311103
 31
0.0
  0
LINE
  5
2C99
330
2C97
100
AcDbEntity
  8
画層1
 62
     0
370
    -2
100
AcDbLine
 10
-700.5652295960735
 20
504.588776737169
 30
0.0
 11
-700.5652295960735
 21
583.9729776311103
 31
0.0
  0
LINE
  5
2C9A
330
2C97
100
AcDbEntity
  8
画層1
 62
     0
370
    -2
100
AcDbLine
 10
-452.0652295960736
 20
582.7229776311103
 30
0.0
 11
-699.0652295960735
 21
582.7229776311103
 31
0.0
  0
INSERT
  5
2C9B
330
2C97
100
AcDbEntity
  8
画層1
 62
     0
370
    -2
100
AcDbBlockReference
  2
_OPEN30
 10
-450.5652295960735
 20
582.7229776311103
 30
0.0
 41
1.5
 42
1.5
 43
1.5
  0
INSERT
  5
2C9C
330
2C97
100
AcDbEntity
  8
画層1
 62
     0
370
    -2
100
AcDbBlockReference
  2
_OPEN30
 10
-700.5652295960735
 20
582.7229776311103
 30
0.0
 41
1.5
 42
1.5
 43
1.5
 50
180.0
  0
MTEXT
  5
2C9D
330
2C97
100
AcDbEntity
  8
画層1
 62
     0
370
    20
100
AcDbMText
 10
-575.5652295960735
 20
584.9729776311103
 30
0.0
 40
2.5
 41
0.0
 71
     5
 72
     1
  1
\A1;250
 73
     1
 44
1.0
  0
POINT
  5
2C9E
330
2C97
100
AcDbEntity
  8
DEFPOINTS
 62
     0
370
    20
100
AcDbPoint
 10
-450.5652295960735
 20
503.958776737169
 30
0.0
  0
POINT
  5
2C9F
330
2C97
100
AcDbEntity
  8
DEFPOINTS
 62
     0
370
    20
100
AcDbPoint
 10
-700.5652295960735
 20
503.958776737169
 30
0.0
  0
POINT
  5
2CA0
330
2C97
100
AcDbEntity
  8
DEFPOINTS
 62
     0
370
    20
100
AcDbPoint
 10
-700.5652295960735
 20
582.7229776311103
 30
0.0
  0
ENDBLK
  5
2CA2
330
2C97
100
AcDbEntity
  8
0
 62
     1
370
    20
100
AcDbBlockEnd
  0
BLOCK
  5
2CAE
330
2CA4
100
AcDbEntity
  8
0
 62
     1
370
    20
100
AcDbBlockBegin
  2
*D5
 70
     1
 10
0.0
 20
0.0
 30
0.0
  3
*D5
  1

  0
LINE
  5
2CA5
330
2CA4
100
AcDbEntity
  8
画層1
 62
     0
370
    -2
100
AcDbLine
 10
-375.5652295960735
 20
519.588776737169
 30
0.0
 11
-375.5652295960735
 21
593.9580742457317
 31
0.0
  0
LINE
  5
2CA6
330
2CA4
100
AcDbEntity
  8
画層1
 62
     0
370
    -2
100
AcDbLine
 10
-775.5652295960735
 20
519.588776737169
 30
0.0
 11
-775.5652295960735
 21
593.9580742457317
 31
0.0
  0
LINE
  5
2CA7
330
2CA4
100
AcDbEntity
  8
画層1
 62
     0
370
    -2
100
AcDbLine
 10
-377.0652295960735
 20
592.7080742457317
 30
0.0
 11
-774.0652295960735
 21
592.7080742457317
 31
0.0
  0
INSERT
  5
2CA8
330
2CA4
100
AcDbEntity
  8
画層1
 62
     0
370
    -2
100
AcDbBlockReference
  2
_OPEN30
 10
-375.5652295960735
 20
592.7080742457317
 30
0.0
 41
1.5
 42
1.5
 43
1.5
  0
INSERT
  5
2CA9
330
2CA4
100
AcDbEntity
  8
画層1
 62
     0
370
    -2
100
AcDbBlockReference
  2
_OPEN30
 10
-775.5652295960735
 20
592.7080742457317
 30
0.0
 41
1.5
 42
1.5
 43
1.5
 50
180.0
  0
MTEXT
  5
2CAA
330
2CA4
100
AcDbEntity
  8
画層1
 62
     0
370
    20
100
AcDbMText
 10
-575.5652295960735
 20
594.9580742457317
 30
0.0
 40
2.5
 41
0.0
 71
     5
 72
     1
  1
\A1;400
 73
     1
 44
1.0
  0
POINT
  5
2CAB
330
2CA4
100
AcDbEntity
  8
DEFPOINTS
 62
     0
370
    20
100
AcDbPoint
 10
-375.5652295960735
 20
518.958776737169
 30
0.0
  0
POINT
  5
2CAC
330
2CA4
100
AcDbEntity
  8
DEFPOINTS
 62
     0
370
    20
100
AcDbPoint
 10
-775.5652295960735
 20
518.958776737169
 30
0.0
  0
POINT
  5
2CAD
330
2CA4
100
AcDbEntity
  8
DEFPOINTS
 62
     0
370
    20
100
AcDbPoint
 10
-775.5652295960735
 20
592.7080742457317
 30
0.0
  0
ENDBLK
  5
2CAF
330
2CA4
100
AcDbEntity
  8
0
 62
     1
370
    20
100
AcDbBlockEnd
  0
BLOCK
  5
2CBB
330
2CB1
100
AcDbEntity
  8
0
 62
     1
370
    20
100
AcDbBlockBegin
  2
*D6
 70
     1
 10
0.0
 20
0.0
 30
0.0
  3
*D6
  1

  0
LINE
  5
2CD3
330
2CB1
100
AcDbEntity
  8
画層1
 62
     0
370
    -2
100
AcDbLine
 10
-374.9352295960735
 20
518.958776737169
 30
0.0
 11
-334.4319063991014
 21
518.958776737169
 31
0.0
  0
LINE
  5
2CD4
330
2CB1
100
AcDbEntity
  8
画層1
 62
     0
370
    -2
100
AcDbLine
 10
-374.9352295960735
 20
-31.04122326283095
 30
0.0
 11
-334.4319063991016
 21
-31.04122326283096
 31
0.0
  0
LINE
  5
2CD5
330
2CB1
100
AcDbEntity
  8
画層1
 62
     0
370
    -2
100
AcDbLine
 10
-335.6819063991014
 20
517.458776737169
 30
0.0
 11
-335.6819063991015
 21
-29.54122326283096
 31
0.0
  0
INSERT
  5
2CD6
330
2CB1
100
AcDbEntity
  8
画層1
 62
     0
370
    -2
100
AcDbBlockReference
  2
_OPEN30
 10
-335.6819063991014
 20
518.958776737169
 30
0.0
 41
1.5
 42
1.5
 43
1.5
 50
90.0
  0
INSERT
  5
2CD7
330
2CB1
100
AcDbEntity
  8
画層1
 62
     0
370
    -2
100
AcDbBlockReference
  2
_OPEN30
 10
-335.6819063991015
 20
-31.04122326283096
 30
0.0
 41
1.5
 42
1.5
 43
1.5
 50
270.0
  0
MTEXT
  5
2CD8
330
2CB1
100
AcDbEntity
  8
画層1
 62
     0
370
    20
100
AcDbMText
 10
-337.9319063991015
 20
243.9587767371689
 30
0.0
 40
2.5
 41
0.0
 71
     5
 72
     1
  1
\A1;550
 11
0.0000000000000001
 21
1.0
 31
0.0
 73
     1
 44
1.0
  0
POINT
  5
2CD9
330
2CB1
100
AcDbEntity
  8
DEFPOINTS
 62
     0
370
    20
100
AcDbPoint
 10
-375.5652295960735
 20
518.958776737169
 30
0.0
  0
POINT
  5
2CDA
330
2CB1
100
AcDbEntity
  8
DEFPOINTS
 62
     0
370
    20
100
AcDbPoint
 10
-375.5652295960735
 20
-31.04122326283095
 30
0.0
  0
POINT
  5
2CDB
330
2CB1
100
AcDbEntity
  8
DEFPOINTS
 62
     0
370
    20
100
AcDbPoint
 10
-335.6819063991015
 20
-31.04122326283096
 30
0.0
  0
ENDBLK
  5
2CBC
330
2CB1
100
AcDbEntity
  8
0
 62
     1
370
    20
100
AcDbBlockEnd
  0
BLOCK
  5
2CD1
330
2CC7
100
AcDbEntity
  8
0
 62
     1
370
    20
100
AcDbBlockBegin
  2
*D7
 70
     1
 10
0.0
 20
0.0
 30
0.0
  3
*D7
  1

  0
LINE
  5
2CC8
330
2CC7
100
AcDbEntity
  8
画層1
 62
     0
370
    -2
100
AcDbLine
 10
-381.9352295960736
 20
503.958776737169
 30
0.0
 11
-345.0973176650326
 21
503.958776737169
 31
0.0
  0
LINE
  5
2CC9
330
2CC7
100
AcDbEntity
  8
画層1
 62
     0
370
    -2
100
AcDbLine
 10
-381.9352295960736
 20
-16.04122326283095
 30
0.0
 11
-345.0973176650327
 21
-16.04122326283096
 31
0.0
  0
LINE
  5
2CCA
330
2CC7
100
AcDbEntity
  8
画層1
 62
     0
370
    -2
100
AcDbLine
 10
-346.3473176650326
 20
502.458776737169
 30
0.0
 11
-346.3473176650328
 21
-14.54122326283096
 31
0.0
  0
INSERT
  5
2CCB
330
2CC7
100
AcDbEntity
  8
画層1
 62
     0
370
    -2
100
AcDbBlockReference
  2
_OPEN30
 10
-346.3473176650326
 20
503.958776737169
 30
0.0
 41
1.5
 42
1.5
 43
1.5
 50
90.0
  0
INSERT
  5
2CCC
330
2CC7
100
AcDbEntity
  8
画層1
 62
     0
370
    -2
100
AcDbBlockReference
  2
_OPEN30
 10
-346.3473176650328
 20
-16.04122326283096
 30
0.0
 41
1.5
 42
1.5
 43
1.5
 50
270.0
  0
MTEXT
  5
2CCD
330
2CC7
100
AcDbEntity
  8
画層1
 62
     0
370
    20
100
AcDbMText
 10
-348.5973176650328
 20
243.958776737169
 30
0.0
 40
2.5
 41
0.0
 71
     5
 72
     1
  1
\A1;520
 11
0.0000000000000001
 21
1.0
 31
0.0
 73
     1
 44
1.0
  0
POINT
  5
2CCE
330
2CC7
100
AcDbEntity
  8
DEFPOINTS
 62
     0
370
    20
100
AcDbPoint
 10
-382.5652295960736
 20
503.958776737169
 30
0.0
  0
POINT
  5
2CCF
330
2CC7
100
AcDbEntity
  8
DEFPOINTS
 62
     0
370
    20
100
AcDbPoint
 10
-382.5652295960736
 20
-16.04122326283095
 30
0.0
  0
POINT
  5
2CD0
330
2CC7
100
AcDbEntity
  8
DEFPOINTS
 62
     0
370
    20
100
AcDbPoint
 10
-346.3473176650328
 20
-16.04122326283096
 30
0.0
  0
ENDBLK
  5
2CD2
330
2CC7
100
AcDbEntity
  8
0
 62
     1
370
    20
100
AcDbBlockEnd
  0
BLOCK
  5
2CE8
330
2CDE
100
AcDbEntity
  8
0
 62
     1
370
    20
100
AcDbBlockBegin
  2
*D8
 70
     1
 10
0.0
 20
0.0
 30
0.0
  3
*D8
  1

  0
LINE
  5
2CF7
330
2CDE
100
AcDbEntity
  8
画層1
 62
     0
370
    -2
100
AcDbLine
 10
-495.5652295960735
 20
-5.411223262831089
 30
0.0
 11
-495.5652295960735
 21
88.4151280378162
 31
0.0
  0
LINE
  5
2CF8
330
2CDE
100
AcDbEntity
  8
画層1
 62
     0
370
    -2
100
AcDbLine
 10
-655.5652295960735
 20
-5.411223262831089
 30
0.0
 11
-655.5652295960735
 21
88.4151280378162
 31
0.0
  0
LINE
  5
2CF9
330
2CDE
100
AcDbEntity
  8
画層1
 62
     0
370
    -2
100
AcDbLine
 10
-497.0652295960735
 20
87.1651280378162
 30
0.0
 11
-654.0652295960735
 21
87.1651280378162
 31
0.0
  0
INSERT
  5
2CFA
330
2CDE
100
AcDbEntity
  8
画層1
 62
     0
370
    -2
100
AcDbBlockReference
  2
_OPEN30
 10
-495.5652295960735
 20
87.1651280378162
 30
0.0
 41
1.5
 42
1.5
 43
1.5
  0
INSERT
  5
2CFB
330
2CDE
100
AcDbEntity
  8
画層1
 62
     0
370
    -2
100
AcDbBlockReference
  2
_OPEN30
 10
-655.5652295960735
 20
87.1651280378162
 30
0.0
 41
1.5
 42
1.5
 43
1.5
 50
180.0
  0
MTEXT
  5
2CFC
330
2CDE
100
AcDbEntity
  8
画層1
 62
     0
370
    20
100
AcDbMText
 10
-575.5652295960735
 20
89.4151280378162
 30
0.0
 40
2.5
 41
0.0
 71
     5
 72
     1
  1
\A1;160
 73
     1
 44
1.0
  0
POINT
  5
2CFD
330
2CDE
100
AcDbEntity
  8
DEFPOINTS
 62
     0
370
    20
100
AcDbPoint
 10
-495.5652295960735
 20
-6.041223262831088
 30
0.0
  0
POINT
  5
2CFE
330
2CDE
100
AcDbEntity
  8
DEFPOINTS
 62
     0
370
    20
100
AcDbPoint
 10
-655.5652295960735
 20
-6.041223262831088
 30
0.0
  0
POINT
  5
2CFF
330
2CDE
100
AcDbEntity
  8
DEFPOINTS
 62
     0
370
    20
100
AcDbPoint
 10
-655.5652295960735
 20
87.1651280378162
 30
0.0
  0
ENDBLK
  5
2CE9
330
2CDE
100
AcDbEntity
  8
0
 62
     1
370
    20
100
AcDbBlockEnd
  0
BLOCK
  5
2CF5
330
2CEB
100
AcDbEntity
  8
0
 62
     1
370
    20
100
AcDbBlockBegin
  2
*D9
 70
     1
 10
0.0
 20
0.0
 30
0.0
  3
*D9
  1

  0
LINE
  5
2CEC
330
2CEB
100
AcDbEntity
  8
画層1
 62
     0
370
    -2
100
AcDbLine
 10
-630.5652295960735
 20
57.58877673716891
 30
0.0
 11
-630.5652295960735
 21
71.71913482487139
 31
0.0
  0
LINE
  5
2CED
330
2CEB
100
AcDbEntity
  8
画層1
 62
     0
370
    -2
100
AcDbLine
 10
-680.5652295960735
 20
57.58877673716892
 30
0.0
 11
-680.5652295960735
 21
71.71913482487139
 31
0.0
  0
LINE
  5
2CEE
330
2CEB
100
AcDbEntity
  8
画層1
 62
     0
370
    -2
100
AcDbLine
 10
-632.0652295960735
 20
70.46913482487139
 30
0.0
 11
-679.0652295960735
 21
70.46913482487139
 31
0.0
  0
INSERT
  5
2CEF
330
2CEB
100
AcDbEntity
  8
画層1
 62
     0
370
    -2
100
AcDbBlockReference
  2
_OPEN30
 10
-630.5652295960735
 20
70.46913482487139
 30
0.0
 41
1.5
 42
1.5
 43
1.5
  0
INSERT
  5
2CF0
330
2CEB
100
AcDbEntity
  8
画層1
 62
     0
370
    -2
100
AcDbBlockReference
  2
_OPEN30
 10
-680.5652295960735
 20
70.46913482487139
 30
0.0
 41
1.5
 42
1.5
 43
1.5
 50
180.0
  0
MTEXT
  5
2CF1
330
2CEB
100
AcDbEntity
  8
画層1
 62
     0
370
    20
100
AcDbMText
 10
-655.5652295960735
 20
72.71913482487139
 30
0.0
 40
2.5
 41
0.0
 71
     5
 72
     1
  1
\A1;50
 73
     1
 44
1.0
  0
POINT
  5
2CF2
330
2CEB
100
AcDbEntity
  8
DEFPOINTS
 62
     0
370
    20
100
AcDbPoint
 10
-630.5652295960735
 20
56.9587767371689
 30
0.0
  0
POINT
  5
2CF3
330
2CEB
100
AcDbEntity
  8
DEFPOINTS
 62
     0
370
    20
100
AcDbPoint
 10
-680.5652295960735
 20
56.95877673716892
 30
0.0
  0
POINT
  5
2CF4
330
2CEB
100
AcDbEntity
  8
DEFPOINTS
 62
     0
370
    20
100
AcDbPoint
 10
-680.5652295960735
 20
70.46913482487139
 30
0.0
  0
ENDBLK
  5
2CF6
330
2CEB
100
AcDbEntity
  8
0
 62
     1
370
    20
100
AcDbBlockEnd
  0
BLOCK
  5
2D14
330
2D0A
100
AcDbEntity
  8
0
 62
     1
370
    20
100
AcDbBlockBegin
  2
*D10
 70
     1
 10
0.0
 20
0.0
 30
0.0
  3
*D10
  1

  0
LINE
  5
2D0B
330
2D0A
100
AcDbEntity
  8
画層1
 62
     0
370
    -2
100
AcDbLine
 10
234.9663602109595
 20
517.5887767371689
 30
0.0
 11
234.9663602109595
 21
567.3802833689794
 31
0.0
  0
LINE
  5
2D0C
330
2D0A
100
AcDbEntity
  8
画層1
 62
     0
370
    -2
100
AcDbLine
 10
-130.0336397890404
 20
519.588776737169
 30
0.0
 11
-130.0336397890404
 21
567.3802833689794
 31
0.0
  0
LINE
  5
2D0D
330
2D0A
100
AcDbEntity
  8
画層1
 62
     0
370
    -2
100
AcDbLine
 10
233.4663602109595
 20
566.1302833689794
 30
0.0
 11
-128.5336397890404
 21
566.1302833689794
 31
0.0
  0
INSERT
  5
2D0E
330
2D0A
100
AcDbEntity
  8
画層1
 62
     0
370
    -2
100
AcDbBlockReference
  2
_OPEN30
 10
234.9663602109595
 20
566.1302833689794
 30
0.0
 41
1.5
 42
1.5
 43
1.5
  0
INSERT
  5
2D0F
330
2D0A
100
AcDbEntity
  8
画層1
 62
     0
370
    -2
100
AcDbBlockReference
  2
_OPEN30
 10
-130.0336397890404
 20
566.1302833689794
 30
0.0
 41
1.5
 42
1.5
 43
1.5
 50
180.0
  0
MTEXT
  5
2D10
330
2D0A
100
AcDbEntity
  8
画層1
 62
     0
370
    20
100
AcDbMText
 10
52.46636021095952
 20
568.3802833689794
 30
0.0
 40
2.5
 41
0.0
 71
     5
 72
     1
  1
\A1;365
 73
     1
 44
1.0
  0
POINT
  5
2D11
330
2D0A
100
AcDbEntity
  8
DEFPOINTS
 62
     0
370
    20
100
AcDbPoint
 10
234.9663602109595
 20
516.9587767371689
 30
0.0
  0
POINT
  5
2D12
330
2D0A
100
AcDbEntity
  8
DEFPOINTS
 62
     0
370
    20
100
AcDbPoint
 10
-130.0336397890404
 20
518.958776737169
 30
0.0
  0
POINT
  5
2D13
330
2D0A
100
AcDbEntity
  8
DEFPOINTS
 62
     0
370
    20
100
AcDbPoint
 10
-130.0336397890404
 20
566.1302833689794
 30
0.0
  0
ENDBLK
  5
2D15
330
2D0A
100
AcDbEntity
  8
0
 62
     1
370
    20
100
AcDbBlockEnd
  0
BLOCK
  5
2D21
330
2D17
100
AcDbEntity
  8
0
 62
     1
370
    20
100
AcDbBlockBegin
  2
*D11
 70
     1
 10
0.0
 20
0.0
 30
0.0
  3
*D11
  1

  0
LINE
  5
2D35
330
2D17
100
AcDbEntity
  8
画層1
 62
     0
370
    -2
100
AcDbLine
 10
44.96636021095946
 20
519.588776737169
 30
0.0
 11
44.96636021095946
 21
557.6771875667994
 31
0.0
  0
LINE
  5
2D36
330
2D17
100
AcDbEntity
  8
画層1
 62
     0
370
    -2
100
AcDbLine
 10
234.9663602109595
 20
517.5887767371689
 30
0.0
 11
234.9663602109595
 21
557.6771875667994
 31
0.0
  0
LINE
  5
2D37
330
2D17
100
AcDbEntity
  8
画層1
 62
     0
370
    -2
100
AcDbLine
 10
46.46636021095946
 20
556.4271875667993
 30
0.0
 11
233.4663602109595
 21
556.4271875667993
 31
0.0
  0
INSERT
  5
2D38
330
2D17
100
AcDbEntity
  8
画層1
 62
     0
370
    -2
100
AcDbBlockReference
  2
_OPEN30
 10
44.96636021095946
 20
556.4271875667993
 30
0.0
 41
1.5
 42
1.5
 43
1.5
 50
180.0
  0
INSERT
  5
2D39
330
2D17
100
AcDbEntity
  8
画層1
 62
     0
370
    -2
100
AcDbBlockReference
  2
_OPEN30
 10
234.9663602109595
 20
556.4271875667993
 30
0.0
 41
1.5
 42
1.5
 43
1.5
  0
MTEXT
  5
2D3A
330
2D17
100
AcDbEntity
  8
画層1
 62
     0
370
    20
100
AcDbMText
 10
121.9663602109595
 20
558.6771875667993
 30
0.0
 40
2.5
 41
0.0
 71
     5
 72
     1
  1
\A1;190
 73
     1
 44
1.0
  0
POINT
  5
2D3B
330
2D17
100
AcDbEntity
  8
DEFPOINTS
 62
     0
370
    20
100
AcDbPoint
 10
44.96636021095946
 20
518.958776737169
 30
0.0
  0
POINT
  5
2D3C
330
2D17
100
AcDbEntity
  8
DEFPOINTS
 62
     0
370
    20
100
AcDbPoint
 10
234.9663602109595
 20
516.9587767371689
 30
0.0
  0
POINT
  5
2D3D
330
2D17
100
AcDbEntity
  8
DEFPOINTS
 62
     0
370
    20
100
AcDbPoint
 10
234.9663602109595
 20
556.4271875667993
 30
0.0
  0
ENDBLK
  5
2D22
330
2D17
100
AcDbEntity
  8
0
 62
     1
370
    20
100
AcDbBlockEnd
  0
BLOCK
  5
2D49
330
2D3F
100
AcDbEntity
  8
0
 62
     1
370
    20
100
AcDbBlockBegin
  2
*D12
 70
     1
 10
0.0
 20
0.0
 30
0.0
  3
*D12
  1

  0
LINE
  5
2D55
330
2D3F
100
AcDbEntity
  8
画層1
 62
     0
370
    -2
100
AcDbLine
 10
38.96636021095952
 20
519.588776737169
 30
0.0
 11
38.96636021095952
 21
557.6771875667994
 31
0.0
  0
LINE
  5
2D56
330
2D3F
100
AcDbEntity
  8
画層1
 62
     0
370
    -2
100
AcDbLine
 10
44.96636021095946
 20
557.0571875667993
 30
0.0
 11
44.96636021095946
 21
557.6771875667994
 31
0.0
  0
LINE
  5
2D57
330
2D3F
100
AcDbEntity
  8
画層1
 62
     0
370
    -2
100
AcDbLine
 10
43.46636021095946
 20
556.4271875667993
 30
0.0
 11
40.46636021095951
 21
556.4271875667993
 31
0.0
  0
LINE
  5
2D58
330
2D3F
100
AcDbEntity
  8
画層1
 62
     0
370
    -2
100
AcDbLine
 10
38.96636021095952
 20
556.4271875667993
 30
0.0
 11
33.59954073859072
 21
556.4271875667993
 31
0.0
  0
INSERT
  5
2D59
330
2D3F
100
AcDbEntity
  8
画層1
 62
     0
370
    -2
100
AcDbBlockReference
  2
_OPEN30
 10
44.96636021095946
 20
556.4271875667993
 30
0.0
 41
1.5
 42
1.5
 43
1.5
  0
INSERT
  5
2D5A
330
2D3F
100
AcDbEntity
  8
画層1
 62
     0
370
    -2
100
AcDbBlockReference
  2
_OPEN30
 10
38.96636021095952
 20
556.4271875667993
 30
0.0
 41
1.5
 42
1.5
 43
1.5
 50
180.0
  0
MTEXT
  5
2D5B
330
2D3F
100
AcDbEntity
  8
画層1
 62
     0
370
    20
100
AcDbMText
 10
35.3228553453323
 20
558.6771875667993
 30
0.0
 40
2.5
 41
0.0
 71
     5
 72
     1
  1
\A1;6
 73
     1
 44
1.0
  0
POINT
  5
2D5C
330
2D3F
100
AcDbEntity
  8
DEFPOINTS
 62
     0
370
    20
100
AcDbPoint
 10
38.96636021095952
 20
518.958776737169
 30
0.0
  0
POINT
  5
2D5D
330
2D3F
100
AcDbEntity
  8
DEFPOINTS
 62
     0
370
    20
100
AcDbPoint
 10
44.96636021095946
 20
556.4271875667993
 30
0.0
  0
POINT
  5
2D5E
330
2D3F
100
AcDbEntity
  8
DEFPOINTS
 62
     0
370
    20
100
AcDbPoint
 10
44.96636021095946
 20
556.4271875667993
 30
0.0
  0
ENDBLK
  5
2D4A
330
2D3F
100
AcDbEntity
  8
0
 62
     1
370
    20
100
AcDbBlockEnd
  0
ENDSEC
  0
SECTION
  2
ENTITIES
  0
LINE
  5
B81
330
2
100
AcDbEntity
  8
画層1
  6
CENTER
 62
     0
370
    20
100
AcDbLine
 10
-825.9909896840746
 20
243.958776737169
 30
0.0
 11
-356.4610914494069
 21
243.958776737169
 31
0.0
  0
LINE
  5
B84
330
2
100
AcDbEntity
  8
画層1
  6
CENTER
 62
     0
370
    20
100
AcDbLine
 10
-575.5652295960735
 20
566.2026521486473
 30
0.0
 11
-575.5652295960735
 21
-96.66896181072822
 31
0.0
  0
LINE
  5
BB4
330
2
100
AcDbEntity
  8
画層1
  6
CENTER
 62
     0
370
    20
100
AcDbLine
 10
-178.3343482701557
 20
243.958776737169
 30
0.0
 11
273.1419720262706
 21
243.958776737169
 31
0.0
  0
LWPOLYLINE
  5
118D
330
2
100
AcDbEntity
  8
画層1
 62
     0
370
    20
100
AcDbPolyline
 90
        4
 70
     1
 43
0.0
 10
-754.9652295960735
 20
88.95877673716904
 10
-741.9652295960735
 20
88.95877673716904
 10
-741.9652295960735
 20
86.95877673716905
 10
-754.9652295960735
 20
86.95877673716905
  0
LWPOLYLINE
  5
118E
330
2
100
AcDbEntity
  8
画層1
 62
     0
370
    20
100
AcDbPolyline
 90
        4
 70
     1
 43
0.0
 10
-754.9652295960735
 20
98.95877673716904
 10
-741.9652295960735
 20
98.95877673716904
 10
-741.9652295960735
 20
96.95877673716905
 10
-754.9652295960735
 20
96.95877673716905
  0
LWPOLYLINE
  5
118F
330
2
100
AcDbEntity
  8
画層1
 62
     0
370
    20
100
AcDbPolyline
 90
        4
 70
     1
 43
0.0
 10
-754.9652295960735
 20
108.958776737169
 10
-741.9652295960735
 20
108.958776737169
 10
-741.9652295960735
 20
106.958776737169
 10
-754.9652295960735
 20
106.958776737169
  0
LWPOLYLINE
  5
1190
330
2
100
AcDbEntity
  8
画層1
 62
     0
370
    20
100
AcDbPolyline
 90
        4
 70
     1
 43
0.0
 10
-754.9652295960735
 20
118.958776737169
 10
-741.9652295960735
 20
118.958776737169
 10
-741.9652295960735
 20
116.958776737169
 10
-754.9652295960735
 20
116.958776737169
  0
LWPOLYLINE
  5
1191
330
2
100
AcDbEntity
  8
画層1
 62
     0
370
    20
100
AcDbPolyline
 90
        4
 70
     1
 43
0.0
 10
-754.9652295960735
 20
128.958776737169
 10
-741.9652295960735
 20
128.958776737169
 10
-741.9652295960735
 20
126.958776737169
 10
-754.9652295960735
 20
126.958776737169
  0
LWPOLYLINE
  5
1192
330
2
100
AcDbEntity
  8
画層1
 62
     0
370
    20
100
AcDbPolyline
 90
        4
 70
     1
 43
0.0
 10
-754.9652295960735
 20
138.958776737169
 10
-741.9652295960735
 20
138.958776737169
 10
-741.9652295960735
 20
136.958776737169
 10
-754.9652295960735
 20
136.958776737169
  0
LWPOLYLINE
  5
1193
330
2
100
AcDbEntity
  8
画層1
 62
     0
370
    20
100
AcDbPolyline
 90
        4
 70
     1
 43
0.0
 10
-754.9652295960735
 20
148.958776737169
 10
-741.9652295960735
 20
148.958776737169
 10
-741.9652295960735
 20
146.958776737169
 10
-754.9652295960735
 20
146.958776737169
  0
LWPOLYLINE
  5
1194
330
2
100
AcDbEntity
  8
画層1
 62
     0
370
    20
100
AcDbPolyline
 90
        4
 70
     1
 43
0.0
 10
-754.9652295960735
 20
158.958776737169
 10
-741.9652295960735
 20
158.958776737169
 10
-741.9652295960735
 20
156.958776737169
 10
-754.9652295960735
 20
156.958776737169
  0
LWPOLYLINE
  5
1195
330
2
100
AcDbEntity
  8
画層1
 62
     0
370
    20
100
AcDbPolyline
 90
        4
 70
     1
 43
0.0
 10
-754.9652295960735
 20
168.958776737169
 10
-741.9652295960735
 20
168.958776737169
 10
-741.9652295960735
 20
166.958776737169
 10
-754.9652295960735
 20
166.958776737169
  0
LINE
  5
1197
330
2
100
AcDbEntity
  8
画層1
 62
     0
370
    20
100
AcDbLine
 10
-741.9652295960735
 20
168.958776737169
 30
0.0
 11
-741.9652295960735
 21
88.95877673716904
 31
0.0
  0
LINE
  5
1198
330
2
100
AcDbEntity
  8
画層1
 62
     0
370
    20
100
AcDbLine
 10
-754.9652295960735
 20
168.958776737169
 30
0.0
 11
-754.9652295960735
 21
88.95877673716904
 31
0.0
  0
LINE
  5
11B1
330
2
100
AcDbEntity
  8
画層1
 62
     0
370
    20
100
AcDbLine
 10
-750.4652295960735
 20
168.958776737169
 30
0.0
 11
-746.4652295960735
 21
168.958776737169
 31
0.0
  0
LINE
  5
11B9
330
2
100
AcDbEntity
  8
画層1
 62
     0
370
    20
100
AcDbLine
 10
-744.4652295960735
 20
164.9587767371691
 30
0.0
 11
-744.4652295960736
 21
160.958776637169
 31
0.0
  0
LINE
  5
11BB
330
2
100
AcDbEntity
  8
画層1
 62
     0
370
    20
100
AcDbLine
 10
-752.4652295960735
 20
164.958776737169
 30
0.0
 11
-752.4652295960734
 21
160.958776637169
 31
0.0
  0
LINE
  5
11BD
330
2
100
AcDbEntity
  8
画層1
 62
     0
370
    20
100
AcDbLine
 10
-747.9652295960735
 20
160.958776737169
 30
0.0
 11
-747.9652295960735
 21
162.458776737169
 31
0.0
  0
LINE
  5
11BE
330
2
100
AcDbEntity
  8
画層1
 62
     0
370
    20
100
AcDbLine
 10
-748.9652295960735
 20
162.458776737169
 30
0.0
 11
-748.9652295960735
 21
160.958776737169
 31
0.0
  0
CIRCLE
  5
11BF
330
2
100
AcDbEntity
  8
画層1
 62
     0
370
    20
100
AcDbCircle
 10
-748.4652295960735
 20
162.958776737169
 30
0.0
 40
3.0
  0
LINE
  5
11C0
330
2
100
AcDbEntity
  8
画層1
 62
     0
370
    20
100
AcDbLine
 10
-750.4652295960735
 20
158.958776737169
 30
0.0
 11
-746.4652295960735
 21
158.958776737169
 31
0.0
  0
ARC
  5
11C1
330
2
100
AcDbEntity
  8
画層1
 62
     0
370
    20
100
AcDbCircle
 10
-750.4652295960734
 20
160.9587767371688
 30
0.0
 40
2.0
100
AcDbArc
 50
179.9999999999951
 51
269.9999999999967
  0
ARC
  5
11C2
330
2
100
AcDbEntity
  8
画層1
 62
     0
370
    20
100
AcDbCircle
 10
-746.4652295960736
 20
160.9587767371689
 30
0.0
 40
2.0
100
AcDbArc
 50
270.0000000000032
 51
0.0000000000016284
  0
LINE
  5
11C3
330
2
100
AcDbEntity
  8
画層1
 62
     0
370
    20
100
AcDbLine
 10
-748.9652295960735
 20
160.958776737169
 30
0.0
 11
-747.9652295960735
 21
160.958776737169
 31
0.0
  0
LINE
  5
11C4
330
2
100
AcDbEntity
  8
画層1
 62
     0
370
    20
100
AcDbLine
 10
-750.4652295960735
 20
166.958776737169
 30
0.0
 11
-746.4652295960735
 21
166.958776737169
 31
0.0
  0
LINE
  5
11C5
330
2
100
AcDbEntity
  8
画層1
 62
     0
370
    20
100
AcDbLine
 10
-751.4232694876233
 20
162.458776737169
 30
0.0
 11
-748.9652295960735
 21
162.458776737169
 31
0.0
  0
LINE
  5
11C6
330
2
100
AcDbEntity
  8
画層1
 62
     0
370
    20
100
AcDbLine
 10
-748.9652295960735
 20
163.458776737169
 30
0.0
 11
-751.4232694876233
 21
163.458776737169
 31
0.0
  0
ARC
  5
11C7
330
2
100
AcDbEntity
  8
画層1
 62
     0
370
    20
100
AcDbCircle
 10
-750.4652295960736
 20
164.958776737169
 30
0.0
 40
2.0
100
AcDbArc
 50
89.99999999999674
 51
180.0000000000016
  0
ARC
  5
11C8
330
2
100
AcDbEntity
  8
画層1
 62
     0
370
    20
100
AcDbCircle
 10
-746.4652295960734
 20
164.9587767371691
 30
0.0
 40
2.0
100
AcDbArc
 50
359.9999999999967
 51
90.00000000000325
  0
LINE
  5
11C9
330
2
100
AcDbEntity
  8
画層1
 62
     0
370
    20
100
AcDbLine
 10
-747.9652295960735
 20
164.958776737169
 30
0.0
 11
-748.9652295960735
 21
164.958776737169
 31
0.0
  0
LINE
  5
11CA
330
2
100
AcDbEntity
  8
画層1
 62
     0
370
    20
100
AcDbLine
 10
-747.9652295960735
 20
163.458776737169
 30
0.0
 11
-747.9652295960735
 21
164.958776737169
 31
0.0
  0
LINE
  5
11CB
330
2
100
AcDbEntity
  8
画層1
 62
     0
370
    20
100
AcDbLine
 10
-745.5071897045237
 20
163.458776737169
 30
0.0
 11
-747.9652295960735
 21
163.458776737169
 31
0.0
  0
LINE
  5
11CC
330
2
100
AcDbEntity
  8
画層1
 62
     0
370
    20
100
AcDbLine
 10
-747.9652295960735
 20
162.458776737169
 30
0.0
 11
-745.5071897045237
 21
162.458776737169
 31
0.0
  0
LINE
  5
11CD
330
2
100
AcDbEntity
  8
画層1
 62
     0
370
    20
100
AcDbLine
 10
-748.9652295960735
 20
164.958776737169
 30
0.0
 11
-748.9652295960735
 21
163.458776737169
 31
0.0
  0
CIRCLE
  5
11CF
330
2
100
AcDbEntity
  8
画層1
 62
     0
370
    20
100
AcDbCircle
 10
-748.4652295960735
 20
152.958776737169
 30
0.0
 40
3.0
  0
LINE
  5
11D0
330
2
100
AcDbEntity
  8
画層1
 62
     0
370
    20
100
AcDbLine
 10
-748.9652295960735
 20
152.458776737169
 30
0.0
 11
-748.9652295960735
 21
150.958776737169
 31
0.0
  0
LINE
  5
11D1
330
2
100
AcDbEntity
  8
画層1
 62
     0
370
    20
100
AcDbLine
 10
-747.9652295960735
 20
150.958776737169
 30
0.0
 11
-747.9652295960735
 21
152.458776737169
 31
0.0
  0
LINE
  5
11D2
330
2
100
AcDbEntity
  8
画層1
 62
     0
370
    20
100
AcDbLine
 10
-752.4652295960735
 20
154.9587767371691
 30
0.0
 11
-752.4652295960734
 21
150.958776637169
 31
0.0
  0
LINE
  5
11D3
330
2
100
AcDbEntity
  8
画層1
 62
     0
370
    20
100
AcDbLine
 10
-744.4652295960735
 20
154.9587767371691
 30
0.0
 11
-744.4652295960736
 21
150.958776637169
 31
0.0
  0
LINE
  5
11D4
330
2
100
AcDbEntity
  8
画層1
 62
     0
370
    20
100
AcDbLine
 10
-750.4652295960735
 20
148.958776737169
 30
0.0
 11
-746.4652295960735
 21
148.958776737169
 31
0.0
  0
ARC
  5
11D5
330
2
100
AcDbEntity
  8
画層1
 62
     0
370
    20
100
AcDbCircle
 10
-750.4652295960734
 20
150.9587767371688
 30
0.0
 40
2.0
100
AcDbArc
 50
179.9999999999951
 51
269.9999999999967
  0
LINE
  5
11D6
330
2
100
AcDbEntity
  8
画層1
 62
     0
370
    20
100
AcDbLine
 10
-748.9652295960735
 20
150.958776737169
 30
0.0
 11
-747.9652295960735
 21
150.958776737169
 31
0.0
  0
ARC
  5
11D7
330
2
100
AcDbEntity
  8
画層1
 62
     0
370
    20
100
AcDbCircle
 10
-746.4652295960736
 20
150.9587767371689
 30
0.0
 40
2.0
100
AcDbArc
 50
270.0000000000032
 51
0.0000000000016284
  0
LINE
  5
11D8
330
2
100
AcDbEntity
  8
画層1
 62
     0
370
    20
100
AcDbLine
 10
-748.9652295960735
 20
153.458776737169
 30
0.0
 11
-751.4232694876233
 21
153.458776737169
 31
0.0
  0
LINE
  5
11D9
330
2
100
AcDbEntity
  8
画層1
 62
     0
370
    20
100
AcDbLine
 10
-751.4232694876233
 20
152.458776737169
 30
0.0
 11
-748.9652295960735
 21
152.458776737169
 31
0.0
  0
LINE
  5
11DA
330
2
100
AcDbEntity
  8
画層1
 62
     0
370
    20
100
AcDbLine
 10
-750.4652295960735
 20
156.958776737169
 30
0.0
 11
-746.4652295960735
 21
156.958776737169
 31
0.0
  0
ARC
  5
11DB
330
2
100
AcDbEntity
  8
画層1
 62
     0
370
    20
100
AcDbCircle
 10
-750.4652295960736
 20
154.9587767371691
 30
0.0
 40
2.0
100
AcDbArc
 50
89.99999999999674
 51
180.0000000000016
  0
LINE
  5
11DC
330
2
100
AcDbEntity
  8
画層1
 62
     0
370
    20
100
AcDbLine
 10
-748.9652295960735
 20
154.958776737169
 30
0.0
 11
-748.9652295960735
 21
153.458776737169
 31
0.0
  0
LINE
  5
11DD
330
2
100
AcDbEntity
  8
画層1
 62
     0
370
    20
100
AcDbLine
 10
-747.9652295960735
 20
152.458776737169
 30
0.0
 11
-745.5071897045237
 21
152.458776737169
 31
0.0
  0
LINE
  5
11DE
330
2
100
AcDbEntity
  8
画層1
 62
     0
370
    20
100
AcDbLine
 10
-745.5071897045237
 20
153.458776737169
 30
0.0
 11
-747.9652295960735
 21
153.458776737169
 31
0.0
  0
LINE
  5
11DF
330
2
100
AcDbEntity
  8
画層1
 62
     0
370
    20
100
AcDbLine
 10
-747.9652295960735
 20
153.458776737169
 30
0.0
 11
-747.9652295960735
 21
154.958776737169
 31
0.0
  0
LINE
  5
11E0
330
2
100
AcDbEntity
  8
画層1
 62
     0
370
    20
100
AcDbLine
 10
-747.9652295960735
 20
154.958776737169
 30
0.0
 11
-748.9652295960735
 21
154.958776737169
 31
0.0
  0
ARC
  5
11E1
330
2
100
AcDbEntity
  8
画層1
 62
     0
370
    20
100
AcDbCircle
 10
-746.4652295960734
 20
154.9587767371691
 30
0.0
 40
2.0
100
AcDbArc
 50
359.9999999999967
 51
90.00000000000325
  0
LINE
  5
11E2
330
2
100
AcDbEntity
  8
画層1
 62
     0
370
    20
100
AcDbLine
 10
-744.4652295960735
 20
144.9587767371691
 30
0.0
 11
-744.4652295960736
 21
140.958776637169
 31
0.0
  0
LINE
  5
11E3
330
2
100
AcDbEntity
  8
画層1
 62
     0
370
    20
100
AcDbLine
 10
-752.4652295960735
 20
144.958776737169
 30
0.0
 11
-752.4652295960734
 21
140.958776637169
 31
0.0
  0
CIRCLE
  5
11E4
330
2
100
AcDbEntity
  8
画層1
 62
     0
370
    20
100
AcDbCircle
 10
-748.4652295960735
 20
142.958776737169
 30
0.0
 40
3.0
  0
LINE
  5
11E5
330
2
100
AcDbEntity
  8
画層1
 62
     0
370
    20
100
AcDbLine
 10
-751.4232694876233
 20
142.458776737169
 30
0.0
 11
-748.9652295960735
 21
142.458776737169
 31
0.0
  0
LINE
  5
11E6
330
2
100
AcDbEntity
  8
画層1
 62
     0
370
    20
100
AcDbLine
 10
-750.4652295960735
 20
138.958776737169
 30
0.0
 11
-746.4652295960735
 21
138.958776737169
 31
0.0
  0
ARC
  5
11E7
330
2
100
AcDbEntity
  8
画層1
 62
     0
370
    20
100
AcDbCircle
 10
-750.4652295960734
 20
140.9587767371688
 30
0.0
 40
2.0
100
AcDbArc
 50
179.9999999999951
 51
269.9999999999967
  0
LINE
  5
11E8
330
2
100
AcDbEntity
  8
画層1
 62
     0
370
    20
100
AcDbLine
 10
-747.9652295960735
 20
142.458776737169
 30
0.0
 11
-745.5071897045237
 21
142.458776737169
 31
0.0
  0
ARC
  5
11E9
330
2
100
AcDbEntity
  8
画層1
 62
     0
370
    20
100
AcDbCircle
 10
-746.4652295960736
 20
140.9587767371689
 30
0.0
 40
2.0
100
AcDbArc
 50
270.0000000000032
 51
0.0000000000016284
  0
LINE
  5
11EA
330
2
100
AcDbEntity
  8
画層1
 62
     0
370
    20
100
AcDbLine
 10
-748.9652295960735
 20
140.958776737169
 30
0.0
 11
-747.9652295960735
 21
140.958776737169
 31
0.0
  0
LINE
  5
11EB
330
2
100
AcDbEntity
  8
画層1
 62
     0
370
    20
100
AcDbLine
 10
-747.9652295960735
 20
140.958776737169
 30
0.0
 11
-747.9652295960735
 21
142.458776737169
 31
0.0
  0
LINE
  5
11EC
330
2
100
AcDbEntity
  8
画層1
 62
     0
370
    20
100
AcDbLine
 10
-748.9652295960735
 20
142.458776737169
 30
0.0
 11
-748.9652295960735
 21
140.958776737169
 31
0.0
  0
LINE
  5
11ED
330
2
100
AcDbEntity
  8
画層1
 62
     0
370
    20
100
AcDbLine
 10
-750.4652295960735
 20
146.958776737169
 30
0.0
 11
-746.4652295960735
 21
146.958776737169
 31
0.0
  0
LINE
  5
11EE
330
2
100
AcDbEntity
  8
画層1
 62
     0
370
    20
100
AcDbLine
 10
-748.9652295960735
 20
143.458776737169
 30
0.0
 11
-751.4232694876233
 21
143.458776737169
 31
0.0
  0
ARC
  5
11EF
330
2
100
AcDbEntity
  8
画層1
 62
     0
370
    20
100
AcDbCircle
 10
-750.4652295960736
 20
144.958776737169
 30
0.0
 40
2.0
100
AcDbArc
 50
89.99999999999674
 51
180.0000000000016
  0
ARC
  5
11F0
330
2
100
AcDbEntity
  8
画層1
 62
     0
370
    20
100
AcDbCircle
 10
-746.4652295960734
 20
144.9587767371691
 30
0.0
 40
2.0
100
AcDbArc
 50
359.9999999999967
 51
90.00000000000325
  0
LINE
  5
11F1
330
2
100
AcDbEntity
  8
画層1
 62
     0
370
    20
100
AcDbLine
 10
-747.9652295960735
 20
144.958776737169
 30
0.0
 11
-748.9652295960735
 21
144.958776737169
 31
0.0
  0
LINE
  5
11F2
330
2
100
AcDbEntity
  8
画層1
 62
     0
370
    20
100
AcDbLine
 10
-747.9652295960735
 20
143.458776737169
 30
0.0
 11
-747.9652295960735
 21
144.958776737169
 31
0.0
  0
LINE
  5
11F3
330
2
100
AcDbEntity
  8
画層1
 62
     0
370
    20
100
AcDbLine
 10
-745.5071897045237
 20
143.458776737169
 30
0.0
 11
-747.9652295960735
 21
143.458776737169
 31
0.0
  0
LINE
  5
11F4
330
2
100
AcDbEntity
  8
画層1
 62
     0
370
    20
100
AcDbLine
 10
-748.9652295960735
 20
144.958776737169
 30
0.0
 11
-748.9652295960735
 21
143.458776737169
 31
0.0
  0
LINE
  5
11F5
330
2
100
AcDbEntity
  8
画層1
 62
     0
370
    20
100
AcDbLine
 10
-748.9652295960735
 20
134.958776737169
 30
0.0
 11
-748.9652295960735
 21
133.458776737169
 31
0.0
  0
LINE
  5
11F6
330
2
100
AcDbEntity
  8
画層1
 62
     0
370
    20
100
AcDbLine
 10
-747.9652295960735
 20
133.458776737169
 30
0.0
 11
-747.9652295960735
 21
134.958776737169
 31
0.0
  0
CIRCLE
  5
11F7
330
2
100
AcDbEntity
  8
画層1
 62
     0
370
    20
100
AcDbCircle
 10
-748.4652295960735
 20
132.958776737169
 30
0.0
 40
3.0
  0
LINE
  5
11F8
330
2
100
AcDbEntity
  8
画層1
 62
     0
370
    20
100
AcDbLine
 10
-752.4652295960735
 20
134.958776737169
 30
0.0
 11
-752.4652295960734
 21
130.958776637169
 31
0.0
  0
LINE
  5
11F9
330
2
100
AcDbEntity
  8
画層1
 62
     0
370
    20
100
AcDbLine
 10
-744.4652295960735
 20
134.9587767371691
 30
0.0
 11
-744.4652295960736
 21
130.958776637169
 31
0.0
  0
LINE
  5
11FA
330
2
100
AcDbEntity
  8
画層1
 62
     0
370
    20
100
AcDbLine
 10
-748.9652295960735
 20
133.458776737169
 30
0.0
 11
-751.4232694876233
 21
133.458776737169
 31
0.0
  0
LINE
  5
11FB
330
2
100
AcDbEntity
  8
画層1
 62
     0
370
    20
100
AcDbLine
 10
-750.4652295960735
 20
128.958776737169
 30
0.0
 11
-746.4652295960735
 21
128.958776737169
 31
0.0
  0
LINE
  5
11FC
330
2
100
AcDbEntity
  8
画層1
 62
     0
370
    20
100
AcDbLine
 10
-751.4232694876233
 20
132.458776737169
 30
0.0
 11
-748.9652295960735
 21
132.458776737169
 31
0.0
  0
ARC
  5
11FD
330
2
100
AcDbEntity
  8
画層1
 62
     0
370
    20
100
AcDbCircle
 10
-750.4652295960734
 20
130.9587767371688
 30
0.0
 40
2.0
100
AcDbArc
 50
179.9999999999951
 51
269.9999999999967
  0
LINE
  5
11FE
330
2
100
AcDbEntity
  8
画層1
 62
     0
370
    20
100
AcDbLine
 10
-745.5071897045237
 20
133.458776737169
 30
0.0
 11
-747.9652295960735
 21
133.458776737169
 31
0.0
  0
LINE
  5
11FF
330
2
100
AcDbEntity
  8
画層1
 62
     0
370
    20
100
AcDbLine
 10
-748.9652295960735
 20
132.458776737169
 30
0.0
 11
-748.9652295960735
 21
130.958776737169
 31
0.0
  0
LINE
  5
1200
330
2
100
AcDbEntity
  8
画層1
 62
     0
370
    20
100
AcDbLine
 10
-747.9652295960735
 20
130.958776737169
 30
0.0
 11
-747.9652295960735
 21
132.458776737169
 31
0.0
  0
LINE
  5
1201
330
2
100
AcDbEntity
  8
画層1
 62
     0
370
    20
100
AcDbLine
 10
-748.9652295960735
 20
130.958776737169
 30
0.0
 11
-747.9652295960735
 21
130.958776737169
 31
0.0
  0
ARC
  5
1202
330
2
100
AcDbEntity
  8
画層1
 62
     0
370
    20
100
AcDbCircle
 10
-746.4652295960736
 20
130.958776737169
 30
0.0
 40
2.0
100
AcDbArc
 50
270.0000000000032
 51
0.0000000000016284
  0
LINE
  5
1203
330
2
100
AcDbEntity
  8
画層1
 62
     0
370
    20
100
AcDbLine
 10
-747.9652295960735
 20
132.458776737169
 30
0.0
 11
-745.5071897045237
 21
132.458776737169
 31
0.0
  0
LINE
  5
1204
330
2
100
AcDbEntity
  8
画層1
 62
     0
370
    20
100
AcDbLine
 10
-750.4652295960735
 20
136.958776737169
 30
0.0
 11
-746.4652295960735
 21
136.958776737169
 31
0.0
  0
ARC
  5
1205
330
2
100
AcDbEntity
  8
画層1
 62
     0
370
    20
100
AcDbCircle
 10
-750.4652295960736
 20
134.958776737169
 30
0.0
 40
2.0
100
AcDbArc
 50
89.99999999999674
 51
180.0000000000016
  0
LINE
  5
1206
330
2
100
AcDbEntity
  8
画層1
 62
     0
370
    20
100
AcDbLine
 10
-747.9652295960735
 20
134.958776737169
 30
0.0
 11
-748.9652295960735
 21
134.958776737169
 31
0.0
  0
ARC
  5
1207
330
2
100
AcDbEntity
  8
画層1
 62
     0
370
    20
100
AcDbCircle
 10
-746.4652295960734
 20
134.9587767371691
 30
0.0
 40
2.0
100
AcDbArc
 50
359.9999999999967
 51
90.00000000000325
  0
LINE
  5
1208
330
2
100
AcDbEntity
  8
画層1
 62
     0
370
    20
100
AcDbLine
 10
-744.4652295960735
 20
124.9587767371691
 30
0.0
 11
-744.4652295960736
 21
120.958776637169
 31
0.0
  0
LINE
  5
1209
330
2
100
AcDbEntity
  8
画層1
 62
     0
370
    20
100
AcDbLine
 10
-752.4652295960735
 20
124.9587767371691
 30
0.0
 11
-752.4652295960734
 21
120.958776637169
 31
0.0
  0
CIRCLE
  5
120A
330
2
100
AcDbEntity
  8
画層1
 62
     0
370
    20
100
AcDbCircle
 10
-748.4652295960735
 20
122.958776737169
 30
0.0
 40
3.0
  0
LINE
  5
120B
330
2
100
AcDbEntity
  8
画層1
 62
     0
370
    20
100
AcDbLine
 10
-747.9652295960735
 20
123.458776737169
 30
0.0
 11
-747.9652295960735
 21
124.958776737169
 31
0.0
  0
LINE
  5
120C
330
2
100
AcDbEntity
  8
画層1
 62
     0
370
    20
100
AcDbLine
 10
-748.9652295960735
 20
124.958776737169
 30
0.0
 11
-748.9652295960735
 21
123.458776737169
 31
0.0
  0
LINE
  5
120D
330
2
100
AcDbEntity
  8
画層1
 62
     0
370
    20
100
AcDbLine
 10
-751.4232694876233
 20
122.458776737169
 30
0.0
 11
-748.9652295960735
 21
122.458776737169
 31
0.0
  0
LINE
  5
120E
330
2
100
AcDbEntity
  8
画層1
 62
     0
370
    20
100
AcDbLine
 10
-750.4652295960735
 20
118.958776737169
 30
0.0
 11
-746.4652295960735
 21
118.958776737169
 31
0.0
  0
LINE
  5
120F
330
2
100
AcDbEntity
  8
画層1
 62
     0
370
    20
100
AcDbLine
 10
-748.9652295960735
 20
123.458776737169
 30
0.0
 11
-751.4232694876233
 21
123.458776737169
 31
0.0
  0
ARC
  5
1210
330
2
100
AcDbEntity
  8
画層1
 62
     0
370
    20
100
AcDbCircle
 10
-750.4652295960734
 20
120.9587767371688
 30
0.0
 40
2.0
100
AcDbArc
 50
179.9999999999951
 51
269.9999999999967
  0
LINE
  5
1211
330
2
100
AcDbEntity
  8
画層1
 62
     0
370
    20
100
AcDbLine
 10
-747.9652295960735
 20
122.458776737169
 30
0.0
 11
-745.5071897045237
 21
122.458776737169
 31
0.0
  0
ARC
  5
1212
330
2
100
AcDbEntity
  8
画層1
 62
     0
370
    20
100
AcDbCircle
 10
-746.4652295960736
 20
120.9587767371689
 30
0.0
 40
2.0
100
AcDbArc
 50
270.0000000000032
 51
0.0000000000016284
  0
LINE
  5
1213
330
2
100
AcDbEntity
  8
画層1
 62
     0
370
    20
100
AcDbLine
 10
-748.9652295960735
 20
120.958776737169
 30
0.0
 11
-747.9652295960735
 21
120.958776737169
 31
0.0
  0
LINE
  5
1214
330
2
100
AcDbEntity
  8
画層1
 62
     0
370
    20
100
AcDbLine
 10
-747.9652295960735
 20
120.958776737169
 30
0.0
 11
-747.9652295960735
 21
122.458776737169
 31
0.0
  0
LINE
  5
1215
330
2
100
AcDbEntity
  8
画層1
 62
     0
370
    20
100
AcDbLine
 10
-748.9652295960735
 20
122.458776737169
 30
0.0
 11
-748.9652295960735
 21
120.958776737169
 31
0.0
  0
LINE
  5
1216
330
2
100
AcDbEntity
  8
画層1
 62
     0
370
    20
100
AcDbLine
 10
-745.5071897045237
 20
123.458776737169
 30
0.0
 11
-747.9652295960735
 21
123.458776737169
 31
0.0
  0
LINE
  5
1217
330
2
100
AcDbEntity
  8
画層1
 62
     0
370
    20
100
AcDbLine
 10
-750.4652295960735
 20
126.958776737169
 30
0.0
 11
-746.4652295960735
 21
126.958776737169
 31
0.0
  0
ARC
  5
1218
330
2
100
AcDbEntity
  8
画層1
 62
     0
370
    20
100
AcDbCircle
 10
-750.4652295960736
 20
124.9587767371691
 30
0.0
 40
2.0
100
AcDbArc
 50
89.99999999999674
 51
180.0000000000016
  0
ARC
  5
1219
330
2
100
AcDbEntity
  8
画層1
 62
     0
370
    20
100
AcDbCircle
 10
-746.4652295960734
 20
124.9587767371691
 30
0.0
 40
2.0
100
AcDbArc
 50
359.9999999999967
 51
90.00000000000325
  0
LINE
  5
121A
330
2
100
AcDbEntity
  8
画層1
 62
     0
370
    20
100
AcDbLine
 10
-747.9652295960735
 20
124.958776737169
 30
0.0
 11
-748.9652295960735
 21
124.958776737169
 31
0.0
  0
ARC
  5
121B
330
2
100
AcDbEntity
  8
画層1
 62
     0
370
    20
100
AcDbCircle
 10
-746.4652295960734
 20
114.9587767371691
 30
0.0
 40
2.0
100
AcDbArc
 50
359.9999999999967
 51
90.00000000000325
  0
ARC
  5
121C
330
2
100
AcDbEntity
  8
画層1
 62
     0
370
    20
100
AcDbCircle
 10
-750.4652295960736
 20
114.958776737169
 30
0.0
 40
2.0
100
AcDbArc
 50
89.99999999999674
 51
180.0000000000016
  0
CIRCLE
  5
121D
330
2
100
AcDbEntity
  8
画層1
 62
     0
370
    20
100
AcDbCircle
 10
-748.4652295960735
 20
112.958776737169
 30
0.0
 40
3.0
  0
LINE
  5
121E
330
2
100
AcDbEntity
  8
画層1
 62
     0
370
    20
100
AcDbLine
 10
-748.9652295960735
 20
113.458776737169
 30
0.0
 11
-751.4232694876233
 21
113.458776737169
 31
0.0
  0
LINE
  5
121F
330
2
100
AcDbEntity
  8
画層1
 62
     0
370
    20
100
AcDbLine
 10
-750.4652295960735
 20
108.958776737169
 30
0.0
 11
-746.4652295960735
 21
108.958776737169
 31
0.0
  0
LINE
  5
1220
330
2
100
AcDbEntity
  8
画層1
 62
     0
370
    20
100
AcDbLine
 10
-751.4232694876233
 20
112.458776737169
 30
0.0
 11
-748.9652295960735
 21
112.458776737169
 31
0.0
  0
ARC
  5
1221
330
2
100
AcDbEntity
  8
画層1
 62
     0
370
    20
100
AcDbCircle
 10
-750.4652295960734
 20
110.9587767371688
 30
0.0
 40
2.0
100
AcDbArc
 50
179.9999999999951
 51
269.9999999999967
  0
LINE
  5
1222
330
2
100
AcDbEntity
  8
画層1
 62
     0
370
    20
100
AcDbLine
 10
-752.4652295960735
 20
114.958776737169
 30
0.0
 11
-752.4652295960734
 21
110.958776637169
 31
0.0
  0
LINE
  5
1223
330
2
100
AcDbEntity
  8
画層1
 62
     0
370
    20
100
AcDbLine
 10
-747.9652295960735
 20
114.958776737169
 30
0.0
 11
-748.9652295960735
 21
114.958776737169
 31
0.0
  0
LINE
  5
1224
330
2
100
AcDbEntity
  8
画層1
 62
     0
370
    20
100
AcDbLine
 10
-745.5071897045237
 20
113.458776737169
 30
0.0
 11
-747.9652295960735
 21
113.458776737169
 31
0.0
  0
LINE
  5
1225
330
2
100
AcDbEntity
  8
画層1
 62
     0
370
    20
100
AcDbLine
 10
-748.9652295960735
 20
112.458776737169
 30
0.0
 11
-748.9652295960735
 21
110.958776737169
 31
0.0
  0
LINE
  5
1226
330
2
100
AcDbEntity
  8
画層1
 62
     0
370
    20
100
AcDbLine
 10
-747.9652295960735
 20
110.958776737169
 30
0.0
 11
-747.9652295960735
 21
112.458776737169
 31
0.0
  0
LINE
  5
1227
330
2
100
AcDbEntity
  8
画層1
 62
     0
370
    20
100
AcDbLine
 10
-748.9652295960735
 20
110.958776737169
 30
0.0
 11
-747.9652295960735
 21
110.958776737169
 31
0.0
  0
ARC
  5
1228
330
2
100
AcDbEntity
  8
画層1
 62
     0
370
    20
100
AcDbCircle
 10
-746.4652295960736
 20
110.9587767371689
 30
0.0
 40
2.0
100
AcDbArc
 50
270.0000000000032
 51
0.0000000000016284
  0
LINE
  5
1229
330
2
100
AcDbEntity
  8
画層1
 62
     0
370
    20
100
AcDbLine
 10
-747.9652295960735
 20
112.458776737169
 30
0.0
 11
-745.5071897045237
 21
112.458776737169
 31
0.0
  0
LINE
  5
122A
330
2
100
AcDbEntity
  8
画層1
 62
     0
370
    20
100
AcDbLine
 10
-748.9652295960735
 20
114.958776737169
 30
0.0
 11
-748.9652295960735
 21
113.458776737169
 31
0.0
  0
LINE
  5
122B
330
2
100
AcDbEntity
  8
画層1
 62
     0
370
    20
100
AcDbLine
 10
-747.9652295960735
 20
113.458776737169
 30
0.0
 11
-747.9652295960735
 21
114.958776737169
 31
0.0
  0
LINE
  5
122C
330
2
100
AcDbEntity
  8
画層1
 62
     0
370
    20
100
AcDbLine
 10
-744.4652295960735
 20
114.9587767371691
 30
0.0
 11
-744.4652295960736
 21
110.958776637169
 31
0.0
  0
LINE
  5
122D
330
2
100
AcDbEntity
  8
画層1
 62
     0
370
    20
100
AcDbLine
 10
-750.4652295960735
 20
116.958776737169
 30
0.0
 11
-746.4652295960735
 21
116.958776737169
 31
0.0
  0
ARC
  5
122E
330
2
100
AcDbEntity
  8
画層1
 62
     0
370
    20
100
AcDbCircle
 10
-750.4652295960736
 20
104.9587767371691
 30
0.0
 40
2.0
100
AcDbArc
 50
89.99999999999674
 51
180.0000000000016
  0
ARC
  5
122F
330
2
100
AcDbEntity
  8
画層1
 62
     0
370
    20
100
AcDbCircle
 10
-746.4652295960734
 20
104.9587767371691
 30
0.0
 40
2.0
100
AcDbArc
 50
359.9999999999967
 51
90.00000000000325
  0
LINE
  5
1230
330
2
100
AcDbEntity
  8
画層1
 62
     0
370
    20
100
AcDbLine
 10
-751.4232694876233
 20
102.458776737169
 30
0.0
 11
-748.9652295960735
 21
102.458776737169
 31
0.0
  0
LINE
  5
1231
330
2
100
AcDbEntity
  8
画層1
 62
     0
370
    20
100
AcDbLine
 10
-750.4652295960735
 20
98.95877673716904
 30
0.0
 11
-746.4652295960735
 21
98.95877673716904
 31
0.0
  0
LINE
  5
1232
330
2
100
AcDbEntity
  8
画層1
 62
     0
370
    20
100
AcDbLine
 10
-748.9652295960735
 20
103.458776737169
 30
0.0
 11
-751.4232694876233
 21
103.458776737169
 31
0.0
  0
CIRCLE
  5
1233
330
2
100
AcDbEntity
  8
画層1
 62
     0
370
    20
100
AcDbCircle
 10
-748.4652295960735
 20
102.958776737169
 30
0.0
 40
3.0
  0
LINE
  5
1234
330
2
100
AcDbEntity
  8
画層1
 62
     0
370
    20
100
AcDbLine
 10
-752.4652295960735
 20
104.9587767371691
 30
0.0
 11
-752.4652295960734
 21
100.958776637169
 31
0.0
  0
ARC
  5
1235
330
2
100
AcDbEntity
  8
画層1
 62
     0
370
    20
100
AcDbCircle
 10
-750.4652295960734
 20
100.9587767371688
 30
0.0
 40
2.0
100
AcDbArc
 50
179.9999999999951
 51
269.9999999999967
  0
LINE
  5
1236
330
2
100
AcDbEntity
  8
画層1
 62
     0
370
    20
100
AcDbLine
 10
-744.4652295960735
 20
104.9587767371691
 30
0.0
 11
-744.4652295960736
 21
100.958776637169
 31
0.0
  0
LINE
  5
1237
330
2
100
AcDbEntity
  8
画層1
 62
     0
370
    20
100
AcDbLine
 10
-747.9652295960735
 20
103.458776737169
 30
0.0
 11
-747.9652295960735
 21
104.958776737169
 31
0.0
  0
LINE
  5
1238
330
2
100
AcDbEntity
  8
画層1
 62
     0
370
    20
100
AcDbLine
 10
-748.9652295960735
 20
104.958776737169
 30
0.0
 11
-748.9652295960735
 21
103.458776737169
 31
0.0
  0
LINE
  5
1239
330
2
100
AcDbEntity
  8
画層1
 62
     0
370
    20
100
AcDbLine
 10
-747.9652295960735
 20
102.458776737169
 30
0.0
 11
-745.5071897045237
 21
102.458776737169
 31
0.0
  0
ARC
  5
123A
330
2
100
AcDbEntity
  8
画層1
 62
     0
370
    20
100
AcDbCircle
 10
-746.4652295960736
 20
100.9587767371689
 30
0.0
 40
2.0
100
AcDbArc
 50
270.0000000000032
 51
0.0000000000016284
  0
LINE
  5
123B
330
2
100
AcDbEntity
  8
画層1
 62
     0
370
    20
100
AcDbLine
 10
-748.9652295960735
 20
100.958776737169
 30
0.0
 11
-747.9652295960735
 21
100.958776737169
 31
0.0
  0
LINE
  5
123C
330
2
100
AcDbEntity
  8
画層1
 62
     0
370
    20
100
AcDbLine
 10
-747.9652295960735
 20
100.958776737169
 30
0.0
 11
-747.9652295960735
 21
102.458776737169
 31
0.0
  0
LINE
  5
123D
330
2
100
AcDbEntity
  8
画層1
 62
     0
370
    20
100
AcDbLine
 10
-748.9652295960735
 20
102.458776737169
 30
0.0
 11
-748.9652295960735
 21
100.958776737169
 31
0.0
  0
LINE
  5
123E
330
2
100
AcDbEntity
  8
画層1
 62
     0
370
    20
100
AcDbLine
 10
-745.5071897045237
 20
103.458776737169
 30
0.0
 11
-747.9652295960735
 21
103.458776737169
 31
0.0
  0
LINE
  5
123F
330
2
100
AcDbEntity
  8
画層1
 62
     0
370
    20
100
AcDbLine
 10
-747.9652295960735
 20
104.958776737169
 30
0.0
 11
-748.9652295960735
 21
104.958776737169
 31
0.0
  0
LINE
  5
1240
330
2
100
AcDbEntity
  8
画層1
 62
     0
370
    20
100
AcDbLine
 10
-750.4652295960735
 20
106.958776737169
 30
0.0
 11
-746.4652295960735
 21
106.958776737169
 31
0.0
  0
ARC
  5
1241
330
2
100
AcDbEntity
  8
画層1
 62
     0
370
    20
100
AcDbCircle
 10
-746.4652295960734
 20
94.95877673716917
 30
0.0
 40
2.0
100
AcDbArc
 50
359.9999999999967
 51
90.00000000000325
  0
ARC
  5
1242
330
2
100
AcDbEntity
  8
画層1
 62
     0
370
    20
100
AcDbCircle
 10
-750.4652295960736
 20
94.95877673716909
 30
0.0
 40
2.0
100
AcDbArc
 50
89.99999999999674
 51
180.0000000000016
  0
LINE
  5
1243
330
2
100
AcDbEntity
  8
画層1
 62
     0
370
    20
100
AcDbLine
 10
-750.4652295960735
 20
96.95877673716905
 30
0.0
 11
-746.4652295960735
 21
96.95877673716905
 31
0.0
  0
CIRCLE
  5
1244
330
2
100
AcDbEntity
  8
画層1
 62
     0
370
    20
100
AcDbCircle
 10
-748.4652295960735
 20
92.95877673716905
 30
0.0
 40
3.0
  0
LINE
  5
1245
330
2
100
AcDbEntity
  8
画層1
 62
     0
370
    20
100
AcDbLine
 10
-748.9652295960735
 20
93.45877673716904
 30
0.0
 11
-751.4232694876233
 21
93.45877673716904
 31
0.0
  0
LINE
  5
1246
330
2
100
AcDbEntity
  8
画層1
 62
     0
370
    20
100
AcDbLine
 10
-750.4652295960735
 20
88.95877673716904
 30
0.0
 11
-746.4652295960735
 21
88.95877673716904
 31
0.0
  0
LINE
  5
1247
330
2
100
AcDbEntity
  8
画層1
 62
     0
370
    20
100
AcDbLine
 10
-751.4232694876233
 20
92.45877673716904
 30
0.0
 11
-748.9652295960735
 21
92.45877673716904
 31
0.0
  0
ARC
  5
1248
330
2
100
AcDbEntity
  8
画層1
 62
     0
370
    20
100
AcDbCircle
 10
-750.4652295960734
 20
90.95877673716888
 30
0.0
 40
2.0
100
AcDbArc
 50
179.9999999999951
 51
269.9999999999967
  0
LINE
  5
1249
330
2
100
AcDbEntity
  8
画層1
 62
     0
370
    20
100
AcDbLine
 10
-752.4652295960735
 20
94.95877673716909
 30
0.0
 11
-752.4652295960734
 21
90.95877663716903
 31
0.0
  0
LINE
  5
124A
330
2
100
AcDbEntity
  8
画層1
 62
     0
370
    20
100
AcDbLine
 10
-747.9652295960735
 20
94.95877673716904
 30
0.0
 11
-748.9652295960735
 21
94.95877673716904
 31
0.0
  0
LINE
  5
124B
330
2
100
AcDbEntity
  8
画層1
 62
     0
370
    20
100
AcDbLine
 10
-745.5071897045237
 20
93.45877673716904
 30
0.0
 11
-747.9652295960735
 21
93.45877673716904
 31
0.0
  0
LINE
  5
124C
330
2
100
AcDbEntity
  8
画層1
 62
     0
370
    20
100
AcDbLine
 10
-748.9652295960735
 20
92.45877673716904
 30
0.0
 11
-748.9652295960735
 21
90.95877673716904
 31
0.0
  0
LINE
  5
124D
330
2
100
AcDbEntity
  8
画層1
 62
     0
370
    20
100
AcDbLine
 10
-747.9652295960735
 20
90.95877673716904
 30
0.0
 11
-747.9652295960735
 21
92.45877673716904
 31
0.0
  0
LINE
  5
124E
330
2
100
AcDbEntity
  8
画層1
 62
     0
370
    20
100
AcDbLine
 10
-748.9652295960735
 20
90.95877673716904
 30
0.0
 11
-747.9652295960735
 21
90.95877673716904
 31
0.0
  0
ARC
  5
124F
330
2
100
AcDbEntity
  8
画層1
 62
     0
370
    20
100
AcDbCircle
 10
-746.4652295960736
 20
90.95877673716898
 30
0.0
 40
2.0
100
AcDbArc
 50
270.0000000000032
 51
0.0000000000016284
  0
LINE
  5
1250
330
2
100
AcDbEntity
  8
画層1
 62
     0
370
    20
100
AcDbLine
 10
-747.9652295960735
 20
92.45877673716904
 30
0.0
 11
-745.5071897045237
 21
92.45877673716904
 31
0.0
  0
LINE
  5
1251
330
2
100
AcDbEntity
  8
画層1
 62
     0
370
    20
100
AcDbLine
 10
-748.9652295960735
 20
94.95877673716904
 30
0.0
 11
-748.9652295960735
 21
93.45877673716904
 31
0.0
  0
LINE
  5
1252
330
2
100
AcDbEntity
  8
画層1
 62
     0
370
    20
100
AcDbLine
 10
-747.9652295960735
 20
93.45877673716904
 30
0.0
 11
-747.9652295960735
 21
94.95877673716904
 31
0.0
  0
LINE
  5
1253
330
2
100
AcDbEntity
  8
画層1
 62
     0
370
    20
100
AcDbLine
 10
-744.4652295960735
 20
94.95877673716917
 30
0.0
 11
-744.4652295960736
 21
90.95877663716903
 31
0.0
  0
CIRCLE
  5
1256
330
2
100
AcDbEntity
  8
画層1
 62
     0
370
    20
100
AcDbCircle
 10
-749.9652295960735
 20
180.708776737169
 30
0.0
 40
2.75
  0
CIRCLE
  5
1258
330
2
100
AcDbEntity
  8
画層1
 62
     0
370
    20
100
AcDbCircle
 10
-749.9652295960735
 20
180.708776737169
 30
0.0
 40
1.0
  0
LINE
  5
1259
330
2
100
AcDbEntity
  8
画層1
 62
     0
370
    20
100
AcDbLine
 10
-750.5401891706496
 20
179.8905949189872
 30
0.0
 11
-750.5401891706496
 21
179.8905949189872
 31
0.0
  0
LINE
  5
125A
330
2
100
AcDbEntity
  8
画層1
 62
     0
370
    20
100
AcDbLine
 10
-750.5401891706496
 20
179.8905949189872
 30
0.0
 11
-750.5401891706496
 21
179.8905949189872
 31
0.0
  0
LINE
  5
125B
330
2
100
AcDbEntity
  8
画層1
 62
     0
370
    20
100
AcDbLine
 10
-750.5401891706496
 20
179.8905949189872
 30
0.0
 11
-750.5401891706496
 21
179.8905949189872
 31
0.0
  0
LINE
  5
125D
330
2
100
AcDbEntity
  8
画層1
 62
     0
370
    20
100
AcDbLine
 10
-750.5401891706496
 20
179.8905949189872
 30
0.0
 11
-751.2588886388697
 21
178.8678676462599
 31
0.0
  0
LINE
  5
125E
330
2
100
AcDbEntity
  8
画層1
 62
     0
370
    20
100
AcDbLine
 10
-749.3902700214975
 20
179.8905949189872
 30
0.0
 11
-748.6715705532773
 21
178.8678676462599
 31
0.0
  0
ARC
  5
125F
330
2
100
AcDbEntity
  8
画層1
 62
     0
370
    20
100
AcDbCircle
 10
-749.9652295960735
 20
180.708776737169
 30
0.0
 40
2.250000000000008
100
AcDbArc
 50
305.096801227586
 51
234.9031987724139
  0
LINE
  5
1262
330
2
100
AcDbEntity
  8
画層1
 62
     0
370
    20
100
AcDbLine
 10
-749.3902700214975
 20
197.8905949189872
 30
0.0
 11
-748.6715705532773
 21
196.8678676462599
 31
0.0
  0
LINE
  5
1263
330
2
100
AcDbEntity
  8
画層1
 62
     0
370
    20
100
AcDbLine
 10
-750.5401891706496
 20
197.8905949189872
 30
0.0
 11
-751.2588886388697
 21
196.8678676462599
 31
0.0
  0
ARC
  5
1264
330
2
100
AcDbEntity
  8
画層1
 62
     0
370
    20
100
AcDbCircle
 10
-749.9652295960735
 20
198.708776737169
 30
0.0
 40
2.250000000000008
100
AcDbArc
 50
305.096801227586
 51
234.9031987724139
  0
CIRCLE
  5
1265
330
2
100
AcDbEntity
  8
画層1
 62
     0
370
    20
100
AcDbCircle
 10
-749.9652295960735
 20
198.708776737169
 30
0.0
 40
2.75
  0
LINE
  5
1266
330
2
100
AcDbEntity
  8
画層1
 62
     0
370
    20
100
AcDbLine
 10
-750.5401891706496
 20
197.8905949189872
 30
0.0
 11
-750.5401891706496
 21
197.8905949189872
 31
0.0
  0
LINE
  5
1267
330
2
100
AcDbEntity
  8
画層1
 62
     0
370
    20
100
AcDbLine
 10
-750.5401891706496
 20
197.8905949189872
 30
0.0
 11
-750.5401891706496
 21
197.8905949189872
 31
0.0
  0
LINE
  5
1268
330
2
100
AcDbEntity
  8
画層1
 62
     0
370
    20
100
AcDbLine
 10
-750.5401891706496
 20
197.8905949189872
 30
0.0
 11
-750.5401891706496
 21
197.8905949189872
 31
0.0
  0
CIRCLE
  5
1269
330
2
100
AcDbEntity
  8
画層1
 62
     0
370
    20
100
AcDbCircle
 10
-749.9652295960735
 20
198.708776737169
 30
0.0
 40
1.0
  0
LINE
  5
126B
330
2
100
AcDbEntity
  8
画層1
 62
     0
370
    20
100
AcDbLine
 10
-749.0013565359296
 20
180.4424147204908
 30
0.0
 11
-747.7965152107498
 21
180.109462199643
 31
0.0
  0
LINE
  5
126C
330
2
100
AcDbEntity
  8
画層1
 62
     0
370
    20
100
AcDbLine
 10
-749.0013565359296
 20
198.4424147204908
 30
0.0
 11
-747.7965152107498
 21
198.109462199643
 31
0.0
  0
CIRCLE
  5
1272
330
2
100
AcDbEntity
  8
画層1
 62
     0
370
    20
100
AcDbCircle
 10
-745.4652295960735
 20
208.958776737169
 30
0.0
 40
1.5
  0
LINE
  5
1275
330
2
100
AcDbEntity
  8
画層1
 62
     0
370
    20
100
AcDbLine
 10
-754.9652295960735
 20
166.958776737169
 30
0.0
 11
-754.9652295960735
 21
158.958776737169
 31
0.0
  0
LINE
  5
1278
330
2
100
AcDbEntity
  8
画層1
 62
     0
370
    20
100
AcDbLine
 10
-742.9652295960735
 20
166.958776737169
 30
0.0
 11
-742.9652295960735
 21
158.958776737169
 31
0.0
  0
LINE
  5
1279
330
2
100
AcDbEntity
  8
画層1
 62
     0
370
    20
100
AcDbLine
 10
-753.9652295960735
 20
166.958776737169
 30
0.0
 11
-753.9652295960735
 21
158.958776737169
 31
0.0
  0
LINE
  5
127A
330
2
100
AcDbEntity
  8
画層1
 62
     0
370
    20
100
AcDbLine
 10
-753.9652295960735
 20
156.958776737169
 30
0.0
 11
-753.9652295960735
 21
148.958776737169
 31
0.0
  0
LINE
  5
127B
330
2
100
AcDbEntity
  8
画層1
 62
     0
370
    20
100
AcDbLine
 10
-742.9652295960735
 20
156.958776737169
 30
0.0
 11
-742.9652295960735
 21
148.958776737169
 31
0.0
  0
LINE
  5
127C
330
2
100
AcDbEntity
  8
画層1
 62
     0
370
    20
100
AcDbLine
 10
-742.9652295960735
 20
146.958776737169
 30
0.0
 11
-742.9652295960735
 21
138.958776737169
 31
0.0
  0
LINE
  5
127D
330
2
100
AcDbEntity
  8
画層1
 62
     0
370
    20
100
AcDbLine
 10
-753.9652295960735
 20
146.958776737169
 30
0.0
 11
-753.9652295960735
 21
138.958776737169
 31
0.0
  0
LINE
  5
127E
330
2
100
AcDbEntity
  8
画層1
 62
     0
370
    20
100
AcDbLine
 10
-742.9652295960735
 20
136.958776737169
 30
0.0
 11
-742.9652295960735
 21
128.958776737169
 31
0.0
  0
LINE
  5
127F
330
2
100
AcDbEntity
  8
画層1
 62
     0
370
    20
100
AcDbLine
 10
-753.9652295960735
 20
136.958776737169
 30
0.0
 11
-753.9652295960735
 21
128.958776737169
 31
0.0
  0
LINE
  5
1280
330
2
100
AcDbEntity
  8
画層1
 62
     0
370
    20
100
AcDbLine
 10
-742.9652295960735
 20
126.958776737169
 30
0.0
 11
-742.9652295960735
 21
118.958776737169
 31
0.0
  0
LINE
  5
1281
330
2
100
AcDbEntity
  8
画層1
 62
     0
370
    20
100
AcDbLine
 10
-753.9652295960735
 20
126.958776737169
 30
0.0
 11
-753.9652295960735
 21
118.958776737169
 31
0.0
  0
LINE
  5
1282
330
2
100
AcDbEntity
  8
画層1
 62
     0
370
    20
100
AcDbLine
 10
-742.9652295960735
 20
116.958776737169
 30
0.0
 11
-742.9652295960735
 21
108.958776737169
 31
0.0
  0
LINE
  5
1283
330
2
100
AcDbEntity
  8
画層1
 62
     0
370
    20
100
AcDbLine
 10
-753.9652295960735
 20
116.958776737169
 30
0.0
 11
-753.9652295960735
 21
108.958776737169
 31
0.0
  0
LINE
  5
1284
330
2
100
AcDbEntity
  8
画層1
 62
     0
370
    20
100
AcDbLine
 10
-742.9652295960735
 20
106.958776737169
 30
0.0
 11
-742.9652295960735
 21
98.95877673716904
 31
0.0
  0
LINE
  5
1285
330
2
100
AcDbEntity
  8
画層1
 62
     0
370
    20
100
AcDbLine
 10
-753.9652295960735
 20
106.958776737169
 30
0.0
 11
-753.9652295960735
 21
98.95877673716904
 31
0.0
  0
LINE
  5
1286
330
2
100
AcDbEntity
  8
画層1
 62
     0
370
    20
100
AcDbLine
 10
-742.9652295960735
 20
96.95877673716905
 30
0.0
 11
-742.9652295960735
 21
88.95877673716904
 31
0.0
  0
LINE
  5
1287
330
2
100
AcDbEntity
  8
画層1
 62
     0
370
    20
100
AcDbLine
 10
-753.9652295960735
 20
96.95877673716905
 30
0.0
 11
-753.9652295960735
 21
88.95877673716904
 31
0.0
  0
TEXT
  5
1AF9
330
2
100
AcDbEntity
  8
画層1
 62
     0
370
    20
100
AcDbText
 10
-441.338120679738
 20
-127.5302627635604
 30
0.0
 40
10.0
  1
PAC30Z 300A 450A
  7
STYLE1
100
AcDbText
  0
LINE
  5
295A
330
2
100
AcDbEntity
  8
画層1
 62
     0
370
    20
100
AcDbLine
 10
-775.5652295960737
 20
514.958776737169
 30
0.0
 11
-775.5652295960735
 21
219.9587767371689
 31
0.0
  0
LINE
  5
295D
330
2
100
AcDbEntity
  8
画層1
  6
DASHED2
 62
     0
370
    20
100
AcDbLine
 10
-760.5652295960735
 20
78.95877673716904
 30
0.0
 11
-760.5652295960735
 21
-29.04122326283106
 31
0.0
  0
LINE
  5
295E
330
2
100
AcDbEntity
  8
画層1
 62
     0
370
    20
100
AcDbLine
 10
-375.5652295960734
 20
514.958776737169
 30
0.0
 11
-375.5652295960735
 21
-27.04122326283107
 31
0.0
  0
LINE
  5
295F
330
2
100
AcDbEntity
  8
画層1
  6
DASHED2
 62
     0
370
    20
100
AcDbLine
 10
-390.5652295960734
 20
516.958776737169
 30
0.0
 11
-390.5652295960734
 21
-29.04122326283106
 31
0.0
  0
LINE
  5
2960
330
2
100
AcDbEntity
  8
画層1
  6
DASHED2
 62
     0
370
    20
100
AcDbLine
 10
-773.5652295960735
 20
-29.04122326283106
 30
0.0
 11
-377.5652295960735
 21
-29.04122326283106
 31
0.0
  0
ARC
  5
2961
330
2
100
AcDbEntity
  8
画層1
  6
DASHED2
 62
     0
370
    20
100
AcDbCircle
 10
-773.5652295960735
 20
-27.04122326283107
 30
0.0
 40
2.0
100
AcDbArc
 50
180.0
 51
270.0
  0
ARC
  5
2962
330
2
100
AcDbEntity
  8
画層1
  6
DASHED2
 62
     0
370
    20
100
AcDbCircle
 10
-377.5652295960735
 20
-27.04122326283107
 30
0.0
 40
2.0
100
AcDbArc
 50
270.0
 51
0.0
  0
LINE
  5
2963
330
2
100
AcDbEntity
  8
画層1
  6
DASHED2
 62
     0
370
    20
100
AcDbLine
 10
-773.5652295960736
 20
516.958776737169
 30
0.0
 11
-377.5652295960734
 21
516.958776737169
 31
0.0
  0
ARC
  5
2964
330
2
100
AcDbEntity
  8
画層1
  6
DASHED2
 62
     0
370
    20
100
AcDbCircle
 10
-773.5652295960736
 20
514.958776737169
 30
0.0
 40
2.0
100
AcDbArc
 50
90.0
 51
180.0
  0
ARC
  5
2965
330
2
100
AcDbEntity
  8
画層1
  6
DASHED2
 62
     0
370
    20
100
AcDbCircle
 10
-377.5652295960734
 20
514.958776737169
 30
0.0
 40
2.0
100
AcDbArc
 50
0.0
 51
90.0
  0
LINE
  5
2967
330
2
100
AcDbEntity
  8
画層1
  6
DASHED2
 62
     0
370
    20
100
AcDbLine
 10
-760.5652295960735
 20
516.958776737169
 30
0.0
 11
-760.5652295960735
 21
218.958776737169
 31
0.0
  0
CIRCLE
  5
296A
330
2
100
AcDbEntity
  8
画層1
 62
     0
370
    20
100
AcDbCircle
 10
-768.5652295960736
 20
503.958776737169
 30
0.0
 40
4.0
  0
CIRCLE
  5
296C
330
2
100
AcDbEntity
  8
画層1
 62
     0
370
    20
100
AcDbCircle
 10
-382.5652295960736
 20
503.958776737169
 30
0.0
 40
4.0
  0
CIRCLE
  5
2976
330
2
100
AcDbEntity
  8
画層1
  6
DASHED2
 62
     0
370
    20
100
AcDbCircle
 10
-700.5652295960735
 20
-16.04122326283106
 30
0.0
 40
5.5
  0
CIRCLE
  5
2977
330
2
100
AcDbEntity
  8
画層1
  6
DASHED2
 62
     0
370
    20
100
AcDbCircle
 10
-450.5652295960735
 20
-16.04122326283106
 30
0.0
 40
5.5
  0
LINE
  5
297B
330
2
100
AcDbEntity
  8
画層1
  6
DASHED2
 62
     0
370
    20
100
AcDbLine
 10
-775.5652295960735
 20
77.95877673716893
 30
0.0
 11
-760.5652295960735
 21
77.95877673716893
 31
0.0
  0
LINE
  5
297C
330
2
100
AcDbEntity
  8
画層1
  6
DASHED2
 62
     0
370
    20
100
AcDbLine
 10
-775.5652295960735
 20
219.9587767371689
 30
0.0
 11
-760.5652295960735
 21
219.9587767371689
 31
0.0
  0
LINE
  5
297D
330
2
100
AcDbEntity
  8
画層1
 62
     0
370
    20
100
AcDbLine
 10
-775.5652295960735
 20
77.95877673716893
 30
0.0
 11
-775.5652295960735
 21
-27.04122326283107
 31
0.0
  0
LINE
  5
297F
330
2
100
AcDbEntity
  8
画層1
 62
     0
370
    20
100
AcDbLine
 10
-762.5652295960735
 20
218.958776737169
 30
0.0
 11
-762.5652295960735
 21
78.95877673716904
 31
0.0
  0
ARC
  5
2986
330
2
100
AcDbEntity
  8
画層1
  6
DASHED2
 62
     0
370
    20
100
AcDbCircle
 10
-700.5652295960735
 20
503.958776737169
 30
0.0
 40
5.5
100
AcDbArc
 50
0.0
 51
180.0
  0
LINE
  5
2988
330
2
100
AcDbEntity
  8
画層1
  6
DASHED2
 62
     0
370
    20
100
AcDbLine
 10
-706.0652295960736
 20
503.958776737169
 30
0.0
 11
-706.0652295960736
 21
498.1837488974909
 31
0.0
  0
LINE
  5
2989
330
2
100
AcDbEntity
  8
画層1
  6
DASHED2
 62
     0
370
    20
100
AcDbLine
 10
-695.0652295960735
 20
503.958776737169
 30
0.0
 11
-695.0652295960735
 21
498.1837488974909
 31
0.0
  0
ARC
  5
298E
330
2
100
AcDbEntity
  8
画層1
  6
DASHED2
 62
     0
370
    20
100
AcDbCircle
 10
-700.5652295960735
 20
486.958776737169
 30
0.0
 40
12.50000000000001
100
AcDbArc
 50
116.1038811373398
 51
63.89611886266013
  0
LINE
  5
298F
330
2
100
AcDbEntity
  8
画層1
  6
DASHED2
 62
     0
370
    20
100
AcDbLine
 10
-706.0652295960734
 20
503.958776737169
 30
0.0
 11
-706.0652295960734
 21
498.1837488974909
 31
0.0
  0
LINE
  5
2990
330
2
100
AcDbEntity
  8
画層1
  6
DASHED2
 62
     0
370
    20
100
AcDbLine
 10
-695.0652295960735
 20
503.958776737169
 30
0.0
 11
-695.0652295960735
 21
498.1837488974909
 31
0.0
  0
ARC
  5
2991
330
2
100
AcDbEntity
  8
画層1
  6
DASHED2
 62
     0
370
    20
100
AcDbCircle
 10
-450.5652295960735
 20
486.958776737169
 30
0.0
 40
12.50000000000001
100
AcDbArc
 50
116.1038811373398
 51
63.89611886266013
  0
LINE
  5
2992
330
2
100
AcDbEntity
  8
画層1
  6
DASHED2
 62
     0
370
    20
100
AcDbLine
 10
-445.0652295960735
 20
503.958776737169
 30
0.0
 11
-445.0652295960735
 21
498.1837488974909
 31
0.0
  0
LINE
  5
2993
330
2
100
AcDbEntity
  8
画層1
  6
DASHED2
 62
     0
370
    20
100
AcDbLine
 10
-456.0652295960734
 20
503.958776737169
 30
0.0
 11
-456.0652295960734
 21
498.1837488974909
 31
0.0
  0
LINE
  5
2994
330
2
100
AcDbEntity
  8
画層1
  6
DASHED2
 62
     0
370
    20
100
AcDbLine
 10
-445.0652295960735
 20
503.958776737169
 30
0.0
 11
-445.0652295960735
 21
498.1837488974909
 31
0.0
  0
LINE
  5
2995
330
2
100
AcDbEntity
  8
画層1
  6
DASHED2
 62
     0
370
    20
100
AcDbLine
 10
-456.0652295960735
 20
503.958776737169
 30
0.0
 11
-456.0652295960735
 21
498.1837488974909
 31
0.0
  0
ARC
  5
2996
330
2
100
AcDbEntity
  8
画層1
  6
DASHED2
 62
     0
370
    20
100
AcDbCircle
 10
-450.5652295960735
 20
503.958776737169
 30
0.0
 40
5.5
100
AcDbArc
 50
0.0
 51
180.0
  0
LINE
  5
299A
330
2
100
AcDbEntity
  8
画層1
 62
     0
370
    20
100
AcDbLine
 10
-126.0336397890405
 20
-29.04122326283106
 30
0.0
 11
234.9663602109595
 21
-29.04122326283106
 31
0.0
  0
LINE
  5
299B
330
2
100
AcDbEntity
  8
画層1
 62
     0
370
    20
100
AcDbLine
 10
-126.0336397890405
 20
516.9587767371689
 30
0.0
 11
234.9663602109595
 21
516.9587767371689
 31
0.0
  0
LINE
  5
299D
330
2
100
AcDbEntity
  8
画層1
 62
     0
370
    20
100
AcDbLine
 10
234.9663602109594
 20
516.9587767371689
 30
0.0
 11
234.9663602109594
 21
-29.04122326283106
 31
0.0
  0
LINE
  5
299E
330
2
100
AcDbEntity
  8
画層1
  6
DASHED2
 62
     0
370
    20
100
AcDbLine
 10
232.9663602109594
 20
516.9587767371689
 30
0.0
 11
232.9663602109594
 21
-29.04122326283106
 31
0.0
  0
CIRCLE
  5
29A4
330
2
100
AcDbEntity
  8
画層1
  6
DASHED2
 62
     0
370
    20
100
AcDbCircle
 10
69.96636021095952
 20
41.45877673716893
 30
0.0
 40
3.0
  0
CIRCLE
  5
29A5
330
2
100
AcDbEntity
  8
画層1
  6
DASHED2
 62
     0
370
    20
100
AcDbCircle
 10
69.96636021095952
 20
176.4587767371689
 30
0.0
 40
3.0
  0
CIRCLE
  5
29A6
330
2
100
AcDbEntity
  8
画層1
  6
DASHED2
 62
     0
370
    20
100
AcDbCircle
 10
69.96636021095952
 20
311.4587767371689
 30
0.0
 40
3.0
  0
CIRCLE
  5
29A7
330
2
100
AcDbEntity
  8
画層1
  6
DASHED2
 62
     0
370
    20
100
AcDbCircle
 10
69.96636021095952
 20
446.4587767371689
 30
0.0
 40
3.0
  0
CIRCLE
  5
29AC
330
2
100
AcDbEntity
  8
画層1
  6
DASHED2
 62
     0
370
    20
100
AcDbCircle
 10
-67.03363978904056
 20
73.95877673716893
 30
0.0
 40
2.0
  0
CIRCLE
  5
29AD
330
2
100
AcDbEntity
  8
画層1
  6
DASHED2
 62
     0
370
    20
100
AcDbCircle
 10
-67.03363978904056
 20
223.9587767371689
 30
0.0
 40
2.0
  0
CIRCLE
  5
29B0
330
2
100
AcDbEntity
  8
画層1
  6
DASHED2
 62
     0
370
    20
100
AcDbCircle
 10
-44.53363978904056
 20
95.45877673716892
 30
0.0
 40
2.5
  0
CIRCLE
  5
29B1
330
2
100
AcDbEntity
  8
画層1
  6
DASHED2
 62
     0
370
    20
100
AcDbCircle
 10
-44.53363978904056
 20
159.4587767371689
 30
0.0
 40
2.5
  0
CIRCLE
  5
29B2
330
2
100
AcDbEntity
  8
画層1
  6
DASHED2
 62
     0
370
    20
100
AcDbCircle
 10
16.46636021095943
 20
95.45877673716892
 30
0.0
 40
2.5
  0
CIRCLE
  5
29B3
330
2
100
AcDbEntity
  8
画層1
  6
DASHED2
 62
     0
370
    20
100
AcDbCircle
 10
16.46636021095943
 20
159.4587767371689
 30
0.0
 40
2.5
  0
CIRCLE
  5
29B9
330
2
100
AcDbEntity
  8
画層1
 62
     0
370
    20
100
AcDbCircle
 10
-495.5652295960735
 20
403.958776737169
 30
0.0
 40
15.0
  0
CIRCLE
  5
29BA
330
2
100
AcDbEntity
  8
画層1
 62
     0
370
    20
100
AcDbCircle
 10
-655.5652295960735
 20
403.958776737169
 30
0.0
 40
15.0
  0
LINE
  5
29BC
330
2
100
AcDbEntity
  8
画層1
 62
     0
370
    20
100
AcDbLine
 10
-375.5652295960735
 20
518.958776737169
 30
0.0
 11
-375.5652295960735
 21
514.958776737169
 31
0.0
  0
LINE
  5
29BD
330
2
100
AcDbEntity
  8
画層1
 62
     0
370
    20
100
AcDbLine
 10
-775.5652295960735
 20
518.958776737169
 30
0.0
 11
-775.5652295960735
 21
514.958776737169
 31
0.0
  0
LINE
  5
29BE
330
2
100
AcDbEntity
  8
画層1
 62
     0
370
    20
100
AcDbLine
 10
-375.5652295960734
 20
-27.04122326283107
 30
0.0
 11
-375.5652295960735
 21
-31.04122326283095
 31
0.0
  0
LINE
  5
29BF
330
2
100
AcDbEntity
  8
画層1
 62
     0
370
    20
100
AcDbLine
 10
-775.5652295960734
 20
-27.04122326283107
 30
0.0
 11
-775.5652295960735
 21
-31.04122326283095
 31
0.0
  0
LINE
  5
29C1
330
2
100
AcDbEntity
  8
画層1
 62
     0
370
    20
100
AcDbLine
 10
-375.5652295960735
 20
518.958776737169
 30
0.0
 11
-775.5652295960735
 21
518.958776737169
 31
0.0
  0
LINE
  5
29C5
330
2
100
AcDbEntity
  8
画層1
  6
DASHED2
 62
     0
370
    20
100
AcDbLine
 10
-395.5652295960735
 20
-29.84122326283095
 30
0.0
 11
-395.5652295960735
 21
-16.04122326283095
 31
0.0
  0
LINE
  5
29C6
330
2
100
AcDbEntity
  8
画層1
  6
DASHED2
 62
     0
370
    20
100
AcDbLine
 10
-395.5652295960735
 20
-16.04122326283095
 30
0.0
 11
-755.5652295960735
 21
-16.04122326283095
 31
0.0
  0
LINE
  5
29C7
330
2
100
AcDbEntity
  8
画層1
  6
DASHED2
 62
     0
370
    20
100
AcDbLine
 10
-755.5652295960735
 20
-16.04122326283095
 30
0.0
 11
-755.5652295960735
 21
-29.84122326283095
 31
0.0
  0
LINE
  5
29C9
330
2
100
AcDbEntity
  8
画層1
  6
DASHED2
 62
     0
370
    20
100
AcDbLine
 10
-755.5652295960735
 20
-29.84122326283095
 30
0.0
 11
-775.5652295960735
 21
-29.84122326283095
 31
0.0
  0
LINE
  5
29CC
330
2
100
AcDbEntity
  8
画層1
  6
DASHED2
 62
     0
370
    20
100
AcDbLine
 10
-395.5652295960735
 20
517.7587767371689
 30
0.0
 11
-395.5652295960735
 21
503.958776737169
 31
0.0
  0
LINE
  5
29CD
330
2
100
AcDbEntity
  8
画層1
  6
DASHED2
 62
     0
370
    20
100
AcDbLine
 10
-755.5652295960735
 20
517.7587767371689
 30
0.0
 11
-755.5652295960735
 21
503.958776737169
 31
0.0
  0
LINE
  5
29CE
330
2
100
AcDbEntity
  8
画層1
  6
DASHED2
 62
     0
370
    20
100
AcDbLine
 10
-395.5652295960735
 20
503.958776737169
 30
0.0
 11
-755.5652295960735
 21
503.958776737169
 31
0.0
  0
LINE
  5
29CF
330
2
100
AcDbEntity
  8
画層1
  6
DASHED2
 62
     0
370
    20
100
AcDbLine
 10
-375.5652295960735
 20
517.7587767371689
 30
0.0
 11
-395.5652295960735
 21
517.7587767371689
 31
0.0
  0
LINE
  5
29D0
330
2
100
AcDbEntity
  8
画層1
  6
DASHED2
 62
     0
370
    20
100
AcDbLine
 10
-755.5652295960735
 20
517.7587767371689
 30
0.0
 11
-775.5652295960735
 21
517.7587767371689
 31
0.0
  0
LINE
  5
29D1
330
2
100
AcDbEntity
  8
画層1
  6
DASHED2
 62
     0
370
    20
100
AcDbLine
 10
-395.5652295960735
 20
-29.84122326283095
 30
0.0
 11
-375.5652295960735
 21
-29.84122326283095
 31
0.0
  0
LINE
  5
29D6
330
2
100
AcDbEntity
  8
画層1
  6
DASHED2
 62
     0
370
    20
100
AcDbLine
 10
-379.4427305968744
 20
-18.54122326283095
 30
0.0
 11
-375.5652295960735
 21
-18.54122326283095
 31
0.0
  0
CIRCLE
  5
29DC
330
2
100
AcDbEntity
  8
画層1
 62
     0
370
    20
100
AcDbCircle
 10
-382.5652295960736
 20
-16.04122326283095
 30
0.0
 40
4.0
  0
LINE
  5
29E0
330
2
100
AcDbEntity
  8
画層1
 62
     0
370
    20
100
AcDbLine
 10
-379.4427305968744
 20
-13.54122326283095
 30
0.0
 11
-375.5652295960735
 21
-13.54122326283095
 31
0.0
  0
LINE
  5
29E1
330
2
100
AcDbEntity
  8
画層1
 62
     0
370
    20
100
AcDbLine
 10
-379.4427305968744
 20
-18.54122326283095
 30
0.0
 11
-375.5652295960735
 21
-18.54122326283095
 31
0.0
  0
LINE
  5
29E2
330
2
100
AcDbEntity
  8
画層1
 62
     0
370
    20
100
AcDbLine
 10
-382.5652295960736
 20
-12.04122326283095
 30
0.0
 11
-386.0293312112113
 21
-14.04122326283092
 31
0.0
  0
LINE
  5
29E3
330
2
100
AcDbEntity
  8
画層1
 62
     0
370
    20
100
AcDbLine
 10
-386.0293312112113
 20
-14.04122326283092
 30
0.0
 11
-386.0293312112113
 21
-18.04122326283094
 31
0.0
  0
LINE
  5
29E4
330
2
100
AcDbEntity
  8
画層1
 62
     0
370
    20
100
AcDbLine
 10
-386.0293312112113
 20
-18.04122326283094
 30
0.0
 11
-382.5652295960736
 21
-20.04122326283095
 31
0.0
  0
LINE
  5
29E5
330
2
100
AcDbEntity
  8
画層1
 62
     0
370
    20
100
AcDbLine
 10
-382.5652295960736
 20
-20.04122326283095
 30
0.0
 11
-379.1011279809359
 21
-18.04122326283098
 31
0.0
  0
LINE
  5
29E6
330
2
100
AcDbEntity
  8
画層1
 62
     0
370
    20
100
AcDbLine
 10
-379.1011279809359
 20
-18.04122326283098
 30
0.0
 11
-379.1011279809359
 21
-14.04122326283092
 31
0.0
  0
LINE
  5
29E7
330
2
100
AcDbEntity
  8
画層1
 62
     0
370
    20
100
AcDbLine
 10
-379.1011279809359
 20
-14.04122326283092
 30
0.0
 11
-382.5652295960736
 21
-12.04122326283095
 31
0.0
  0
LINE
  5
29E8
330
2
100
AcDbEntity
  8
画層1
 62
     0
370
    20
100
AcDbLine
 10
-771.6877285952725
 20
-18.54122326283095
 30
0.0
 11
-775.5652295960735
 21
-18.54122326283095
 31
0.0
  0
LINE
  5
29E9
330
2
100
AcDbEntity
  8
画層1
 62
     0
370
    20
100
AcDbLine
 10
-771.6877285952725
 20
-13.54122326283095
 30
0.0
 11
-775.5652295960735
 21
-13.54122326283095
 31
0.0
  0
LINE
  5
29EA
330
2
100
AcDbEntity
  8
画層1
  6
DASHED2
 62
     0
370
    20
100
AcDbLine
 10
-771.6877285952725
 20
-18.54122326283095
 30
0.0
 11
-775.5652295960735
 21
-18.54122326283095
 31
0.0
  0
LINE
  5
29EB
330
2
100
AcDbEntity
  8
画層1
 62
     0
370
    20
100
AcDbLine
 10
-772.0293312112112
 20
-14.04122326283092
 30
0.0
 11
-768.5652295960734
 21
-12.04122326283095
 31
0.0
  0
LINE
  5
29EC
330
2
100
AcDbEntity
  8
画層1
 62
     0
370
    20
100
AcDbLine
 10
-772.0293312112112
 20
-18.04122326283098
 30
0.0
 11
-772.0293312112112
 21
-14.04122326283092
 31
0.0
  0
LINE
  5
29ED
330
2
100
AcDbEntity
  8
画層1
 62
     0
370
    20
100
AcDbLine
 10
-768.5652295960734
 20
-20.04122326283095
 30
0.0
 11
-772.0293312112112
 21
-18.04122326283098
 31
0.0
  0
LINE
  5
29EE
330
2
100
AcDbEntity
  8
画層1
 62
     0
370
    20
100
AcDbLine
 10
-765.1011279809356
 20
-18.04122326283094
 30
0.0
 11
-768.5652295960734
 21
-20.04122326283095
 31
0.0
  0
LINE
  5
29EF
330
2
100
AcDbEntity
  8
画層1
 62
     0
370
    20
100
AcDbLine
 10
-765.1011279809356
 20
-14.04122326283092
 30
0.0
 11
-765.1011279809356
 21
-18.04122326283094
 31
0.0
  0
LINE
  5
29F0
330
2
100
AcDbEntity
  8
画層1
 62
     0
370
    20
100
AcDbLine
 10
-768.5652295960734
 20
-12.04122326283095
 30
0.0
 11
-765.1011279809356
 21
-14.04122326283092
 31
0.0
  0
CIRCLE
  5
29F1
330
2
100
AcDbEntity
  8
画層1
 62
     0
370
    20
100
AcDbCircle
 10
-768.5652295960734
 20
-16.04122326283095
 30
0.0
 40
4.0
  0
CIRCLE
  5
29F2
330
2
100
AcDbEntity
  8
画層1
 62
     0
370
    20
100
AcDbCircle
 10
-768.5652295960734
 20
503.9587767371689
 30
0.0
 40
4.0
  0
LINE
  5
29F3
330
2
100
AcDbEntity
  8
画層1
 62
     0
370
    20
100
AcDbLine
 10
-768.5652295960734
 20
507.9587767371689
 30
0.0
 11
-772.0293312112112
 21
505.958776737169
 31
0.0
  0
LINE
  5
29F4
330
2
100
AcDbEntity
  8
画層1
 62
     0
370
    20
100
AcDbLine
 10
-772.0293312112112
 20
501.9587767371688
 30
0.0
 11
-768.5652295960734
 21
499.9587767371689
 31
0.0
  0
LINE
  5
29F5
330
2
100
AcDbEntity
  8
画層1
 62
     0
370
    20
100
AcDbLine
 10
-772.0293312112112
 20
505.958776737169
 30
0.0
 11
-772.0293312112112
 21
501.9587767371688
 31
0.0
  0
LINE
  5
29F6
330
2
100
AcDbEntity
  8
画層1
  6
DASHED2
 62
     0
370
    20
100
AcDbLine
 10
-771.6877285952725
 20
506.4587767371689
 30
0.0
 11
-775.5652295960735
 21
506.4587767371689
 31
0.0
  0
LINE
  5
29F7
330
2
100
AcDbEntity
  8
画層1
 62
     0
370
    20
100
AcDbLine
 10
-771.6877285952725
 20
501.4587767371689
 30
0.0
 11
-775.5652295960735
 21
501.4587767371689
 31
0.0
  0
LINE
  5
29F8
330
2
100
AcDbEntity
  8
画層1
 62
     0
370
    20
100
AcDbLine
 10
-771.6877285952725
 20
506.4587767371689
 30
0.0
 11
-775.5652295960735
 21
506.4587767371689
 31
0.0
  0
LINE
  5
29F9
330
2
100
AcDbEntity
  8
画層1
 62
     0
370
    20
100
AcDbLine
 10
-768.5652295960734
 20
499.9587767371689
 30
0.0
 11
-765.1011279809356
 21
501.9587767371688
 31
0.0
  0
LINE
  5
29FA
330
2
100
AcDbEntity
  8
画層1
 62
     0
370
    20
100
AcDbLine
 10
-765.1011279809356
 20
501.9587767371688
 30
0.0
 11
-765.1011279809356
 21
505.9587767371689
 31
0.0
  0
LINE
  5
29FB
330
2
100
AcDbEntity
  8
画層1
 62
     0
370
    20
100
AcDbLine
 10
-765.1011279809356
 20
505.9587767371689
 30
0.0
 11
-768.5652295960734
 21
507.9587767371689
 31
0.0
  0
LINE
  5
29FC
330
2
100
AcDbEntity
  8
画層1
 62
     0
370
    20
100
AcDbLine
 10
-379.4427305968744
 20
506.4587767371689
 30
0.0
 11
-375.5652295960735
 21
506.4587767371689
 31
0.0
  0
LINE
  5
29FD
330
2
100
AcDbEntity
  8
画層1
 62
     0
370
    20
100
AcDbLine
 10
-379.4427305968744
 20
501.4587767371689
 30
0.0
 11
-375.5652295960735
 21
501.4587767371689
 31
0.0
  0
LINE
  5
29FE
330
2
100
AcDbEntity
  8
画層1
  6
DASHED2
 62
     0
370
    20
100
AcDbLine
 10
-379.4427305968744
 20
506.4587767371689
 30
0.0
 11
-375.5652295960735
 21
506.4587767371689
 31
0.0
  0
LINE
  5
29FF
330
2
100
AcDbEntity
  8
画層1
 62
     0
370
    20
100
AcDbLine
 10
-379.1011279809359
 20
501.9587767371688
 30
0.0
 11
-382.5652295960736
 21
499.9587767371689
 31
0.0
  0
LINE
  5
2A00
330
2
100
AcDbEntity
  8
画層1
 62
     0
370
    20
100
AcDbLine
 10
-379.1011279809359
 20
505.958776737169
 30
0.0
 11
-379.1011279809359
 21
501.9587767371688
 31
0.0
  0
LINE
  5
2A01
330
2
100
AcDbEntity
  8
画層1
 62
     0
370
    20
100
AcDbLine
 10
-382.5652295960736
 20
507.9587767371689
 30
0.0
 11
-379.1011279809359
 21
505.958776737169
 31
0.0
  0
LINE
  5
2A02
330
2
100
AcDbEntity
  8
画層1
 62
     0
370
    20
100
AcDbLine
 10
-386.0293312112113
 20
505.9587767371689
 30
0.0
 11
-382.5652295960736
 21
507.9587767371689
 31
0.0
  0
LINE
  5
2A03
330
2
100
AcDbEntity
  8
画層1
 62
     0
370
    20
100
AcDbLine
 10
-386.0293312112113
 20
501.9587767371688
 30
0.0
 11
-386.0293312112113
 21
505.9587767371689
 31
0.0
  0
LINE
  5
2A04
330
2
100
AcDbEntity
  8
画層1
 62
     0
370
    20
100
AcDbLine
 10
-382.5652295960736
 20
499.9587767371689
 30
0.0
 11
-386.0293312112113
 21
501.9587767371688
 31
0.0
  0
CIRCLE
  5
2A05
330
2
100
AcDbEntity
  8
画層1
 62
     0
370
    20
100
AcDbCircle
 10
-382.5652295960736
 20
503.9587767371689
 30
0.0
 40
4.0
  0
LINE
  5
2A06
330
2
100
AcDbEntity
  8
画層1
 62
     0
370
    20
100
AcDbLine
 10
-772.0293312112112
 20
241.9587767371688
 30
0.0
 11
-768.5652295960734
 21
239.9587767371689
 31
0.0
  0
LINE
  5
2A07
330
2
100
AcDbEntity
  8
画層1
 62
     0
370
    20
100
AcDbLine
 10
-768.5652295960734
 20
247.9587767371689
 30
0.0
 11
-772.0293312112112
 21
245.958776737169
 31
0.0
  0
CIRCLE
  5
2A08
330
2
100
AcDbEntity
  8
画層1
 62
     0
370
    20
100
AcDbCircle
 10
-768.5652295960734
 20
243.9587767371689
 30
0.0
 40
4.0
  0
CIRCLE
  5
2A09
330
2
100
AcDbEntity
  8
画層1
 62
     0
370
    20
100
AcDbCircle
 10
-768.5652295960736
 20
243.958776737169
 30
0.0
 40
4.0
  0
LINE
  5
2A0A
330
2
100
AcDbEntity
  8
画層1
 62
     0
370
    20
100
AcDbLine
 10
-771.6877285952725
 20
246.4587767371689
 30
0.0
 11
-775.5652295960735
 21
246.4587767371689
 31
0.0
  0
LINE
  5
2A0B
330
2
100
AcDbEntity
  8
画層1
 62
     0
370
    20
100
AcDbLine
 10
-771.6877285952725
 20
241.4587767371689
 30
0.0
 11
-775.5652295960735
 21
241.4587767371689
 31
0.0
  0
LINE
  5
2A0C
330
2
100
AcDbEntity
  8
画層1
  6
DASHED2
 62
     0
370
    20
100
AcDbLine
 10
-771.6877285952725
 20
246.4587767371689
 30
0.0
 11
-775.5652295960735
 21
246.4587767371689
 31
0.0
  0
LINE
  5
2A0D
330
2
100
AcDbEntity
  8
画層1
 62
     0
370
    20
100
AcDbLine
 10
-772.0293312112112
 20
245.958776737169
 30
0.0
 11
-772.0293312112112
 21
241.9587767371688
 31
0.0
  0
LINE
  5
2A0E
330
2
100
AcDbEntity
  8
画層1
 62
     0
370
    20
100
AcDbLine
 10
-765.1011279809356
 20
245.9587767371689
 30
0.0
 11
-768.5652295960734
 21
247.9587767371689
 31
0.0
  0
LINE
  5
2A0F
330
2
100
AcDbEntity
  8
画層1
 62
     0
370
    20
100
AcDbLine
 10
-765.1011279809356
 20
241.9587767371688
 30
0.0
 11
-765.1011279809356
 21
245.9587767371689
 31
0.0
  0
LINE
  5
2A10
330
2
100
AcDbEntity
  8
画層1
 62
     0
370
    20
100
AcDbLine
 10
-768.5652295960734
 20
239.9587767371689
 30
0.0
 11
-765.1011279809356
 21
241.9587767371688
 31
0.0
  0
LINE
  5
2A11
330
2
100
AcDbEntity
  8
画層1
  6
DASHED2
 62
     0
370
    20
100
AcDbLine
 10
-379.4427305968744
 20
246.4587767371689
 30
0.0
 11
-375.5652295960735
 21
246.4587767371689
 31
0.0
  0
LINE
  5
2A12
330
2
100
AcDbEntity
  8
画層1
 62
     0
370
    20
100
AcDbLine
 10
-379.4427305968744
 20
241.4587767371689
 30
0.0
 11
-375.5652295960735
 21
241.4587767371689
 31
0.0
  0
LINE
  5
2A13
330
2
100
AcDbEntity
  8
画層1
 62
     0
370
    20
100
AcDbLine
 10
-379.4427305968744
 20
246.4587767371689
 30
0.0
 11
-375.5652295960735
 21
246.4587767371689
 31
0.0
  0
CIRCLE
  5
2A14
330
2
100
AcDbEntity
  8
画層1
 62
     0
370
    20
100
AcDbCircle
 10
-382.5652295960736
 20
243.9587767371689
 30
0.0
 40
4.0
  0
LINE
  5
2A15
330
2
100
AcDbEntity
  8
画層1
 62
     0
370
    20
100
AcDbLine
 10
-382.5652295960736
 20
239.9587767371689
 30
0.0
 11
-386.0293312112113
 21
241.9587767371688
 31
0.0
  0
LINE
  5
2A16
330
2
100
AcDbEntity
  8
画層1
 62
     0
370
    20
100
AcDbLine
 10
-386.0293312112113
 20
241.9587767371688
 30
0.0
 11
-386.0293312112113
 21
245.9587767371689
 31
0.0
  0
LINE
  5
2A17
330
2
100
AcDbEntity
  8
画層1
 62
     0
370
    20
100
AcDbLine
 10
-386.0293312112113
 20
245.9587767371689
 30
0.0
 11
-382.5652295960736
 21
247.9587767371689
 31
0.0
  0
LINE
  5
2A18
330
2
100
AcDbEntity
  8
画層1
 62
     0
370
    20
100
AcDbLine
 10
-382.5652295960736
 20
247.9587767371689
 30
0.0
 11
-379.1011279809359
 21
245.958776737169
 31
0.0
  0
LINE
  5
2A19
330
2
100
AcDbEntity
  8
画層1
 62
     0
370
    20
100
AcDbLine
 10
-379.1011279809359
 20
245.958776737169
 30
0.0
 11
-379.1011279809359
 21
241.9587767371688
 31
0.0
  0
LINE
  5
2A1A
330
2
100
AcDbEntity
  8
画層1
 62
     0
370
    20
100
AcDbLine
 10
-379.1011279809359
 20
241.9587767371688
 30
0.0
 11
-382.5652295960736
 21
239.9587767371689
 31
0.0
  0
CIRCLE
  5
2A1B
330
2
100
AcDbEntity
  8
画層1
 62
     0
370
    20
100
AcDbCircle
 10
-382.5652295960736
 20
243.958776737169
 30
0.0
 40
4.0
  0
LINE
  5
2A1F
330
2
100
AcDbEntity
  8
画層1
370
    20
100
AcDbLine
 10
-775.5652295960735
 20
78.95877673716904
 30
0.0
 11
-732.5652295960735
 21
78.95877673716904
 31
0.0
  0
LINE
  5
2A20
330
2
100
AcDbEntity
  8
画層1
 62
     1
370
    20
100
AcDbLine
 10
-775.5652295960735
 20
78.95877673716904
 30
0.0
 11
-775.5652295960735
 21
77.95877673716893
 31
0.0
  0
LINE
  5
2A22
330
2
100
AcDbEntity
  8
画層1
 62
     1
370
    20
100
AcDbLine
 10
-775.5652295960735
 20
219.9587767371689
 30
0.0
 11
-775.5652295960735
 21
218.958776737169
 31
0.0
  0
LINE
  5
2A23
330
2
100
AcDbEntity
  8
画層1
370
    20
100
AcDbLine
 10
-775.5652295960735
 20
218.958776737169
 30
0.0
 11
-732.5652295960735
 21
218.958776737169
 31
0.0
  0
LINE
  5
2A24
330
2
100
AcDbEntity
  8
画層1
370
    20
100
AcDbLine
 10
-734.5652295960735
 20
206.958776737169
 30
0.0
 11
-734.5652295960735
 21
90.95877673716904
 31
0.0
  0
LINE
  5
2A27
330
2
100
AcDbEntity
  8
画層1
 62
     0
370
    20
100
AcDbLine
 10
-760.5652295960735
 20
218.958776737169
 30
0.0
 11
-760.5652295960735
 21
78.95877673716904
 31
0.0
  0
LINE
  5
2A2A
330
2
100
AcDbEntity
  8
画層1
370
    20
100
AcDbLine
 10
-732.5652295960735
 20
218.958776737169
 30
0.0
 11
-732.5652295960735
 21
206.958776737169
 31
0.0
  0
LINE
  5
2A2B
330
2
100
AcDbEntity
  8
画層1
370
    20
100
AcDbLine
 10
-734.5652295960735
 20
90.95877673716904
 30
0.0
 11
-732.5652295960735
 21
90.95877673716904
 31
0.0
  0
LINE
  5
2A2C
330
2
100
AcDbEntity
  8
画層1
370
    20
100
AcDbLine
 10
-732.5652295960735
 20
90.95877673716904
 30
0.0
 11
-732.5652295960735
 21
78.95877673716904
 31
0.0
  0
LINE
  5
2A2D
330
2
100
AcDbEntity
  8
画層1
370
    20
100
AcDbLine
 10
-734.5652295960735
 20
90.95877673716904
 30
0.0
 11
-732.5652295960735
 21
90.95877673716904
 31
0.0
  0
LINE
  5
2A30
330
2
100
AcDbEntity
  8
画層1
370
    20
100
AcDbLine
 10
-734.5652295960735
 20
206.958776737169
 30
0.0
 11
-732.5652295960735
 21
206.958776737169
 31
0.0
  0
LINE
  5
2A3B
330
2
100
AcDbEntity
  8
画層1
  6
DASHED2
 62
     0
370
    20
100
AcDbLine
 10
79.96636021095952
 20
463.9587767371689
 30
0.0
 11
59.96636021095952
 21
463.9587767371689
 31
0.0
  0
LINE
  5
2A3C
330
2
100
AcDbEntity
  8
画層1
  6
DASHED2
 62
     0
370
    20
100
AcDbLine
 10
59.96636021095952
 20
463.9587767371689
 30
0.0
 11
59.96636021095952
 21
23.95877673716893
 31
0.0
  0
LINE
  5
2A3D
330
2
100
AcDbEntity
  8
画層1
  6
DASHED2
 62
     0
370
    20
100
AcDbLine
 10
59.96636021095952
 20
23.95877673716893
 30
0.0
 11
79.96636021095952
 21
23.95877673716893
 31
0.0
  0
LINE
  5
2A3E
330
2
100
AcDbEntity
  8
画層1
  6
DASHED2
 62
     0
370
    20
100
AcDbLine
 10
79.96636021095952
 20
23.95877673716893
 30
0.0
 11
79.96636021095952
 21
463.9587767371689
 31
0.0
  0
LWPOLYLINE
  5
2A6D
330
2
100
AcDbEntity
  8
画層1
  6
DASHED2
 62
     0
370
    20
100
AcDbPolyline
 90
        4
 70
     1
 43
0.0
 10
59.96636021095952
 20
468.9587767371689
 10
44.96636021095952
 20
468.9587767371689
 10
44.96636021095952
 20
18.95877673716893
 10
59.96636021095952
 20
18.95877673716893
  0
LINE
  5
2A75
330
2
100
AcDbEntity
  8
画層1
  6
DASHED2
 62
     0
370
    20
100
AcDbLine
 10
-680.5652295960735
 20
56.95877673716892
 30
0.0
 11
-680.5652295960735
 21
-31.04122326283108
 31
0.0
  0
LINE
  5
2A76
330
2
100
AcDbEntity
  8
画層1
  6
DASHED2
 62
     0
370
    20
100
AcDbLine
 10
-680.5652295960735
 20
-31.04122326283108
 30
0.0
 11
-630.5652295960735
 21
-31.04122326283108
 31
0.0
  0
LINE
  5
2A77
330
2
100
AcDbEntity
  8
画層1
  6
DASHED2
 62
     0
370
    20
100
AcDbLine
 10
-630.5652295960735
 20
-31.04122326283108
 30
0.0
 11
-630.5652295960735
 21
56.9587767371689
 31
0.0
  0
LINE
  5
2A78
330
2
100
AcDbEntity
  8
画層1
  6
DASHED2
 62
     0
370
    20
100
AcDbLine
 10
-630.5652295960735
 20
56.9587767371689
 30
0.0
 11
-680.5652295960735
 21
56.95877673716891
 31
0.0
  0
LINE
  5
2A7A
330
2
100
AcDbEntity
  8
画層1
  6
DASHED2
 62
     0
370
    20
100
AcDbLine
 10
-680.5652295960735
 20
50.9587767371689
 30
0.0
 11
-630.5652295960735
 21
50.9587767371689
 31
0.0
  0
CIRCLE
  5
2A7B
330
2
100
AcDbEntity
  8
画層1
  6
DASHED2
 62
     0
370
    20
100
AcDbCircle
 10
-655.5652295960735
 20
-6.041223262831088
 30
0.0
 40
5.5
  0
LINE
  5
2A7C
330
2
100
AcDbEntity
  8
画層1
  6
DASHED2
 62
     0
370
    20
100
AcDbLine
 10
-520.5652295960735
 20
50.9587767371689
 30
0.0
 11
-470.5652295960735
 21
50.9587767371689
 31
0.0
  0
LINE
  5
2A7D
330
2
100
AcDbEntity
  8
画層1
  6
DASHED2
 62
     0
370
    20
100
AcDbLine
 10
-470.5652295960735
 20
56.9587767371689
 30
0.0
 11
-520.5652295960735
 21
56.95877673716891
 31
0.0
  0
LINE
  5
2A7E
330
2
100
AcDbEntity
  8
画層1
  6
DASHED2
 62
     0
370
    20
100
AcDbLine
 10
-470.5652295960735
 20
-31.04122326283108
 30
0.0
 11
-470.5652295960735
 21
56.9587767371689
 31
0.0
  0
LINE
  5
2A7F
330
2
100
AcDbEntity
  8
画層1
  6
DASHED2
 62
     0
370
    20
100
AcDbLine
 10
-520.5652295960735
 20
56.95877673716892
 30
0.0
 11
-520.5652295960735
 21
-31.04122326283108
 31
0.0
  0
LINE
  5
2A80
330
2
100
AcDbEntity
  8
画層1
  6
DASHED2
 62
     0
370
    20
100
AcDbLine
 10
-520.5652295960735
 20
-31.04122326283108
 30
0.0
 11
-470.5652295960735
 21
-31.04122326283108
 31
0.0
  0
CIRCLE
  5
2A81
330
2
100
AcDbEntity
  8
画層1
  6
DASHED2
 62
     0
370
    20
100
AcDbCircle
 10
-495.5652295960735
 20
-6.041223262831088
 30
0.0
 40
5.5
  0
LINE
  5
2A82
330
2
100
AcDbEntity
  8
画層1
  6
DASHED2
 62
     0
370
    20
100
AcDbLine
 10
-470.5652295960735
 20
430.9587767371689
 30
0.0
 11
-520.5652295960735
 21
430.9587767371689
 31
0.0
  0
LINE
  5
2A83
330
2
100
AcDbEntity
  8
画層1
  6
DASHED2
 62
     0
370
    20
100
AcDbLine
 10
-520.5652295960735
 20
436.9587767371689
 30
0.0
 11
-470.5652295960735
 21
436.9587767371689
 31
0.0
  0
LINE
  5
2A84
330
2
100
AcDbEntity
  8
画層1
  6
DASHED2
 62
     0
370
    20
100
AcDbLine
 10
-680.5652295960735
 20
436.9587767371689
 30
0.0
 11
-630.5652295960735
 21
436.9587767371689
 31
0.0
  0
LINE
  5
2A85
330
2
100
AcDbEntity
  8
画層1
  6
DASHED2
 62
     0
370
    20
100
AcDbLine
 10
-630.5652295960735
 20
430.9587767371689
 30
0.0
 11
-680.5652295960735
 21
430.9587767371689
 31
0.0
  0
LINE
  5
2A86
330
2
100
AcDbEntity
  8
画層1
  6
DASHED2
 62
     0
370
    20
100
AcDbLine
 10
-630.5652295960735
 20
518.9587767371689
 30
0.0
 11
-630.5652295960735
 21
430.9587767371689
 31
0.0
  0
LINE
  5
2A87
330
2
100
AcDbEntity
  8
画層1
  6
DASHED2
 62
     0
370
    20
100
AcDbLine
 10
-680.5652295960735
 20
430.9587767371689
 30
0.0
 11
-680.5652295960735
 21
518.9587767371689
 31
0.0
  0
CIRCLE
  5
2A88
330
2
100
AcDbEntity
  8
画層1
  6
DASHED2
 62
     0
370
    20
100
AcDbCircle
 10
-655.5652295960735
 20
493.9587767371689
 30
0.0
 40
5.5
  0
LINE
  5
2A89
330
2
100
AcDbEntity
  8
画層1
  6
DASHED2
 62
     0
370
    20
100
AcDbLine
 10
-520.5652295960735
 20
430.9587767371689
 30
0.0
 11
-520.5652295960735
 21
518.9587767371689
 31
0.0
  0
LINE
  5
2A8A
330
2
100
AcDbEntity
  8
画層1
  6
DASHED2
 62
     0
370
    20
100
AcDbLine
 10
-470.5652295960735
 20
518.9587767371689
 30
0.0
 11
-470.5652295960735
 21
430.9587767371689
 31
0.0
  0
CIRCLE
  5
2A8B
330
2
100
AcDbEntity
  8
画層1
  6
DASHED2
 62
     0
370
    20
100
AcDbCircle
 10
-495.5652295960735
 20
493.9587767371689
 30
0.0
 40
5.5
  0
LINE
  5
2A8C
330
2
100
AcDbEntity
  8
画層1
  6
DASHED2
 62
     0
370
    20
100
AcDbLine
 10
-520.5652295960735
 20
518.9587767371689
 30
0.0
 11
-470.5652295960735
 21
518.9587767371689
 31
0.0
  0
LINE
  5
2A8D
330
2
100
AcDbEntity
  8
画層1
  6
DASHED2
 62
     0
370
    20
100
AcDbLine
 10
-680.5652295960735
 20
518.9587767371689
 30
0.0
 11
-630.5652295960735
 21
518.9587767371689
 31
0.0
  0
LINE
  5
2A94
330
2
100
AcDbEntity
  8
画層1
  6
DASHED2
 62
     0
370
    20
100
AcDbLine
 10
39.96636021095952
 20
56.95877673716889
 30
0.0
 11
-50.03363978904046
 21
56.95877673716891
 31
0.0
  0
LINE
  5
2A95
330
2
100
AcDbEntity
  8
画層1
  6
DASHED2
 62
     0
370
    20
100
AcDbLine
 10
-50.03363978904046
 20
56.95877673716891
 30
0.0
 11
-50.03363978904046
 21
50.9587767371689
 31
0.0
  0
LINE
  5
2A96
330
2
100
AcDbEntity
  8
画層1
  6
DASHED2
 62
     0
370
    20
100
AcDbLine
 10
-50.03363978904046
 20
50.9587767371689
 30
0.0
 11
33.96636021095952
 21
50.95877673716891
 31
0.0
  0
LINE
  5
2A97
330
2
100
AcDbEntity
  8
画層1
  6
DASHED2
 62
     0
370
    20
100
AcDbLine
 10
38.96636021095952
 20
45.9587767371689
 30
0.0
 11
38.96636021095952
 21
-31.04122326283108
 31
0.0
  0
LINE
  5
2A98
330
2
100
AcDbEntity
  8
画層1
  6
DASHED2
 62
     0
370
    20
100
AcDbLine
 10
38.96636021095952
 20
-31.04122326283108
 30
0.0
 11
44.96636021095946
 21
-31.04122326283108
 31
0.0
  0
LINE
  5
2A99
330
2
100
AcDbEntity
  8
画層1
  6
DASHED2
 62
     0
370
    20
100
AcDbLine
 10
44.96636021095946
 20
-31.04122326283108
 30
0.0
 11
44.96636021095952
 21
51.95877673716889
 31
0.0
  0
ARC
  5
2A9A
330
2
100
AcDbEntity
  8
画層1
  6
DASHED2
 62
     0
370
    20
100
AcDbCircle
 10
33.96636021095952
 20
45.9587767371689
 30
0.0
 40
5.0
100
AcDbArc
 50
0.0
 51
90.0
  0
ARC
  5
2A9B
330
2
100
AcDbEntity
  8
画層1
  6
DASHED2
 62
     0
370
    20
100
AcDbCircle
 10
39.96636021095952
 20
51.95877673716889
 30
0.0
 40
5.0
100
AcDbArc
 50
359.9999999999999
 51
90.0
  0
LINE
  5
2A9C
330
2
100
AcDbEntity
  8
画層1
  6
DASHED2
 62
     0
370
    20
100
AcDbLine
 10
39.96636021095952
 20
430.9587767371691
 30
0.0
 11
-50.03363978904046
 21
430.958776737169
 31
0.0
  0
LINE
  5
2A9D
330
2
100
AcDbEntity
  8
画層1
  6
DASHED2
 62
     0
370
    20
100
AcDbLine
 10
-50.03363978904046
 20
436.958776737169
 30
0.0
 11
33.96636021095952
 21
436.958776737169
 31
0.0
  0
LINE
  5
2A9E
330
2
100
AcDbEntity
  8
画層1
  6
DASHED2
 62
     0
370
    20
100
AcDbLine
 10
-50.03363978904046
 20
430.958776737169
 30
0.0
 11
-50.03363978904046
 21
436.958776737169
 31
0.0
  0
LINE
  5
2A9F
330
2
100
AcDbEntity
  8
画層1
  6
DASHED2
 62
     0
370
    20
100
AcDbLine
 10
44.96636021095946
 20
518.958776737169
 30
0.0
 11
44.96636021095952
 21
435.958776737169
 31
0.0
  0
LINE
  5
2AA0
330
2
100
AcDbEntity
  8
画層1
  6
DASHED2
 62
     0
370
    20
100
AcDbLine
 10
38.96636021095952
 20
441.958776737169
 30
0.0
 11
38.96636021095952
 21
518.958776737169
 31
0.0
  0
LINE
  5
2AA1
330
2
100
AcDbEntity
  8
画層1
  6
DASHED2
 62
     0
370
    20
100
AcDbLine
 10
38.96636021095952
 20
518.958776737169
 30
0.0
 11
44.96636021095946
 21
518.958776737169
 31
0.0
  0
ARC
  5
2AA2
330
2
100
AcDbEntity
  8
画層1
  6
DASHED2
 62
     0
370
    20
100
AcDbCircle
 10
39.96636021095952
 20
435.958776737169
 30
0.0
 40
5.0
100
AcDbArc
 50
270.0
 51
0.0000000000000649
  0
ARC
  5
2AA3
330
2
100
AcDbEntity
  8
画層1
  6
DASHED2
 62
     0
370
    20
100
AcDbCircle
 10
33.96636021095952
 20
441.958776737169
 30
0.0
 40
5.0
100
AcDbArc
 50
270.0
 51
0.0
  0
LINE
  5
2B18
330
2
100
AcDbEntity
  8
画層1
  6
DASHED2
 62
     0
370
    20
100
AcDbLine
 10
79.96636021095952
 20
78.958776737169
 30
0.0
 11
213.9663602109595
 21
78.95877673716899
 31
0.0
  0
LINE
  5
2B19
330
2
100
AcDbEntity
  8
画層1
  6
DASHED2
 62
     0
370
    20
100
AcDbLine
 10
213.9663602109595
 20
78.95877673716899
 30
0.0
 11
213.9663602109595
 21
228.9587767371689
 31
0.0
  0
LINE
  5
2B1A
330
2
100
AcDbEntity
  8
画層1
  6
DASHED2
 62
     0
370
    20
100
AcDbLine
 10
213.9663602109595
 20
228.9587767371689
 30
0.0
 11
79.96636021095952
 21
228.9587767371689
 31
0.0
  0
LINE
  5
2B1B
330
2
100
AcDbEntity
  8
画層1
  6
DASHED2
 62
     0
370
    20
100
AcDbLine
 10
213.9663602109595
 20
408.9587767371689
 30
0.0
 11
79.96636021095952
 21
408.9587767371689
 31
0.0
  0
LINE
  5
2B1C
330
2
100
AcDbEntity
  8
画層1
  6
DASHED2
 62
     0
370
    20
100
AcDbLine
 10
213.9663602109595
 20
258.958776737169
 30
0.0
 11
213.9663602109595
 21
408.9587767371689
 31
0.0
  0
LINE
  5
2B1D
330
2
100
AcDbEntity
  8
画層1
  6
DASHED2
 62
     0
370
    20
100
AcDbLine
 10
79.96636021095952
 20
258.958776737169
 30
0.0
 11
213.9663602109595
 21
258.958776737169
 31
0.0
  0
LINE
  5
2B23
330
2
100
AcDbEntity
  8
画層1
  6
DASHED2
370
    20
100
AcDbLine
 10
-98.03363978904048
 20
503.958776737169
 30
0.0
 11
-98.03363978904048
 21
516.9587767371689
 31
0.0
  0
LINE
  5
2B24
330
2
100
AcDbEntity
  8
画層1
370
    20
100
AcDbLine
 10
-98.03363978904048
 20
518.958776737169
 30
0.0
 11
-130.0336397890404
 21
518.958776737169
 31
0.0
  0
LINE
  5
2B25
330
2
100
AcDbEntity
  8
画層1
  6
DASHED2
370
    20
100
AcDbLine
 10
-99.23363978904049
 20
503.958776737169
 30
0.0
 11
-99.23363978904049
 21
516.9587767371689
 31
0.0
  0
LINE
  5
2B26
330
2
100
AcDbEntity
  8
画層1
370
    20
100
AcDbLine
 10
-128.8336397890405
 20
517.7587767371689
 30
0.0
 11
-99.23363978904049
 21
517.7587767371689
 31
0.0
  0
LINE
  5
2B27
330
2
100
AcDbEntity
  8
画層1
  6
DASHED2
370
    20
100
AcDbLine
 10
-99.23363978904049
 20
503.958776737169
 30
0.0
 11
-98.03363978904048
 21
503.958776737169
 31
0.0
  0
LINE
  5
2B2B
330
2
100
AcDbEntity
  8
画層1
 62
     0
370
    20
100
AcDbLine
 10
-130.0336397890404
 20
-31.04122326283095
 30
0.0
 11
-130.0336397890404
 21
518.958776737169
 31
0.0
  0
LINE
  5
2B2C
330
2
100
AcDbEntity
  8
画層1
 62
     0
370
    20
100
AcDbLine
 10
-128.8336397890405
 20
-29.84122326283095
 30
0.0
 11
-128.8336397890405
 21
517.7587767371689
 31
0.0
  0
LINE
  5
2B2F
330
2
100
AcDbEntity
  8
画層1
 62
     0
370
    20
100
AcDbLine
 10
-130.0336397890404
 20
-31.04122326283095
 30
0.0
 11
-98.03363978904048
 21
-31.04122326283095
 31
0.0
  0
LINE
  5
2B31
330
2
100
AcDbEntity
  8
画層1
  6
DASHED2
 62
     0
370
    20
100
AcDbLine
 10
-98.03363978904048
 20
-29.04122326283106
 30
0.0
 11
-98.03363978904048
 21
-16.04122326283095
 31
0.0
  0
LINE
  5
2B94
330
2
100
AcDbEntity
  8
画層1
  6
DASHED2
 62
     0
370
    20
100
AcDbLine
 10
-99.23363978904049
 20
-16.04122326283095
 30
0.0
 11
-99.23363978904049
 21
-29.04122326283106
 31
0.0
  0
LINE
  5
2B95
330
2
100
AcDbEntity
  8
画層1
  6
DASHED2
 62
     0
370
    20
100
AcDbLine
 10
-99.23363978904049
 20
-16.04122326283095
 30
0.0
 11
-98.03363978904048
 21
-16.04122326283095
 31
0.0
  0
LINE
  5
2B96
330
2
100
AcDbEntity
  8
画層1
 62
     0
370
    20
100
AcDbLine
 10
-99.23363978904049
 20
-29.84122326283095
 30
0.0
 11
-128.8336397890405
 21
-29.84122326283095
 31
0.0
  0
LINE
  5
2B97
330
2
100
AcDbEntity
  8
画層1
 62
     0
370
    20
100
AcDbLine
 10
-126.0336397890405
 20
-29.04122326283106
 30
0.0
 11
-126.0336397890405
 21
516.9587767371689
 31
0.0
  0
LINE
  5
2B98
330
2
100
AcDbEntity
  8
画層1
370
    20
100
AcDbLine
 10
-99.23363978904049
 20
517.7587767371689
 30
0.0
 11
-99.23363978904049
 21
516.9587767371689
 31
0.0
  0
LINE
  5
2B99
330
2
100
AcDbEntity
  8
画層1
370
    20
100
AcDbLine
 10
-98.03363978904048
 20
518.958776737169
 30
0.0
 11
-98.03363978904048
 21
516.9587767371689
 31
0.0
  0
LINE
  5
2B9A
330
2
100
AcDbEntity
  8
画層1
 62
     0
370
    20
100
AcDbLine
 10
-99.23363978904049
 20
-29.84122326283095
 30
0.0
 11
-99.23363978904049
 21
-29.04122326283106
 31
0.0
  0
LINE
  5
2B9B
330
2
100
AcDbEntity
  8
画層1
 62
     0
370
    20
100
AcDbLine
 10
-98.03363978904048
 20
-31.04122326283095
 30
0.0
 11
-98.03363978904048
 21
-29.04122326283106
 31
0.0
  0
LINE
  5
2BD2
330
2
100
AcDbEntity
  8
画層1
  6
DASHED2
 62
     0
370
    20
100
AcDbLine
 10
5.966360210959521
 20
36.95877673716891
 30
0.0
 11
8.966360210959521
 21
36.95877673716891
 31
0.0
  0
LINE
  5
2BD3
330
2
100
AcDbEntity
  8
画層1
  6
DASHED2
 62
     0
370
    20
100
AcDbLine
 10
8.966360210959521
 20
36.95877673716891
 30
0.0
 11
8.966360210959521
 21
-29.04122326283106
 31
0.0
  0
LINE
  5
2BD4
330
2
100
AcDbEntity
  8
画層1
 62
     0
370
    20
100
AcDbLine
 10
8.966360210959521
 20
-63.04122326283108
 30
0.0
 11
5.966360210959521
 21
-63.04122326283108
 31
0.0
  0
LINE
  5
2BD5
330
2
100
AcDbEntity
  8
画層1
  6
DASHED2
 62
     0
370
    20
100
AcDbLine
 10
5.966360210959521
 20
-29.04122326283106
 30
0.0
 11
5.966360210959518
 21
36.95877673716891
 31
0.0
  0
LINE
  5
2BDA
330
2
100
AcDbEntity
  8
画層1
 62
     0
370
    20
100
AcDbLine
 10
-710.5652295960735
 20
31.95877673716891
 30
0.0
 11
-710.5652295960735
 21
-58.04122326283109
 31
0.0
  0
LINE
  5
2BDB
330
2
100
AcDbEntity
  8
画層1
 62
     0
370
    20
100
AcDbLine
 10
-705.5652295960735
 20
-63.04122326283109
 30
0.0
 11
-445.5652295960735
 21
-63.04122326283109
 31
0.0
  0
LINE
  5
2BDC
330
2
100
AcDbEntity
  8
画層1
 62
     0
370
    20
100
AcDbLine
 10
-440.5652295960735
 20
-58.04122326283109
 30
0.0
 11
-440.5652295960735
 21
31.95877673716891
 31
0.0
  0
LINE
  5
2BDD
330
2
100
AcDbEntity
  8
画層1
 62
     0
370
    20
100
AcDbLine
 10
-453.0652295960735
 20
36.95877673716891
 30
0.0
 11
-698.0652295960735
 21
36.95877673716891
 31
0.0
  0
ARC
  5
2BDE
330
2
100
AcDbEntity
  8
画層1
 62
     0
370
    20
100
AcDbCircle
 10
-705.5652295960735
 20
-58.04122326283109
 30
0.0
 40
5.0
100
AcDbArc
 50
180.0
 51
270.0
  0
ARC
  5
2BDF
330
2
100
AcDbEntity
  8
画層1
 62
     0
370
    20
100
AcDbCircle
 10
-705.5652295960735
 20
31.95877673716891
 30
0.0
 40
5.0
100
AcDbArc
 50
90.0
 51
180.0
  0
ARC
  5
2BE0
330
2
100
AcDbEntity
  8
画層1
 62
     0
370
    20
100
AcDbCircle
 10
-445.5652295960735
 20
-58.04122326283109
 30
0.0
 40
5.0
100
AcDbArc
 50
270.0
 51
0.0
  0
ARC
  5
2BE1
330
2
100
AcDbEntity
  8
画層1
 62
     0
370
    20
100
AcDbCircle
 10
-445.5652295960735
 20
31.95877673716891
 30
0.0
 40
5.0
100
AcDbArc
 50
0.0
 51
90.0
  0
LINE
  5
2BE6
330
2
100
AcDbEntity
  8
画層1
 62
     0
370
    20
100
AcDbLine
 10
-703.0652295960735
 20
28.95877673716892
 30
0.0
 11
-703.0652295960735
 21
36.95877673716891
 31
0.0
  0
LINE
  5
2BE7
330
2
100
AcDbEntity
  8
画層1
 62
     0
370
    20
100
AcDbLine
 10
-698.0652295960735
 20
28.95877673716892
 30
0.0
 11
-698.0652295960735
 21
36.95877673716891
 31
0.0
  0
ARC
  5
2BE9
330
2
100
AcDbEntity
  8
画層1
 62
     0
370
    20
100
AcDbCircle
 10
-700.5652295960735
 20
28.95877673716892
 30
0.0
 40
2.5
100
AcDbArc
 50
180.0
 51
0.0
  0
LINE
  5
2BEA
330
2
100
AcDbEntity
  8
画層1
 62
     0
370
    20
100
AcDbLine
 10
-703.0652295960735
 20
36.95877673716891
 30
0.0
 11
-705.5652295960735
 21
36.95877673716891
 31
0.0
  0
ARC
  5
2BEF
330
2
100
AcDbEntity
  8
画層1
 62
     0
370
    20
100
AcDbCircle
 10
-450.5652295960735
 20
28.95877673716892
 30
0.0
 40
2.5
100
AcDbArc
 50
180.0
 51
0.0
  0
LINE
  5
2BF0
330
2
100
AcDbEntity
  8
画層1
 62
     0
370
    20
100
AcDbLine
 10
-453.0652295960735
 20
28.95877673716892
 30
0.0
 11
-453.0652295960735
 21
36.95877673716891
 31
0.0
  0
LINE
  5
2BF1
330
2
100
AcDbEntity
  8
画層1
 62
     0
370
    20
100
AcDbLine
 10
-448.0652295960735
 20
28.95877673716892
 30
0.0
 11
-448.0652295960735
 21
36.95877673716891
 31
0.0
  0
LINE
  5
2BF2
330
2
100
AcDbEntity
  8
画層1
 62
     0
370
    20
100
AcDbLine
 10
-448.0652295960735
 20
36.95877673716891
 30
0.0
 11
-445.5652295960735
 21
36.95877673716891
 31
0.0
  0
LINE
  5
2BFF
330
2
100
AcDbEntity
  8
画層1
  6
DASHED2
 62
     0
370
    20
100
AcDbLine
 10
-710.5652295960735
 20
455.958776737169
 30
0.0
 11
-710.5652295960735
 21
518.958776737169
 31
0.0
  0
LINE
  5
2C00
330
2
100
AcDbEntity
  8
画層1
 62
     0
370
    20
100
AcDbLine
 10
-705.5652295960735
 20
550.958776737169
 30
0.0
 11
-445.5652295960735
 21
550.958776737169
 31
0.0
  0
LINE
  5
2C01
330
2
100
AcDbEntity
  8
画層1
  6
DASHED2
 62
     0
370
    20
100
AcDbLine
 10
-440.5652295960735
 20
518.958776737169
 30
0.0
 11
-440.5652295960735
 21
455.958776737169
 31
0.0
  0
LINE
  5
2C02
330
2
100
AcDbEntity
  8
画層1
  6
DASHED2
 62
     0
370
    20
100
AcDbLine
 10
-453.0652295960735
 20
450.958776737169
 30
0.0
 11
-698.0652295960735
 21
450.958776737169
 31
0.0
  0
ARC
  5
2C03
330
2
100
AcDbEntity
  8
画層1
  6
DASHED2
 62
     0
370
    20
100
AcDbCircle
 10
-705.5652295960735
 20
455.958776737169
 30
0.0
 40
5.0
100
AcDbArc
 50
180.0
 51
270.0
  0
ARC
  5
2C04
330
2
100
AcDbEntity
  8
画層1
 62
     0
370
    20
100
AcDbCircle
 10
-705.5652295960735
 20
545.958776737169
 30
0.0
 40
5.0
100
AcDbArc
 50
90.0
 51
180.0
  0
ARC
  5
2C05
330
2
100
AcDbEntity
  8
画層1
 62
     0
370
    20
100
AcDbCircle
 10
-445.5652295960735
 20
545.958776737169
 30
0.0
 40
5.0
100
AcDbArc
 50
0.0
 51
90.0
  0
ARC
  5
2C06
330
2
100
AcDbEntity
  8
画層1
  6
DASHED2
 62
     0
370
    20
100
AcDbCircle
 10
-445.5652295960735
 20
455.958776737169
 30
0.0
 40
5.0
100
AcDbArc
 50
270.0
 51
0.0
  0
ARC
  5
2C08
330
2
100
AcDbEntity
  8
画層1
  6
DASHED2
 62
     0
370
    20
100
AcDbCircle
 10
-700.5652295960735
 20
458.958776737169
 30
0.0
 40
2.5
100
AcDbArc
 50
0.0
 51
180.0
  0
LINE
  5
2C09
330
2
100
AcDbEntity
  8
画層1
  6
DASHED2
 62
     0
370
    20
100
AcDbLine
 10
-703.0652295960735
 20
458.958776737169
 30
0.0
 11
-703.0652295960735
 21
450.958776737169
 31
0.0
  0
LINE
  5
2C0A
330
2
100
AcDbEntity
  8
画層1
  6
DASHED2
 62
     0
370
    20
100
AcDbLine
 10
-698.0652295960735
 20
458.958776737169
 30
0.0
 11
-698.0652295960735
 21
450.9587767371691
 31
0.0
  0
LINE
  5
2C0B
330
2
100
AcDbEntity
  8
画層1
  6
DASHED2
 62
     0
370
    20
100
AcDbLine
 10
-703.0652295960735
 20
450.958776737169
 30
0.0
 11
-705.5652295960735
 21
450.958776737169
 31
0.0
  0
LINE
  5
2C0C
330
2
100
AcDbEntity
  8
画層1
  6
DASHED2
 62
     0
370
    20
100
AcDbLine
 10
-448.0652295960735
 20
458.958776737169
 30
0.0
 11
-448.0652295960735
 21
450.9587767371691
 31
0.0
  0
LINE
  5
2C0D
330
2
100
AcDbEntity
  8
画層1
  6
DASHED2
 62
     0
370
    20
100
AcDbLine
 10
-453.0652295960735
 20
458.958776737169
 30
0.0
 11
-453.0652295960735
 21
450.958776737169
 31
0.0
  0
ARC
  5
2C0E
330
2
100
AcDbEntity
  8
画層1
  6
DASHED2
 62
     0
370
    20
100
AcDbCircle
 10
-450.5652295960735
 20
458.958776737169
 30
0.0
 40
2.5
100
AcDbArc
 50
0.0
 51
180.0
  0
LINE
  5
2C0F
330
2
100
AcDbEntity
  8
画層1
  6
DASHED2
 62
     0
370
    20
100
AcDbLine
 10
-448.0652295960735
 20
450.9587767371691
 30
0.0
 11
-445.5652295960735
 21
450.958776737169
 31
0.0
  0
LINE
  5
2C10
330
2
100
AcDbEntity
  8
画層1
 62
     0
370
    20
100
AcDbLine
 10
-710.5652295960735
 20
518.958776737169
 30
0.0
 11
-710.5652295960735
 21
545.958776737169
 31
0.0
  0
LINE
  5
2C11
330
2
100
AcDbEntity
  8
画層1
 62
     0
370
    20
100
AcDbLine
 10
-440.5652295960735
 20
518.958776737169
 30
0.0
 11
-440.5652295960735
 21
545.958776737169
 31
0.0
  0
LINE
  5
2C40
330
2
100
AcDbEntity
  8
画層1
 62
     0
370
    20
100
AcDbLine
 10
8.966360210959521
 20
-29.04122326283106
 30
0.0
 11
8.966360210959521
 21
-63.04122326283108
 31
0.0
  0
LINE
  5
2C41
330
2
100
AcDbEntity
  8
画層1
 62
     0
370
    20
100
AcDbLine
 10
5.966360210959521
 20
-29.04122326283106
 30
0.0
 11
5.966360210959521
 21
-63.04122326283108
 31
0.0
  0
LINE
  5
2C46
330
2
100
AcDbEntity
  8
画層1
  6
DASHED2
 62
     0
370
    20
100
AcDbLine
 10
8.966360210959521
 20
450.958776737169
 30
0.0
 11
8.966360210959521
 21
516.9587767371689
 31
0.0
  0
LINE
  5
2C47
330
2
100
AcDbEntity
  8
画層1
 62
     0
370
    20
100
AcDbLine
 10
8.966360210959521
 20
550.958776737169
 30
0.0
 11
5.966360210959518
 21
550.958776737169
 31
0.0
  0
LINE
  5
2C48
330
2
100
AcDbEntity
  8
画層1
  6
DASHED2
 62
     0
370
    20
100
AcDbLine
 10
5.966360210959521
 20
516.9587767371689
 30
0.0
 11
5.966360210959518
 21
450.958776737169
 31
0.0
  0
LINE
  5
2C49
330
2
100
AcDbEntity
  8
画層1
  6
DASHED2
 62
     0
370
    20
100
AcDbLine
 10
5.966360210959518
 20
450.958776737169
 30
0.0
 11
8.966360210959521
 21
450.958776737169
 31
0.0
  0
LINE
  5
2C4A
330
2
100
AcDbEntity
  8
画層1
 62
     0
370
    20
100
AcDbLine
 10
8.966360210959521
 20
550.958776737169
 30
0.0
 11
8.966360210959521
 21
516.9587767371689
 31
0.0
  0
LINE
  5
2C4B
330
2
100
AcDbEntity
  8
画層1
 62
     0
370
    20
100
AcDbLine
 10
5.966360210959518
 20
550.958776737169
 30
0.0
 11
5.966360210959521
 21
516.9587767371689
 31
0.0
  0
DIMENSION
  5
2C7F
330
2
100
AcDbEntity
  8
画層1
 62
     1
370
    20
100
AcDbDimension
  2
*D3
 10
-445.0652295960735
 20
570.4187782811657
 30
0.0
 11
-437.4401348727756
 21
570.4187782811657
 31
0.0
 70
   160
 71
     5
 42
11.0
  3
STANDARD_WS
100
AcDbAlignedDimension
 13
-456.0652295960735
 23
503.958776737169
 33
0.0
 14
-445.0652295960735
 24
503.958776737169
 34
0.0
100
AcDbRotatedDimension
1001
ACAD
1000
DSTYLE
1002
{
1070
    47
1040
0.6
1070
   140
1040
50.0
1070
   146
1040
0.5
1070
   147
1040
1.0
1070
   173
1070
     0
1070
   271
1070
     0
1070
   272
1070
     0
1070
   284
1070
     8
1070
   341
1005
28
1070
   342
1005
28
1070
   343
1005
0
1070
   344
1005
0
1002
}
  0
DIMENSION
  5
2C96
330
2
100
AcDbEntity
  8
画層1
 62
     1
370
    20
100
AcDbDimension
  2
*D4
 10
-700.5652295960735
 20
582.7229776311103
 30
0.0
 11
-575.5652295960735
 21
584.9729776311103
 31
0.0
 70
    32
 71
     5
 42
250.0
  3
STANDARD_WS
100
AcDbAlignedDimension
 13
-450.5652295960735
 23
503.958776737169
 33
0.0
 14
-700.5652295960735
 24
503.958776737169
 34
0.0
100
AcDbRotatedDimension
1001
ACAD
1000
DSTYLE
1002
{
1070
    47
1040
0.6
1070
   140
1040
50.0
1070
   146
1040
0.5
1070
   147
1040
1.0
1070
   173
1070
     0
1070
   271
1070
     0
1070
   272
1070
     0
1070
   284
1070
     8
1070
   341
1005
28
1070
   342
1005
28
1070
   343
1005
0
1070
   344
1005
0
1002
}
  0
DIMENSION
  5
2CA3
330
2
100
AcDbEntity
  8
画層1
 62
     1
370
    20
100
AcDbDimension
  2
*D5
 10
-775.5652295960735
 20
592.7080742457317
 30
0.0
 11
-575.5652295960735
 21
594.9580742457317
 31
0.0
 70
    32
 71
     5
 42
400.0
  3
STANDARD_WS
100
AcDbAlignedDimension
 13
-375.5652295960735
 23
518.958776737169
 33
0.0
 14
-775.5652295960735
 24
518.958776737169
 34
0.0
100
AcDbRotatedDimension
1001
ACAD
1000
DSTYLE
1002
{
1070
    47
1040
0.6
1070
   140
1040
50.0
1070
   146
1040
0.5
1070
   147
1040
1.0
1070
   173
1070
     0
1070
   271
1070
     0
1070
   272
1070
     0
1070
   284
1070
     8
1070
   341
1005
28
1070
   342
1005
28
1070
   343
1005
0
1070
   344
1005
0
1002
}
  0
DIMENSION
  5
2CB0
330
2
100
AcDbEntity
  8
画層1
 62
     1
370
    20
100
AcDbDimension
  2
*D6
 10
-335.6819063991015
 20
-31.04122326283096
 30
0.0
 11
-337.9319063991015
 21
243.9587767371689
 31
0.0
 70
    32
 71
     5
 42
550.0
  3
STANDARD_WS
100
AcDbAlignedDimension
 13
-375.5652295960735
 23
518.958776737169
 33
0.0
 14
-375.5652295960735
 24
-31.04122326283095
 34
0.0
 50
90.0
100
AcDbRotatedDimension
1001
ACAD
1000
DSTYLE
1002
{
1070
    47
1040
0.6
1070
   140
1040
50.0
1070
   146
1040
0.5
1070
   147
1040
1.0
1070
   173
1070
     0
1070
   271
1070
     0
1070
   272
1070
     0
1070
   284
1070
     8
1070
   341
1005
28
1070
   342
1005
28
1070
   343
1005
0
1070
   344
1005
0
1002
}
  0
DIMENSION
  5
2CC6
330
2
100
AcDbEntity
  8
画層1
 62
     1
370
    20
100
AcDbDimension
  2
*D7
 10
-346.3473176650328
 20
-16.04122326283096
 30
0.0
 11
-348.5973176650328
 21
243.958776737169
 31
0.0
 70
    32
 71
     5
 42
520.0
  3
STANDARD_WS
100
AcDbAlignedDimension
 13
-382.5652295960736
 23
503.958776737169
 33
0.0
 14
-382.5652295960736
 24
-16.04122326283095
 34
0.0
 50
90.0
100
AcDbRotatedDimension
1001
ACAD
1000
DSTYLE
1002
{
1070
    47
1040
0.6
1070
   140
1040
50.0
1070
   146
1040
0.5
1070
   147
1040
1.0
1070
   173
1070
     0
1070
   271
1070
     0
1070
   272
1070
     0
1070
   284
1070
     8
1070
   341
1005
28
1070
   342
1005
28
1070
   343
1005
0
1070
   344
1005
0
1002
}
  0
LINE
  5
2CDC
330
2
100
AcDbEntity
  8
画層1
 62
     0
370
    20
100
AcDbLine
 10
-775.5652295960735
 20
-31.04122326283095
 30
0.0
 11
-375.5652295960735
 21
-31.04122326283095
 31
0.0
  0
DIMENSION
  5
2CDD
330
2
100
AcDbEntity
  8
画層1
 62
     1
370
    20
100
AcDbDimension
  2
*D8
 10
-655.5652295960735
 20
87.1651280378162
 30
0.0
 11
-575.5652295960735
 21
89.4151280378162
 31
0.0
 70
    32
 71
     5
 42
160.0
  3
STANDARD_WS
100
AcDbAlignedDimension
 13
-495.5652295960735
 23
-6.041223262831088
 33
0.0
 14
-655.5652295960735
 24
-6.041223262831088
 34
0.0
100
AcDbRotatedDimension
1001
ACAD
1000
DSTYLE
1002
{
1070
    47
1040
0.6
1070
   140
1040
50.0
1070
   146
1040
0.5
1070
   147
1040
1.0
1070
   173
1070
     0
1070
   271
1070
     0
1070
   272
1070
     0
1070
   284
1070
     8
1070
   341
1005
28
1070
   342
1005
28
1070
   343
1005
0
1070
   344
1005
0
1002
}
  0
DIMENSION
  5
2CEA
330
2
100
AcDbEntity
  8
画層1
 62
     1
370
    20
100
AcDbDimension
  2
*D9
 10
-680.5652295960735
 20
70.46913482487139
 30
0.0
 11
-655.5652295960735
 21
72.71913482487139
 31
0.0
 70
    32
 71
     5
 42
50.0
  3
STANDARD_WS
100
AcDbAlignedDimension
 13
-630.5652295960735
 23
56.9587767371689
 33
0.0
 14
-680.5652295960735
 24
56.95877673716892
 34
0.0
100
AcDbRotatedDimension
1001
ACAD
1000
DSTYLE
1002
{
1070
    47
1040
0.6
1070
   140
1040
50.0
1070
   146
1040
0.5
1070
   147
1040
1.0
1070
   173
1070
     0
1070
   271
1070
     0
1070
   272
1070
     0
1070
   284
1070
     8
1070
   341
1005
28
1070
   342
1005
28
1070
   343
1005
0
1070
   344
1005
0
1002
}
  0
DIMENSION
  5
2D09
330
2
100
AcDbEntity
  8
画層1
 62
     1
370
    20
100
AcDbDimension
  2
*D10
 10
-130.0336397890404
 20
566.1302833689794
 30
0.0
 11
52.46636021095952
 21
568.3802833689794
 31
0.0
 70
    32
 71
     5
 42
365.0
  3
STANDARD_WS
100
AcDbAlignedDimension
 13
234.9663602109595
 23
516.9587767371689
 33
0.0
 14
-130.0336397890404
 24
518.958776737169
 34
0.0
100
AcDbRotatedDimension
1001
ACAD
1000
DSTYLE
1002
{
1070
    47
1040
0.6
1070
   140
1040
50.0
1070
   146
1040
0.5
1070
   147
1040
1.0
1070
   173
1070
     0
1070
   271
1070
     0
1070
   272
1070
     0
1070
   284
1070
     8
1070
   341
1005
28
1070
   342
1005
28
1070
   343
1005
0
1070
   344
1005
0
1002
}
  0
DIMENSION
  5
2D16
330
2
100
AcDbEntity
  8
画層1
 62
     1
370
    20
100
AcDbDimension
  2
*D11
 10
234.9663602109595
 20
556.4271875667993
 30
0.0
 11
121.9663602109595
 21
556.4271875667993
 31
0.0
 70
   160
 71
     5
 42
190.0
  3
STANDARD_WS
100
AcDbAlignedDimension
 13
44.96636021095946
 23
518.958776737169
 33
0.0
 14
234.9663602109595
 24
516.9587767371689
 34
0.0
100
AcDbRotatedDimension
1001
ACAD
1000
DSTYLE
1002
{
1070
    47
1040
0.6
1070
   140
1040
50.0
1070
   146
1040
0.5
1070
   147
1040
1.0
1070
   173
1070
     0
1070
   271
1070
     0
1070
   272
1070
     0
1070
   284
1070
     8
1070
   341
1005
28
1070
   342
1005
28
1070
   343
1005
0
1070
   344
1005
0
1002
}
  0
DIMENSION
  5
2D3E
330
2
100
AcDbEntity
  8
画層1
 62
     1
370
    20
100
AcDbDimension
  2
*D12
 10
44.96636021095946
 20
556.4271875667993
 30
0.0
 11
35.3228553453323
 21
556.4271875667993
 31
0.0
 70
   160
 71
     5
 42
5.999999999999943
  3
STANDARD_WS
100
AcDbAlignedDimension
 13
38.96636021095952
 23
518.958776737169
 33
0.0
 14
44.96636021095946
 24
556.4271875667993
 34
0.0
100
AcDbRotatedDimension
1001
ACAD
1000
DSTYLE
1002
{
1070
    47
1040
0.6
1070
   140
1040
50.0
1070
   146
1040
0.5
1070
   147
1040
1.0
1070
   173
1070
     0
1070
   271
1070
     0
1070
   272
1070
     0
1070
   284
1070
     8
1070
   341
1005
28
1070
   342
1005
28
1070
   343
1005
0
1070
   344
1005
0
1002
}
  0
ENDSEC
  0
SECTION
  2
OBJECTS
  0
DICTIONARY
  5
9
330
0
100
AcDbDictionary
281
     1
  3
ACAD_GROUP
350
23
  3
ACAD_LAYOUT
350
D
  3
ACAD_MLINESTYLE
350
24
  3
ACAD_PLOTSETTINGS
350
25
  3
ACAD_PLOTSTYLENAME
350
8
  3
AcDbVariableDictionary
350
115B
  3
DWGPROPS
350
B1B
  0
DICTIONARY
  5
3
330
2
100
AcDbDictionary
280
     1
281
     1
  0
DICTIONARY
  5
F
330
E
100
AcDbDictionary
280
     1
281
     1
  0
DICTIONARY
  5
23
102
{ACAD_REACTORS
330
9
102
}
330
9
100
AcDbDictionary
281
     1
  0
DICTIONARY
  5
D
102
{ACAD_REACTORS
330
9
102
}
330
9
100
AcDbDictionary
281
     1
  3
Model
350
560
  3
ﾚｲｱｳﾄ1
350
561
  0
DICTIONARY
  5
24
102
{ACAD_REACTORS
330
9
102
}
330
9
100
AcDbDictionary
281
     1
  3
STANDARD
350
34
  0
DICTIONARY
  5
25
102
{ACAD_REACTORS
330
9
102
}
330
9
100
AcDbDictionary
281
     1
  0
ACDBDICTIONARYWDFLT
  5
8
102
{ACAD_REACTORS
330
9
102
}
330
9
100
AcDbDictionary
281
     1
  3
Normal
350
7
100
AcDbDictionaryWithDefault
340
7
  0
DICTIONARY
  5
115B
102
{ACAD_REACTORS
330
9
102
}
330
9
100
AcDbDictionary
281
     1
  3
SORTENTS
350
115C
  0
XRECORD
  5
B1B
102
{ACAD_REACTORS
330
9
102
}
330
9
100
AcDbXrecord
280
     1
  1
DWGPROPS COOKIE
  2

  3

  4

  6

  7

  8

  9

300
=
301
=
302
=
303
=
304
=
305
=
306
=
307
=
308
=
309
=
 40
3.889878958333333
 41
2450995.462150231
 42
2454049.770371816
  1

 90
        0
  0
LAYOUT
  5
560
102
{ACAD_REACTORS
330
D
102
}
330
D
100
AcDbPlotSettings
  1

  2
DocuPrint 360
  4
A3
  6

 40
5.238749980926513
 41
5.238728046417236
 42
5.32342529296875
 43
5.238739013671875
 44
296.9683227539062
 45
419.9889831542968
 46
0.0
 47
0.0
 48
0.0
 49
0.0
140
0.0
141
0.0
142
1.0
143
1.0
 70
 11952
 72
     1
 73
     1
 74
     1
  7

 75
    16
147
1.0
148
643.5922839751201
149
-108.5339784519811
100
AcDbLayout
  1
Model
 70
     1
 71
     0
 10
0.0
 20
0.0
 11
12.0
 21
9.0
 12
0.0
 22
0.0
 32
0.0
 14
0.0
 24
0.0
 34
0.0
 15
0.0
 25
0.0
 35
0.0
146
0.0
 13
0.0
 23
0.0
 33
0.0
 16
1.0
 26
0.0
 36
0.0
 17
0.0
 27
1.0
 37
0.0
 76
     0
330
2
  0
LAYOUT
  5
561
102
{ACAD_REACTORS
330
D
102
}
330
D
100
AcDbPlotSettings
  1

  2
EPSON MJ-6000C
  4

  6

 40
0.0
 41
0.0
 42
0.0
 43
0.0
 44
0.0
 45
0.0
 46
0.0
 47
0.0
 48
0.0
 49
0.0
140
0.0
141
0.0
142
1.0
143
1.0
 70
   688
 72
     0
 73
     0
 74
     5
  7

 75
    16
147
1.0
148
0.0
149
0.0
100
AcDbLayout
  1
ﾚｲｱｳﾄ1
 70
     1
 71
     1
 10
0.0
 20
0.0
 11
420.0
 21
297.0
 12
0.0
 22
0.0
 32
0.0
 14
0.0
 24
0.0
 34
0.0
 15
0.0
 25
0.0
 35
0.0
146
0.0
 13
0.0
 23
0.0
 33
0.0
 16
1.0
 26
0.0
 36
0.0
 17
0.0
 27
1.0
 37
0.0
 76
     0
330
E
  0
MLINESTYLE
  5
34
102
{ACAD_REACTORS
330
24
102
}
330
24
100
AcDbMlineStyle
  2
STANDARD
 70
     0
  3

 62
   256
 51
90.0
 52
90.0
 71
     2
 49
0.5
 62
   256
  6
BYLAYER
 49
-0.5
 62
   256
  6
BYLAYER
  0
ACDBPLACEHOLDER
  5
7
102
{ACAD_REACTORS
330
8
102
}
330
8
  0
DICTIONARYVAR
  5
115C
102
{ACAD_REACTORS
330
115B
102
}
330
115B
100
DictionaryVariables
280
     0
  1
96
  0
ENDSEC
  0
EOF
