  0
SECTION
  2
HEADER
  9
$ACADVER
  1
AC1015
  9
$ACADMAINTVER
 70
     6
  9
$DWGCODEPAGE
  3
ANSI_932
  9
$INSBASE
 10
0.0
 20
0.0
 30
0.0
  9
$EXTMIN
 10
-665.6488767631717
 20
71.22228473402618
 30
-0.0015258207003583
  9
$EXTMAX
 10
-217.0875674821632
 20
414.9804122347129
 30
0.0000000349246037
  9
$LIMMIN
 10
0.0
 20
0.0
  9
$LIMMAX
 10
420.0
 20
297.0
  9
$ORTHOMODE
 70
     1
  9
$REGENMODE
 70
     1
  9
$FILLMODE
 70
     1
  9
$QTEXTMODE
 70
     0
  9
$MIRRTEXT
 70
     1
  9
$LTSCALE
 40
0.2
  9
$ATTMODE
 70
     1
  9
$TEXTSIZE
 40
2.5
  9
$TRACEWID
 40
1.0
  9
$TEXTSTYLE
  7
STYLE1
  9
$CLAYER
  8
画層1
  9
$CELTYPE
  6
BYLAYER
  9
$CECOLOR
 62
     1
  9
$CELTSCALE
 40
1.0
  9
$DISPSILH
 70
     0
  9
$DIMSCALE
 40
1.0
  9
$DIMASZ
 40
1.5
  9
$DIMEXO
 40
0.63
  9
$DIMDLI
 40
3.75
  9
$DIMRND
 40
0.0
  9
$DIMDLE
 40
0.0
  9
$DIMEXE
 40
1.25
  9
$DIMTP
 40
0.6
  9
$DIMTM
 40
0.0
  9
$DIMTXT
 40
50.0
  9
$DIMCEN
 40
2.5
  9
$DIMTSZ
 40
0.0
  9
$DIMTOL
 70
     0
  9
$DIMLIM
 70
     0
  9
$DIMTIH
 70
     0
  9
$DIMTOH
 70
     0
  9
$DIMSE1
 70
     0
  9
$DIMSE2
 70
     0
  9
$DIMTAD
 70
     1
  9
$DIMZIN
 70
     8
  9
$DIMBLK
  1
OPEN30
  9
$DIMASO
 70
     1
  9
$DIMSHO
 70
     1
  9
$DIMPOST
  1

  9
$DIMAPOST
  1

  9
$DIMALT
 70
     0
  9
$DIMALTD
 70
     4
  9
$DIMALTF
 40
0.04
  9
$DIMLFAC
 40
1.0
  9
$DIMTOFL
 70
     1
  9
$DIMTVP
 40
0.0
  9
$DIMTIX
 70
     0
  9
$DIMSOXD
 70
     0
  9
$DIMSAH
 70
     0
  9
$DIMBLK1
  1

  9
$DIMBLK2
  1

  9
$DIMSTYLE
  2
STANDARD_WS
  9
$DIMCLRD
 70
     0
  9
$DIMCLRE
 70
     0
  9
$DIMCLRT
 70
     0
  9
$DIMTFAC
 40
0.5
  9
$DIMGAP
 40
1.0
  9
$DIMJUST
 70
     0
  9
$DIMSD1
 70
     0
  9
$DIMSD2
 70
     0
  9
$DIMTOLJ
 70
     1
  9
$DIMTZIN
 70
     8
  9
$DIMALTZ
 70
     0
  9
$DIMALTTZ
 70
     0
  9
$DIMUPT
 70
     0
  9
$DIMDEC
 70
     0
  9
$DIMTDEC
 70
     0
  9
$DIMALTU
 70
     8
  9
$DIMALTTD
 70
     4
  9
$DIMTXSTY
  7
STANDARD
  9
$DIMAUNIT
 70
     0
  9
$DIMADEC
 70
     0
  9
$DIMALTRND
 40
0.0
  9
$DIMAZIN
 70
     0
  9
$DIMDSEP
 70
    46
  9
$DIMATFIT
 70
     3
  9
$DIMFRAC
 70
     0
  9
$DIMLDRBLK
  1
OPEN30
  9
$DIMLUNIT
 70
     2
  9
$DIMLWD
 70
    -2
  9
$DIMLWE
 70
    -2
  9
$DIMTMOVE
 70
     0
  9
$LUNITS
 70
     2
  9
$LUPREC
 70
     4
  9
$SKETCHINC
 40
1.0
  9
$FILLETRAD
 40
2.0
  9
$AUNITS
 70
     0
  9
$AUPREC
 70
     0
  9
$MENU
  1
acad
  9
$ELEVATION
 40
0.0
  9
$PELEVATION
 40
0.0
  9
$THICKNESS
 40
0.0
  9
$LIMCHECK
 70
     0
  9
$CHAMFERA
 40
4.0
  9
$CHAMFERB
 40
4.0
  9
$CHAMFERC
 40
20.0
  9
$CHAMFERD
 40
0.0
  9
$SKPOLY
 70
     0
  9
$TDCREATE
 40
2450995.462150231
  9
$TDUCREATE
 40
2450995.087150231
  9
$TDUPDATE
 40
2454386.685357349
  9
$TDUUPDATE
 40
2454386.310357349
  9
$TDINDWG
 40
5.7248317824
  9
$TDUSRTIMER
 40
5.7248279630
  9
$USRTIMER
 70
     1
  9
$ANGBASE
 50
0.0
  9
$ANGDIR
 70
     0
  9
$PDMODE
 70
     0
  9
$PDSIZE
 40
0.0
  9
$PLINEWID
 40
10.0
  9
$SPLFRAME
 70
     0
  9
$SPLINETYPE
 70
     6
  9
$SPLINESEGS
 70
     8
  9
$HANDSEED
  5
1BFC
  9
$SURFTAB1
 70
     6
  9
$SURFTAB2
 70
     6
  9
$SURFTYPE
 70
     6
  9
$SURFU
 70
     6
  9
$SURFV
 70
     6
  9
$UCSBASE
  2

  9
$UCSNAME
  2

  9
$UCSORG
 10
0.0
 20
0.0
 30
0.0
  9
$UCSXDIR
 10
1.0
 20
0.0
 30
0.0
  9
$UCSYDIR
 10
0.0
 20
1.0
 30
0.0
  9
$UCSORTHOREF
  2

  9
$UCSORTHOVIEW
 70
     0
  9
$UCSORGTOP
 10
0.0
 20
0.0
 30
0.0
  9
$UCSORGBOTTOM
 10
0.0
 20
0.0
 30
0.0
  9
$UCSORGLEFT
 10
0.0
 20
0.0
 30
0.0
  9
$UCSORGRIGHT
 10
0.0
 20
0.0
 30
0.0
  9
$UCSORGFRONT
 10
0.0
 20
0.0
 30
0.0
  9
$UCSORGBACK
 10
0.0
 20
0.0
 30
0.0
  9
$PUCSBASE
  2

  9
$PUCSNAME
  2

  9
$PUCSORG
 10
0.0
 20
0.0
 30
0.0
  9
$PUCSXDIR
 10
1.0
 20
0.0
 30
0.0
  9
$PUCSYDIR
 10
0.0
 20
1.0
 30
0.0
  9
$PUCSORTHOREF
  2

  9
$PUCSORTHOVIEW
 70
     0
  9
$PUCSORGTOP
 10
0.0
 20
0.0
 30
0.0
  9
$PUCSORGBOTTOM
 10
0.0
 20
0.0
 30
0.0
  9
$PUCSORGLEFT
 10
0.0
 20
0.0
 30
0.0
  9
$PUCSORGRIGHT
 10
0.0
 20
0.0
 30
0.0
  9
$PUCSORGFRONT
 10
0.0
 20
0.0
 30
0.0
  9
$PUCSORGBACK
 10
0.0
 20
0.0
 30
0.0
  9
$USERI1
 70
     0
  9
$USERI2
 70
     0
  9
$USERI3
 70
     0
  9
$USERI4
 70
     0
  9
$USERI5
 70
     0
  9
$USERR1
 40
0.0
  9
$USERR2
 40
0.0
  9
$USERR3
 40
0.0
  9
$USERR4
 40
0.0
  9
$USERR5
 40
0.0
  9
$WORLDVIEW
 70
     1
  9
$SHADEDGE
 70
     3
  9
$SHADEDIF
 70
    70
  9
$TILEMODE
 70
     1
  9
$MAXACTVP
 70
    48
  9
$PINSBASE
 10
0.0
 20
0.0
 30
0.0
  9
$PLIMCHECK
 70
     0
  9
$PEXTMIN
 10
1.000000000000000E+20
 20
1.000000000000000E+20
 30
1.000000000000000E+20
  9
$PEXTMAX
 10
-1.000000000000000E+20
 20
-1.000000000000000E+20
 30
-1.000000000000000E+20
  9
$PLIMMIN
 10
0.0
 20
0.0
  9
$PLIMMAX
 10
420.0
 20
297.0
  9
$UNITMODE
 70
     0
  9
$VISRETAIN
 70
     1
  9
$PLINEGEN
 70
     0
  9
$PSLTSCALE
 70
     1
  9
$TREEDEPTH
 70
  3020
  9
$CMLSTYLE
  2
STANDARD
  9
$CMLJUST
 70
     0
  9
$CMLSCALE
 40
20.0
  9
$PROXYGRAPHICS
 70
     1
  9
$MEASUREMENT
 70
     1
  9
$CELWEIGHT
370
    20
  9
$ENDCAPS
280
     0
  9
$JOINSTYLE
280
     0
  9
$LWDISPLAY
290
     0
  9
$INSUNITS
 70
     0
  9
$HYPERLINKBASE
  1

  9
$STYLESHEET
  1

  9
$XEDIT
290
     1
  9
$CEPSNTYPE
380
     0
  9
$PSTYLEMODE
290
     1
  9
$FINGERPRINTGUID
  2
{12426522-B208-11D3-A790-004026173390}
  9
$VERSIONGUID
  2
{A1431231-C20B-4CF9-A364-B466DC89B2B4}
  9
$EXTNAMES
290
     1
  9
$PSVPSCALE
 40
0.0
  9
$OLESTARTUP
290
     0
  0
ENDSEC
  0
SECTION
  2
CLASSES
  0
CLASS
  1
DICTIONARYVAR
  2
AcDbDictionaryVar
  3
AutoCAD 2000
 90
        0
280
     0
281
     0
  0
CLASS
  1
LWPOLYLINE
  2
AcDbPolyline
  3
AutoCAD 2000
 90
    32768
280
     0
281
     1
  0
CLASS
  1
OLE2FRAME
  2
AcDbOle2Frame
  3
AutoCAD 2000
 90
    32768
280
     0
281
     1
  0
CLASS
  1
HATCH
  2
AcDbHatch
  3
AutoCAD 2000
 90
    32768
280
     0
281
     1
  0
CLASS
  1
ACDBDICTIONARYWDFLT
  2
AcDbDictionaryWithDefault
  3
AutoCAD 2000
 90
        0
280
     0
281
     0
  0
CLASS
  1
ACDBPLACEHOLDER
  2
AcDbPlaceHolder
  3
AutoCAD 2000
 90
        0
280
     0
281
     0
  0
CLASS
  1
LAYOUT
  2
AcDbLayout
  3
AutoCAD 2000
 90
        0
280
     0
281
     0
  0
CLASS
  1
LONG_TRANSACTION
  2
AcDbLongTransaction
  3
AutoCAD 2000
 90
    32768
280
     0
281
     0
  0
CLASS
  1
LWPOLYLINE
  2
AcDbPolyline
  3
AutoCAD 2000
 90
    32768
280
     0
281
     1
  0
CLASS
  1
HATCH
  2
AcDbHatch
  3
AutoCAD 2000
 90
    32768
280
     0
281
     1
  0
CLASS
  1
XRECORD
  2
AcDbXrecord
  3
AutoCAD 2000
 90
    32768
280
     0
281
     0
  0
CLASS
  1
LONG_TRANSACTION
  2
AcDbLongTransaction
  3
AutoCAD 2000
 90
    32768
280
     0
281
     0
  0
CLASS
  1
LWPOLYLINE
  2
AcDbPolyline
  3
AutoCAD 2000
 90
    32768
280
     0
281
     1
  0
CLASS
  1
HATCH
  2
AcDbHatch
  3
AutoCAD 2000
 90
    32768
280
     0
281
     1
  0
CLASS
  1
XRECORD
  2
AcDbXrecord
  3
AutoCAD 2000
 90
    32768
280
     0
281
     0
  0
CLASS
  1
LONG_TRANSACTION
  2
AcDbLongTransaction
  3
AutoCAD 2000
 90
    32768
280
     0
281
     0
  0
CLASS
  1
LWPOLYLINE
  2
AcDbPolyline
  3
AutoCAD 2000
 90
    32768
280
     0
281
     1
  0
CLASS
  1
HATCH
  2
AcDbHatch
  3
AutoCAD 2000
 90
    32768
280
     0
281
     1
  0
CLASS
  1
XRECORD
  2
AcDbXrecord
  3
AutoCAD 2000
 90
    32768
280
     0
281
     0
  0
CLASS
  1
LONG_TRANSACTION
  2
AcDbLongTransaction
  3
AutoCAD 2000
 90
    32768
280
     0
281
     0
  0
CLASS
  1
LWPOLYLINE
  2
AcDbPolyline
  3
AutoCAD 2000
 90
    32768
280
     0
281
     1
  0
CLASS
  1
HATCH
  2
AcDbHatch
  3
AutoCAD 2000
 90
    32768
280
     0
281
     1
  0
CLASS
  1
XRECORD
  2
AcDbXrecord
  3
AutoCAD 2000
 90
    32768
280
     0
281
     0
  0
CLASS
  1
LONG_TRANSACTION
  2
AcDbLongTransaction
  3
AutoCAD 2000
 90
    32768
280
     0
281
     0
  0
CLASS
  1
LWPOLYLINE
  2
AcDbPolyline
  3
AutoCAD 2000
 90
    32768
280
     0
281
     1
  0
CLASS
  1
HATCH
  2
AcDbHatch
  3
AutoCAD 2000
 90
    32768
280
     0
281
     1
  0
CLASS
  1
XRECORD
  2
AcDbXrecord
  3
AutoCAD 2000
 90
    32768
280
     0
281
     0
  0
CLASS
  1
LONG_TRANSACTION
  2
AcDbLongTransaction
  3
AutoCAD 2000
 90
    32768
280
     0
281
     0
  0
CLASS
  1
LWPOLYLINE
  2
AcDbPolyline
  3
AutoCAD 2000
 90
    32768
280
     0
281
     1
  0
CLASS
  1
HATCH
  2
AcDbHatch
  3
AutoCAD 2000
 90
    32768
280
     0
281
     1
  0
CLASS
  1
XRECORD
  2
AcDbXrecord
  3
AutoCAD 2000
 90
    32768
280
     0
281
     0
  0
CLASS
  1
LONG_TRANSACTION
  2
AcDbLongTransaction
  3
AutoCAD 2000
 90
    32768
280
     0
281
     0
  0
CLASS
  1
LWPOLYLINE
  2
AcDbPolyline
  3
AutoCAD 2000
 90
    32768
280
     0
281
     1
  0
CLASS
  1
HATCH
  2
AcDbHatch
  3
AutoCAD 2000
 90
    32768
280
     0
281
     1
  0
CLASS
  1
XRECORD
  2
AcDbXrecord
  3
AutoCAD 2000
 90
    32768
280
     0
281
     0
  0
CLASS
  1
LONG_TRANSACTION
  2
AcDbLongTransaction
  3
AutoCAD 2000
 90
    32768
280
     0
281
     0
  0
CLASS
  1
LWPOLYLINE
  2
AcDbPolyline
  3
AutoCAD 2000
 90
    32768
280
     0
281
     1
  0
CLASS
  1
HATCH
  2
AcDbHatch
  3
AutoCAD 2000
 90
    32768
280
     0
281
     1
  0
CLASS
  1
XRECORD
  2
AcDbXrecord
  3
AutoCAD 2000
 90
    32768
280
     0
281
     0
  0
CLASS
  1
LONG_TRANSACTION
  2
AcDbLongTransaction
  3
AutoCAD 2000
 90
    32768
280
     0
281
     0
  0
CLASS
  1
LWPOLYLINE
  2
AcDbPolyline
  3
AutoCAD 2000
 90
    32768
280
     0
281
     1
  0
CLASS
  1
HATCH
  2
AcDbHatch
  3
AutoCAD 2000
 90
    32768
280
     0
281
     1
  0
CLASS
  1
XRECORD
  2
AcDbXrecord
  3
AutoCAD 2000
 90
    32768
280
     0
281
     0
  0
CLASS
  1
LONG_TRANSACTION
  2
AcDbLongTransaction
  3
AutoCAD 2000
 90
    32768
280
     0
281
     0
  0
CLASS
  1
LWPOLYLINE
  2
AcDbPolyline
  3
AutoCAD 2000
 90
    32768
280
     0
281
     1
  0
CLASS
  1
HATCH
  2
AcDbHatch
  3
AutoCAD 2000
 90
    32768
280
     0
281
     1
  0
CLASS
  1
XRECORD
  2
AcDbXrecord
  3
AutoCAD 2000
 90
    32768
280
     0
281
     0
  0
CLASS
  1
LONG_TRANSACTION
  2
AcDbLongTransaction
  3
AutoCAD 2000
 90
    32768
280
     0
281
     0
  0
CLASS
  1
LWPOLYLINE
  2
AcDbPolyline
  3
AutoCAD 2000
 90
    32768
280
     0
281
     1
  0
CLASS
  1
HATCH
  2
AcDbHatch
  3
AutoCAD 2000
 90
    32768
280
     0
281
     1
  0
CLASS
  1
XRECORD
  2
AcDbXrecord
  3
AutoCAD 2000
 90
    32768
280
     0
281
     0
  0
CLASS
  1
LONG_TRANSACTION
  2
AcDbLongTransaction
  3
AutoCAD 2000
 90
    32768
280
     0
281
     0
  0
CLASS
  1
LWPOLYLINE
  2
AcDbPolyline
  3
AutoCAD 2000
 90
    32768
280
     0
281
     1
  0
CLASS
  1
HATCH
  2
AcDbHatch
  3
AutoCAD 2000
 90
    32768
280
     0
281
     1
  0
CLASS
  1
XRECORD
  2
AcDbXrecord
  3
AutoCAD 2000
 90
    32768
280
     0
281
     0
  0
CLASS
  1
LONG_TRANSACTION
  2
AcDbLongTransaction
  3
AutoCAD 2000
 90
    32768
280
     0
281
     0
  0
CLASS
  1
LWPOLYLINE
  2
AcDbPolyline
  3
AutoCAD 2000
 90
    32768
280
     0
281
     1
  0
CLASS
  1
HATCH
  2
AcDbHatch
  3
AutoCAD 2000
 90
    32768
280
     0
281
     1
  0
CLASS
  1
XRECORD
  2
AcDbXrecord
  3
AutoCAD 2000
 90
    32768
280
     0
281
     0
  0
CLASS
  1
LONG_TRANSACTION
  2
AcDbLongTransaction
  3
AutoCAD 2000
 90
    32768
280
     0
281
     0
  0
CLASS
  1
LWPOLYLINE
  2
AcDbPolyline
  3
AutoCAD 2000
 90
    32768
280
     0
281
     1
  0
CLASS
  1
HATCH
  2
AcDbHatch
  3
AutoCAD 2000
 90
    32768
280
     0
281
     1
  0
CLASS
  1
XRECORD
  2
AcDbXrecord
  3
AutoCAD 2000
 90
    32768
280
     0
281
     0
  0
CLASS
  1
LONG_TRANSACTION
  2
AcDbLongTransaction
  3
AutoCAD 2000
 90
    32768
280
     0
281
     0
  0
CLASS
  1
LWPOLYLINE
  2
AcDbPolyline
  3
AutoCAD 2000
 90
    32768
280
     0
281
     1
  0
CLASS
  1
HATCH
  2
AcDbHatch
  3
AutoCAD 2000
 90
    32768
280
     0
281
     1
  0
CLASS
  1
XRECORD
  2
AcDbXrecord
  3
AutoCAD 2000
 90
    32768
280
     0
281
     0
  0
CLASS
  1
LONG_TRANSACTION
  2
AcDbLongTransaction
  3
AutoCAD 2000
 90
    32768
280
     0
281
     0
  0
CLASS
  1
LWPOLYLINE
  2
AcDbPolyline
  3
AutoCAD 2000
 90
    32768
280
     0
281
     1
  0
CLASS
  1
HATCH
  2
AcDbHatch
  3
AutoCAD 2000
 90
    32768
280
     0
281
     1
  0
CLASS
  1
XRECORD
  2
AcDbXrecord
  3
AutoCAD 2000
 90
    32768
280
     0
281
     0
  0
ENDSEC
  0
SECTION
  2
TABLES
  0
TABLE
  2
VPORT
  5
1E
330
0
100
AcDbSymbolTable
 70
     4
  0
VPORT
  5
1BFB
330
1E
100
AcDbSymbolTableRecord
100
AcDbViewportTableRecord
  2
*Active
 70
     0
 10
0.0
 20
0.0
 11
1.0
 21
1.0
 12
-602.7853706901676
 22
283.9507810581184
 13
0.0
 23
0.0
 14
1.0
 24
1.0
 15
2.0
 25
2.0
 16
0.0
 26
0.0
 36
1.0
 17
0.0
 27
0.0
 37
0.0
 40
459.2966679104576
 41
1.750922509225092
 42
50.0
 43
0.0
 44
0.0
 50
0.0
 51
0.0
 71
     0
 72
   100
 73
     1
 74
     1
 75
     0
 76
     0
 77
     0
 78
     0
281
     0
 65
     1
110
0.0
120
0.0
130
0.0
111
1.0
121
0.0
131
0.0
112
0.0
122
1.0
132
0.0
 79
     0
146
0.0
  0
ENDTAB
  0
TABLE
  2
LTYPE
  5
19
330
0
100
AcDbSymbolTable
 70
     3
  0
LTYPE
  5
1A
330
19
100
AcDbSymbolTableRecord
100
AcDbLinetypeTableRecord
  2
BYBLOCK
 70
     0
  3

 72
    65
 73
     0
 40
0.0
  0
LTYPE
  5
1B
330
19
100
AcDbSymbolTableRecord
100
AcDbLinetypeTableRecord
  2
BYLAYER
 70
     0
  3

 72
    65
 73
     0
 40
0.0
  0
LTYPE
  5
A
330
19
100
AcDbSymbolTableRecord
100
AcDbLinetypeTableRecord
  2
CONTINUOUS
 70
     0
  3
Solid line
 72
    65
 73
     0
 40
0.0
  0
LTYPE
  5
68
330
19
100
AcDbSymbolTableRecord
100
AcDbLinetypeTableRecord
  2
DASHED2
 70
     0
  3
Dashed (.5x) _ _ _ _ _ _ _ _ _ _ _ _ _ _ _ _ _
 72
    65
 73
     2
 40
9.529999999999999
 49
6.349999999999998
 74
     0
 49
-3.18
 74
     0
  0
LTYPE
  5
76
330
19
100
AcDbSymbolTableRecord
100
AcDbLinetypeTableRecord
  2
CENTER
 70
     0
  3
Center ____ _ ____ _ ____ _ ____ _ ____ _ ____
 72
    65
 73
     4
 40
50.8
 49
31.75
 74
     0
 49
-6.349999999999998
 74
     0
 49
6.349999999999998
 74
     0
 49
-6.349999999999998
 74
     0
  0
ENDTAB
  0
TABLE
  2
LAYER
  5
14
330
0
100
AcDbSymbolTable
 70
     3
  0
LAYER
  5
6
330
14
100
AcDbSymbolTableRecord
100
AcDbLayerTableRecord
  2
0
 70
     0
 62
     7
  6
CONTINUOUS
370
    -3
390
7
  0
LAYER
  5
3F
330
14
100
AcDbSymbolTableRecord
100
AcDbLayerTableRecord
  2
DEFPOINTS
 70
     0
 62
     7
  6
CONTINUOUS
290
     0
370
    -3
390
7
  0
LAYER
  5
26
330
14
100
AcDbSymbolTableRecord
100
AcDbLayerTableRecord
  2
画層1
 70
     0
 62
     7
  6
CONTINUOUS
370
    -3
390
7
  0
ENDTAB
  0
TABLE
  2
STYLE
  5
15
330
0
100
AcDbSymbolTable
 70
     2
  0
STYLE
  5
16
330
15
100
AcDbSymbolTableRecord
100
AcDbTextStyleTableRecord
  2
STANDARD
 70
     0
 40
2.5
 41
1.0
 50
0.0
 71
     0
 42
1.5
  3
MS PMincho.ttf
  4

1001
ACAD
1000
MS PMincho
1071
    32786
  0
STYLE
  5
27
330
15
100
AcDbSymbolTableRecord
100
AcDbTextStyleTableRecord
  2
STYLE1
 70
     0
 40
2.5
 41
1.0
 50
0.0
 71
     0
 42
2.5
  3
MS Gothic.ttf
  4

1001
ACAD
1000
MS Gothic
1071
    32817
  0
ENDTAB
  0
TABLE
  2
VIEW
  5
1C
330
0
100
AcDbSymbolTable
 70
     0
  0
ENDTAB
  0
TABLE
  2
UCS
  5
1D
330
0
100
AcDbSymbolTable
 70
     0
  0
ENDTAB
  0
TABLE
  2
APPID
  5
20
330
0
100
AcDbSymbolTable
 70
     1
  0
APPID
  5
17
330
20
100
AcDbSymbolTableRecord
100
AcDbRegAppTableRecord
  2
ACAD
 70
     0
  0
ENDTAB
  0
TABLE
  2
DIMSTYLE
  5
21
330
0
100
AcDbSymbolTable
 70
     1
100
AcDbDimStyleTable
 71
     1
340
35
  0
DIMSTYLE
105
35
102
{ACAD_REACTORS
330
1A7D
330
1A8A
330
1A97
330
1AA4
330
1ADF
330
1AEC
102
}
330
21
100
AcDbSymbolTableRecord
100
AcDbDimStyleTableRecord
  2
STANDARD_WS
 70
     0
 41
1.5
 42
0.63
 43
3.75
 44
1.25
 73
     0
 74
     0
 77
     1
 78
     8
140
2.5
141
2.5
143
0.04
147
0.63
171
     4
172
     1
173
     1
273
     8
274
     4
340
16
341
2E
343
2E
344
2E
  0
ENDTAB
  0
TABLE
  2
BLOCK_RECORD
  5
1
330
0
100
AcDbSymbolTable
 70
     9
  0
BLOCK_RECORD
  5
2
102
{ACAD_XDICTIONARY
360
3
102
}
330
1
100
AcDbSymbolTableRecord
100
AcDbBlockTableRecord
  2
*MODEL_SPACE
340
560
  0
BLOCK_RECORD
  5
E
102
{ACAD_XDICTIONARY
360
F
102
}
330
1
100
AcDbSymbolTableRecord
100
AcDbBlockTableRecord
  2
*PAPER_SPACE
340
561
  0
BLOCK_RECORD
  5
2E
330
1
100
AcDbSymbolTableRecord
100
AcDbBlockTableRecord
  2
_OPEN
340
0
  0
BLOCK_RECORD
  5
28
330
1
100
AcDbSymbolTableRecord
100
AcDbBlockTableRecord
  2
_OPEN30
340
0
102
{BLKREFS
331
1A82
331
1A83
331
1A8F
331
1A90
331
1A9C
331
1A9D
331
1AA9
331
1AAA
331
1AB5
331
1AB6
331
1ABE
331
1ABF
331
1AC7
331
1AC8
331
1AD0
331
1AD1
331
1AD9
331
1ADA
331
1AE4
331
1AE5
331
1AF1
331
1AF2
331
1AFD
331
1AFE
331
1B06
331
1B07
331
1B0F
331
1B10
331
1B18
331
1B19
331
1B22
331
1B23
331
1B2B
331
1B2C
102
}
  0
BLOCK_RECORD
  5
121
330
1
100
AcDbSymbolTableRecord
100
AcDbBlockTableRecord
  2
_DOTSMALL
340
0
  0
BLOCK_RECORD
  5
1A7E
330
1
100
AcDbSymbolTableRecord
100
AcDbBlockTableRecord
  2
*D3
340
0
  0
BLOCK_RECORD
  5
1A8B
330
1
100
AcDbSymbolTableRecord
100
AcDbBlockTableRecord
  2
*D4
340
0
  0
BLOCK_RECORD
  5
1A98
330
1
100
AcDbSymbolTableRecord
100
AcDbBlockTableRecord
  2
*D5
340
0
  0
BLOCK_RECORD
  5
1AA5
330
1
100
AcDbSymbolTableRecord
100
AcDbBlockTableRecord
  2
*D6
340
0
  0
BLOCK_RECORD
  5
1AE0
330
1
100
AcDbSymbolTableRecord
100
AcDbBlockTableRecord
  2
*D7
340
0
  0
BLOCK_RECORD
  5
1AED
330
1
100
AcDbSymbolTableRecord
100
AcDbBlockTableRecord
  2
*D8
340
0
  0
ENDTAB
  0
ENDSEC
  0
SECTION
  2
BLOCKS
  0
BLOCK
  5
5
330
2
100
AcDbEntity
  8
0
100
AcDbBlockBegin
  2
*MODEL_SPACE
 70
     0
 10
0.0
 20
0.0
 30
0.0
  3
*MODEL_SPACE
  1

  0
ENDBLK
  5
B
330
2
100
AcDbEntity
  8
0
100
AcDbBlockEnd
  0
BLOCK
  5
11
330
E
100
AcDbEntity
 67
     1
  8
0
100
AcDbBlockBegin
  2
*PAPER_SPACE
 70
     0
 10
0.0
 20
0.0
 30
0.0
  3
*PAPER_SPACE
  1

  0
ENDBLK
  5
12
330
E
100
AcDbEntity
 67
     1
  8
0
100
AcDbBlockEnd
  0
BLOCK
  5
32
330
2E
100
AcDbEntity
  8
0
100
AcDbBlockBegin
  2
_OPEN
 70
     0
 10
0.0
 20
0.0
 30
0.0
  3
_OPEN
  1

  0
LINE
  5
2F
330
2E
100
AcDbEntity
  8
0
  6
ByBlock
 62
     0
100
AcDbLine
 10
-1.0
 20
0.17
 30
0.0
 11
0.0
 21
0.0
 31
0.0
  0
LINE
  5
30
330
2E
100
AcDbEntity
  8
0
  6
ByBlock
 62
     0
100
AcDbLine
 10
0.0
 20
0.0
 30
0.0
 11
-1.0
 21
-0.17
 31
0.0
  0
LINE
  5
31
330
2E
100
AcDbEntity
  8
0
  6
ByBlock
 62
     0
100
AcDbLine
 10
0.0
 20
0.0
 30
0.0
 11
-1.0
 21
0.0
 31
0.0
  0
ENDBLK
  5
33
330
2E
100
AcDbEntity
  8
0
100
AcDbBlockEnd
  0
BLOCK
  5
2C
330
28
100
AcDbEntity
  8
0
100
AcDbBlockBegin
  2
_OPEN30
 70
     0
 10
0.0
 20
0.0
 30
0.0
  3
_OPEN30
  1

  0
LINE
  5
29
330
28
100
AcDbEntity
  8
0
  6
ByBlock
 62
     0
100
AcDbLine
 10
-1.0
 20
0.27
 30
0.0
 11
0.0
 21
0.0
 31
0.0
  0
LINE
  5
2A
330
28
100
AcDbEntity
  8
0
  6
ByBlock
 62
     0
100
AcDbLine
 10
0.0
 20
0.0
 30
0.0
 11
-1.0
 21
-0.27
 31
0.0
  0
LINE
  5
2B
330
28
100
AcDbEntity
  8
0
  6
ByBlock
 62
     0
100
AcDbLine
 10
0.0
 20
0.0
 30
0.0
 11
-1.0
 21
0.0
 31
0.0
  0
ENDBLK
  5
2D
330
28
100
AcDbEntity
  8
0
100
AcDbBlockEnd
  0
BLOCK
  5
123
330
121
100
AcDbEntity
  8
0
 62
     1
100
AcDbBlockBegin
  2
_DOTSMALL
 70
     0
 10
0.0
 20
0.0
 30
0.0
  3
_DOTSMALL
  1

  0
LWPOLYLINE
  5
122
330
121
100
AcDbEntity
  8
画層1
 62
     0
100
AcDbPolyline
 90
        2
 70
     1
 43
0.5
 10
-0.06
 20
0.0
 42
1.0
 10
0.06
 20
0.0
 42
1.0
  0
ENDBLK
  5
124
330
121
100
AcDbEntity
  8
0
 62
     1
100
AcDbBlockEnd
  0
BLOCK
  5
1A88
330
1A7E
100
AcDbEntity
  8
0
 62
     1
370
    20
100
AcDbBlockBegin
  2
*D3
 70
     1
 10
0.0
 20
0.0
 30
0.0
  3
*D3
  1

  0
LINE
  5
1B15
330
1A7E
100
AcDbEntity
  8
画層1
 62
     0
370
    -2
100
AcDbLine
 10
-655.5652295960735
 20
380.588776737169
 30
0.0
 11
-655.5652295960735
 21
412.1357709975018
 31
0.0
  0
LINE
  5
1B16
330
1A7E
100
AcDbEntity
  8
画層1
 62
     0
370
    -2
100
AcDbLine
 10
-495.5652295960734
 20
380.588776737169
 30
0.0
 11
-495.5652295960734
 21
412.1357709975018
 31
0.0
  0
LINE
  5
1B17
330
1A7E
100
AcDbEntity
  8
画層1
 62
     0
370
    -2
100
AcDbLine
 10
-654.0652295960735
 20
410.8857709975017
 30
0.0
 11
-497.0652295960735
 21
410.8857709975017
 31
0.0
  0
INSERT
  5
1B18
330
1A7E
100
AcDbEntity
  8
画層1
 62
     0
370
    -2
100
AcDbBlockReference
  2
_OPEN30
 10
-655.5652295960735
 20
410.8857709975017
 30
0.0
 41
1.5
 42
1.5
 43
1.5
 50
180.0
  0
INSERT
  5
1B19
330
1A7E
100
AcDbEntity
  8
画層1
 62
     0
370
    -2
100
AcDbBlockReference
  2
_OPEN30
 10
-495.5652295960734
 20
410.8857709975017
 30
0.0
 41
1.5
 42
1.5
 43
1.5
  0
MTEXT
  5
1B1A
330
1A7E
100
AcDbEntity
  8
画層1
 62
     0
370
    20
100
AcDbMText
 10
-575.5652295960735
 20
413.1357709975017
 30
0.0
 40
2.5
 41
0.0
 71
     5
 72
     1
  1
\A1;160
 73
     1
 44
1.0
  0
POINT
  5
1B1B
330
1A7E
100
AcDbEntity
  8
DEFPOINTS
 62
     0
370
    20
100
AcDbPoint
 10
-655.5652295960735
 20
379.958776737169
 30
0.0
  0
POINT
  5
1B1C
330
1A7E
100
AcDbEntity
  8
DEFPOINTS
 62
     0
370
    20
100
AcDbPoint
 10
-495.5652295960734
 20
379.958776737169
 30
0.0
  0
POINT
  5
1B1D
330
1A7E
100
AcDbEntity
  8
DEFPOINTS
 62
     0
370
    20
100
AcDbPoint
 10
-495.5652295960734
 20
410.8857709975017
 30
0.0
  0
ENDBLK
  5
1A89
330
1A7E
100
AcDbEntity
  8
0
 62
     1
370
    20
100
AcDbBlockEnd
  0
BLOCK
  5
1A95
330
1A8B
100
AcDbEntity
  8
0
 62
     1
370
    20
100
AcDbBlockBegin
  2
*D4
 70
     1
 10
0.0
 20
0.0
 30
0.0
  3
*D4
  1

  0
LINE
  5
1B0C
330
1A8B
100
AcDbEntity
  8
画層1
 62
     0
370
    -2
100
AcDbLine
 10
-648.0652295960735
 20
364.5887767371689
 30
0.0
 11
-648.0652295960735
 21
402.4335448414102
 31
0.0
  0
LINE
  5
1B0D
330
1A8B
100
AcDbEntity
  8
画層1
 62
     0
370
    -2
100
AcDbLine
 10
-503.0652295960735
 20
364.5887767371689
 30
0.0
 11
-503.0652295960735
 21
402.4335448414102
 31
0.0
  0
LINE
  5
1B0E
330
1A8B
100
AcDbEntity
  8
画層1
 62
     0
370
    -2
100
AcDbLine
 10
-646.5652295960735
 20
401.1835448414101
 30
0.0
 11
-504.5652295960735
 21
401.1835448414101
 31
0.0
  0
INSERT
  5
1B0F
330
1A8B
100
AcDbEntity
  8
画層1
 62
     0
370
    -2
100
AcDbBlockReference
  2
_OPEN30
 10
-648.0652295960735
 20
401.1835448414101
 30
0.0
 41
1.5
 42
1.5
 43
1.5
 50
180.0
  0
INSERT
  5
1B10
330
1A8B
100
AcDbEntity
  8
画層1
 62
     0
370
    -2
100
AcDbBlockReference
  2
_OPEN30
 10
-503.0652295960735
 20
401.1835448414101
 30
0.0
 41
1.5
 42
1.5
 43
1.5
  0
MTEXT
  5
1B11
330
1A8B
100
AcDbEntity
  8
画層1
 62
     0
370
    20
100
AcDbMText
 10
-575.5652295960735
 20
403.4335448414101
 30
0.0
 40
2.5
 41
0.0
 71
     5
 72
     1
  1
\A1;145
 73
     1
 44
1.0
  0
POINT
  5
1B12
330
1A8B
100
AcDbEntity
  8
DEFPOINTS
 62
     0
370
    20
100
AcDbPoint
 10
-648.0652295960735
 20
363.9587767371689
 30
0.0
  0
POINT
  5
1B13
330
1A8B
100
AcDbEntity
  8
DEFPOINTS
 62
     0
370
    20
100
AcDbPoint
 10
-503.0652295960735
 20
363.9587767371689
 30
0.0
  0
POINT
  5
1B14
330
1A8B
100
AcDbEntity
  8
DEFPOINTS
 62
     0
370
    20
100
AcDbPoint
 10
-503.0652295960735
 20
401.1835448414101
 30
0.0
  0
ENDBLK
  5
1A96
330
1A8B
100
AcDbEntity
  8
0
 62
     1
370
    20
100
AcDbBlockEnd
  0
BLOCK
  5
1AA2
330
1A98
100
AcDbEntity
  8
0
 62
     1
370
    20
100
AcDbBlockBegin
  2
*D5
 70
     1
 10
0.0
 20
0.0
 30
0.0
  3
*D5
  1

  0
LINE
  5
1B1E
330
1A98
100
AcDbEntity
  8
画層1
 62
     0
370
    -2
100
AcDbLine
 10
-494.9352295960735
 20
367.458776737169
 30
0.0
 11
-483.1217442639986
 21
367.458776737169
 31
0.0
  0
LINE
  5
1B1F
330
1A98
100
AcDbEntity
  8
画層1
 62
     0
370
    -2
100
AcDbLine
 10
-494.9352295960735
 20
360.458776737169
 30
0.0
 11
-483.1217442639986
 21
360.458776737169
 31
0.0
  0
LINE
  5
1B20
330
1A98
100
AcDbEntity
  8
画層1
 62
     0
370
    -2
100
AcDbLine
 10
-484.3717442639985
 20
361.9587767371689
 30
0.0
 11
-484.3717442639985
 21
365.9587767371689
 31
0.0
  0
LINE
  5
1B21
330
1A98
100
AcDbEntity
  8
画層1
 62
     0
370
    -2
100
AcDbLine
 10
-484.3717442639985
 20
367.458776737169
 30
0.0
 11
-484.3717442639985
 21
372.3211362877307
 31
0.0
  0
INSERT
  5
1B22
330
1A98
100
AcDbEntity
  8
画層1
 62
     0
370
    -2
100
AcDbBlockReference
  2
_OPEN30
 10
-484.3717442639985
 20
360.458776737169
 30
0.0
 41
1.5
 42
1.5
 43
1.5
 50
270.0
  0
INSERT
  5
1B23
330
1A98
100
AcDbEntity
  8
画層1
 62
     0
370
    -2
100
AcDbBlockReference
  2
_OPEN30
 10
-484.3717442639985
 20
367.458776737169
 30
0.0
 41
1.5
 42
1.5
 43
1.5
 50
90.0
  0
MTEXT
  5
1B24
330
1A98
100
AcDbEntity
  8
画層1
 62
     0
370
    20
100
AcDbMText
 10
-486.6217442639986
 20
370.6399565124498
 30
0.0
 40
2.5
 41
0.0
 71
     5
 72
     1
  1
\A1;7
 11
0.0000000000000001
 21
1.0
 31
0.0
 73
     1
 44
1.0
  0
POINT
  5
1B25
330
1A98
100
AcDbEntity
  8
DEFPOINTS
 62
     0
370
    20
100
AcDbPoint
 10
-495.5652295960735
 20
367.458776737169
 30
0.0
  0
POINT
  5
1B26
330
1A98
100
AcDbEntity
  8
DEFPOINTS
 62
     0
370
    20
100
AcDbPoint
 10
-495.5652295960735
 20
360.458776737169
 30
0.0
  0
POINT
  5
1B27
330
1A98
100
AcDbEntity
  8
DEFPOINTS
 62
     0
370
    20
100
AcDbPoint
 10
-484.3717442639985
 20
360.458776737169
 30
0.0
  0
ENDBLK
  5
1AA3
330
1A98
100
AcDbEntity
  8
0
 62
     1
370
    20
100
AcDbBlockEnd
  0
BLOCK
  5
1AAF
330
1AA5
100
AcDbEntity
  8
0
 62
     1
370
    20
100
AcDbBlockBegin
  2
*D6
 70
     1
 10
0.0
 20
0.0
 30
0.0
  3
*D6
  1

  0
LINE
  5
1B03
330
1AA5
100
AcDbEntity
  8
画層1
 62
     0
370
    -2
100
AcDbLine
 10
-502.4352295960735
 20
123.9587767371689
 30
0.0
 11
-474.7480064546667
 21
123.9587767371689
 31
0.0
  0
LINE
  5
1B04
330
1AA5
100
AcDbEntity
  8
画層1
 62
     0
370
    -2
100
AcDbLine
 10
-502.4352295960735
 20
363.9587767371689
 30
0.0
 11
-474.7480064546667
 21
363.9587767371689
 31
0.0
  0
LINE
  5
1B05
330
1AA5
100
AcDbEntity
  8
画層1
 62
     0
370
    -2
100
AcDbLine
 10
-475.9980064546667
 20
125.4587767371689
 30
0.0
 11
-475.9980064546666
 21
362.4587767371689
 31
0.0
  0
INSERT
  5
1B06
330
1AA5
100
AcDbEntity
  8
画層1
 62
     0
370
    -2
100
AcDbBlockReference
  2
_OPEN30
 10
-475.9980064546667
 20
123.9587767371689
 30
0.0
 41
1.5
 42
1.5
 43
1.5
 50
270.0
  0
INSERT
  5
1B07
330
1AA5
100
AcDbEntity
  8
画層1
 62
     0
370
    -2
100
AcDbBlockReference
  2
_OPEN30
 10
-475.9980064546666
 20
363.9587767371689
 30
0.0
 41
1.5
 42
1.5
 43
1.5
 50
90.0
  0
MTEXT
  5
1B08
330
1AA5
100
AcDbEntity
  8
画層1
 62
     0
370
    20
100
AcDbMText
 10
-478.2480064546667
 20
243.9587767371689
 30
0.0
 40
2.5
 41
0.0
 71
     5
 72
     1
  1
\A1;240
 11
0.0000000000000001
 21
1.0
 31
0.0
 73
     1
 44
1.0
  0
POINT
  5
1B09
330
1AA5
100
AcDbEntity
  8
DEFPOINTS
 62
     0
370
    20
100
AcDbPoint
 10
-503.0652295960735
 20
123.9587767371689
 30
0.0
  0
POINT
  5
1B0A
330
1AA5
100
AcDbEntity
  8
DEFPOINTS
 62
     0
370
    20
100
AcDbPoint
 10
-503.0652295960735
 20
363.9587767371689
 30
0.0
  0
POINT
  5
1B0B
330
1AA5
100
AcDbEntity
  8
DEFPOINTS
 62
     0
370
    20
100
AcDbPoint
 10
-475.9980064546666
 20
363.9587767371689
 30
0.0
  0
ENDBLK
  5
1AB0
330
1AA5
100
AcDbEntity
  8
0
 62
     1
370
    20
100
AcDbBlockEnd
  0
BLOCK
  5
1AEA
330
1AE0
100
AcDbEntity
  8
0
 62
     1
370
    20
100
AcDbBlockBegin
  2
*D7
 70
     1
 10
0.0
 20
0.0
 30
0.0
  3
*D7
  1

  0
LINE
  5
1AFA
330
1AE0
100
AcDbEntity
  8
画層1
 62
     0
370
    -2
100
AcDbLine
 10
-498.9352295960735
 20
103.958776737169
 30
0.0
 11
-464.6994593255026
 21
103.958776737169
 31
0.0
  0
LINE
  5
1AFB
330
1AE0
100
AcDbEntity
  8
画層1
 62
     0
370
    -2
100
AcDbLine
 10
-498.9352295960735
 20
383.958776737169
 30
0.0
 11
-464.6994593255026
 21
383.958776737169
 31
0.0
  0
LINE
  5
1AFC
330
1AE0
100
AcDbEntity
  8
画層1
 62
     0
370
    -2
100
AcDbLine
 10
-465.9494593255026
 20
105.458776737169
 30
0.0
 11
-465.9494593255026
 21
382.458776737169
 31
0.0
  0
INSERT
  5
1AFD
330
1AE0
100
AcDbEntity
  8
画層1
 62
     0
370
    -2
100
AcDbBlockReference
  2
_OPEN30
 10
-465.9494593255026
 20
103.958776737169
 30
0.0
 41
1.5
 42
1.5
 43
1.5
 50
270.0
  0
INSERT
  5
1AFE
330
1AE0
100
AcDbEntity
  8
画層1
 62
     0
370
    -2
100
AcDbBlockReference
  2
_OPEN30
 10
-465.9494593255026
 20
383.958776737169
 30
0.0
 41
1.5
 42
1.5
 43
1.5
 50
90.0
  0
MTEXT
  5
1AFF
330
1AE0
100
AcDbEntity
  8
画層1
 62
     0
370
    20
100
AcDbMText
 10
-468.1994593255026
 20
243.9587767371689
 30
0.0
 40
2.5
 41
0.0
 71
     5
 72
     1
  1
\A1;280
 11
0.0000000000000001
 21
1.0
 31
0.0
 73
     1
 44
1.0
  0
POINT
  5
1B00
330
1AE0
100
AcDbEntity
  8
DEFPOINTS
 62
     0
370
    20
100
AcDbPoint
 10
-499.5652295960735
 20
103.958776737169
 30
0.0
  0
POINT
  5
1B01
330
1AE0
100
AcDbEntity
  8
DEFPOINTS
 62
     0
370
    20
100
AcDbPoint
 10
-499.5652295960734
 20
383.958776737169
 30
0.0
  0
POINT
  5
1B02
330
1AE0
100
AcDbEntity
  8
DEFPOINTS
 62
     0
370
    20
100
AcDbPoint
 10
-465.9494593255026
 20
383.958776737169
 30
0.0
  0
ENDBLK
  5
1AEB
330
1AE0
100
AcDbEntity
  8
0
 62
     1
370
    20
100
AcDbBlockEnd
  0
BLOCK
  5
1AF7
330
1AED
100
AcDbEntity
  8
0
 62
     1
370
    20
100
AcDbBlockBegin
  2
*D8
 70
     1
 10
0.0
 20
0.0
 30
0.0
  3
*D8
  1

  0
LINE
  5
1B28
330
1AED
100
AcDbEntity
  8
画層1
 62
     0
370
    -2
100
AcDbLine
 10
-437.0904011789971
 20
377.088776737169
 30
0.0
 11
-437.0904011789971
 21
399.3148209747699
 31
0.0
  0
LINE
  5
1B29
330
1AED
100
AcDbEntity
  8
画層1
 62
     0
370
    -2
100
AcDbLine
 10
-247.0904011789971
 20
384.588776737169
 30
0.0
 11
-247.0904011789971
 21
399.3148209747699
 31
0.0
  0
LINE
  5
1B2A
330
1AED
100
AcDbEntity
  8
画層1
 62
     0
370
    -2
100
AcDbLine
 10
-435.5904011789971
 20
398.0648209747699
 30
0.0
 11
-248.5904011789971
 21
398.0648209747699
 31
0.0
  0
INSERT
  5
1B2B
330
1AED
100
AcDbEntity
  8
画層1
 62
     0
370
    -2
100
AcDbBlockReference
  2
_OPEN30
 10
-437.0904011789971
 20
398.0648209747699
 30
0.0
 41
1.5
 42
1.5
 43
1.5
 50
180.0
  0
INSERT
  5
1B2C
330
1AED
100
AcDbEntity
  8
画層1
 62
     0
370
    -2
100
AcDbBlockReference
  2
_OPEN30
 10
-247.0904011789971
 20
398.0648209747699
 30
0.0
 41
1.5
 42
1.5
 43
1.5
  0
MTEXT
  5
1B2D
330
1AED
100
AcDbEntity
  8
画層1
 62
     0
370
    20
100
AcDbMText
 10
-342.0904011789971
 20
400.3148209747699
 30
0.0
 40
2.5
 41
0.0
 71
     5
 72
     1
  1
\A1;190
 73
     1
 44
1.0
  0
POINT
  5
1B2E
330
1AED
100
AcDbEntity
  8
DEFPOINTS
 62
     0
370
    20
100
AcDbPoint
 10
-437.0904011789971
 20
376.458776737169
 30
0.0
  0
POINT
  5
1B2F
330
1AED
100
AcDbEntity
  8
DEFPOINTS
 62
     0
370
    20
100
AcDbPoint
 10
-247.0904011789971
 20
383.9587767371691
 30
0.0
  0
POINT
  5
1B30
330
1AED
100
AcDbEntity
  8
DEFPOINTS
 62
     0
370
    20
100
AcDbPoint
 10
-247.0904011789971
 20
398.0648209747699
 30
0.0
  0
ENDBLK
  5
1AF8
330
1AED
100
AcDbEntity
  8
0
 62
     1
370
    20
100
AcDbBlockEnd
  0
ENDSEC
  0
SECTION
  2
ENTITIES
  0
LINE
  5
B81
330
2
100
AcDbEntity
  8
画層1
  6
CENTER
 62
     0
370
    20
100
AcDbLine
 10
-665.5652295960735
 20
243.958776737169
 30
0.0
 11
-485.5652295960735
 21
243.958776737169
 31
0.0
  0
LINE
  5
B84
330
2
100
AcDbEntity
  8
画層1
  6
CENTER
 62
     0
370
    20
100
AcDbLine
 10
-575.5652295960735
 20
393.958776737169
 30
0.0
 11
-575.5652295960735
 21
93.95877673716904
 31
0.0
  0
LINE
  5
BB4
330
2
100
AcDbEntity
  8
画層1
  6
CENTER
 62
     0
370
    20
100
AcDbLine
 10
-447.0904011789971
 20
243.958776737169
 30
0.0
 11
-217.0904011789971
 21
243.958776737169
 31
0.0
  0
LINE
  5
100C
330
2
100
AcDbEntity
  8
画層1
370
    20
100
AcDbLine
 10
-638.0652295960735
 20
103.958776737169
 30
0.0
 11
-638.0652295960735
 21
133.958776737169
 31
0.0
  0
LINE
  5
100D
330
2
100
AcDbEntity
  8
画層1
370
    20
100
AcDbLine
 10
-638.0652295960735
 20
133.958776737169
 30
0.0
 11
-512.5977145525111
 21
133.958776737169
 31
0.0
  0
LINE
  5
100E
330
2
100
AcDbEntity
  8
画層1
370
    20
100
AcDbLine
 10
-512.5977145525111
 20
133.958776737169
 30
0.0
 11
-512.5977145525111
 21
103.958776737169
 31
0.0
  0
LWPOLYLINE
  5
1012
330
2
100
AcDbEntity
  8
画層1
370
    20
100
AcDbPolyline
 90
        4
 70
     1
 43
0.0
 10
-525.0977145525111
 20
110.958776737169
 10
-513.0977145525112
 20
110.958776737169
 10
-513.0977145525112
 20
126.958776737169
 10
-525.0977145525111
 20
126.958776737169
  0
LWPOLYLINE
  5
1014
330
2
100
AcDbEntity
  8
画層1
370
    20
100
AcDbPolyline
 90
        4
 70
     1
 43
0.0
 10
-573.5652295960735
 20
110.958776737169
 10
-561.5652295960735
 20
110.958776737169
 10
-561.5652295960735
 20
126.958776737169
 10
-573.5652295960735
 20
126.958776737169
  0
LWPOLYLINE
  5
1017
330
2
100
AcDbEntity
  8
画層1
370
    20
100
AcDbPolyline
 90
        4
 70
     1
 43
0.0
 10
-589.5652295960736
 20
110.958776737169
 10
-577.5652295960735
 20
110.958776737169
 10
-577.5652295960735
 20
126.958776737169
 10
-589.5652295960736
 20
126.958776737169
  0
LWPOLYLINE
  5
1018
330
2
100
AcDbEntity
  8
画層1
370
    20
100
AcDbPolyline
 90
        4
 70
     1
 43
0.0
 10
-605.5652295960735
 20
110.958776737169
 10
-593.5652295960735
 20
110.958776737169
 10
-593.5652295960735
 20
126.958776737169
 10
-605.5652295960735
 20
126.958776737169
  0
LWPOLYLINE
  5
1019
330
2
100
AcDbEntity
  8
画層1
370
    20
100
AcDbPolyline
 90
        4
 70
     1
 43
0.0
 10
-621.5652295960735
 20
110.958776737169
 10
-609.5652295960735
 20
110.958776737169
 10
-609.5652295960735
 20
126.958776737169
 10
-621.5652295960735
 20
126.958776737169
  0
LWPOLYLINE
  5
101A
330
2
100
AcDbEntity
  8
画層1
370
    20
100
AcDbPolyline
 90
        4
 70
     1
 43
0.0
 10
-637.5652295960735
 20
110.958776737169
 10
-625.5652295960735
 20
110.958776737169
 10
-625.5652295960735
 20
126.958776737169
 10
-637.5652295960735
 20
126.958776737169
  0
ARC
  5
1055
330
2
100
AcDbEntity
  8
画層1
370
    20
100
AcDbCircle
 10
-626.5652295960735
 20
126.958776737169
 30
0.0
 40
1.0
100
AcDbArc
 50
0.0
 51
90.0
  0
ARC
  5
105B
330
2
100
AcDbEntity
  8
画層1
370
    20
100
AcDbCircle
 10
-625.5652295960735
 20
132.958776737169
 30
0.0
 40
1.0
100
AcDbArc
 50
90.0
 51
180.0
  0
LINE
  5
105D
330
2
100
AcDbEntity
  8
画層1
370
    20
100
AcDbLine
 10
-626.5652295960735
 20
132.958776737169
 30
0.0
 11
-626.5652295960735
 21
127.958776737169
 31
0.0
  0
ARC
  5
1062
330
2
100
AcDbEntity
  8
画層1
370
    20
100
AcDbCircle
 10
-621.5652295960735
 20
132.958776737169
 30
0.0
 40
1.0
100
AcDbArc
 50
0.000000000000007
 51
90.0
  0
LINE
  5
1063
330
2
100
AcDbEntity
  8
画層1
370
    20
100
AcDbLine
 10
-620.5652295960735
 20
132.958776737169
 30
0.0
 11
-620.5652295960735
 21
127.958776737169
 31
0.0
  0
ARC
  5
1064
330
2
100
AcDbEntity
  8
画層1
370
    20
100
AcDbCircle
 10
-620.5652295960735
 20
126.958776737169
 30
0.0
 40
1.0
100
AcDbArc
 50
90.0
 51
180.0
  0
ARC
  5
1065
330
2
100
AcDbEntity
  8
画層1
370
    20
100
AcDbCircle
 10
-621.5652295960735
 20
104.958776737169
 30
0.0
 40
1.0
100
AcDbArc
 50
270.0
 51
0.0
  0
LINE
  5
1066
330
2
100
AcDbEntity
  8
画層1
370
    20
100
AcDbLine
 10
-620.5652295960735
 20
104.958776737169
 30
0.0
 11
-620.5652295960735
 21
109.958776737169
 31
0.0
  0
ARC
  5
1067
330
2
100
AcDbEntity
  8
画層1
370
    20
100
AcDbCircle
 10
-620.5652295960735
 20
110.958776737169
 30
0.0
 40
1.0
100
AcDbArc
 50
180.0
 51
270.0
  0
ARC
  5
1068
330
2
100
AcDbEntity
  8
画層1
370
    20
100
AcDbCircle
 10
-625.5652295960735
 20
104.958776737169
 30
0.0
 40
1.0
100
AcDbArc
 50
180.0
 51
270.0
  0
LINE
  5
1069
330
2
100
AcDbEntity
  8
画層1
370
    20
100
AcDbLine
 10
-626.5652295960735
 20
104.958776737169
 30
0.0
 11
-626.5652295960735
 21
109.958776737169
 31
0.0
  0
ARC
  5
106A
330
2
100
AcDbEntity
  8
画層1
370
    20
100
AcDbCircle
 10
-626.5652295960735
 20
110.958776737169
 30
0.0
 40
1.0
100
AcDbArc
 50
270.0
 51
0.0
  0
ARC
  5
106B
330
2
100
AcDbEntity
  8
画層1
370
    20
100
AcDbCircle
 10
-605.5652295960735
 20
132.958776737169
 30
0.0
 40
1.0
100
AcDbArc
 50
0.000000000000007
 51
90.0
  0
ARC
  5
106C
330
2
100
AcDbEntity
  8
画層1
370
    20
100
AcDbCircle
 10
-609.5652295960735
 20
132.958776737169
 30
0.0
 40
1.0
100
AcDbArc
 50
90.0
 51
180.0
  0
LINE
  5
106D
330
2
100
AcDbEntity
  8
画層1
370
    20
100
AcDbLine
 10
-604.5652295960735
 20
132.958776737169
 30
0.0
 11
-604.5652295960735
 21
127.958776737169
 31
0.0
  0
ARC
  5
106E
330
2
100
AcDbEntity
  8
画層1
370
    20
100
AcDbCircle
 10
-604.5652295960735
 20
126.958776737169
 30
0.0
 40
1.0
100
AcDbArc
 50
90.0
 51
180.0
  0
LINE
  5
106F
330
2
100
AcDbEntity
  8
画層1
370
    20
100
AcDbLine
 10
-610.5652295960735
 20
132.958776737169
 30
0.0
 11
-610.5652295960735
 21
127.958776737169
 31
0.0
  0
ARC
  5
1070
330
2
100
AcDbEntity
  8
画層1
370
    20
100
AcDbCircle
 10
-610.5652295960735
 20
126.958776737169
 30
0.0
 40
1.0
100
AcDbArc
 50
0.0
 51
90.0
  0
LINE
  5
1071
330
2
100
AcDbEntity
  8
画層1
370
    20
100
AcDbLine
 10
-610.5652295960735
 20
104.958776737169
 30
0.0
 11
-610.5652295960735
 21
109.958776737169
 31
0.0
  0
LINE
  5
1072
330
2
100
AcDbEntity
  8
画層1
370
    20
100
AcDbLine
 10
-604.5652295960735
 20
104.958776737169
 30
0.0
 11
-604.5652295960735
 21
109.958776737169
 31
0.0
  0
ARC
  5
1073
330
2
100
AcDbEntity
  8
画層1
370
    20
100
AcDbCircle
 10
-609.5652295960735
 20
104.958776737169
 30
0.0
 40
1.0
100
AcDbArc
 50
180.0
 51
270.0
  0
ARC
  5
1074
330
2
100
AcDbEntity
  8
画層1
370
    20
100
AcDbCircle
 10
-605.5652295960735
 20
104.958776737169
 30
0.0
 40
1.0
100
AcDbArc
 50
270.0
 51
0.0
  0
ARC
  5
1075
330
2
100
AcDbEntity
  8
画層1
370
    20
100
AcDbCircle
 10
-610.5652295960735
 20
110.958776737169
 30
0.0
 40
1.0
100
AcDbArc
 50
270.0
 51
0.0
  0
ARC
  5
1076
330
2
100
AcDbEntity
  8
画層1
370
    20
100
AcDbCircle
 10
-604.5652295960735
 20
110.958776737169
 30
0.0
 40
1.0
100
AcDbArc
 50
180.0
 51
270.0
  0
ARC
  5
1077
330
2
100
AcDbEntity
  8
画層1
370
    20
100
AcDbCircle
 10
-593.5652295960735
 20
132.958776737169
 30
0.0
 40
1.0
100
AcDbArc
 50
90.0
 51
180.0
  0
ARC
  5
1078
330
2
100
AcDbEntity
  8
画層1
370
    20
100
AcDbCircle
 10
-594.5652295960735
 20
126.958776737169
 30
0.0
 40
1.0
100
AcDbArc
 50
0.0
 51
90.0
  0
LINE
  5
1079
330
2
100
AcDbEntity
  8
画層1
370
    20
100
AcDbLine
 10
-594.5652295960735
 20
132.958776737169
 30
0.0
 11
-594.5652295960735
 21
127.958776737169
 31
0.0
  0
ARC
  5
107A
330
2
100
AcDbEntity
  8
画層1
370
    20
100
AcDbCircle
 10
-589.5652295960736
 20
132.958776737169
 30
0.0
 40
1.0
100
AcDbArc
 50
0.000000000000007
 51
90.0
  0
ARC
  5
107B
330
2
100
AcDbEntity
  8
画層1
370
    20
100
AcDbCircle
 10
-588.5652295960735
 20
126.958776737169
 30
0.0
 40
1.0
100
AcDbArc
 50
90.0
 51
180.0
  0
LINE
  5
107C
330
2
100
AcDbEntity
  8
画層1
370
    20
100
AcDbLine
 10
-588.5652295960735
 20
132.958776737169
 30
0.0
 11
-588.5652295960735
 21
127.958776737169
 31
0.0
  0
LINE
  5
107D
330
2
100
AcDbEntity
  8
画層1
370
    20
100
AcDbLine
 10
-594.5652295960735
 20
104.958776737169
 30
0.0
 11
-594.5652295960735
 21
109.958776737169
 31
0.0
  0
ARC
  5
107E
330
2
100
AcDbEntity
  8
画層1
370
    20
100
AcDbCircle
 10
-593.5652295960735
 20
104.958776737169
 30
0.0
 40
1.0
100
AcDbArc
 50
180.0
 51
270.0
  0
ARC
  5
107F
330
2
100
AcDbEntity
  8
画層1
370
    20
100
AcDbCircle
 10
-594.5652295960735
 20
110.958776737169
 30
0.0
 40
1.0
100
AcDbArc
 50
270.0
 51
0.0
  0
LINE
  5
1080
330
2
100
AcDbEntity
  8
画層1
370
    20
100
AcDbLine
 10
-588.5652295960735
 20
104.958776737169
 30
0.0
 11
-588.5652295960735
 21
109.958776737169
 31
0.0
  0
ARC
  5
1081
330
2
100
AcDbEntity
  8
画層1
370
    20
100
AcDbCircle
 10
-589.5652295960736
 20
104.958776737169
 30
0.0
 40
1.0
100
AcDbArc
 50
270.0
 51
0.0
  0
ARC
  5
1082
330
2
100
AcDbEntity
  8
画層1
370
    20
100
AcDbCircle
 10
-588.5652295960735
 20
110.958776737169
 30
0.0
 40
1.0
100
AcDbArc
 50
180.0
 51
270.0
  0
ARC
  5
1083
330
2
100
AcDbEntity
  8
画層1
370
    20
100
AcDbCircle
 10
-573.5652295960735
 20
132.958776737169
 30
0.0
 40
1.0
100
AcDbArc
 50
0.000000000000007
 51
90.0
  0
ARC
  5
1084
330
2
100
AcDbEntity
  8
画層1
370
    20
100
AcDbCircle
 10
-577.5652295960735
 20
132.958776737169
 30
0.0
 40
1.0
100
AcDbArc
 50
90.0
 51
180.0
  0
LINE
  5
1085
330
2
100
AcDbEntity
  8
画層1
370
    20
100
AcDbLine
 10
-572.5652295960735
 20
132.958776737169
 30
0.0
 11
-572.5652295960735
 21
127.958776737169
 31
0.0
  0
ARC
  5
1086
330
2
100
AcDbEntity
  8
画層1
370
    20
100
AcDbCircle
 10
-572.5652295960735
 20
126.958776737169
 30
0.0
 40
1.0
100
AcDbArc
 50
90.0
 51
180.0
  0
LINE
  5
1087
330
2
100
AcDbEntity
  8
画層1
370
    20
100
AcDbLine
 10
-578.5652295960735
 20
132.958776737169
 30
0.0
 11
-578.5652295960735
 21
127.958776737169
 31
0.0
  0
ARC
  5
1088
330
2
100
AcDbEntity
  8
画層1
370
    20
100
AcDbCircle
 10
-578.5652295960735
 20
126.958776737169
 30
0.0
 40
1.0
100
AcDbArc
 50
0.0
 51
90.0
  0
LINE
  5
1089
330
2
100
AcDbEntity
  8
画層1
370
    20
100
AcDbLine
 10
-572.5652295960735
 20
104.958776737169
 30
0.0
 11
-572.5652295960735
 21
109.958776737169
 31
0.0
  0
LINE
  5
108A
330
2
100
AcDbEntity
  8
画層1
370
    20
100
AcDbLine
 10
-578.5652295960735
 20
104.958776737169
 30
0.0
 11
-578.5652295960735
 21
109.958776737169
 31
0.0
  0
ARC
  5
108B
330
2
100
AcDbEntity
  8
画層1
370
    20
100
AcDbCircle
 10
-573.5652295960735
 20
104.958776737169
 30
0.0
 40
1.0
100
AcDbArc
 50
270.0
 51
0.0
  0
ARC
  5
108C
330
2
100
AcDbEntity
  8
画層1
370
    20
100
AcDbCircle
 10
-577.5652295960735
 20
104.958776737169
 30
0.0
 40
1.0
100
AcDbArc
 50
180.0
 51
270.0
  0
ARC
  5
108D
330
2
100
AcDbEntity
  8
画層1
370
    20
100
AcDbCircle
 10
-572.5652295960735
 20
110.958776737169
 30
0.0
 40
1.0
100
AcDbArc
 50
180.0
 51
270.0
  0
ARC
  5
108E
330
2
100
AcDbEntity
  8
画層1
370
    20
100
AcDbCircle
 10
-578.5652295960735
 20
110.958776737169
 30
0.0
 40
1.0
100
AcDbArc
 50
270.0
 51
0.0
  0
ARC
  5
108F
330
2
100
AcDbEntity
  8
画層1
370
    20
100
AcDbCircle
 10
-561.5652295960735
 20
132.958776737169
 30
0.0
 40
1.0
100
AcDbArc
 50
90.0
 51
180.0
  0
ARC
  5
1090
330
2
100
AcDbEntity
  8
画層1
370
    20
100
AcDbCircle
 10
-525.0977145525111
 20
132.958776737169
 30
0.0
 40
1.0
100
AcDbArc
 50
0.000000000000007
 51
90.0
  0
ARC
  5
1091
330
2
100
AcDbEntity
  8
画層1
370
    20
100
AcDbCircle
 10
-524.0977145525111
 20
126.958776737169
 30
0.0
 40
1.0
100
AcDbArc
 50
90.0
 51
180.0
  0
ARC
  5
1092
330
2
100
AcDbEntity
  8
画層1
370
    20
100
AcDbCircle
 10
-562.5652295960735
 20
126.958776737169
 30
0.0
 40
1.0
100
AcDbArc
 50
0.0
 51
90.0
  0
LINE
  5
1093
330
2
100
AcDbEntity
  8
画層1
370
    20
100
AcDbLine
 10
-562.5652295960735
 20
132.958776737169
 30
0.0
 11
-562.5652295960735
 21
127.958776737169
 31
0.0
  0
LINE
  5
1094
330
2
100
AcDbEntity
  8
画層1
370
    20
100
AcDbLine
 10
-524.0977145525111
 20
132.958776737169
 30
0.0
 11
-524.0977145525111
 21
127.958776737169
 31
0.0
  0
LINE
  5
1095
330
2
100
AcDbEntity
  8
画層1
370
    20
100
AcDbLine
 10
-562.5652295960735
 20
104.958776737169
 30
0.0
 11
-562.5652295960735
 21
109.958776737169
 31
0.0
  0
LINE
  5
1096
330
2
100
AcDbEntity
  8
画層1
370
    20
100
AcDbLine
 10
-524.0977145525111
 20
104.958776737169
 30
0.0
 11
-524.0977145525111
 21
109.958776737169
 31
0.0
  0
ARC
  5
1097
330
2
100
AcDbEntity
  8
画層1
370
    20
100
AcDbCircle
 10
-525.0977145525111
 20
104.958776737169
 30
0.0
 40
1.0
100
AcDbArc
 50
270.0
 51
0.0
  0
ARC
  5
1098
330
2
100
AcDbEntity
  8
画層1
370
    20
100
AcDbCircle
 10
-561.5652295960735
 20
104.958776737169
 30
0.0
 40
1.0
100
AcDbArc
 50
180.0
 51
270.0
  0
ARC
  5
1099
330
2
100
AcDbEntity
  8
画層1
370
    20
100
AcDbCircle
 10
-524.0977145525111
 20
110.958776737169
 30
0.0
 40
1.0
100
AcDbArc
 50
180.0
 51
270.0
  0
ARC
  5
109A
330
2
100
AcDbEntity
  8
画層1
370
    20
100
AcDbCircle
 10
-562.5652295960735
 20
110.958776737169
 30
0.0
 40
1.0
100
AcDbArc
 50
270.0
 51
0.0
  0
CIRCLE
  5
109D
330
2
100
AcDbEntity
  8
画層1
370
    20
100
AcDbCircle
 10
-631.5652295960735
 20
118.958776737169
 30
0.0
 40
5.0
  0
CIRCLE
  5
109E
330
2
100
AcDbEntity
  8
画層1
370
    20
100
AcDbCircle
 10
-631.5652295960735
 20
118.958776737169
 30
0.0
 40
4.0
  0
CIRCLE
  5
109F
330
2
100
AcDbEntity
  8
画層1
370
    20
100
AcDbCircle
 10
-631.5652295960735
 20
118.958776737169
 30
0.0
 40
2.5
  0
LINE
  5
10A8
330
2
100
AcDbEntity
  8
画層1
370
    20
100
AcDbLine
 10
-633.0652295960735
 20
118.458776737169
 30
0.0
 11
-633.0652295960735
 21
119.458776737169
 31
0.0
  0
LINE
  5
10A9
330
2
100
AcDbEntity
  8
画層1
370
    20
100
AcDbLine
 10
-633.0652295960735
 20
119.458776737169
 30
0.0
 11
-632.0652295960735
 21
119.458776737169
 31
0.0
  0
LINE
  5
10AA
330
2
100
AcDbEntity
  8
画層1
370
    20
100
AcDbLine
 10
-632.0652295960735
 20
119.458776737169
 30
0.0
 11
-632.0652295960735
 21
120.458776737169
 31
0.0
  0
LINE
  5
10AB
330
2
100
AcDbEntity
  8
画層1
370
    20
100
AcDbLine
 10
-632.0652295960735
 20
120.458776737169
 30
0.0
 11
-631.0652295960736
 21
120.458776737169
 31
0.0
  0
LINE
  5
10AC
330
2
100
AcDbEntity
  8
画層1
370
    20
100
AcDbLine
 10
-631.0652295960736
 20
120.458776737169
 30
0.0
 11
-631.0652295960736
 21
119.458776737169
 31
0.0
  0
LINE
  5
10AD
330
2
100
AcDbEntity
  8
画層1
370
    20
100
AcDbLine
 10
-631.0652295960736
 20
119.458776737169
 30
0.0
 11
-630.0652295960735
 21
119.458776737169
 31
0.0
  0
LINE
  5
10AE
330
2
100
AcDbEntity
  8
画層1
370
    20
100
AcDbLine
 10
-630.0652295960735
 20
119.458776737169
 30
0.0
 11
-630.0652295960735
 21
118.458776737169
 31
0.0
  0
LINE
  5
10AF
330
2
100
AcDbEntity
  8
画層1
370
    20
100
AcDbLine
 10
-630.0652295960735
 20
118.458776737169
 30
0.0
 11
-631.0652295960736
 21
118.458776737169
 31
0.0
  0
LINE
  5
10B0
330
2
100
AcDbEntity
  8
画層1
370
    20
100
AcDbLine
 10
-631.0652295960736
 20
118.458776737169
 30
0.0
 11
-631.0652295960736
 21
117.458776737169
 31
0.0
  0
LINE
  5
10B1
330
2
100
AcDbEntity
  8
画層1
370
    20
100
AcDbLine
 10
-631.0652295960736
 20
117.458776737169
 30
0.0
 11
-632.0652295960735
 21
117.458776737169
 31
0.0
  0
LINE
  5
10B2
330
2
100
AcDbEntity
  8
画層1
370
    20
100
AcDbLine
 10
-632.0652295960735
 20
117.458776737169
 30
0.0
 11
-632.0652295960735
 21
118.458776737169
 31
0.0
  0
LINE
  5
10B3
330
2
100
AcDbEntity
  8
画層1
370
    20
100
AcDbLine
 10
-633.0652295960735
 20
118.458776737169
 30
0.0
 11
-632.0652295960735
 21
118.458776737169
 31
0.0
  0
CIRCLE
  5
10B4
330
2
100
AcDbEntity
  8
画層1
370
    20
100
AcDbCircle
 10
-519.0977145525112
 20
118.958776737169
 30
0.0
 40
4.0
  0
CIRCLE
  5
10B5
330
2
100
AcDbEntity
  8
画層1
370
    20
100
AcDbCircle
 10
-519.0977145525112
 20
118.958776737169
 30
0.0
 40
5.0
  0
LINE
  5
10B6
330
2
100
AcDbEntity
  8
画層1
370
    20
100
AcDbLine
 10
-520.5977145525111
 20
118.458776737169
 30
0.0
 11
-519.5977145525112
 21
118.458776737169
 31
0.0
  0
LINE
  5
10B7
330
2
100
AcDbEntity
  8
画層1
370
    20
100
AcDbLine
 10
-519.5977145525112
 20
117.458776737169
 30
0.0
 11
-519.5977145525112
 21
118.458776737169
 31
0.0
  0
LINE
  5
10B8
330
2
100
AcDbEntity
  8
画層1
370
    20
100
AcDbLine
 10
-518.5977145525112
 20
117.458776737169
 30
0.0
 11
-519.5977145525112
 21
117.458776737169
 31
0.0
  0
LINE
  5
10B9
330
2
100
AcDbEntity
  8
画層1
370
    20
100
AcDbLine
 10
-518.5977145525112
 20
118.458776737169
 30
0.0
 11
-518.5977145525112
 21
117.458776737169
 31
0.0
  0
LINE
  5
10BA
330
2
100
AcDbEntity
  8
画層1
370
    20
100
AcDbLine
 10
-517.5977145525112
 20
118.458776737169
 30
0.0
 11
-518.5977145525112
 21
118.458776737169
 31
0.0
  0
LINE
  5
10BB
330
2
100
AcDbEntity
  8
画層1
370
    20
100
AcDbLine
 10
-517.5977145525112
 20
119.458776737169
 30
0.0
 11
-517.5977145525112
 21
118.458776737169
 31
0.0
  0
LINE
  5
10BC
330
2
100
AcDbEntity
  8
画層1
370
    20
100
AcDbLine
 10
-518.5977145525112
 20
119.458776737169
 30
0.0
 11
-517.5977145525112
 21
119.458776737169
 31
0.0
  0
LINE
  5
10BD
330
2
100
AcDbEntity
  8
画層1
370
    20
100
AcDbLine
 10
-518.5977145525112
 20
120.458776737169
 30
0.0
 11
-518.5977145525112
 21
119.458776737169
 31
0.0
  0
LINE
  5
10BE
330
2
100
AcDbEntity
  8
画層1
370
    20
100
AcDbLine
 10
-519.5977145525112
 20
120.458776737169
 30
0.0
 11
-518.5977145525112
 21
120.458776737169
 31
0.0
  0
LINE
  5
10BF
330
2
100
AcDbEntity
  8
画層1
370
    20
100
AcDbLine
 10
-519.5977145525112
 20
119.458776737169
 30
0.0
 11
-519.5977145525112
 21
120.458776737169
 31
0.0
  0
LINE
  5
10C0
330
2
100
AcDbEntity
  8
画層1
370
    20
100
AcDbLine
 10
-520.5977145525111
 20
119.458776737169
 30
0.0
 11
-519.5977145525112
 21
119.458776737169
 31
0.0
  0
LINE
  5
10C1
330
2
100
AcDbEntity
  8
画層1
370
    20
100
AcDbLine
 10
-520.5977145525111
 20
118.458776737169
 30
0.0
 11
-520.5977145525111
 21
119.458776737169
 31
0.0
  0
CIRCLE
  5
10C2
330
2
100
AcDbEntity
  8
画層1
370
    20
100
AcDbCircle
 10
-519.0977145525112
 20
118.958776737169
 30
0.0
 40
2.5
  0
CIRCLE
  5
10C4
330
2
100
AcDbEntity
  8
画層1
370
    20
100
AcDbCircle
 10
-615.5652295960735
 20
118.958776737169
 30
0.0
 40
5.0
  0
LINE
  5
10CE
330
2
100
AcDbEntity
  8
画層1
370
    20
100
AcDbLine
 10
-616.5652295960735
 20
121.458776737169
 30
0.0
 11
-616.5652295960735
 21
119.958776737169
 31
0.0
  0
LINE
  5
10CF
330
2
100
AcDbEntity
  8
画層1
370
    20
100
AcDbLine
 10
-616.5652295960735
 20
119.958776737169
 30
0.0
 11
-618.0652295960735
 21
119.958776737169
 31
0.0
  0
LINE
  5
10D0
330
2
100
AcDbEntity
  8
画層1
370
    20
100
AcDbLine
 10
-618.0652295960735
 20
119.958776737169
 30
0.0
 11
-618.0652295960735
 21
117.958776737169
 31
0.0
  0
LINE
  5
10D1
330
2
100
AcDbEntity
  8
画層1
370
    20
100
AcDbLine
 10
-618.0652295960735
 20
117.958776737169
 30
0.0
 11
-616.5652295960735
 21
117.958776737169
 31
0.0
  0
LINE
  5
10D2
330
2
100
AcDbEntity
  8
画層1
370
    20
100
AcDbLine
 10
-616.5652295960735
 20
117.958776737169
 30
0.0
 11
-616.5652295960735
 21
116.458776737169
 31
0.0
  0
LINE
  5
10D3
330
2
100
AcDbEntity
  8
画層1
370
    20
100
AcDbLine
 10
-616.5652295960735
 20
116.458776737169
 30
0.0
 11
-614.5652295960736
 21
116.458776737169
 31
0.0
  0
LINE
  5
10D4
330
2
100
AcDbEntity
  8
画層1
370
    20
100
AcDbLine
 10
-614.5652295960736
 20
116.458776737169
 30
0.0
 11
-614.5652295960736
 21
117.958776737169
 31
0.0
  0
LINE
  5
10D5
330
2
100
AcDbEntity
  8
画層1
370
    20
100
AcDbLine
 10
-614.5652295960736
 20
117.958776737169
 30
0.0
 11
-613.0652295960735
 21
117.958776737169
 31
0.0
  0
LINE
  5
10D6
330
2
100
AcDbEntity
  8
画層1
370
    20
100
AcDbLine
 10
-613.0652295960735
 20
117.958776737169
 30
0.0
 11
-613.0652295960735
 21
119.958776737169
 31
0.0
  0
LINE
  5
10D7
330
2
100
AcDbEntity
  8
画層1
370
    20
100
AcDbLine
 10
-613.0652295960735
 20
119.958776737169
 30
0.0
 11
-614.5652295960736
 21
119.958776737169
 31
0.0
  0
LINE
  5
10D8
330
2
100
AcDbEntity
  8
画層1
370
    20
100
AcDbLine
 10
-614.5652295960736
 20
119.958776737169
 30
0.0
 11
-614.5652295960736
 21
121.458776737169
 31
0.0
  0
LINE
  5
10D9
330
2
100
AcDbEntity
  8
画層1
370
    20
100
AcDbLine
 10
-614.5652295960736
 20
121.458776737169
 30
0.0
 11
-616.5652295960735
 21
121.458776737169
 31
0.0
  0
CIRCLE
  5
10DA
330
2
100
AcDbEntity
  8
画層1
370
    20
100
AcDbCircle
 10
-599.5652295960735
 20
118.958776737169
 30
0.0
 40
5.0
  0
LINE
  5
10DB
330
2
100
AcDbEntity
  8
画層1
370
    20
100
AcDbLine
 10
-602.0652295960736
 20
117.958776737169
 30
0.0
 11
-600.5652295960735
 21
117.958776737169
 31
0.0
  0
LINE
  5
10DC
330
2
100
AcDbEntity
  8
画層1
370
    20
100
AcDbLine
 10
-600.5652295960735
 20
119.958776737169
 30
0.0
 11
-602.0652295960736
 21
119.958776737169
 31
0.0
  0
LINE
  5
10DD
330
2
100
AcDbEntity
  8
画層1
370
    20
100
AcDbLine
 10
-602.0652295960736
 20
119.958776737169
 30
0.0
 11
-602.0652295960736
 21
117.958776737169
 31
0.0
  0
LINE
  5
10DE
330
2
100
AcDbEntity
  8
画層1
370
    20
100
AcDbLine
 10
-598.5652295960735
 20
121.458776737169
 30
0.0
 11
-600.5652295960735
 21
121.458776737169
 31
0.0
  0
LINE
  5
10DF
330
2
100
AcDbEntity
  8
画層1
370
    20
100
AcDbLine
 10
-598.5652295960735
 20
119.958776737169
 30
0.0
 11
-598.5652295960735
 21
121.458776737169
 31
0.0
  0
LINE
  5
10E0
330
2
100
AcDbEntity
  8
画層1
370
    20
100
AcDbLine
 10
-597.0652295960735
 20
119.958776737169
 30
0.0
 11
-598.5652295960735
 21
119.958776737169
 31
0.0
  0
LINE
  5
10E1
330
2
100
AcDbEntity
  8
画層1
370
    20
100
AcDbLine
 10
-597.0652295960735
 20
117.958776737169
 30
0.0
 11
-597.0652295960735
 21
119.958776737169
 31
0.0
  0
LINE
  5
10E2
330
2
100
AcDbEntity
  8
画層1
370
    20
100
AcDbLine
 10
-598.5652295960735
 20
117.958776737169
 30
0.0
 11
-597.0652295960735
 21
117.958776737169
 31
0.0
  0
LINE
  5
10E3
330
2
100
AcDbEntity
  8
画層1
370
    20
100
AcDbLine
 10
-598.5652295960735
 20
116.458776737169
 30
0.0
 11
-598.5652295960735
 21
117.958776737169
 31
0.0
  0
LINE
  5
10E4
330
2
100
AcDbEntity
  8
画層1
370
    20
100
AcDbLine
 10
-600.5652295960735
 20
116.458776737169
 30
0.0
 11
-598.5652295960735
 21
116.458776737169
 31
0.0
  0
LINE
  5
10E5
330
2
100
AcDbEntity
  8
画層1
370
    20
100
AcDbLine
 10
-600.5652295960735
 20
117.958776737169
 30
0.0
 11
-600.5652295960735
 21
116.458776737169
 31
0.0
  0
LINE
  5
10E6
330
2
100
AcDbEntity
  8
画層1
370
    20
100
AcDbLine
 10
-600.5652295960735
 20
121.458776737169
 30
0.0
 11
-600.5652295960735
 21
119.958776737169
 31
0.0
  0
CIRCLE
  5
10E7
330
2
100
AcDbEntity
  8
画層1
370
    20
100
AcDbCircle
 10
-583.5652295960735
 20
118.958776737169
 30
0.0
 40
5.0
  0
LINE
  5
10E8
330
2
100
AcDbEntity
  8
画層1
370
    20
100
AcDbLine
 10
-584.5652295960735
 20
121.458776737169
 30
0.0
 11
-584.5652295960735
 21
119.958776737169
 31
0.0
  0
LINE
  5
10E9
330
2
100
AcDbEntity
  8
画層1
370
    20
100
AcDbLine
 10
-584.5652295960735
 20
117.958776737169
 30
0.0
 11
-584.5652295960735
 21
116.458776737169
 31
0.0
  0
LINE
  5
10EA
330
2
100
AcDbEntity
  8
画層1
370
    20
100
AcDbLine
 10
-584.5652295960735
 20
116.458776737169
 30
0.0
 11
-582.5652295960735
 21
116.458776737169
 31
0.0
  0
LINE
  5
10EB
330
2
100
AcDbEntity
  8
画層1
370
    20
100
AcDbLine
 10
-582.5652295960735
 20
116.458776737169
 30
0.0
 11
-582.5652295960735
 21
117.958776737169
 31
0.0
  0
LINE
  5
10EC
330
2
100
AcDbEntity
  8
画層1
370
    20
100
AcDbLine
 10
-582.5652295960735
 20
117.958776737169
 30
0.0
 11
-581.0652295960735
 21
117.958776737169
 31
0.0
  0
LINE
  5
10ED
330
2
100
AcDbEntity
  8
画層1
370
    20
100
AcDbLine
 10
-581.0652295960735
 20
117.958776737169
 30
0.0
 11
-581.0652295960735
 21
119.958776737169
 31
0.0
  0
LINE
  5
10EE
330
2
100
AcDbEntity
  8
画層1
370
    20
100
AcDbLine
 10
-581.0652295960735
 20
119.958776737169
 30
0.0
 11
-582.5652295960735
 21
119.958776737169
 31
0.0
  0
LINE
  5
10EF
330
2
100
AcDbEntity
  8
画層1
370
    20
100
AcDbLine
 10
-582.5652295960735
 20
119.958776737169
 30
0.0
 11
-582.5652295960735
 21
121.458776737169
 31
0.0
  0
LINE
  5
10F0
330
2
100
AcDbEntity
  8
画層1
370
    20
100
AcDbLine
 10
-582.5652295960735
 20
121.458776737169
 30
0.0
 11
-584.5652295960735
 21
121.458776737169
 31
0.0
  0
LINE
  5
10F1
330
2
100
AcDbEntity
  8
画層1
370
    20
100
AcDbLine
 10
-586.0652295960735
 20
119.958776737169
 30
0.0
 11
-586.0652295960735
 21
117.958776737169
 31
0.0
  0
LINE
  5
10F2
330
2
100
AcDbEntity
  8
画層1
370
    20
100
AcDbLine
 10
-584.5652295960735
 20
119.958776737169
 30
0.0
 11
-586.0652295960735
 21
119.958776737169
 31
0.0
  0
LINE
  5
10F3
330
2
100
AcDbEntity
  8
画層1
370
    20
100
AcDbLine
 10
-586.0652295960735
 20
117.958776737169
 30
0.0
 11
-584.5652295960735
 21
117.958776737169
 31
0.0
  0
LINE
  5
10F4
330
2
100
AcDbEntity
  8
画層1
370
    20
100
AcDbLine
 10
-566.5652295960735
 20
121.458776737169
 30
0.0
 11
-568.5652295960735
 21
121.458776737169
 31
0.0
  0
LINE
  5
10F5
330
2
100
AcDbEntity
  8
画層1
370
    20
100
AcDbLine
 10
-568.5652295960735
 20
116.458776737169
 30
0.0
 11
-566.5652295960735
 21
116.458776737169
 31
0.0
  0
CIRCLE
  5
10F6
330
2
100
AcDbEntity
  8
画層1
370
    20
100
AcDbCircle
 10
-567.5652295960735
 20
118.958776737169
 30
0.0
 40
5.0
  0
LINE
  5
10F7
330
2
100
AcDbEntity
  8
画層1
370
    20
100
AcDbLine
 10
-570.0652295960735
 20
117.958776737169
 30
0.0
 11
-568.5652295960735
 21
117.958776737169
 31
0.0
  0
LINE
  5
10F8
330
2
100
AcDbEntity
  8
画層1
370
    20
100
AcDbLine
 10
-568.5652295960735
 20
119.958776737169
 30
0.0
 11
-570.0652295960735
 21
119.958776737169
 31
0.0
  0
LINE
  5
10F9
330
2
100
AcDbEntity
  8
画層1
370
    20
100
AcDbLine
 10
-570.0652295960735
 20
119.958776737169
 30
0.0
 11
-570.0652295960735
 21
117.958776737169
 31
0.0
  0
LINE
  5
10FA
330
2
100
AcDbEntity
  8
画層1
370
    20
100
AcDbLine
 10
-568.5652295960735
 20
117.958776737169
 30
0.0
 11
-568.5652295960735
 21
116.458776737169
 31
0.0
  0
LINE
  5
10FB
330
2
100
AcDbEntity
  8
画層1
370
    20
100
AcDbLine
 10
-568.5652295960735
 20
121.458776737169
 30
0.0
 11
-568.5652295960735
 21
119.958776737169
 31
0.0
  0
LINE
  5
10FC
330
2
100
AcDbEntity
  8
画層1
370
    20
100
AcDbLine
 10
-566.5652295960735
 20
119.958776737169
 30
0.0
 11
-566.5652295960735
 21
121.458776737169
 31
0.0
  0
LINE
  5
10FD
330
2
100
AcDbEntity
  8
画層1
370
    20
100
AcDbLine
 10
-565.0652295960735
 20
119.958776737169
 30
0.0
 11
-566.5652295960735
 21
119.958776737169
 31
0.0
  0
LINE
  5
10FE
330
2
100
AcDbEntity
  8
画層1
370
    20
100
AcDbLine
 10
-565.0652295960735
 20
117.958776737169
 30
0.0
 11
-565.0652295960735
 21
119.958776737169
 31
0.0
  0
LINE
  5
10FF
330
2
100
AcDbEntity
  8
画層1
370
    20
100
AcDbLine
 10
-566.5652295960735
 20
117.958776737169
 30
0.0
 11
-565.0652295960735
 21
117.958776737169
 31
0.0
  0
LINE
  5
1100
330
2
100
AcDbEntity
  8
画層1
370
    20
100
AcDbLine
 10
-566.5652295960735
 20
116.458776737169
 30
0.0
 11
-566.5652295960735
 21
117.958776737169
 31
0.0
  0
LWPOLYLINE
  5
118D
330
2
100
AcDbEntity
  8
画層1
370
    20
100
AcDbPolyline
 90
        4
 70
     1
 43
0.0
 10
-628.5652295960735
 20
237.5113686289202
 10
-615.5652295960735
 20
237.5113686289202
 10
-615.5652295960735
 20
235.5113686289202
 10
-628.5652295960735
 20
235.5113686289202
  0
LWPOLYLINE
  5
118E
330
2
100
AcDbEntity
  8
画層1
370
    20
100
AcDbPolyline
 90
        4
 70
     1
 43
0.0
 10
-628.5652295960735
 20
247.5113686289201
 10
-615.5652295960735
 20
247.5113686289201
 10
-615.5652295960735
 20
245.5113686289201
 10
-628.5652295960735
 20
245.5113686289201
  0
LWPOLYLINE
  5
118F
330
2
100
AcDbEntity
  8
画層1
370
    20
100
AcDbPolyline
 90
        4
 70
     1
 43
0.0
 10
-628.5652295960735
 20
257.5113686289201
 10
-615.5652295960735
 20
257.5113686289201
 10
-615.5652295960735
 20
255.5113686289201
 10
-628.5652295960735
 20
255.5113686289201
  0
LWPOLYLINE
  5
1190
330
2
100
AcDbEntity
  8
画層1
370
    20
100
AcDbPolyline
 90
        4
 70
     1
 43
0.0
 10
-628.5652295960735
 20
267.5113686289201
 10
-615.5652295960735
 20
267.5113686289201
 10
-615.5652295960735
 20
265.5113686289201
 10
-628.5652295960735
 20
265.5113686289201
  0
LWPOLYLINE
  5
1191
330
2
100
AcDbEntity
  8
画層1
370
    20
100
AcDbPolyline
 90
        4
 70
     1
 43
0.0
 10
-628.5652295960735
 20
277.5113686289202
 10
-615.5652295960735
 20
277.5113686289202
 10
-615.5652295960735
 20
275.5113686289202
 10
-628.5652295960735
 20
275.5113686289202
  0
LWPOLYLINE
  5
1192
330
2
100
AcDbEntity
  8
画層1
370
    20
100
AcDbPolyline
 90
        4
 70
     1
 43
0.0
 10
-628.5652295960735
 20
287.5113686289202
 10
-615.5652295960735
 20
287.5113686289202
 10
-615.5652295960735
 20
285.5113686289202
 10
-628.5652295960735
 20
285.5113686289202
  0
LWPOLYLINE
  5
1193
330
2
100
AcDbEntity
  8
画層1
370
    20
100
AcDbPolyline
 90
        4
 70
     1
 43
0.0
 10
-628.5652295960735
 20
297.5113686289201
 10
-615.5652295960735
 20
297.5113686289201
 10
-615.5652295960735
 20
295.5113686289201
 10
-628.5652295960735
 20
295.5113686289201
  0
LWPOLYLINE
  5
1194
330
2
100
AcDbEntity
  8
画層1
370
    20
100
AcDbPolyline
 90
        4
 70
     1
 43
0.0
 10
-628.5652295960735
 20
307.5113686289201
 10
-615.5652295960735
 20
307.5113686289201
 10
-615.5652295960735
 20
305.5113686289201
 10
-628.5652295960735
 20
305.5113686289201
  0
LWPOLYLINE
  5
1195
330
2
100
AcDbEntity
  8
画層1
370
    20
100
AcDbPolyline
 90
        4
 70
     1
 43
0.0
 10
-628.5652295960735
 20
317.5113686289201
 10
-615.5652295960735
 20
317.5113686289201
 10
-615.5652295960735
 20
315.5113686289201
 10
-628.5652295960735
 20
315.5113686289201
  0
LINE
  5
1197
330
2
100
AcDbEntity
  8
画層1
370
    20
100
AcDbLine
 10
-615.5652295960735
 20
317.5113686289201
 30
0.0
 11
-615.5652295960735
 21
237.5113686289202
 31
0.0
  0
LINE
  5
1198
330
2
100
AcDbEntity
  8
画層1
370
    20
100
AcDbLine
 10
-628.5652295960735
 20
317.5113686289201
 30
0.0
 11
-628.5652295960735
 21
237.5113686289202
 31
0.0
  0
LINE
  5
11B1
330
2
100
AcDbEntity
  8
画層1
370
    20
100
AcDbLine
 10
-624.0652295960735
 20
317.5113686289201
 30
0.0
 11
-620.0652295960735
 21
317.5113686289201
 31
0.0
  0
LINE
  5
11B9
330
2
100
AcDbEntity
  8
画層1
370
    20
100
AcDbLine
 10
-618.0652295960735
 20
313.5113686289203
 30
0.0
 11
-618.0652295960737
 21
309.5113685289201
 31
0.0
  0
LINE
  5
11BB
330
2
100
AcDbEntity
  8
画層1
370
    20
100
AcDbLine
 10
-626.0652295960735
 20
313.5113686289202
 30
0.0
 11
-626.0652295960734
 21
309.5113685289201
 31
0.0
  0
LINE
  5
11BD
330
2
100
AcDbEntity
  8
画層1
370
    20
100
AcDbLine
 10
-621.5652295960735
 20
309.5113686289201
 30
0.0
 11
-621.5652295960735
 21
311.0113686289202
 31
0.0
  0
LINE
  5
11BE
330
2
100
AcDbEntity
  8
画層1
370
    20
100
AcDbLine
 10
-622.5652295960735
 20
311.0113686289202
 30
0.0
 11
-622.5652295960735
 21
309.5113686289201
 31
0.0
  0
CIRCLE
  5
11BF
330
2
100
AcDbEntity
  8
画層1
370
    20
100
AcDbCircle
 10
-622.0652295960735
 20
311.5113686289201
 30
0.0
 40
3.0
  0
LINE
  5
11C0
330
2
100
AcDbEntity
  8
画層1
370
    20
100
AcDbLine
 10
-624.0652295960735
 20
307.5113686289201
 30
0.0
 11
-620.0652295960735
 21
307.5113686289201
 31
0.0
  0
ARC
  5
11C1
330
2
100
AcDbEntity
  8
画層1
370
    20
100
AcDbCircle
 10
-624.0652295960734
 20
309.51136862892
 30
0.0
 40
2.0
100
AcDbArc
 50
179.9999999999951
 51
269.9999999999967
  0
ARC
  5
11C2
330
2
100
AcDbEntity
  8
画層1
370
    20
100
AcDbCircle
 10
-620.0652295960736
 20
309.5113686289201
 30
0.0
 40
2.0
100
AcDbArc
 50
270.0000000000032
 51
0.0000000000016284
  0
LINE
  5
11C3
330
2
100
AcDbEntity
  8
画層1
370
    20
100
AcDbLine
 10
-622.5652295960735
 20
309.5113686289201
 30
0.0
 11
-621.5652295960735
 21
309.5113686289201
 31
0.0
  0
LINE
  5
11C4
330
2
100
AcDbEntity
  8
画層1
370
    20
100
AcDbLine
 10
-624.0652295960735
 20
315.5113686289201
 30
0.0
 11
-620.0652295960735
 21
315.5113686289201
 31
0.0
  0
LINE
  5
11C5
330
2
100
AcDbEntity
  8
画層1
370
    20
100
AcDbLine
 10
-625.0232694876233
 20
311.0113686289202
 30
0.0
 11
-622.5652295960735
 21
311.0113686289202
 31
0.0
  0
LINE
  5
11C6
330
2
100
AcDbEntity
  8
画層1
370
    20
100
AcDbLine
 10
-622.5652295960735
 20
312.0113686289201
 30
0.0
 11
-625.0232694876233
 21
312.0113686289201
 31
0.0
  0
ARC
  5
11C7
330
2
100
AcDbEntity
  8
画層1
370
    20
100
AcDbCircle
 10
-624.0652295960736
 20
313.5113686289202
 30
0.0
 40
2.0
100
AcDbArc
 50
89.99999999999674
 51
180.0000000000016
  0
ARC
  5
11C8
330
2
100
AcDbEntity
  8
画層1
370
    20
100
AcDbCircle
 10
-620.0652295960734
 20
313.5113686289203
 30
0.0
 40
2.0
100
AcDbArc
 50
359.9999999999967
 51
90.00000000000325
  0
LINE
  5
11C9
330
2
100
AcDbEntity
  8
画層1
370
    20
100
AcDbLine
 10
-621.5652295960735
 20
313.5113686289201
 30
0.0
 11
-622.5652295960735
 21
313.5113686289201
 31
0.0
  0
LINE
  5
11CA
330
2
100
AcDbEntity
  8
画層1
370
    20
100
AcDbLine
 10
-621.5652295960735
 20
312.0113686289201
 30
0.0
 11
-621.5652295960735
 21
313.5113686289201
 31
0.0
  0
LINE
  5
11CB
330
2
100
AcDbEntity
  8
画層1
370
    20
100
AcDbLine
 10
-619.1071897045238
 20
312.0113686289201
 30
0.0
 11
-621.5652295960735
 21
312.0113686289201
 31
0.0
  0
LINE
  5
11CC
330
2
100
AcDbEntity
  8
画層1
370
    20
100
AcDbLine
 10
-621.5652295960735
 20
311.0113686289202
 30
0.0
 11
-619.1071897045238
 21
311.0113686289202
 31
0.0
  0
LINE
  5
11CD
330
2
100
AcDbEntity
  8
画層1
370
    20
100
AcDbLine
 10
-622.5652295960735
 20
313.5113686289201
 30
0.0
 11
-622.5652295960735
 21
312.0113686289201
 31
0.0
  0
CIRCLE
  5
11CF
330
2
100
AcDbEntity
  8
画層1
370
    20
100
AcDbCircle
 10
-622.0652295960735
 20
301.5113686289201
 30
0.0
 40
3.0
  0
LINE
  5
11D0
330
2
100
AcDbEntity
  8
画層1
370
    20
100
AcDbLine
 10
-622.5652295960735
 20
301.0113686289201
 30
0.0
 11
-622.5652295960735
 21
299.5113686289201
 31
0.0
  0
LINE
  5
11D1
330
2
100
AcDbEntity
  8
画層1
370
    20
100
AcDbLine
 10
-621.5652295960735
 20
299.5113686289201
 30
0.0
 11
-621.5652295960735
 21
301.0113686289201
 31
0.0
  0
LINE
  5
11D2
330
2
100
AcDbEntity
  8
画層1
370
    20
100
AcDbLine
 10
-626.0652295960735
 20
303.5113686289202
 30
0.0
 11
-626.0652295960734
 21
299.5113685289201
 31
0.0
  0
LINE
  5
11D3
330
2
100
AcDbEntity
  8
画層1
370
    20
100
AcDbLine
 10
-618.0652295960735
 20
303.5113686289203
 30
0.0
 11
-618.0652295960737
 21
299.5113685289201
 31
0.0
  0
LINE
  5
11D4
330
2
100
AcDbEntity
  8
画層1
370
    20
100
AcDbLine
 10
-624.0652295960735
 20
297.5113686289201
 30
0.0
 11
-620.0652295960735
 21
297.5113686289201
 31
0.0
  0
ARC
  5
11D5
330
2
100
AcDbEntity
  8
画層1
370
    20
100
AcDbCircle
 10
-624.0652295960734
 20
299.51136862892
 30
0.0
 40
2.0
100
AcDbArc
 50
179.9999999999951
 51
269.9999999999967
  0
LINE
  5
11D6
330
2
100
AcDbEntity
  8
画層1
370
    20
100
AcDbLine
 10
-622.5652295960735
 20
299.5113686289201
 30
0.0
 11
-621.5652295960735
 21
299.5113686289201
 31
0.0
  0
ARC
  5
11D7
330
2
100
AcDbEntity
  8
画層1
370
    20
100
AcDbCircle
 10
-620.0652295960736
 20
299.5113686289201
 30
0.0
 40
2.0
100
AcDbArc
 50
270.0000000000032
 51
0.0000000000016284
  0
LINE
  5
11D8
330
2
100
AcDbEntity
  8
画層1
370
    20
100
AcDbLine
 10
-622.5652295960735
 20
302.0113686289202
 30
0.0
 11
-625.0232694876233
 21
302.0113686289202
 31
0.0
  0
LINE
  5
11D9
330
2
100
AcDbEntity
  8
画層1
370
    20
100
AcDbLine
 10
-625.0232694876233
 20
301.0113686289201
 30
0.0
 11
-622.5652295960735
 21
301.0113686289201
 31
0.0
  0
LINE
  5
11DA
330
2
100
AcDbEntity
  8
画層1
370
    20
100
AcDbLine
 10
-624.0652295960735
 20
305.5113686289201
 30
0.0
 11
-620.0652295960735
 21
305.5113686289201
 31
0.0
  0
ARC
  5
11DB
330
2
100
AcDbEntity
  8
画層1
370
    20
100
AcDbCircle
 10
-624.0652295960736
 20
303.5113686289202
 30
0.0
 40
2.0
100
AcDbArc
 50
89.99999999999674
 51
180.0000000000016
  0
LINE
  5
11DC
330
2
100
AcDbEntity
  8
画層1
370
    20
100
AcDbLine
 10
-622.5652295960735
 20
303.5113686289201
 30
0.0
 11
-622.5652295960735
 21
302.0113686289202
 31
0.0
  0
LINE
  5
11DD
330
2
100
AcDbEntity
  8
画層1
370
    20
100
AcDbLine
 10
-621.5652295960735
 20
301.0113686289201
 30
0.0
 11
-619.1071897045238
 21
301.0113686289201
 31
0.0
  0
LINE
  5
11DE
330
2
100
AcDbEntity
  8
画層1
370
    20
100
AcDbLine
 10
-619.1071897045238
 20
302.0113686289202
 30
0.0
 11
-621.5652295960735
 21
302.0113686289202
 31
0.0
  0
LINE
  5
11DF
330
2
100
AcDbEntity
  8
画層1
370
    20
100
AcDbLine
 10
-621.5652295960735
 20
302.0113686289202
 30
0.0
 11
-621.5652295960735
 21
303.5113686289201
 31
0.0
  0
LINE
  5
11E0
330
2
100
AcDbEntity
  8
画層1
370
    20
100
AcDbLine
 10
-621.5652295960735
 20
303.5113686289201
 30
0.0
 11
-622.5652295960735
 21
303.5113686289201
 31
0.0
  0
ARC
  5
11E1
330
2
100
AcDbEntity
  8
画層1
370
    20
100
AcDbCircle
 10
-620.0652295960734
 20
303.5113686289203
 30
0.0
 40
2.0
100
AcDbArc
 50
359.9999999999967
 51
90.00000000000325
  0
LINE
  5
11E2
330
2
100
AcDbEntity
  8
画層1
370
    20
100
AcDbLine
 10
-618.0652295960735
 20
293.5113686289203
 30
0.0
 11
-618.0652295960737
 21
289.5113685289201
 31
0.0
  0
LINE
  5
11E3
330
2
100
AcDbEntity
  8
画層1
370
    20
100
AcDbLine
 10
-626.0652295960735
 20
293.5113686289202
 30
0.0
 11
-626.0652295960734
 21
289.5113685289201
 31
0.0
  0
CIRCLE
  5
11E4
330
2
100
AcDbEntity
  8
画層1
370
    20
100
AcDbCircle
 10
-622.0652295960735
 20
291.5113686289202
 30
0.0
 40
3.0
  0
LINE
  5
11E5
330
2
100
AcDbEntity
  8
画層1
370
    20
100
AcDbLine
 10
-625.0232694876233
 20
291.0113686289201
 30
0.0
 11
-622.5652295960735
 21
291.0113686289201
 31
0.0
  0
LINE
  5
11E6
330
2
100
AcDbEntity
  8
画層1
370
    20
100
AcDbLine
 10
-624.0652295960735
 20
287.5113686289202
 30
0.0
 11
-620.0652295960735
 21
287.5113686289202
 31
0.0
  0
ARC
  5
11E7
330
2
100
AcDbEntity
  8
画層1
370
    20
100
AcDbCircle
 10
-624.0652295960734
 20
289.51136862892
 30
0.0
 40
2.0
100
AcDbArc
 50
179.9999999999951
 51
269.9999999999967
  0
LINE
  5
11E8
330
2
100
AcDbEntity
  8
画層1
370
    20
100
AcDbLine
 10
-621.5652295960735
 20
291.0113686289201
 30
0.0
 11
-619.1071897045238
 21
291.0113686289201
 31
0.0
  0
ARC
  5
11E9
330
2
100
AcDbEntity
  8
画層1
370
    20
100
AcDbCircle
 10
-620.0652295960736
 20
289.5113686289201
 30
0.0
 40
2.0
100
AcDbArc
 50
270.0000000000032
 51
0.0000000000016284
  0
LINE
  5
11EA
330
2
100
AcDbEntity
  8
画層1
370
    20
100
AcDbLine
 10
-622.5652295960735
 20
289.5113686289202
 30
0.0
 11
-621.5652295960735
 21
289.5113686289202
 31
0.0
  0
LINE
  5
11EB
330
2
100
AcDbEntity
  8
画層1
370
    20
100
AcDbLine
 10
-621.5652295960735
 20
289.5113686289202
 30
0.0
 11
-621.5652295960735
 21
291.0113686289201
 31
0.0
  0
LINE
  5
11EC
330
2
100
AcDbEntity
  8
画層1
370
    20
100
AcDbLine
 10
-622.5652295960735
 20
291.0113686289201
 30
0.0
 11
-622.5652295960735
 21
289.5113686289202
 31
0.0
  0
LINE
  5
11ED
330
2
100
AcDbEntity
  8
画層1
370
    20
100
AcDbLine
 10
-624.0652295960735
 20
295.5113686289201
 30
0.0
 11
-620.0652295960735
 21
295.5113686289201
 31
0.0
  0
LINE
  5
11EE
330
2
100
AcDbEntity
  8
画層1
370
    20
100
AcDbLine
 10
-622.5652295960735
 20
292.0113686289202
 30
0.0
 11
-625.0232694876233
 21
292.0113686289202
 31
0.0
  0
ARC
  5
11EF
330
2
100
AcDbEntity
  8
画層1
370
    20
100
AcDbCircle
 10
-624.0652295960736
 20
293.5113686289202
 30
0.0
 40
2.0
100
AcDbArc
 50
89.99999999999674
 51
180.0000000000016
  0
ARC
  5
11F0
330
2
100
AcDbEntity
  8
画層1
370
    20
100
AcDbCircle
 10
-620.0652295960734
 20
293.5113686289203
 30
0.0
 40
2.0
100
AcDbArc
 50
359.9999999999967
 51
90.00000000000325
  0
LINE
  5
11F1
330
2
100
AcDbEntity
  8
画層1
370
    20
100
AcDbLine
 10
-621.5652295960735
 20
293.5113686289202
 30
0.0
 11
-622.5652295960735
 21
293.5113686289202
 31
0.0
  0
LINE
  5
11F2
330
2
100
AcDbEntity
  8
画層1
370
    20
100
AcDbLine
 10
-621.5652295960735
 20
292.0113686289202
 30
0.0
 11
-621.5652295960735
 21
293.5113686289202
 31
0.0
  0
LINE
  5
11F3
330
2
100
AcDbEntity
  8
画層1
370
    20
100
AcDbLine
 10
-619.1071897045238
 20
292.0113686289202
 30
0.0
 11
-621.5652295960735
 21
292.0113686289202
 31
0.0
  0
LINE
  5
11F4
330
2
100
AcDbEntity
  8
画層1
370
    20
100
AcDbLine
 10
-622.5652295960735
 20
293.5113686289202
 30
0.0
 11
-622.5652295960735
 21
292.0113686289202
 31
0.0
  0
LINE
  5
11F5
330
2
100
AcDbEntity
  8
画層1
370
    20
100
AcDbLine
 10
-622.5652295960735
 20
283.5113686289202
 30
0.0
 11
-622.5652295960735
 21
282.0113686289202
 31
0.0
  0
LINE
  5
11F6
330
2
100
AcDbEntity
  8
画層1
370
    20
100
AcDbLine
 10
-621.5652295960735
 20
282.0113686289202
 30
0.0
 11
-621.5652295960735
 21
283.5113686289202
 31
0.0
  0
CIRCLE
  5
11F7
330
2
100
AcDbEntity
  8
画層1
370
    20
100
AcDbCircle
 10
-622.0652295960735
 20
281.5113686289202
 30
0.0
 40
3.0
  0
LINE
  5
11F8
330
2
100
AcDbEntity
  8
画層1
370
    20
100
AcDbLine
 10
-626.0652295960735
 20
283.5113686289202
 30
0.0
 11
-626.0652295960734
 21
279.5113685289201
 31
0.0
  0
LINE
  5
11F9
330
2
100
AcDbEntity
  8
画層1
370
    20
100
AcDbLine
 10
-618.0652295960735
 20
283.5113686289203
 30
0.0
 11
-618.0652295960737
 21
279.5113685289201
 31
0.0
  0
LINE
  5
11FA
330
2
100
AcDbEntity
  8
画層1
370
    20
100
AcDbLine
 10
-622.5652295960735
 20
282.0113686289202
 30
0.0
 11
-625.0232694876233
 21
282.0113686289202
 31
0.0
  0
LINE
  5
11FB
330
2
100
AcDbEntity
  8
画層1
370
    20
100
AcDbLine
 10
-624.0652295960735
 20
277.5113686289202
 30
0.0
 11
-620.0652295960735
 21
277.5113686289202
 31
0.0
  0
LINE
  5
11FC
330
2
100
AcDbEntity
  8
画層1
370
    20
100
AcDbLine
 10
-625.0232694876233
 20
281.0113686289202
 30
0.0
 11
-622.5652295960735
 21
281.0113686289202
 31
0.0
  0
ARC
  5
11FD
330
2
100
AcDbEntity
  8
画層1
370
    20
100
AcDbCircle
 10
-624.0652295960734
 20
279.51136862892
 30
0.0
 40
2.0
100
AcDbArc
 50
179.9999999999951
 51
269.9999999999967
  0
LINE
  5
11FE
330
2
100
AcDbEntity
  8
画層1
370
    20
100
AcDbLine
 10
-619.1071897045238
 20
282.0113686289202
 30
0.0
 11
-621.5652295960735
 21
282.0113686289202
 31
0.0
  0
LINE
  5
11FF
330
2
100
AcDbEntity
  8
画層1
370
    20
100
AcDbLine
 10
-622.5652295960735
 20
281.0113686289202
 30
0.0
 11
-622.5652295960735
 21
279.5113686289202
 31
0.0
  0
LINE
  5
1200
330
2
100
AcDbEntity
  8
画層1
370
    20
100
AcDbLine
 10
-621.5652295960735
 20
279.5113686289202
 30
0.0
 11
-621.5652295960735
 21
281.0113686289202
 31
0.0
  0
LINE
  5
1201
330
2
100
AcDbEntity
  8
画層1
370
    20
100
AcDbLine
 10
-622.5652295960735
 20
279.5113686289202
 30
0.0
 11
-621.5652295960735
 21
279.5113686289202
 31
0.0
  0
ARC
  5
1202
330
2
100
AcDbEntity
  8
画層1
370
    20
100
AcDbCircle
 10
-620.0652295960736
 20
279.5113686289201
 30
0.0
 40
2.0
100
AcDbArc
 50
270.0000000000032
 51
0.0000000000016284
  0
LINE
  5
1203
330
2
100
AcDbEntity
  8
画層1
370
    20
100
AcDbLine
 10
-621.5652295960735
 20
281.0113686289202
 30
0.0
 11
-619.1071897045238
 21
281.0113686289202
 31
0.0
  0
LINE
  5
1204
330
2
100
AcDbEntity
  8
画層1
370
    20
100
AcDbLine
 10
-624.0652295960735
 20
285.5113686289202
 30
0.0
 11
-620.0652295960735
 21
285.5113686289202
 31
0.0
  0
ARC
  5
1205
330
2
100
AcDbEntity
  8
画層1
370
    20
100
AcDbCircle
 10
-624.0652295960736
 20
283.5113686289202
 30
0.0
 40
2.0
100
AcDbArc
 50
89.99999999999674
 51
180.0000000000016
  0
LINE
  5
1206
330
2
100
AcDbEntity
  8
画層1
370
    20
100
AcDbLine
 10
-621.5652295960735
 20
283.5113686289202
 30
0.0
 11
-622.5652295960735
 21
283.5113686289202
 31
0.0
  0
ARC
  5
1207
330
2
100
AcDbEntity
  8
画層1
370
    20
100
AcDbCircle
 10
-620.0652295960734
 20
283.5113686289203
 30
0.0
 40
2.0
100
AcDbArc
 50
359.9999999999967
 51
90.00000000000325
  0
LINE
  5
1208
330
2
100
AcDbEntity
  8
画層1
370
    20
100
AcDbLine
 10
-618.0652295960735
 20
273.5113686289202
 30
0.0
 11
-618.0652295960737
 21
269.5113685289201
 31
0.0
  0
LINE
  5
1209
330
2
100
AcDbEntity
  8
画層1
370
    20
100
AcDbLine
 10
-626.0652295960735
 20
273.5113686289202
 30
0.0
 11
-626.0652295960734
 21
269.5113685289201
 31
0.0
  0
CIRCLE
  5
120A
330
2
100
AcDbEntity
  8
画層1
370
    20
100
AcDbCircle
 10
-622.0652295960735
 20
271.5113686289202
 30
0.0
 40
3.0
  0
LINE
  5
120B
330
2
100
AcDbEntity
  8
画層1
370
    20
100
AcDbLine
 10
-621.5652295960735
 20
272.0113686289201
 30
0.0
 11
-621.5652295960735
 21
273.5113686289202
 31
0.0
  0
LINE
  5
120C
330
2
100
AcDbEntity
  8
画層1
370
    20
100
AcDbLine
 10
-622.5652295960735
 20
273.5113686289202
 30
0.0
 11
-622.5652295960735
 21
272.0113686289201
 31
0.0
  0
LINE
  5
120D
330
2
100
AcDbEntity
  8
画層1
370
    20
100
AcDbLine
 10
-625.0232694876233
 20
271.0113686289202
 30
0.0
 11
-622.5652295960735
 21
271.0113686289202
 31
0.0
  0
LINE
  5
120E
330
2
100
AcDbEntity
  8
画層1
370
    20
100
AcDbLine
 10
-624.0652295960735
 20
267.5113686289201
 30
0.0
 11
-620.0652295960735
 21
267.5113686289201
 31
0.0
  0
LINE
  5
120F
330
2
100
AcDbEntity
  8
画層1
370
    20
100
AcDbLine
 10
-622.5652295960735
 20
272.0113686289201
 30
0.0
 11
-625.0232694876233
 21
272.0113686289201
 31
0.0
  0
ARC
  5
1210
330
2
100
AcDbEntity
  8
画層1
370
    20
100
AcDbCircle
 10
-624.0652295960734
 20
269.51136862892
 30
0.0
 40
2.0
100
AcDbArc
 50
179.9999999999951
 51
269.9999999999967
  0
LINE
  5
1211
330
2
100
AcDbEntity
  8
画層1
370
    20
100
AcDbLine
 10
-621.5652295960735
 20
271.0113686289202
 30
0.0
 11
-619.1071897045238
 21
271.0113686289202
 31
0.0
  0
ARC
  5
1212
330
2
100
AcDbEntity
  8
画層1
370
    20
100
AcDbCircle
 10
-620.0652295960736
 20
269.5113686289201
 30
0.0
 40
2.0
100
AcDbArc
 50
270.0000000000032
 51
0.0000000000016284
  0
LINE
  5
1213
330
2
100
AcDbEntity
  8
画層1
370
    20
100
AcDbLine
 10
-622.5652295960735
 20
269.5113686289202
 30
0.0
 11
-621.5652295960735
 21
269.5113686289202
 31
0.0
  0
LINE
  5
1214
330
2
100
AcDbEntity
  8
画層1
370
    20
100
AcDbLine
 10
-621.5652295960735
 20
269.5113686289202
 30
0.0
 11
-621.5652295960735
 21
271.0113686289202
 31
0.0
  0
LINE
  5
1215
330
2
100
AcDbEntity
  8
画層1
370
    20
100
AcDbLine
 10
-622.5652295960735
 20
271.0113686289202
 30
0.0
 11
-622.5652295960735
 21
269.5113686289202
 31
0.0
  0
LINE
  5
1216
330
2
100
AcDbEntity
  8
画層1
370
    20
100
AcDbLine
 10
-619.1071897045238
 20
272.0113686289201
 30
0.0
 11
-621.5652295960735
 21
272.0113686289201
 31
0.0
  0
LINE
  5
1217
330
2
100
AcDbEntity
  8
画層1
370
    20
100
AcDbLine
 10
-624.0652295960735
 20
275.5113686289202
 30
0.0
 11
-620.0652295960735
 21
275.5113686289202
 31
0.0
  0
ARC
  5
1218
330
2
100
AcDbEntity
  8
画層1
370
    20
100
AcDbCircle
 10
-624.0652295960736
 20
273.5113686289202
 30
0.0
 40
2.0
100
AcDbArc
 50
89.99999999999674
 51
180.0000000000016
  0
ARC
  5
1219
330
2
100
AcDbEntity
  8
画層1
370
    20
100
AcDbCircle
 10
-620.0652295960734
 20
273.5113686289202
 30
0.0
 40
2.0
100
AcDbArc
 50
359.9999999999967
 51
90.00000000000325
  0
LINE
  5
121A
330
2
100
AcDbEntity
  8
画層1
370
    20
100
AcDbLine
 10
-621.5652295960735
 20
273.5113686289202
 30
0.0
 11
-622.5652295960735
 21
273.5113686289202
 31
0.0
  0
ARC
  5
121B
330
2
100
AcDbEntity
  8
画層1
370
    20
100
AcDbCircle
 10
-620.0652295960734
 20
263.5113686289203
 30
0.0
 40
2.0
100
AcDbArc
 50
359.9999999999967
 51
90.00000000000325
  0
ARC
  5
121C
330
2
100
AcDbEntity
  8
画層1
370
    20
100
AcDbCircle
 10
-624.0652295960736
 20
263.5113686289202
 30
0.0
 40
2.0
100
AcDbArc
 50
89.99999999999674
 51
180.0000000000016
  0
CIRCLE
  5
121D
330
2
100
AcDbEntity
  8
画層1
370
    20
100
AcDbCircle
 10
-622.0652295960735
 20
261.5113686289201
 30
0.0
 40
3.0
  0
LINE
  5
121E
330
2
100
AcDbEntity
  8
画層1
370
    20
100
AcDbLine
 10
-622.5652295960735
 20
262.0113686289201
 30
0.0
 11
-625.0232694876233
 21
262.0113686289201
 31
0.0
  0
LINE
  5
121F
330
2
100
AcDbEntity
  8
画層1
370
    20
100
AcDbLine
 10
-624.0652295960735
 20
257.5113686289201
 30
0.0
 11
-620.0652295960735
 21
257.5113686289201
 31
0.0
  0
LINE
  5
1220
330
2
100
AcDbEntity
  8
画層1
370
    20
100
AcDbLine
 10
-625.0232694876233
 20
261.0113686289202
 30
0.0
 11
-622.5652295960735
 21
261.0113686289202
 31
0.0
  0
ARC
  5
1221
330
2
100
AcDbEntity
  8
画層1
370
    20
100
AcDbCircle
 10
-624.0652295960734
 20
259.51136862892
 30
0.0
 40
2.0
100
AcDbArc
 50
179.9999999999951
 51
269.9999999999967
  0
LINE
  5
1222
330
2
100
AcDbEntity
  8
画層1
370
    20
100
AcDbLine
 10
-626.0652295960735
 20
263.5113686289202
 30
0.0
 11
-626.0652295960734
 21
259.5113685289201
 31
0.0
  0
LINE
  5
1223
330
2
100
AcDbEntity
  8
画層1
370
    20
100
AcDbLine
 10
-621.5652295960735
 20
263.5113686289201
 30
0.0
 11
-622.5652295960735
 21
263.5113686289201
 31
0.0
  0
LINE
  5
1224
330
2
100
AcDbEntity
  8
画層1
370
    20
100
AcDbLine
 10
-619.1071897045238
 20
262.0113686289201
 30
0.0
 11
-621.5652295960735
 21
262.0113686289201
 31
0.0
  0
LINE
  5
1225
330
2
100
AcDbEntity
  8
画層1
370
    20
100
AcDbLine
 10
-622.5652295960735
 20
261.0113686289202
 30
0.0
 11
-622.5652295960735
 21
259.5113686289201
 31
0.0
  0
LINE
  5
1226
330
2
100
AcDbEntity
  8
画層1
370
    20
100
AcDbLine
 10
-621.5652295960735
 20
259.5113686289201
 30
0.0
 11
-621.5652295960735
 21
261.0113686289202
 31
0.0
  0
LINE
  5
1227
330
2
100
AcDbEntity
  8
画層1
370
    20
100
AcDbLine
 10
-622.5652295960735
 20
259.5113686289201
 30
0.0
 11
-621.5652295960735
 21
259.5113686289201
 31
0.0
  0
ARC
  5
1228
330
2
100
AcDbEntity
  8
画層1
370
    20
100
AcDbCircle
 10
-620.0652295960736
 20
259.5113686289201
 30
0.0
 40
2.0
100
AcDbArc
 50
270.0000000000032
 51
0.0000000000016284
  0
LINE
  5
1229
330
2
100
AcDbEntity
  8
画層1
370
    20
100
AcDbLine
 10
-621.5652295960735
 20
261.0113686289202
 30
0.0
 11
-619.1071897045238
 21
261.0113686289202
 31
0.0
  0
LINE
  5
122A
330
2
100
AcDbEntity
  8
画層1
370
    20
100
AcDbLine
 10
-622.5652295960735
 20
263.5113686289201
 30
0.0
 11
-622.5652295960735
 21
262.0113686289201
 31
0.0
  0
LINE
  5
122B
330
2
100
AcDbEntity
  8
画層1
370
    20
100
AcDbLine
 10
-621.5652295960735
 20
262.0113686289201
 30
0.0
 11
-621.5652295960735
 21
263.5113686289201
 31
0.0
  0
LINE
  5
122C
330
2
100
AcDbEntity
  8
画層1
370
    20
100
AcDbLine
 10
-618.0652295960735
 20
263.5113686289203
 30
0.0
 11
-618.0652295960737
 21
259.5113685289201
 31
0.0
  0
LINE
  5
122D
330
2
100
AcDbEntity
  8
画層1
370
    20
100
AcDbLine
 10
-624.0652295960735
 20
265.5113686289201
 30
0.0
 11
-620.0652295960735
 21
265.5113686289201
 31
0.0
  0
ARC
  5
122E
330
2
100
AcDbEntity
  8
画層1
370
    20
100
AcDbCircle
 10
-624.0652295960736
 20
253.5113686289202
 30
0.0
 40
2.0
100
AcDbArc
 50
89.99999999999674
 51
180.0000000000016
  0
ARC
  5
122F
330
2
100
AcDbEntity
  8
画層1
370
    20
100
AcDbCircle
 10
-620.0652295960734
 20
253.5113686289203
 30
0.0
 40
2.0
100
AcDbArc
 50
359.9999999999967
 51
90.00000000000325
  0
LINE
  5
1230
330
2
100
AcDbEntity
  8
画層1
370
    20
100
AcDbLine
 10
-625.0232694876233
 20
251.0113686289201
 30
0.0
 11
-622.5652295960735
 21
251.0113686289201
 31
0.0
  0
LINE
  5
1231
330
2
100
AcDbEntity
  8
画層1
370
    20
100
AcDbLine
 10
-624.0652295960735
 20
247.5113686289201
 30
0.0
 11
-620.0652295960735
 21
247.5113686289201
 31
0.0
  0
LINE
  5
1232
330
2
100
AcDbEntity
  8
画層1
370
    20
100
AcDbLine
 10
-622.5652295960735
 20
252.0113686289202
 30
0.0
 11
-625.0232694876233
 21
252.0113686289202
 31
0.0
  0
CIRCLE
  5
1233
330
2
100
AcDbEntity
  8
画層1
370
    20
100
AcDbCircle
 10
-622.0652295960735
 20
251.5113686289201
 30
0.0
 40
3.0
  0
LINE
  5
1234
330
2
100
AcDbEntity
  8
画層1
370
    20
100
AcDbLine
 10
-626.0652295960735
 20
253.5113686289202
 30
0.0
 11
-626.0652295960734
 21
249.5113685289201
 31
0.0
  0
ARC
  5
1235
330
2
100
AcDbEntity
  8
画層1
370
    20
100
AcDbCircle
 10
-624.0652295960734
 20
249.51136862892
 30
0.0
 40
2.0
100
AcDbArc
 50
179.9999999999951
 51
269.9999999999967
  0
LINE
  5
1236
330
2
100
AcDbEntity
  8
画層1
370
    20
100
AcDbLine
 10
-618.0652295960735
 20
253.5113686289203
 30
0.0
 11
-618.0652295960737
 21
249.5113685289201
 31
0.0
  0
LINE
  5
1237
330
2
100
AcDbEntity
  8
画層1
370
    20
100
AcDbLine
 10
-621.5652295960735
 20
252.0113686289202
 30
0.0
 11
-621.5652295960735
 21
253.5113686289201
 31
0.0
  0
LINE
  5
1238
330
2
100
AcDbEntity
  8
画層1
370
    20
100
AcDbLine
 10
-622.5652295960735
 20
253.5113686289201
 30
0.0
 11
-622.5652295960735
 21
252.0113686289202
 31
0.0
  0
LINE
  5
1239
330
2
100
AcDbEntity
  8
画層1
370
    20
100
AcDbLine
 10
-621.5652295960735
 20
251.0113686289201
 30
0.0
 11
-619.1071897045238
 21
251.0113686289201
 31
0.0
  0
ARC
  5
123A
330
2
100
AcDbEntity
  8
画層1
370
    20
100
AcDbCircle
 10
-620.0652295960736
 20
249.5113686289201
 30
0.0
 40
2.0
100
AcDbArc
 50
270.0000000000032
 51
0.0000000000016284
  0
LINE
  5
123B
330
2
100
AcDbEntity
  8
画層1
370
    20
100
AcDbLine
 10
-622.5652295960735
 20
249.5113686289201
 30
0.0
 11
-621.5652295960735
 21
249.5113686289201
 31
0.0
  0
LINE
  5
123C
330
2
100
AcDbEntity
  8
画層1
370
    20
100
AcDbLine
 10
-621.5652295960735
 20
249.5113686289201
 30
0.0
 11
-621.5652295960735
 21
251.0113686289201
 31
0.0
  0
LINE
  5
123D
330
2
100
AcDbEntity
  8
画層1
370
    20
100
AcDbLine
 10
-622.5652295960735
 20
251.0113686289201
 30
0.0
 11
-622.5652295960735
 21
249.5113686289201
 31
0.0
  0
LINE
  5
123E
330
2
100
AcDbEntity
  8
画層1
370
    20
100
AcDbLine
 10
-619.1071897045238
 20
252.0113686289202
 30
0.0
 11
-621.5652295960735
 21
252.0113686289202
 31
0.0
  0
LINE
  5
123F
330
2
100
AcDbEntity
  8
画層1
370
    20
100
AcDbLine
 10
-621.5652295960735
 20
253.5113686289201
 30
0.0
 11
-622.5652295960735
 21
253.5113686289201
 31
0.0
  0
LINE
  5
1240
330
2
100
AcDbEntity
  8
画層1
370
    20
100
AcDbLine
 10
-624.0652295960735
 20
255.5113686289201
 30
0.0
 11
-620.0652295960735
 21
255.5113686289201
 31
0.0
  0
ARC
  5
1241
330
2
100
AcDbEntity
  8
画層1
370
    20
100
AcDbCircle
 10
-620.0652295960734
 20
243.5113686289203
 30
0.0
 40
2.0
100
AcDbArc
 50
359.9999999999967
 51
90.00000000000325
  0
ARC
  5
1242
330
2
100
AcDbEntity
  8
画層1
370
    20
100
AcDbCircle
 10
-624.0652295960736
 20
243.5113686289202
 30
0.0
 40
2.0
100
AcDbArc
 50
89.99999999999674
 51
180.0000000000016
  0
LINE
  5
1243
330
2
100
AcDbEntity
  8
画層1
370
    20
100
AcDbLine
 10
-624.0652295960735
 20
245.5113686289201
 30
0.0
 11
-620.0652295960735
 21
245.5113686289201
 31
0.0
  0
CIRCLE
  5
1244
330
2
100
AcDbEntity
  8
画層1
370
    20
100
AcDbCircle
 10
-622.0652295960735
 20
241.5113686289202
 30
0.0
 40
3.0
  0
LINE
  5
1245
330
2
100
AcDbEntity
  8
画層1
370
    20
100
AcDbLine
 10
-622.5652295960735
 20
242.0113686289202
 30
0.0
 11
-625.0232694876233
 21
242.0113686289202
 31
0.0
  0
LINE
  5
1246
330
2
100
AcDbEntity
  8
画層1
370
    20
100
AcDbLine
 10
-624.0652295960735
 20
237.5113686289202
 30
0.0
 11
-620.0652295960735
 21
237.5113686289202
 31
0.0
  0
LINE
  5
1247
330
2
100
AcDbEntity
  8
画層1
370
    20
100
AcDbLine
 10
-625.0232694876233
 20
241.0113686289201
 30
0.0
 11
-622.5652295960735
 21
241.0113686289201
 31
0.0
  0
ARC
  5
1248
330
2
100
AcDbEntity
  8
画層1
370
    20
100
AcDbCircle
 10
-624.0652295960734
 20
239.51136862892
 30
0.0
 40
2.0
100
AcDbArc
 50
179.9999999999951
 51
269.9999999999967
  0
LINE
  5
1249
330
2
100
AcDbEntity
  8
画層1
370
    20
100
AcDbLine
 10
-626.0652295960735
 20
243.5113686289202
 30
0.0
 11
-626.0652295960734
 21
239.5113685289201
 31
0.0
  0
LINE
  5
124A
330
2
100
AcDbEntity
  8
画層1
370
    20
100
AcDbLine
 10
-621.5652295960735
 20
243.5113686289202
 30
0.0
 11
-622.5652295960735
 21
243.5113686289202
 31
0.0
  0
LINE
  5
124B
330
2
100
AcDbEntity
  8
画層1
370
    20
100
AcDbLine
 10
-619.1071897045238
 20
242.0113686289202
 30
0.0
 11
-621.5652295960735
 21
242.0113686289202
 31
0.0
  0
LINE
  5
124C
330
2
100
AcDbEntity
  8
画層1
370
    20
100
AcDbLine
 10
-622.5652295960735
 20
241.0113686289201
 30
0.0
 11
-622.5652295960735
 21
239.5113686289202
 31
0.0
  0
LINE
  5
124D
330
2
100
AcDbEntity
  8
画層1
370
    20
100
AcDbLine
 10
-621.5652295960735
 20
239.5113686289202
 30
0.0
 11
-621.5652295960735
 21
241.0113686289201
 31
0.0
  0
LINE
  5
124E
330
2
100
AcDbEntity
  8
画層1
370
    20
100
AcDbLine
 10
-622.5652295960735
 20
239.5113686289202
 30
0.0
 11
-621.5652295960735
 21
239.5113686289202
 31
0.0
  0
ARC
  5
124F
330
2
100
AcDbEntity
  8
画層1
370
    20
100
AcDbCircle
 10
-620.0652295960736
 20
239.5113686289201
 30
0.0
 40
2.0
100
AcDbArc
 50
270.0000000000032
 51
0.0000000000016284
  0
LINE
  5
1250
330
2
100
AcDbEntity
  8
画層1
370
    20
100
AcDbLine
 10
-621.5652295960735
 20
241.0113686289201
 30
0.0
 11
-619.1071897045238
 21
241.0113686289201
 31
0.0
  0
LINE
  5
1251
330
2
100
AcDbEntity
  8
画層1
370
    20
100
AcDbLine
 10
-622.5652295960735
 20
243.5113686289202
 30
0.0
 11
-622.5652295960735
 21
242.0113686289202
 31
0.0
  0
LINE
  5
1252
330
2
100
AcDbEntity
  8
画層1
370
    20
100
AcDbLine
 10
-621.5652295960735
 20
242.0113686289202
 30
0.0
 11
-621.5652295960735
 21
243.5113686289202
 31
0.0
  0
LINE
  5
1253
330
2
100
AcDbEntity
  8
画層1
370
    20
100
AcDbLine
 10
-618.0652295960735
 20
243.5113686289203
 30
0.0
 11
-618.0652295960737
 21
239.5113685289201
 31
0.0
  0
CIRCLE
  5
1256
330
2
100
AcDbEntity
  8
画層1
370
    20
100
AcDbCircle
 10
-623.5652295960735
 20
329.2613686289202
 30
0.0
 40
2.75
  0
CIRCLE
  5
1258
330
2
100
AcDbEntity
  8
画層1
370
    20
100
AcDbCircle
 10
-623.5652295960735
 20
329.2613686289202
 30
0.0
 40
1.0
  0
LINE
  5
1259
330
2
100
AcDbEntity
  8
画層1
370
    20
100
AcDbLine
 10
-624.1401891706495
 20
328.4431868107383
 30
0.0
 11
-624.1401891706495
 21
328.4431868107383
 31
0.0
  0
LINE
  5
125A
330
2
100
AcDbEntity
  8
画層1
370
    20
100
AcDbLine
 10
-624.1401891706495
 20
328.4431868107383
 30
0.0
 11
-624.1401891706495
 21
328.4431868107383
 31
0.0
  0
LINE
  5
125B
330
2
100
AcDbEntity
  8
画層1
370
    20
100
AcDbLine
 10
-624.1401891706495
 20
328.4431868107383
 30
0.0
 11
-624.1401891706495
 21
328.4431868107383
 31
0.0
  0
LINE
  5
125D
330
2
100
AcDbEntity
  8
画層1
370
    20
100
AcDbLine
 10
-624.1401891706495
 20
328.4431868107383
 30
0.0
 11
-624.8588886388697
 21
327.4204595380111
 31
0.0
  0
LINE
  5
125E
330
2
100
AcDbEntity
  8
画層1
370
    20
100
AcDbLine
 10
-622.9902700214974
 20
328.4431868107383
 30
0.0
 11
-622.2715705532773
 21
327.4204595380111
 31
0.0
  0
ARC
  5
125F
330
2
100
AcDbEntity
  8
画層1
370
    20
100
AcDbCircle
 10
-623.5652295960735
 20
329.2613686289202
 30
0.0
 40
2.250000000000008
100
AcDbArc
 50
305.096801227586
 51
234.9031987724139
  0
LINE
  5
1262
330
2
100
AcDbEntity
  8
画層1
370
    20
100
AcDbLine
 10
-622.9902700214974
 20
346.4431868107384
 30
0.0
 11
-622.2715705532773
 21
345.4204595380111
 31
0.0
  0
LINE
  5
1263
330
2
100
AcDbEntity
  8
画層1
370
    20
100
AcDbLine
 10
-624.1401891706495
 20
346.4431868107384
 30
0.0
 11
-624.8588886388697
 21
345.4204595380111
 31
0.0
  0
ARC
  5
1264
330
2
100
AcDbEntity
  8
画層1
370
    20
100
AcDbCircle
 10
-623.5652295960735
 20
347.2613686289201
 30
0.0
 40
2.250000000000008
100
AcDbArc
 50
305.096801227586
 51
234.9031987724139
  0
CIRCLE
  5
1265
330
2
100
AcDbEntity
  8
画層1
370
    20
100
AcDbCircle
 10
-623.5652295960735
 20
347.2613686289201
 30
0.0
 40
2.75
  0
LINE
  5
1266
330
2
100
AcDbEntity
  8
画層1
370
    20
100
AcDbLine
 10
-624.1401891706495
 20
346.4431868107384
 30
0.0
 11
-624.1401891706495
 21
346.4431868107384
 31
0.0
  0
LINE
  5
1267
330
2
100
AcDbEntity
  8
画層1
370
    20
100
AcDbLine
 10
-624.1401891706495
 20
346.4431868107384
 30
0.0
 11
-624.1401891706495
 21
346.4431868107384
 31
0.0
  0
LINE
  5
1268
330
2
100
AcDbEntity
  8
画層1
370
    20
100
AcDbLine
 10
-624.1401891706495
 20
346.4431868107384
 30
0.0
 11
-624.1401891706495
 21
346.4431868107384
 31
0.0
  0
CIRCLE
  5
1269
330
2
100
AcDbEntity
  8
画層1
370
    20
100
AcDbCircle
 10
-623.5652295960735
 20
347.2613686289201
 30
0.0
 40
1.0
  0
LINE
  5
126B
330
2
100
AcDbEntity
  8
画層1
370
    20
100
AcDbLine
 10
-622.6013565359296
 20
328.9950066122419
 30
0.0
 11
-621.3965152107498
 21
328.6620540913942
 31
0.0
  0
LINE
  5
126C
330
2
100
AcDbEntity
  8
画層1
370
    20
100
AcDbLine
 10
-622.6013565359296
 20
346.9950066122419
 30
0.0
 11
-621.3965152107498
 21
346.6620540913942
 31
0.0
  0
CIRCLE
  5
1272
330
2
100
AcDbEntity
  8
画層1
370
    20
100
AcDbCircle
 10
-619.0652295960735
 20
357.5113686289201
 30
0.0
 40
1.5
  0
LINE
  5
1275
330
2
100
AcDbEntity
  8
画層1
370
    20
100
AcDbLine
 10
-628.5652295960735
 20
315.5113686289201
 30
0.0
 11
-628.5652295960735
 21
307.5113686289201
 31
0.0
  0
LINE
  5
1278
330
2
100
AcDbEntity
  8
画層1
370
    20
100
AcDbLine
 10
-616.5652295960735
 20
315.5113686289201
 30
0.0
 11
-616.5652295960735
 21
307.5113686289201
 31
0.0
  0
LINE
  5
1279
330
2
100
AcDbEntity
  8
画層1
370
    20
100
AcDbLine
 10
-627.5652295960735
 20
315.5113686289201
 30
0.0
 11
-627.5652295960735
 21
307.5113686289201
 31
0.0
  0
LINE
  5
127A
330
2
100
AcDbEntity
  8
画層1
370
    20
100
AcDbLine
 10
-627.5652295960735
 20
305.5113686289201
 30
0.0
 11
-627.5652295960735
 21
297.5113686289201
 31
0.0
  0
LINE
  5
127B
330
2
100
AcDbEntity
  8
画層1
370
    20
100
AcDbLine
 10
-616.5652295960735
 20
305.5113686289201
 30
0.0
 11
-616.5652295960735
 21
297.5113686289201
 31
0.0
  0
LINE
  5
127C
330
2
100
AcDbEntity
  8
画層1
370
    20
100
AcDbLine
 10
-616.5652295960735
 20
295.5113686289201
 30
0.0
 11
-616.5652295960735
 21
287.5113686289202
 31
0.0
  0
LINE
  5
127D
330
2
100
AcDbEntity
  8
画層1
370
    20
100
AcDbLine
 10
-627.5652295960735
 20
295.5113686289201
 30
0.0
 11
-627.5652295960735
 21
287.5113686289202
 31
0.0
  0
LINE
  5
127E
330
2
100
AcDbEntity
  8
画層1
370
    20
100
AcDbLine
 10
-616.5652295960735
 20
285.5113686289202
 30
0.0
 11
-616.5652295960735
 21
277.5113686289202
 31
0.0
  0
LINE
  5
127F
330
2
100
AcDbEntity
  8
画層1
370
    20
100
AcDbLine
 10
-627.5652295960735
 20
285.5113686289202
 30
0.0
 11
-627.5652295960735
 21
277.5113686289202
 31
0.0
  0
LINE
  5
1280
330
2
100
AcDbEntity
  8
画層1
370
    20
100
AcDbLine
 10
-616.5652295960735
 20
275.5113686289202
 30
0.0
 11
-616.5652295960735
 21
267.5113686289201
 31
0.0
  0
LINE
  5
1281
330
2
100
AcDbEntity
  8
画層1
370
    20
100
AcDbLine
 10
-627.5652295960735
 20
275.5113686289202
 30
0.0
 11
-627.5652295960735
 21
267.5113686289201
 31
0.0
  0
LINE
  5
1282
330
2
100
AcDbEntity
  8
画層1
370
    20
100
AcDbLine
 10
-616.5652295960735
 20
265.5113686289201
 30
0.0
 11
-616.5652295960735
 21
257.5113686289201
 31
0.0
  0
LINE
  5
1283
330
2
100
AcDbEntity
  8
画層1
370
    20
100
AcDbLine
 10
-627.5652295960735
 20
265.5113686289201
 30
0.0
 11
-627.5652295960735
 21
257.5113686289201
 31
0.0
  0
LINE
  5
1284
330
2
100
AcDbEntity
  8
画層1
370
    20
100
AcDbLine
 10
-616.5652295960735
 20
255.5113686289201
 30
0.0
 11
-616.5652295960735
 21
247.5113686289201
 31
0.0
  0
LINE
  5
1285
330
2
100
AcDbEntity
  8
画層1
370
    20
100
AcDbLine
 10
-627.5652295960735
 20
255.5113686289201
 30
0.0
 11
-627.5652295960735
 21
247.5113686289201
 31
0.0
  0
LINE
  5
1286
330
2
100
AcDbEntity
  8
画層1
370
    20
100
AcDbLine
 10
-616.5652295960735
 20
245.5113686289201
 30
0.0
 11
-616.5652295960735
 21
237.5113686289202
 31
0.0
  0
LINE
  5
1287
330
2
100
AcDbEntity
  8
画層1
370
    20
100
AcDbLine
 10
-627.5652295960735
 20
245.5113686289201
 30
0.0
 11
-627.5652295960735
 21
237.5113686289202
 31
0.0
  0
LINE
  5
1365
330
2
100
AcDbEntity
  8
画層1
370
    20
100
AcDbLine
 10
-399.0904011789971
 20
383.9587767371689
 30
0.0
 11
-247.0904011789971
 21
383.9587767371691
 31
0.0
  0
LINE
  5
1366
330
2
100
AcDbEntity
  8
画層1
370
    20
100
AcDbLine
 10
-247.0904011789971
 20
383.9587767371691
 30
0.0
 11
-247.0904011789971
 21
103.958776737169
 31
0.0
  0
LINE
  5
1367
330
2
100
AcDbEntity
  8
画層1
370
    20
100
AcDbLine
 10
-247.0904011789971
 20
103.958776737169
 30
0.0
 11
-399.090401178997
 21
103.958776737169
 31
0.0
  0
LINE
  5
1423
330
2
100
AcDbEntity
  8
画層1
370
    20
100
AcDbLine
 10
-420.1812165008344
 20
133.5455578589037
 30
0.0
 11
-407.090401178997
 21
134.1405949189872
 31
0.0
  0
LINE
  5
1424
330
2
100
AcDbEntity
  8
画層1
370
    20
100
AcDbLine
 10
-420.1812165008344
 20
105.3719956154343
 30
0.0
 11
-399.4175366923286
 21
104.4256758863525
 31
0.0
  0
LINE
  5
1425
330
2
100
AcDbEntity
  8
画層1
370
    20
100
AcDbLine
 10
-422.0904011789971
 20
115.458776737169
 30
0.0
 11
-422.0904011789971
 21
107.3699326958549
 31
0.0
  0
ARC
  5
1428
330
2
100
AcDbEntity
  8
画層1
370
    20
100
AcDbCircle
 10
-420.0904011789971
 20
131.5476207784831
 30
0.0
 40
2.0
100
AcDbArc
 50
92.60256220249981
 51
180.0
  0
ARC
  5
1429
330
2
100
AcDbEntity
  8
画層1
370
    20
100
AcDbCircle
 10
-420.0904011789971
 20
107.3699326958549
 30
0.0
 40
2.0
100
AcDbArc
 50
180.0
 51
267.3974377975001
  0
LWPOLYLINE
  5
142F
330
2
100
AcDbEntity
  8
画層1
370
    20
100
AcDbPolyline
 90
        4
 70
     1
 43
0.0
 10
-424.5904011789971
 20
134.458776737169
 10
-423.0904011789971
 20
134.458776737169
 10
-423.0904011789971
 20
134.458776737169
 10
-424.5904011789971
 20
134.458776737169
  0
LWPOLYLINE
  5
1430
330
2
100
AcDbEntity
  8
画層1
370
    20
100
AcDbPolyline
 90
        4
 70
     1
 43
0.0
 10
-424.5904011789971
 20
104.458776737169
 10
-423.0904011789971
 20
104.458776737169
 10
-423.0904011789971
 20
134.458776737169
 10
-424.5904011789971
 20
134.458776737169
  0
LINE
  5
1435
330
2
100
AcDbEntity
  8
画層1
370
    20
100
AcDbLine
 10
-407.090401178997
 20
130.9133221917145
 30
0.0
 11
-412.0904011789971
 21
127.458776737169
 31
0.0
  0
LINE
  5
1436
330
2
100
AcDbEntity
  8
画層1
370
    20
100
AcDbLine
 10
-412.0904011789971
 20
127.458776737169
 30
0.0
 11
-412.0904011789971
 21
111.458776737169
 31
0.0
  0
LINE
  5
1437
330
2
100
AcDbEntity
  8
画層1
370
    20
100
AcDbLine
 10
-412.0904011789971
 20
111.458776737169
 30
0.0
 11
-402.0904011789971
 21
104.5496858280781
 31
0.0
  0
LWPOLYLINE
  5
149F
330
2
100
AcDbEntity
  8
画層1
370
    20
100
AcDbPolyline
 90
        4
 70
     1
 43
0.0
 10
-413.090401178997
 20
114.458776737169
 10
-412.0904011789971
 20
114.458776737169
 10
-412.0904011789971
 20
124.458776737169
 10
-413.090401178997
 20
124.458776737169
  0
LINE
  5
14A3
330
2
100
AcDbEntity
  8
画層1
370
    20
100
AcDbLine
 10
-413.090401178997
 20
115.458776737169
 30
0.0
 11
-423.0904011789971
 21
115.458776737169
 31
0.0
  0
LINE
  5
14A4
330
2
100
AcDbEntity
  8
画層1
370
    20
100
AcDbLine
 10
-413.090401178997
 20
123.458776737169
 30
0.0
 11
-423.0904011789971
 21
123.458776737169
 31
0.0
  0
LINE
  5
14A6
330
2
100
AcDbEntity
  8
画層1
370
    20
100
AcDbLine
 10
-422.0904011789971
 20
123.458776737169
 30
0.0
 11
-422.0904011789971
 21
131.5476207784831
 31
0.0
  0
LWPOLYLINE
  5
14AB
330
2
100
AcDbEntity
  8
画層1
370
    20
100
AcDbPolyline
 90
        4
 70
     1
 43
0.0
 10
-425.590401178997
 20
116.758776737169
 10
-424.5904011789971
 20
116.758776737169
 10
-424.5904011789971
 20
122.158776737169
 10
-425.590401178997
 20
122.158776737169
  0
LINE
  5
14B0
330
2
100
AcDbEntity
  8
画層1
370
    20
100
AcDbLine
 10
-425.590401178997
 20
121.958776737169
 30
0.0
 11
-425.5904011789971
 21
121.958776737169
 31
0.0
  0
LINE
  5
14B2
330
2
100
AcDbEntity
  8
画層1
370
    20
100
AcDbLine
 10
-425.590401178997
 20
116.958776737169
 30
0.0
 11
-425.590401178997
 21
116.958776737169
 31
0.0
  0
LINE
  5
14BB
330
2
100
AcDbEntity
  8
画層1
370
    20
100
AcDbLine
 10
-425.590401178997
 20
121.958776737169
 30
0.0
 11
-426.5916386388567
 21
121.9575377450538
 31
0.0
  0
LINE
  5
14BC
330
2
100
AcDbEntity
  8
画層1
370
    20
100
AcDbLine
 10
-427.5904011789971
 20
120.9575385107076
 30
0.0
 11
-427.5904011789971
 21
117.958776737169
 31
0.0
  0
LINE
  5
14BD
330
2
100
AcDbEntity
  8
画層1
370
    20
100
AcDbLine
 10
-426.5904011789971
 20
116.958776737169
 30
0.0
 11
-425.590401178997
 21
116.958776737169
 31
0.0
  0
ARC
  5
14BF
330
2
100
AcDbEntity
  8
画層1
370
    20
100
AcDbCircle
 10
-426.5904011789971
 20
117.958776737169
 30
0.0
 40
1.0
100
AcDbArc
 50
180.0
 51
270.0
  0
ARC
  5
14C0
330
2
100
AcDbEntity
  8
画層1
370
    20
100
AcDbCircle
 10
-426.5904011789971
 20
120.9575385107076
 30
0.0
 40
1.0
100
AcDbArc
 50
90.07090124537016
 51
180.0
  0
ARC
  5
14C6
330
2
100
AcDbEntity
  8
画層1
370
    20
100
AcDbCircle
 10
-427.2904011789971
 20
118.958776737169
 30
0.0
 40
0.3000000000000114
100
AcDbArc
 50
90.0
 51
180.0
  0
ARC
  5
14C7
330
2
100
AcDbEntity
  8
画層1
370
    20
100
AcDbCircle
 10
-427.2904011789971
 20
119.958776737169
 30
0.0
 40
0.3000000000000114
100
AcDbArc
 50
180.0
 51
270.0
  0
LINE
  5
14C9
330
2
100
AcDbEntity
  8
画層1
370
    20
100
AcDbLine
 10
-427.2904011789971
 20
119.658776737169
 30
0.0
 11
-427.2904011789971
 21
119.258776737169
 31
0.0
  0
LINE
  5
1531
330
2
100
AcDbEntity
  8
画層1
370
    20
100
AcDbLine
 10
-437.0904011789971
 20
217.458776737169
 30
0.0
 11
-437.0904011789971
 21
376.458776737169
 31
0.0
  0
LINE
  5
1534
330
2
100
AcDbEntity
  8
画層1
370
    20
100
AcDbLine
 10
-437.0904011789971
 20
376.458776737169
 30
0.0
 11
-406.590401178997
 21
376.458776737169
 31
0.0
  0
LINE
  5
153B
330
2
100
AcDbEntity
  8
画層1
370
    20
100
AcDbLine
 10
-407.090401178997
 20
217.458776737169
 30
0.0
 11
-437.0904011789971
 21
217.458776737169
 31
0.0
  0
LINE
  5
153C
330
2
100
AcDbEntity
  8
画層1
370
    20
100
AcDbLine
 10
-436.0904011789971
 20
373.958776737169
 30
0.0
 11
-436.0904011789971
 21
375.458776737169
 31
0.0
  0
LINE
  5
153D
330
2
100
AcDbEntity
  8
画層1
370
    20
100
AcDbLine
 10
-437.0904011789971
 20
376.458776737169
 30
0.0
 11
-406.590401178997
 21
376.458776737169
 31
0.0
  0
LINE
  5
1545
330
2
100
AcDbEntity
  8
画層1
370
    20
100
AcDbLine
 10
-436.0904011789971
 20
375.458776737169
 30
0.0
 11
-407.0904011789971
 21
375.458776737169
 31
0.0
  0
LINE
  5
1546
330
2
100
AcDbEntity
  8
画層1
370
    20
100
AcDbLine
 10
-412.0904011789971
 20
371.958776737169
 30
0.0
 11
-412.0904011789971
 21
221.958776737169
 31
0.0
  0
LINE
  5
1547
330
2
100
AcDbEntity
  8
画層1
370
    20
100
AcDbLine
 10
-407.090401178997
 20
218.458776737169
 30
0.0
 11
-436.0904011789971
 21
218.458776737169
 31
0.0
  0
LINE
  5
1548
330
2
100
AcDbEntity
  8
画層1
370
    20
100
AcDbLine
 10
-437.0904011789971
 20
217.958776737169
 30
0.0
 11
-437.0904011789971
 21
217.458776737169
 31
0.0
  0
LINE
  5
1833
330
2
100
AcDbEntity
  8
画層1
 62
     0
370
    20
100
AcDbLine
 10
-651.5652295960735
 20
103.958776737169
 30
0.0
 11
-499.5652295960735
 21
103.958776737169
 31
0.0
  0
LINE
  5
1834
330
2
100
AcDbEntity
  8
画層1
 62
     0
370
    20
100
AcDbLine
 10
-495.5652295960735
 20
127.4587767371689
 30
0.0
 11
-495.5652295960735
 21
360.458776737169
 31
0.0
  0
LINE
  5
1835
330
2
100
AcDbEntity
  8
画層1
 62
     0
370
    20
100
AcDbLine
 10
-499.5652295960734
 20
383.958776737169
 30
0.0
 11
-651.5652295960735
 21
383.958776737169
 31
0.0
  0
LINE
  5
1836
330
2
100
AcDbEntity
  8
画層1
 62
     0
370
    20
100
AcDbLine
 10
-655.5652295960735
 20
360.458776737169
 30
0.0
 11
-655.5652295960735
 21
127.4587767371689
 31
0.0
  0
ARC
  5
183D
330
2
100
AcDbEntity
  8
画層1
 62
     0
370
    20
100
AcDbCircle
 10
-503.0652295960735
 20
363.9587767371689
 30
0.0
 40
3.5
100
AcDbArc
 50
90.0
 51
270.0
  0
ARC
  5
183E
330
2
100
AcDbEntity
  8
画層1
 62
     0
370
    20
100
AcDbCircle
 10
-503.0652295960735
 20
123.9587767371689
 30
0.0
 40
3.5
100
AcDbArc
 50
90.0
 51
270.0
  0
ARC
  5
1840
330
2
100
AcDbEntity
  8
画層1
 62
     0
370
    20
100
AcDbCircle
 10
-648.0652295960735
 20
123.9587767371689
 30
0.0
 40
3.5
100
AcDbArc
 50
270.0
 51
90.0
  0
ARC
  5
1841
330
2
100
AcDbEntity
  8
画層1
 62
     0
370
    20
100
AcDbCircle
 10
-648.0652295960735
 20
363.9587767371689
 30
0.0
 40
3.5
100
AcDbArc
 50
270.0
 51
90.0
  0
LINE
  5
1847
330
2
100
AcDbEntity
  8
画層1
 62
     0
370
    20
100
AcDbLine
 10
-648.0652295960735
 20
367.458776737169
 30
0.0
 11
-655.5652295960735
 21
367.458776737169
 31
0.0
  0
LINE
  5
1848
330
2
100
AcDbEntity
  8
画層1
 62
     0
370
    20
100
AcDbLine
 10
-648.0652295960735
 20
360.458776737169
 30
0.0
 11
-655.5652295960735
 21
360.458776737169
 31
0.0
  0
LINE
  5
1849
330
2
100
AcDbEntity
  8
画層1
 62
     0
370
    20
100
AcDbLine
 10
-648.0652295960735
 20
120.4587767371689
 30
0.0
 11
-655.5652295960735
 21
120.4587767371689
 31
0.0
  0
LINE
  5
184A
330
2
100
AcDbEntity
  8
画層1
 62
     0
370
    20
100
AcDbLine
 10
-648.0652295960735
 20
127.4587767371689
 30
0.0
 11
-655.5652295960735
 21
127.4587767371689
 31
0.0
  0
LINE
  5
184B
330
2
100
AcDbEntity
  8
画層1
 62
     0
370
    20
100
AcDbLine
 10
-495.5652295960735
 20
127.4587767371689
 30
0.0
 11
-503.0652295960735
 21
127.4587767371689
 31
0.0
  0
LINE
  5
184C
330
2
100
AcDbEntity
  8
画層1
 62
     0
370
    20
100
AcDbLine
 10
-495.5652295960735
 20
120.4587767371689
 30
0.0
 11
-503.0652295960735
 21
120.4587767371689
 31
0.0
  0
LINE
  5
184D
330
2
100
AcDbEntity
  8
画層1
 62
     0
370
    20
100
AcDbLine
 10
-495.5652295960735
 20
360.458776737169
 30
0.0
 11
-503.0652295960735
 21
360.458776737169
 31
0.0
  0
LINE
  5
184E
330
2
100
AcDbEntity
  8
画層1
 62
     0
370
    20
100
AcDbLine
 10
-495.5652295960735
 20
367.458776737169
 30
0.0
 11
-503.0652295960735
 21
367.458776737169
 31
0.0
  0
LINE
  5
184F
330
2
100
AcDbEntity
  8
画層1
 62
     0
370
    20
100
AcDbLine
 10
-495.5652295960734
 20
379.958776737169
 30
0.0
 11
-495.5652295960735
 21
367.458776737169
 31
0.0
  0
LINE
  5
1850
330
2
100
AcDbEntity
  8
画層1
 62
     0
370
    20
100
AcDbLine
 10
-655.5652295960735
 20
379.958776737169
 30
0.0
 11
-655.5652295960735
 21
367.458776737169
 31
0.0
  0
LINE
  5
1851
330
2
100
AcDbEntity
  8
画層1
 62
     0
370
    20
100
AcDbLine
 10
-655.5652295960735
 20
120.4587767371689
 30
0.0
 11
-655.5652295960735
 21
107.958776737169
 31
0.0
  0
LINE
  5
1852
330
2
100
AcDbEntity
  8
画層1
 62
     0
370
    20
100
AcDbLine
 10
-495.5652295960735
 20
120.4587767371689
 30
0.0
 11
-495.5652295960735
 21
107.958776737169
 31
0.0
  0
LINE
  5
1855
330
2
100
AcDbEntity
  8
画層1
 62
     0
370
    20
100
AcDbLine
 10
-638.5652295960735
 20
383.958776737169
 30
0.0
 11
-638.5652295960735
 21
103.958776737169
 31
0.0
  0
LINE
  5
1857
330
2
100
AcDbEntity
  8
画層1
 62
     0
370
    20
100
AcDbLine
 10
-512.5652295960735
 20
383.958776737169
 30
0.0
 11
-512.5652295960735
 21
103.958776737169
 31
0.0
  0
LINE
  5
1858
330
2
100
AcDbEntity
  8
画層1
 62
     0
370
    20
100
AcDbLine
 10
-510.9652295960735
 20
383.958776737169
 30
0.0
 11
-510.9652295960735
 21
103.958776737169
 31
0.0
  0
LINE
  5
1859
330
2
100
AcDbEntity
  8
画層1
 62
     0
370
    20
100
AcDbLine
 10
-640.1652295960736
 20
383.958776737169
 30
0.0
 11
-640.1652295960736
 21
103.958776737169
 31
0.0
  0
ARC
  5
1896
330
2
100
AcDbEntity
  8
画層1
370
    20
100
AcDbCircle
 10
-557.0652295960735
 20
104.958776737169
 30
0.0
 40
1.0
100
AcDbArc
 50
270.0
 51
0.0
  0
ARC
  5
1897
330
2
100
AcDbEntity
  8
画層1
370
    20
100
AcDbCircle
 10
-545.0652295960735
 20
104.958776737169
 30
0.0
 40
1.0
100
AcDbArc
 50
180.0
 51
270.0
  0
LWPOLYLINE
  5
1898
330
2
100
AcDbEntity
  8
画層1
370
    20
100
AcDbPolyline
 90
        4
 70
     1
 43
0.0
 10
-557.0652295960735
 20
110.958776737169
 10
-545.0652295960735
 20
110.958776737169
 10
-545.0652295960735
 20
126.958776737169
 10
-557.0652295960735
 20
126.958776737169
  0
CIRCLE
  5
1899
330
2
100
AcDbEntity
  8
画層1
370
    20
100
AcDbCircle
 10
-551.0652295960735
 20
118.958776737169
 30
0.0
 40
5.0
  0
LINE
  5
189A
330
2
100
AcDbEntity
  8
画層1
370
    20
100
AcDbLine
 10
-552.0652295960736
 20
121.458776737169
 30
0.0
 11
-552.0652295960736
 21
119.958776737169
 31
0.0
  0
LINE
  5
189B
330
2
100
AcDbEntity
  8
画層1
370
    20
100
AcDbLine
 10
-550.0652295960735
 20
119.958776737169
 30
0.0
 11
-550.0652295960735
 21
121.458776737169
 31
0.0
  0
LINE
  5
189C
330
2
100
AcDbEntity
  8
画層1
370
    20
100
AcDbLine
 10
-556.0652295960735
 20
104.958776737169
 30
0.0
 11
-556.0652295960735
 21
109.958776737169
 31
0.0
  0
ARC
  5
189D
330
2
100
AcDbEntity
  8
画層1
370
    20
100
AcDbCircle
 10
-556.0652295960735
 20
110.958776737169
 30
0.0
 40
1.0
100
AcDbArc
 50
180.0
 51
270.0
  0
LINE
  5
189E
330
2
100
AcDbEntity
  8
画層1
370
    20
100
AcDbLine
 10
-546.0652295960735
 20
104.958776737169
 30
0.0
 11
-546.0652295960735
 21
109.958776737169
 31
0.0
  0
ARC
  5
189F
330
2
100
AcDbEntity
  8
画層1
370
    20
100
AcDbCircle
 10
-546.0652295960735
 20
110.958776737169
 30
0.0
 40
1.0
100
AcDbArc
 50
270.0
 51
0.0
  0
LINE
  5
18A0
330
2
100
AcDbEntity
  8
画層1
370
    20
100
AcDbLine
 10
-553.5652295960735
 20
117.958776737169
 30
0.0
 11
-552.0652295960736
 21
117.958776737169
 31
0.0
  0
LINE
  5
18A1
330
2
100
AcDbEntity
  8
画層1
370
    20
100
AcDbLine
 10
-552.0652295960736
 20
119.958776737169
 30
0.0
 11
-553.5652295960735
 21
119.958776737169
 31
0.0
  0
LINE
  5
18A2
330
2
100
AcDbEntity
  8
画層1
370
    20
100
AcDbLine
 10
-553.5652295960735
 20
119.958776737169
 30
0.0
 11
-553.5652295960735
 21
117.958776737169
 31
0.0
  0
LINE
  5
18A3
330
2
100
AcDbEntity
  8
画層1
370
    20
100
AcDbLine
 10
-552.0652295960736
 20
116.458776737169
 30
0.0
 11
-550.0652295960735
 21
116.458776737169
 31
0.0
  0
LINE
  5
18A4
330
2
100
AcDbEntity
  8
画層1
370
    20
100
AcDbLine
 10
-552.0652295960736
 20
117.958776737169
 30
0.0
 11
-552.0652295960736
 21
116.458776737169
 31
0.0
  0
LINE
  5
18A5
330
2
100
AcDbEntity
  8
画層1
370
    20
100
AcDbLine
 10
-548.5652295960735
 20
119.958776737169
 30
0.0
 11
-550.0652295960735
 21
119.958776737169
 31
0.0
  0
LINE
  5
18A6
330
2
100
AcDbEntity
  8
画層1
370
    20
100
AcDbLine
 10
-548.5652295960735
 20
117.958776737169
 30
0.0
 11
-548.5652295960735
 21
119.958776737169
 31
0.0
  0
LINE
  5
18A7
330
2
100
AcDbEntity
  8
画層1
370
    20
100
AcDbLine
 10
-550.0652295960735
 20
117.958776737169
 30
0.0
 11
-548.5652295960735
 21
117.958776737169
 31
0.0
  0
LINE
  5
18A8
330
2
100
AcDbEntity
  8
画層1
370
    20
100
AcDbLine
 10
-550.0652295960735
 20
116.458776737169
 30
0.0
 11
-550.0652295960735
 21
117.958776737169
 31
0.0
  0
LINE
  5
18A9
330
2
100
AcDbEntity
  8
画層1
370
    20
100
AcDbLine
 10
-556.0652295960735
 20
132.958776737169
 30
0.0
 11
-556.0652295960735
 21
127.958776737169
 31
0.0
  0
ARC
  5
18AA
330
2
100
AcDbEntity
  8
画層1
370
    20
100
AcDbCircle
 10
-556.0652295960735
 20
126.958776737169
 30
0.0
 40
1.0
100
AcDbArc
 50
90.0
 51
180.0
  0
ARC
  5
18AB
330
2
100
AcDbEntity
  8
画層1
370
    20
100
AcDbCircle
 10
-546.0652295960735
 20
126.958776737169
 30
0.0
 40
1.0
100
AcDbArc
 50
0.0
 51
90.0
  0
LINE
  5
18AC
330
2
100
AcDbEntity
  8
画層1
370
    20
100
AcDbLine
 10
-546.0652295960735
 20
132.958776737169
 30
0.0
 11
-546.0652295960735
 21
127.958776737169
 31
0.0
  0
LINE
  5
18AD
330
2
100
AcDbEntity
  8
画層1
370
    20
100
AcDbLine
 10
-550.0652295960735
 20
121.458776737169
 30
0.0
 11
-552.0652295960736
 21
121.458776737169
 31
0.0
  0
ARC
  5
18AE
330
2
100
AcDbEntity
  8
画層1
370
    20
100
AcDbCircle
 10
-557.0652295960735
 20
132.958776737169
 30
0.0
 40
1.0
100
AcDbArc
 50
0.000000000000007
 51
90.0
  0
ARC
  5
18AF
330
2
100
AcDbEntity
  8
画層1
370
    20
100
AcDbCircle
 10
-545.0652295960735
 20
132.958776737169
 30
0.0
 40
1.0
100
AcDbArc
 50
90.0
 51
180.0
  0
ARC
  5
18E4
330
2
100
AcDbEntity
  8
画層1
370
    20
100
AcDbCircle
 10
-529.0652295960735
 20
104.958776737169
 30
0.0
 40
1.0
100
AcDbArc
 50
180.0
 51
270.0
  0
ARC
  5
18E6
330
2
100
AcDbEntity
  8
画層1
370
    20
100
AcDbCircle
 10
-541.0652295960735
 20
104.958776737169
 30
0.0
 40
1.0
100
AcDbArc
 50
270.0
 51
0.0
  0
CIRCLE
  5
18E7
330
2
100
AcDbEntity
  8
画層1
370
    20
100
AcDbCircle
 10
-535.0652295960735
 20
118.958776737169
 30
0.0
 40
5.0
  0
LWPOLYLINE
  5
18E8
330
2
100
AcDbEntity
  8
画層1
370
    20
100
AcDbPolyline
 90
        4
 70
     1
 43
0.0
 10
-541.0652295960735
 20
110.958776737169
 10
-529.0652295960735
 20
110.958776737169
 10
-529.0652295960735
 20
126.958776737169
 10
-541.0652295960735
 20
126.958776737169
  0
LINE
  5
18E9
330
2
100
AcDbEntity
  8
画層1
370
    20
100
AcDbLine
 10
-534.0652295960735
 20
119.958776737169
 30
0.0
 11
-534.0652295960735
 21
121.458776737169
 31
0.0
  0
LINE
  5
18EA
330
2
100
AcDbEntity
  8
画層1
370
    20
100
AcDbLine
 10
-536.0652295960735
 20
121.458776737169
 30
0.0
 11
-536.0652295960735
 21
119.958776737169
 31
0.0
  0
ARC
  5
18EB
330
2
100
AcDbEntity
  8
画層1
370
    20
100
AcDbCircle
 10
-540.0652295960735
 20
110.958776737169
 30
0.0
 40
1.0
100
AcDbArc
 50
180.0
 51
270.0
  0
LINE
  5
18EC
330
2
100
AcDbEntity
  8
画層1
370
    20
100
AcDbLine
 10
-540.0652295960735
 20
104.958776737169
 30
0.0
 11
-540.0652295960735
 21
109.958776737169
 31
0.0
  0
LINE
  5
18ED
330
2
100
AcDbEntity
  8
画層1
370
    20
100
AcDbLine
 10
-537.5652295960735
 20
117.958776737169
 30
0.0
 11
-536.0652295960735
 21
117.958776737169
 31
0.0
  0
LINE
  5
18EE
330
2
100
AcDbEntity
  8
画層1
370
    20
100
AcDbLine
 10
-536.0652295960735
 20
119.958776737169
 30
0.0
 11
-537.5652295960735
 21
119.958776737169
 31
0.0
  0
LINE
  5
18EF
330
2
100
AcDbEntity
  8
画層1
370
    20
100
AcDbLine
 10
-537.5652295960735
 20
119.958776737169
 30
0.0
 11
-537.5652295960735
 21
117.958776737169
 31
0.0
  0
LINE
  5
18F0
330
2
100
AcDbEntity
  8
画層1
370
    20
100
AcDbLine
 10
-532.5652295960735
 20
119.958776737169
 30
0.0
 11
-534.0652295960735
 21
119.958776737169
 31
0.0
  0
LINE
  5
18F1
330
2
100
AcDbEntity
  8
画層1
370
    20
100
AcDbLine
 10
-532.5652295960735
 20
117.958776737169
 30
0.0
 11
-532.5652295960735
 21
119.958776737169
 31
0.0
  0
LINE
  5
18F2
330
2
100
AcDbEntity
  8
画層1
370
    20
100
AcDbLine
 10
-534.0652295960735
 20
117.958776737169
 30
0.0
 11
-532.5652295960735
 21
117.958776737169
 31
0.0
  0
LINE
  5
18F3
330
2
100
AcDbEntity
  8
画層1
370
    20
100
AcDbLine
 10
-534.0652295960735
 20
116.458776737169
 30
0.0
 11
-534.0652295960735
 21
117.958776737169
 31
0.0
  0
LINE
  5
18F4
330
2
100
AcDbEntity
  8
画層1
370
    20
100
AcDbLine
 10
-536.0652295960735
 20
116.458776737169
 30
0.0
 11
-534.0652295960735
 21
116.458776737169
 31
0.0
  0
LINE
  5
18F5
330
2
100
AcDbEntity
  8
画層1
370
    20
100
AcDbLine
 10
-536.0652295960735
 20
117.958776737169
 30
0.0
 11
-536.0652295960735
 21
116.458776737169
 31
0.0
  0
ARC
  5
18F6
330
2
100
AcDbEntity
  8
画層1
370
    20
100
AcDbCircle
 10
-540.0652295960735
 20
126.958776737169
 30
0.0
 40
1.0
100
AcDbArc
 50
90.0
 51
180.0
  0
LINE
  5
18F7
330
2
100
AcDbEntity
  8
画層1
370
    20
100
AcDbLine
 10
-534.0652295960735
 20
121.458776737169
 30
0.0
 11
-536.0652295960735
 21
121.458776737169
 31
0.0
  0
LINE
  5
18F8
330
2
100
AcDbEntity
  8
画層1
370
    20
100
AcDbLine
 10
-540.0652295960735
 20
132.958776737169
 30
0.0
 11
-540.0652295960735
 21
127.958776737169
 31
0.0
  0
ARC
  5
18F9
330
2
100
AcDbEntity
  8
画層1
370
    20
100
AcDbCircle
 10
-541.0652295960735
 20
132.958776737169
 30
0.0
 40
1.0
100
AcDbArc
 50
0.000000000000007
 51
90.0
  0
ARC
  5
18FE
330
2
100
AcDbEntity
  8
画層1
370
    20
100
AcDbCircle
 10
-530.0652295960735
 20
110.958776737169
 30
0.0
 40
1.0
100
AcDbArc
 50
270.0
 51
0.0
  0
LINE
  5
1900
330
2
100
AcDbEntity
  8
画層1
370
    20
100
AcDbLine
 10
-530.0652295960735
 20
104.958776737169
 30
0.0
 11
-530.0652295960735
 21
109.958776737169
 31
0.0
  0
ARC
  5
190E
330
2
100
AcDbEntity
  8
画層1
370
    20
100
AcDbCircle
 10
-530.0652295960735
 20
126.958776737169
 30
0.0
 40
1.0
100
AcDbArc
 50
0.0
 51
90.0
  0
LINE
  5
1911
330
2
100
AcDbEntity
  8
画層1
370
    20
100
AcDbLine
 10
-530.0652295960735
 20
132.958776737169
 30
0.0
 11
-530.0652295960735
 21
127.958776737169
 31
0.0
  0
ARC
  5
1913
330
2
100
AcDbEntity
  8
画層1
370
    20
100
AcDbCircle
 10
-529.0652295960735
 20
132.958776737169
 30
0.0
 40
1.0
100
AcDbArc
 50
90.0
 51
180.0
  0
LINE
  5
1918
330
2
100
AcDbEntity
  8
画層1
370
    20
100
AcDbLine
 10
-637.0652295960735
 20
133.958776737169
 30
0.0
 11
-512.5652295960735
 21
133.958776737169
 31
0.0
  0
CIRCLE
  5
1923
330
2
100
AcDbEntity
  8
画層1
 62
     0
370
    20
100
AcDbCircle
 10
-631.5652295960735
 20
379.958776737169
 30
0.0
 40
3.0
  0
CIRCLE
  5
1924
330
2
100
AcDbEntity
  8
画層1
 62
     0
370
    20
100
AcDbCircle
 10
-519.5652295960735
 20
379.958776737169
 30
0.0
 40
3.0
  0
LINE
  5
1927
330
2
100
AcDbEntity
  8
画層1
 62
     0
370
    20
100
AcDbLine
 10
-635.8152295960735
 20
376.458776737169
 30
0.0
 11
-515.3152295960735
 21
376.458776737169
 31
0.0
  0
LINE
  5
192B
330
2
100
AcDbEntity
  8
画層1
 62
     0
370
    20
100
AcDbLine
 10
-637.8152295960735
 20
374.458776737169
 30
0.0
 11
-637.8152295960735
 21
370.458776737169
 31
0.0
  0
LINE
  5
192C
330
2
100
AcDbEntity
  8
画層1
 62
     0
370
    20
100
AcDbLine
 10
-635.8152295960735
 20
368.458776737169
 30
0.0
 11
-612.8152295960735
 21
368.458776737169
 31
0.0
  0
LINE
  5
192D
330
2
100
AcDbEntity
  8
画層1
 62
     0
370
    20
100
AcDbLine
 10
-612.8152295960735
 20
368.458776737169
 30
0.0
 11
-612.8152295960735
 21
225.458776737169
 31
0.0
  0
LINE
  5
192E
330
2
100
AcDbEntity
  8
画層1
 62
     0
370
    20
100
AcDbLine
 10
-612.8152295960735
 20
225.458776737169
 30
0.0
 11
-635.8152295960735
 21
225.458776737169
 31
0.0
  0
LINE
  5
192F
330
2
100
AcDbEntity
  8
画層1
 62
     0
370
    20
100
AcDbLine
 10
-637.8152295960735
 20
223.458776737169
 30
0.0
 11
-637.8152295960735
 21
216.458776737169
 31
0.0
  0
LINE
  5
1930
330
2
100
AcDbEntity
  8
画層1
 62
     0
370
    20
100
AcDbLine
 10
-637.8152295960735
 20
217.458776737169
 30
0.0
 11
-513.3152295960735
 21
217.458776737169
 31
0.0
  0
LINE
  5
1931
330
2
100
AcDbEntity
  8
画層1
 62
     0
370
    20
100
AcDbLine
 10
-513.3152295960735
 20
216.458776737169
 30
0.0
 11
-513.3152295960735
 21
374.458776737169
 31
0.0
  0
LINE
  5
1933
330
2
100
AcDbEntity
  8
画層1
 62
     0
370
    20
100
AcDbLine
 10
-635.8152295960735
 20
214.458776737169
 30
0.0
 11
-515.3152295960735
 21
214.458776737169
 31
0.0
  0
LINE
  5
1972
330
2
100
AcDbEntity
  8
画層1
 62
     0
370
    20
100
AcDbLine
 10
-636.0652295960736
 20
134.958776737169
 30
0.0
 11
-515.0652295960735
 21
134.958776737169
 31
0.0
  0
LINE
  5
1973
330
2
100
AcDbEntity
  8
画層1
 62
     0
370
    20
100
AcDbLine
 10
-513.0652295960735
 20
136.958776737169
 30
0.0
 11
-513.0652295960735
 21
216.958776737169
 31
0.0
  0
LINE
  5
1974
330
2
100
AcDbEntity
  8
画層1
 62
     0
370
    20
100
AcDbLine
 10
-637.8152295960735
 20
216.958776737169
 30
0.0
 11
-638.0652295960735
 21
216.958776737169
 31
0.0
  0
LINE
  5
1975
330
2
100
AcDbEntity
  8
画層1
 62
     0
370
    20
100
AcDbLine
 10
-638.0652295960735
 20
216.958776737169
 30
0.0
 11
-638.0652295960736
 21
136.958776737169
 31
0.0
  0
LINE
  5
1976
330
2
100
AcDbEntity
  8
画層1
 62
     0
370
    20
100
AcDbLine
 10
-513.0652295960735
 20
216.958776737169
 30
0.0
 11
-513.3152295960735
 21
216.958776737169
 31
0.0
  0
LWPOLYLINE
  5
197D
330
2
100
AcDbEntity
  8
画層1
 62
     0
370
    20
100
AcDbPolyline
 90
        4
 70
     1
 43
0.0
 10
-620.0652295960735
 20
165.958776737169
 10
-581.0652295960735
 20
165.958776737169
 10
-581.0652295960735
 20
203.458776737169
 10
-620.0652295960735
 20
203.458776737169
  0
CIRCLE
  5
197F
330
2
100
AcDbEntity
  8
画層1
 62
     0
370
    20
100
AcDbCircle
 10
-534.5652295960735
 20
203.958776737169
 30
0.0
 40
6.5
  0
ARC
  5
1980
330
2
100
AcDbEntity
  8
画層1
 62
     0
370
    20
100
AcDbCircle
 10
-515.0652295960735
 20
136.958776737169
 30
0.0
 40
2.0
100
AcDbArc
 50
270.0
 51
0.0
  0
ARC
  5
1981
330
2
100
AcDbEntity
  8
画層1
 62
     0
370
    20
100
AcDbCircle
 10
-636.0652295960736
 20
136.958776737169
 30
0.0
 40
2.0
100
AcDbArc
 50
180.0
 51
270.0
  0
ARC
  5
1982
330
2
100
AcDbEntity
  8
画層1
 62
     0
370
    20
100
AcDbCircle
 10
-635.8152295960735
 20
223.458776737169
 30
0.0
 40
2.0
100
AcDbArc
 50
90.0
 51
180.0
  0
ARC
  5
1983
330
2
100
AcDbEntity
  8
画層1
 62
     0
370
    20
100
AcDbCircle
 10
-635.8152295960735
 20
370.458776737169
 30
0.0
 40
2.0
100
AcDbArc
 50
180.0
 51
270.0
  0
ARC
  5
1984
330
2
100
AcDbEntity
  8
画層1
 62
     0
370
    20
100
AcDbCircle
 10
-635.8152295960735
 20
374.458776737169
 30
0.0
 40
2.0
100
AcDbArc
 50
90.0
 51
180.0
  0
ARC
  5
1985
330
2
100
AcDbEntity
  8
画層1
 62
     0
370
    20
100
AcDbCircle
 10
-515.3152295960735
 20
374.458776737169
 30
0.0
 40
2.0
100
AcDbArc
 50
0.0
 51
90.0
  0
ARC
  5
1986
330
2
100
AcDbEntity
  8
画層1
 62
     0
370
    20
100
AcDbCircle
 10
-515.3152295960735
 20
216.458776737169
 30
0.0
 40
2.0
100
AcDbArc
 50
270.0
 51
0.0
  0
ARC
  5
1987
330
2
100
AcDbEntity
  8
画層1
 62
     0
370
    20
100
AcDbCircle
 10
-635.8152295960735
 20
216.458776737169
 30
0.0
 40
2.0
100
AcDbArc
 50
180.0
 51
270.0
  0
LWPOLYLINE
  5
1990
330
2
100
AcDbEntity
  8
画層1
 62
     0
370
    20
100
AcDbPolyline
 90
        4
 70
     1
 43
0.0
 10
-508.9652295960735
 20
355.958776737169
 10
-510.9652295960735
 20
355.958776737169
 10
-510.9652295960735
 20
341.958776737169
 10
-508.9652295960735
 20
341.958776737169
  0
CIRCLE
  5
1997
330
2
100
AcDbEntity
  8
画層1
 62
     0
370
    20
100
AcDbCircle
 10
-337.0904011789971
 20
348.958776737169
 30
0.0
 40
7.0
  0
LINE
  5
199B
330
2
100
AcDbEntity
  8
画層1
 62
     0
370
    20
100
AcDbLine
 10
-331.0282233525059
 20
345.4587767371691
 30
0.0
 11
-331.028223352506
 21
352.458776737169
 31
0.0
  0
LINE
  5
199C
330
2
100
AcDbEntity
  8
画層1
 62
     0
370
    20
100
AcDbLine
 10
-343.1525790054881
 20
345.4587767371691
 30
0.0
 11
-343.1525790054882
 21
352.458776737169
 31
0.0
  0
LINE
  5
199D
330
2
100
AcDbEntity
  8
画層1
 62
     0
370
    20
100
AcDbLine
 10
-343.1525790054883
 20
352.4587767371689
 30
0.0
 11
-337.0904011789971
 21
355.958776737169
 31
0.0
  0
LINE
  5
199E
330
2
100
AcDbEntity
  8
画層1
 62
     0
370
    20
100
AcDbLine
 10
-337.0904011789971
 20
355.958776737169
 30
0.0
 11
-331.028223352506
 21
352.458776737169
 31
0.0
  0
LINE
  5
199F
330
2
100
AcDbEntity
  8
画層1
 62
     0
370
    20
100
AcDbLine
 10
-343.1525790054881
 20
345.458776737169
 30
0.0
 11
-337.0904011789971
 21
341.958776737169
 31
0.0
  0
LINE
  5
19A0
330
2
100
AcDbEntity
  8
画層1
 62
     0
370
    20
100
AcDbLine
 10
-337.0904011789971
 20
341.958776737169
 30
0.0
 11
-331.0282233525061
 21
345.458776737169
 31
0.0
  0
LINE
  5
19A1
330
2
100
AcDbEntity
  8
画層1
 62
     0
370
    20
100
AcDbLine
 10
-508.9652295960735
 20
352.458776737169
 30
0.0
 11
-506.9652295960735
 21
352.458776737169
 31
0.0
  0
LINE
  5
19A2
330
2
100
AcDbEntity
  8
画層1
 62
     0
370
    20
100
AcDbLine
 10
-508.9652295960735
 20
345.458776737169
 30
0.0
 11
-506.9652295960735
 21
345.458776737169
 31
0.0
  0
LINE
  5
19A3
330
2
100
AcDbEntity
  8
画層1
 62
     0
370
    20
100
AcDbLine
 10
-508.9652295960735
 20
355.958776737169
 30
0.0
 11
-506.9652295960735
 21
355.958776737169
 31
0.0
  0
LINE
  5
19A4
330
2
100
AcDbEntity
  8
画層1
 62
     0
370
    20
100
AcDbLine
 10
-504.9652295960735
 20
350.458776737169
 30
0.0
 11
-504.9652295960735
 21
347.458776737169
 31
0.0
  0
LINE
  5
19A5
330
2
100
AcDbEntity
  8
画層1
 62
     0
370
    20
100
AcDbLine
 10
-506.9652295960734
 20
341.958776737169
 30
0.0
 11
-508.9652295960735
 21
341.958776737169
 31
0.0
  0
ARC
  5
19A6
330
2
100
AcDbEntity
  8
画層1
 62
     0
370
    20
100
AcDbCircle
 10
-506.9652295960734
 20
353.9587767371691
 30
0.0
 40
1.999999999999964
100
AcDbArc
 50
7.180755781455126
 51
90.00000000000161
  0
ARC
  5
19A7
330
2
100
AcDbEntity
  8
画層1
 62
     0
370
    20
100
AcDbCircle
 10
-506.9652295960732
 20
343.9587767371689
 30
0.0
 40
1.999999999999886
100
AcDbArc
 50
269.9999999999951
 51
352.8192442185311
  0
ARC
  5
19A8
330
2
100
AcDbEntity
  8
画層1
 62
     0
370
    20
100
AcDbCircle
 10
-506.9652295960735
 20
350.458776737169
 30
0.0
 40
2.0
100
AcDbArc
 50
0.0
 51
90.0
  0
ARC
  5
19A9
330
2
100
AcDbEntity
  8
画層1
 62
     0
370
    20
100
AcDbCircle
 10
-506.9652295960735
 20
347.458776737169
 30
0.0
 40
2.0
100
AcDbArc
 50
270.0
 51
0.0
  0
ARC
  5
19AA
330
2
100
AcDbEntity
  8
画層1
 62
     0
370
    20
100
AcDbCircle
 10
-506.9652295960735
 20
343.4587767371691
 30
0.0
 40
1.999999999999964
100
AcDbArc
 50
7.180755781441996
 51
90.0
  0
ARC
  5
19AB
330
2
100
AcDbEntity
  8
画層1
 62
     0
370
    20
100
AcDbCircle
 10
-506.9652295960734
 20
354.4587767371688
 30
0.0
 40
1.999999999999886
100
AcDbArc
 50
269.9999999999967
 51
352.819244218546
  0
LINE
  5
19AC
330
2
100
AcDbEntity
  8
画層1
 62
     0
370
    20
100
AcDbLine
 10
-504.980916112775
 20
343.7087767371686
 30
0.0
 11
-504.980916112775
 21
354.208776737169
 31
0.0
  0
LINE
  5
19AD
330
2
100
AcDbEntity
  8
画層1
 62
     0
370
    20
100
AcDbLine
 10
-504.980916112775
 20
243.7087767371685
 30
0.0
 11
-504.980916112775
 21
254.2087767371689
 31
0.0
  0
ARC
  5
19AE
330
2
100
AcDbEntity
  8
画層1
 62
     0
370
    20
100
AcDbCircle
 10
-506.9652295960735
 20
250.458776737169
 30
0.0
 40
2.0
100
AcDbArc
 50
0.0
 51
90.0
  0
LWPOLYLINE
  5
19AF
330
2
100
AcDbEntity
  8
画層1
 62
     0
370
    20
100
AcDbPolyline
 90
        4
 70
     1
 43
0.0
 10
-508.9652295960735
 20
255.958776737169
 10
-510.9652295960735
 20
255.958776737169
 10
-510.9652295960735
 20
241.958776737169
 10
-508.9652295960735
 20
241.958776737169
  0
ARC
  5
19B0
330
2
100
AcDbEntity
  8
画層1
 62
     0
370
    20
100
AcDbCircle
 10
-506.9652295960732
 20
243.9587767371689
 30
0.0
 40
1.999999999999886
100
AcDbArc
 50
269.9999999999951
 51
352.8192442185311
  0
LINE
  5
19B1
330
2
100
AcDbEntity
  8
画層1
 62
     0
370
    20
100
AcDbLine
 10
-506.9652295960734
 20
241.958776737169
 30
0.0
 11
-508.9652295960735
 21
241.958776737169
 31
0.0
  0
ARC
  5
19B2
330
2
100
AcDbEntity
  8
画層1
 62
     0
370
    20
100
AcDbCircle
 10
-506.9652295960735
 20
243.4587767371691
 30
0.0
 40
1.999999999999964
100
AcDbArc
 50
7.180755781441996
 51
90.0
  0
LINE
  5
19B3
330
2
100
AcDbEntity
  8
画層1
 62
     0
370
    20
100
AcDbLine
 10
-504.9652295960735
 20
250.458776737169
 30
0.0
 11
-504.9652295960735
 21
247.458776737169
 31
0.0
  0
LINE
  5
19B4
330
2
100
AcDbEntity
  8
画層1
 62
     0
370
    20
100
AcDbLine
 10
-508.9652295960735
 20
245.458776737169
 30
0.0
 11
-506.9652295960735
 21
245.458776737169
 31
0.0
  0
ARC
  5
19B5
330
2
100
AcDbEntity
  8
画層1
 62
     0
370
    20
100
AcDbCircle
 10
-506.9652295960735
 20
247.458776737169
 30
0.0
 40
2.0
100
AcDbArc
 50
270.0
 51
0.0
  0
ARC
  5
19B6
330
2
100
AcDbEntity
  8
画層1
 62
     0
370
    20
100
AcDbCircle
 10
-506.9652295960734
 20
253.9587767371691
 30
0.0
 40
1.999999999999964
100
AcDbArc
 50
7.180755781455126
 51
90.00000000000161
  0
ARC
  5
19B7
330
2
100
AcDbEntity
  8
画層1
 62
     0
370
    20
100
AcDbCircle
 10
-506.9652295960734
 20
254.4587767371688
 30
0.0
 40
1.999999999999886
100
AcDbArc
 50
269.9999999999967
 51
352.819244218546
  0
LINE
  5
19B8
330
2
100
AcDbEntity
  8
画層1
 62
     0
370
    20
100
AcDbLine
 10
-508.9652295960735
 20
252.458776737169
 30
0.0
 11
-506.9652295960735
 21
252.458776737169
 31
0.0
  0
LINE
  5
19B9
330
2
100
AcDbEntity
  8
画層1
 62
     0
370
    20
100
AcDbLine
 10
-508.9652295960735
 20
255.958776737169
 30
0.0
 11
-506.9652295960735
 21
255.958776737169
 31
0.0
  0
LINE
  5
19BA
330
2
100
AcDbEntity
  8
画層1
 62
     0
370
    20
100
AcDbLine
 10
-646.149543079372
 20
343.7087767371686
 30
0.0
 11
-646.149543079372
 21
354.208776737169
 31
0.0
  0
ARC
  5
19BB
330
2
100
AcDbEntity
  8
画層1
 62
     0
370
    20
100
AcDbCircle
 10
-644.1652295960736
 20
350.458776737169
 30
0.0
 40
2.0
100
AcDbArc
 50
90.0
 51
180.0
  0
LWPOLYLINE
  5
19BC
330
2
100
AcDbEntity
  8
画層1
 62
     0
370
    20
100
AcDbPolyline
 90
        4
 70
     1
 43
0.0
 10
-642.1652295960735
 20
355.958776737169
 10
-640.1652295960736
 20
355.958776737169
 10
-640.1652295960736
 20
341.958776737169
 10
-642.1652295960735
 20
341.958776737169
  0
ARC
  5
19BD
330
2
100
AcDbEntity
  8
画層1
 62
     0
370
    20
100
AcDbCircle
 10
-644.1652295960738
 20
343.9587767371689
 30
0.0
 40
1.999999999999886
100
AcDbArc
 50
187.1807557814688
 51
270.0000000000049
  0
LINE
  5
19BE
330
2
100
AcDbEntity
  8
画層1
 62
     0
370
    20
100
AcDbLine
 10
-644.1652295960737
 20
341.958776737169
 30
0.0
 11
-642.1652295960735
 21
341.958776737169
 31
0.0
  0
ARC
  5
19BF
330
2
100
AcDbEntity
  8
画層1
 62
     0
370
    20
100
AcDbCircle
 10
-644.1652295960734
 20
343.4587767371691
 30
0.0
 40
1.999999999999964
100
AcDbArc
 50
90.0
 51
172.819244218558
  0
LINE
  5
19C0
330
2
100
AcDbEntity
  8
画層1
 62
     0
370
    20
100
AcDbLine
 10
-646.1652295960735
 20
350.458776737169
 30
0.0
 11
-646.1652295960734
 21
347.458776737169
 31
0.0
  0
LINE
  5
19C1
330
2
100
AcDbEntity
  8
画層1
 62
     0
370
    20
100
AcDbLine
 10
-642.1652295960735
 20
345.458776737169
 30
0.0
 11
-644.1652295960734
 21
345.458776737169
 31
0.0
  0
ARC
  5
19C2
330
2
100
AcDbEntity
  8
画層1
 62
     0
370
    20
100
AcDbCircle
 10
-644.1652295960734
 20
347.458776737169
 30
0.0
 40
2.0
100
AcDbArc
 50
180.0
 51
270.0
  0
ARC
  5
19C3
330
2
100
AcDbEntity
  8
画層1
 62
     0
370
    20
100
AcDbCircle
 10
-644.1652295960737
 20
353.9587767371691
 30
0.0
 40
1.999999999999964
100
AcDbArc
 50
89.9999999999984
 51
172.8192442185448
  0
ARC
  5
19C4
330
2
100
AcDbEntity
  8
画層1
 62
     0
370
    20
100
AcDbCircle
 10
-644.1652295960737
 20
354.4587767371688
 30
0.0
 40
1.999999999999886
100
AcDbArc
 50
187.1807557814539
 51
270.0000000000032
  0
LINE
  5
19C5
330
2
100
AcDbEntity
  8
画層1
 62
     0
370
    20
100
AcDbLine
 10
-642.1652295960735
 20
352.458776737169
 30
0.0
 11
-644.1652295960736
 21
352.458776737169
 31
0.0
  0
LINE
  5
19C6
330
2
100
AcDbEntity
  8
画層1
 62
     0
370
    20
100
AcDbLine
 10
-642.1652295960735
 20
355.958776737169
 30
0.0
 11
-644.1652295960736
 21
355.958776737169
 31
0.0
  0
ARC
  5
19C7
330
2
100
AcDbEntity
  8
画層1
 62
     0
370
    20
100
AcDbCircle
 10
-644.1652295960738
 20
243.9587767371689
 30
0.0
 40
1.999999999999886
100
AcDbArc
 50
187.1807557814688
 51
270.0000000000049
  0
LWPOLYLINE
  5
19C8
330
2
100
AcDbEntity
  8
画層1
 62
     0
370
    20
100
AcDbPolyline
 90
        4
 70
     1
 43
0.0
 10
-642.1652295960735
 20
255.958776737169
 10
-640.1652295960736
 20
255.958776737169
 10
-640.1652295960736
 20
241.958776737169
 10
-642.1652295960735
 20
241.958776737169
  0
LINE
  5
19C9
330
2
100
AcDbEntity
  8
画層1
 62
     0
370
    20
100
AcDbLine
 10
-644.1652295960737
 20
241.958776737169
 30
0.0
 11
-642.1652295960735
 21
241.958776737169
 31
0.0
  0
ARC
  5
19CA
330
2
100
AcDbEntity
  8
画層1
 62
     0
370
    20
100
AcDbCircle
 10
-644.1652295960736
 20
250.458776737169
 30
0.0
 40
2.0
100
AcDbArc
 50
90.0
 51
180.0
  0
LINE
  5
19CB
330
2
100
AcDbEntity
  8
画層1
 62
     0
370
    20
100
AcDbLine
 10
-646.149543079372
 20
243.7087767371685
 30
0.0
 11
-646.149543079372
 21
254.2087767371689
 31
0.0
  0
ARC
  5
19CC
330
2
100
AcDbEntity
  8
画層1
 62
     0
370
    20
100
AcDbCircle
 10
-644.1652295960734
 20
247.458776737169
 30
0.0
 40
2.0
100
AcDbArc
 50
180.0
 51
270.0
  0
LINE
  5
19CD
330
2
100
AcDbEntity
  8
画層1
 62
     0
370
    20
100
AcDbLine
 10
-642.1652295960735
 20
245.458776737169
 30
0.0
 11
-644.1652295960734
 21
245.458776737169
 31
0.0
  0
LINE
  5
19CE
330
2
100
AcDbEntity
  8
画層1
 62
     0
370
    20
100
AcDbLine
 10
-646.1652295960735
 20
250.458776737169
 30
0.0
 11
-646.1652295960734
 21
247.458776737169
 31
0.0
  0
ARC
  5
19CF
330
2
100
AcDbEntity
  8
画層1
 62
     0
370
    20
100
AcDbCircle
 10
-644.1652295960734
 20
243.4587767371691
 30
0.0
 40
1.999999999999964
100
AcDbArc
 50
90.0
 51
172.819244218558
  0
LINE
  5
19D0
330
2
100
AcDbEntity
  8
画層1
 62
     0
370
    20
100
AcDbLine
 10
-642.1652295960735
 20
255.958776737169
 30
0.0
 11
-644.1652295960736
 21
255.958776737169
 31
0.0
  0
LINE
  5
19D1
330
2
100
AcDbEntity
  8
画層1
 62
     0
370
    20
100
AcDbLine
 10
-642.1652295960735
 20
252.458776737169
 30
0.0
 11
-644.1652295960736
 21
252.458776737169
 31
0.0
  0
ARC
  5
19D2
330
2
100
AcDbEntity
  8
画層1
 62
     0
370
    20
100
AcDbCircle
 10
-644.1652295960737
 20
254.4587767371688
 30
0.0
 40
1.999999999999886
100
AcDbArc
 50
187.1807557814539
 51
270.0000000000032
  0
ARC
  5
19D3
330
2
100
AcDbEntity
  8
画層1
 62
     0
370
    20
100
AcDbCircle
 10
-644.1652295960737
 20
253.9587767371691
 30
0.0
 40
1.999999999999964
100
AcDbArc
 50
89.9999999999984
 51
172.8192442185448
  0
LINE
  5
19D7
330
2
100
AcDbEntity
  8
画層1
 62
     0
370
    20
100
AcDbLine
 10
-343.1525790054881
 20
245.4587767371691
 30
0.0
 11
-343.1525790054882
 21
252.458776737169
 31
0.0
  0
LINE
  5
19D8
330
2
100
AcDbEntity
  8
画層1
 62
     0
370
    20
100
AcDbLine
 10
-331.0282233525059
 20
245.4587767371691
 30
0.0
 11
-331.028223352506
 21
252.458776737169
 31
0.0
  0
CIRCLE
  5
19D9
330
2
100
AcDbEntity
  8
画層1
 62
     0
370
    20
100
AcDbCircle
 10
-337.0904011789971
 20
248.958776737169
 30
0.0
 40
7.0
  0
LINE
  5
19DA
330
2
100
AcDbEntity
  8
画層1
 62
     0
370
    20
100
AcDbLine
 10
-337.0904011789971
 20
241.958776737169
 30
0.0
 11
-331.0282233525061
 21
245.458776737169
 31
0.0
  0
LINE
  5
19DB
330
2
100
AcDbEntity
  8
画層1
 62
     0
370
    20
100
AcDbLine
 10
-343.1525790054881
 20
245.458776737169
 30
0.0
 11
-337.0904011789971
 21
241.958776737169
 31
0.0
  0
LINE
  5
19DC
330
2
100
AcDbEntity
  8
画層1
 62
     0
370
    20
100
AcDbLine
 10
-343.1525790054883
 20
252.4587767371689
 30
0.0
 11
-337.0904011789971
 21
255.958776737169
 31
0.0
  0
LINE
  5
19DD
330
2
100
AcDbEntity
  8
画層1
 62
     0
370
    20
100
AcDbLine
 10
-337.0904011789971
 20
255.958776737169
 30
0.0
 11
-331.028223352506
 21
252.458776737169
 31
0.0
  0
LINE
  5
19E7
330
2
100
AcDbEntity
  8
画層1
 62
     0
370
    20
100
AcDbLine
 10
-510.9652295960735
 20
135.9587767371689
 30
0.0
 11
-509.9652295960734
 21
135.9587767371689
 31
0.0
  0
LINE
  5
19E8
330
2
100
AcDbEntity
  8
画層1
 62
     0
370
    20
100
AcDbLine
 10
-507.9652295960734
 20
137.9587767371689
 30
0.0
 11
-507.9652295960735
 21
139.958776737169
 31
0.0
  0
LINE
  5
19E9
330
2
100
AcDbEntity
  8
画層1
 62
     0
370
    20
100
AcDbLine
 10
-509.9652295960735
 20
141.9587767371689
 30
0.0
 11
-510.9652295960735
 21
141.9587767371689
 31
0.0
  0
CIRCLE
  5
19EA
330
2
100
AcDbEntity
  8
画層1
 62
     0
370
    20
100
AcDbCircle
 10
-253.5904011789971
 20
138.9587767371689
 30
0.0
 40
3.0
  0
ARC
  5
19EC
330
2
100
AcDbEntity
  8
画層1
 62
     0
370
    20
100
AcDbCircle
 10
-509.9652295960734
 20
137.9587767371689
 30
0.0
 40
2.0
100
AcDbArc
 50
270.0
 51
0.0
  0
ARC
  5
19ED
330
2
100
AcDbEntity
  8
画層1
 62
     0
370
    20
100
AcDbCircle
 10
-509.9652295960735
 20
139.9587767371689
 30
0.0
 40
2.0
100
AcDbArc
 50
0.0000000000008142
 51
90.0
  0
LINE
  5
19F4
330
2
100
AcDbEntity
  8
画層1
 62
     0
370
    20
100
AcDbLine
 10
-507.9652295960735
 20
137.958776737169
 30
0.0
 11
-507.9652295960734
 21
138.4587767371689
 31
0.0
  0
LINE
  5
19F5
330
2
100
AcDbEntity
  8
画層1
 62
     0
370
    20
100
AcDbLine
 10
-507.9652295960734
 20
138.4587767371689
 30
0.0
 11
-508.9652295960735
 21
138.4587767371689
 31
0.0
  0
LINE
  5
19F6
330
2
100
AcDbEntity
  8
画層1
 62
     0
370
    20
100
AcDbLine
 10
-508.9652295960735
 20
138.4587767371689
 30
0.0
 11
-508.9652295960735
 21
139.4587767371689
 31
0.0
  0
LINE
  5
19F7
330
2
100
AcDbEntity
  8
画層1
 62
     0
370
    20
100
AcDbLine
 10
-508.9652295960735
 20
139.4587767371689
 30
0.0
 11
-507.9652295960735
 21
139.4587767371689
 31
0.0
  0
LINE
  5
19F8
330
2
100
AcDbEntity
  8
画層1
 62
     0
370
    20
100
AcDbLine
 10
-507.9652295960735
 20
139.4587767371689
 30
0.0
 11
-507.9652295960735
 21
139.9587767371689
 31
0.0
  0
LINE
  5
19F9
330
2
100
AcDbEntity
  8
画層1
 62
     0
370
    20
100
AcDbLine
 10
-643.1652295960735
 20
139.4587767371689
 30
0.0
 11
-643.1652295960735
 21
139.9587767371689
 31
0.0
  0
LINE
  5
19FA
330
2
100
AcDbEntity
  8
画層1
 62
     0
370
    20
100
AcDbLine
 10
-642.1652295960736
 20
139.4587767371689
 30
0.0
 11
-643.1652295960735
 21
139.4587767371689
 31
0.0
  0
LINE
  5
19FB
330
2
100
AcDbEntity
  8
画層1
 62
     0
370
    20
100
AcDbLine
 10
-642.1652295960736
 20
138.4587767371689
 30
0.0
 11
-642.1652295960736
 21
139.4587767371689
 31
0.0
  0
LINE
  5
19FC
330
2
100
AcDbEntity
  8
画層1
 62
     0
370
    20
100
AcDbLine
 10
-643.1652295960737
 20
138.4587767371689
 30
0.0
 11
-642.1652295960736
 21
138.4587767371689
 31
0.0
  0
LINE
  5
19FD
330
2
100
AcDbEntity
  8
画層1
 62
     0
370
    20
100
AcDbLine
 10
-643.1652295960735
 20
137.958776737169
 30
0.0
 11
-643.1652295960737
 21
138.4587767371689
 31
0.0
  0
LINE
  5
19FE
330
2
100
AcDbEntity
  8
画層1
 62
     0
370
    20
100
AcDbLine
 10
-641.1652295960736
 20
141.9587767371689
 30
0.0
 11
-640.1652295960736
 21
141.9587767371689
 31
0.0
  0
LINE
  5
19FF
330
2
100
AcDbEntity
  8
画層1
 62
     0
370
    20
100
AcDbLine
 10
-643.1652295960737
 20
137.9587767371689
 30
0.0
 11
-643.1652295960735
 21
139.958776737169
 31
0.0
  0
ARC
  5
1A00
330
2
100
AcDbEntity
  8
画層1
 62
     0
370
    20
100
AcDbCircle
 10
-641.1652295960736
 20
139.9587767371689
 30
0.0
 40
2.0
100
AcDbArc
 50
90.0
 51
179.9999999999991
  0
LINE
  5
1A01
330
2
100
AcDbEntity
  8
画層1
 62
     0
370
    20
100
AcDbLine
 10
-640.1652295960736
 20
135.9587767371689
 30
0.0
 11
-641.1652295960736
 21
135.9587767371689
 31
0.0
  0
ARC
  5
1A02
330
2
100
AcDbEntity
  8
画層1
 62
     0
370
    20
100
AcDbCircle
 10
-641.1652295960736
 20
137.9587767371689
 30
0.0
 40
2.0
100
AcDbArc
 50
180.0
 51
270.0
  0
LINE
  5
1A0C
330
2
100
AcDbEntity
  8
画層1
 62
     0
370
    20
100
AcDbLine
 10
-253.0904011789971
 20
137.4587767371689
 30
0.0
 11
-254.0904011789971
 21
137.4587767371689
 31
0.0
  0
LINE
  5
1A0D
330
2
100
AcDbEntity
  8
画層1
 62
     0
370
    20
100
AcDbLine
 10
-254.0904011789971
 20
137.4587767371689
 30
0.0
 11
-254.0904011789971
 21
138.4587767371689
 31
0.0
  0
LINE
  5
1A0E
330
2
100
AcDbEntity
  8
画層1
 62
     0
370
    20
100
AcDbLine
 10
-252.0904011789971
 20
138.4587767371689
 30
0.0
 11
-253.0904011789971
 21
138.4587767371689
 31
0.0
  0
LINE
  5
1A0F
330
2
100
AcDbEntity
  8
画層1
 62
     0
370
    20
100
AcDbLine
 10
-255.0904011789971
 20
138.4587767371689
 30
0.0
 11
-255.0904011789971
 21
139.4587767371689
 31
0.0
  0
LINE
  5
1A10
330
2
100
AcDbEntity
  8
画層1
 62
     0
370
    20
100
AcDbLine
 10
-255.0904011789971
 20
139.4587767371689
 30
0.0
 11
-254.0904011789971
 21
139.4587767371689
 31
0.0
  0
LINE
  5
1A11
330
2
100
AcDbEntity
  8
画層1
 62
     0
370
    20
100
AcDbLine
 10
-254.0904011789971
 20
139.4587767371689
 30
0.0
 11
-254.0904011789971
 21
140.4587767371689
 31
0.0
  0
LINE
  5
1A12
330
2
100
AcDbEntity
  8
画層1
 62
     0
370
    20
100
AcDbLine
 10
-254.0904011789971
 20
140.4587767371689
 30
0.0
 11
-253.0904011789971
 21
140.4587767371689
 31
0.0
  0
LINE
  5
1A13
330
2
100
AcDbEntity
  8
画層1
 62
     0
370
    20
100
AcDbLine
 10
-253.0904011789971
 20
140.4587767371689
 30
0.0
 11
-253.0904011789971
 21
139.4587767371689
 31
0.0
  0
LINE
  5
1A14
330
2
100
AcDbEntity
  8
画層1
 62
     0
370
    20
100
AcDbLine
 10
-253.0904011789971
 20
139.4587767371689
 30
0.0
 11
-252.0904011789971
 21
139.4587767371689
 31
0.0
  0
LINE
  5
1A15
330
2
100
AcDbEntity
  8
画層1
 62
     0
370
    20
100
AcDbLine
 10
-252.0904011789971
 20
139.4587767371689
 30
0.0
 11
-252.0904011789971
 21
138.4587767371689
 31
0.0
  0
LINE
  5
1A16
330
2
100
AcDbEntity
  8
画層1
 62
     0
370
    20
100
AcDbLine
 10
-254.0904011789971
 20
138.4587767371689
 30
0.0
 11
-255.0904011789971
 21
138.4587767371689
 31
0.0
  0
LINE
  5
1A17
330
2
100
AcDbEntity
  8
画層1
 62
     0
370
    20
100
AcDbLine
 10
-253.0904011789971
 20
138.4587767371689
 30
0.0
 11
-253.0904011789971
 21
137.4587767371689
 31
0.0
  0
LINE
  5
1A1E
330
2
100
AcDbEntity
  8
画層1
 62
     0
370
    20
100
AcDbLine
 10
-407.090401178997
 20
111.958776737169
 30
0.0
 11
-407.0904011789971
 21
375.9587767371689
 31
0.0
  0
LINE
  5
1A1F
330
2
100
AcDbEntity
  8
画層1
 62
     0
370
    20
100
AcDbLine
 10
-407.0904011789971
 20
375.9587767371689
 30
0.0
 11
-399.0904011789971
 21
383.9587767371689
 31
0.0
  0
LINE
  5
1A21
330
2
100
AcDbEntity
  8
画層1
 62
     0
370
    20
100
AcDbLine
 10
-407.090401178997
 20
111.958776737169
 30
0.0
 11
-399.090401178997
 21
103.958776737169
 31
0.0
  0
LINE
  5
1A6F
330
2
100
AcDbEntity
  8
画層1
370
    20
100
AcDbLine
 10
-436.0904011789971
 20
218.458776737169
 30
0.0
 11
-436.0904011789971
 21
219.958776737169
 31
0.0
  0
LINE
  5
1A70
330
2
100
AcDbEntity
  8
画層1
 62
     0
370
    20
100
AcDbLine
 10
-436.0904011789971
 20
219.958776737169
 30
0.0
 11
-414.090401178997
 21
219.958776737169
 31
0.0
  0
LINE
  5
1A72
330
2
100
AcDbEntity
  8
画層1
 62
     0
370
    20
100
AcDbLine
 10
-436.0904011789971
 20
373.958776737169
 30
0.0
 11
-414.090401178997
 21
373.958776737169
 31
0.0
  0
ARC
  5
1A73
330
2
100
AcDbEntity
  8
画層1
 62
     0
370
    20
100
AcDbCircle
 10
-414.090401178997
 20
221.958776737169
 30
0.0
 40
2.0
100
AcDbArc
 50
270.0
 51
0.0000000000000127
  0
ARC
  5
1A74
330
2
100
AcDbEntity
  8
画層1
 62
     0
370
    20
100
AcDbCircle
 10
-414.090401178997
 20
371.958776737169
 30
0.0
 40
2.0
100
AcDbArc
 50
0.0
 51
90.0
  0
CIRCLE
  5
1A78
330
2
100
AcDbEntity
  8
画層1
 62
     0
370
    20
100
AcDbCircle
 10
-534.5652295960735
 20
203.958776737169
 30
0.0
 40
8.5
  0
LINE
  5
1A79
330
2
100
AcDbEntity
  8
画層1
 62
     0
370
    20
100
AcDbLine
 10
-655.5652295960735
 20
379.958776737169
 30
0.0
 11
-651.5652295960735
 21
383.958776737169
 31
0.0
  0
LINE
  5
1A7A
330
2
100
AcDbEntity
  8
画層1
 62
     0
370
    20
100
AcDbLine
 10
-499.5652295960734
 20
383.958776737169
 30
0.0
 11
-495.5652295960734
 21
379.958776737169
 31
0.0
  0
LINE
  5
1A7B
330
2
100
AcDbEntity
  8
画層1
 62
     0
370
    20
100
AcDbLine
 10
-655.5652295960735
 20
107.958776737169
 30
0.0
 11
-651.5652295960735
 21
103.958776737169
 31
0.0
  0
LINE
  5
1A7C
330
2
100
AcDbEntity
  8
画層1
 62
     0
370
    20
100
AcDbLine
 10
-499.5652295960735
 20
103.958776737169
 30
0.0
 11
-495.5652295960735
 21
107.958776737169
 31
0.0
  0
DIMENSION
  5
1A7D
330
2
100
AcDbEntity
  8
画層1
 62
     0
370
    20
100
AcDbDimension
  2
*D3
 10
-495.5652295960734
 20
410.8857709975017
 30
0.0
 11
-575.5652295960735
 21
413.1357709975017
 31
0.0
 70
    32
 71
     5
 42
160.0
  3
STANDARD_WS
100
AcDbAlignedDimension
 13
-655.5652295960735
 23
379.958776737169
 33
0.0
 14
-495.5652295960734
 24
379.958776737169
 34
0.0
100
AcDbRotatedDimension
1001
ACAD
1000
DSTYLE
1002
{
1070
    47
1040
0.6
1070
   140
1040
50.0
1070
   146
1040
0.5
1070
   147
1040
1.0
1070
   173
1070
     0
1070
   271
1070
     0
1070
   272
1070
     0
1070
   284
1070
     8
1070
   341
1005
28
1070
   342
1005
28
1070
   343
1005
0
1070
   344
1005
0
1002
}
  0
DIMENSION
  5
1A8A
330
2
100
AcDbEntity
  8
画層1
 62
     0
370
    20
100
AcDbDimension
  2
*D4
 10
-503.0652295960735
 20
401.1835448414101
 30
0.0
 11
-575.5652295960735
 21
403.4335448414101
 31
0.0
 70
    32
 71
     5
 42
145.0
  3
STANDARD_WS
100
AcDbAlignedDimension
 13
-648.0652295960735
 23
363.9587767371689
 33
0.0
 14
-503.0652295960735
 24
363.9587767371689
 34
0.0
100
AcDbRotatedDimension
1001
ACAD
1000
DSTYLE
1002
{
1070
    47
1040
0.6
1070
   140
1040
50.0
1070
   146
1040
0.5
1070
   147
1040
1.0
1070
   173
1070
     0
1070
   271
1070
     0
1070
   272
1070
     0
1070
   284
1070
     8
1070
   341
1005
28
1070
   342
1005
28
1070
   343
1005
0
1070
   344
1005
0
1002
}
  0
DIMENSION
  5
1A97
330
2
100
AcDbEntity
  8
画層1
 62
     0
370
    20
100
AcDbDimension
  2
*D5
 10
-484.3717442639985
 20
360.458776737169
 30
0.0
 11
-484.3717442639986
 21
370.6399565124498
 31
0.0
 70
   160
 71
     5
 42
7.0
  3
STANDARD_WS
100
AcDbAlignedDimension
 13
-495.5652295960735
 23
367.458776737169
 33
0.0
 14
-495.5652295960735
 24
360.458776737169
 34
0.0
 50
90.0
100
AcDbRotatedDimension
1001
ACAD
1000
DSTYLE
1002
{
1070
    47
1040
0.6
1070
   140
1040
50.0
1070
   146
1040
0.5
1070
   147
1040
1.0
1070
   173
1070
     0
1070
   271
1070
     0
1070
   272
1070
     0
1070
   284
1070
     8
1070
   341
1005
28
1070
   342
1005
28
1070
   343
1005
0
1070
   344
1005
0
1002
}
  0
DIMENSION
  5
1AA4
330
2
100
AcDbEntity
  8
画層1
 62
     0
370
    20
100
AcDbDimension
  2
*D6
 10
-475.9980064546666
 20
363.9587767371689
 30
0.0
 11
-478.2480064546667
 21
243.9587767371689
 31
0.0
 70
    32
 71
     5
 42
240.0
  3
STANDARD_WS
100
AcDbAlignedDimension
 13
-503.0652295960735
 23
123.9587767371689
 33
0.0
 14
-503.0652295960735
 24
363.9587767371689
 34
0.0
 50
90.0
100
AcDbRotatedDimension
1001
ACAD
1000
DSTYLE
1002
{
1070
    47
1040
0.6
1070
   140
1040
50.0
1070
   146
1040
0.5
1070
   147
1040
1.0
1070
   173
1070
     0
1070
   271
1070
     0
1070
   272
1070
     0
1070
   284
1070
     8
1070
   341
1005
28
1070
   342
1005
28
1070
   343
1005
0
1070
   344
1005
0
1002
}
  0
DIMENSION
  5
1ADF
330
2
100
AcDbEntity
  8
画層1
 62
     0
370
    20
100
AcDbDimension
  2
*D7
 10
-465.9494593255026
 20
383.958776737169
 30
0.0
 11
-468.1994593255026
 21
243.9587767371689
 31
0.0
 70
    32
 71
     5
 42
280.0
  3
STANDARD_WS
100
AcDbAlignedDimension
 13
-499.5652295960735
 23
103.958776737169
 33
0.0
 14
-499.5652295960734
 24
383.958776737169
 34
0.0
 50
90.0
100
AcDbRotatedDimension
1001
ACAD
1000
DSTYLE
1002
{
1070
    47
1040
0.6
1070
   140
1040
50.0
1070
   146
1040
0.5
1070
   147
1040
1.0
1070
   173
1070
     0
1070
   271
1070
     0
1070
   272
1070
     0
1070
   284
1070
     8
1070
   341
1005
28
1070
   342
1005
28
1070
   343
1005
0
1070
   344
1005
0
1002
}
  0
DIMENSION
  5
1AEC
330
2
100
AcDbEntity
  8
画層1
 62
     0
370
    20
100
AcDbDimension
  2
*D8
 10
-247.0904011789971
 20
398.0648209747699
 30
0.0
 11
-342.0904011789971
 21
400.3148209747699
 31
0.0
 70
    32
 71
     5
 42
190.0
  3
STANDARD_WS
100
AcDbAlignedDimension
 13
-437.0904011789971
 23
376.458776737169
 33
0.0
 14
-247.0904011789971
 24
383.9587767371691
 34
0.0
100
AcDbRotatedDimension
1001
ACAD
1000
DSTYLE
1002
{
1070
    47
1040
0.6
1070
   140
1040
50.0
1070
   146
1040
0.5
1070
   147
1040
1.0
1070
   173
1070
     0
1070
   271
1070
     0
1070
   272
1070
     0
1070
   284
1070
     8
1070
   341
1005
28
1070
   342
1005
28
1070
   343
1005
0
1070
   344
1005
0
1002
}
  0
TEXT
  5
1AF9
330
2
100
AcDbEntity
  8
画層1
 62
     0
370
    20
100
AcDbText
 10
-488.4837263916097
 20
73.05805140051581
 30
0.0
 40
10.0
  1
PAC30Z 20A,30A,45A
  7
STYLE1
100
AcDbText
  0
ENDSEC
  0
SECTION
  2
OBJECTS
  0
DICTIONARY
  5
9
330
0
100
AcDbDictionary
281
     1
  3
ACAD_GROUP
350
23
  3
ACAD_LAYOUT
350
D
  3
ACAD_MLINESTYLE
350
24
  3
ACAD_PLOTSETTINGS
350
25
  3
ACAD_PLOTSTYLENAME
350
8
  3
AcDbVariableDictionary
350
115B
  3
DWGPROPS
350
B1B
  0
DICTIONARY
  5
3
330
2
100
AcDbDictionary
280
     1
281
     1
  0
DICTIONARY
  5
F
330
E
100
AcDbDictionary
280
     1
281
     1
  0
DICTIONARY
  5
23
102
{ACAD_REACTORS
330
9
102
}
330
9
100
AcDbDictionary
281
     1
  0
DICTIONARY
  5
D
102
{ACAD_REACTORS
330
9
102
}
330
9
100
AcDbDictionary
281
     1
  3
Model
350
560
  3
ﾚｲｱｳﾄ1
350
561
  0
DICTIONARY
  5
24
102
{ACAD_REACTORS
330
9
102
}
330
9
100
AcDbDictionary
281
     1
  3
STANDARD
350
34
  0
DICTIONARY
  5
25
102
{ACAD_REACTORS
330
9
102
}
330
9
100
AcDbDictionary
281
     1
  0
ACDBDICTIONARYWDFLT
  5
8
102
{ACAD_REACTORS
330
9
102
}
330
9
100
AcDbDictionary
281
     1
  3
Normal
350
7
100
AcDbDictionaryWithDefault
340
7
  0
DICTIONARY
  5
115B
102
{ACAD_REACTORS
330
9
102
}
330
9
100
AcDbDictionary
281
     1
  3
SORTENTS
350
115C
  0
XRECORD
  5
B1B
102
{ACAD_REACTORS
330
9
102
}
330
9
100
AcDbXrecord
280
     1
  1
DWGPROPS COOKIE
  2

  3

  4

  6

  7

  8

  9

300
=
301
=
302
=
303
=
304
=
305
=
306
=
307
=
308
=
309
=
 40
3.889878958333333
 41
2450995.462150231
 42
2454049.770371816
  1

 90
        0
  0
LAYOUT
  5
560
102
{ACAD_REACTORS
330
D
102
}
330
D
100
AcDbPlotSettings
  1

  2
DocuPrint 360
  4
A3
  6

 40
5.238749980926513
 41
5.238728046417236
 42
5.32342529296875
 43
5.238739013671875
 44
296.9683227539062
 45
419.9889831542968
 46
0.0
 47
0.0
 48
0.0
 49
0.0
140
0.0
141
0.0
142
1.0
143
1.0
 70
 11952
 72
     1
 73
     1
 74
     1
  7

 75
    16
147
1.0
148
643.5922839751201
149
-108.5339784519811
100
AcDbLayout
  1
Model
 70
     1
 71
     0
 10
0.0
 20
0.0
 11
12.0
 21
9.0
 12
0.0
 22
0.0
 32
0.0
 14
0.0
 24
0.0
 34
0.0
 15
0.0
 25
0.0
 35
0.0
146
0.0
 13
0.0
 23
0.0
 33
0.0
 16
1.0
 26
0.0
 36
0.0
 17
0.0
 27
1.0
 37
0.0
 76
     0
330
2
  0
LAYOUT
  5
561
102
{ACAD_REACTORS
330
D
102
}
330
D
100
AcDbPlotSettings
  1

  2
EPSON MJ-6000C
  4

  6

 40
0.0
 41
0.0
 42
0.0
 43
0.0
 44
0.0
 45
0.0
 46
0.0
 47
0.0
 48
0.0
 49
0.0
140
0.0
141
0.0
142
1.0
143
1.0
 70
   688
 72
     0
 73
     0
 74
     5
  7

 75
    16
147
1.0
148
0.0
149
0.0
100
AcDbLayout
  1
ﾚｲｱｳﾄ1
 70
     1
 71
     1
 10
0.0
 20
0.0
 11
420.0
 21
297.0
 12
0.0
 22
0.0
 32
0.0
 14
1.000000000000000E+20
 24
1.000000000000000E+20
 34
1.000000000000000E+20
 15
-1.000000000000000E+20
 25
-1.000000000000000E+20
 35
-1.000000000000000E+20
146
0.0
 13
0.0
 23
0.0
 33
0.0
 16
1.0
 26
0.0
 36
0.0
 17
0.0
 27
1.0
 37
0.0
 76
     0
330
E
  0
MLINESTYLE
  5
34
102
{ACAD_REACTORS
330
24
102
}
330
24
100
AcDbMlineStyle
  2
STANDARD
 70
     0
  3

 62
   256
 51
90.0
 52
90.0
 71
     2
 49
0.5
 62
   256
  6
BYLAYER
 49
-0.5
 62
   256
  6
BYLAYER
  0
ACDBPLACEHOLDER
  5
7
102
{ACAD_REACTORS
330
8
102
}
330
8
  0
DICTIONARYVAR
  5
115C
102
{ACAD_REACTORS
330
115B
102
}
330
115B
100
DictionaryVariables
280
     0
  1
96
  0
ENDSEC
  0
EOF
