  0
SECTION
  2
HEADER
  9
$ACADVER
  1
AC1015
  9
$ACADMAINTVER
 70
     6
  9
$DWGCODEPAGE
  3
ANSI_932
  9
$INSBASE
 10
0.0
 20
0.0
 30
0.0
  9
$EXTMIN
 10
39.57
 20
137.7971065989847
 30
0.0
  9
$EXTMAX
 10
545.36
 20
438.8118781725887
 30
0.0
  9
$LIMMIN
 10
0.0
 20
0.0
  9
$LIMMAX
 10
420.0
 20
297.0
  9
$ORTHOMODE
 70
     0
  9
$REGENMODE
 70
     1
  9
$FILLMODE
 70
     1
  9
$QTEXTMODE
 70
     0
  9
$MIRRTEXT
 70
     1
  9
$LTSCALE
 40
0.2
  9
$ATTMODE
 70
     1
  9
$TEXTSIZE
 40
2.5
  9
$TRACEWID
 40
1.0
  9
$TEXTSTYLE
  7
STYLE1
  9
$CLAYER
  8
画層1
  9
$CELTYPE
  6
BYLAYER
  9
$CECOLOR
 62
     1
  9
$CELTSCALE
 40
1.0
  9
$DISPSILH
 70
     0
  9
$DIMSCALE
 40
1.0
  9
$DIMASZ
 40
1.5
  9
$DIMEXO
 40
0.63
  9
$DIMDLI
 40
3.75
  9
$DIMRND
 40
0.0
  9
$DIMDLE
 40
0.0
  9
$DIMEXE
 40
1.25
  9
$DIMTP
 40
0.6
  9
$DIMTM
 40
0.0
  9
$DIMTXT
 40
2.5
  9
$DIMCEN
 40
2.5
  9
$DIMTSZ
 40
0.0
  9
$DIMTOL
 70
     0
  9
$DIMLIM
 70
     0
  9
$DIMTIH
 70
     0
  9
$DIMTOH
 70
     0
  9
$DIMSE1
 70
     0
  9
$DIMSE2
 70
     0
  9
$DIMTAD
 70
     1
  9
$DIMZIN
 70
     8
  9
$DIMBLK
  1
OPEN30
  9
$DIMASO
 70
     1
  9
$DIMSHO
 70
     1
  9
$DIMPOST
  1

  9
$DIMAPOST
  1

  9
$DIMALT
 70
     0
  9
$DIMALTD
 70
     4
  9
$DIMALTF
 40
0.04
  9
$DIMLFAC
 40
2.0
  9
$DIMTOFL
 70
     1
  9
$DIMTVP
 40
0.0
  9
$DIMTIX
 70
     0
  9
$DIMSOXD
 70
     0
  9
$DIMSAH
 70
     0
  9
$DIMBLK1
  1
OPEN30
  9
$DIMBLK2
  1
OPEN
  9
$DIMSTYLE
  2
STANDARD_WS
  9
$DIMCLRD
 70
     0
  9
$DIMCLRE
 70
     0
  9
$DIMCLRT
 70
     0
  9
$DIMTFAC
 40
0.5
  9
$DIMGAP
 40
0.63
  9
$DIMJUST
 70
     0
  9
$DIMSD1
 70
     0
  9
$DIMSD2
 70
     0
  9
$DIMTOLJ
 70
     1
  9
$DIMTZIN
 70
     8
  9
$DIMALTZ
 70
     0
  9
$DIMALTTZ
 70
     0
  9
$DIMUPT
 70
     0
  9
$DIMDEC
 70
     4
  9
$DIMTDEC
 70
     4
  9
$DIMALTU
 70
     8
  9
$DIMALTTD
 70
     4
  9
$DIMTXSTY
  7
STYLE1
  9
$DIMAUNIT
 70
     0
  9
$DIMADEC
 70
     0
  9
$DIMALTRND
 40
0.0
  9
$DIMAZIN
 70
     0
  9
$DIMDSEP
 70
    46
  9
$DIMATFIT
 70
     3
  9
$DIMFRAC
 70
     0
  9
$DIMLDRBLK
  1
OPEN30
  9
$DIMLUNIT
 70
     2
  9
$DIMLWD
 70
    -2
  9
$DIMLWE
 70
    -2
  9
$DIMTMOVE
 70
     0
  9
$LUNITS
 70
     2
  9
$LUPREC
 70
     4
  9
$SKETCHINC
 40
1.0
  9
$FILLETRAD
 40
2.0
  9
$AUNITS
 70
     0
  9
$AUPREC
 70
     0
  9
$MENU
  1
acad
  9
$ELEVATION
 40
0.0
  9
$PELEVATION
 40
0.0
  9
$THICKNESS
 40
0.0
  9
$LIMCHECK
 70
     0
  9
$CHAMFERA
 40
10.0
  9
$CHAMFERB
 40
10.0
  9
$CHAMFERC
 40
20.0
  9
$CHAMFERD
 40
0.0
  9
$SKPOLY
 70
     0
  9
$TDCREATE
 40
2450995.462150231
  9
$TDUCREATE
 40
2450995.087150231
  9
$TDUPDATE
 40
2451964.721375115
  9
$TDUUPDATE
 40
2451964.346375115
  9
$TDINDWG
 40
4.4399510417
  9
$TDUSRTIMER
 40
4.4399491898
  9
$USRTIMER
 70
     1
  9
$ANGBASE
 50
0.0
  9
$ANGDIR
 70
     0
  9
$PDMODE
 70
     0
  9
$PDSIZE
 40
0.0
  9
$PLINEWID
 40
0.6
  9
$SPLFRAME
 70
     0
  9
$SPLINETYPE
 70
     6
  9
$SPLINESEGS
 70
     8
  9
$HANDSEED
  5
768
  9
$SURFTAB1
 70
     6
  9
$SURFTAB2
 70
     6
  9
$SURFTYPE
 70
     6
  9
$SURFU
 70
     6
  9
$SURFV
 70
     6
  9
$UCSBASE
  2

  9
$UCSNAME
  2

  9
$UCSORG
 10
0.0
 20
0.0
 30
0.0
  9
$UCSXDIR
 10
1.0
 20
0.0
 30
0.0
  9
$UCSYDIR
 10
0.0
 20
1.0
 30
0.0
  9
$UCSORTHOREF
  2

  9
$UCSORTHOVIEW
 70
     0
  9
$UCSORGTOP
 10
0.0
 20
0.0
 30
0.0
  9
$UCSORGBOTTOM
 10
0.0
 20
0.0
 30
0.0
  9
$UCSORGLEFT
 10
0.0
 20
0.0
 30
0.0
  9
$UCSORGRIGHT
 10
0.0
 20
0.0
 30
0.0
  9
$UCSORGFRONT
 10
0.0
 20
0.0
 30
0.0
  9
$UCSORGBACK
 10
0.0
 20
0.0
 30
0.0
  9
$PUCSBASE
  2

  9
$PUCSNAME
  2

  9
$PUCSORG
 10
0.0
 20
0.0
 30
0.0
  9
$PUCSXDIR
 10
1.0
 20
0.0
 30
0.0
  9
$PUCSYDIR
 10
0.0
 20
1.0
 30
0.0
  9
$PUCSORTHOREF
  2

  9
$PUCSORTHOVIEW
 70
     0
  9
$PUCSORGTOP
 10
0.0
 20
0.0
 30
0.0
  9
$PUCSORGBOTTOM
 10
0.0
 20
0.0
 30
0.0
  9
$PUCSORGLEFT
 10
0.0
 20
0.0
 30
0.0
  9
$PUCSORGRIGHT
 10
0.0
 20
0.0
 30
0.0
  9
$PUCSORGFRONT
 10
0.0
 20
0.0
 30
0.0
  9
$PUCSORGBACK
 10
0.0
 20
0.0
 30
0.0
  9
$USERI1
 70
     0
  9
$USERI2
 70
     0
  9
$USERI3
 70
     0
  9
$USERI4
 70
     0
  9
$USERI5
 70
     0
  9
$USERR1
 40
0.0
  9
$USERR2
 40
0.0
  9
$USERR3
 40
0.0
  9
$USERR4
 40
0.0
  9
$USERR5
 40
0.0
  9
$WORLDVIEW
 70
     1
  9
$SHADEDGE
 70
     3
  9
$SHADEDIF
 70
    70
  9
$TILEMODE
 70
     1
  9
$MAXACTVP
 70
    48
  9
$PINSBASE
 10
0.0
 20
0.0
 30
0.0
  9
$PLIMCHECK
 70
     0
  9
$PEXTMIN
 10
1.000000000000000E+20
 20
1.000000000000000E+20
 30
1.000000000000000E+20
  9
$PEXTMAX
 10
-1.000000000000000E+20
 20
-1.000000000000000E+20
 30
-1.000000000000000E+20
  9
$PLIMMIN
 10
0.0
 20
0.0
  9
$PLIMMAX
 10
420.0
 20
297.0
  9
$UNITMODE
 70
     0
  9
$VISRETAIN
 70
     1
  9
$PLINEGEN
 70
     0
  9
$PSLTSCALE
 70
     1
  9
$TREEDEPTH
 70
  3020
  9
$CMLSTYLE
  2
STANDARD
  9
$CMLJUST
 70
     0
  9
$CMLSCALE
 40
20.0
  9
$PROXYGRAPHICS
 70
     1
  9
$MEASUREMENT
 70
     1
  9
$CELWEIGHT
370
    -1
  9
$ENDCAPS
280
     0
  9
$JOINSTYLE
280
     0
  9
$LWDISPLAY
290
     0
  9
$INSUNITS
 70
     0
  9
$HYPERLINKBASE
  1

  9
$STYLESHEET
  1

  9
$XEDIT
290
     1
  9
$CEPSNTYPE
380
     0
  9
$PSTYLEMODE
290
     1
  9
$FINGERPRINTGUID
  2
{12426522-B208-11D3-A790-004026173390}
  9
$VERSIONGUID
  2
{45B3414A-09AF-11D5-8D55-0060949B1DAC}
  9
$EXTNAMES
290
     1
  9
$PSVPSCALE
 40
0.0
  9
$OLESTARTUP
290
     0
  0
ENDSEC
  0
SECTION
  2
CLASSES
  0
CLASS
  1
DICTIONARYVAR
  2
AcDbDictionaryVar
  3
AutoCAD 2000
 90
        0
280
     0
281
     0
  0
CLASS
  1
LWPOLYLINE
  2
AcDbPolyline
  3
AutoCAD 2000
 90
    32768
280
     0
281
     1
  0
CLASS
  1
OLE2FRAME
  2
AcDbOle2Frame
  3
AutoCAD 2000
 90
    32768
280
     0
281
     1
  0
CLASS
  1
HATCH
  2
AcDbHatch
  3
AutoCAD 2000
 90
    32768
280
     0
281
     1
  0
CLASS
  1
ACDBDICTIONARYWDFLT
  2
AcDbDictionaryWithDefault
  3
AutoCAD 2000
 90
        0
280
     0
281
     0
  0
CLASS
  1
ACDBPLACEHOLDER
  2
AcDbPlaceHolder
  3
AutoCAD 2000
 90
        0
280
     0
281
     0
  0
CLASS
  1
LAYOUT
  2
AcDbLayout
  3
AutoCAD 2000
 90
        0
280
     0
281
     0
  0
ENDSEC
  0
SECTION
  2
TABLES
  0
TABLE
  2
VPORT
  5
1A
330
0
100
AcDbSymbolTable
 70
     2
  0
VPORT
  5
767
330
1A
100
AcDbSymbolTableRecord
100
AcDbViewportTableRecord
  2
*Active
 70
     0
 10
0.0
 20
0.0
 11
1.0
 21
1.0
 12
133.3600000000001
 22
206.8483414790997
 13
0.0
 23
0.0
 14
1.0
 24
1.0
 15
2.0
 25
2.0
 16
0.0
 26
0.0
 36
1.0
 17
0.0
 27
0.0
 37
0.0
 40
615.5966829581995
 41
1.840236686390532
 42
50.0
 43
0.0
 44
0.0
 50
0.0
 51
0.0
 71
     0
 72
   100
 73
     1
 74
     1
 75
     0
 76
     0
 77
     0
 78
     0
281
     0
 65
     1
110
0.0
120
0.0
130
0.0
111
1.0
121
0.0
131
0.0
112
0.0
122
1.0
132
0.0
 79
     0
146
0.0
  0
ENDTAB
  0
TABLE
  2
LTYPE
  5
15
330
0
100
AcDbSymbolTable
 70
     3
  0
LTYPE
  5
16
330
15
100
AcDbSymbolTableRecord
100
AcDbLinetypeTableRecord
  2
BYBLOCK
 70
     0
  3

 72
    65
 73
     0
 40
0.0
  0
LTYPE
  5
17
330
15
100
AcDbSymbolTableRecord
100
AcDbLinetypeTableRecord
  2
BYLAYER
 70
     0
  3

 72
    65
 73
     0
 40
0.0
  0
LTYPE
  5
8
330
15
100
AcDbSymbolTableRecord
100
AcDbLinetypeTableRecord
  2
CONTINUOUS
 70
     0
  3
Solid line
 72
    65
 73
     0
 40
0.0
  0
LTYPE
  5
6B
330
15
100
AcDbSymbolTableRecord
100
AcDbLinetypeTableRecord
  2
DASHED2
 70
     0
  3
Dashed (.5x) _ _ _ _ _ _ _ _ _ _ _ _ _ _ _ _ _
 72
    65
 73
     2
 40
9.519999999999999
 49
6.349999999999999
 74
     0
 49
-3.18
 74
     0
  0
LTYPE
  5
41
330
15
100
AcDbSymbolTableRecord
100
AcDbLinetypeTableRecord
  2
CENTER
 70
     0
  3
Center ____ _ ____ _ ____ _ ____ _ ____ _ ____
 72
    65
 73
     4
 40
50.8
 49
31.75
 74
     0
 49
-6.349999999999999
 74
     0
 49
6.349999999999999
 74
     0
 49
-6.349999999999999
 74
     0
  0
ENDTAB
  0
TABLE
  2
LAYER
  5
10
330
0
100
AcDbSymbolTable
 70
     3
  0
LAYER
  5
4
330
10
100
AcDbSymbolTableRecord
100
AcDbLayerTableRecord
  2
0
 70
     0
 62
     7
  6
CONTINUOUS
370
    -3
390
5
  0
LAYER
  5
4B
330
10
100
AcDbSymbolTableRecord
100
AcDbLayerTableRecord
  2
DEFPOINTS
 70
     0
 62
     7
  6
CONTINUOUS
290
     0
370
    -3
390
5
  0
LAYER
  5
29
330
10
100
AcDbSymbolTableRecord
100
AcDbLayerTableRecord
  2
画層1
 70
     0
 62
     7
  6
CONTINUOUS
370
    -3
390
5
  0
ENDTAB
  0
TABLE
  2
STYLE
  5
11
330
0
100
AcDbSymbolTable
 70
     2
  0
STYLE
  5
12
330
11
100
AcDbSymbolTableRecord
100
AcDbTextStyleTableRecord
  2
STANDARD
 70
     0
 40
2.5
 41
1.0
 50
0.0
 71
     0
 42
1.5
  3
MS PMincho.ttf
  4

1001
ACAD
1000
MS PMincho
1071
    32786
  0
STYLE
  5
2A
330
11
100
AcDbSymbolTableRecord
100
AcDbTextStyleTableRecord
  2
STYLE1
 70
     0
 40
2.5
 41
1.0
 50
0.0
 71
     0
 42
2.5
  3
MS Gothic.ttf
  4

1001
ACAD
1000
MS Gothic
1071
    32817
  0
ENDTAB
  0
TABLE
  2
VIEW
  5
18
330
0
100
AcDbSymbolTable
 70
     0
  0
ENDTAB
  0
TABLE
  2
UCS
  5
19
330
0
100
AcDbSymbolTable
 70
     0
  0
ENDTAB
  0
TABLE
  2
APPID
  5
1C
330
0
100
AcDbSymbolTable
 70
     1
  0
APPID
  5
13
330
1C
100
AcDbSymbolTableRecord
100
AcDbRegAppTableRecord
  2
ACAD
 70
     0
  0
ENDTAB
  0
TABLE
  2
DIMSTYLE
  5
1D
330
0
100
AcDbSymbolTable
 70
     1
100
AcDbDimStyleTable
 71
     1
340
1E
  0
DIMSTYLE
105
1E
102
{ACAD_REACTORS
330
1E5
330
34D
330
335
330
5D
330
A1
330
25D
330
50
330
18F
330
89
330
42
330
1D6
330
7A
330
442
330
435
330
44F
330
3AE
330
171
102
}
330
1D
100
AcDbSymbolTableRecord
100
AcDbDimStyleTableRecord
  2
STANDARD_WS
 70
     0
 41
1.5
 42
0.63
 43
3.75
 44
1.25
 73
     0
 74
     0
 77
     1
 78
     8
140
2.5
141
2.5
143
0.04
147
0.63
171
     4
172
     1
173
     1
273
     8
274
     4
340
12
341
1F
343
1F
344
1F
  0
ENDTAB
  0
TABLE
  2
BLOCK_RECORD
  5
1
330
0
100
AcDbSymbolTable
 70
    37
  0
BLOCK_RECORD
  5
2
330
1
100
AcDbSymbolTableRecord
100
AcDbBlockTableRecord
  2
*MODEL_SPACE
340
A
  0
BLOCK_RECORD
  5
C
330
1
100
AcDbSymbolTableRecord
100
AcDbBlockTableRecord
  2
*PAPER_SPACE
340
F
  0
BLOCK_RECORD
  5
1F
330
1
100
AcDbSymbolTableRecord
100
AcDbBlockTableRecord
  2
_OPEN
340
0
  0
BLOCK_RECORD
  5
2B
330
1
100
AcDbSymbolTableRecord
100
AcDbBlockTableRecord
  2
_OPEN30
340
0
102
{BLKREFS
331
454
331
455
331
81
331
82
331
447
331
448
331
43A
331
43B
331
55
331
56
331
264
331
265
331
33A
331
33B
331
62
331
63
331
A6
331
A7
331
1DD
331
1DE
331
90
331
91
331
47
331
48
331
3B3
331
3B4
331
1EA
331
1EB
331
354
331
355
331
176
331
177
331
194
331
195
331
54F
331
550
331
55B
331
55C
331
567
331
568
331
573
331
574
331
57F
331
580
331
58B
331
58C
331
597
331
598
331
5A5
331
5A6
331
5B1
331
5B2
331
5BD
331
5BE
331
5CC
331
5CD
331
5D7
331
5D8
331
5E2
331
5E3
331
5EB
331
5EC
331
5F4
331
5F5
331
5FE
331
5FF
331
608
331
609
331
613
331
614
331
61C
331
61D
331
625
331
626
331
62E
331
62F
331
638
331
639
331
644
331
645
331
650
331
651
331
65C
331
65D
331
667
331
668
331
670
331
671
331
679
331
67A
331
682
331
683
331
691
331
692
331
69A
331
69B
331
6A3
331
6A4
331
6AC
331
6AD
331
6B6
331
6B7
331
6CF
331
6D0
331
6D8
331
6D9
331
6E1
331
6E2
331
6EA
331
6EB
331
6F3
331
6F4
331
6FC
331
6FD
331
706
331
707
331
70F
331
710
331
718
331
719
331
721
331
722
331
72A
331
72B
331
733
331
734
331
73C
331
73D
331
745
331
746
331
74E
331
74F
331
757
331
758
331
760
331
761
102
}
  0
BLOCK_RECORD
  5
9C
330
1
100
AcDbSymbolTableRecord
100
AcDbBlockTableRecord
  2
_DotSmall
340
0
  0
BLOCK_RECORD
  5
1E6
330
1
100
AcDbSymbolTableRecord
100
AcDbBlockTableRecord
  2
*D3
340
0
  0
BLOCK_RECORD
  5
34E
330
1
100
AcDbSymbolTableRecord
100
AcDbBlockTableRecord
  2
*D4
340
0
  0
BLOCK_RECORD
  5
336
330
1
100
AcDbSymbolTableRecord
100
AcDbBlockTableRecord
  2
*D5
340
0
  0
BLOCK_RECORD
  5
5E
330
1
100
AcDbSymbolTableRecord
100
AcDbBlockTableRecord
  2
*D6
340
0
  0
BLOCK_RECORD
  5
A2
330
1
100
AcDbSymbolTableRecord
100
AcDbBlockTableRecord
  2
*D7
340
0
  0
BLOCK_RECORD
  5
25E
330
1
100
AcDbSymbolTableRecord
100
AcDbBlockTableRecord
  2
*D8
340
0
  0
BLOCK_RECORD
  5
51
330
1
100
AcDbSymbolTableRecord
100
AcDbBlockTableRecord
  2
*D9
340
0
  0
BLOCK_RECORD
  5
190
330
1
100
AcDbSymbolTableRecord
100
AcDbBlockTableRecord
  2
*D10
340
0
  0
BLOCK_RECORD
  5
8A
330
1
100
AcDbSymbolTableRecord
100
AcDbBlockTableRecord
  2
*D11
340
0
  0
BLOCK_RECORD
  5
43
330
1
100
AcDbSymbolTableRecord
100
AcDbBlockTableRecord
  2
*D12
340
0
  0
BLOCK_RECORD
  5
1D7
330
1
100
AcDbSymbolTableRecord
100
AcDbBlockTableRecord
  2
*D13
340
0
  0
BLOCK_RECORD
  5
7B
330
1
100
AcDbSymbolTableRecord
100
AcDbBlockTableRecord
  2
*D14
340
0
  0
BLOCK_RECORD
  5
443
330
1
100
AcDbSymbolTableRecord
100
AcDbBlockTableRecord
  2
*D15
340
0
  0
BLOCK_RECORD
  5
436
330
1
100
AcDbSymbolTableRecord
100
AcDbBlockTableRecord
  2
*D16
340
0
  0
BLOCK_RECORD
  5
450
330
1
100
AcDbSymbolTableRecord
100
AcDbBlockTableRecord
  2
*D17
340
0
  0
BLOCK_RECORD
  5
3AF
330
1
100
AcDbSymbolTableRecord
100
AcDbBlockTableRecord
  2
*D18
340
0
  0
BLOCK_RECORD
  5
172
330
1
100
AcDbSymbolTableRecord
100
AcDbBlockTableRecord
  2
*D19
340
0
  0
BLOCK_RECORD
  5
54B
330
1
100
AcDbSymbolTableRecord
100
AcDbBlockTableRecord
  2
*D20
340
0
  0
BLOCK_RECORD
  5
557
330
1
100
AcDbSymbolTableRecord
100
AcDbBlockTableRecord
  2
*D21
340
0
  0
BLOCK_RECORD
  5
563
330
1
100
AcDbSymbolTableRecord
100
AcDbBlockTableRecord
  2
*D22
340
0
  0
BLOCK_RECORD
  5
56F
330
1
100
AcDbSymbolTableRecord
100
AcDbBlockTableRecord
  2
*D23
340
0
  0
BLOCK_RECORD
  5
57B
330
1
100
AcDbSymbolTableRecord
100
AcDbBlockTableRecord
  2
*D24
340
0
  0
BLOCK_RECORD
  5
587
330
1
100
AcDbSymbolTableRecord
100
AcDbBlockTableRecord
  2
*D25
340
0
  0
BLOCK_RECORD
  5
593
330
1
100
AcDbSymbolTableRecord
100
AcDbBlockTableRecord
  2
*D26
340
0
  0
BLOCK_RECORD
  5
59F
330
1
100
AcDbSymbolTableRecord
100
AcDbBlockTableRecord
  2
*D27
340
0
  0
BLOCK_RECORD
  5
5AD
330
1
100
AcDbSymbolTableRecord
100
AcDbBlockTableRecord
  2
*D28
340
0
  0
BLOCK_RECORD
  5
5B9
330
1
100
AcDbSymbolTableRecord
100
AcDbBlockTableRecord
  2
*D29
340
0
  0
BLOCK_RECORD
  5
5C5
330
1
100
AcDbSymbolTableRecord
100
AcDbBlockTableRecord
  2
*D30
340
0
  0
BLOCK_RECORD
  5
5D3
330
1
100
AcDbSymbolTableRecord
100
AcDbBlockTableRecord
  2
*D31
340
0
  0
BLOCK_RECORD
  5
604
330
1
100
AcDbSymbolTableRecord
100
AcDbBlockTableRecord
  2
*D32
340
0
  0
BLOCK_RECORD
  5
634
330
1
100
AcDbSymbolTableRecord
100
AcDbBlockTableRecord
  2
*D33
340
0
  0
BLOCK_RECORD
  5
640
330
1
100
AcDbSymbolTableRecord
100
AcDbBlockTableRecord
  2
*D34
340
0
  0
BLOCK_RECORD
  5
64C
330
1
100
AcDbSymbolTableRecord
100
AcDbBlockTableRecord
  2
*D35
340
0
  0
BLOCK_RECORD
  5
658
330
1
100
AcDbSymbolTableRecord
100
AcDbBlockTableRecord
  2
*D36
340
0
  0
ENDTAB
  0
ENDSEC
  0
SECTION
  2
BLOCKS
  0
BLOCK
  5
3
330
2
100
AcDbEntity
  8
0
100
AcDbBlockBegin
  2
*MODEL_SPACE
 70
     0
 10
0.0
 20
0.0
 30
0.0
  3
*MODEL_SPACE
  1

  0
ENDBLK
  5
9
330
2
100
AcDbEntity
  8
0
100
AcDbBlockEnd
  0
BLOCK
  5
D
330
C
100
AcDbEntity
 67
     1
  8
0
100
AcDbBlockBegin
  2
*PAPER_SPACE
 70
     0
 10
0.0
 20
0.0
 30
0.0
  3
*PAPER_SPACE
  1

  0
ENDBLK
  5
E
330
C
100
AcDbEntity
 67
     1
  8
0
100
AcDbBlockEnd
  0
BLOCK
  5
23
330
1F
100
AcDbEntity
  8
0
100
AcDbBlockBegin
  2
_OPEN
 70
     0
 10
0.0
 20
0.0
 30
0.0
  3
_OPEN
  1

  0
LINE
  5
20
330
1F
100
AcDbEntity
  8
0
  6
ByBlock
 62
     0
100
AcDbLine
 10
-1.0
 20
0.17
 30
0.0
 11
0.0
 21
0.0
 31
0.0
  0
LINE
  5
21
330
1F
100
AcDbEntity
  8
0
  6
ByBlock
 62
     0
100
AcDbLine
 10
0.0
 20
0.0
 30
0.0
 11
-1.0
 21
-0.17
 31
0.0
  0
LINE
  5
22
330
1F
100
AcDbEntity
  8
0
  6
ByBlock
 62
     0
100
AcDbLine
 10
0.0
 20
0.0
 30
0.0
 11
-1.0
 21
0.0
 31
0.0
  0
ENDBLK
  5
24
330
1F
100
AcDbEntity
  8
0
100
AcDbBlockEnd
  0
BLOCK
  5
2F
330
2B
100
AcDbEntity
  8
0
100
AcDbBlockBegin
  2
_OPEN30
 70
     0
 10
0.0
 20
0.0
 30
0.0
  3
_OPEN30
  1

  0
LINE
  5
2C
330
2B
100
AcDbEntity
  8
0
  6
ByBlock
 62
     0
100
AcDbLine
 10
-1.0
 20
0.27
 30
0.0
 11
0.0
 21
0.0
 31
0.0
  0
LINE
  5
2D
330
2B
100
AcDbEntity
  8
0
  6
ByBlock
 62
     0
100
AcDbLine
 10
0.0
 20
0.0
 30
0.0
 11
-1.0
 21
-0.27
 31
0.0
  0
LINE
  5
2E
330
2B
100
AcDbEntity
  8
0
  6
ByBlock
 62
     0
100
AcDbLine
 10
0.0
 20
0.0
 30
0.0
 11
-1.0
 21
0.0
 31
0.0
  0
ENDBLK
  5
30
330
2B
100
AcDbEntity
  8
0
100
AcDbBlockEnd
  0
BLOCK
  5
9E
330
9C
100
AcDbEntity
  8
0
 62
     1
100
AcDbBlockBegin
  2
_DotSmall
 70
     0
 10
0.0
 20
0.0
 30
0.0
  3
_DotSmall
  1

  0
LWPOLYLINE
  5
9D
330
9C
100
AcDbEntity
  8
画層1
 62
     0
100
AcDbPolyline
 90
        2
 70
     1
 43
0.5
 10
-0.06
 20
0.0
 42
1.0
 10
0.06
 20
0.0
 42
1.0
  0
ENDBLK
  5
9F
330
9C
100
AcDbEntity
  8
0
 62
     1
100
AcDbBlockEnd
  0
BLOCK
  5
1F0
330
1E6
100
AcDbEntity
  8
0
 62
     1
100
AcDbBlockBegin
  2
*D3
 70
     1
 10
0.0
 20
0.0
 30
0.0
  3
*D3
  1

  0
LINE
  5
1E7
330
1E6
100
AcDbEntity
  8
画層1
 62
     0
370
    -2
100
AcDbLine
 10
105.0499999999999
 20
206.0999999999999
 30
0.0
 11
105.0499999999999
 21
226.2299999999999
 31
0.0
  0
LINE
  5
1E8
330
1E6
100
AcDbEntity
  8
画層1
 62
     0
370
    -2
100
AcDbLine
 10
156.05
 20
206.0999999999999
 30
0.0
 11
156.05
 21
226.2299999999999
 31
0.0
  0
LINE
  5
1E9
330
1E6
100
AcDbEntity
  8
画層1
 62
     0
370
    -2
100
AcDbLine
 10
106.5499999999999
 20
224.98
 30
0.0
 11
154.55
 21
224.98
 31
0.0
  0
INSERT
  5
1EA
330
1E6
100
AcDbEntity
  8
画層1
 62
     0
370
    -2
100
AcDbBlockReference
  2
_OPEN30
 10
105.0499999999999
 20
224.98
 30
0.0
 41
1.5
 42
1.5
 43
1.5
 50
180.0
  0
INSERT
  5
1EB
330
1E6
100
AcDbEntity
  8
画層1
 62
     0
370
    -2
100
AcDbBlockReference
  2
_OPEN30
 10
156.05
 20
224.98
 30
0.0
 41
1.5
 42
1.5
 43
1.5
  0
MTEXT
  5
1EC
330
1E6
100
AcDbEntity
  8
画層1
 62
     0
100
AcDbMText
 10
130.55
 20
226.8499999999999
 30
0.0
 40
2.5
 41
0.0
 71
     5
 72
     1
  1
\A1;102
  7
STYLE1
 73
     1
 44
1.0
  0
POINT
  5
1ED
330
1E6
100
AcDbEntity
  8
DEFPOINTS
 62
     0
100
AcDbPoint
 10
105.0499999999999
 20
205.4799999999999
 30
0.0
  0
POINT
  5
1EE
330
1E6
100
AcDbEntity
  8
DEFPOINTS
 62
     0
100
AcDbPoint
 10
156.05
 20
205.4799999999999
 30
0.0
  0
POINT
  5
1EF
330
1E6
100
AcDbEntity
  8
DEFPOINTS
 62
     0
100
AcDbPoint
 10
156.05
 20
224.98
 30
0.0
  0
ENDBLK
  5
1F1
330
1E6
100
AcDbEntity
  8
0
 62
     1
100
AcDbBlockEnd
  0
BLOCK
  5
35A
330
34E
100
AcDbEntity
  8
0
 62
     1
100
AcDbBlockBegin
  2
*D4
 70
     1
 10
0.0
 20
0.0
 30
0.0
  3
*D4
  1

  0
LINE
  5
34F
330
34E
100
AcDbEntity
  8
画層1
 62
     0
370
    -2
100
AcDbLine
 10
129.05
 20
211.0999999999999
 30
0.0
 11
129.05
 21
219.2299999999999
 31
0.0
  0
LINE
  5
350
330
34E
100
AcDbEntity
  8
画層1
 62
     0
370
    -2
100
AcDbLine
 10
132.05
 20
211.0999999999999
 30
0.0
 11
132.05
 21
219.2299999999999
 31
0.0
  0
LINE
  5
351
330
34E
100
AcDbEntity
  8
画層1
 62
     0
370
    -2
100
AcDbLine
 10
127.55
 20
217.9799999999999
 30
0.0
 11
126.0499999999999
 21
217.9799999999999
 31
0.0
  0
LINE
  5
352
330
34E
100
AcDbEntity
  8
画層1
 62
     0
370
    -2
100
AcDbLine
 10
133.55
 20
217.9799999999999
 30
0.0
 11
135.05
 21
217.9799999999999
 31
0.0
  0
LINE
  5
353
330
34E
100
AcDbEntity
  8
画層1
 62
     0
370
    -2
100
AcDbLine
 10
129.05
 20
217.9799999999999
 30
0.0
 11
132.05
 21
217.9799999999999
 31
0.0
  0
INSERT
  5
354
330
34E
100
AcDbEntity
  8
画層1
 62
     0
370
    -2
100
AcDbBlockReference
  2
_OPEN30
 10
129.05
 20
217.9799999999999
 30
0.0
 41
1.5
 42
1.5
 43
1.5
  0
INSERT
  5
355
330
34E
100
AcDbEntity
  8
画層1
 62
     0
370
    -2
100
AcDbBlockReference
  2
_OPEN30
 10
132.05
 20
217.9799999999999
 30
0.0
 41
1.5
 42
1.5
 43
1.5
 50
180.0
  0
MTEXT
  5
356
330
34E
100
AcDbEntity
  8
画層1
 62
     0
100
AcDbMText
 10
130.55
 20
219.85
 30
0.0
 40
2.5
 41
0.0
 71
     5
 72
     1
  1
\A1;6
  7
STYLE1
 73
     1
 44
1.0
  0
POINT
  5
357
330
34E
100
AcDbEntity
  8
DEFPOINTS
 62
     0
100
AcDbPoint
 10
129.05
 20
210.48
 30
0.0
  0
POINT
  5
358
330
34E
100
AcDbEntity
  8
DEFPOINTS
 62
     0
100
AcDbPoint
 10
132.05
 20
210.48
 30
0.0
  0
POINT
  5
359
330
34E
100
AcDbEntity
  8
DEFPOINTS
 62
     0
100
AcDbPoint
 10
132.05
 20
217.9799999999999
 30
0.0
  0
ENDBLK
  5
35B
330
34E
100
AcDbEntity
  8
0
 62
     1
100
AcDbBlockEnd
  0
BLOCK
  5
340
330
336
100
AcDbEntity
  8
0
 62
     1
100
AcDbBlockBegin
  2
*D5
 70
     1
 10
0.0
 20
0.0
 30
0.0
  3
*D5
  1

  0
LINE
  5
337
330
336
100
AcDbEntity
  8
画層1
 62
     0
370
    -2
100
AcDbLine
 10
108.15
 20
210.48
 30
0.0
 11
89.7
 21
210.48
 31
0.0
  0
LINE
  5
338
330
336
100
AcDbEntity
  8
画層1
 62
     0
370
    -2
100
AcDbLine
 10
104.4799999999999
 20
205.4799999999999
 30
0.0
 11
89.7
 21
205.4799999999999
 31
0.0
  0
LINE
  5
339
330
336
100
AcDbEntity
  8
画層1
 62
     0
370
    -2
100
AcDbLine
 10
90.95
 20
208.9799999999999
 30
0.0
 11
90.95
 21
206.9799999999999
 31
0.0
  0
INSERT
  5
33A
330
336
100
AcDbEntity
  8
画層1
 62
     0
370
    -2
100
AcDbBlockReference
  2
_OPEN30
 10
90.95
 20
210.48
 30
0.0
 41
1.5
 42
1.5
 43
1.5
 50
90.0
  0
INSERT
  5
33B
330
336
100
AcDbEntity
  8
画層1
 62
     0
370
    -2
100
AcDbBlockReference
  2
_OPEN30
 10
90.95
 20
205.4799999999999
 30
0.0
 41
1.5
 42
1.5
 43
1.5
 50
270.0
  0
MTEXT
  5
33C
330
336
100
AcDbEntity
  8
画層1
 62
     0
100
AcDbMText
 10
89.07999999999999
 20
207.98
 30
0.0
 40
2.5
 41
0.0
 71
     5
 72
     1
  1
\A1;10
  7
STYLE1
 11
0.0
 21
1.0
 31
0.0
 73
     1
 44
1.0
  0
POINT
  5
33D
330
336
100
AcDbEntity
  8
DEFPOINTS
 62
     0
100
AcDbPoint
 10
108.7699999999999
 20
210.48
 30
0.0
  0
POINT
  5
33E
330
336
100
AcDbEntity
  8
DEFPOINTS
 62
     0
100
AcDbPoint
 10
105.0999999999999
 20
205.4799999999999
 30
0.0
  0
POINT
  5
33F
330
336
100
AcDbEntity
  8
DEFPOINTS
 62
     0
100
AcDbPoint
 10
90.95
 20
205.4799999999999
 30
0.0
  0
ENDBLK
  5
341
330
336
100
AcDbEntity
  8
0
 62
     1
100
AcDbBlockEnd
  0
BLOCK
  5
68
330
5E
100
AcDbEntity
  8
0
 62
     1
100
AcDbBlockBegin
  2
*D6
 70
     1
 10
0.0
 20
0.0
 30
0.0
  3
*D6
  1

  0
LINE
  5
5F
330
5E
100
AcDbEntity
  8
画層1
 62
     0
370
    -2
100
AcDbLine
 10
104.4799999999999
 20
205.4799999999999
 30
0.0
 11
89.7
 21
205.4799999999999
 31
0.0
  0
LINE
  5
60
330
5E
100
AcDbEntity
  8
画層1
 62
     0
370
    -2
100
AcDbLine
 10
104.4799999999999
 20
105.4799999999999
 30
0.0
 11
89.7
 21
105.4799999999999
 31
0.0
  0
LINE
  5
61
330
5E
100
AcDbEntity
  8
画層1
 62
     0
370
    -2
100
AcDbLine
 10
90.95
 20
203.98
 30
0.0
 11
90.95
 21
106.98
 31
0.0
  0
INSERT
  5
62
330
5E
100
AcDbEntity
  8
画層1
 62
     0
370
    -2
100
AcDbBlockReference
  2
_OPEN30
 10
90.95
 20
205.4799999999999
 30
0.0
 41
1.5
 42
1.5
 43
1.5
 50
90.0
  0
INSERT
  5
63
330
5E
100
AcDbEntity
  8
画層1
 62
     0
370
    -2
100
AcDbBlockReference
  2
_OPEN30
 10
90.95
 20
105.4799999999999
 30
0.0
 41
1.5
 42
1.5
 43
1.5
 50
270.0
  0
MTEXT
  5
64
330
5E
100
AcDbEntity
  8
画層1
 62
     0
100
AcDbMText
 10
89.07999999999999
 20
155.48
 30
0.0
 40
2.5
 41
0.0
 71
     5
 72
     1
  1
\A1;200
  7
STYLE1
 11
0.0
 21
1.0
 31
0.0
 73
     1
 44
1.0
  0
POINT
  5
65
330
5E
100
AcDbEntity
  8
DEFPOINTS
 62
     0
100
AcDbPoint
 10
105.0999999999999
 20
205.4799999999999
 30
0.0
  0
POINT
  5
66
330
5E
100
AcDbEntity
  8
DEFPOINTS
 62
     0
100
AcDbPoint
 10
105.0999999999999
 20
105.4799999999999
 30
0.0
  0
POINT
  5
67
330
5E
100
AcDbEntity
  8
DEFPOINTS
 62
     0
100
AcDbPoint
 10
90.95
 20
105.4799999999999
 30
0.0
  0
ENDBLK
  5
69
330
5E
100
AcDbEntity
  8
0
 62
     1
100
AcDbBlockEnd
  0
BLOCK
  5
AC
330
A2
100
AcDbEntity
  8
0
 62
     1
100
AcDbBlockBegin
  2
*D7
 70
     1
 10
0.0
 20
0.0
 30
0.0
  3
*D7
  1

  0
LINE
  5
A3
330
A2
100
AcDbEntity
  8
画層1
 62
     0
370
    -2
100
AcDbLine
 10
104.7
 20
105.4799999999999
 30
0.0
 11
89.7
 21
105.4799999999999
 31
0.0
  0
LINE
  5
A4
330
A2
100
AcDbEntity
  8
画層1
 62
     0
370
    -2
100
AcDbLine
 10
107.78
 20
100.48
 30
0.0
 11
89.7
 21
100.48
 31
0.0
  0
LINE
  5
A5
330
A2
100
AcDbEntity
  8
画層1
 62
     0
370
    -2
100
AcDbLine
 10
90.95
 20
103.98
 30
0.0
 11
90.95
 21
101.98
 31
0.0
  0
INSERT
  5
A6
330
A2
100
AcDbEntity
  8
画層1
 62
     0
370
    -2
100
AcDbBlockReference
  2
_OPEN30
 10
90.95
 20
105.4799999999999
 30
0.0
 41
1.5
 42
1.5
 43
1.5
 50
90.0
  0
INSERT
  5
A7
330
A2
100
AcDbEntity
  8
画層1
 62
     0
370
    -2
100
AcDbBlockReference
  2
_OPEN30
 10
90.95
 20
100.48
 30
0.0
 41
1.5
 42
1.5
 43
1.5
 50
270.0
  0
MTEXT
  5
A8
330
A2
100
AcDbEntity
  8
画層1
 62
     0
100
AcDbMText
 10
89.07999999999999
 20
102.98
 30
0.0
 40
2.5
 41
0.0
 71
     5
 72
     1
  1
\A1;10
  7
STYLE1
 11
0.0
 21
1.0
 31
0.0
 73
     1
 44
1.0
  0
POINT
  5
A9
330
A2
100
AcDbEntity
  8
DEFPOINTS
 62
     0
100
AcDbPoint
 10
105.3299999999999
 20
105.4799999999999
 30
0.0
  0
POINT
  5
AA
330
A2
100
AcDbEntity
  8
DEFPOINTS
 62
     0
100
AcDbPoint
 10
108.41
 20
100.48
 30
0.0
  0
POINT
  5
AB
330
A2
100
AcDbEntity
  8
DEFPOINTS
 62
     0
100
AcDbPoint
 10
90.95
 20
100.48
 30
0.0
  0
ENDBLK
  5
AD
330
A2
100
AcDbEntity
  8
0
 62
     1
100
AcDbBlockEnd
  0
BLOCK
  5
26A
330
25E
100
AcDbEntity
  8
0
 62
     1
100
AcDbBlockBegin
  2
*D8
 70
     1
 10
0.0
 20
0.0
 30
0.0
  3
*D8
  1

  0
LINE
  5
25F
330
25E
100
AcDbEntity
  8
画層1
 62
     0
370
    -2
100
AcDbLine
 10
104.7
 20
183.5399999999999
 30
0.0
 11
96.70000000000001
 21
183.5399999999999
 31
0.0
  0
LINE
  5
260
330
25E
100
AcDbEntity
  8
画層1
 62
     0
370
    -2
100
AcDbLine
 10
104.7
 20
179.5399999999999
 30
0.0
 11
96.70000000000001
 21
179.5399999999999
 31
0.0
  0
LINE
  5
261
330
25E
100
AcDbEntity
  8
画層1
 62
     0
370
    -2
100
AcDbLine
 10
97.95000000000001
 20
185.04
 30
0.0
 11
97.95000000000001
 21
186.5399999999999
 31
0.0
  0
LINE
  5
262
330
25E
100
AcDbEntity
  8
画層1
 62
     0
370
    -2
100
AcDbLine
 10
97.95000000000001
 20
178.04
 30
0.0
 11
97.95000000000001
 21
176.5399999999999
 31
0.0
  0
LINE
  5
263
330
25E
100
AcDbEntity
  8
画層1
 62
     0
370
    -2
100
AcDbLine
 10
97.95000000000001
 20
183.5399999999999
 30
0.0
 11
97.95000000000001
 21
179.5399999999999
 31
0.0
  0
INSERT
  5
264
330
25E
100
AcDbEntity
  8
画層1
 62
     0
370
    -2
100
AcDbBlockReference
  2
_OPEN30
 10
97.95000000000001
 20
183.5399999999999
 30
0.0
 41
1.5
 42
1.5
 43
1.5
 50
270.0
  0
INSERT
  5
265
330
25E
100
AcDbEntity
  8
画層1
 62
     0
370
    -2
100
AcDbBlockReference
  2
_OPEN30
 10
97.95000000000001
 20
179.5399999999999
 30
0.0
 41
1.5
 42
1.5
 43
1.5
 50
90.0
  0
MTEXT
  5
266
330
25E
100
AcDbEntity
  8
画層1
 62
     0
100
AcDbMText
 10
96.08
 20
181.5399999999999
 30
0.0
 40
2.5
 41
0.0
 71
     5
 72
     1
  1
\A1;8
  7
STYLE1
 11
0.0
 21
1.0
 31
0.0
 73
     1
 44
1.0
  0
POINT
  5
267
330
25E
100
AcDbEntity
  8
DEFPOINTS
 62
     0
100
AcDbPoint
 10
105.3299999999999
 20
183.5399999999999
 30
0.0
  0
POINT
  5
268
330
25E
100
AcDbEntity
  8
DEFPOINTS
 62
     0
100
AcDbPoint
 10
105.3299999999999
 20
179.5399999999999
 30
0.0
  0
POINT
  5
269
330
25E
100
AcDbEntity
  8
DEFPOINTS
 62
     0
100
AcDbPoint
 10
97.95000000000001
 20
179.5399999999999
 30
0.0
  0
ENDBLK
  5
26B
330
25E
100
AcDbEntity
  8
0
 62
     1
100
AcDbBlockEnd
  0
BLOCK
  5
5B
330
51
100
AcDbEntity
  8
0
 62
     1
100
AcDbBlockBegin
  2
*D9
 70
     1
 10
0.0
 20
0.0
 30
0.0
  3
*D9
  1

  0
LINE
  5
52
330
51
100
AcDbEntity
  8
画層1
 62
     0
370
    -2
100
AcDbLine
 10
108.15
 20
210.48
 30
0.0
 11
82.70000000000001
 21
210.48
 31
0.0
  0
LINE
  5
53
330
51
100
AcDbEntity
  8
画層1
 62
     0
370
    -2
100
AcDbLine
 10
107.78
 20
100.48
 30
0.0
 11
82.70000000000001
 21
100.48
 31
0.0
  0
LINE
  5
54
330
51
100
AcDbEntity
  8
画層1
 62
     0
370
    -2
100
AcDbLine
 10
83.95000000000001
 20
208.9799999999999
 30
0.0
 11
83.95000000000001
 21
101.98
 31
0.0
  0
INSERT
  5
55
330
51
100
AcDbEntity
  8
画層1
 62
     0
370
    -2
100
AcDbBlockReference
  2
_OPEN30
 10
83.95000000000001
 20
210.48
 30
0.0
 41
1.5
 42
1.5
 43
1.5
 50
90.0
  0
INSERT
  5
56
330
51
100
AcDbEntity
  8
画層1
 62
     0
370
    -2
100
AcDbBlockReference
  2
_OPEN30
 10
83.95000000000001
 20
100.48
 30
0.0
 41
1.5
 42
1.5
 43
1.5
 50
270.0
  0
MTEXT
  5
57
330
51
100
AcDbEntity
  8
画層1
 62
     0
100
AcDbMText
 10
82.08
 20
155.48
 30
0.0
 40
2.5
 41
0.0
 71
     5
 72
     1
  1
\A1;220
  7
STYLE1
 11
0.0
 21
1.0
 31
0.0
 73
     1
 44
1.0
  0
POINT
  5
58
330
51
100
AcDbEntity
  8
DEFPOINTS
 62
     0
100
AcDbPoint
 10
108.7699999999999
 20
210.48
 30
0.0
  0
POINT
  5
59
330
51
100
AcDbEntity
  8
DEFPOINTS
 62
     0
100
AcDbPoint
 10
108.41
 20
100.48
 30
0.0
  0
POINT
  5
5A
330
51
100
AcDbEntity
  8
DEFPOINTS
 62
     0
100
AcDbPoint
 10
83.95000000000001
 20
100.48
 30
0.0
  0
ENDBLK
  5
5C
330
51
100
AcDbEntity
  8
0
 62
     1
100
AcDbBlockEnd
  0
BLOCK
  5
19A
330
190
100
AcDbEntity
  8
0
 62
     1
100
AcDbBlockBegin
  2
*D10
 70
     1
 10
0.0
 20
0.0
 30
0.0
  3
*D10
  1

  0
LINE
  5
191
330
190
100
AcDbEntity
  8
画層1
 62
     0
370
    -2
100
AcDbLine
 10
156.4
 20
105.4799999999999
 30
0.0
 11
164.9
 21
105.4799999999999
 31
0.0
  0
LINE
  5
192
330
190
100
AcDbEntity
  8
画層1
 62
     0
370
    -2
100
AcDbLine
 10
151.18
 20
122.98
 30
0.0
 11
164.9
 21
122.98
 31
0.0
  0
LINE
  5
193
330
190
100
AcDbEntity
  8
画層1
 62
     0
370
    -2
100
AcDbLine
 10
163.65
 20
106.98
 30
0.0
 11
163.65
 21
121.48
 31
0.0
  0
INSERT
  5
194
330
190
100
AcDbEntity
  8
画層1
 62
     0
370
    -2
100
AcDbBlockReference
  2
_OPEN30
 10
163.65
 20
105.4799999999999
 30
0.0
 41
1.5
 42
1.5
 43
1.5
 50
270.0
  0
INSERT
  5
195
330
190
100
AcDbEntity
  8
画層1
 62
     0
370
    -2
100
AcDbBlockReference
  2
_OPEN30
 10
163.65
 20
122.98
 30
0.0
 41
1.5
 42
1.5
 43
1.5
 50
90.0
  0
MTEXT
  5
196
330
190
100
AcDbEntity
  8
画層1
 62
     0
100
AcDbMText
 10
161.78
 20
114.23
 30
0.0
 40
2.5
 41
0.0
 71
     5
 72
     1
  1
\A1;35
  7
STYLE1
 11
0.0
 21
1.0
 31
0.0
 73
     1
 44
1.0
  0
POINT
  5
197
330
190
100
AcDbEntity
  8
DEFPOINTS
 62
     0
100
AcDbPoint
 10
155.78
 20
105.4799999999999
 30
0.0
  0
POINT
  5
198
330
190
100
AcDbEntity
  8
DEFPOINTS
 62
     0
100
AcDbPoint
 10
150.55
 20
122.98
 30
0.0
  0
POINT
  5
199
330
190
100
AcDbEntity
  8
DEFPOINTS
 62
     0
100
AcDbPoint
 10
163.65
 20
122.98
 30
0.0
  0
ENDBLK
  5
19B
330
190
100
AcDbEntity
  8
0
 62
     1
100
AcDbBlockEnd
  0
BLOCK
  5
96
330
8A
100
AcDbEntity
  8
0
 62
     1
100
AcDbBlockBegin
  2
*D11
 70
     1
 10
0.0
 20
0.0
 30
0.0
  3
*D11
  1

  0
LINE
  5
8B
330
8A
100
AcDbEntity
  8
画層1
 62
     0
370
    -2
100
AcDbLine
 10
152.74
 20
100.48
 30
0.0
 11
171.9
 21
100.48
 31
0.0
  0
LINE
  5
8C
330
8A
100
AcDbEntity
  8
画層1
 62
     0
370
    -2
100
AcDbLine
 10
132.68
 20
103.48
 30
0.0
 11
171.9
 21
103.48
 31
0.0
  0
LINE
  5
8D
330
8A
100
AcDbEntity
  8
画層1
 62
     0
370
    -2
100
AcDbLine
 10
170.65
 20
98.98000000000001
 30
0.0
 11
170.65
 21
97.48000000000001
 31
0.0
  0
LINE
  5
8E
330
8A
100
AcDbEntity
  8
画層1
 62
     0
370
    -2
100
AcDbLine
 10
170.65
 20
104.98
 30
0.0
 11
170.65
 21
106.4799999999999
 31
0.0
  0
LINE
  5
8F
330
8A
100
AcDbEntity
  8
画層1
 62
     0
370
    -2
100
AcDbLine
 10
170.65
 20
100.48
 30
0.0
 11
170.65
 21
103.48
 31
0.0
  0
INSERT
  5
90
330
8A
100
AcDbEntity
  8
画層1
 62
     0
370
    -2
100
AcDbBlockReference
  2
_OPEN30
 10
170.65
 20
100.48
 30
0.0
 41
1.5
 42
1.5
 43
1.5
 50
90.0
  0
INSERT
  5
91
330
8A
100
AcDbEntity
  8
画層1
 62
     0
370
    -2
100
AcDbBlockReference
  2
_OPEN30
 10
170.65
 20
103.48
 30
0.0
 41
1.5
 42
1.5
 43
1.5
 50
270.0
  0
MTEXT
  5
92
330
8A
100
AcDbEntity
  8
画層1
 62
     0
100
AcDbMText
 10
168.78
 20
101.98
 30
0.0
 40
2.5
 41
0.0
 71
     5
 72
     1
  1
\A1;6
  7
STYLE1
 11
0.0
 21
1.0
 31
0.0
 73
     1
 44
1.0
  0
POINT
  5
93
330
8A
100
AcDbEntity
  8
DEFPOINTS
 62
     0
100
AcDbPoint
 10
152.12
 20
100.48
 30
0.0
  0
POINT
  5
94
330
8A
100
AcDbEntity
  8
DEFPOINTS
 62
     0
100
AcDbPoint
 10
132.05
 20
103.48
 30
0.0
  0
POINT
  5
95
330
8A
100
AcDbEntity
  8
DEFPOINTS
 62
     0
100
AcDbPoint
 10
170.65
 20
103.48
 30
0.0
  0
ENDBLK
  5
97
330
8A
100
AcDbEntity
  8
0
 62
     1
100
AcDbBlockEnd
  0
BLOCK
  5
4E
330
43
100
AcDbEntity
  8
0
 62
     1
100
AcDbBlockBegin
  2
*D12
 70
     1
 10
0.0
 20
0.0
 30
0.0
  3
*D12
  1

  0
LINE
  5
44
330
43
100
AcDbEntity
  8
画層1
 62
     0
370
    -2
100
AcDbLine
 10
132.68
 20
103.48
 30
0.0
 11
171.9
 21
103.48
 31
0.0
  0
LINE
  5
45
330
43
100
AcDbEntity
  8
画層1
 62
     0
370
    -2
100
AcDbLine
 10
132.68
 20
207.4799999999999
 30
0.0
 11
171.9
 21
207.4799999999999
 31
0.0
  0
LINE
  5
46
330
43
100
AcDbEntity
  8
画層1
 62
     0
370
    -2
100
AcDbLine
 10
170.65
 20
104.98
 30
0.0
 11
170.65
 21
205.98
 31
0.0
  0
INSERT
  5
47
330
43
100
AcDbEntity
  8
画層1
 62
     0
370
    -2
100
AcDbBlockReference
  2
_OPEN30
 10
170.65
 20
103.48
 30
0.0
 41
1.5
 42
1.5
 43
1.5
 50
270.0
  0
INSERT
  5
48
330
43
100
AcDbEntity
  8
画層1
 62
     0
370
    -2
100
AcDbBlockReference
  2
_OPEN30
 10
170.65
 20
207.4799999999999
 30
0.0
 41
1.5
 42
1.5
 43
1.5
 50
90.0
  0
MTEXT
  5
49
330
43
100
AcDbEntity
  8
画層1
 62
     0
100
AcDbMText
 10
168.78
 20
155.48
 30
0.0
 40
2.5
 41
0.0
 71
     5
 72
     1
  1
\A1;208
  7
STYLE1
 11
0.0
 21
1.0
 31
0.0
 73
     1
 44
1.0
  0
POINT
  5
4A
330
43
100
AcDbEntity
  8
DEFPOINTS
 62
     0
100
AcDbPoint
 10
132.05
 20
103.48
 30
0.0
  0
POINT
  5
4C
330
43
100
AcDbEntity
  8
DEFPOINTS
 62
     0
100
AcDbPoint
 10
132.05
 20
207.4799999999999
 30
0.0
  0
POINT
  5
4D
330
43
100
AcDbEntity
  8
DEFPOINTS
 62
     0
100
AcDbPoint
 10
170.65
 20
207.4799999999999
 30
0.0
  0
ENDBLK
  5
4F
330
43
100
AcDbEntity
  8
0
 62
     1
100
AcDbBlockEnd
  0
BLOCK
  5
1E3
330
1D7
100
AcDbEntity
  8
0
 62
     1
100
AcDbBlockBegin
  2
*D13
 70
     1
 10
0.0
 20
0.0
 30
0.0
  3
*D13
  1

  0
LINE
  5
1D8
330
1D7
100
AcDbEntity
  8
画層1
 62
     0
370
    -2
100
AcDbLine
 10
132.68
 20
207.4799999999999
 30
0.0
 11
171.9
 21
207.4799999999999
 31
0.0
  0
LINE
  5
1D9
330
1D7
100
AcDbEntity
  8
画層1
 62
     0
370
    -2
100
AcDbLine
 10
153.0699999999999
 20
210.48
 30
0.0
 11
171.9
 21
210.48
 31
0.0
  0
LINE
  5
1DA
330
1D7
100
AcDbEntity
  8
画層1
 62
     0
370
    -2
100
AcDbLine
 10
170.65
 20
205.98
 30
0.0
 11
170.65
 21
204.4799999999999
 31
0.0
  0
LINE
  5
1DB
330
1D7
100
AcDbEntity
  8
画層1
 62
     0
370
    -2
100
AcDbLine
 10
170.65
 20
211.98
 30
0.0
 11
170.65
 21
213.4799999999999
 31
0.0
  0
LINE
  5
1DC
330
1D7
100
AcDbEntity
  8
画層1
 62
     0
370
    -2
100
AcDbLine
 10
170.65
 20
207.4799999999999
 30
0.0
 11
170.65
 21
210.48
 31
0.0
  0
INSERT
  5
1DD
330
1D7
100
AcDbEntity
  8
画層1
 62
     0
370
    -2
100
AcDbBlockReference
  2
_OPEN30
 10
170.65
 20
207.4799999999999
 30
0.0
 41
1.5
 42
1.5
 43
1.5
 50
90.0
  0
INSERT
  5
1DE
330
1D7
100
AcDbEntity
  8
画層1
 62
     0
370
    -2
100
AcDbBlockReference
  2
_OPEN30
 10
170.65
 20
210.48
 30
0.0
 41
1.5
 42
1.5
 43
1.5
 50
270.0
  0
MTEXT
  5
1DF
330
1D7
100
AcDbEntity
  8
画層1
 62
     0
100
AcDbMText
 10
168.78
 20
208.9799999999999
 30
0.0
 40
2.5
 41
0.0
 71
     5
 72
     1
  1
\A1;6
  7
STYLE1
 11
0.0
 21
1.0
 31
0.0
 73
     1
 44
1.0
  0
POINT
  5
1E0
330
1D7
100
AcDbEntity
  8
DEFPOINTS
 62
     0
100
AcDbPoint
 10
132.05
 20
207.4799999999999
 30
0.0
  0
POINT
  5
1E1
330
1D7
100
AcDbEntity
  8
DEFPOINTS
 62
     0
100
AcDbPoint
 10
152.4499999999999
 20
210.48
 30
0.0
  0
POINT
  5
1E2
330
1D7
100
AcDbEntity
  8
DEFPOINTS
 62
     0
100
AcDbPoint
 10
170.65
 20
210.48
 30
0.0
  0
ENDBLK
  5
1E4
330
1D7
100
AcDbEntity
  8
0
 62
     1
100
AcDbBlockEnd
  0
BLOCK
  5
87
330
7B
100
AcDbEntity
  8
0
 62
     1
100
AcDbBlockBegin
  2
*D14
 70
     1
 10
0.0
 20
0.0
 30
0.0
  3
*D14
  1

  0
LINE
  5
7C
330
7B
100
AcDbEntity
  8
画層1
 62
     0
370
    -2
100
AcDbLine
 10
129.05
 20
99.84999999999999
 30
0.0
 11
129.05
 21
91.73
 31
0.0
  0
LINE
  5
7D
330
7B
100
AcDbEntity
  8
画層1
 62
     0
370
    -2
100
AcDbLine
 10
132.05
 20
99.84999999999999
 30
0.0
 11
132.05
 21
91.73
 31
0.0
  0
LINE
  5
7E
330
7B
100
AcDbEntity
  8
画層1
 62
     0
370
    -2
100
AcDbLine
 10
127.55
 20
92.98
 30
0.0
 11
126.0499999999999
 21
92.98
 31
0.0
  0
LINE
  5
7F
330
7B
100
AcDbEntity
  8
画層1
 62
     0
370
    -2
100
AcDbLine
 10
133.55
 20
92.98
 30
0.0
 11
150.6
 21
92.98
 31
0.0
  0
LINE
  5
80
330
7B
100
AcDbEntity
  8
画層1
 62
     0
370
    -2
100
AcDbLine
 10
129.05
 20
92.98
 30
0.0
 11
132.05
 21
92.98
 31
0.0
  0
INSERT
  5
81
330
7B
100
AcDbEntity
  8
画層1
 62
     0
370
    -2
100
AcDbBlockReference
  2
_OPEN30
 10
129.05
 20
92.98
 30
0.0
 41
1.5
 42
1.5
 43
1.5
  0
INSERT
  5
82
330
7B
100
AcDbEntity
  8
画層1
 62
     0
370
    -2
100
AcDbBlockReference
  2
_OPEN30
 10
132.05
 20
92.98
 30
0.0
 41
1.5
 42
1.5
 43
1.5
 50
180.0
  0
MTEXT
  5
83
330
7B
100
AcDbEntity
  8
画層1
 62
     0
100
AcDbMText
 10
142.83
 20
95.02
 30
0.0
 40
2.5
 41
0.0
 71
     5
 72
     1
  1
\A1;6キリカキ
  7
STYLE1
 73
     1
 44
1.0
  0
POINT
  5
84
330
7B
100
AcDbEntity
  8
DEFPOINTS
 62
     0
100
AcDbPoint
 10
129.05
 20
100.48
 30
0.0
  0
POINT
  5
85
330
7B
100
AcDbEntity
  8
DEFPOINTS
 62
     0
100
AcDbPoint
 10
132.05
 20
100.48
 30
0.0
  0
POINT
  5
86
330
7B
100
AcDbEntity
  8
DEFPOINTS
 62
     0
100
AcDbPoint
 10
132.05
 20
92.98
 30
0.0
  0
ENDBLK
  5
88
330
7B
100
AcDbEntity
  8
0
 62
     1
100
AcDbBlockEnd
  0
BLOCK
  5
44D
330
443
100
AcDbEntity
  8
0
 62
     1
100
AcDbBlockBegin
  2
*D15
 70
     1
 10
0.0
 20
0.0
 30
0.0
  3
*D15
  1

  0
LINE
  5
444
330
443
100
AcDbEntity
  8
画層1
 62
     0
370
    -2
100
AcDbLine
 10
317.3999999999999
 20
211.0999999999999
 30
0.0
 11
317.3999999999999
 21
226.2299999999999
 31
0.0
  0
LINE
  5
445
330
443
100
AcDbEntity
  8
画層1
 62
     0
370
    -2
100
AcDbLine
 10
229.4
 20
203.9
 30
0.0
 11
229.4
 21
226.2299999999999
 31
0.0
  0
LINE
  5
446
330
443
100
AcDbEntity
  8
画層1
 62
     0
370
    -2
100
AcDbLine
 10
315.8999999999999
 20
224.98
 30
0.0
 11
230.9
 21
224.98
 31
0.0
  0
INSERT
  5
447
330
443
100
AcDbEntity
  8
画層1
 62
     0
370
    -2
100
AcDbBlockReference
  2
_OPEN30
 10
317.3999999999999
 20
224.98
 30
0.0
 41
1.5
 42
1.5
 43
1.5
  0
INSERT
  5
448
330
443
100
AcDbEntity
  8
画層1
 62
     0
370
    -2
100
AcDbBlockReference
  2
_OPEN30
 10
229.4
 20
224.98
 30
0.0
 41
1.5
 42
1.5
 43
1.5
 50
180.0
  0
MTEXT
  5
449
330
443
100
AcDbEntity
  8
画層1
 62
     0
100
AcDbMText
 10
273.3999999999999
 20
226.8499999999999
 30
0.0
 40
2.5
 41
0.0
 71
     5
 72
     1
  1
\A1;176
  7
STYLE1
 73
     1
 44
1.0
  0
POINT
  5
44A
330
443
100
AcDbEntity
  8
DEFPOINTS
 62
     0
100
AcDbPoint
 10
317.3999999999999
 20
210.48
 30
0.0
  0
POINT
  5
44B
330
443
100
AcDbEntity
  8
DEFPOINTS
 62
     0
100
AcDbPoint
 10
229.4
 20
203.2799999999999
 30
0.0
  0
POINT
  5
44C
330
443
100
AcDbEntity
  8
DEFPOINTS
 62
     0
100
AcDbPoint
 10
229.4
 20
224.98
 30
0.0
  0
ENDBLK
  5
44E
330
443
100
AcDbEntity
  8
0
 62
     1
100
AcDbBlockEnd
  0
BLOCK
  5
440
330
436
100
AcDbEntity
  8
0
 62
     1
100
AcDbBlockBegin
  2
*D16
 70
     1
 10
0.0
 20
0.0
 30
0.0
  3
*D16
  1

  0
LINE
  5
437
330
436
100
AcDbEntity
  8
画層1
 62
     0
370
    -2
100
AcDbLine
 10
317.3999999999999
 20
211.0999999999999
 30
0.0
 11
317.3999999999999
 21
219.2299999999999
 31
0.0
  0
LINE
  5
438
330
436
100
AcDbEntity
  8
画層1
 62
     0
370
    -2
100
AcDbLine
 10
241.4
 20
187.5999999999999
 30
0.0
 11
241.4
 21
219.2299999999999
 31
0.0
  0
LINE
  5
439
330
436
100
AcDbEntity
  8
画層1
 62
     0
370
    -2
100
AcDbLine
 10
315.8999999999999
 20
217.9799999999999
 30
0.0
 11
242.9
 21
217.9799999999999
 31
0.0
  0
INSERT
  5
43A
330
436
100
AcDbEntity
  8
画層1
 62
     0
370
    -2
100
AcDbBlockReference
  2
_OPEN30
 10
317.3999999999999
 20
217.9799999999999
 30
0.0
 41
1.5
 42
1.5
 43
1.5
  0
INSERT
  5
43B
330
436
100
AcDbEntity
  8
画層1
 62
     0
370
    -2
100
AcDbBlockReference
  2
_OPEN30
 10
241.4
 20
217.9799999999999
 30
0.0
 41
1.5
 42
1.5
 43
1.5
 50
180.0
  0
MTEXT
  5
43C
330
436
100
AcDbEntity
  8
画層1
 62
     0
100
AcDbMText
 10
279.4
 20
220.06
 30
0.0
 40
2.5
 41
0.0
 71
     5
 72
     1
  1
\A1;(152)
  7
STYLE1
 73
     1
 44
1.0
  0
POINT
  5
43D
330
436
100
AcDbEntity
  8
DEFPOINTS
 62
     0
100
AcDbPoint
 10
317.3999999999999
 20
210.48
 30
0.0
  0
POINT
  5
43E
330
436
100
AcDbEntity
  8
DEFPOINTS
 62
     0
100
AcDbPoint
 10
241.4
 20
186.9799999999999
 30
0.0
  0
POINT
  5
43F
330
436
100
AcDbEntity
  8
DEFPOINTS
 62
     0
100
AcDbPoint
 10
241.4
 20
217.9799999999999
 30
0.0
  0
ENDBLK
  5
441
330
436
100
AcDbEntity
  8
0
 62
     1
100
AcDbBlockEnd
  0
BLOCK
  5
45A
330
450
100
AcDbEntity
  8
0
 62
     1
100
AcDbBlockBegin
  2
*D17
 70
     1
 10
0.0
 20
0.0
 30
0.0
  3
*D17
  1

  0
LINE
  5
451
330
450
100
AcDbEntity
  8
画層1
 62
     0
370
    -2
100
AcDbLine
 10
241.4
 20
187.5999999999999
 30
0.0
 11
241.4
 21
219.2299999999999
 31
0.0
  0
LINE
  5
452
330
450
100
AcDbEntity
  8
画層1
 62
     0
370
    -2
100
AcDbLine
 10
235.8999999999999
 20
187.5999999999999
 30
0.0
 11
235.8999999999999
 21
219.2299999999999
 31
0.0
  0
LINE
  5
453
330
450
100
AcDbEntity
  8
画層1
 62
     0
370
    -2
100
AcDbLine
 10
239.9
 20
217.9799999999999
 30
0.0
 11
237.4
 21
217.9799999999999
 31
0.0
  0
INSERT
  5
454
330
450
100
AcDbEntity
  8
画層1
 62
     0
370
    -2
100
AcDbBlockReference
  2
_OPEN30
 10
241.4
 20
217.9799999999999
 30
0.0
 41
1.5
 42
1.5
 43
1.5
  0
INSERT
  5
455
330
450
100
AcDbEntity
  8
画層1
 62
     0
370
    -2
100
AcDbBlockReference
  2
_OPEN30
 10
235.8999999999999
 20
217.9799999999999
 30
0.0
 41
1.5
 42
1.5
 43
1.5
 50
180.0
  0
MTEXT
  5
456
330
450
100
AcDbEntity
  8
画層1
 62
     0
100
AcDbMText
 10
238.65
 20
219.85
 30
0.0
 40
2.5
 41
0.0
 71
     5
 72
     1
  1
\A1;11
  7
STYLE1
 73
     1
 44
1.0
  0
POINT
  5
457
330
450
100
AcDbEntity
  8
DEFPOINTS
 62
     0
100
AcDbPoint
 10
241.4
 20
186.9799999999999
 30
0.0
  0
POINT
  5
458
330
450
100
AcDbEntity
  8
DEFPOINTS
 62
     0
100
AcDbPoint
 10
235.8999999999999
 20
186.9799999999999
 30
0.0
  0
POINT
  5
459
330
450
100
AcDbEntity
  8
DEFPOINTS
 62
     0
100
AcDbPoint
 10
235.8999999999999
 20
217.9799999999999
 30
0.0
  0
ENDBLK
  5
45B
330
450
100
AcDbEntity
  8
0
 62
     1
100
AcDbBlockEnd
  0
BLOCK
  5
3B9
330
3AF
100
AcDbEntity
  8
0
 62
     1
100
AcDbBlockBegin
  2
*D18
 70
     1
 10
0.0
 20
0.0
 30
0.0
  3
*D18
  1

  0
LINE
  5
3B0
330
3AF
100
AcDbEntity
  8
画層1
 62
     0
370
    -2
100
AcDbLine
 10
317.3999999999999
 20
99.84999999999999
 30
0.0
 11
317.3999999999999
 21
91.73
 31
0.0
  0
LINE
  5
3B1
330
3AF
100
AcDbEntity
  8
画層1
 62
     0
370
    -2
100
AcDbLine
 10
263.3999999999999
 20
118.8499999999999
 30
0.0
 11
263.3999999999999
 21
91.73
 31
0.0
  0
LINE
  5
3B2
330
3AF
100
AcDbEntity
  8
画層1
 62
     0
370
    -2
100
AcDbLine
 10
315.8999999999999
 20
92.98
 30
0.0
 11
264.9
 21
92.98
 31
0.0
  0
INSERT
  5
3B3
330
3AF
100
AcDbEntity
  8
画層1
 62
     0
370
    -2
100
AcDbBlockReference
  2
_OPEN30
 10
317.3999999999999
 20
92.98
 30
0.0
 41
1.5
 42
1.5
 43
1.5
  0
INSERT
  5
3B4
330
3AF
100
AcDbEntity
  8
画層1
 62
     0
370
    -2
100
AcDbBlockReference
  2
_OPEN30
 10
263.3999999999999
 20
92.98
 30
0.0
 41
1.5
 42
1.5
 43
1.5
 50
180.0
  0
MTEXT
  5
3B5
330
3AF
100
AcDbEntity
  8
画層1
 62
     0
100
AcDbMText
 10
290.3999999999999
 20
95.06
 30
0.0
 40
2.5
 41
0.0
 71
     5
 72
     1
  1
\A1;(108)
  7
STYLE1
 73
     1
 44
1.0
  0
POINT
  5
3B6
330
3AF
100
AcDbEntity
  8
DEFPOINTS
 62
     0
100
AcDbPoint
 10
317.3999999999999
 20
100.48
 30
0.0
  0
POINT
  5
3B7
330
3AF
100
AcDbEntity
  8
DEFPOINTS
 62
     0
100
AcDbPoint
 10
263.3999999999999
 20
119.48
 30
0.0
  0
POINT
  5
3B8
330
3AF
100
AcDbEntity
  8
DEFPOINTS
 62
     0
100
AcDbPoint
 10
263.3999999999999
 20
92.98
 30
0.0
  0
ENDBLK
  5
3BA
330
3AF
100
AcDbEntity
  8
0
 62
     1
100
AcDbBlockEnd
  0
BLOCK
  5
17C
330
172
100
AcDbEntity
  8
0
 62
     1
100
AcDbBlockBegin
  2
*D19
 70
     1
 10
0.0
 20
0.0
 30
0.0
  3
*D19
  1

  0
LINE
  5
173
330
172
100
AcDbEntity
  8
画層1
 62
     0
370
    -2
100
AcDbLine
 10
131.18
 20
129.0999999999999
 30
0.0
 11
131.18
 21
137.7499999999999
 31
0.0
  0
LINE
  5
174
330
172
100
AcDbEntity
  8
画層1
 62
     0
370
    -2
100
AcDbLine
 10
137.93
 20
129.0999999999999
 30
0.0
 11
137.93
 21
137.7499999999999
 31
0.0
  0
LINE
  5
175
330
172
100
AcDbEntity
  8
画層1
 62
     0
370
    -2
100
AcDbLine
 10
132.68
 20
136.4999999999999
 30
0.0
 11
136.43
 21
136.4999999999999
 31
0.0
  0
INSERT
  5
176
330
172
100
AcDbEntity
  8
画層1
 62
     0
370
    -2
100
AcDbBlockReference
  2
_OPEN30
 10
131.18
 20
136.4999999999999
 30
0.0
 41
1.5
 42
1.5
 43
1.5
 50
180.0
  0
INSERT
  5
177
330
172
100
AcDbEntity
  8
画層1
 62
     0
370
    -2
100
AcDbBlockReference
  2
_OPEN30
 10
137.93
 20
136.4999999999999
 30
0.0
 41
1.5
 42
1.5
 43
1.5
  0
MTEXT
  5
178
330
172
100
AcDbEntity
  8
画層1
 62
     0
100
AcDbMText
 10
134.55
 20
138.3799999999999
 30
0.0
 40
2.5
 41
0.0
 71
     5
 72
     1
  1
\A1;13.5
  7
STYLE1
 73
     1
 44
1.0
  0
POINT
  5
179
330
172
100
AcDbEntity
  8
DEFPOINTS
 62
     0
100
AcDbPoint
 10
131.18
 20
128.4799999999999
 30
0.0
  0
POINT
  5
17A
330
172
100
AcDbEntity
  8
DEFPOINTS
 62
     0
100
AcDbPoint
 10
137.93
 20
128.4799999999999
 30
0.0
  0
POINT
  5
17B
330
172
100
AcDbEntity
  8
DEFPOINTS
 62
     0
100
AcDbPoint
 10
137.93
 20
136.4999999999999
 30
0.0
  0
ENDBLK
  5
17D
330
172
100
AcDbEntity
  8
0
 62
     1
100
AcDbBlockEnd
  0
BLOCK
  5
555
330
54B
100
AcDbEntity
  8
0
 62
     1
100
AcDbBlockBegin
  2
*D20
 70
     1
 10
0.0
 20
0.0
 30
0.0
  3
*D20
  1

  0
LINE
  5
6DE
330
54B
100
AcDbEntity
  8
画層1
 62
     0
370
    -2
100
AcDbLine
 10
123.4699999999999
 20
406.39
 30
0.0
 11
73.21000000000004
 21
406.39
 31
0.0
  0
LINE
  5
6DF
330
54B
100
AcDbEntity
  8
画層1
 62
     0
370
    -2
100
AcDbLine
 10
122.75
 20
186.3899999999999
 30
0.0
 11
73.20999999999999
 21
186.3899999999999
 31
0.0
  0
LINE
  5
6E0
330
54B
100
AcDbEntity
  8
画層1
 62
     0
370
    -2
100
AcDbLine
 10
74.46000000000004
 20
404.8899999999999
 30
0.0
 11
74.45999999999999
 21
187.8899999999999
 31
0.0
  0
INSERT
  5
6E1
330
54B
100
AcDbEntity
  8
画層1
 62
     0
370
    -2
100
AcDbBlockReference
  2
_OPEN30
 10
74.46000000000004
 20
406.39
 30
0.0
 41
1.5
 42
1.5
 43
1.5
 50
90.0
  0
INSERT
  5
6E2
330
54B
100
AcDbEntity
  8
画層1
 62
     0
370
    -2
100
AcDbBlockReference
  2
_OPEN30
 10
74.45999999999999
 20
186.3899999999999
 30
0.0
 41
1.5
 42
1.5
 43
1.5
 50
270.0
  0
MTEXT
  5
6E3
330
54B
100
AcDbEntity
  8
画層1
 62
     0
100
AcDbMText
 10
72.57999999999997
 20
296.3899999999999
 30
0.0
 40
2.5
 41
0.0
 71
     5
 72
     1
  1
\A1;220
  7
STYLE1
 11
0.0000000000000001
 21
1.0
 31
0.0
 73
     1
 44
1.0
  0
POINT
  5
6E4
330
54B
100
AcDbEntity
  8
DEFPOINTS
 62
     0
100
AcDbPoint
 10
124.0999999999999
 20
406.39
 30
0.0
  0
POINT
  5
6E5
330
54B
100
AcDbEntity
  8
DEFPOINTS
 62
     0
100
AcDbPoint
 10
123.38
 20
186.3899999999999
 30
0.0
  0
POINT
  5
6E6
330
54B
100
AcDbEntity
  8
DEFPOINTS
 62
     0
100
AcDbPoint
 10
74.45999999999999
 20
186.3899999999999
 30
0.0
  0
ENDBLK
  5
556
330
54B
100
AcDbEntity
  8
0
 62
     1
100
AcDbBlockEnd
  0
BLOCK
  5
561
330
557
100
AcDbEntity
  8
0
 62
     1
100
AcDbBlockBegin
  2
*D21
 70
     1
 10
0.0
 20
0.0
 30
0.0
  3
*D21
  1

  0
LINE
  5
6D5
330
557
100
AcDbEntity
  8
画層1
 62
     0
370
    -2
100
AcDbLine
 10
116.13
 20
396.3899999999999
 30
0.0
 11
87.21000000000003
 21
396.3899999999999
 31
0.0
  0
LINE
  5
6D6
330
557
100
AcDbEntity
  8
画層1
 62
     0
370
    -2
100
AcDbLine
 10
116.13
 20
196.3899999999999
 30
0.0
 11
87.21
 21
196.3899999999999
 31
0.0
  0
LINE
  5
6D7
330
557
100
AcDbEntity
  8
画層1
 62
     0
370
    -2
100
AcDbLine
 10
88.46000000000003
 20
394.89
 30
0.0
 11
88.46
 21
197.8899999999999
 31
0.0
  0
INSERT
  5
6D8
330
557
100
AcDbEntity
  8
画層1
 62
     0
370
    -2
100
AcDbBlockReference
  2
_OPEN30
 10
88.46000000000003
 20
396.3899999999999
 30
0.0
 41
1.5
 42
1.5
 43
1.5
 50
90.0
  0
INSERT
  5
6D9
330
557
100
AcDbEntity
  8
画層1
 62
     0
370
    -2
100
AcDbBlockReference
  2
_OPEN30
 10
88.46
 20
196.3899999999999
 30
0.0
 41
1.5
 42
1.5
 43
1.5
 50
270.0
  0
MTEXT
  5
6DA
330
557
100
AcDbEntity
  8
画層1
 62
     0
100
AcDbMText
 10
86.57999999999997
 20
296.3899999999999
 30
0.0
 40
2.5
 41
0.0
 71
     5
 72
     1
  1
\A1;200
  7
STYLE1
 11
0.0000000000000001
 21
1.0
 31
0.0
 73
     1
 44
1.0
  0
POINT
  5
6DB
330
557
100
AcDbEntity
  8
DEFPOINTS
 62
     0
100
AcDbPoint
 10
116.7599999999999
 20
396.3899999999999
 30
0.0
  0
POINT
  5
6DC
330
557
100
AcDbEntity
  8
DEFPOINTS
 62
     0
100
AcDbPoint
 10
116.7599999999999
 20
196.3899999999999
 30
0.0
  0
POINT
  5
6DD
330
557
100
AcDbEntity
  8
DEFPOINTS
 62
     0
100
AcDbPoint
 10
88.46
 20
196.3899999999999
 30
0.0
  0
ENDBLK
  5
562
330
557
100
AcDbEntity
  8
0
 62
     1
100
AcDbBlockEnd
  0
BLOCK
  5
56D
330
563
100
AcDbEntity
  8
0
 62
     1
100
AcDbBlockBegin
  2
*D22
 70
     1
 10
0.0
 20
0.0
 30
0.0
  3
*D22
  1

  0
LINE
  5
6F0
330
563
100
AcDbEntity
  8
画層1
 62
     0
370
    -2
100
AcDbLine
 10
116.59
 20
196.3899999999999
 30
0.0
 11
87.21
 21
196.3899999999999
 31
0.0
  0
LINE
  5
6F1
330
563
100
AcDbEntity
  8
画層1
 62
     0
370
    -2
100
AcDbLine
 10
122.75
 20
186.3899999999999
 30
0.0
 11
87.21
 21
186.3899999999999
 31
0.0
  0
LINE
  5
6F2
330
563
100
AcDbEntity
  8
画層1
 62
     0
370
    -2
100
AcDbLine
 10
88.46
 20
194.8899999999999
 30
0.0
 11
88.46
 21
187.8899999999999
 31
0.0
  0
INSERT
  5
6F3
330
563
100
AcDbEntity
  8
画層1
 62
     0
370
    -2
100
AcDbBlockReference
  2
_OPEN30
 10
88.46
 20
196.3899999999999
 30
0.0
 41
1.5
 42
1.5
 43
1.5
 50
90.0
  0
INSERT
  5
6F4
330
563
100
AcDbEntity
  8
画層1
 62
     0
370
    -2
100
AcDbBlockReference
  2
_OPEN30
 10
88.46
 20
186.3899999999999
 30
0.0
 41
1.5
 42
1.5
 43
1.5
 50
270.0
  0
MTEXT
  5
6F5
330
563
100
AcDbEntity
  8
画層1
 62
     0
100
AcDbMText
 10
86.57999999999997
 20
191.39
 30
0.0
 40
2.5
 41
0.0
 71
     5
 72
     1
  1
\A1;10
  7
STYLE1
 11
0.0000000000000001
 21
1.0
 31
0.0
 73
     1
 44
1.0
  0
POINT
  5
6F6
330
563
100
AcDbEntity
  8
DEFPOINTS
 62
     0
100
AcDbPoint
 10
117.2199999999999
 20
196.3899999999999
 30
0.0
  0
POINT
  5
6F7
330
563
100
AcDbEntity
  8
DEFPOINTS
 62
     0
100
AcDbPoint
 10
123.38
 20
186.3899999999999
 30
0.0
  0
POINT
  5
6F8
330
563
100
AcDbEntity
  8
DEFPOINTS
 62
     0
100
AcDbPoint
 10
88.46
 20
186.3899999999999
 30
0.0
  0
ENDBLK
  5
56E
330
563
100
AcDbEntity
  8
0
 62
     1
100
AcDbBlockEnd
  0
BLOCK
  5
579
330
56F
100
AcDbEntity
  8
0
 62
     1
100
AcDbBlockBegin
  2
*D23
 70
     1
 10
0.0
 20
0.0
 30
0.0
  3
*D23
  1

  0
LINE
  5
727
330
56F
100
AcDbEntity
  8
画層1
 62
     0
370
    -2
100
AcDbLine
 10
116.66
 20
397.0199999999999
 30
0.0
 11
116.66
 21
436.6399999999999
 31
0.0
  0
LINE
  5
728
330
56F
100
AcDbEntity
  8
画層1
 62
     0
370
    -2
100
AcDbLine
 10
218.6599999999999
 20
397.0199999999999
 30
0.0
 11
218.6599999999999
 21
436.6399999999999
 31
0.0
  0
LINE
  5
729
330
56F
100
AcDbEntity
  8
画層1
 62
     0
370
    -2
100
AcDbLine
 10
118.1599999999999
 20
435.39
 30
0.0
 11
217.16
 21
435.39
 31
0.0
  0
INSERT
  5
72A
330
56F
100
AcDbEntity
  8
画層1
 62
     0
370
    -2
100
AcDbBlockReference
  2
_OPEN30
 10
116.66
 20
435.39
 30
0.0
 41
1.5
 42
1.5
 43
1.5
 50
180.0
  0
INSERT
  5
72B
330
56F
100
AcDbEntity
  8
画層1
 62
     0
370
    -2
100
AcDbBlockReference
  2
_OPEN30
 10
218.6599999999999
 20
435.39
 30
0.0
 41
1.5
 42
1.5
 43
1.5
  0
MTEXT
  5
72C
330
56F
100
AcDbEntity
  8
画層1
 62
     0
100
AcDbMText
 10
167.66
 20
437.27
 30
0.0
 40
2.5
 41
0.0
 71
     5
 72
     1
  1
\A1;102
  7
STYLE1
 73
     1
 44
1.0
  0
POINT
  5
72D
330
56F
100
AcDbEntity
  8
DEFPOINTS
 62
     0
100
AcDbPoint
 10
116.66
 20
396.3899999999999
 30
0.0
  0
POINT
  5
72E
330
56F
100
AcDbEntity
  8
DEFPOINTS
 62
     0
100
AcDbPoint
 10
218.6599999999999
 20
396.3899999999999
 30
0.0
  0
POINT
  5
72F
330
56F
100
AcDbEntity
  8
DEFPOINTS
 62
     0
100
AcDbPoint
 10
218.6599999999999
 20
435.39
 30
0.0
  0
ENDBLK
  5
57A
330
56F
100
AcDbEntity
  8
0
 62
     1
100
AcDbBlockEnd
  0
BLOCK
  5
585
330
57B
100
AcDbEntity
  8
0
 62
     1
100
AcDbBlockBegin
  2
*D24
 70
     1
 10
0.0
 20
0.0
 30
0.0
  3
*D24
  1

  0
LINE
  5
6E7
330
57B
100
AcDbEntity
  8
画層1
 62
     0
370
    -2
100
AcDbLine
 10
171.2899999999999
 20
192.3899999999999
 30
0.0
 11
249.1099999999999
 21
192.3899999999999
 31
0.0
  0
LINE
  5
6E8
330
57B
100
AcDbEntity
  8
画層1
 62
     0
370
    -2
100
AcDbLine
 10
171.2899999999999
 20
400.3899999999999
 30
0.0
 11
249.11
 21
400.3899999999999
 31
0.0
  0
LINE
  5
6E9
330
57B
100
AcDbEntity
  8
画層1
 62
     0
370
    -2
100
AcDbLine
 10
247.8599999999999
 20
193.8899999999999
 30
0.0
 11
247.86
 21
398.89
 31
0.0
  0
INSERT
  5
6EA
330
57B
100
AcDbEntity
  8
画層1
 62
     0
370
    -2
100
AcDbBlockReference
  2
_OPEN30
 10
247.8599999999999
 20
192.3899999999999
 30
0.0
 41
1.5
 42
1.5
 43
1.5
 50
270.0
  0
INSERT
  5
6EB
330
57B
100
AcDbEntity
  8
画層1
 62
     0
370
    -2
100
AcDbBlockReference
  2
_OPEN30
 10
247.86
 20
400.3899999999999
 30
0.0
 41
1.5
 42
1.5
 43
1.5
 50
90.0
  0
MTEXT
  5
6EC
330
57B
100
AcDbEntity
  8
画層1
 62
     0
100
AcDbMText
 10
245.9799999999999
 20
296.39
 30
0.0
 40
2.5
 41
0.0
 71
     5
 72
     1
  1
\A1;208
  7
STYLE1
 11
0.0000000000000001
 21
1.0
 31
0.0
 73
     1
 44
1.0
  0
POINT
  5
6ED
330
57B
100
AcDbEntity
  8
DEFPOINTS
 62
     0
100
AcDbPoint
 10
170.6599999999999
 20
192.3899999999999
 30
0.0
  0
POINT
  5
6EE
330
57B
100
AcDbEntity
  8
DEFPOINTS
 62
     0
100
AcDbPoint
 10
170.6599999999999
 20
400.3899999999999
 30
0.0
  0
POINT
  5
6EF
330
57B
100
AcDbEntity
  8
DEFPOINTS
 62
     0
100
AcDbPoint
 10
247.86
 20
400.3899999999999
 30
0.0
  0
ENDBLK
  5
586
330
57B
100
AcDbEntity
  8
0
 62
     1
100
AcDbBlockEnd
  0
BLOCK
  5
591
330
587
100
AcDbEntity
  8
0
 62
     1
100
AcDbBlockBegin
  2
*D25
 70
     1
 10
0.0
 20
0.0
 30
0.0
  3
*D25
  1

  0
LINE
  5
6CC
330
587
100
AcDbEntity
  8
画層1
 62
     0
370
    -2
100
AcDbLine
 10
218.75
 20
196.3899999999999
 30
0.0
 11
235.11
 21
196.3899999999999
 31
0.0
  0
LINE
  5
6CD
330
587
100
AcDbEntity
  8
画層1
 62
     0
370
    -2
100
AcDbLine
 10
208.2899999999999
 20
231.3899999999999
 30
0.0
 11
235.11
 21
231.3899999999999
 31
0.0
  0
LINE
  5
6CE
330
587
100
AcDbEntity
  8
画層1
 62
     0
370
    -2
100
AcDbLine
 10
233.86
 20
197.8899999999999
 30
0.0
 11
233.86
 21
229.8899999999999
 31
0.0
  0
INSERT
  5
6CF
330
587
100
AcDbEntity
  8
画層1
 62
     0
370
    -2
100
AcDbBlockReference
  2
_OPEN30
 10
233.86
 20
196.3899999999999
 30
0.0
 41
1.5
 42
1.5
 43
1.5
 50
270.0
  0
INSERT
  5
6D0
330
587
100
AcDbEntity
  8
画層1
 62
     0
370
    -2
100
AcDbBlockReference
  2
_OPEN30
 10
233.86
 20
231.3899999999999
 30
0.0
 41
1.5
 42
1.5
 43
1.5
 50
90.0
  0
MTEXT
  5
6D1
330
587
100
AcDbEntity
  8
画層1
 62
     0
100
AcDbMText
 10
231.9799999999999
 20
213.89
 30
0.0
 40
2.5
 41
0.0
 71
     5
 72
     1
  1
\A1;35
  7
STYLE1
 11
0.0000000000000001
 21
1.0
 31
0.0
 73
     1
 44
1.0
  0
POINT
  5
6D2
330
587
100
AcDbEntity
  8
DEFPOINTS
 62
     0
100
AcDbPoint
 10
218.12
 20
196.3899999999999
 30
0.0
  0
POINT
  5
6D3
330
587
100
AcDbEntity
  8
DEFPOINTS
 62
     0
100
AcDbPoint
 10
207.66
 20
231.3899999999999
 30
0.0
  0
POINT
  5
6D4
330
587
100
AcDbEntity
  8
DEFPOINTS
 62
     0
100
AcDbPoint
 10
233.86
 20
231.3899999999999
 30
0.0
  0
ENDBLK
  5
592
330
587
100
AcDbEntity
  8
0
 62
     1
100
AcDbBlockEnd
  0
BLOCK
  5
59D
330
593
100
AcDbEntity
  8
0
 62
     1
100
AcDbBlockBegin
  2
*D26
 70
     1
 10
0.0
 20
0.0
 30
0.0
  3
*D26
  1

  0
LINE
  5
71E
330
593
100
AcDbEntity
  8
画層1
 62
     0
370
    -2
100
AcDbLine
 10
168.9199999999999
 20
243.0199999999999
 30
0.0
 11
168.9199999999999
 21
259.6799999999999
 31
0.0
  0
LINE
  5
71F
330
593
100
AcDbEntity
  8
画層1
 62
     0
370
    -2
100
AcDbLine
 10
182.4199999999999
 20
243.0199999999999
 30
0.0
 11
182.4199999999999
 21
259.6799999999999
 31
0.0
  0
LINE
  5
720
330
593
100
AcDbEntity
  8
画層1
 62
     0
370
    -2
100
AcDbLine
 10
170.4199999999999
 20
258.43
 30
0.0
 11
180.9199999999999
 21
258.43
 31
0.0
  0
INSERT
  5
721
330
593
100
AcDbEntity
  8
画層1
 62
     0
370
    -2
100
AcDbBlockReference
  2
_OPEN30
 10
168.9199999999999
 20
258.43
 30
0.0
 41
1.5
 42
1.5
 43
1.5
 50
180.0
  0
INSERT
  5
722
330
593
100
AcDbEntity
  8
画層1
 62
     0
370
    -2
100
AcDbBlockReference
  2
_OPEN30
 10
182.4199999999999
 20
258.43
 30
0.0
 41
1.5
 42
1.5
 43
1.5
  0
MTEXT
  5
723
330
593
100
AcDbEntity
  8
画層1
 62
     0
100
AcDbMText
 10
175.6699999999999
 20
260.3099999999999
 30
0.0
 40
2.5
 41
0.0
 71
     5
 72
     1
  1
\A1;13.5
  7
STYLE1
 73
     1
 44
1.0
  0
POINT
  5
724
330
593
100
AcDbEntity
  8
DEFPOINTS
 62
     0
100
AcDbPoint
 10
168.9199999999999
 20
242.3899999999999
 30
0.0
  0
POINT
  5
725
330
593
100
AcDbEntity
  8
DEFPOINTS
 62
     0
100
AcDbPoint
 10
182.4199999999999
 20
242.3899999999999
 30
0.0
  0
POINT
  5
726
330
593
100
AcDbEntity
  8
DEFPOINTS
 62
     0
100
AcDbPoint
 10
182.4199999999999
 20
258.43
 30
0.0
  0
ENDBLK
  5
59E
330
593
100
AcDbEntity
  8
0
 62
     1
100
AcDbBlockEnd
  0
BLOCK
  5
5AB
330
59F
100
AcDbEntity
  8
0
 62
     1
100
AcDbBlockBegin
  2
*D27
 70
     1
 10
0.0
 20
0.0
 30
0.0
  3
*D27
  1

  0
LINE
  5
702
330
59F
100
AcDbEntity
  8
画層1
 62
     0
370
    -2
100
AcDbLine
 10
164.66
 20
185.7599999999999
 30
0.0
 11
164.66
 21
170.1399999999999
 31
0.0
  0
LINE
  5
703
330
59F
100
AcDbEntity
  8
画層1
 62
     0
370
    -2
100
AcDbLine
 10
170.6599999999999
 20
185.7599999999999
 30
0.0
 11
170.6599999999999
 21
170.1399999999999
 31
0.0
  0
LINE
  5
704
330
59F
100
AcDbEntity
  8
画層1
 62
     0
370
    -2
100
AcDbLine
 10
166.1599999999999
 20
171.3899999999999
 30
0.0
 11
169.16
 21
171.3899999999999
 31
0.0
  0
LINE
  5
705
330
59F
100
AcDbEntity
  8
画層1
 62
     0
370
    -2
100
AcDbLine
 10
170.6599999999999
 20
171.3899999999999
 30
0.0
 11
187.7220304568528
 21
171.3899999999999
 31
0.0
  0
INSERT
  5
706
330
59F
100
AcDbEntity
  8
画層1
 62
     0
370
    -2
100
AcDbBlockReference
  2
_OPEN30
 10
164.66
 20
171.3899999999999
 30
0.0
 41
1.5
 42
1.5
 43
1.5
 50
180.0
  0
INSERT
  5
707
330
59F
100
AcDbEntity
  8
画層1
 62
     0
370
    -2
100
AcDbBlockReference
  2
_OPEN30
 10
170.6599999999999
 20
171.3899999999999
 30
0.0
 41
1.5
 42
1.5
 43
1.5
  0
MTEXT
  5
708
330
59F
100
AcDbEntity
  8
画層1
 62
     0
100
AcDbMText
 10
179.9410152284263
 20
173.4349746192893
 30
0.0
 40
2.5
 41
0.0
 71
     5
 72
     1
  1
\A1;6キリカキ
  7
STYLE1
 73
     1
 44
1.0
  0
POINT
  5
709
330
59F
100
AcDbEntity
  8
DEFPOINTS
 62
     0
100
AcDbPoint
 10
164.66
 20
186.3899999999999
 30
0.0
  0
POINT
  5
70A
330
59F
100
AcDbEntity
  8
DEFPOINTS
 62
     0
100
AcDbPoint
 10
170.6599999999999
 20
186.3899999999999
 30
0.0
  0
POINT
  5
70B
330
59F
100
AcDbEntity
  8
DEFPOINTS
 62
     0
100
AcDbPoint
 10
170.6599999999999
 20
171.3899999999999
 30
0.0
  0
ENDBLK
  5
5AC
330
59F
100
AcDbEntity
  8
0
 62
     1
100
AcDbBlockEnd
  0
BLOCK
  5
5B7
330
5AD
100
AcDbEntity
  8
0
 62
     1
100
AcDbBlockBegin
  2
*D28
 70
     1
 10
0.0
 20
0.0
 30
0.0
  3
*D28
  1

  0
LINE
  5
74B
330
5AD
100
AcDbEntity
  8
画層1
 62
     0
370
    -2
100
AcDbLine
 10
541.36
 20
407.0199999999999
 30
0.0
 11
541.36
 21
436.6399999999999
 31
0.0
  0
LINE
  5
74C
330
5AD
100
AcDbEntity
  8
画層1
 62
     0
370
    -2
100
AcDbLine
 10
365.36
 20
392.62
 30
0.0
 11
365.36
 21
436.6399999999999
 31
0.0
  0
LINE
  5
74D
330
5AD
100
AcDbEntity
  8
画層1
 62
     0
370
    -2
100
AcDbLine
 10
539.86
 20
435.39
 30
0.0
 11
366.86
 21
435.39
 31
0.0
  0
INSERT
  5
74E
330
5AD
100
AcDbEntity
  8
画層1
 62
     0
370
    -2
100
AcDbBlockReference
  2
_OPEN30
 10
541.36
 20
435.39
 30
0.0
 41
1.5
 42
1.5
 43
1.5
  0
INSERT
  5
74F
330
5AD
100
AcDbEntity
  8
画層1
 62
     0
370
    -2
100
AcDbBlockReference
  2
_OPEN30
 10
365.36
 20
435.39
 30
0.0
 41
1.5
 42
1.5
 43
1.5
 50
180.0
  0
MTEXT
  5
750
330
5AD
100
AcDbEntity
  8
画層1
 62
     0
100
AcDbMText
 10
453.3599999999999
 20
437.27
 30
0.0
 40
2.5
 41
0.0
 71
     5
 72
     1
  1
\A1;176
  7
STYLE1
 73
     1
 44
1.0
  0
POINT
  5
751
330
5AD
100
AcDbEntity
  8
DEFPOINTS
 62
     0
100
AcDbPoint
 10
541.36
 20
406.39
 30
0.0
  0
POINT
  5
752
330
5AD
100
AcDbEntity
  8
DEFPOINTS
 62
     0
100
AcDbPoint
 10
365.36
 20
391.99
 30
0.0
  0
POINT
  5
753
330
5AD
100
AcDbEntity
  8
DEFPOINTS
 62
     0
100
AcDbPoint
 10
365.36
 20
435.39
 30
0.0
  0
ENDBLK
  5
5B8
330
5AD
100
AcDbEntity
  8
0
 62
     1
100
AcDbBlockEnd
  0
BLOCK
  5
5C3
330
5B9
100
AcDbEntity
  8
0
 62
     1
100
AcDbBlockBegin
  2
*D29
 70
     1
 10
0.0
 20
0.0
 30
0.0
  3
*D29
  1

  0
LINE
  5
754
330
5B9
100
AcDbEntity
  8
画層1
 62
     0
370
    -2
100
AcDbLine
 10
541.36
 20
407.0199999999999
 30
0.0
 11
541.36
 21
422.6399999999999
 31
0.0
  0
LINE
  5
755
330
5B9
100
AcDbEntity
  8
画層1
 62
     0
370
    -2
100
AcDbLine
 10
389.36
 20
360.02
 30
0.0
 11
389.36
 21
422.6399999999999
 31
0.0
  0
LINE
  5
756
330
5B9
100
AcDbEntity
  8
画層1
 62
     0
370
    -2
100
AcDbLine
 10
539.86
 20
421.3899999999999
 30
0.0
 11
390.86
 21
421.3899999999999
 31
0.0
  0
INSERT
  5
757
330
5B9
100
AcDbEntity
  8
画層1
 62
     0
370
    -2
100
AcDbBlockReference
  2
_OPEN30
 10
541.36
 20
421.3899999999999
 30
0.0
 41
1.5
 42
1.5
 43
1.5
  0
INSERT
  5
758
330
5B9
100
AcDbEntity
  8
画層1
 62
     0
370
    -2
100
AcDbBlockReference
  2
_OPEN30
 10
389.36
 20
421.3899999999999
 30
0.0
 41
1.5
 42
1.5
 43
1.5
 50
180.0
  0
MTEXT
  5
759
330
5B9
100
AcDbEntity
  8
画層1
 62
     0
100
AcDbMText
 10
465.3599999999999
 20
423.4793908629441
 30
0.0
 40
2.5
 41
0.0
 71
     5
 72
     1
  1
\A1;(152)
  7
STYLE1
 73
     1
 44
1.0
  0
POINT
  5
75A
330
5B9
100
AcDbEntity
  8
DEFPOINTS
 62
     0
100
AcDbPoint
 10
541.36
 20
406.39
 30
0.0
  0
POINT
  5
75B
330
5B9
100
AcDbEntity
  8
DEFPOINTS
 62
     0
100
AcDbPoint
 10
389.36
 20
359.39
 30
0.0
  0
POINT
  5
75C
330
5B9
100
AcDbEntity
  8
DEFPOINTS
 62
     0
100
AcDbPoint
 10
389.36
 20
421.3899999999999
 30
0.0
  0
ENDBLK
  5
5C4
330
5B9
100
AcDbEntity
  8
0
 62
     1
100
AcDbBlockEnd
  0
BLOCK
  5
5D1
330
5C5
100
AcDbEntity
  8
0
 62
     1
100
AcDbBlockBegin
  2
*D30
 70
     1
 10
0.0
 20
0.0
 30
0.0
  3
*D30
  1

  0
LINE
  5
75D
330
5C5
100
AcDbEntity
  8
画層1
 62
     0
370
    -2
100
AcDbLine
 10
389.36
 20
360.02
 30
0.0
 11
389.36
 21
422.6399999999999
 31
0.0
  0
LINE
  5
75E
330
5C5
100
AcDbEntity
  8
画層1
 62
     0
370
    -2
100
AcDbLine
 10
378.36
 20
360.02
 30
0.0
 11
378.36
 21
422.6399999999999
 31
0.0
  0
LINE
  5
75F
330
5C5
100
AcDbEntity
  8
画層1
 62
     0
370
    -2
100
AcDbLine
 10
387.86
 20
421.3899999999999
 30
0.0
 11
379.86
 21
421.3899999999999
 31
0.0
  0
INSERT
  5
760
330
5C5
100
AcDbEntity
  8
画層1
 62
     0
370
    -2
100
AcDbBlockReference
  2
_OPEN30
 10
389.36
 20
421.3899999999999
 30
0.0
 41
1.5
 42
1.5
 43
1.5
  0
INSERT
  5
761
330
5C5
100
AcDbEntity
  8
画層1
 62
     0
370
    -2
100
AcDbBlockReference
  2
_OPEN30
 10
378.36
 20
421.3899999999999
 30
0.0
 41
1.5
 42
1.5
 43
1.5
 50
180.0
  0
MTEXT
  5
762
330
5C5
100
AcDbEntity
  8
画層1
 62
     0
100
AcDbMText
 10
383.8599999999999
 20
423.2699999999999
 30
0.0
 40
2.5
 41
0.0
 71
     5
 72
     1
  1
\A1;11
  7
STYLE1
 73
     1
 44
1.0
  0
POINT
  5
763
330
5C5
100
AcDbEntity
  8
DEFPOINTS
 62
     0
100
AcDbPoint
 10
389.36
 20
359.39
 30
0.0
  0
POINT
  5
764
330
5C5
100
AcDbEntity
  8
DEFPOINTS
 62
     0
100
AcDbPoint
 10
378.36
 20
359.39
 30
0.0
  0
POINT
  5
765
330
5C5
100
AcDbEntity
  8
DEFPOINTS
 62
     0
100
AcDbPoint
 10
378.36
 20
421.3899999999999
 30
0.0
  0
ENDBLK
  5
5D2
330
5C5
100
AcDbEntity
  8
0
 62
     1
100
AcDbBlockEnd
  0
BLOCK
  5
5DD
330
5D3
100
AcDbEntity
  8
0
 62
     1
100
AcDbBlockBegin
  2
*D31
 70
     1
 10
0.0
 20
0.0
 30
0.0
  3
*D31
  1

  0
LINE
  5
742
330
5D3
100
AcDbEntity
  8
画層1
 62
     0
370
    -2
100
AcDbLine
 10
541.36
 20
185.7599999999999
 30
0.0
 11
541.36
 21
170.1399999999999
 31
0.0
  0
LINE
  5
743
330
5D3
100
AcDbEntity
  8
画層1
 62
     0
370
    -2
100
AcDbLine
 10
433.36
 20
223.76
 30
0.0
 11
433.36
 21
170.1399999999999
 31
0.0
  0
LINE
  5
744
330
5D3
100
AcDbEntity
  8
画層1
 62
     0
370
    -2
100
AcDbLine
 10
539.86
 20
171.3899999999999
 30
0.0
 11
434.86
 21
171.3899999999999
 31
0.0
  0
INSERT
  5
745
330
5D3
100
AcDbEntity
  8
画層1
 62
     0
370
    -2
100
AcDbBlockReference
  2
_OPEN30
 10
541.36
 20
171.3899999999999
 30
0.0
 41
1.5
 42
1.5
 43
1.5
  0
INSERT
  5
746
330
5D3
100
AcDbEntity
  8
画層1
 62
     0
370
    -2
100
AcDbBlockReference
  2
_OPEN30
 10
433.36
 20
171.3899999999999
 30
0.0
 41
1.5
 42
1.5
 43
1.5
 50
180.0
  0
MTEXT
  5
747
330
5D3
100
AcDbEntity
  8
画層1
 62
     0
100
AcDbMText
 10
487.36
 20
173.4793908629441
 30
0.0
 40
2.5
 41
0.0
 71
     5
 72
     1
  1
\A1;(108)
  7
STYLE1
 73
     1
 44
1.0
  0
POINT
  5
748
330
5D3
100
AcDbEntity
  8
DEFPOINTS
 62
     0
100
AcDbPoint
 10
541.36
 20
186.3899999999999
 30
0.0
  0
POINT
  5
749
330
5D3
100
AcDbEntity
  8
DEFPOINTS
 62
     0
100
AcDbPoint
 10
433.36
 20
224.39
 30
0.0
  0
POINT
  5
74A
330
5D3
100
AcDbEntity
  8
DEFPOINTS
 62
     0
100
AcDbPoint
 10
433.36
 20
171.3899999999999
 30
0.0
  0
ENDBLK
  5
5DE
330
5D3
100
AcDbEntity
  8
0
 62
     1
100
AcDbBlockEnd
  0
BLOCK
  5
60E
330
604
100
AcDbEntity
  8
0
 62
     1
100
AcDbBlockBegin
  2
*D32
 70
     1
 10
0.0
 20
0.0
 30
0.0
  3
*D32
  1

  0
LINE
  5
6F9
330
604
100
AcDbEntity
  8
画層1
 62
     0
370
    -2
100
AcDbLine
 10
211.43
 20
186.3899999999999
 30
0.0
 11
249.1099999999999
 21
186.3899999999999
 31
0.0
  0
LINE
  5
6FA
330
604
100
AcDbEntity
  8
画層1
 62
     0
370
    -2
100
AcDbLine
 10
171.2899999999999
 20
192.3899999999999
 30
0.0
 11
249.11
 21
192.3899999999999
 31
0.0
  0
LINE
  5
6FB
330
604
100
AcDbEntity
  8
画層1
 62
     0
370
    -2
100
AcDbLine
 10
247.8599999999999
 20
187.8899999999999
 30
0.0
 11
247.8599999999999
 21
190.8899999999999
 31
0.0
  0
INSERT
  5
6FC
330
604
100
AcDbEntity
  8
画層1
 62
     0
370
    -2
100
AcDbBlockReference
  2
_OPEN30
 10
247.8599999999999
 20
186.3899999999999
 30
0.0
 41
1.5
 42
1.5
 43
1.5
 50
270.0
  0
INSERT
  5
6FD
330
604
100
AcDbEntity
  8
画層1
 62
     0
370
    -2
100
AcDbBlockReference
  2
_OPEN30
 10
247.86
 20
192.3899999999999
 30
0.0
 41
1.5
 42
1.5
 43
1.5
 50
90.0
  0
MTEXT
  5
6FE
330
604
100
AcDbEntity
  8
画層1
 62
     0
100
AcDbMText
 10
245.9799999999999
 20
189.39
 30
0.0
 40
2.5
 41
0.0
 71
     5
 72
     1
  1
\A1;6
  7
STYLE1
 11
0.0000000000000001
 21
1.0
 31
0.0
 73
     1
 44
1.0
  0
POINT
  5
6FF
330
604
100
AcDbEntity
  8
DEFPOINTS
 62
     0
100
AcDbPoint
 10
210.8
 20
186.3899999999999
 30
0.0
  0
POINT
  5
700
330
604
100
AcDbEntity
  8
DEFPOINTS
 62
     0
100
AcDbPoint
 10
170.6599999999999
 20
192.3899999999999
 30
0.0
  0
POINT
  5
701
330
604
100
AcDbEntity
  8
DEFPOINTS
 62
     0
100
AcDbPoint
 10
247.86
 20
192.3899999999999
 30
0.0
  0
ENDBLK
  5
60F
330
604
100
AcDbEntity
  8
0
 62
     1
100
AcDbBlockEnd
  0
BLOCK
  5
63E
330
634
100
AcDbEntity
  8
0
 62
     1
100
AcDbBlockBegin
  2
*D33
 70
     1
 10
0.0
 20
0.0
 30
0.0
  3
*D33
  1

  0
LINE
  5
730
330
634
100
AcDbEntity
  8
画層1
 62
     0
370
    -2
100
AcDbLine
 10
171.2899999999999
 20
400.3899999999999
 30
0.0
 11
249.11
 21
400.3899999999999
 31
0.0
  0
LINE
  5
731
330
634
100
AcDbEntity
  8
画層1
 62
     0
370
    -2
100
AcDbLine
 10
212.09
 20
406.39
 30
0.0
 11
249.11
 21
406.39
 31
0.0
  0
LINE
  5
732
330
634
100
AcDbEntity
  8
画層1
 62
     0
370
    -2
100
AcDbLine
 10
247.86
 20
401.89
 30
0.0
 11
247.86
 21
404.8899999999999
 31
0.0
  0
INSERT
  5
733
330
634
100
AcDbEntity
  8
画層1
 62
     0
370
    -2
100
AcDbBlockReference
  2
_OPEN30
 10
247.86
 20
400.3899999999999
 30
0.0
 41
1.5
 42
1.5
 43
1.5
 50
270.0
  0
INSERT
  5
734
330
634
100
AcDbEntity
  8
画層1
 62
     0
370
    -2
100
AcDbBlockReference
  2
_OPEN30
 10
247.86
 20
406.39
 30
0.0
 41
1.5
 42
1.5
 43
1.5
 50
90.0
  0
MTEXT
  5
735
330
634
100
AcDbEntity
  8
画層1
 62
     0
100
AcDbMText
 10
245.9799999999999
 20
403.39
 30
0.0
 40
2.5
 41
0.0
 71
     5
 72
     1
  1
\A1;12
  7
STYLE1
 11
0.0000000000000001
 21
1.0
 31
0.0
 73
     1
 44
1.0
  0
POINT
  5
736
330
634
100
AcDbEntity
  8
DEFPOINTS
 62
     0
100
AcDbPoint
 10
170.6599999999999
 20
400.3899999999999
 30
0.0
  0
POINT
  5
737
330
634
100
AcDbEntity
  8
DEFPOINTS
 62
     0
100
AcDbPoint
 10
211.46
 20
406.39
 30
0.0
  0
POINT
  5
738
330
634
100
AcDbEntity
  8
DEFPOINTS
 62
     0
100
AcDbPoint
 10
247.86
 20
406.39
 30
0.0
  0
ENDBLK
  5
63F
330
634
100
AcDbEntity
  8
0
 62
     1
100
AcDbBlockEnd
  0
BLOCK
  5
64A
330
640
100
AcDbEntity
  8
0
 62
     1
100
AcDbBlockBegin
  2
*D34
 70
     1
 10
0.0
 20
0.0
 30
0.0
  3
*D34
  1

  0
LINE
  5
715
330
640
100
AcDbEntity
  8
画層1
 62
     0
370
    -2
100
AcDbLine
 10
116.59
 20
352.51
 30
0.0
 11
101.2099999999999
 21
352.51
 31
0.0
  0
LINE
  5
716
330
640
100
AcDbEntity
  8
画層1
 62
     0
370
    -2
100
AcDbLine
 10
116.59
 20
344.51
 30
0.0
 11
101.2099999999999
 21
344.51
 31
0.0
  0
LINE
  5
717
330
640
100
AcDbEntity
  8
画層1
 62
     0
370
    -2
100
AcDbLine
 10
102.4599999999999
 20
351.0099999999999
 30
0.0
 11
102.4599999999999
 21
346.01
 31
0.0
  0
INSERT
  5
718
330
640
100
AcDbEntity
  8
画層1
 62
     0
370
    -2
100
AcDbBlockReference
  2
_OPEN30
 10
102.46
 20
352.51
 30
0.0
 41
1.5
 42
1.5
 43
1.5
 50
90.0
  0
INSERT
  5
719
330
640
100
AcDbEntity
  8
画層1
 62
     0
370
    -2
100
AcDbBlockReference
  2
_OPEN30
 10
102.4599999999999
 20
344.51
 30
0.0
 41
1.5
 42
1.5
 43
1.5
 50
270.0
  0
MTEXT
  5
71A
330
640
100
AcDbEntity
  8
画層1
 62
     0
100
AcDbMText
 10
100.5799999999999
 20
348.51
 30
0.0
 40
2.5
 41
0.0
 71
     5
 72
     1
  1
\A1;8
  7
STYLE1
 11
0.0000000000000001
 21
1.0
 31
0.0
 73
     1
 44
1.0
  0
POINT
  5
71B
330
640
100
AcDbEntity
  8
DEFPOINTS
 62
     0
100
AcDbPoint
 10
117.2199999999999
 20
352.51
 30
0.0
  0
POINT
  5
71C
330
640
100
AcDbEntity
  8
DEFPOINTS
 62
     0
100
AcDbPoint
 10
117.2199999999999
 20
344.51
 30
0.0
  0
POINT
  5
71D
330
640
100
AcDbEntity
  8
DEFPOINTS
 62
     0
100
AcDbPoint
 10
102.4599999999999
 20
344.51
 30
0.0
  0
ENDBLK
  5
64B
330
640
100
AcDbEntity
  8
0
 62
     1
100
AcDbBlockEnd
  0
BLOCK
  5
656
330
64C
100
AcDbEntity
  8
0
 62
     1
100
AcDbBlockBegin
  2
*D35
 70
     1
 10
0.0
 20
0.0
 30
0.0
  3
*D35
  1

  0
LINE
  5
70C
330
64C
100
AcDbEntity
  8
画層1
 62
     0
370
    -2
100
AcDbLine
 10
123.4699999999999
 20
406.39
 30
0.0
 11
87.21
 21
406.39
 31
0.0
  0
LINE
  5
70D
330
64C
100
AcDbEntity
  8
画層1
 62
     0
370
    -2
100
AcDbLine
 10
116.13
 20
396.3899999999999
 30
0.0
 11
87.21
 21
396.3899999999999
 31
0.0
  0
LINE
  5
70E
330
64C
100
AcDbEntity
  8
画層1
 62
     0
370
    -2
100
AcDbLine
 10
88.46
 20
404.8899999999999
 30
0.0
 11
88.46
 21
397.8899999999999
 31
0.0
  0
INSERT
  5
70F
330
64C
100
AcDbEntity
  8
画層1
 62
     0
370
    -2
100
AcDbBlockReference
  2
_OPEN30
 10
88.46
 20
406.39
 30
0.0
 41
1.5
 42
1.5
 43
1.5
 50
90.0
  0
INSERT
  5
710
330
64C
100
AcDbEntity
  8
画層1
 62
     0
370
    -2
100
AcDbBlockReference
  2
_OPEN30
 10
88.46
 20
396.3899999999999
 30
0.0
 41
1.5
 42
1.5
 43
1.5
 50
270.0
  0
MTEXT
  5
711
330
64C
100
AcDbEntity
  8
画層1
 62
     0
100
AcDbMText
 10
86.57999999999994
 20
401.3899999999999
 30
0.0
 40
2.5
 41
0.0
 71
     5
 72
     1
  1
\A1;10
  7
STYLE1
 11
0.0000000000000001
 21
1.0
 31
0.0
 73
     1
 44
1.0
  0
POINT
  5
712
330
64C
100
AcDbEntity
  8
DEFPOINTS
 62
     0
100
AcDbPoint
 10
124.0999999999999
 20
406.39
 30
0.0
  0
POINT
  5
713
330
64C
100
AcDbEntity
  8
DEFPOINTS
 62
     0
100
AcDbPoint
 10
116.7599999999999
 20
396.3899999999999
 30
0.0
  0
POINT
  5
714
330
64C
100
AcDbEntity
  8
DEFPOINTS
 62
     0
100
AcDbPoint
 10
88.46
 20
396.3899999999999
 30
0.0
  0
ENDBLK
  5
657
330
64C
100
AcDbEntity
  8
0
 62
     1
100
AcDbBlockEnd
  0
BLOCK
  5
662
330
658
100
AcDbEntity
  8
0
 62
     1
100
AcDbBlockBegin
  2
*D36
 70
     1
 10
0.0
 20
0.0
 30
0.0
  3
*D36
  1

  0
LINE
  5
739
330
658
100
AcDbEntity
  8
画層1
 62
     0
370
    -2
100
AcDbLine
 10
164.66
 20
407.0199999999999
 30
0.0
 11
164.66
 21
422.6399999999999
 31
0.0
  0
LINE
  5
73A
330
658
100
AcDbEntity
  8
画層1
 62
     0
370
    -2
100
AcDbLine
 10
170.6599999999999
 20
407.0199999999999
 30
0.0
 11
170.6599999999999
 21
422.6399999999999
 31
0.0
  0
LINE
  5
73B
330
658
100
AcDbEntity
  8
画層1
 62
     0
370
    -2
100
AcDbLine
 10
166.1599999999999
 20
421.3899999999999
 30
0.0
 11
169.16
 21
421.3899999999999
 31
0.0
  0
INSERT
  5
73C
330
658
100
AcDbEntity
  8
画層1
 62
     0
370
    -2
100
AcDbBlockReference
  2
_OPEN30
 10
164.66
 20
421.3899999999999
 30
0.0
 41
1.5
 42
1.5
 43
1.5
 50
180.0
  0
INSERT
  5
73D
330
658
100
AcDbEntity
  8
画層1
 62
     0
370
    -2
100
AcDbBlockReference
  2
_OPEN30
 10
170.6599999999999
 20
421.3899999999999
 30
0.0
 41
1.5
 42
1.5
 43
1.5
  0
MTEXT
  5
73E
330
658
100
AcDbEntity
  8
画層1
 62
     0
100
AcDbMText
 10
167.66
 20
423.2699999999999
 30
0.0
 40
2.5
 41
0.0
 71
     5
 72
     1
  1
\A1;6
  7
STYLE1
 73
     1
 44
1.0
  0
POINT
  5
73F
330
658
100
AcDbEntity
  8
DEFPOINTS
 62
     0
100
AcDbPoint
 10
164.66
 20
406.39
 30
0.0
  0
POINT
  5
740
330
658
100
AcDbEntity
  8
DEFPOINTS
 62
     0
100
AcDbPoint
 10
170.6599999999999
 20
406.39
 30
0.0
  0
POINT
  5
741
330
658
100
AcDbEntity
  8
DEFPOINTS
 62
     0
100
AcDbPoint
 10
170.6599999999999
 20
421.3899999999999
 30
0.0
  0
ENDBLK
  5
663
330
658
100
AcDbEntity
  8
0
 62
     1
100
AcDbBlockEnd
  0
ENDSEC
  0
SECTION
  2
ENTITIES
  0
MTEXT
  5
32
330
2
100
AcDbEntity
  8
画層1
 62
     0
100
AcDbMText
 10
257.04
 20
143.99
 30
0.0
 40
5.0
 41
262.62
 71
     1
 72
     5
  1
PAC27 45A,60A   質量 約3.1kg
  7
STYLE1
 73
     1
 44
1.0
  0
LINE
  5
33
330
2
100
AcDbEntity
  8
画層1
 62
     0
100
AcDbLine
 10
218.5599999999999
 20
396.3899999999999
 30
0.0
 11
218.5599999999999
 21
196.3899999999999
 31
0.0
  0
LINE
  5
34
330
2
100
AcDbEntity
  8
画層1
 62
     0
100
AcDbLine
 10
116.7599999999999
 20
196.3899999999999
 30
0.0
 11
116.7599999999999
 21
396.3899999999999
 31
0.0
  0
LINE
  5
35
330
2
100
AcDbEntity
  8
画層1
 62
     0
100
AcDbLine
 10
218.36
 20
384.89
 30
0.0
 11
218.36
 21
207.8899999999999
 31
0.0
  0
CIRCLE
  5
36
330
2
100
AcDbEntity
  8
画層1
 62
     0
100
AcDbCircle
 10
125.4599999999999
 20
282.01
 30
0.0
 40
3.0
  0
ARC
  5
37
330
2
100
AcDbEntity
  8
画層1
 62
     0
100
AcDbCircle
 10
123.96
 20
283.51
 30
0.0
 40
1.0
100
AcDbArc
 50
270.0
 51
0.0
  0
ARC
  5
38
330
2
100
AcDbEntity
  8
画層1
 62
     0
100
AcDbCircle
 10
126.96
 20
283.51
 30
0.0
 40
1.0
100
AcDbArc
 50
180.0
 51
270.0
  0
LINE
  5
39
330
2
100
AcDbEntity
  8
画層1
 62
     0
100
AcDbLine
 10
121.4599999999999
 20
286.01
 30
0.0
 11
121.4599999999999
 21
278.01
 31
0.0
  0
LINE
  5
3A
330
2
100
AcDbEntity
  8
画層1
 62
     0
100
AcDbLine
 10
119.16
 20
360.3899999999999
 30
0.0
 11
119.16
 21
265.3899999999999
 31
0.0
  0
LINE
  5
3B
330
2
100
AcDbEntity
  8
画層1
 62
     0
100
AcDbLine
 10
118.3599999999999
 20
360.3899999999999
 30
0.0
 11
118.3599999999999
 21
265.3899999999999
 31
0.0
  0
LINE
  5
3C
330
2
100
AcDbEntity
  8
画層1
 62
     0
100
AcDbLine
 10
119.96
 20
266.3899999999999
 30
0.0
 11
119.96
 21
359.39
 31
0.0
  0
LINE
  5
3D
330
2
100
AcDbEntity
  8
画層1
 62
     0
100
AcDbLine
 10
141.1599999999999
 20
360.3899999999999
 30
0.0
 11
141.1599999999999
 21
265.3899999999999
 31
0.0
  0
LINE
  5
3E
330
2
100
AcDbEntity
  8
画層1
 62
     0
100
AcDbLine
 10
139.96
 20
359.39
 30
0.0
 11
139.96
 21
266.3899999999999
 31
0.0
  0
LINE
  5
3F
330
2
100
AcDbEntity
  8
画層1
 62
     0
100
AcDbLine
 10
129.46
 20
357.2699999999999
 30
0.0
 11
129.46
 21
268.5099999999999
 31
0.0
  0
LINE
  5
40
330
2
100
AcDbEntity
  8
画層1
  6
CENTER
 62
     0
100
AcDbLine
 10
167.66
 20
412.3899999999999
 30
0.0
 11
167.66
 21
180.3899999999999
 31
0.0
  0
DIMENSION
  5
42
330
2
100
AcDbEntity
  8
画層1
 62
     0
100
AcDbDimension
  2
*D24
 10
247.86
 20
400.3899999999999
 30
0.0
 11
245.9799999999999
 21
296.39
 31
0.0
 70
    32
 71
     5
 42
208.0
  3
STANDARD_WS
100
AcDbAlignedDimension
 13
170.6599999999999
 23
192.3899999999999
 33
0.0
 14
170.6599999999999
 24
400.3899999999999
 34
0.0
 50
90.0
100
AcDbRotatedDimension
1001
ACAD
1000
DSTYLE
1002
{
1070
   279
1070
     1
1070
    47
1040
0.6
1070
   144
1040
1.0
1070
   146
1040
0.5
1070
   173
1070
     0
1070
   284
1070
     8
1070
   340
1005
2A
1070
   341
1005
2B
1070
   342
1005
2B
1070
   343
1005
2B
1002
}
  0
DIMENSION
  5
50
330
2
100
AcDbEntity
  8
画層1
 62
     0
100
AcDbDimension
  2
*D20
 10
74.45999999999999
 20
186.3899999999999
 30
0.0
 11
72.57999999999997
 21
296.3899999999999
 31
0.0
 70
    32
 71
     5
 42
219.9999999999999
  3
STANDARD_WS
100
AcDbAlignedDimension
 13
124.0999999999999
 23
406.39
 33
0.0
 14
123.38
 24
186.3899999999999
 34
0.0
 50
90.0
100
AcDbRotatedDimension
1001
ACAD
1000
DSTYLE
1002
{
1070
    47
1040
0.6
1070
   144
1040
1.0
1070
   146
1040
0.5
1070
   173
1070
     0
1070
   284
1070
     8
1070
   340
1005
2A
1070
   341
1005
2B
1070
   342
1005
2B
1070
   343
1005
2B
1002
}
  0
DIMENSION
  5
5D
330
2
100
AcDbEntity
  8
画層1
 62
     0
100
AcDbDimension
  2
*D21
 10
88.46
 20
196.3899999999999
 30
0.0
 11
86.57999999999997
 21
296.3899999999999
 31
0.0
 70
    32
 71
     5
 42
199.9999999999999
  3
STANDARD_WS
100
AcDbAlignedDimension
 13
116.7599999999999
 23
396.3899999999999
 33
0.0
 14
116.7599999999999
 24
196.3899999999999
 34
0.0
 50
90.0
100
AcDbRotatedDimension
1001
ACAD
1000
DSTYLE
1002
{
1070
   279
1070
     1
1070
    47
1040
0.6
1070
   144
1040
1.0
1070
   146
1040
0.5
1070
   173
1070
     0
1070
   284
1070
     8
1070
   340
1005
2A
1070
   341
1005
2B
1070
   342
1005
2B
1070
   343
1005
2B
1002
}
  0
LINE
  5
6A
330
2
100
AcDbEntity
  8
画層1
  6
DASHED2
 62
     0
100
AcDbLine
 10
197.9199999999999
 20
217.3899999999999
 30
0.0
 11
185.4199999999999
 21
217.3899999999999
 31
0.0
  0
LINE
  5
6C
330
2
100
AcDbEntity
  8
画層1
  6
DASHED2
 62
     0
100
AcDbLine
 10
197.9199999999999
 20
218.3899999999999
 30
0.0
 11
185.4199999999999
 21
218.3899999999999
 31
0.0
  0
LINE
  5
6D
330
2
100
AcDbEntity
  8
画層1
  6
DASHED2
 62
     0
100
AcDbLine
 10
198.4199999999999
 20
220.8899999999999
 30
0.0
 11
184.9199999999999
 21
220.8899999999999
 31
0.0
  0
LINE
  5
6E
330
2
100
AcDbEntity
  8
画層1
  6
DASHED2
 62
     0
100
AcDbLine
 10
198.4199999999999
 20
223.3899999999999
 30
0.0
 11
184.9199999999999
 21
223.3899999999999
 31
0.0
  0
LINE
  5
6F
330
2
100
AcDbEntity
  8
画層1
  6
DASHED2
 62
     0
100
AcDbLine
 10
198.4199999999999
 20
239.3899999999999
 30
0.0
 11
184.9199999999999
 21
239.3899999999999
 31
0.0
  0
LINE
  5
70
330
2
100
AcDbEntity
  8
画層1
  6
DASHED2
 62
     0
100
AcDbLine
 10
184.9199999999999
 20
241.8899999999999
 30
0.0
 11
198.4199999999999
 21
241.8899999999999
 31
0.0
  0
LINE
  5
71
330
2
100
AcDbEntity
  8
画層1
  6
DASHED2
 62
     0
100
AcDbLine
 10
197.9199999999999
 20
244.3899999999999
 30
0.0
 11
185.4199999999999
 21
244.3899999999999
 31
0.0
  0
LINE
  5
72
330
2
100
AcDbEntity
  8
画層1
  6
DASHED2
 62
     0
100
AcDbLine
 10
185.4199999999999
 20
245.3899999999999
 30
0.0
 11
197.9199999999999
 21
245.3899999999999
 31
0.0
  0
CIRCLE
  5
73
330
2
100
AcDbEntity
  8
画層1
  6
DASHED2
 62
     0
100
AcDbCircle
 10
191.66
 20
231.3899999999999
 30
0.0
 40
4.5
  0
CIRCLE
  5
74
330
2
100
AcDbEntity
  8
画層1
  6
DASHED2
 62
     0
100
AcDbCircle
 10
191.66
 20
231.3899999999999
 30
0.0
 40
6.0
  0
LINE
  5
75
330
2
100
AcDbEntity
  8
画層1
  6
DASHED2
 62
     0
100
AcDbLine
 10
137.66
 20
216.3899999999999
 30
0.0
 11
213.66
 21
216.3899999999999
 31
0.0
  0
LINE
  5
76
330
2
100
AcDbEntity
  8
画層1
  6
DASHED2
 62
     0
100
AcDbLine
 10
203.02
 20
205.39
 30
0.0
 11
136.1599999999999
 21
205.39
 31
0.0
  0
LINE
  5
77
330
2
100
AcDbEntity
  8
画層1
  6
DASHED2
 62
     0
100
AcDbLine
 10
118.66
 20
246.3899999999999
 30
0.0
 11
216.6599999999999
 21
246.3899999999999
 31
0.0
  0
LINE
  5
78
330
2
100
AcDbEntity
  8
画層1
 62
     0
100
AcDbLine
 10
170.6599999999999
 20
186.3899999999999
 30
0.0
 11
207.66
 21
186.3899999999999
 31
0.0
  0
LINE
  5
79
330
2
100
AcDbEntity
  8
画層1
 62
     0
100
AcDbLine
 10
200.1599999999999
 20
196.3899999999999
 30
0.0
 11
137.66
 21
196.3899999999999
 31
0.0
  0
DIMENSION
  5
7A
330
2
100
AcDbEntity
  8
画層1
 62
     0
100
AcDbDimension
  2
*D27
 10
170.6599999999999
 20
171.3899999999999
 30
0.0
 11
179.9410152284263
 21
173.4349746192893
 31
0.0
 70
    32
 71
     5
 42
6.0
  3
STANDARD_WS
100
AcDbAlignedDimension
 13
164.66
 23
186.3899999999999
 33
0.0
 14
170.6599999999999
 24
186.3899999999999
 34
0.0
100
AcDbRotatedDimension
1001
ACAD
1000
DSTYLE
1002
{
1070
     3
1000
キリカキ
1070
    47
1040
0.6
1070
   144
1040
1.0
1070
   146
1040
0.5
1070
   173
1070
     0
1070
   284
1070
     8
1070
   340
1005
2A
1070
   341
1005
2B
1070
   342
1005
2B
1070
   343
1005
2B
1002
}
  0
DIMENSION
  5
89
330
2
100
AcDbEntity
  8
画層1
 62
     0
100
AcDbDimension
  2
*D32
 10
247.86
 20
192.3899999999999
 30
0.0
 11
245.9799999999999
 21
189.39
 31
0.0
 70
    32
 71
     5
 42
5.999999999999971
  3
STANDARD_WS
100
AcDbAlignedDimension
 13
210.8
 23
186.3899999999999
 33
0.0
 14
170.6599999999999
 24
192.3899999999999
 34
0.0
 50
90.0
100
AcDbRotatedDimension
1001
ACAD
1000
DSTYLE
1002
{
1070
    47
1040
0.6
1070
   144
1040
1.0
1070
   146
1040
0.5
1070
   173
1070
     0
1070
   284
1070
     8
1070
   340
1005
2A
1070
   341
1005
2B
1070
   342
1005
2B
1070
   343
1005
2B
1002
}
  0
ARC
  5
98
330
2
100
AcDbEntity
  8
画層1
 62
     0
100
AcDbCircle
 10
127.6599999999999
 20
191.3899999999999
 30
0.0
 40
5.0
100
AcDbArc
 50
180.0
 51
270.0
  0
LINE
  5
99
330
2
100
AcDbEntity
  8
画層1
 62
     0
100
AcDbLine
 10
170.6599999999999
 20
192.3899999999999
 30
0.0
 11
170.6599999999999
 21
186.3899999999999
 31
0.0
  0
LINE
  5
9A
330
2
100
AcDbEntity
  8
画層1
 62
     0
100
AcDbLine
 10
164.66
 20
192.3899999999999
 30
0.0
 11
164.66
 21
186.3899999999999
 31
0.0
  0
LEADER
  5
9B
330
2
100
AcDbEntity
  8
画層1
 62
     0
100
AcDbLeader
  3
STANDARD_WS
 73
     0
 75
     1
 40
5.0
 41
12.33999999999999
 76
     3
 10
157.9799999999999
 20
228.79
 30
0.0
 10
146.55
 20
172.0
 30
0.0
 10
145.05
 20
172.0
 30
0.0
340
A0
213
-1.0
223
0.4207616165015224
233
0.0
1001
ACAD
1000
DSTYLE
1002
{
1070
   341
1005
9C
1070
   147
1040
0.63
1070
    77
1070
     2
1070
    47
1040
0.6
1070
   144
1040
2.0
1070
   146
1040
0.5
1070
   284
1070
     8
1070
   340
1005
2A
1002
}
  0
MTEXT
  5
A0
102
{ACAD_REACTORS
330
9B
102
}
330
2
100
AcDbEntity
  8
画層1
 62
     0
100
AcDbMText
 10
145.4199999999999
 20
172.21
 30
0.0
 40
5.0
 41
0.0
 71
     9
 72
     1
  1
3-M5
  7
STYLE1
 73
     1
 44
1.0
  0
DIMENSION
  5
A1
330
2
100
AcDbEntity
  8
画層1
 62
     0
100
AcDbDimension
  2
*D22
 10
88.46
 20
186.3899999999999
 30
0.0
 11
86.57999999999997
 21
191.39
 31
0.0
 70
    32
 71
     5
 42
10.0
  3
STANDARD_WS
100
AcDbAlignedDimension
 13
117.2199999999999
 23
196.3899999999999
 33
0.0
 14
123.38
 24
186.3899999999999
 34
0.0
 50
90.0
100
AcDbRotatedDimension
1001
ACAD
1000
DSTYLE
1002
{
1070
   279
1070
     1
1070
    47
1040
0.6
1070
   144
1040
1.0
1070
   146
1040
0.5
1070
   173
1070
     0
1070
   284
1070
     8
1070
   340
1005
2A
1070
   341
1005
2B
1070
   342
1005
2B
1070
   343
1005
2B
1002
}
  0
LINE
  5
AE
330
2
100
AcDbEntity
  8
画層1
 62
     0
100
AcDbLine
 10
127.6599999999999
 20
186.3899999999999
 30
0.0
 11
164.66
 21
186.3899999999999
 31
0.0
  0
LINE
  5
AF
330
2
100
AcDbEntity
  8
画層1
 62
     0
100
AcDbLine
 10
132.7599999999999
 20
203.79
 30
0.0
 11
127.76
 21
203.79
 31
0.0
  0
LINE
  5
B0
330
2
100
AcDbEntity
  8
画層1
 62
     0
100
AcDbLine
 10
128.2599999999999
 20
201.79
 30
0.0
 11
132.2599999999999
 21
201.79
 31
0.0
  0
LINE
  5
B1
330
2
100
AcDbEntity
  8
画層1
 62
     0
100
AcDbLine
 10
127.26
 20
204.7899999999999
 30
0.0
 11
133.26
 21
204.7899999999999
 31
0.0
  0
LINE
  5
B2
330
2
100
AcDbEntity
  8
画層1
 62
     0
100
AcDbLine
 10
134.26
 20
205.79
 30
0.0
 11
118.7599999999999
 21
205.79
 31
0.0
  0
LINE
  5
B3
330
2
100
AcDbEntity
  8
画層1
 62
     0
100
AcDbLine
 10
118.7599999999999
 20
207.39
 30
0.0
 11
134.26
 21
207.39
 31
0.0
  0
LINE
  5
B4
330
2
100
AcDbEntity
  8
画層1
 62
     0
100
AcDbLine
 10
134.1599999999999
 20
207.8899999999999
 30
0.0
 11
116.9599999999999
 21
207.8899999999999
 31
0.0
  0
LINE
  5
B5
330
2
100
AcDbEntity
  8
画層1
 62
     0
100
AcDbLine
 10
141.1599999999999
 20
265.3899999999999
 30
0.0
 11
116.9599999999999
 21
265.3899999999999
 31
0.0
  0
LINE
  5
B6
330
2
100
AcDbEntity
  8
画層1
 62
     0
100
AcDbLine
 10
139.96
 20
266.3899999999999
 30
0.0
 11
119.96
 21
266.3899999999999
 31
0.0
  0
LINE
  5
B7
330
2
100
AcDbEntity
  8
画層1
 62
     0
100
AcDbLine
 10
119.96
 20
268.5099999999999
 30
0.0
 11
138.96
 21
268.5099999999999
 31
0.0
  0
LINE
  5
B8
330
2
100
AcDbEntity
  8
画層1
 62
     0
100
AcDbLine
 10
129.46
 20
273.2699999999999
 30
0.0
 11
138.96
 21
273.2699999999999
 31
0.0
  0
LINE
  5
B9
330
2
100
AcDbEntity
  8
画層1
 62
     0
100
AcDbLine
 10
129.46
 20
281.2699999999999
 30
0.0
 11
138.96
 21
281.2699999999999
 31
0.0
  0
LINE
  5
BA
330
2
100
AcDbEntity
  8
画層1
  6
DASHED2
 62
     0
100
AcDbLine
 10
118.7599999999999
 20
205.79
 30
0.0
 11
118.7599999999999
 21
247.3899999999999
 31
0.0
  0
LINE
  5
BB
330
2
100
AcDbEntity
  8
画層1
 62
     0
100
AcDbLine
 10
116.9599999999999
 20
207.8899999999999
 30
0.0
 11
116.9599999999999
 21
265.3899999999999
 31
0.0
  0
LINE
  5
BC
330
2
100
AcDbEntity
  8
画層1
 62
     0
100
AcDbLine
 10
118.3599999999999
 20
205.39
 30
0.0
 11
118.3599999999999
 21
196.3899999999999
 31
0.0
  0
LINE
  5
BD
330
2
100
AcDbEntity
  8
画層1
 62
     0
100
AcDbLine
 10
116.7599999999999
 20
196.3899999999999
 30
0.0
 11
122.6599999999999
 21
196.3899999999999
 31
0.0
  0
LINE
  5
BE
330
2
100
AcDbEntity
  8
画層1
 62
     0
100
AcDbLine
 10
122.6599999999999
 20
196.3899999999999
 30
0.0
 11
122.6599999999999
 21
191.3899999999999
 31
0.0
  0
LINE
  5
BF
330
2
100
AcDbEntity
  8
画層1
 62
     0
100
AcDbLine
 10
118.7599999999999
 20
205.39
 30
0.0
 11
127.26
 21
205.39
 31
0.0
  0
LINE
  5
C0
330
2
100
AcDbEntity
  8
画層1
 62
     0
100
AcDbLine
 10
118.7599999999999
 20
205.79
 30
0.0
 11
118.7599999999999
 21
205.39
 31
0.0
  0
LINE
  5
C1
330
2
100
AcDbEntity
  8
画層1
 62
     0
100
AcDbLine
 10
118.3599999999999
 20
207.8899999999999
 30
0.0
 11
118.3599999999999
 21
207.35
 31
0.0
  0
ARC
  5
C2
330
2
100
AcDbEntity
  8
画層1
 62
     0
100
AcDbCircle
 10
118.7599999999999
 20
205.39
 30
0.0
 40
2.0
100
AcDbArc
 50
90.0
 51
180.0
  0
ARC
  5
C3
330
2
100
AcDbEntity
  8
画層1
 62
     0
100
AcDbCircle
 10
118.7599999999999
 20
205.39
 30
0.0
 40
0.4
100
AcDbArc
 50
90.0
 51
180.0
  0
LINE
  5
C4
330
2
100
AcDbEntity
  8
画層1
 62
     0
100
AcDbLine
 10
127.76
 20
204.7899999999999
 30
0.0
 11
127.76
 21
202.2899999999999
 31
0.0
  0
ARC
  5
C5
330
2
100
AcDbEntity
  8
画層1
 62
     0
100
AcDbCircle
 10
128.2599999999999
 20
202.2899999999999
 30
0.0
 40
0.5
100
AcDbArc
 50
180.0
 51
270.0
  0
LINE
  5
C6
330
2
100
AcDbEntity
  8
画層1
 62
     0
100
AcDbLine
 10
127.26
 20
205.79
 30
0.0
 11
127.26
 21
204.7899999999999
 31
0.0
  0
CIRCLE
  5
C7
330
2
100
AcDbEntity
  8
画層1
 62
     0
100
AcDbCircle
 10
125.4599999999999
 20
272.5099999999999
 30
0.0
 40
3.0
  0
LINE
  5
C8
330
2
100
AcDbEntity
  8
画層1
 62
     0
100
AcDbLine
 10
124.96
 20
270.71
 30
0.0
 11
124.96
 21
271.01
 31
0.0
  0
LINE
  5
C9
330
2
100
AcDbEntity
  8
画層1
 62
     0
100
AcDbLine
 10
125.96
 20
271.01
 30
0.0
 11
125.96
 21
270.71
 31
0.0
  0
LINE
  5
CA
330
2
100
AcDbEntity
  8
画層1
 62
     0
100
AcDbLine
 10
121.4599999999999
 20
276.5099999999999
 30
0.0
 11
121.4599999999999
 21
268.5099999999999
 31
0.0
  0
LINE
  5
CB
330
2
100
AcDbEntity
  8
画層1
 62
     0
100
AcDbLine
 10
124.96
 20
270.71
 30
0.0
 11
125.96
 21
270.71
 31
0.0
  0
LINE
  5
CC
330
2
100
AcDbEntity
  8
画層1
 62
     0
100
AcDbLine
 10
119.96
 20
278.01
 30
0.0
 11
129.46
 21
278.01
 31
0.0
  0
LINE
  5
CD
330
2
100
AcDbEntity
  8
画層1
 62
     0
100
AcDbLine
 10
119.96
 20
276.5099999999999
 30
0.0
 11
129.46
 21
276.5099999999999
 31
0.0
  0
LINE
  5
CE
330
2
100
AcDbEntity
  8
画層1
 62
     0
100
AcDbLine
 10
123.96
 20
281.51
 30
0.0
 11
122.5
 21
281.51
 31
0.0
  0
LINE
  5
CF
330
2
100
AcDbEntity
  8
画層1
 62
     0
100
AcDbLine
 10
128.42
 20
281.51
 30
0.0
 11
126.96
 21
281.51
 31
0.0
  0
ARC
  5
D0
330
2
100
AcDbEntity
  8
画層1
 62
     0
100
AcDbCircle
 10
123.96
 20
280.5099999999999
 30
0.0
 40
1.0
100
AcDbArc
 50
0.0
 51
90.0
  0
LINE
  5
D1
330
2
100
AcDbEntity
  8
画層1
 62
     0
100
AcDbLine
 10
124.96
 20
280.2099999999999
 30
0.0
 11
125.96
 21
280.2099999999999
 31
0.0
  0
LINE
  5
D2
330
2
100
AcDbEntity
  8
画層1
 62
     0
100
AcDbLine
 10
124.96
 20
280.2099999999999
 30
0.0
 11
124.96
 21
280.5099999999999
 31
0.0
  0
LINE
  5
D3
330
2
100
AcDbEntity
  8
画層1
 62
     0
100
AcDbLine
 10
125.96
 20
280.5099999999999
 30
0.0
 11
125.96
 21
280.2099999999999
 31
0.0
  0
ARC
  5
D4
330
2
100
AcDbEntity
  8
画層1
 62
     0
100
AcDbCircle
 10
126.96
 20
280.5099999999999
 30
0.0
 40
1.0
100
AcDbArc
 50
90.0
 51
180.0
  0
LINE
  5
D5
330
2
100
AcDbEntity
  8
画層1
 62
     0
100
AcDbLine
 10
122.5
 20
273.0099999999999
 30
0.0
 11
123.96
 21
273.0099999999999
 31
0.0
  0
LINE
  5
D6
330
2
100
AcDbEntity
  8
画層1
 62
     0
100
AcDbLine
 10
123.96
 20
272.0099999999999
 30
0.0
 11
122.5
 21
272.0099999999999
 31
0.0
  0
LINE
  5
D7
330
2
100
AcDbEntity
  8
画層1
 62
     0
100
AcDbLine
 10
126.96
 20
273.0099999999999
 30
0.0
 11
128.42
 21
273.0099999999999
 31
0.0
  0
LINE
  5
D8
330
2
100
AcDbEntity
  8
画層1
 62
     0
100
AcDbLine
 10
128.42
 20
272.0099999999999
 30
0.0
 11
126.96
 21
272.0099999999999
 31
0.0
  0
LINE
  5
D9
330
2
100
AcDbEntity
  8
画層1
 62
     0
100
AcDbLine
 10
124.96
 20
274.31
 30
0.0
 11
125.96
 21
274.31
 31
0.0
  0
ARC
  5
DA
330
2
100
AcDbEntity
  8
画層1
 62
     0
100
AcDbCircle
 10
123.96
 20
274.0099999999999
 30
0.0
 40
1.0
100
AcDbArc
 50
270.0
 51
0.0
  0
LINE
  5
DB
330
2
100
AcDbEntity
  8
画層1
 62
     0
100
AcDbLine
 10
124.96
 20
274.0099999999999
 30
0.0
 11
124.96
 21
274.31
 31
0.0
  0
LINE
  5
DC
330
2
100
AcDbEntity
  8
画層1
 62
     0
100
AcDbLine
 10
125.96
 20
274.31
 30
0.0
 11
125.96
 21
274.0099999999999
 31
0.0
  0
ARC
  5
DD
330
2
100
AcDbEntity
  8
画層1
 62
     0
100
AcDbCircle
 10
123.96
 20
271.01
 30
0.0
 40
1.0
100
AcDbArc
 50
0.0
 51
90.0
  0
ARC
  5
DE
330
2
100
AcDbEntity
  8
画層1
 62
     0
100
AcDbCircle
 10
126.96
 20
274.0099999999999
 30
0.0
 40
1.0
100
AcDbArc
 50
180.0
 51
270.0
  0
ARC
  5
DF
330
2
100
AcDbEntity
  8
画層1
 62
     0
100
AcDbCircle
 10
126.96
 20
271.01
 30
0.0
 40
1.0
100
AcDbArc
 50
90.0
 51
180.0
  0
CIRCLE
  5
E0
330
2
100
AcDbEntity
  8
画層1
  6
DASHED2
 62
     0
100
AcDbCircle
 10
159.66
 20
231.3899999999999
 30
0.0
 40
6.0
  0
LINE
  5
E1
330
2
100
AcDbEntity
  8
画層1
  6
DASHED2
 62
     0
100
AcDbLine
 10
150.4199999999999
 20
242.3899999999999
 30
0.0
 11
150.4199999999999
 21
220.3899999999999
 31
0.0
  0
LINE
  5
E2
330
2
100
AcDbEntity
  8
画層1
  6
DASHED2
 62
     0
100
AcDbLine
 10
166.4199999999999
 20
242.3899999999999
 30
0.0
 11
166.4199999999999
 21
220.3899999999999
 31
0.0
  0
LINE
  5
E3
330
2
100
AcDbEntity
  8
画層1
  6
DASHED2
 62
     0
100
AcDbLine
 10
152.9199999999999
 20
242.3899999999999
 30
0.0
 11
152.9199999999999
 21
220.3899999999999
 31
0.0
  0
LINE
  5
E4
330
2
100
AcDbEntity
  8
画層1
  6
DASHED2
 62
     0
100
AcDbLine
 10
184.9199999999999
 20
242.3899999999999
 30
0.0
 11
184.9199999999999
 21
220.3899999999999
 31
0.0
  0
CIRCLE
  5
E5
330
2
100
AcDbEntity
  8
画層1
  6
DASHED2
 62
     0
100
AcDbCircle
 10
175.6599999999999
 20
231.3899999999999
 30
0.0
 40
6.0
  0
LINE
  5
E6
330
2
100
AcDbEntity
  8
画層1
  6
DASHED2
 62
     0
100
AcDbLine
 10
182.4199999999999
 20
242.3899999999999
 30
0.0
 11
182.4199999999999
 21
220.3899999999999
 31
0.0
  0
LINE
  5
E7
330
2
100
AcDbEntity
  8
画層1
  6
DASHED2
 62
     0
100
AcDbLine
 10
168.9199999999999
 20
242.3899999999999
 30
0.0
 11
168.9199999999999
 21
220.3899999999999
 31
0.0
  0
LINE
  5
E8
330
2
100
AcDbEntity
  8
画層1
  6
DASHED2
 62
     0
100
AcDbLine
 10
137.66
 20
246.3899999999999
 30
0.0
 11
137.66
 21
216.3899999999999
 31
0.0
  0
LINE
  5
E9
330
2
100
AcDbEntity
  8
画層1
  6
DASHED2
 62
     0
100
AcDbLine
 10
165.92
 20
217.3899999999999
 30
0.0
 11
153.42
 21
217.3899999999999
 31
0.0
  0
LINE
  5
EA
330
2
100
AcDbEntity
  8
画層1
  6
DASHED2
 62
     0
100
AcDbLine
 10
165.92
 20
218.3899999999999
 30
0.0
 11
153.42
 21
218.3899999999999
 31
0.0
  0
LINE
  5
EB
330
2
100
AcDbEntity
  8
画層1
  6
DASHED2
 62
     0
100
AcDbLine
 10
166.4199999999999
 20
220.8899999999999
 30
0.0
 11
152.9199999999999
 21
220.8899999999999
 31
0.0
  0
LINE
  5
EC
330
2
100
AcDbEntity
  8
画層1
  6
DASHED2
 62
     0
100
AcDbLine
 10
166.4199999999999
 20
223.3899999999999
 30
0.0
 11
152.9199999999999
 21
223.3899999999999
 31
0.0
  0
CIRCLE
  5
ED
330
2
100
AcDbEntity
  8
画層1
  6
DASHED2
 62
     0
100
AcDbCircle
 10
159.66
 20
231.3899999999999
 30
0.0
 40
4.5
  0
LINE
  5
EE
330
2
100
AcDbEntity
  8
画層1
  6
CENTER
 62
     0
100
AcDbLine
 10
174.6599999999999
 20
192.3899999999999
 30
0.0
 11
160.66
 21
192.3899999999999
 31
0.0
  0
LINE
  5
EF
330
2
100
AcDbEntity
  8
画層1
 62
     0
100
AcDbLine
 10
136.1599999999999
 20
197.8899999999999
 30
0.0
 11
136.1599999999999
 21
205.8899999999999
 31
0.0
  0
ARC
  5
F0
330
2
100
AcDbEntity
  8
画層1
 62
     0
100
AcDbCircle
 10
137.66
 20
197.8899999999999
 30
0.0
 40
1.5
100
AcDbArc
 50
180.0
 51
270.0
  0
LINE
  5
F1
330
2
100
AcDbEntity
  8
画層1
 62
     0
100
AcDbLine
 10
133.26
 20
205.39
 30
0.0
 11
136.1599999999999
 21
205.39
 31
0.0
  0
LINE
  5
F2
330
2
100
AcDbEntity
  8
画層1
 62
     0
100
AcDbLine
 10
132.7599999999999
 20
202.2899999999999
 30
0.0
 11
132.7599999999999
 21
204.7899999999999
 31
0.0
  0
LINE
  5
F3
330
2
100
AcDbEntity
  8
画層1
 62
     0
100
AcDbLine
 10
133.26
 20
204.7899999999999
 30
0.0
 11
133.26
 21
205.79
 31
0.0
  0
ARC
  5
F4
330
2
100
AcDbEntity
  8
画層1
 62
     0
100
AcDbCircle
 10
132.2599999999999
 20
202.2899999999999
 30
0.0
 40
0.5
100
AcDbArc
 50
270.0
 51
0.0
  0
LINE
  5
F5
330
2
100
AcDbEntity
  8
画層1
 62
     0
100
AcDbLine
 10
134.26
 20
207.39
 30
0.0
 11
134.26
 21
205.79
 31
0.0
  0
ARC
  5
F6
330
2
100
AcDbEntity
  8
画層1
 62
     0
100
AcDbCircle
 10
134.1599999999999
 20
205.8899999999999
 30
0.0
 40
2.0
100
AcDbArc
 50
0.0
 51
90.0
  0
LINE
  5
F7
330
2
100
AcDbEntity
  8
画層1
  6
CENTER
 62
     0
100
AcDbLine
 10
140.66
 20
231.3899999999999
 30
0.0
 11
146.6599999999999
 21
231.3899999999999
 31
0.0
  0
LINE
  5
F8
330
2
100
AcDbEntity
  8
画層1
  6
DASHED2
 62
     0
100
AcDbLine
 10
149.9199999999999
 20
217.3899999999999
 30
0.0
 11
137.66
 21
217.3899999999999
 31
0.0
  0
LINE
  5
F9
330
2
100
AcDbEntity
  8
画層1
  6
DASHED2
 62
     0
100
AcDbLine
 10
149.9199999999999
 20
218.3899999999999
 30
0.0
 11
137.66
 21
218.3899999999999
 31
0.0
  0
LINE
  5
FA
330
2
100
AcDbEntity
  8
画層1
  6
DASHED2
 62
     0
100
AcDbLine
 10
150.4199999999999
 20
220.8899999999999
 30
0.0
 11
137.66
 21
220.8899999999999
 31
0.0
  0
LINE
  5
FB
330
2
100
AcDbEntity
  8
画層1
  6
DASHED2
 62
     0
100
AcDbLine
 10
150.4199999999999
 20
223.3899999999999
 30
0.0
 11
137.66
 21
223.3899999999999
 31
0.0
  0
LINE
  5
FC
330
2
100
AcDbEntity
  8
画層1
  6
CENTER
 62
     0
100
AcDbLine
 10
143.66
 20
234.39
 30
0.0
 11
143.66
 21
228.39
 31
0.0
  0
LINE
  5
FD
330
2
100
AcDbEntity
  8
画層1
  6
DASHED2
 62
     0
100
AcDbLine
 10
150.4199999999999
 20
220.3899999999999
 30
0.0
 11
149.9199999999999
 21
220.3899999999999
 31
0.0
  0
LINE
  5
FE
330
2
100
AcDbEntity
  8
画層1
  6
DASHED2
 62
     0
100
AcDbLine
 10
149.9199999999999
 20
220.3899999999999
 30
0.0
 11
149.9199999999999
 21
216.3899999999999
 31
0.0
  0
LINE
  5
FF
330
2
100
AcDbEntity
  8
画層1
  6
DASHED2
 62
     0
100
AcDbLine
 10
153.42
 20
220.3899999999999
 30
0.0
 11
153.42
 21
216.3899999999999
 31
0.0
  0
LINE
  5
100
330
2
100
AcDbEntity
  8
画層1
  6
DASHED2
 62
     0
100
AcDbLine
 10
152.9199999999999
 20
220.3899999999999
 30
0.0
 11
153.42
 21
220.3899999999999
 31
0.0
  0
LINE
  5
101
330
2
100
AcDbEntity
  8
画層1
  6
DASHED2
 62
     0
100
AcDbLine
 10
161.1599999999999
 20
231.8899999999999
 30
0.0
 11
162.1599999999999
 21
231.8899999999999
 31
0.0
  0
LINE
  5
102
330
2
100
AcDbEntity
  8
画層1
  6
DASHED2
 62
     0
100
AcDbLine
 10
160.1599999999999
 20
233.8899999999999
 30
0.0
 11
160.1599999999999
 21
232.8899999999999
 31
0.0
  0
ARC
  5
103
330
2
100
AcDbEntity
  8
画層1
  6
DASHED2
 62
     0
100
AcDbCircle
 10
161.1599999999999
 20
232.8899999999999
 30
0.0
 40
1.0
100
AcDbArc
 50
180.0
 51
270.0
  0
LINE
  5
104
330
2
100
AcDbEntity
  8
画層1
  6
DASHED2
 62
     0
100
AcDbLine
 10
160.1599999999999
 20
229.8899999999999
 30
0.0
 11
160.1599999999999
 21
228.8899999999999
 31
0.0
  0
LINE
  5
105
330
2
100
AcDbEntity
  8
画層1
  6
DASHED2
 62
     0
100
AcDbLine
 10
162.1599999999999
 20
230.8899999999999
 30
0.0
 11
161.1599999999999
 21
230.8899999999999
 31
0.0
  0
ARC
  5
106
330
2
100
AcDbEntity
  8
画層1
  6
DASHED2
 62
     0
100
AcDbCircle
 10
161.1599999999999
 20
229.8899999999999
 30
0.0
 40
1.0
100
AcDbArc
 50
90.0
 51
180.0
  0
LINE
  5
107
330
2
100
AcDbEntity
  8
画層1
  6
DASHED2
 62
     0
100
AcDbLine
 10
159.1599999999999
 20
228.8899999999999
 30
0.0
 11
159.1599999999999
 21
229.8899999999999
 31
0.0
  0
LINE
  5
108
330
2
100
AcDbEntity
  8
画層1
  6
DASHED2
 62
     0
100
AcDbLine
 10
159.1599999999999
 20
232.8899999999999
 30
0.0
 11
159.1599999999999
 21
233.8899999999999
 31
0.0
  0
LINE
  5
109
330
2
100
AcDbEntity
  8
画層1
  6
DASHED2
 62
     0
100
AcDbLine
 10
162.1599999999999
 20
231.8899999999999
 30
0.0
 11
162.1599999999999
 21
230.8899999999999
 31
0.0
  0
LINE
  5
10A
330
2
100
AcDbEntity
  8
画層1
  6
DASHED2
 62
     0
100
AcDbLine
 10
160.1599999999999
 20
228.8899999999999
 30
0.0
 11
159.1599999999999
 21
228.8899999999999
 31
0.0
  0
LINE
  5
10B
330
2
100
AcDbEntity
  8
画層1
  6
DASHED2
 62
     0
100
AcDbLine
 10
159.1599999999999
 20
233.8899999999999
 30
0.0
 11
160.1599999999999
 21
233.8899999999999
 31
0.0
  0
LINE
  5
10C
330
2
100
AcDbEntity
  8
画層1
  6
DASHED2
 62
     0
100
AcDbLine
 10
158.1599999999999
 20
230.8899999999999
 30
0.0
 11
157.16
 21
230.8899999999999
 31
0.0
  0
LINE
  5
10D
330
2
100
AcDbEntity
  8
画層1
  6
DASHED2
 62
     0
100
AcDbLine
 10
157.16
 20
231.8899999999999
 30
0.0
 11
158.1599999999999
 21
231.8899999999999
 31
0.0
  0
LINE
  5
10E
330
2
100
AcDbEntity
  8
画層1
  6
DASHED2
 62
     0
100
AcDbLine
 10
157.16
 20
230.8899999999999
 30
0.0
 11
157.16
 21
231.8899999999999
 31
0.0
  0
ARC
  5
10F
330
2
100
AcDbEntity
  8
画層1
  6
DASHED2
 62
     0
100
AcDbCircle
 10
158.1599999999999
 20
229.8899999999999
 30
0.0
 40
1.0
100
AcDbArc
 50
0.0
 51
90.0
  0
ARC
  5
110
330
2
100
AcDbEntity
  8
画層1
  6
DASHED2
 62
     0
100
AcDbCircle
 10
158.1599999999999
 20
232.8899999999999
 30
0.0
 40
1.0
100
AcDbArc
 50
270.0
 51
0.0
  0
ARC
  5
111
330
2
100
AcDbEntity
  8
画層1
 62
     0
100
AcDbCircle
 10
166.1599999999999
 20
200.8899999999999
 30
0.0
 40
1.0
100
AcDbArc
 50
0.0
 51
90.0
  0
ARC
  5
112
330
2
100
AcDbEntity
  8
画層1
 62
     0
100
AcDbCircle
 10
169.16
 20
200.8899999999999
 30
0.0
 40
1.0
100
AcDbArc
 50
90.0
 51
180.0
  0
CIRCLE
  5
113
330
2
100
AcDbEntity
  8
画層1
 62
     0
100
AcDbCircle
 10
167.66
 20
202.3899999999999
 30
0.0
 40
3.799999999999998
  0
CIRCLE
  5
114
330
2
100
AcDbEntity
  8
画層1
 62
     0
100
AcDbCircle
 10
167.66
 20
202.3899999999999
 30
0.0
 40
2.6
  0
LINE
  5
115
330
2
100
AcDbEntity
  8
画層1
 62
     0
100
AcDbLine
 10
168.1599999999999
 20
200.8899999999999
 30
0.0
 11
168.1599999999999
 21
200.59
 31
0.0
  0
LINE
  5
116
330
2
100
AcDbEntity
  8
画層1
 62
     0
100
AcDbLine
 10
167.1599999999999
 20
200.59
 30
0.0
 11
167.1599999999999
 21
200.8899999999999
 31
0.0
  0
LINE
  5
117
330
2
100
AcDbEntity
  8
画層1
 62
     0
100
AcDbLine
 10
167.1599999999999
 20
200.59
 30
0.0
 11
168.1599999999999
 21
200.59
 31
0.0
  0
ARC
  5
118
330
2
100
AcDbEntity
  8
画層1
 62
     0
100
AcDbCircle
 10
167.66
 20
192.3899999999999
 30
0.0
 40
3.0
100
AcDbArc
 50
0.0
 51
180.0
  0
ARC
  5
119
330
2
100
AcDbEntity
  8
画層1
 62
     0
100
AcDbCircle
 10
166.1599999999999
 20
203.8899999999999
 30
0.0
 40
1.0
100
AcDbArc
 50
270.0
 51
0.0
  0
LINE
  5
11A
330
2
100
AcDbEntity
  8
画層1
 62
     0
100
AcDbLine
 10
165.86
 20
202.8899999999999
 30
0.0
 11
166.1599999999999
 21
202.8899999999999
 31
0.0
  0
ARC
  5
11B
330
2
100
AcDbEntity
  8
画層1
 62
     0
100
AcDbCircle
 10
169.16
 20
203.8899999999999
 30
0.0
 40
1.0
100
AcDbArc
 50
180.0
 51
270.0
  0
LINE
  5
11C
330
2
100
AcDbEntity
  8
画層1
 62
     0
100
AcDbLine
 10
168.1599999999999
 20
204.19
 30
0.0
 11
168.1599999999999
 21
203.8899999999999
 31
0.0
  0
LINE
  5
11D
330
2
100
AcDbEntity
  8
画層1
 62
     0
100
AcDbLine
 10
167.1599999999999
 20
203.8899999999999
 30
0.0
 11
167.1599999999999
 21
204.19
 31
0.0
  0
LINE
  5
11E
330
2
100
AcDbEntity
  8
画層1
 62
     0
100
AcDbLine
 10
167.1599999999999
 20
204.19
 30
0.0
 11
168.1599999999999
 21
204.19
 31
0.0
  0
LINE
  5
11F
330
2
100
AcDbEntity
  8
画層1
 62
     0
100
AcDbLine
 10
169.16
 20
202.8899999999999
 30
0.0
 11
169.46
 21
202.8899999999999
 31
0.0
  0
LINE
  5
120
330
2
100
AcDbEntity
  8
画層1
 62
     0
100
AcDbLine
 10
166.1599999999999
 20
201.8899999999999
 30
0.0
 11
165.86
 21
201.8899999999999
 31
0.0
  0
LINE
  5
121
330
2
100
AcDbEntity
  8
画層1
 62
     0
100
AcDbLine
 10
169.46
 20
201.8899999999999
 30
0.0
 11
169.16
 21
201.8899999999999
 31
0.0
  0
LINE
  5
122
330
2
100
AcDbEntity
  8
画層1
 62
     0
100
AcDbLine
 10
165.86
 20
201.8899999999999
 30
0.0
 11
165.86
 21
202.8899999999999
 31
0.0
  0
LINE
  5
123
330
2
100
AcDbEntity
  8
画層1
 62
     0
100
AcDbLine
 10
169.46
 20
201.8899999999999
 30
0.0
 11
169.46
 21
202.8899999999999
 31
0.0
  0
LINE
  5
124
330
2
100
AcDbEntity
  8
画層1
  6
DASHED2
 62
     0
100
AcDbLine
 10
181.92
 20
217.3899999999999
 30
0.0
 11
169.4199999999999
 21
217.3899999999999
 31
0.0
  0
LINE
  5
125
330
2
100
AcDbEntity
  8
画層1
  6
DASHED2
 62
     0
100
AcDbLine
 10
181.92
 20
218.3899999999999
 30
0.0
 11
169.4199999999999
 21
218.3899999999999
 31
0.0
  0
LINE
  5
126
330
2
100
AcDbEntity
  8
画層1
  6
DASHED2
 62
     0
100
AcDbLine
 10
182.4199999999999
 20
220.8899999999999
 30
0.0
 11
168.9199999999999
 21
220.8899999999999
 31
0.0
  0
LINE
  5
127
330
2
100
AcDbEntity
  8
画層1
  6
DASHED2
 62
     0
100
AcDbLine
 10
182.4199999999999
 20
223.3899999999999
 30
0.0
 11
168.9199999999999
 21
223.3899999999999
 31
0.0
  0
CIRCLE
  5
128
330
2
100
AcDbEntity
  8
画層1
  6
DASHED2
 62
     0
100
AcDbCircle
 10
175.6599999999999
 20
231.3899999999999
 30
0.0
 40
4.5
  0
LINE
  5
129
330
2
100
AcDbEntity
  8
画層1
  6
DASHED2
 62
     0
100
AcDbLine
 10
165.92
 20
220.3899999999999
 30
0.0
 11
165.92
 21
216.3899999999999
 31
0.0
  0
LINE
  5
12A
330
2
100
AcDbEntity
  8
画層1
  6
DASHED2
 62
     0
100
AcDbLine
 10
166.4199999999999
 20
220.3899999999999
 30
0.0
 11
165.92
 21
220.3899999999999
 31
0.0
  0
LINE
  5
12B
330
2
100
AcDbEntity
  8
画層1
  6
DASHED2
 62
     0
100
AcDbLine
 10
169.4199999999999
 20
220.3899999999999
 30
0.0
 11
169.4199999999999
 21
216.3899999999999
 31
0.0
  0
LINE
  5
12C
330
2
100
AcDbEntity
  8
画層1
  6
DASHED2
 62
     0
100
AcDbLine
 10
168.9199999999999
 20
220.3899999999999
 30
0.0
 11
169.4199999999999
 21
220.3899999999999
 31
0.0
  0
ARC
  5
12D
330
2
100
AcDbEntity
  8
画層1
  6
DASHED2
 62
     0
100
AcDbCircle
 10
177.16
 20
232.8899999999999
 30
0.0
 40
1.0
100
AcDbArc
 50
180.0
 51
270.0
  0
ARC
  5
12E
330
2
100
AcDbEntity
  8
画層1
  6
DASHED2
 62
     0
100
AcDbCircle
 10
177.16
 20
229.8899999999999
 30
0.0
 40
1.0
100
AcDbArc
 50
90.0
 51
180.0
  0
ARC
  5
12F
330
2
100
AcDbEntity
  8
画層1
  6
DASHED2
 62
     0
100
AcDbCircle
 10
174.16
 20
229.8899999999999
 30
0.0
 40
1.0
100
AcDbArc
 50
0.0
 51
90.0
  0
ARC
  5
130
330
2
100
AcDbEntity
  8
画層1
  6
DASHED2
 62
     0
100
AcDbCircle
 10
174.16
 20
232.8899999999999
 30
0.0
 40
1.0
100
AcDbArc
 50
270.0
 51
0.0
  0
LINE
  5
131
330
2
100
AcDbEntity
  8
画層1
  6
DASHED2
 62
     0
100
AcDbLine
 10
177.16
 20
231.8899999999999
 30
0.0
 11
178.16
 21
231.8899999999999
 31
0.0
  0
LINE
  5
132
330
2
100
AcDbEntity
  8
画層1
  6
DASHED2
 62
     0
100
AcDbLine
 10
174.16
 20
230.8899999999999
 30
0.0
 11
173.16
 21
230.8899999999999
 31
0.0
  0
LINE
  5
133
330
2
100
AcDbEntity
  8
画層1
  6
DASHED2
 62
     0
100
AcDbLine
 10
176.16
 20
229.8899999999999
 30
0.0
 11
176.16
 21
228.8899999999999
 31
0.0
  0
LINE
  5
134
330
2
100
AcDbEntity
  8
画層1
  6
DASHED2
 62
     0
100
AcDbLine
 10
175.16
 20
232.8899999999999
 30
0.0
 11
175.16
 21
233.8899999999999
 31
0.0
  0
LINE
  5
135
330
2
100
AcDbEntity
  8
画層1
  6
DASHED2
 62
     0
100
AcDbLine
 10
178.16
 20
230.8899999999999
 30
0.0
 11
177.16
 21
230.8899999999999
 31
0.0
  0
LINE
  5
136
330
2
100
AcDbEntity
  8
画層1
  6
DASHED2
 62
     0
100
AcDbLine
 10
178.16
 20
231.8899999999999
 30
0.0
 11
178.16
 21
230.8899999999999
 31
0.0
  0
LINE
  5
137
330
2
100
AcDbEntity
  8
画層1
  6
DASHED2
 62
     0
100
AcDbLine
 10
173.16
 20
231.8899999999999
 30
0.0
 11
174.16
 21
231.8899999999999
 31
0.0
  0
LINE
  5
138
330
2
100
AcDbEntity
  8
画層1
  6
DASHED2
 62
     0
100
AcDbLine
 10
173.16
 20
230.8899999999999
 30
0.0
 11
173.16
 21
231.8899999999999
 31
0.0
  0
LINE
  5
139
330
2
100
AcDbEntity
  8
画層1
  6
DASHED2
 62
     0
100
AcDbLine
 10
175.16
 20
228.8899999999999
 30
0.0
 11
175.16
 21
229.8899999999999
 31
0.0
  0
LINE
  5
13A
330
2
100
AcDbEntity
  8
画層1
  6
DASHED2
 62
     0
100
AcDbLine
 10
176.16
 20
228.8899999999999
 30
0.0
 11
175.16
 21
228.8899999999999
 31
0.0
  0
LINE
  5
13B
330
2
100
AcDbEntity
  8
画層1
  6
DASHED2
 62
     0
100
AcDbLine
 10
176.16
 20
233.8899999999999
 30
0.0
 11
176.16
 21
232.8899999999999
 31
0.0
  0
LINE
  5
13C
330
2
100
AcDbEntity
  8
画層1
  6
DASHED2
 62
     0
100
AcDbLine
 10
175.16
 20
233.8899999999999
 30
0.0
 11
176.16
 21
233.8899999999999
 31
0.0
  0
LINE
  5
13D
330
2
100
AcDbEntity
  8
画層1
  6
DASHED2
 62
     0
100
AcDbLine
 10
184.9199999999999
 20
220.3899999999999
 30
0.0
 11
185.4199999999999
 21
220.3899999999999
 31
0.0
  0
LINE
  5
13E
330
2
100
AcDbEntity
  8
画層1
  6
DASHED2
 62
     0
100
AcDbLine
 10
185.4199999999999
 20
220.3899999999999
 30
0.0
 11
185.4199999999999
 21
216.3899999999999
 31
0.0
  0
LINE
  5
13F
330
2
100
AcDbEntity
  8
画層1
  6
DASHED2
 62
     0
100
AcDbLine
 10
181.92
 20
220.3899999999999
 30
0.0
 11
181.92
 21
216.3899999999999
 31
0.0
  0
LINE
  5
140
330
2
100
AcDbEntity
  8
画層1
  6
DASHED2
 62
     0
100
AcDbLine
 10
182.4199999999999
 20
220.3899999999999
 30
0.0
 11
181.92
 21
220.3899999999999
 31
0.0
  0
LINE
  5
141
330
2
100
AcDbEntity
  8
画層1
  6
DASHED2
 62
     0
100
AcDbLine
 10
191.1599999999999
 20
233.8899999999999
 30
0.0
 11
192.1599999999999
 21
233.8899999999999
 31
0.0
  0
LINE
  5
142
330
2
100
AcDbEntity
  8
画層1
  6
DASHED2
 62
     0
100
AcDbLine
 10
192.1599999999999
 20
228.8899999999999
 30
0.0
 11
191.1599999999999
 21
228.8899999999999
 31
0.0
  0
LINE
  5
143
330
2
100
AcDbEntity
  8
画層1
  6
DASHED2
 62
     0
100
AcDbLine
 10
194.16
 20
231.8899999999999
 30
0.0
 11
194.16
 21
230.8899999999999
 31
0.0
  0
ARC
  5
144
330
2
100
AcDbEntity
  8
画層1
  6
DASHED2
 62
     0
100
AcDbCircle
 10
190.16
 20
232.8899999999999
 30
0.0
 40
1.0
100
AcDbArc
 50
270.0
 51
0.0
  0
LINE
  5
145
330
2
100
AcDbEntity
  8
画層1
  6
DASHED2
 62
     0
100
AcDbLine
 10
191.1599999999999
 20
232.8899999999999
 30
0.0
 11
191.1599999999999
 21
233.8899999999999
 31
0.0
  0
ARC
  5
146
330
2
100
AcDbEntity
  8
画層1
  6
DASHED2
 62
     0
100
AcDbCircle
 10
190.16
 20
229.8899999999999
 30
0.0
 40
1.0
100
AcDbArc
 50
0.0
 51
90.0
  0
LINE
  5
147
330
2
100
AcDbEntity
  8
画層1
  6
DASHED2
 62
     0
100
AcDbLine
 10
191.1599999999999
 20
228.8899999999999
 30
0.0
 11
191.1599999999999
 21
229.8899999999999
 31
0.0
  0
ARC
  5
148
330
2
100
AcDbEntity
  8
画層1
  6
DASHED2
 62
     0
100
AcDbCircle
 10
193.1599999999999
 20
229.8899999999999
 30
0.0
 40
1.0
100
AcDbArc
 50
90.0
 51
180.0
  0
LINE
  5
149
330
2
100
AcDbEntity
  8
画層1
  6
DASHED2
 62
     0
100
AcDbLine
 10
194.16
 20
230.8899999999999
 30
0.0
 11
193.1599999999999
 21
230.8899999999999
 31
0.0
  0
LINE
  5
14A
330
2
100
AcDbEntity
  8
画層1
  6
DASHED2
 62
     0
100
AcDbLine
 10
192.1599999999999
 20
229.8899999999999
 30
0.0
 11
192.1599999999999
 21
228.8899999999999
 31
0.0
  0
ARC
  5
14B
330
2
100
AcDbEntity
  8
画層1
  6
DASHED2
 62
     0
100
AcDbCircle
 10
193.1599999999999
 20
232.8899999999999
 30
0.0
 40
1.0
100
AcDbArc
 50
180.0
 51
270.0
  0
LINE
  5
14C
330
2
100
AcDbEntity
  8
画層1
  6
DASHED2
 62
     0
100
AcDbLine
 10
192.1599999999999
 20
233.8899999999999
 30
0.0
 11
192.1599999999999
 21
232.8899999999999
 31
0.0
  0
LINE
  5
14D
330
2
100
AcDbEntity
  8
画層1
  6
DASHED2
 62
     0
100
AcDbLine
 10
193.1599999999999
 20
231.8899999999999
 30
0.0
 11
194.16
 21
231.8899999999999
 31
0.0
  0
LINE
  5
14E
330
2
100
AcDbEntity
  8
画層1
  6
DASHED2
 62
     0
100
AcDbLine
 10
189.16
 20
230.8899999999999
 30
0.0
 11
189.16
 21
231.8899999999999
 31
0.0
  0
LINE
  5
14F
330
2
100
AcDbEntity
  8
画層1
  6
DASHED2
 62
     0
100
AcDbLine
 10
189.16
 20
231.8899999999999
 30
0.0
 11
190.16
 21
231.8899999999999
 31
0.0
  0
LINE
  5
150
330
2
100
AcDbEntity
  8
画層1
  6
DASHED2
 62
     0
100
AcDbLine
 10
190.16
 20
230.8899999999999
 30
0.0
 11
189.16
 21
230.8899999999999
 31
0.0
  0
LINE
  5
151
330
2
100
AcDbEntity
  8
画層1
  6
DASHED2
 62
     0
100
AcDbLine
 10
166.4199999999999
 20
239.3899999999999
 30
0.0
 11
152.9199999999999
 21
239.3899999999999
 31
0.0
  0
LINE
  5
152
330
2
100
AcDbEntity
  8
画層1
  6
DASHED2
 62
     0
100
AcDbLine
 10
152.9199999999999
 20
241.8899999999999
 30
0.0
 11
166.4199999999999
 21
241.8899999999999
 31
0.0
  0
LINE
  5
153
330
2
100
AcDbEntity
  8
画層1
  6
DASHED2
 62
     0
100
AcDbLine
 10
153.42
 20
244.3899999999999
 30
0.0
 11
165.92
 21
244.3899999999999
 31
0.0
  0
LINE
  5
154
330
2
100
AcDbEntity
  8
画層1
  6
DASHED2
 62
     0
100
AcDbLine
 10
153.42
 20
245.3899999999999
 30
0.0
 11
165.92
 21
245.3899999999999
 31
0.0
  0
LINE
  5
155
330
2
100
AcDbEntity
  8
画層1
  6
DASHED2
 62
     0
100
AcDbLine
 10
137.66
 20
239.3899999999999
 30
0.0
 11
150.4199999999999
 21
239.3899999999999
 31
0.0
  0
LINE
  5
156
330
2
100
AcDbEntity
  8
画層1
  6
DASHED2
 62
     0
100
AcDbLine
 10
137.66
 20
241.8899999999999
 30
0.0
 11
150.4199999999999
 21
241.8899999999999
 31
0.0
  0
LINE
  5
157
330
2
100
AcDbEntity
  8
画層1
  6
DASHED2
 62
     0
100
AcDbLine
 10
137.66
 20
244.3899999999999
 30
0.0
 11
149.9199999999999
 21
244.3899999999999
 31
0.0
  0
LINE
  5
158
330
2
100
AcDbEntity
  8
画層1
  6
DASHED2
 62
     0
100
AcDbLine
 10
137.66
 20
245.3899999999999
 30
0.0
 11
149.9199999999999
 21
245.3899999999999
 31
0.0
  0
LINE
  5
159
330
2
100
AcDbEntity
  8
画層1
  6
DASHED2
 62
     0
100
AcDbLine
 10
149.9199999999999
 20
246.3899999999999
 30
0.0
 11
149.9199999999999
 21
242.3899999999999
 31
0.0
  0
LINE
  5
15A
330
2
100
AcDbEntity
  8
画層1
  6
DASHED2
 62
     0
100
AcDbLine
 10
149.9199999999999
 20
242.3899999999999
 30
0.0
 11
150.4199999999999
 21
242.3899999999999
 31
0.0
  0
LINE
  5
15B
330
2
100
AcDbEntity
  8
画層1
  6
DASHED2
 62
     0
100
AcDbLine
 10
153.42
 20
242.3899999999999
 30
0.0
 11
152.9199999999999
 21
242.3899999999999
 31
0.0
  0
LINE
  5
15C
330
2
100
AcDbEntity
  8
画層1
  6
DASHED2
 62
     0
100
AcDbLine
 10
153.42
 20
246.3899999999999
 30
0.0
 11
153.42
 21
242.3899999999999
 31
0.0
  0
LINE
  5
15D
330
2
100
AcDbEntity
  8
画層1
 62
     0
100
AcDbLine
 10
138.96
 20
271.7699999999999
 30
0.0
 11
138.96
 21
268.5099999999999
 31
0.0
  0
LINE
  5
15E
330
2
100
AcDbEntity
  8
画層1
 62
     0
100
AcDbLine
 10
130.46
 20
271.7699999999999
 30
0.0
 11
130.46
 21
268.5099999999999
 31
0.0
  0
LINE
  5
15F
330
2
100
AcDbEntity
  8
画層1
 62
     0
100
AcDbLine
 10
137.9199999999999
 20
276.77
 30
0.0
 11
136.46
 21
276.77
 31
0.0
  0
LINE
  5
160
330
2
100
AcDbEntity
  8
画層1
 62
     0
100
AcDbLine
 10
136.46
 20
277.7699999999999
 30
0.0
 11
137.9199999999999
 21
277.7699999999999
 31
0.0
  0
CIRCLE
  5
161
330
2
100
AcDbEntity
  8
画層1
 62
     0
100
AcDbCircle
 10
134.96
 20
277.2699999999999
 30
0.0
 40
3.0
  0
LINE
  5
162
330
2
100
AcDbEntity
  8
画層1
 62
     0
100
AcDbLine
 10
130.46
 20
271.7699999999999
 30
0.0
 11
138.96
 21
271.7699999999999
 31
0.0
  0
LINE
  5
163
330
2
100
AcDbEntity
  8
画層1
 62
     0
100
AcDbLine
 10
132.0
 20
277.7699999999999
 30
0.0
 11
133.46
 21
277.7699999999999
 31
0.0
  0
LINE
  5
164
330
2
100
AcDbEntity
  8
画層1
 62
     0
100
AcDbLine
 10
133.46
 20
276.77
 30
0.0
 11
132.0
 21
276.77
 31
0.0
  0
ARC
  5
165
330
2
100
AcDbEntity
  8
画層1
 62
     0
100
AcDbCircle
 10
133.46
 20
278.77
 30
0.0
 40
1.0
100
AcDbArc
 50
270.0
 51
0.0
  0
LINE
  5
166
330
2
100
AcDbEntity
  8
画層1
 62
     0
100
AcDbLine
 10
134.46
 20
279.07
 30
0.0
 11
135.46
 21
279.07
 31
0.0
  0
LINE
  5
167
330
2
100
AcDbEntity
  8
画層1
 62
     0
100
AcDbLine
 10
134.46
 20
278.77
 30
0.0
 11
134.46
 21
279.07
 31
0.0
  0
LINE
  5
168
330
2
100
AcDbEntity
  8
画層1
 62
     0
100
AcDbLine
 10
135.46
 20
279.07
 30
0.0
 11
135.46
 21
278.77
 31
0.0
  0
ARC
  5
169
330
2
100
AcDbEntity
  8
画層1
 62
     0
100
AcDbCircle
 10
136.46
 20
278.77
 30
0.0
 40
1.0
100
AcDbArc
 50
180.0
 51
270.0
  0
LINE
  5
16A
330
2
100
AcDbEntity
  8
画層1
 62
     0
100
AcDbLine
 10
135.46
 20
275.7699999999999
 30
0.0
 11
135.46
 21
275.47
 31
0.0
  0
LINE
  5
16B
330
2
100
AcDbEntity
  8
画層1
 62
     0
100
AcDbLine
 10
134.46
 20
275.47
 30
0.0
 11
134.46
 21
275.7699999999999
 31
0.0
  0
LINE
  5
16C
330
2
100
AcDbEntity
  8
画層1
 62
     0
100
AcDbLine
 10
134.46
 20
275.47
 30
0.0
 11
135.46
 21
275.47
 31
0.0
  0
ARC
  5
16D
330
2
100
AcDbEntity
  8
画層1
 62
     0
100
AcDbCircle
 10
133.46
 20
275.7699999999999
 30
0.0
 40
1.0
100
AcDbArc
 50
0.0
 51
90.0
  0
ARC
  5
16E
330
2
100
AcDbEntity
  8
画層1
 62
     0
100
AcDbCircle
 10
136.46
 20
275.7699999999999
 30
0.0
 40
1.0
100
AcDbArc
 50
90.0
 51
180.0
  0
LINE
  5
16F
330
2
100
AcDbEntity
  8
画層1
 62
     0
100
AcDbLine
 10
130.96
 20
281.2699999999999
 30
0.0
 11
130.96
 21
273.2699999999999
 31
0.0
  0
LINE
  5
170
330
2
100
AcDbEntity
  8
画層1
 62
     0
100
AcDbLine
 10
138.96
 20
281.2699999999999
 30
0.0
 11
138.96
 21
273.2699999999999
 31
0.0
  0
DIMENSION
  5
171
330
2
100
AcDbEntity
  8
画層1
 62
     0
100
AcDbDimension
  2
*D26
 10
182.4199999999999
 20
258.43
 30
0.0
 11
175.6699999999999
 21
258.43
 31
0.0
 70
   160
 71
     5
 42
13.5
  3
STANDARD_WS
100
AcDbAlignedDimension
 13
168.9199999999999
 23
242.3899999999999
 33
0.0
 14
182.4199999999999
 24
242.3899999999999
 34
0.0
100
AcDbRotatedDimension
1001
ACAD
1000
DSTYLE
1002
{
1070
    47
1040
0.6
1070
   144
1040
1.0
1070
   146
1040
0.5
1070
   173
1070
     0
1070
   284
1070
     8
1070
   340
1005
2A
1070
   341
1005
2B
1070
   342
1005
2B
1070
   343
1005
2B
1002
}
  0
LINE
  5
17E
330
2
100
AcDbEntity
  8
画層1
  6
DASHED2
 62
     0
100
AcDbLine
 10
182.4199999999999
 20
239.3899999999999
 30
0.0
 11
168.9199999999999
 21
239.3899999999999
 31
0.0
  0
LINE
  5
17F
330
2
100
AcDbEntity
  8
画層1
  6
DASHED2
 62
     0
100
AcDbLine
 10
168.9199999999999
 20
241.8899999999999
 30
0.0
 11
182.4199999999999
 21
241.8899999999999
 31
0.0
  0
LINE
  5
180
330
2
100
AcDbEntity
  8
画層1
  6
DASHED2
 62
     0
100
AcDbLine
 10
181.92
 20
244.3899999999999
 30
0.0
 11
169.4199999999999
 21
244.3899999999999
 31
0.0
  0
LINE
  5
181
330
2
100
AcDbEntity
  8
画層1
  6
DASHED2
 62
     0
100
AcDbLine
 10
169.4199999999999
 20
245.3899999999999
 30
0.0
 11
181.92
 21
245.3899999999999
 31
0.0
  0
LINE
  5
182
330
2
100
AcDbEntity
  8
画層1
  6
DASHED2
 62
     0
100
AcDbLine
 10
165.92
 20
242.3899999999999
 30
0.0
 11
166.4199999999999
 21
242.3899999999999
 31
0.0
  0
LINE
  5
183
330
2
100
AcDbEntity
  8
画層1
  6
DASHED2
 62
     0
100
AcDbLine
 10
165.92
 20
246.3899999999999
 30
0.0
 11
165.92
 21
242.3899999999999
 31
0.0
  0
LINE
  5
184
330
2
100
AcDbEntity
  8
画層1
  6
DASHED2
 62
     0
100
AcDbLine
 10
169.4199999999999
 20
242.3899999999999
 30
0.0
 11
168.9199999999999
 21
242.3899999999999
 31
0.0
  0
LINE
  5
185
330
2
100
AcDbEntity
  8
画層1
  6
DASHED2
 62
     0
100
AcDbLine
 10
169.4199999999999
 20
246.3899999999999
 30
0.0
 11
169.4199999999999
 21
242.3899999999999
 31
0.0
  0
LINE
  5
186
330
2
100
AcDbEntity
  8
画層1
  6
DASHED2
 62
     0
100
AcDbLine
 10
185.4199999999999
 20
246.3899999999999
 30
0.0
 11
185.4199999999999
 21
242.3899999999999
 31
0.0
  0
LINE
  5
187
330
2
100
AcDbEntity
  8
画層1
  6
DASHED2
 62
     0
100
AcDbLine
 10
185.4199999999999
 20
242.3899999999999
 30
0.0
 11
184.9199999999999
 21
242.3899999999999
 31
0.0
  0
LINE
  5
188
330
2
100
AcDbEntity
  8
画層1
  6
DASHED2
 62
     0
100
AcDbLine
 10
181.92
 20
242.3899999999999
 30
0.0
 11
182.4199999999999
 21
242.3899999999999
 31
0.0
  0
LINE
  5
189
330
2
100
AcDbEntity
  8
画層1
  6
DASHED2
 62
     0
100
AcDbLine
 10
181.92
 20
246.3899999999999
 30
0.0
 11
181.92
 21
242.3899999999999
 31
0.0
  0
ARC
  5
18A
330
2
100
AcDbEntity
  8
画層1
 62
     0
100
AcDbCircle
 10
207.66
 20
191.3899999999999
 30
0.0
 40
5.0
100
AcDbArc
 50
270.0
 51
0.0
  0
LINE
  5
18B
330
2
100
AcDbEntity
  8
画層1
  6
DASHED2
 62
     0
100
AcDbLine
 10
200.9199999999999
 20
242.3899999999999
 30
0.0
 11
200.9199999999999
 21
220.3899999999999
 31
0.0
  0
LINE
  5
18C
330
2
100
AcDbEntity
  8
画層1
  6
DASHED2
 62
     0
100
AcDbLine
 10
198.4199999999999
 20
242.3899999999999
 30
0.0
 11
198.4199999999999
 21
220.3899999999999
 31
0.0
  0
LINE
  5
18D
330
2
100
AcDbEntity
  8
画層1
  6
DASHED2
 62
     0
100
AcDbLine
 10
213.66
 20
216.3899999999999
 30
0.0
 11
213.66
 21
246.3899999999999
 31
0.0
  0
LINE
  5
18E
330
2
100
AcDbEntity
  8
画層1
  6
DASHED2
 62
     0
100
AcDbLine
 10
216.6599999999999
 20
247.3899999999999
 30
0.0
 11
216.6599999999999
 21
205.39
 31
0.0
  0
DIMENSION
  5
18F
330
2
100
AcDbEntity
  8
画層1
 62
     0
100
AcDbDimension
  2
*D25
 10
233.86
 20
231.3899999999999
 30
0.0
 11
231.9799999999999
 21
213.89
 31
0.0
 70
    32
 71
     5
 42
35.0
  3
STANDARD_WS
100
AcDbAlignedDimension
 13
218.12
 23
196.3899999999999
 33
0.0
 14
207.66
 24
231.3899999999999
 34
0.0
 50
90.0
100
AcDbRotatedDimension
1001
ACAD
1000
DSTYLE
1002
{
1070
    47
1040
0.6
1070
   144
1040
1.0
1070
   146
1040
0.5
1070
   173
1070
     0
1070
   284
1070
     8
1070
   340
1005
2A
1070
   341
1005
2B
1070
   342
1005
2B
1070
   343
1005
2B
1002
}
  0
LINE
  5
19C
330
2
100
AcDbEntity
  8
画層1
  6
DASHED2
 62
     0
100
AcDbLine
 10
216.6599999999999
 20
205.39
 30
0.0
 11
204.5599999999999
 21
205.39
 31
0.0
  0
ARC
  5
19D
330
2
100
AcDbEntity
  8
画層1
 62
     0
100
AcDbCircle
 10
211.16
 20
200.8899999999999
 30
0.0
 40
1.0
100
AcDbArc
 50
0.0
 51
90.0
  0
ARC
  5
19E
330
2
100
AcDbEntity
  8
画層1
 62
     0
100
AcDbCircle
 10
211.16
 20
203.8899999999999
 30
0.0
 40
1.0
100
AcDbArc
 50
270.0
 51
0.0
  0
LINE
  5
19F
330
2
100
AcDbEntity
  8
画層1
 62
     0
100
AcDbLine
 10
214.9599999999999
 20
196.8899999999999
 30
0.0
 11
201.2799999999999
 21
196.8899999999999
 31
0.0
  0
LINE
  5
1A0
330
2
100
AcDbEntity
  8
画層1
 62
     0
100
AcDbLine
 10
206.0599999999999
 20
196.3899999999999
 30
0.0
 11
218.5599999999999
 21
196.3899999999999
 31
0.0
  0
CIRCLE
  5
1A1
330
2
100
AcDbEntity
  8
画層1
 62
     0
100
AcDbCircle
 10
212.6599999999999
 20
202.3899999999999
 30
0.0
 40
3.0
  0
LINE
  5
1A2
330
2
100
AcDbEntity
  8
画層1
 62
     0
100
AcDbLine
 10
218.36
 20
207.8899999999999
 30
0.0
 11
203.6599999999999
 21
207.8899999999999
 31
0.0
  0
ARC
  5
1A3
330
2
100
AcDbEntity
  8
画層1
 62
     0
100
AcDbCircle
 10
205.6599999999999
 20
202.3899999999999
 30
0.0
 40
3.99999999999999
100
AcDbArc
 50
30.0
 51
330.0
  0
LINE
  5
1A4
330
2
100
AcDbEntity
  8
画層1
 62
     0
100
AcDbLine
 10
204.5599999999999
 20
198.55
 30
0.0
 11
204.5599999999999
 21
206.23
 31
0.0
  0
LINE
  5
1A5
330
2
100
AcDbEntity
  8
画層1
 62
     0
100
AcDbLine
 10
201.6599999999999
 20
205.8899999999999
 30
0.0
 11
201.6599999999999
 21
197.8899999999999
 31
0.0
  0
ARC
  5
1A6
330
2
100
AcDbEntity
  8
画層1
 62
     0
100
AcDbCircle
 10
200.1599999999999
 20
197.8899999999999
 30
0.0
 40
1.5
100
AcDbArc
 50
270.0
 51
0.0
  0
LINE
  5
1A7
330
2
100
AcDbEntity
  8
画層1
 62
     0
100
AcDbLine
 10
210.42
 20
200.3899999999999
 30
0.0
 11
209.12
 21
200.3899999999999
 31
0.0
  0
ARC
  5
1A8
330
2
100
AcDbEntity
  8
画層1
 62
     0
100
AcDbCircle
 10
206.0599999999999
 20
197.8899999999999
 30
0.0
 40
1.5
100
AcDbArc
 50
221.81
 51
270.0
  0
LINE
  5
1A9
330
2
100
AcDbEntity
  8
画層1
  6
DASHED2
 62
     0
100
AcDbLine
 10
204.5599999999999
 20
205.39
 30
0.0
 11
203.02
 21
205.39
 31
0.0
  0
ARC
  5
1AA
330
2
100
AcDbEntity
  8
画層1
 62
     0
100
AcDbCircle
 10
203.6599999999999
 20
205.8899999999999
 30
0.0
 40
2.0
100
AcDbArc
 50
90.0
 51
180.0
  0
LINE
  5
1AB
330
2
100
AcDbEntity
  8
画層1
  6
DASHED2
 62
     0
100
AcDbLine
 10
203.02
 20
205.39
 30
0.0
 11
201.6599999999999
 21
205.39
 31
0.0
  0
LINE
  5
1AC
330
2
100
AcDbEntity
  8
画層1
 62
     0
100
AcDbLine
 10
210.42
 20
204.3899999999999
 30
0.0
 11
209.12
 21
204.3899999999999
 31
0.0
  0
LINE
  5
1AD
330
2
100
AcDbEntity
  8
画層1
 62
     0
100
AcDbLine
 10
210.86
 20
201.8899999999999
 30
0.0
 11
211.16
 21
201.8899999999999
 31
0.0
  0
LINE
  5
1AE
330
2
100
AcDbEntity
  8
画層1
 62
     0
100
AcDbLine
 10
211.16
 20
202.8899999999999
 30
0.0
 11
210.86
 21
202.8899999999999
 31
0.0
  0
LINE
  5
1AF
330
2
100
AcDbEntity
  8
画層1
 62
     0
100
AcDbLine
 10
210.86
 20
202.8899999999999
 30
0.0
 11
210.86
 21
201.8899999999999
 31
0.0
  0
ARC
  5
1B0
330
2
100
AcDbEntity
  8
画層1
 62
     0
100
AcDbCircle
 10
214.1599999999999
 20
200.8899999999999
 30
0.0
 40
1.0
100
AcDbArc
 50
90.0
 51
180.0
  0
LINE
  5
1B1
330
2
100
AcDbEntity
  8
画層1
 62
     0
100
AcDbLine
 10
216.9599999999999
 20
207.8899999999999
 30
0.0
 11
216.9599999999999
 21
198.8899999999999
 31
0.0
  0
LINE
  5
1B2
330
2
100
AcDbEntity
  8
画層1
 62
     0
100
AcDbLine
 10
213.16
 20
200.59
 30
0.0
 11
213.16
 21
200.8899999999999
 31
0.0
  0
LINE
  5
1B3
330
2
100
AcDbEntity
  8
画層1
 62
     0
100
AcDbLine
 10
212.1599999999999
 20
200.8899999999999
 30
0.0
 11
212.1599999999999
 21
200.59
 31
0.0
  0
LINE
  5
1B4
330
2
100
AcDbEntity
  8
画層1
 62
     0
100
AcDbLine
 10
212.1599999999999
 20
200.59
 30
0.0
 11
213.16
 21
200.59
 31
0.0
  0
ARC
  5
1B5
330
2
100
AcDbEntity
  8
画層1
 62
     0
100
AcDbCircle
 10
214.9599999999999
 20
198.8899999999999
 30
0.0
 40
2.0
100
AcDbArc
 50
270.0
 51
0.0
  0
LINE
  5
1B6
330
2
100
AcDbEntity
  8
画層1
 62
     0
100
AcDbLine
 10
212.6599999999999
 20
191.3899999999999
 30
0.0
 11
212.6599999999999
 21
196.3899999999999
 31
0.0
  0
ARC
  5
1B7
330
2
100
AcDbEntity
  8
画層1
 62
     0
100
AcDbCircle
 10
214.1599999999999
 20
203.8899999999999
 30
0.0
 40
1.0
100
AcDbArc
 50
180.0
 51
270.0
  0
LINE
  5
1B8
330
2
100
AcDbEntity
  8
画層1
 62
     0
100
AcDbLine
 10
213.16
 20
203.8899999999999
 30
0.0
 11
213.16
 21
204.19
 31
0.0
  0
LINE
  5
1B9
330
2
100
AcDbEntity
  8
画層1
 62
     0
100
AcDbLine
 10
214.1599999999999
 20
201.8899999999999
 30
0.0
 11
214.46
 21
201.8899999999999
 31
0.0
  0
LINE
  5
1BA
330
2
100
AcDbEntity
  8
画層1
 62
     0
100
AcDbLine
 10
214.46
 20
202.8899999999999
 30
0.0
 11
214.1599999999999
 21
202.8899999999999
 31
0.0
  0
LINE
  5
1BB
330
2
100
AcDbEntity
  8
画層1
 62
     0
100
AcDbLine
 10
214.46
 20
202.8899999999999
 30
0.0
 11
214.46
 21
201.8899999999999
 31
0.0
  0
LINE
  5
1BC
330
2
100
AcDbEntity
  8
画層1
 62
     0
100
AcDbLine
 10
212.1599999999999
 20
204.19
 30
0.0
 11
212.1599999999999
 21
203.8899999999999
 31
0.0
  0
LINE
  5
1BD
330
2
100
AcDbEntity
  8
画層1
 62
     0
100
AcDbLine
 10
212.1599999999999
 20
204.19
 30
0.0
 11
213.16
 21
204.19
 31
0.0
  0
LINE
  5
1BE
330
2
100
AcDbEntity
  8
画層1
  6
DASHED2
 62
     0
100
AcDbLine
 10
213.66
 20
217.3899999999999
 30
0.0
 11
201.4199999999999
 21
217.3899999999999
 31
0.0
  0
LINE
  5
1BF
330
2
100
AcDbEntity
  8
画層1
  6
DASHED2
 62
     0
100
AcDbLine
 10
213.66
 20
218.3899999999999
 30
0.0
 11
201.4199999999999
 21
218.3899999999999
 31
0.0
  0
LINE
  5
1C0
330
2
100
AcDbEntity
  8
画層1
  6
DASHED2
 62
     0
100
AcDbLine
 10
213.66
 20
220.8899999999999
 30
0.0
 11
200.9199999999999
 21
220.8899999999999
 31
0.0
  0
LINE
  5
1C1
330
2
100
AcDbEntity
  8
画層1
  6
DASHED2
 62
     0
100
AcDbLine
 10
213.66
 20
223.3899999999999
 30
0.0
 11
200.9199999999999
 21
223.3899999999999
 31
0.0
  0
LINE
  5
1C2
330
2
100
AcDbEntity
  8
画層1
  6
DASHED2
 62
     0
100
AcDbLine
 10
201.4199999999999
 20
220.3899999999999
 30
0.0
 11
201.4199999999999
 21
216.3899999999999
 31
0.0
  0
LINE
  5
1C3
330
2
100
AcDbEntity
  8
画層1
  6
DASHED2
 62
     0
100
AcDbLine
 10
200.9199999999999
 20
220.3899999999999
 30
0.0
 11
201.4199999999999
 21
220.3899999999999
 31
0.0
  0
LINE
  5
1C4
330
2
100
AcDbEntity
  8
画層1
  6
DASHED2
 62
     0
100
AcDbLine
 10
198.4199999999999
 20
220.3899999999999
 30
0.0
 11
197.9199999999999
 21
220.3899999999999
 31
0.0
  0
LINE
  5
1C5
330
2
100
AcDbEntity
  8
画層1
  6
DASHED2
 62
     0
100
AcDbLine
 10
197.9199999999999
 20
220.3899999999999
 30
0.0
 11
197.9199999999999
 21
216.3899999999999
 31
0.0
  0
LINE
  5
1C6
330
2
100
AcDbEntity
  8
画層1
  6
CENTER
 62
     0
100
AcDbLine
 10
207.66
 20
234.39
 30
0.0
 11
207.66
 21
228.39
 31
0.0
  0
LINE
  5
1C7
330
2
100
AcDbEntity
  8
画層1
  6
CENTER
 62
     0
100
AcDbLine
 10
204.66
 20
231.3899999999999
 30
0.0
 11
210.6599999999999
 21
231.3899999999999
 31
0.0
  0
LINE
  5
1C8
330
2
100
AcDbEntity
  8
画層1
  6
DASHED2
 62
     0
100
AcDbLine
 10
213.66
 20
239.3899999999999
 30
0.0
 11
200.9199999999999
 21
239.3899999999999
 31
0.0
  0
LINE
  5
1C9
330
2
100
AcDbEntity
  8
画層1
  6
DASHED2
 62
     0
100
AcDbLine
 10
200.9199999999999
 20
241.8899999999999
 30
0.0
 11
213.66
 21
241.8899999999999
 31
0.0
  0
LINE
  5
1CA
330
2
100
AcDbEntity
  8
画層1
  6
DASHED2
 62
     0
100
AcDbLine
 10
213.66
 20
244.3899999999999
 30
0.0
 11
201.4199999999999
 21
244.3899999999999
 31
0.0
  0
LINE
  5
1CB
330
2
100
AcDbEntity
  8
画層1
  6
DASHED2
 62
     0
100
AcDbLine
 10
201.4199999999999
 20
245.3899999999999
 30
0.0
 11
213.66
 21
245.3899999999999
 31
0.0
  0
LINE
  5
1CC
330
2
100
AcDbEntity
  8
画層1
  6
DASHED2
 62
     0
100
AcDbLine
 10
201.4199999999999
 20
242.3899999999999
 30
0.0
 11
200.9199999999999
 21
242.3899999999999
 31
0.0
  0
LINE
  5
1CD
330
2
100
AcDbEntity
  8
画層1
  6
DASHED2
 62
     0
100
AcDbLine
 10
201.4199999999999
 20
246.3899999999999
 30
0.0
 11
201.4199999999999
 21
242.3899999999999
 31
0.0
  0
LINE
  5
1CE
330
2
100
AcDbEntity
  8
画層1
  6
DASHED2
 62
     0
100
AcDbLine
 10
197.9199999999999
 20
246.3899999999999
 30
0.0
 11
197.9199999999999
 21
242.3899999999999
 31
0.0
  0
LINE
  5
1CF
330
2
100
AcDbEntity
  8
画層1
  6
DASHED2
 62
     0
100
AcDbLine
 10
197.9199999999999
 20
242.3899999999999
 30
0.0
 11
198.4199999999999
 21
242.3899999999999
 31
0.0
  0
LEADER
  5
1D0
330
2
100
AcDbEntity
  8
画層1
 62
     0
100
AcDbLeader
  3
STANDARD_WS
 73
     0
 75
     1
 40
5.0
 41
21.73
 76
     3
 10
123.76
 20
350.0099999999999
 30
0.0
 10
63.42999999999999
 20
385.62
 30
0.0
 10
61.93
 20
385.62
 30
0.0
340
1D1
213
-1.0
223
0.4207616165015224
233
0.0
1001
ACAD
1000
DSTYLE
1002
{
1070
   341
1005
9C
1070
   147
1040
0.63
1070
    77
1070
     2
1070
    47
1040
0.6
1070
   144
1040
2.0
1070
   146
1040
0.5
1070
   284
1070
     8
1070
   340
1005
2A
1002
}
  0
MTEXT
  5
1D1
102
{ACAD_REACTORS
330
1D0
102
}
330
2
100
AcDbEntity
  8
画層1
 62
     0
100
AcDbMText
 10
62.3
 20
385.8299999999999
 30
0.0
 40
5.0
 41
0.0
 71
     9
 72
     1
  1
18-M3.5
  7
STYLE1
 73
     1
 44
1.0
  0
LINE
  5
1D2
330
2
100
AcDbEntity
  8
画層1
 62
     0
100
AcDbLine
 10
204.1599999999999
 20
371.89
 30
0.0
 11
131.16
 21
371.89
 31
0.0
  0
LINE
  5
1D3
330
2
100
AcDbEntity
  8
画層1
 62
     0
100
AcDbLine
 10
131.16
 20
381.8899999999999
 30
0.0
 11
204.1599999999999
 21
381.8899999999999
 31
0.0
  0
LINE
  5
1D4
330
2
100
AcDbEntity
  8
画層1
 62
     0
100
AcDbLine
 10
127.6599999999999
 20
406.39
 30
0.0
 11
207.66
 21
406.39
 31
0.0
  0
LINE
  5
1D5
330
2
100
AcDbEntity
  8
画層1
 62
     0
100
AcDbLine
 10
137.66
 20
396.3899999999999
 30
0.0
 11
200.1599999999999
 21
396.3899999999999
 31
0.0
  0
DIMENSION
  5
1D6
330
2
100
AcDbEntity
  8
画層1
 62
     0
100
AcDbDimension
  2
*D33
 10
247.86
 20
406.39
 30
0.0
 11
245.9799999999999
 21
403.39
 31
0.0
 70
    32
 71
     5
 42
12.0
  3
STANDARD_WS
100
AcDbAlignedDimension
 13
170.6599999999999
 23
400.3899999999999
 33
0.0
 14
211.46
 24
406.39
 34
0.0
 50
90.0
100
AcDbRotatedDimension
1001
ACAD
1000
DSTYLE
1002
{
1070
   279
1070
     1
1070
    47
1040
0.6
1070
   144
1040
2.0
1070
   146
1040
0.5
1070
   173
1070
     0
1070
   284
1070
     8
1070
   340
1005
2A
1070
   341
1005
2B
1070
   342
1005
2B
1070
   343
1005
2B
1002
}
  0
DIMENSION
  5
1E5
330
2
100
AcDbEntity
  8
画層1
 62
     0
100
AcDbDimension
  2
*D23
 10
218.6599999999999
 20
435.39
 30
0.0
 11
167.66
 21
437.27
 31
0.0
 70
    32
 71
     5
 42
102.0
  3
STANDARD_WS
100
AcDbAlignedDimension
 13
116.66
 23
396.3899999999999
 33
0.0
 14
218.6599999999999
 24
396.3899999999999
 34
0.0
100
AcDbRotatedDimension
1001
ACAD
1000
DSTYLE
1002
{
1070
    47
1040
0.6
1070
   144
1040
1.0
1070
   146
1040
0.5
1070
   173
1070
     0
1070
   284
1070
     8
1070
   340
1005
2A
1070
   341
1005
2B
1070
   342
1005
2B
1070
   343
1005
2B
1002
}
  0
LINE
  5
1F2
330
2
100
AcDbEntity
  8
画層1
 62
     0
100
AcDbLine
 10
129.6599999999999
 20
373.3899999999999
 30
0.0
 11
129.6599999999999
 21
380.39
 31
0.0
  0
LINE
  5
1F3
330
2
100
AcDbEntity
  8
画層1
 62
     0
100
AcDbLine
 10
116.9599999999999
 20
360.3899999999999
 30
0.0
 11
116.9599999999999
 21
384.89
 31
0.0
  0
ARC
  5
1F4
330
2
100
AcDbEntity
  8
画層1
 62
     0
100
AcDbCircle
 10
131.16
 20
373.3899999999999
 30
0.0
 40
1.5
100
AcDbArc
 50
180.0
 51
270.0
  0
LINE
  5
1F5
330
2
100
AcDbEntity
  8
画層1
 62
     0
100
AcDbLine
 10
116.9599999999999
 20
360.3899999999999
 30
0.0
 11
141.1599999999999
 21
360.3899999999999
 31
0.0
  0
LINE
  5
1F6
330
2
100
AcDbEntity
  8
画層1
 62
     0
100
AcDbLine
 10
119.96
 20
359.39
 30
0.0
 11
139.96
 21
359.39
 31
0.0
  0
LINE
  5
1F7
330
2
100
AcDbEntity
  8
画層1
 62
     0
100
AcDbLine
 10
119.96
 20
357.2699999999999
 30
0.0
 11
138.96
 21
357.2699999999999
 31
0.0
  0
LINE
  5
1F8
330
2
100
AcDbEntity
  8
画層1
 62
     0
100
AcDbLine
 10
129.46
 20
338.2699999999999
 30
0.0
 11
138.96
 21
338.2699999999999
 31
0.0
  0
LINE
  5
1F9
330
2
100
AcDbEntity
  8
画層1
 62
     0
100
AcDbLine
 10
129.46
 20
347.77
 30
0.0
 11
138.96
 21
347.77
 31
0.0
  0
LINE
  5
1FA
330
2
100
AcDbEntity
  8
画層1
 62
     0
100
AcDbLine
 10
129.46
 20
349.2699999999999
 30
0.0
 11
138.96
 21
349.2699999999999
 31
0.0
  0
LINE
  5
1FB
330
2
100
AcDbEntity
  8
画層1
 62
     0
100
AcDbLine
 10
129.46
 20
339.7699999999999
 30
0.0
 11
138.96
 21
339.7699999999999
 31
0.0
  0
LINE
  5
1FC
330
2
100
AcDbEntity
  8
画層1
 62
     0
100
AcDbLine
 10
129.46
 20
301.77
 30
0.0
 11
138.96
 21
301.77
 31
0.0
  0
LINE
  5
1FD
330
2
100
AcDbEntity
  8
画層1
 62
     0
100
AcDbLine
 10
129.46
 20
300.2699999999999
 30
0.0
 11
138.96
 21
300.2699999999999
 31
0.0
  0
LINE
  5
1FE
330
2
100
AcDbEntity
  8
画層1
 62
     0
100
AcDbLine
 10
129.46
 20
309.7699999999999
 30
0.0
 11
138.96
 21
309.7699999999999
 31
0.0
  0
LINE
  5
1FF
330
2
100
AcDbEntity
  8
画層1
 62
     0
100
AcDbLine
 10
129.46
 20
311.2699999999999
 30
0.0
 11
138.96
 21
311.2699999999999
 31
0.0
  0
LINE
  5
200
330
2
100
AcDbEntity
  8
画層1
 62
     0
100
AcDbLine
 10
129.46
 20
330.2699999999999
 30
0.0
 11
138.96
 21
330.2699999999999
 31
0.0
  0
LINE
  5
201
330
2
100
AcDbEntity
  8
画層1
 62
     0
100
AcDbLine
 10
129.46
 20
320.7699999999999
 30
0.0
 11
138.96
 21
320.7699999999999
 31
0.0
  0
LINE
  5
202
330
2
100
AcDbEntity
  8
画層1
 62
     0
100
AcDbLine
 10
129.46
 20
328.77
 30
0.0
 11
138.96
 21
328.77
 31
0.0
  0
LINE
  5
203
330
2
100
AcDbEntity
  8
画層1
 62
     0
100
AcDbLine
 10
129.46
 20
319.2699999999999
 30
0.0
 11
138.96
 21
319.2699999999999
 31
0.0
  0
LINE
  5
204
330
2
100
AcDbEntity
  8
画層1
 62
     0
100
AcDbLine
 10
129.46
 20
292.2699999999999
 30
0.0
 11
138.96
 21
292.2699999999999
 31
0.0
  0
LINE
  5
205
330
2
100
AcDbEntity
  8
画層1
 62
     0
100
AcDbLine
 10
129.46
 20
282.7699999999999
 30
0.0
 11
138.96
 21
282.7699999999999
 31
0.0
  0
LINE
  5
206
330
2
100
AcDbEntity
  8
画層1
 62
     0
100
AcDbLine
 10
129.46
 20
290.7699999999999
 30
0.0
 11
138.96
 21
290.7699999999999
 31
0.0
  0
ARC
  5
207
330
2
100
AcDbEntity
  8
画層1
 62
     0
100
AcDbCircle
 10
123.96
 20
328.01
 30
0.0
 40
1.0
100
AcDbArc
 50
0.0
 51
90.0
  0
ARC
  5
208
330
2
100
AcDbEntity
  8
画層1
 62
     0
100
AcDbCircle
 10
126.96
 20
328.01
 30
0.0
 40
1.0
100
AcDbArc
 50
90.0
 51
180.0
  0
CIRCLE
  5
209
330
2
100
AcDbEntity
  8
画層1
 62
     0
100
AcDbCircle
 10
125.4599999999999
 20
329.51
 30
0.0
 40
3.0
  0
LINE
  5
20A
330
2
100
AcDbEntity
  8
画層1
 62
     0
100
AcDbLine
 10
121.4599999999999
 20
333.51
 30
0.0
 11
121.4599999999999
 21
325.51
 31
0.0
  0
CIRCLE
  5
20B
330
2
100
AcDbEntity
  8
画層1
 62
     0
100
AcDbCircle
 10
125.4599999999999
 20
291.5099999999999
 30
0.0
 40
3.0
  0
LINE
  5
20C
330
2
100
AcDbEntity
  8
画層1
 62
     0
100
AcDbLine
 10
121.4599999999999
 20
295.5099999999999
 30
0.0
 11
121.4599999999999
 21
287.5099999999999
 31
0.0
  0
LINE
  5
20D
330
2
100
AcDbEntity
  8
画層1
 62
     0
100
AcDbLine
 10
119.96
 20
286.01
 30
0.0
 11
129.46
 21
286.01
 31
0.0
  0
LINE
  5
20E
330
2
100
AcDbEntity
  8
画層1
 62
     0
100
AcDbLine
 10
119.96
 20
287.5099999999999
 30
0.0
 11
129.46
 21
287.5099999999999
 31
0.0
  0
LINE
  5
20F
330
2
100
AcDbEntity
  8
画層1
 62
     0
100
AcDbLine
 10
122.5
 20
282.5099999999999
 30
0.0
 11
123.96
 21
282.5099999999999
 31
0.0
  0
LINE
  5
210
330
2
100
AcDbEntity
  8
画層1
 62
     0
100
AcDbLine
 10
123.96
 20
291.0099999999999
 30
0.0
 11
122.5
 21
291.0099999999999
 31
0.0
  0
LINE
  5
211
330
2
100
AcDbEntity
  8
画層1
 62
     0
100
AcDbLine
 10
122.5
 20
292.01
 30
0.0
 11
123.96
 21
292.01
 31
0.0
  0
LINE
  5
212
330
2
100
AcDbEntity
  8
画層1
 62
     0
100
AcDbLine
 10
126.96
 20
282.5099999999999
 30
0.0
 11
128.42
 21
282.5099999999999
 31
0.0
  0
LINE
  5
213
330
2
100
AcDbEntity
  8
画層1
 62
     0
100
AcDbLine
 10
126.96
 20
292.01
 30
0.0
 11
128.42
 21
292.01
 31
0.0
  0
LINE
  5
214
330
2
100
AcDbEntity
  8
画層1
 62
     0
100
AcDbLine
 10
128.42
 20
291.0099999999999
 30
0.0
 11
126.96
 21
291.0099999999999
 31
0.0
  0
LINE
  5
215
330
2
100
AcDbEntity
  8
画層1
 62
     0
100
AcDbLine
 10
124.96
 20
283.81
 30
0.0
 11
125.96
 21
283.81
 31
0.0
  0
LINE
  5
216
330
2
100
AcDbEntity
  8
画層1
 62
     0
100
AcDbLine
 10
124.96
 20
293.3099999999999
 30
0.0
 11
125.96
 21
293.3099999999999
 31
0.0
  0
LINE
  5
217
330
2
100
AcDbEntity
  8
画層1
 62
     0
100
AcDbLine
 10
124.96
 20
289.71
 30
0.0
 11
125.96
 21
289.71
 31
0.0
  0
LINE
  5
218
330
2
100
AcDbEntity
  8
画層1
 62
     0
100
AcDbLine
 10
124.96
 20
283.51
 30
0.0
 11
124.96
 21
283.81
 31
0.0
  0
ARC
  5
219
330
2
100
AcDbEntity
  8
画層1
 62
     0
100
AcDbCircle
 10
123.96
 20
290.01
 30
0.0
 40
1.0
100
AcDbArc
 50
0.0
 51
90.0
  0
ARC
  5
21A
330
2
100
AcDbEntity
  8
画層1
 62
     0
100
AcDbCircle
 10
123.96
 20
293.0099999999999
 30
0.0
 40
1.0
100
AcDbArc
 50
270.0
 51
0.0
  0
LINE
  5
21B
330
2
100
AcDbEntity
  8
画層1
 62
     0
100
AcDbLine
 10
124.96
 20
293.0099999999999
 30
0.0
 11
124.96
 21
293.3099999999999
 31
0.0
  0
LINE
  5
21C
330
2
100
AcDbEntity
  8
画層1
 62
     0
100
AcDbLine
 10
124.96
 20
289.71
 30
0.0
 11
124.96
 21
290.01
 31
0.0
  0
LINE
  5
21D
330
2
100
AcDbEntity
  8
画層1
 62
     0
100
AcDbLine
 10
125.96
 20
283.81
 30
0.0
 11
125.96
 21
283.51
 31
0.0
  0
LINE
  5
21E
330
2
100
AcDbEntity
  8
画層1
 62
     0
100
AcDbLine
 10
125.96
 20
293.3099999999999
 30
0.0
 11
125.96
 21
293.0099999999999
 31
0.0
  0
LINE
  5
21F
330
2
100
AcDbEntity
  8
画層1
 62
     0
100
AcDbLine
 10
125.96
 20
290.01
 30
0.0
 11
125.96
 21
289.71
 31
0.0
  0
ARC
  5
220
330
2
100
AcDbEntity
  8
画層1
 62
     0
100
AcDbCircle
 10
126.96
 20
290.01
 30
0.0
 40
1.0
100
AcDbArc
 50
90.0
 51
180.0
  0
ARC
  5
221
330
2
100
AcDbEntity
  8
画層1
 62
     0
100
AcDbCircle
 10
126.96
 20
293.0099999999999
 30
0.0
 40
1.0
100
AcDbArc
 50
180.0
 51
270.0
  0
LINE
  5
222
330
2
100
AcDbEntity
  8
画層1
 62
     0
100
AcDbLine
 10
119.96
 20
295.5099999999999
 30
0.0
 11
129.46
 21
295.5099999999999
 31
0.0
  0
LINE
  5
223
330
2
100
AcDbEntity
  8
画層1
 62
     0
100
AcDbLine
 10
119.96
 20
297.01
 30
0.0
 11
129.46
 21
297.01
 31
0.0
  0
LINE
  5
224
330
2
100
AcDbEntity
  8
画層1
 62
     0
100
AcDbLine
 10
119.96
 20
305.01
 30
0.0
 11
129.46
 21
305.01
 31
0.0
  0
LINE
  5
225
330
2
100
AcDbEntity
  8
画層1
 62
     0
100
AcDbLine
 10
121.4599999999999
 20
305.01
 30
0.0
 11
121.4599999999999
 21
297.01
 31
0.0
  0
LINE
  5
226
330
2
100
AcDbEntity
  8
画層1
 62
     0
100
AcDbLine
 10
122.5
 20
301.5099999999999
 30
0.0
 11
123.96
 21
301.5099999999999
 31
0.0
  0
LINE
  5
227
330
2
100
AcDbEntity
  8
画層1
 62
     0
100
AcDbLine
 10
123.96
 20
300.51
 30
0.0
 11
122.5
 21
300.51
 31
0.0
  0
CIRCLE
  5
228
330
2
100
AcDbEntity
  8
画層1
 62
     0
100
AcDbCircle
 10
125.4599999999999
 20
301.0099999999999
 30
0.0
 40
3.0
  0
LINE
  5
229
330
2
100
AcDbEntity
  8
画層1
 62
     0
100
AcDbLine
 10
126.96
 20
301.5099999999999
 30
0.0
 11
128.42
 21
301.5099999999999
 31
0.0
  0
LINE
  5
22A
330
2
100
AcDbEntity
  8
画層1
 62
     0
100
AcDbLine
 10
128.42
 20
300.51
 30
0.0
 11
126.96
 21
300.51
 31
0.0
  0
LINE
  5
22B
330
2
100
AcDbEntity
  8
画層1
 62
     0
100
AcDbLine
 10
124.96
 20
299.2099999999999
 30
0.0
 11
124.96
 21
299.5099999999999
 31
0.0
  0
LINE
  5
22C
330
2
100
AcDbEntity
  8
画層1
 62
     0
100
AcDbLine
 10
125.96
 20
299.5099999999999
 30
0.0
 11
125.96
 21
299.2099999999999
 31
0.0
  0
LINE
  5
22D
330
2
100
AcDbEntity
  8
画層1
 62
     0
100
AcDbLine
 10
124.96
 20
299.2099999999999
 30
0.0
 11
125.96
 21
299.2099999999999
 31
0.0
  0
LINE
  5
22E
330
2
100
AcDbEntity
  8
画層1
 62
     0
100
AcDbLine
 10
124.96
 20
302.51
 30
0.0
 11
124.96
 21
302.81
 31
0.0
  0
LINE
  5
22F
330
2
100
AcDbEntity
  8
画層1
 62
     0
100
AcDbLine
 10
125.96
 20
302.81
 30
0.0
 11
125.96
 21
302.51
 31
0.0
  0
ARC
  5
230
330
2
100
AcDbEntity
  8
画層1
 62
     0
100
AcDbCircle
 10
123.96
 20
299.5099999999999
 30
0.0
 40
1.0
100
AcDbArc
 50
0.0
 51
90.0
  0
ARC
  5
231
330
2
100
AcDbEntity
  8
画層1
 62
     0
100
AcDbCircle
 10
123.96
 20
302.51
 30
0.0
 40
1.0
100
AcDbArc
 50
270.0
 51
0.0
  0
LINE
  5
232
330
2
100
AcDbEntity
  8
画層1
 62
     0
100
AcDbLine
 10
124.96
 20
302.81
 30
0.0
 11
125.96
 21
302.81
 31
0.0
  0
ARC
  5
233
330
2
100
AcDbEntity
  8
画層1
 62
     0
100
AcDbCircle
 10
126.96
 20
299.5099999999999
 30
0.0
 40
1.0
100
AcDbArc
 50
90.0
 51
180.0
  0
ARC
  5
234
330
2
100
AcDbEntity
  8
画層1
 62
     0
100
AcDbCircle
 10
126.96
 20
302.51
 30
0.0
 40
1.0
100
AcDbArc
 50
180.0
 51
270.0
  0
CIRCLE
  5
235
330
2
100
AcDbEntity
  8
画層1
 62
     0
100
AcDbCircle
 10
125.4599999999999
 20
320.0099999999999
 30
0.0
 40
3.0
  0
LINE
  5
236
330
2
100
AcDbEntity
  8
画層1
 62
     0
100
AcDbLine
 10
121.4599999999999
 20
324.0099999999999
 30
0.0
 11
121.4599999999999
 21
316.0099999999999
 31
0.0
  0
LINE
  5
237
330
2
100
AcDbEntity
  8
画層1
 62
     0
100
AcDbLine
 10
119.96
 20
314.5099999999999
 30
0.0
 11
129.46
 21
314.5099999999999
 31
0.0
  0
LINE
  5
238
330
2
100
AcDbEntity
  8
画層1
 62
     0
100
AcDbLine
 10
119.96
 20
316.0099999999999
 30
0.0
 11
129.46
 21
316.0099999999999
 31
0.0
  0
LINE
  5
239
330
2
100
AcDbEntity
  8
画層1
 62
     0
100
AcDbLine
 10
119.96
 20
306.51
 30
0.0
 11
129.46
 21
306.51
 31
0.0
  0
LINE
  5
23A
330
2
100
AcDbEntity
  8
画層1
 62
     0
100
AcDbLine
 10
121.4599999999999
 20
314.5099999999999
 30
0.0
 11
121.4599999999999
 21
306.51
 31
0.0
  0
LINE
  5
23B
330
2
100
AcDbEntity
  8
画層1
 62
     0
100
AcDbLine
 10
122.5
 20
311.01
 30
0.0
 11
123.96
 21
311.01
 31
0.0
  0
LINE
  5
23C
330
2
100
AcDbEntity
  8
画層1
 62
     0
100
AcDbLine
 10
123.96
 20
310.0099999999999
 30
0.0
 11
122.5
 21
310.0099999999999
 31
0.0
  0
LINE
  5
23D
330
2
100
AcDbEntity
  8
画層1
 62
     0
100
AcDbLine
 10
128.42
 20
310.0099999999999
 30
0.0
 11
126.96
 21
310.0099999999999
 31
0.0
  0
LINE
  5
23E
330
2
100
AcDbEntity
  8
画層1
 62
     0
100
AcDbLine
 10
126.96
 20
311.01
 30
0.0
 11
128.42
 21
311.01
 31
0.0
  0
LINE
  5
23F
330
2
100
AcDbEntity
  8
画層1
 62
     0
100
AcDbLine
 10
124.96
 20
312.3099999999999
 30
0.0
 11
125.96
 21
312.3099999999999
 31
0.0
  0
ARC
  5
240
330
2
100
AcDbEntity
  8
画層1
 62
     0
100
AcDbCircle
 10
123.96
 20
312.0099999999999
 30
0.0
 40
1.0
100
AcDbArc
 50
270.0
 51
0.0
  0
LINE
  5
241
330
2
100
AcDbEntity
  8
画層1
 62
     0
100
AcDbLine
 10
124.96
 20
312.0099999999999
 30
0.0
 11
124.96
 21
312.3099999999999
 31
0.0
  0
LINE
  5
242
330
2
100
AcDbEntity
  8
画層1
 62
     0
100
AcDbLine
 10
125.96
 20
312.3099999999999
 30
0.0
 11
125.96
 21
312.0099999999999
 31
0.0
  0
LINE
  5
243
330
2
100
AcDbEntity
  8
画層1
 62
     0
100
AcDbLine
 10
124.96
 20
308.7099999999999
 30
0.0
 11
125.96
 21
308.7099999999999
 31
0.0
  0
LINE
  5
244
330
2
100
AcDbEntity
  8
画層1
 62
     0
100
AcDbLine
 10
124.96
 20
308.7099999999999
 30
0.0
 11
124.96
 21
309.01
 31
0.0
  0
LINE
  5
245
330
2
100
AcDbEntity
  8
画層1
 62
     0
100
AcDbLine
 10
125.96
 20
309.01
 30
0.0
 11
125.96
 21
308.7099999999999
 31
0.0
  0
ARC
  5
246
330
2
100
AcDbEntity
  8
画層1
 62
     0
100
AcDbCircle
 10
123.96
 20
309.01
 30
0.0
 40
1.0
100
AcDbArc
 50
0.0
 51
90.0
  0
ARC
  5
247
330
2
100
AcDbEntity
  8
画層1
 62
     0
100
AcDbCircle
 10
126.96
 20
312.0099999999999
 30
0.0
 40
1.0
100
AcDbArc
 50
180.0
 51
270.0
  0
ARC
  5
248
330
2
100
AcDbEntity
  8
画層1
 62
     0
100
AcDbCircle
 10
126.96
 20
309.01
 30
0.0
 40
1.0
100
AcDbArc
 50
90.0
 51
180.0
  0
CIRCLE
  5
249
330
2
100
AcDbEntity
  8
画層1
 62
     0
100
AcDbCircle
 10
125.4599999999999
 20
310.51
 30
0.0
 40
3.0
  0
LINE
  5
24A
330
2
100
AcDbEntity
  8
画層1
 62
     0
100
AcDbLine
 10
119.96
 20
324.0099999999999
 30
0.0
 11
129.46
 21
324.0099999999999
 31
0.0
  0
LINE
  5
24B
330
2
100
AcDbEntity
  8
画層1
 62
     0
100
AcDbLine
 10
119.96
 20
325.51
 30
0.0
 11
129.46
 21
325.51
 31
0.0
  0
LINE
  5
24C
330
2
100
AcDbEntity
  8
画層1
 62
     0
100
AcDbLine
 10
122.5
 20
320.5099999999999
 30
0.0
 11
123.96
 21
320.5099999999999
 31
0.0
  0
LINE
  5
24D
330
2
100
AcDbEntity
  8
画層1
 62
     0
100
AcDbLine
 10
123.96
 20
319.51
 30
0.0
 11
122.5
 21
319.51
 31
0.0
  0
LINE
  5
24E
330
2
100
AcDbEntity
  8
画層1
 62
     0
100
AcDbLine
 10
126.96
 20
320.5099999999999
 30
0.0
 11
128.42
 21
320.5099999999999
 31
0.0
  0
LINE
  5
24F
330
2
100
AcDbEntity
  8
画層1
 62
     0
100
AcDbLine
 10
128.42
 20
319.51
 30
0.0
 11
126.96
 21
319.51
 31
0.0
  0
LINE
  5
250
330
2
100
AcDbEntity
  8
画層1
 62
     0
100
AcDbLine
 10
124.96
 20
321.81
 30
0.0
 11
125.96
 21
321.81
 31
0.0
  0
LINE
  5
251
330
2
100
AcDbEntity
  8
画層1
 62
     0
100
AcDbLine
 10
124.96
 20
318.2099999999999
 30
0.0
 11
125.96
 21
318.2099999999999
 31
0.0
  0
LINE
  5
252
330
2
100
AcDbEntity
  8
画層1
 62
     0
100
AcDbLine
 10
124.96
 20
327.7099999999999
 30
0.0
 11
125.96
 21
327.7099999999999
 31
0.0
  0
ARC
  5
253
330
2
100
AcDbEntity
  8
画層1
 62
     0
100
AcDbCircle
 10
123.96
 20
321.51
 30
0.0
 40
1.0
100
AcDbArc
 50
270.0
 51
0.0
  0
ARC
  5
254
330
2
100
AcDbEntity
  8
画層1
 62
     0
100
AcDbCircle
 10
123.96
 20
318.5099999999999
 30
0.0
 40
1.0
100
AcDbArc
 50
0.0
 51
90.0
  0
LINE
  5
255
330
2
100
AcDbEntity
  8
画層1
 62
     0
100
AcDbLine
 10
124.96
 20
321.51
 30
0.0
 11
124.96
 21
321.81
 31
0.0
  0
LINE
  5
256
330
2
100
AcDbEntity
  8
画層1
 62
     0
100
AcDbLine
 10
124.96
 20
318.2099999999999
 30
0.0
 11
124.96
 21
318.5099999999999
 31
0.0
  0
LINE
  5
257
330
2
100
AcDbEntity
  8
画層1
 62
     0
100
AcDbLine
 10
124.96
 20
327.7099999999999
 30
0.0
 11
124.96
 21
328.01
 31
0.0
  0
LINE
  5
258
330
2
100
AcDbEntity
  8
画層1
 62
     0
100
AcDbLine
 10
125.96
 20
321.81
 30
0.0
 11
125.96
 21
321.51
 31
0.0
  0
LINE
  5
259
330
2
100
AcDbEntity
  8
画層1
 62
     0
100
AcDbLine
 10
125.96
 20
318.5099999999999
 30
0.0
 11
125.96
 21
318.2099999999999
 31
0.0
  0
LINE
  5
25A
330
2
100
AcDbEntity
  8
画層1
 62
     0
100
AcDbLine
 10
125.96
 20
328.01
 30
0.0
 11
125.96
 21
327.7099999999999
 31
0.0
  0
ARC
  5
25B
330
2
100
AcDbEntity
  8
画層1
 62
     0
100
AcDbCircle
 10
126.96
 20
321.51
 30
0.0
 40
1.0
100
AcDbArc
 50
180.0
 51
270.0
  0
ARC
  5
25C
330
2
100
AcDbEntity
  8
画層1
 62
     0
100
AcDbCircle
 10
126.96
 20
318.5099999999999
 30
0.0
 40
1.0
100
AcDbArc
 50
90.0
 51
180.0
  0
DIMENSION
  5
25D
330
2
100
AcDbEntity
  8
画層1
 62
     0
100
AcDbDimension
  2
*D34
 10
102.4599999999999
 20
344.51
 30
0.0
 11
100.5799999999999
 21
348.51
 31
0.0
 70
    32
 71
     5
 42
8.0
  3
STANDARD_WS
100
AcDbAlignedDimension
 13
117.2199999999999
 23
352.51
 33
0.0
 14
117.2199999999999
 24
344.51
 34
0.0
 50
90.0
100
AcDbRotatedDimension
1001
ACAD
1000
DSTYLE
1002
{
1070
    47
1040
0.6
1070
   144
1040
1.0
1070
   146
1040
0.5
1070
   173
1070
     0
1070
   284
1070
     8
1070
   340
1005
2A
1070
   341
1005
2B
1070
   342
1005
2B
1070
   343
1005
2B
1002
}
  0
LINE
  5
26C
330
2
100
AcDbEntity
  8
画層1
 62
     0
100
AcDbLine
 10
121.4599999999999
 20
352.51
 30
0.0
 11
121.4599999999999
 21
344.51
 31
0.0
  0
CIRCLE
  5
26D
330
2
100
AcDbEntity
  8
画層1
 62
     0
100
AcDbCircle
 10
125.4599999999999
 20
339.0099999999999
 30
0.0
 40
3.0
  0
ARC
  5
26E
330
2
100
AcDbEntity
  8
画層1
 62
     0
100
AcDbCircle
 10
123.96
 20
340.51
 30
0.0
 40
1.0
100
AcDbArc
 50
270.0
 51
0.0
  0
ARC
  5
26F
330
2
100
AcDbEntity
  8
画層1
 62
     0
100
AcDbCircle
 10
126.96
 20
340.51
 30
0.0
 40
1.0
100
AcDbArc
 50
180.0
 51
270.0
  0
LINE
  5
270
330
2
100
AcDbEntity
  8
画層1
 62
     0
100
AcDbLine
 10
121.4599999999999
 20
343.0099999999999
 30
0.0
 11
121.4599999999999
 21
335.0099999999999
 31
0.0
  0
LINE
  5
271
330
2
100
AcDbEntity
  8
画層1
 62
     0
100
AcDbLine
 10
119.96
 20
333.51
 30
0.0
 11
129.46
 21
333.51
 31
0.0
  0
LINE
  5
272
330
2
100
AcDbEntity
  8
画層1
 62
     0
100
AcDbLine
 10
119.96
 20
335.0099999999999
 30
0.0
 11
129.46
 21
335.0099999999999
 31
0.0
  0
LINE
  5
273
330
2
100
AcDbEntity
  8
画層1
 62
     0
100
AcDbLine
 10
123.96
 20
338.5099999999999
 30
0.0
 11
122.5
 21
338.5099999999999
 31
0.0
  0
LINE
  5
274
330
2
100
AcDbEntity
  8
画層1
 62
     0
100
AcDbLine
 10
122.5
 20
339.5099999999999
 30
0.0
 11
123.96
 21
339.5099999999999
 31
0.0
  0
LINE
  5
275
330
2
100
AcDbEntity
  8
画層1
 62
     0
100
AcDbLine
 10
128.42
 20
338.5099999999999
 30
0.0
 11
126.96
 21
338.5099999999999
 31
0.0
  0
LINE
  5
276
330
2
100
AcDbEntity
  8
画層1
 62
     0
100
AcDbLine
 10
126.96
 20
339.5099999999999
 30
0.0
 11
128.42
 21
339.5099999999999
 31
0.0
  0
LINE
  5
277
330
2
100
AcDbEntity
  8
画層1
 62
     0
100
AcDbLine
 10
124.96
 20
331.3099999999999
 30
0.0
 11
125.96
 21
331.3099999999999
 31
0.0
  0
LINE
  5
278
330
2
100
AcDbEntity
  8
画層1
 62
     0
100
AcDbLine
 10
124.96
 20
337.2099999999999
 30
0.0
 11
125.96
 21
337.2099999999999
 31
0.0
  0
ARC
  5
279
330
2
100
AcDbEntity
  8
画層1
 62
     0
100
AcDbCircle
 10
123.96
 20
337.5099999999999
 30
0.0
 40
1.0
100
AcDbArc
 50
0.0
 51
90.0
  0
LINE
  5
27A
330
2
100
AcDbEntity
  8
画層1
 62
     0
100
AcDbLine
 10
124.96
 20
337.2099999999999
 30
0.0
 11
124.96
 21
337.5099999999999
 31
0.0
  0
LINE
  5
27B
330
2
100
AcDbEntity
  8
画層1
 62
     0
100
AcDbLine
 10
125.96
 20
337.5099999999999
 30
0.0
 11
125.96
 21
337.2099999999999
 31
0.0
  0
ARC
  5
27C
330
2
100
AcDbEntity
  8
画層1
 62
     0
100
AcDbCircle
 10
126.96
 20
337.5099999999999
 30
0.0
 40
1.0
100
AcDbArc
 50
90.0
 51
180.0
  0
LINE
  5
27D
330
2
100
AcDbEntity
  8
画層1
 62
     0
100
AcDbLine
 10
122.5
 20
330.01
 30
0.0
 11
123.96
 21
330.01
 31
0.0
  0
LINE
  5
27E
330
2
100
AcDbEntity
  8
画層1
 62
     0
100
AcDbLine
 10
123.96
 20
329.0099999999999
 30
0.0
 11
122.5
 21
329.0099999999999
 31
0.0
  0
LINE
  5
27F
330
2
100
AcDbEntity
  8
画層1
 62
     0
100
AcDbLine
 10
128.42
 20
329.0099999999999
 30
0.0
 11
126.96
 21
329.0099999999999
 31
0.0
  0
LINE
  5
280
330
2
100
AcDbEntity
  8
画層1
 62
     0
100
AcDbLine
 10
126.96
 20
330.01
 30
0.0
 11
128.42
 21
330.01
 31
0.0
  0
ARC
  5
281
330
2
100
AcDbEntity
  8
画層1
 62
     0
100
AcDbCircle
 10
123.96
 20
331.0099999999999
 30
0.0
 40
1.0
100
AcDbArc
 50
270.0
 51
0.0
  0
ARC
  5
282
330
2
100
AcDbEntity
  8
画層1
 62
     0
100
AcDbCircle
 10
126.96
 20
331.0099999999999
 30
0.0
 40
1.0
100
AcDbArc
 50
180.0
 51
270.0
  0
LINE
  5
283
330
2
100
AcDbEntity
  8
画層1
 62
     0
100
AcDbLine
 10
124.96
 20
331.0099999999999
 30
0.0
 11
124.96
 21
331.3099999999999
 31
0.0
  0
LINE
  5
284
330
2
100
AcDbEntity
  8
画層1
 62
     0
100
AcDbLine
 10
125.96
 20
331.3099999999999
 30
0.0
 11
125.96
 21
331.0099999999999
 31
0.0
  0
LINE
  5
285
330
2
100
AcDbEntity
  8
画層1
 62
     0
100
AcDbLine
 10
119.96
 20
344.51
 30
0.0
 11
129.46
 21
344.51
 31
0.0
  0
LINE
  5
286
330
2
100
AcDbEntity
  8
画層1
 62
     0
100
AcDbLine
 10
119.96
 20
343.0099999999999
 30
0.0
 11
129.46
 21
343.0099999999999
 31
0.0
  0
LINE
  5
287
330
2
100
AcDbEntity
  8
画層1
 62
     0
100
AcDbLine
 10
124.96
 20
350.3099999999999
 30
0.0
 11
125.96
 21
350.3099999999999
 31
0.0
  0
LINE
  5
288
330
2
100
AcDbEntity
  8
画層1
 62
     0
100
AcDbLine
 10
124.96
 20
350.0099999999999
 30
0.0
 11
124.96
 21
350.3099999999999
 31
0.0
  0
LINE
  5
289
330
2
100
AcDbEntity
  8
画層1
 62
     0
100
AcDbLine
 10
125.96
 20
350.3099999999999
 30
0.0
 11
125.96
 21
350.0099999999999
 31
0.0
  0
LINE
  5
28A
330
2
100
AcDbEntity
  8
画層1
 62
     0
100
AcDbLine
 10
123.96
 20
348.01
 30
0.0
 11
122.5
 21
348.01
 31
0.0
  0
LINE
  5
28B
330
2
100
AcDbEntity
  8
画層1
 62
     0
100
AcDbLine
 10
122.5
 20
349.0099999999999
 30
0.0
 11
123.96
 21
349.0099999999999
 31
0.0
  0
LINE
  5
28C
330
2
100
AcDbEntity
  8
画層1
 62
     0
100
AcDbLine
 10
126.96
 20
349.0099999999999
 30
0.0
 11
128.42
 21
349.0099999999999
 31
0.0
  0
LINE
  5
28D
330
2
100
AcDbEntity
  8
画層1
 62
     0
100
AcDbLine
 10
128.42
 20
348.01
 30
0.0
 11
126.96
 21
348.01
 31
0.0
  0
LINE
  5
28E
330
2
100
AcDbEntity
  8
画層1
 62
     0
100
AcDbLine
 10
124.96
 20
346.7099999999999
 30
0.0
 11
125.96
 21
346.7099999999999
 31
0.0
  0
ARC
  5
28F
330
2
100
AcDbEntity
  8
画層1
 62
     0
100
AcDbCircle
 10
123.96
 20
347.0099999999999
 30
0.0
 40
1.0
100
AcDbArc
 50
0.0
 51
90.0
  0
LINE
  5
290
330
2
100
AcDbEntity
  8
画層1
 62
     0
100
AcDbLine
 10
124.96
 20
346.7099999999999
 30
0.0
 11
124.96
 21
347.0099999999999
 31
0.0
  0
LINE
  5
291
330
2
100
AcDbEntity
  8
画層1
 62
     0
100
AcDbLine
 10
125.96
 20
347.0099999999999
 30
0.0
 11
125.96
 21
346.7099999999999
 31
0.0
  0
LINE
  5
292
330
2
100
AcDbEntity
  8
画層1
 62
     0
100
AcDbLine
 10
124.96
 20
340.81
 30
0.0
 11
125.96
 21
340.81
 31
0.0
  0
LINE
  5
293
330
2
100
AcDbEntity
  8
画層1
 62
     0
100
AcDbLine
 10
124.96
 20
340.51
 30
0.0
 11
124.96
 21
340.81
 31
0.0
  0
LINE
  5
294
330
2
100
AcDbEntity
  8
画層1
 62
     0
100
AcDbLine
 10
125.96
 20
340.81
 30
0.0
 11
125.96
 21
340.51
 31
0.0
  0
ARC
  5
295
330
2
100
AcDbEntity
  8
画層1
 62
     0
100
AcDbCircle
 10
126.96
 20
347.0099999999999
 30
0.0
 40
1.0
100
AcDbArc
 50
90.0
 51
180.0
  0
CIRCLE
  5
296
330
2
100
AcDbEntity
  8
画層1
 62
     0
100
AcDbCircle
 10
125.4599999999999
 20
348.51
 30
0.0
 40
3.0
  0
ARC
  5
297
330
2
100
AcDbEntity
  8
画層1
 62
     0
100
AcDbCircle
 10
123.96
 20
350.0099999999999
 30
0.0
 40
1.0
100
AcDbArc
 50
270.0
 51
0.0
  0
ARC
  5
298
330
2
100
AcDbEntity
  8
画層1
 62
     0
100
AcDbCircle
 10
126.96
 20
350.0099999999999
 30
0.0
 40
1.0
100
AcDbArc
 50
180.0
 51
270.0
  0
LINE
  5
299
330
2
100
AcDbEntity
  8
画層1
 62
     0
100
AcDbLine
 10
119.96
 20
352.51
 30
0.0
 11
129.46
 21
352.51
 31
0.0
  0
LINE
  5
29A
330
2
100
AcDbEntity
  8
画層1
 62
     0
100
AcDbLine
 10
119.96
 20
354.0099999999999
 30
0.0
 11
129.46
 21
354.0099999999999
 31
0.0
  0
CIRCLE
  5
29B
330
2
100
AcDbEntity
  8
画層1
 62
     0
100
AcDbCircle
 10
164.66
 20
327.3899999999999
 30
0.0
 40
2.5
  0
CIRCLE
  5
29C
330
2
100
AcDbEntity
  8
画層1
 62
     0
100
AcDbCircle
 10
179.6599999999999
 20
327.3899999999999
 30
0.0
 40
2.5
  0
CIRCLE
  5
29D
330
2
100
AcDbEntity
  8
画層1
 62
     0
100
AcDbCircle
 10
134.96
 20
305.77
 30
0.0
 40
3.0
  0
LINE
  5
29E
330
2
100
AcDbEntity
  8
画層1
 62
     0
100
AcDbLine
 10
138.96
 20
309.7699999999999
 30
0.0
 11
138.96
 21
301.77
 31
0.0
  0
LINE
  5
29F
330
2
100
AcDbEntity
  8
画層1
 62
     0
100
AcDbLine
 10
130.96
 20
309.7699999999999
 30
0.0
 11
130.96
 21
301.77
 31
0.0
  0
LINE
  5
2A0
330
2
100
AcDbEntity
  8
画層1
 62
     0
100
AcDbLine
 10
130.96
 20
300.2699999999999
 30
0.0
 11
130.96
 21
292.2699999999999
 31
0.0
  0
LINE
  5
2A1
330
2
100
AcDbEntity
  8
画層1
 62
     0
100
AcDbLine
 10
138.96
 20
300.2699999999999
 30
0.0
 11
138.96
 21
292.2699999999999
 31
0.0
  0
CIRCLE
  5
2A2
330
2
100
AcDbEntity
  8
画層1
 62
     0
100
AcDbCircle
 10
134.96
 20
296.2699999999999
 30
0.0
 40
3.0
  0
CIRCLE
  5
2A3
330
2
100
AcDbEntity
  8
画層1
 62
     0
100
AcDbCircle
 10
134.96
 20
286.7699999999999
 30
0.0
 40
3.0
  0
LINE
  5
2A4
330
2
100
AcDbEntity
  8
画層1
 62
     0
100
AcDbLine
 10
137.9199999999999
 20
286.2699999999999
 30
0.0
 11
136.46
 21
286.2699999999999
 31
0.0
  0
LINE
  5
2A5
330
2
100
AcDbEntity
  8
画層1
 62
     0
100
AcDbLine
 10
136.46
 20
287.27
 30
0.0
 11
137.9199999999999
 21
287.27
 31
0.0
  0
LINE
  5
2A6
330
2
100
AcDbEntity
  8
画層1
 62
     0
100
AcDbLine
 10
133.46
 20
286.2699999999999
 30
0.0
 11
132.0
 21
286.2699999999999
 31
0.0
  0
LINE
  5
2A7
330
2
100
AcDbEntity
  8
画層1
 62
     0
100
AcDbLine
 10
132.0
 20
287.27
 30
0.0
 11
133.46
 21
287.27
 31
0.0
  0
ARC
  5
2A8
330
2
100
AcDbEntity
  8
画層1
 62
     0
100
AcDbCircle
 10
133.46
 20
288.2699999999999
 30
0.0
 40
1.0
100
AcDbArc
 50
270.0
 51
0.0
  0
ARC
  5
2A9
330
2
100
AcDbEntity
  8
画層1
 62
     0
100
AcDbCircle
 10
133.46
 20
285.27
 30
0.0
 40
1.0
100
AcDbArc
 50
0.0
 51
90.0
  0
LINE
  5
2AA
330
2
100
AcDbEntity
  8
画層1
 62
     0
100
AcDbLine
 10
134.46
 20
284.97
 30
0.0
 11
135.46
 21
284.97
 31
0.0
  0
LINE
  5
2AB
330
2
100
AcDbEntity
  8
画層1
 62
     0
100
AcDbLine
 10
134.46
 20
284.97
 30
0.0
 11
134.46
 21
285.27
 31
0.0
  0
LINE
  5
2AC
330
2
100
AcDbEntity
  8
画層1
 62
     0
100
AcDbLine
 10
135.46
 20
285.27
 30
0.0
 11
135.46
 21
284.97
 31
0.0
  0
LINE
  5
2AD
330
2
100
AcDbEntity
  8
画層1
 62
     0
100
AcDbLine
 10
135.46
 20
288.5699999999999
 30
0.0
 11
135.46
 21
288.2699999999999
 31
0.0
  0
LINE
  5
2AE
330
2
100
AcDbEntity
  8
画層1
 62
     0
100
AcDbLine
 10
134.46
 20
288.2699999999999
 30
0.0
 11
134.46
 21
288.5699999999999
 31
0.0
  0
LINE
  5
2AF
330
2
100
AcDbEntity
  8
画層1
 62
     0
100
AcDbLine
 10
134.46
 20
288.5699999999999
 30
0.0
 11
135.46
 21
288.5699999999999
 31
0.0
  0
ARC
  5
2B0
330
2
100
AcDbEntity
  8
画層1
 62
     0
100
AcDbCircle
 10
136.46
 20
285.27
 30
0.0
 40
1.0
100
AcDbArc
 50
90.0
 51
180.0
  0
ARC
  5
2B1
330
2
100
AcDbEntity
  8
画層1
 62
     0
100
AcDbCircle
 10
136.46
 20
288.2699999999999
 30
0.0
 40
1.0
100
AcDbArc
 50
180.0
 51
270.0
  0
LINE
  5
2B2
330
2
100
AcDbEntity
  8
画層1
 62
     0
100
AcDbLine
 10
130.96
 20
290.7699999999999
 30
0.0
 11
130.96
 21
282.7699999999999
 31
0.0
  0
LINE
  5
2B3
330
2
100
AcDbEntity
  8
画層1
 62
     0
100
AcDbLine
 10
138.96
 20
290.7699999999999
 30
0.0
 11
138.96
 21
282.7699999999999
 31
0.0
  0
LINE
  5
2B4
330
2
100
AcDbEntity
  8
画層1
 62
     0
100
AcDbLine
 10
137.9199999999999
 20
295.7699999999999
 30
0.0
 11
136.46
 21
295.7699999999999
 31
0.0
  0
LINE
  5
2B5
330
2
100
AcDbEntity
  8
画層1
 62
     0
100
AcDbLine
 10
136.46
 20
296.7699999999999
 30
0.0
 11
137.9199999999999
 21
296.7699999999999
 31
0.0
  0
LINE
  5
2B6
330
2
100
AcDbEntity
  8
画層1
 62
     0
100
AcDbLine
 10
137.9199999999999
 20
305.2699999999999
 30
0.0
 11
136.46
 21
305.2699999999999
 31
0.0
  0
LINE
  5
2B7
330
2
100
AcDbEntity
  8
画層1
 62
     0
100
AcDbLine
 10
132.0
 20
296.7699999999999
 30
0.0
 11
133.46
 21
296.7699999999999
 31
0.0
  0
LINE
  5
2B8
330
2
100
AcDbEntity
  8
画層1
 62
     0
100
AcDbLine
 10
133.46
 20
295.7699999999999
 30
0.0
 11
132.0
 21
295.7699999999999
 31
0.0
  0
LINE
  5
2B9
330
2
100
AcDbEntity
  8
画層1
 62
     0
100
AcDbLine
 10
133.46
 20
305.2699999999999
 30
0.0
 11
132.0
 21
305.2699999999999
 31
0.0
  0
ARC
  5
2BA
330
2
100
AcDbEntity
  8
画層1
 62
     0
100
AcDbCircle
 10
133.46
 20
294.7699999999999
 30
0.0
 40
1.0
100
AcDbArc
 50
0.0
 51
90.0
  0
ARC
  5
2BB
330
2
100
AcDbEntity
  8
画層1
 62
     0
100
AcDbCircle
 10
133.46
 20
297.77
 30
0.0
 40
1.0
100
AcDbArc
 50
270.0
 51
0.0
  0
LINE
  5
2BC
330
2
100
AcDbEntity
  8
画層1
 62
     0
100
AcDbLine
 10
134.46
 20
297.77
 30
0.0
 11
134.46
 21
298.07
 31
0.0
  0
LINE
  5
2BD
330
2
100
AcDbEntity
  8
画層1
 62
     0
100
AcDbLine
 10
134.46
 20
298.07
 30
0.0
 11
135.46
 21
298.07
 31
0.0
  0
LINE
  5
2BE
330
2
100
AcDbEntity
  8
画層1
 62
     0
100
AcDbLine
 10
135.46
 20
298.07
 30
0.0
 11
135.46
 21
297.77
 31
0.0
  0
LINE
  5
2BF
330
2
100
AcDbEntity
  8
画層1
 62
     0
100
AcDbLine
 10
135.46
 20
294.7699999999999
 30
0.0
 11
135.46
 21
294.47
 31
0.0
  0
LINE
  5
2C0
330
2
100
AcDbEntity
  8
画層1
 62
     0
100
AcDbLine
 10
134.46
 20
294.47
 30
0.0
 11
134.46
 21
294.7699999999999
 31
0.0
  0
LINE
  5
2C1
330
2
100
AcDbEntity
  8
画層1
 62
     0
100
AcDbLine
 10
134.46
 20
294.47
 30
0.0
 11
135.46
 21
294.47
 31
0.0
  0
ARC
  5
2C2
330
2
100
AcDbEntity
  8
画層1
 62
     0
100
AcDbCircle
 10
133.46
 20
304.2699999999999
 30
0.0
 40
1.0
100
AcDbArc
 50
0.0
 51
90.0
  0
LINE
  5
2C3
330
2
100
AcDbEntity
  8
画層1
 62
     0
100
AcDbLine
 10
135.46
 20
304.2699999999999
 30
0.0
 11
135.46
 21
303.97
 31
0.0
  0
LINE
  5
2C4
330
2
100
AcDbEntity
  8
画層1
 62
     0
100
AcDbLine
 10
134.46
 20
303.97
 30
0.0
 11
134.46
 21
304.2699999999999
 31
0.0
  0
LINE
  5
2C5
330
2
100
AcDbEntity
  8
画層1
 62
     0
100
AcDbLine
 10
134.46
 20
303.97
 30
0.0
 11
135.46
 21
303.97
 31
0.0
  0
ARC
  5
2C6
330
2
100
AcDbEntity
  8
画層1
 62
     0
100
AcDbCircle
 10
136.46
 20
294.7699999999999
 30
0.0
 40
1.0
100
AcDbArc
 50
90.0
 51
180.0
  0
ARC
  5
2C7
330
2
100
AcDbEntity
  8
画層1
 62
     0
100
AcDbCircle
 10
136.46
 20
297.77
 30
0.0
 40
1.0
100
AcDbArc
 50
180.0
 51
270.0
  0
ARC
  5
2C8
330
2
100
AcDbEntity
  8
画層1
 62
     0
100
AcDbCircle
 10
136.46
 20
304.2699999999999
 30
0.0
 40
1.0
100
AcDbArc
 50
90.0
 51
180.0
  0
CIRCLE
  5
2C9
330
2
100
AcDbEntity
  8
画層1
 62
     0
100
AcDbCircle
 10
134.96
 20
315.2699999999999
 30
0.0
 40
3.0
  0
LINE
  5
2CA
330
2
100
AcDbEntity
  8
画層1
 62
     0
100
AcDbLine
 10
138.96
 20
319.2699999999999
 30
0.0
 11
138.96
 21
311.2699999999999
 31
0.0
  0
LINE
  5
2CB
330
2
100
AcDbEntity
  8
画層1
 62
     0
100
AcDbLine
 10
130.96
 20
319.2699999999999
 30
0.0
 11
130.96
 21
311.2699999999999
 31
0.0
  0
LINE
  5
2CC
330
2
100
AcDbEntity
  8
画層1
 62
     0
100
AcDbLine
 10
136.46
 20
315.7699999999999
 30
0.0
 11
137.9199999999999
 21
315.7699999999999
 31
0.0
  0
LINE
  5
2CD
330
2
100
AcDbEntity
  8
画層1
 62
     0
100
AcDbLine
 10
137.9199999999999
 20
314.7699999999999
 30
0.0
 11
136.46
 21
314.7699999999999
 31
0.0
  0
LINE
  5
2CE
330
2
100
AcDbEntity
  8
画層1
 62
     0
100
AcDbLine
 10
136.46
 20
306.2699999999999
 30
0.0
 11
137.9199999999999
 21
306.2699999999999
 31
0.0
  0
LINE
  5
2CF
330
2
100
AcDbEntity
  8
画層1
 62
     0
100
AcDbLine
 10
133.46
 20
314.7699999999999
 30
0.0
 11
132.0
 21
314.7699999999999
 31
0.0
  0
LINE
  5
2D0
330
2
100
AcDbEntity
  8
画層1
 62
     0
100
AcDbLine
 10
132.0
 20
315.7699999999999
 30
0.0
 11
133.46
 21
315.7699999999999
 31
0.0
  0
LINE
  5
2D1
330
2
100
AcDbEntity
  8
画層1
 62
     0
100
AcDbLine
 10
135.46
 20
317.07
 30
0.0
 11
135.46
 21
316.7699999999999
 31
0.0
  0
LINE
  5
2D2
330
2
100
AcDbEntity
  8
画層1
 62
     0
100
AcDbLine
 10
134.46
 20
317.07
 30
0.0
 11
135.46
 21
317.07
 31
0.0
  0
LINE
  5
2D3
330
2
100
AcDbEntity
  8
画層1
 62
     0
100
AcDbLine
 10
134.46
 20
316.7699999999999
 30
0.0
 11
134.46
 21
317.07
 31
0.0
  0
ARC
  5
2D4
330
2
100
AcDbEntity
  8
画層1
 62
     0
100
AcDbCircle
 10
133.46
 20
313.7699999999999
 30
0.0
 40
1.0
100
AcDbArc
 50
0.0
 51
90.0
  0
LINE
  5
2D5
330
2
100
AcDbEntity
  8
画層1
 62
     0
100
AcDbLine
 10
134.46
 20
313.47
 30
0.0
 11
135.46
 21
313.47
 31
0.0
  0
LINE
  5
2D6
330
2
100
AcDbEntity
  8
画層1
 62
     0
100
AcDbLine
 10
134.46
 20
313.47
 30
0.0
 11
134.46
 21
313.7699999999999
 31
0.0
  0
LINE
  5
2D7
330
2
100
AcDbEntity
  8
画層1
 62
     0
100
AcDbLine
 10
135.46
 20
313.7699999999999
 30
0.0
 11
135.46
 21
313.47
 31
0.0
  0
ARC
  5
2D8
330
2
100
AcDbEntity
  8
画層1
 62
     0
100
AcDbCircle
 10
133.46
 20
316.7699999999999
 30
0.0
 40
1.0
100
AcDbArc
 50
270.0
 51
0.0
  0
ARC
  5
2D9
330
2
100
AcDbEntity
  8
画層1
 62
     0
100
AcDbCircle
 10
136.46
 20
313.7699999999999
 30
0.0
 40
1.0
100
AcDbArc
 50
90.0
 51
180.0
  0
ARC
  5
2DA
330
2
100
AcDbEntity
  8
画層1
 62
     0
100
AcDbCircle
 10
136.46
 20
316.7699999999999
 30
0.0
 40
1.0
100
AcDbArc
 50
180.0
 51
270.0
  0
LINE
  5
2DB
330
2
100
AcDbEntity
  8
画層1
 62
     0
100
AcDbLine
 10
132.0
 20
306.2699999999999
 30
0.0
 11
133.46
 21
306.2699999999999
 31
0.0
  0
ARC
  5
2DC
330
2
100
AcDbEntity
  8
画層1
 62
     0
100
AcDbCircle
 10
133.46
 20
307.2699999999999
 30
0.0
 40
1.0
100
AcDbArc
 50
270.0
 51
0.0
  0
LINE
  5
2DD
330
2
100
AcDbEntity
  8
画層1
 62
     0
100
AcDbLine
 10
134.46
 20
307.2699999999999
 30
0.0
 11
134.46
 21
307.5699999999999
 31
0.0
  0
LINE
  5
2DE
330
2
100
AcDbEntity
  8
画層1
 62
     0
100
AcDbLine
 10
134.46
 20
307.5699999999999
 30
0.0
 11
135.46
 21
307.5699999999999
 31
0.0
  0
LINE
  5
2DF
330
2
100
AcDbEntity
  8
画層1
 62
     0
100
AcDbLine
 10
135.46
 20
307.5699999999999
 30
0.0
 11
135.46
 21
307.2699999999999
 31
0.0
  0
ARC
  5
2E0
330
2
100
AcDbEntity
  8
画層1
 62
     0
100
AcDbCircle
 10
136.46
 20
307.2699999999999
 30
0.0
 40
1.0
100
AcDbArc
 50
180.0
 51
270.0
  0
CIRCLE
  5
2E1
330
2
100
AcDbEntity
  8
画層1
 62
     0
100
AcDbCircle
 10
134.96
 20
324.77
 30
0.0
 40
3.0
  0
LINE
  5
2E2
330
2
100
AcDbEntity
  8
画層1
 62
     0
100
AcDbLine
 10
137.9199999999999
 20
324.2699999999999
 30
0.0
 11
136.46
 21
324.2699999999999
 31
0.0
  0
LINE
  5
2E3
330
2
100
AcDbEntity
  8
画層1
 62
     0
100
AcDbLine
 10
136.46
 20
325.2699999999999
 30
0.0
 11
137.9199999999999
 21
325.2699999999999
 31
0.0
  0
LINE
  5
2E4
330
2
100
AcDbEntity
  8
画層1
 62
     0
100
AcDbLine
 10
132.0
 20
325.2699999999999
 30
0.0
 11
133.46
 21
325.2699999999999
 31
0.0
  0
LINE
  5
2E5
330
2
100
AcDbEntity
  8
画層1
 62
     0
100
AcDbLine
 10
133.46
 20
324.2699999999999
 30
0.0
 11
132.0
 21
324.2699999999999
 31
0.0
  0
ARC
  5
2E6
330
2
100
AcDbEntity
  8
画層1
 62
     0
100
AcDbCircle
 10
133.46
 20
323.2699999999999
 30
0.0
 40
1.0
100
AcDbArc
 50
0.0
 51
90.0
  0
ARC
  5
2E7
330
2
100
AcDbEntity
  8
画層1
 62
     0
100
AcDbCircle
 10
133.46
 20
326.2699999999999
 30
0.0
 40
1.0
100
AcDbArc
 50
270.0
 51
0.0
  0
LINE
  5
2E8
330
2
100
AcDbEntity
  8
画層1
 62
     0
100
AcDbLine
 10
135.46
 20
323.2699999999999
 30
0.0
 11
135.46
 21
322.97
 31
0.0
  0
LINE
  5
2E9
330
2
100
AcDbEntity
  8
画層1
 62
     0
100
AcDbLine
 10
134.46
 20
322.97
 30
0.0
 11
134.46
 21
323.2699999999999
 31
0.0
  0
LINE
  5
2EA
330
2
100
AcDbEntity
  8
画層1
 62
     0
100
AcDbLine
 10
134.46
 20
322.97
 30
0.0
 11
135.46
 21
322.97
 31
0.0
  0
LINE
  5
2EB
330
2
100
AcDbEntity
  8
画層1
 62
     0
100
AcDbLine
 10
134.46
 20
326.2699999999999
 30
0.0
 11
134.46
 21
326.5699999999999
 31
0.0
  0
LINE
  5
2EC
330
2
100
AcDbEntity
  8
画層1
 62
     0
100
AcDbLine
 10
134.46
 20
326.5699999999999
 30
0.0
 11
135.46
 21
326.5699999999999
 31
0.0
  0
LINE
  5
2ED
330
2
100
AcDbEntity
  8
画層1
 62
     0
100
AcDbLine
 10
135.46
 20
326.5699999999999
 30
0.0
 11
135.46
 21
326.2699999999999
 31
0.0
  0
ARC
  5
2EE
330
2
100
AcDbEntity
  8
画層1
 62
     0
100
AcDbCircle
 10
136.46
 20
323.2699999999999
 30
0.0
 40
1.0
100
AcDbArc
 50
90.0
 51
180.0
  0
ARC
  5
2EF
330
2
100
AcDbEntity
  8
画層1
 62
     0
100
AcDbCircle
 10
136.46
 20
326.2699999999999
 30
0.0
 40
1.0
100
AcDbArc
 50
180.0
 51
270.0
  0
LINE
  5
2F0
330
2
100
AcDbEntity
  8
画層1
 62
     0
100
AcDbLine
 10
130.96
 20
328.77
 30
0.0
 11
130.96
 21
320.7699999999999
 31
0.0
  0
LINE
  5
2F1
330
2
100
AcDbEntity
  8
画層1
 62
     0
100
AcDbLine
 10
138.96
 20
328.77
 30
0.0
 11
138.96
 21
320.7699999999999
 31
0.0
  0
CIRCLE
  5
2F2
330
2
100
AcDbEntity
  8
画層1
 62
     0
100
AcDbCircle
 10
164.66
 20
341.3899999999999
 30
0.0
 40
2.5
  0
CIRCLE
  5
2F3
330
2
100
AcDbEntity
  8
画層1
 62
     0
100
AcDbCircle
 10
162.1599999999999
 20
363.39
 30
0.0
 40
2.0
  0
CIRCLE
  5
2F4
330
2
100
AcDbEntity
  8
画層1
 62
     0
100
AcDbCircle
 10
162.1599999999999
 20
353.39
 30
0.0
 40
2.0
  0
CIRCLE
  5
2F5
330
2
100
AcDbEntity
  8
画層1
 62
     0
100
AcDbCircle
 10
134.96
 20
353.2699999999999
 30
0.0
 40
3.0
  0
ARC
  5
2F6
330
2
100
AcDbEntity
  8
画層1
 62
     0
100
AcDbCircle
 10
133.46
 20
351.77
 30
0.0
 40
1.0
100
AcDbArc
 50
0.0
 51
90.0
  0
ARC
  5
2F7
330
2
100
AcDbEntity
  8
画層1
 62
     0
100
AcDbCircle
 10
136.46
 20
351.77
 30
0.0
 40
1.0
100
AcDbArc
 50
90.0
 51
180.0
  0
LINE
  5
2F8
330
2
100
AcDbEntity
  8
画層1
 62
     0
100
AcDbLine
 10
138.96
 20
357.2699999999999
 30
0.0
 11
138.96
 21
349.2699999999999
 31
0.0
  0
LINE
  5
2F9
330
2
100
AcDbEntity
  8
画層1
 62
     0
100
AcDbLine
 10
130.96
 20
357.2699999999999
 30
0.0
 11
130.96
 21
349.2699999999999
 31
0.0
  0
LINE
  5
2FA
330
2
100
AcDbEntity
  8
画層1
 62
     0
100
AcDbLine
 10
138.96
 20
347.77
 30
0.0
 11
138.96
 21
339.7699999999999
 31
0.0
  0
LINE
  5
2FB
330
2
100
AcDbEntity
  8
画層1
 62
     0
100
AcDbLine
 10
130.96
 20
347.77
 30
0.0
 11
130.96
 21
339.7699999999999
 31
0.0
  0
LINE
  5
2FC
330
2
100
AcDbEntity
  8
画層1
 62
     0
100
AcDbLine
 10
136.46
 20
334.7699999999999
 30
0.0
 11
137.9199999999999
 21
334.7699999999999
 31
0.0
  0
LINE
  5
2FD
330
2
100
AcDbEntity
  8
画層1
 62
     0
100
AcDbLine
 10
137.9199999999999
 20
333.7699999999999
 30
0.0
 11
136.46
 21
333.7699999999999
 31
0.0
  0
CIRCLE
  5
2FE
330
2
100
AcDbEntity
  8
画層1
 62
     0
100
AcDbCircle
 10
134.96
 20
334.2699999999999
 30
0.0
 40
3.0
  0
LINE
  5
2FF
330
2
100
AcDbEntity
  8
画層1
 62
     0
100
AcDbLine
 10
133.46
 20
333.7699999999999
 30
0.0
 11
132.0
 21
333.7699999999999
 31
0.0
  0
LINE
  5
300
330
2
100
AcDbEntity
  8
画層1
 62
     0
100
AcDbLine
 10
132.0
 20
334.7699999999999
 30
0.0
 11
133.46
 21
334.7699999999999
 31
0.0
  0
ARC
  5
301
330
2
100
AcDbEntity
  8
画層1
 62
     0
100
AcDbCircle
 10
133.46
 20
335.7699999999999
 30
0.0
 40
1.0
100
AcDbArc
 50
270.0
 51
0.0
  0
ARC
  5
302
330
2
100
AcDbEntity
  8
画層1
 62
     0
100
AcDbCircle
 10
133.46
 20
332.77
 30
0.0
 40
1.0
100
AcDbArc
 50
0.0
 51
90.0
  0
LINE
  5
303
330
2
100
AcDbEntity
  8
画層1
 62
     0
100
AcDbLine
 10
134.46
 20
332.47
 30
0.0
 11
135.46
 21
332.47
 31
0.0
  0
LINE
  5
304
330
2
100
AcDbEntity
  8
画層1
 62
     0
100
AcDbLine
 10
134.46
 20
332.47
 30
0.0
 11
134.46
 21
332.77
 31
0.0
  0
LINE
  5
305
330
2
100
AcDbEntity
  8
画層1
 62
     0
100
AcDbLine
 10
135.46
 20
332.77
 30
0.0
 11
135.46
 21
332.47
 31
0.0
  0
LINE
  5
306
330
2
100
AcDbEntity
  8
画層1
 62
     0
100
AcDbLine
 10
135.46
 20
336.07
 30
0.0
 11
135.46
 21
335.7699999999999
 31
0.0
  0
LINE
  5
307
330
2
100
AcDbEntity
  8
画層1
 62
     0
100
AcDbLine
 10
134.46
 20
336.07
 30
0.0
 11
135.46
 21
336.07
 31
0.0
  0
LINE
  5
308
330
2
100
AcDbEntity
  8
画層1
 62
     0
100
AcDbLine
 10
134.46
 20
335.7699999999999
 30
0.0
 11
134.46
 21
336.07
 31
0.0
  0
ARC
  5
309
330
2
100
AcDbEntity
  8
画層1
 62
     0
100
AcDbCircle
 10
136.46
 20
335.7699999999999
 30
0.0
 40
1.0
100
AcDbArc
 50
180.0
 51
270.0
  0
ARC
  5
30A
330
2
100
AcDbEntity
  8
画層1
 62
     0
100
AcDbCircle
 10
136.46
 20
332.77
 30
0.0
 40
1.0
100
AcDbArc
 50
90.0
 51
180.0
  0
LINE
  5
30B
330
2
100
AcDbEntity
  8
画層1
 62
     0
100
AcDbLine
 10
130.96
 20
338.2699999999999
 30
0.0
 11
130.96
 21
330.2699999999999
 31
0.0
  0
LINE
  5
30C
330
2
100
AcDbEntity
  8
画層1
 62
     0
100
AcDbLine
 10
138.96
 20
338.2699999999999
 30
0.0
 11
138.96
 21
330.2699999999999
 31
0.0
  0
CIRCLE
  5
30D
330
2
100
AcDbEntity
  8
画層1
 62
     0
100
AcDbCircle
 10
134.96
 20
343.7699999999999
 30
0.0
 40
3.0
  0
LINE
  5
30E
330
2
100
AcDbEntity
  8
画層1
 62
     0
100
AcDbLine
 10
136.46
 20
344.2699999999999
 30
0.0
 11
137.9199999999999
 21
344.2699999999999
 31
0.0
  0
LINE
  5
30F
330
2
100
AcDbEntity
  8
画層1
 62
     0
100
AcDbLine
 10
137.9199999999999
 20
343.27
 30
0.0
 11
136.46
 21
343.27
 31
0.0
  0
LINE
  5
310
330
2
100
AcDbEntity
  8
画層1
 62
     0
100
AcDbLine
 10
134.46
 20
351.47
 30
0.0
 11
135.46
 21
351.47
 31
0.0
  0
LINE
  5
311
330
2
100
AcDbEntity
  8
画層1
 62
     0
100
AcDbLine
 10
134.46
 20
351.47
 30
0.0
 11
134.46
 21
351.77
 31
0.0
  0
LINE
  5
312
330
2
100
AcDbEntity
  8
画層1
 62
     0
100
AcDbLine
 10
135.46
 20
351.77
 30
0.0
 11
135.46
 21
351.47
 31
0.0
  0
LINE
  5
313
330
2
100
AcDbEntity
  8
画層1
 62
     0
100
AcDbLine
 10
133.46
 20
343.27
 30
0.0
 11
132.0
 21
343.27
 31
0.0
  0
LINE
  5
314
330
2
100
AcDbEntity
  8
画層1
 62
     0
100
AcDbLine
 10
132.0
 20
344.2699999999999
 30
0.0
 11
133.46
 21
344.2699999999999
 31
0.0
  0
ARC
  5
315
330
2
100
AcDbEntity
  8
画層1
 62
     0
100
AcDbCircle
 10
133.46
 20
345.27
 30
0.0
 40
1.0
100
AcDbArc
 50
270.0
 51
0.0
  0
ARC
  5
316
330
2
100
AcDbEntity
  8
画層1
 62
     0
100
AcDbCircle
 10
133.46
 20
342.2699999999999
 30
0.0
 40
1.0
100
AcDbArc
 50
0.0
 51
90.0
  0
LINE
  5
317
330
2
100
AcDbEntity
  8
画層1
 62
     0
100
AcDbLine
 10
134.46
 20
341.97
 30
0.0
 11
135.46
 21
341.97
 31
0.0
  0
LINE
  5
318
330
2
100
AcDbEntity
  8
画層1
 62
     0
100
AcDbLine
 10
134.46
 20
341.97
 30
0.0
 11
134.46
 21
342.2699999999999
 31
0.0
  0
LINE
  5
319
330
2
100
AcDbEntity
  8
画層1
 62
     0
100
AcDbLine
 10
135.46
 20
342.2699999999999
 30
0.0
 11
135.46
 21
341.97
 31
0.0
  0
LINE
  5
31A
330
2
100
AcDbEntity
  8
画層1
 62
     0
100
AcDbLine
 10
135.46
 20
345.57
 30
0.0
 11
135.46
 21
345.27
 31
0.0
  0
LINE
  5
31B
330
2
100
AcDbEntity
  8
画層1
 62
     0
100
AcDbLine
 10
134.46
 20
345.57
 30
0.0
 11
135.46
 21
345.57
 31
0.0
  0
LINE
  5
31C
330
2
100
AcDbEntity
  8
画層1
 62
     0
100
AcDbLine
 10
134.46
 20
345.27
 30
0.0
 11
134.46
 21
345.57
 31
0.0
  0
ARC
  5
31D
330
2
100
AcDbEntity
  8
画層1
 62
     0
100
AcDbCircle
 10
136.46
 20
345.27
 30
0.0
 40
1.0
100
AcDbArc
 50
180.0
 51
270.0
  0
ARC
  5
31E
330
2
100
AcDbEntity
  8
画層1
 62
     0
100
AcDbCircle
 10
136.46
 20
342.2699999999999
 30
0.0
 40
1.0
100
AcDbArc
 50
90.0
 51
180.0
  0
LINE
  5
31F
330
2
100
AcDbEntity
  8
画層1
 62
     0
100
AcDbLine
 10
136.46
 20
353.77
 30
0.0
 11
137.9199999999999
 21
353.77
 31
0.0
  0
LINE
  5
320
330
2
100
AcDbEntity
  8
画層1
 62
     0
100
AcDbLine
 10
137.9199999999999
 20
352.7699999999999
 30
0.0
 11
136.46
 21
352.7699999999999
 31
0.0
  0
LINE
  5
321
330
2
100
AcDbEntity
  8
画層1
 62
     0
100
AcDbLine
 10
132.0
 20
353.77
 30
0.0
 11
133.46
 21
353.77
 31
0.0
  0
LINE
  5
322
330
2
100
AcDbEntity
  8
画層1
 62
     0
100
AcDbLine
 10
133.46
 20
352.7699999999999
 30
0.0
 11
132.0
 21
352.7699999999999
 31
0.0
  0
ARC
  5
323
330
2
100
AcDbEntity
  8
画層1
 62
     0
100
AcDbCircle
 10
133.46
 20
354.7699999999999
 30
0.0
 40
1.0
100
AcDbArc
 50
270.0
 51
0.0
  0
LINE
  5
324
330
2
100
AcDbEntity
  8
画層1
 62
     0
100
AcDbLine
 10
135.46
 20
355.0699999999999
 30
0.0
 11
135.46
 21
354.7699999999999
 31
0.0
  0
LINE
  5
325
330
2
100
AcDbEntity
  8
画層1
 62
     0
100
AcDbLine
 10
134.46
 20
355.0699999999999
 30
0.0
 11
135.46
 21
355.0699999999999
 31
0.0
  0
LINE
  5
326
330
2
100
AcDbEntity
  8
画層1
 62
     0
100
AcDbLine
 10
134.46
 20
354.7699999999999
 30
0.0
 11
134.46
 21
355.0699999999999
 31
0.0
  0
ARC
  5
327
330
2
100
AcDbEntity
  8
画層1
 62
     0
100
AcDbCircle
 10
136.46
 20
354.7699999999999
 30
0.0
 40
1.0
100
AcDbArc
 50
180.0
 51
270.0
  0
CIRCLE
  5
328
330
2
100
AcDbEntity
  8
画層1
 62
     0
100
AcDbCircle
 10
182.16
 20
353.39
 30
0.0
 40
2.0
  0
CIRCLE
  5
329
330
2
100
AcDbEntity
  8
画層1
 62
     0
100
AcDbCircle
 10
172.16
 20
353.39
 30
0.0
 40
2.0
  0
CIRCLE
  5
32A
330
2
100
AcDbEntity
  8
画層1
 62
     0
100
AcDbCircle
 10
179.6599999999999
 20
341.3899999999999
 30
0.0
 40
2.5
  0
CIRCLE
  5
32B
330
2
100
AcDbEntity
  8
画層1
 62
     0
100
AcDbCircle
 10
172.16
 20
363.39
 30
0.0
 40
2.0
  0
CIRCLE
  5
32C
330
2
100
AcDbEntity
  8
画層1
 62
     0
100
AcDbCircle
 10
182.16
 20
363.39
 30
0.0
 40
2.0
  0
ARC
  5
32D
330
2
100
AcDbEntity
  8
画層1
 62
     0
100
AcDbCircle
 10
131.16
 20
380.39
 30
0.0
 40
1.5
100
AcDbArc
 50
90.0
 51
180.0
  0
LINE
  5
32E
330
2
100
AcDbEntity
  8
画層1
 62
     0
100
AcDbLine
 10
136.4
 20
395.8899999999999
 30
0.0
 11
118.3599999999999
 21
395.8899999999999
 31
0.0
  0
LINE
  5
32F
330
2
100
AcDbEntity
  8
画層1
 62
     0
100
AcDbLine
 10
118.7599999999999
 20
385.3899999999999
 30
0.0
 11
134.26
 21
385.3899999999999
 31
0.0
  0
LINE
  5
330
330
2
100
AcDbEntity
  8
画層1
 62
     0
100
AcDbLine
 10
134.26
 20
386.99
 30
0.0
 11
118.7599999999999
 21
386.99
 31
0.0
  0
LINE
  5
331
330
2
100
AcDbEntity
  8
画層1
 62
     0
100
AcDbLine
 10
127.26
 20
387.99
 30
0.0
 11
133.26
 21
387.99
 31
0.0
  0
LINE
  5
332
330
2
100
AcDbEntity
  8
画層1
 62
     0
100
AcDbLine
 10
128.2599999999999
 20
390.99
 30
0.0
 11
132.2599999999999
 21
390.99
 31
0.0
  0
LINE
  5
333
330
2
100
AcDbEntity
  8
画層1
 62
     0
100
AcDbLine
 10
132.7599999999999
 20
388.99
 30
0.0
 11
127.76
 21
388.99
 31
0.0
  0
LINE
  5
334
330
2
100
AcDbEntity
  8
画層1
 62
     0
100
AcDbLine
 10
116.9599999999999
 20
384.89
 30
0.0
 11
134.1599999999999
 21
384.89
 31
0.0
  0
DIMENSION
  5
335
330
2
100
AcDbEntity
  8
画層1
 62
     0
100
AcDbDimension
  2
*D35
 10
88.46
 20
396.3899999999999
 30
0.0
 11
86.57999999999994
 21
401.3899999999999
 31
0.0
 70
    32
 71
     5
 42
10.0
  3
STANDARD_WS
100
AcDbAlignedDimension
 13
124.0999999999999
 23
406.39
 33
0.0
 14
116.7599999999999
 24
396.3899999999999
 34
0.0
 50
90.0
100
AcDbRotatedDimension
1001
ACAD
1000
DSTYLE
1002
{
1070
    47
1040
0.6
1070
   144
1040
1.0
1070
   146
1040
0.5
1070
   173
1070
     0
1070
   284
1070
     8
1070
   340
1005
2A
1070
   341
1005
2B
1070
   342
1005
2B
1070
   343
1005
2B
1002
}
  0
LINE
  5
342
330
2
100
AcDbEntity
  8
画層1
 62
     0
100
AcDbLine
 10
122.6599999999999
 20
396.3899999999999
 30
0.0
 11
122.6599999999999
 21
401.3899999999999
 31
0.0
  0
ARC
  5
343
330
2
100
AcDbEntity
  8
画層1
 62
     0
100
AcDbCircle
 10
118.7599999999999
 20
387.3899999999999
 30
0.0
 40
2.0
100
AcDbArc
 50
180.0
 51
270.0
  0
LINE
  5
344
330
2
100
AcDbEntity
  8
画層1
 62
     0
100
AcDbLine
 10
118.3599999999999
 20
384.89
 30
0.0
 11
118.3599999999999
 21
385.43
 31
0.0
  0
LINE
  5
345
330
2
100
AcDbEntity
  8
画層1
 62
     0
100
AcDbLine
 10
116.7599999999999
 20
396.3899999999999
 30
0.0
 11
122.6599999999999
 21
396.3899999999999
 31
0.0
  0
ARC
  5
346
330
2
100
AcDbEntity
  8
画層1
 62
     0
100
AcDbCircle
 10
118.7599999999999
 20
387.3899999999999
 30
0.0
 40
0.4
100
AcDbArc
 50
180.0
 51
270.0
  0
LINE
  5
347
330
2
100
AcDbEntity
  8
画層1
 62
     0
100
AcDbLine
 10
118.3599999999999
 20
387.3899999999999
 30
0.0
 11
118.3599999999999
 21
396.3899999999999
 31
0.0
  0
LINE
  5
348
330
2
100
AcDbEntity
  8
画層1
 62
     0
100
AcDbLine
 10
127.26
 20
386.99
 30
0.0
 11
127.26
 21
387.99
 31
0.0
  0
ARC
  5
349
330
2
100
AcDbEntity
  8
画層1
 62
     0
100
AcDbCircle
 10
128.2599999999999
 20
390.4899999999999
 30
0.0
 40
0.5
100
AcDbArc
 50
90.0
 51
180.0
  0
LINE
  5
34A
330
2
100
AcDbEntity
  8
画層1
 62
     0
100
AcDbLine
 10
127.76
 20
387.99
 30
0.0
 11
127.76
 21
390.4899999999999
 31
0.0
  0
ARC
  5
34B
330
2
100
AcDbEntity
  8
画層1
 62
     0
100
AcDbCircle
 10
127.6599999999999
 20
401.3899999999999
 30
0.0
 40
5.0
100
AcDbArc
 50
90.0
 51
180.0
  0
MTEXT
  5
34C
102
{ACAD_REACTORS
330
35F
102
}
330
2
100
AcDbEntity
  8
画層1
 62
     0
100
AcDbMText
 10
142.4199999999999
 20
421.3899999999999
 30
0.0
 40
5.0
 41
0.0
 71
     9
 72
     1
  1
φ13
  7
STYLE1
 73
     1
 44
1.0
  0
DIMENSION
  5
34D
330
2
100
AcDbEntity
  8
画層1
 62
     0
100
AcDbDimension
  2
*D36
 10
170.6599999999999
 20
421.3899999999999
 30
0.0
 11
167.66
 21
423.2699999999999
 31
0.0
 70
    32
 71
     5
 42
6.0
  3
STANDARD_WS
100
AcDbAlignedDimension
 13
164.66
 23
406.39
 33
0.0
 14
170.6599999999999
 24
406.39
 34
0.0
100
AcDbRotatedDimension
1001
ACAD
1000
DSTYLE
1002
{
1070
    47
1040
0.6
1070
   144
1040
1.0
1070
   146
1040
0.5
1070
   173
1070
     0
1070
   284
1070
     8
1070
   340
1005
2A
1070
   341
1005
2B
1070
   342
1005
2B
1070
   343
1005
2B
1002
}
  0
ARC
  5
35C
330
2
100
AcDbEntity
  8
画層1
 62
     0
100
AcDbCircle
 10
167.66
 20
392.39
 30
0.0
 40
6.5
100
AcDbArc
 50
117.49
 51
142.02
  0
LINE
  5
35D
330
2
100
AcDbEntity
  8
画層1
  6
CENTER
 62
     0
100
AcDbLine
 10
174.6599999999999
 20
400.3899999999999
 30
0.0
 11
160.66
 21
400.3899999999999
 31
0.0
  0
ARC
  5
35E
330
2
100
AcDbEntity
  8
画層1
  6
DASHED2
 62
     0
100
AcDbCircle
 10
167.66
 20
392.39
 30
0.0
 40
6.499999999999992
100
AcDbArc
 50
142.02
 51
37.98
  0
LEADER
  5
35F
330
2
100
AcDbEntity
  8
画層1
 62
     0
100
AcDbLeader
  3
STANDARD_WS
 73
     0
 75
     1
 40
5.809999999999999
 41
11.29
 76
     3
 10
163.86
 20
397.6499999999999
 30
0.0
 10
144.55
 20
422.01
 30
0.0
 10
143.05
 20
422.01
 30
0.0
340
34C
213
0.0
223
1.25
233
0.0
1001
ACAD
1000
DSTYLE
1002
{
1070
   341
1005
2B
1070
   147
1040
0.63
1070
    77
1070
     2
1070
    47
1040
0.6
1070
   144
1040
2.0
1070
   146
1040
0.5
1070
   284
1070
     8
1070
   340
1005
2A
1002
}
  0
LINE
  5
360
330
2
100
AcDbEntity
  8
画層1
 62
     0
100
AcDbLine
 10
134.26
 20
385.3899999999999
 30
0.0
 11
134.26
 21
386.99
 31
0.0
  0
ARC
  5
361
330
2
100
AcDbEntity
  8
画層1
 62
     0
100
AcDbCircle
 10
134.1599999999999
 20
386.89
 30
0.0
 40
2.0
100
AcDbArc
 50
270.0
 51
0.0
  0
LINE
  5
362
330
2
100
AcDbEntity
  8
画層1
 62
     0
100
AcDbLine
 10
134.26
 20
385.8899999999999
 30
0.0
 11
135.8999999999999
 21
385.8899999999999
 31
0.0
  0
ARC
  5
363
330
2
100
AcDbEntity
  8
画層1
 62
     0
100
AcDbCircle
 10
132.2599999999999
 20
390.4899999999999
 30
0.0
 40
0.5
100
AcDbArc
 50
0.0
 51
90.0
  0
LINE
  5
364
330
2
100
AcDbEntity
  8
画層1
 62
     0
100
AcDbLine
 10
133.26
 20
387.99
 30
0.0
 11
133.26
 21
386.99
 31
0.0
  0
LINE
  5
365
330
2
100
AcDbEntity
  8
画層1
 62
     0
100
AcDbLine
 10
132.7599999999999
 20
390.4899999999999
 30
0.0
 11
132.7599999999999
 21
387.99
 31
0.0
  0
LINE
  5
366
330
2
100
AcDbEntity
  8
画層1
 62
     0
100
AcDbLine
 10
136.1599999999999
 20
386.89
 30
0.0
 11
136.1599999999999
 21
394.89
 31
0.0
  0
ARC
  5
367
330
2
100
AcDbEntity
  8
画層1
 62
     0
100
AcDbCircle
 10
137.66
 20
394.89
 30
0.0
 40
1.5
100
AcDbArc
 50
90.0
 51
180.0
  0
LINE
  5
368
330
2
100
AcDbEntity
  8
画層1
 62
     0
100
AcDbLine
 10
170.6599999999999
 20
400.3899999999999
 30
0.0
 11
170.6599999999999
 21
398.15
 31
0.0
  0
LINE
  5
369
330
2
100
AcDbEntity
  8
画層1
 62
     0
100
AcDbLine
 10
164.66
 20
400.3899999999999
 30
0.0
 11
164.66
 21
398.15
 31
0.0
  0
CIRCLE
  5
36A
330
2
100
AcDbEntity
  8
画層1
 62
     0
100
AcDbCircle
 10
167.66
 20
390.39
 30
0.0
 40
3.799999999999998
  0
ARC
  5
36B
330
2
100
AcDbEntity
  8
画層1
 62
     0
100
AcDbCircle
 10
167.66
 20
392.39
 30
0.0
 40
6.5
100
AcDbArc
 50
37.98
 51
62.51000000000001
  0
LINE
  5
36C
330
2
100
AcDbEntity
  8
画層1
 62
     0
100
AcDbLine
 10
169.46
 20
389.8899999999999
 30
0.0
 11
169.46
 21
390.89
 31
0.0
  0
ARC
  5
36D
330
2
100
AcDbEntity
  8
画層1
 62
     0
100
AcDbCircle
 10
169.16
 20
391.8899999999999
 30
0.0
 40
1.0
100
AcDbArc
 50
180.0
 51
270.0
  0
ARC
  5
36E
330
2
100
AcDbEntity
  8
画層1
 62
     0
100
AcDbCircle
 10
166.1599999999999
 20
391.8899999999999
 30
0.0
 40
1.0
100
AcDbArc
 50
270.0
 51
0.0
  0
ARC
  5
36F
330
2
100
AcDbEntity
  8
画層1
 62
     0
100
AcDbCircle
 10
166.1599999999999
 20
388.8899999999999
 30
0.0
 40
1.0
100
AcDbArc
 50
0.0
 51
90.0
  0
LINE
  5
370
330
2
100
AcDbEntity
  8
画層1
 62
     0
100
AcDbLine
 10
165.86
 20
390.89
 30
0.0
 11
166.1599999999999
 21
390.89
 31
0.0
  0
LINE
  5
371
330
2
100
AcDbEntity
  8
画層1
 62
     0
100
AcDbLine
 10
166.1599999999999
 20
389.8899999999999
 30
0.0
 11
165.86
 21
389.8899999999999
 31
0.0
  0
LINE
  5
372
330
2
100
AcDbEntity
  8
画層1
 62
     0
100
AcDbLine
 10
165.86
 20
389.8899999999999
 30
0.0
 11
165.86
 21
390.89
 31
0.0
  0
ARC
  5
373
330
2
100
AcDbEntity
  8
画層1
 62
     0
100
AcDbCircle
 10
169.16
 20
388.8899999999999
 30
0.0
 40
1.0
100
AcDbArc
 50
90.0
 51
180.0
  0
LINE
  5
374
330
2
100
AcDbEntity
  8
画層1
 62
     0
100
AcDbLine
 10
167.1599999999999
 20
388.5899999999999
 30
0.0
 11
168.1599999999999
 21
388.5899999999999
 31
0.0
  0
LINE
  5
375
330
2
100
AcDbEntity
  8
画層1
 62
     0
100
AcDbLine
 10
167.1599999999999
 20
388.5899999999999
 30
0.0
 11
167.1599999999999
 21
388.8899999999999
 31
0.0
  0
LINE
  5
376
330
2
100
AcDbEntity
  8
画層1
 62
     0
100
AcDbLine
 10
168.1599999999999
 20
388.8899999999999
 30
0.0
 11
168.1599999999999
 21
388.5899999999999
 31
0.0
  0
LINE
  5
377
330
2
100
AcDbEntity
  8
画層1
 62
     0
100
AcDbLine
 10
167.1599999999999
 20
392.1899999999999
 30
0.0
 11
168.1599999999999
 21
392.1899999999999
 31
0.0
  0
LINE
  5
378
330
2
100
AcDbEntity
  8
画層1
 62
     0
100
AcDbLine
 10
167.1599999999999
 20
391.8899999999999
 30
0.0
 11
167.1599999999999
 21
392.1899999999999
 31
0.0
  0
LINE
  5
379
330
2
100
AcDbEntity
  8
画層1
 62
     0
100
AcDbLine
 10
168.1599999999999
 20
392.1899999999999
 30
0.0
 11
168.1599999999999
 21
391.8899999999999
 31
0.0
  0
CIRCLE
  5
37A
330
2
100
AcDbEntity
  8
画層1
 62
     0
100
AcDbCircle
 10
167.66
 20
390.39
 30
0.0
 40
2.6
  0
LINE
  5
37B
330
2
100
AcDbEntity
  8
画層1
 62
     0
100
AcDbLine
 10
169.16
 20
390.89
 30
0.0
 11
169.46
 21
390.89
 31
0.0
  0
LINE
  5
37C
330
2
100
AcDbEntity
  8
画層1
 62
     0
100
AcDbLine
 10
169.46
 20
389.8899999999999
 30
0.0
 11
169.16
 21
389.8899999999999
 31
0.0
  0
ARC
  5
37D
330
2
100
AcDbEntity
  8
画層1
 62
     0
100
AcDbCircle
 10
167.66
 20
400.3899999999999
 30
0.0
 40
3.0
100
AcDbArc
 50
0.0
 51
180.0
  0
LINE
  5
37E
330
2
100
AcDbEntity
  8
画層1
 62
     0
100
AcDbLine
 10
205.6599999999999
 20
380.39
 30
0.0
 11
205.6599999999999
 21
373.3899999999999
 31
0.0
  0
ARC
  5
37F
330
2
100
AcDbEntity
  8
画層1
 62
     0
100
AcDbCircle
 10
204.1599999999999
 20
373.3899999999999
 30
0.0
 40
1.5
100
AcDbArc
 50
270.0
 51
0.0
  0
LINE
  5
380
330
2
100
AcDbEntity
  8
画層1
 62
     0
100
AcDbLine
 10
212.6599999999999
 20
401.3899999999999
 30
0.0
 11
212.6599999999999
 21
396.3899999999999
 31
0.0
  0
LINE
  5
381
330
2
100
AcDbEntity
  8
画層1
 62
     0
100
AcDbLine
 10
214.9599999999999
 20
395.8899999999999
 30
0.0
 11
201.2799999999999
 21
395.8899999999999
 31
0.0
  0
ARC
  5
382
330
2
100
AcDbEntity
  8
画層1
 62
     0
100
AcDbCircle
 10
211.16
 20
391.8899999999999
 30
0.0
 40
1.0
100
AcDbArc
 50
270.0
 51
0.0
  0
ARC
  5
383
330
2
100
AcDbEntity
  8
画層1
 62
     0
100
AcDbCircle
 10
211.16
 20
388.8899999999999
 30
0.0
 40
1.0
100
AcDbArc
 50
0.0
 51
90.0
  0
CIRCLE
  5
384
330
2
100
AcDbEntity
  8
画層1
 62
     0
100
AcDbCircle
 10
212.6599999999999
 20
390.39
 30
0.0
 40
3.0
  0
LINE
  5
385
330
2
100
AcDbEntity
  8
画層1
 62
     0
100
AcDbLine
 10
206.0599999999999
 20
396.3899999999999
 30
0.0
 11
218.5599999999999
 21
396.3899999999999
 31
0.0
  0
LINE
  5
386
330
2
100
AcDbEntity
  8
画層1
 62
     0
100
AcDbLine
 10
203.6599999999999
 20
384.89
 30
0.0
 11
218.36
 21
384.89
 31
0.0
  0
LINE
  5
387
330
2
100
AcDbEntity
  8
画層1
 62
     0
100
AcDbLine
 10
204.5599999999999
 20
394.23
 30
0.0
 11
204.5599999999999
 21
386.55
 31
0.0
  0
ARC
  5
388
330
2
100
AcDbEntity
  8
画層1
 62
     0
100
AcDbCircle
 10
205.6599999999999
 20
390.39
 30
0.0
 40
3.99999999999999
100
AcDbArc
 50
30.0
 51
330.0
  0
ARC
  5
389
330
2
100
AcDbEntity
  8
画層1
 62
     0
100
AcDbCircle
 10
203.6599999999999
 20
386.89
 30
0.0
 40
2.0
100
AcDbArc
 50
180.0
 51
270.0
  0
ARC
  5
38A
330
2
100
AcDbEntity
  8
画層1
 62
     0
100
AcDbCircle
 10
204.1599999999999
 20
380.39
 30
0.0
 40
1.5
100
AcDbArc
 50
0.0
 51
90.0
  0
LINE
  5
38B
330
2
100
AcDbEntity
  8
画層1
 62
     0
100
AcDbLine
 10
201.6599999999999
 20
394.89
 30
0.0
 11
201.6599999999999
 21
386.89
 31
0.0
  0
ARC
  5
38C
330
2
100
AcDbEntity
  8
画層1
 62
     0
100
AcDbCircle
 10
200.1599999999999
 20
394.89
 30
0.0
 40
1.5
100
AcDbArc
 50
0.0
 51
90.0
  0
LINE
  5
38D
330
2
100
AcDbEntity
  8
画層1
 62
     0
100
AcDbLine
 10
210.42
 20
388.39
 30
0.0
 11
209.12
 21
388.39
 31
0.0
  0
LINE
  5
38E
330
2
100
AcDbEntity
  8
画層1
 62
     0
100
AcDbLine
 10
210.42
 20
392.39
 30
0.0
 11
209.12
 21
392.39
 31
0.0
  0
LINE
  5
38F
330
2
100
AcDbEntity
  8
画層1
 62
     0
100
AcDbLine
 10
210.86
 20
390.89
 30
0.0
 11
211.16
 21
390.89
 31
0.0
  0
LINE
  5
390
330
2
100
AcDbEntity
  8
画層1
 62
     0
100
AcDbLine
 10
211.16
 20
389.8899999999999
 30
0.0
 11
210.86
 21
389.8899999999999
 31
0.0
  0
LINE
  5
391
330
2
100
AcDbEntity
  8
画層1
 62
     0
100
AcDbLine
 10
210.86
 20
389.8899999999999
 30
0.0
 11
210.86
 21
390.89
 31
0.0
  0
ARC
  5
392
330
2
100
AcDbEntity
  8
画層1
 62
     0
100
AcDbCircle
 10
206.0599999999999
 20
394.89
 30
0.0
 40
1.5
100
AcDbArc
 50
90.0
 51
138.1899999999999
  0
LINE
  5
393
330
2
100
AcDbEntity
  8
画層1
 62
     0
100
AcDbLine
 10
216.9599999999999
 20
384.89
 30
0.0
 11
216.9599999999999
 21
393.8899999999999
 31
0.0
  0
ARC
  5
394
330
2
100
AcDbEntity
  8
画層1
 62
     0
100
AcDbCircle
 10
214.1599999999999
 20
391.8899999999999
 30
0.0
 40
1.0
100
AcDbArc
 50
180.0
 51
270.0
  0
ARC
  5
395
330
2
100
AcDbEntity
  8
画層1
 62
     0
100
AcDbCircle
 10
214.1599999999999
 20
388.8899999999999
 30
0.0
 40
1.0
100
AcDbArc
 50
90.0
 51
180.0
  0
LINE
  5
396
330
2
100
AcDbEntity
  8
画層1
 62
     0
100
AcDbLine
 10
213.16
 20
388.8899999999999
 30
0.0
 11
213.16
 21
388.5899999999999
 31
0.0
  0
LINE
  5
397
330
2
100
AcDbEntity
  8
画層1
 62
     0
100
AcDbLine
 10
214.1599999999999
 20
390.89
 30
0.0
 11
214.46
 21
390.89
 31
0.0
  0
LINE
  5
398
330
2
100
AcDbEntity
  8
画層1
 62
     0
100
AcDbLine
 10
214.46
 20
389.8899999999999
 30
0.0
 11
214.1599999999999
 21
389.8899999999999
 31
0.0
  0
LINE
  5
399
330
2
100
AcDbEntity
  8
画層1
 62
     0
100
AcDbLine
 10
214.46
 20
389.8899999999999
 30
0.0
 11
214.46
 21
390.89
 31
0.0
  0
LINE
  5
39A
330
2
100
AcDbEntity
  8
画層1
 62
     0
100
AcDbLine
 10
213.16
 20
392.1899999999999
 30
0.0
 11
213.16
 21
391.8899999999999
 31
0.0
  0
LINE
  5
39B
330
2
100
AcDbEntity
  8
画層1
 62
     0
100
AcDbLine
 10
212.1599999999999
 20
388.5899999999999
 30
0.0
 11
212.1599999999999
 21
388.8899999999999
 31
0.0
  0
LINE
  5
39C
330
2
100
AcDbEntity
  8
画層1
 62
     0
100
AcDbLine
 10
212.1599999999999
 20
391.8899999999999
 30
0.0
 11
212.1599999999999
 21
392.1899999999999
 31
0.0
  0
LINE
  5
39D
330
2
100
AcDbEntity
  8
画層1
 62
     0
100
AcDbLine
 10
212.1599999999999
 20
388.5899999999999
 30
0.0
 11
213.16
 21
388.5899999999999
 31
0.0
  0
LINE
  5
39E
330
2
100
AcDbEntity
  8
画層1
 62
     0
100
AcDbLine
 10
212.1599999999999
 20
392.1899999999999
 30
0.0
 11
213.16
 21
392.1899999999999
 31
0.0
  0
ARC
  5
39F
330
2
100
AcDbEntity
  8
画層1
 62
     0
100
AcDbCircle
 10
214.9599999999999
 20
393.8899999999999
 30
0.0
 40
2.0
100
AcDbArc
 50
0.0
 51
90.0
  0
ARC
  5
3A0
330
2
100
AcDbEntity
  8
画層1
 62
     0
100
AcDbCircle
 10
207.66
 20
401.3899999999999
 30
0.0
 40
5.0
100
AcDbArc
 50
0.0
 51
90.0
  0
LINE
  5
3A1
330
2
100
AcDbEntity
  8
画層1
  6
DASHED2
 62
     0
100
AcDbLine
 10
389.36
 20
286.01
 30
0.0
 11
389.36
 21
278.01
 31
0.0
  0
LINE
  5
3A2
330
2
100
AcDbEntity
  8
画層1
  6
DASHED2
 62
     0
100
AcDbLine
 10
387.36
 20
285.0099999999999
 30
0.0
 11
387.36
 21
279.0099999999999
 31
0.0
  0
LINE
  5
3A3
330
2
100
AcDbEntity
  8
画層1
  6
DASHED2
 62
     0
100
AcDbLine
 10
388.16
 20
286.01
 30
0.0
 11
388.16
 21
278.01
 31
0.0
  0
LINE
  5
3A4
330
2
100
AcDbEntity
  8
画層1
  6
DASHED2
 62
     0
100
AcDbLine
 10
385.16
 20
284.0099999999999
 30
0.0
 11
385.16
 21
280.01
 31
0.0
  0
LINE
  5
3A5
330
2
100
AcDbEntity
  8
画層1
 62
     0
100
AcDbLine
 10
541.36
 20
406.39
 30
0.0
 11
541.36
 21
186.3899999999999
 31
0.0
  0
LINE
  5
3A6
330
2
100
AcDbEntity
  8
画層1
 62
     0
100
AcDbLine
 10
408.36
 20
384.89
 30
0.0
 11
408.36
 21
207.8899999999999
 31
0.0
  0
LINE
  5
3A7
330
2
100
AcDbEntity
  8
画層1
 62
     0
100
AcDbLine
 10
368.16
 20
396.3899999999999
 30
0.0
 11
368.16
 21
196.3899999999999
 31
0.0
  0
LINE
  5
3A8
330
2
100
AcDbEntity
  8
画層1
 62
     0
100
AcDbLine
 10
412.36
 20
208.3899999999999
 30
0.0
 11
412.36
 21
384.39
 31
0.0
  0
LINE
  5
3A9
330
2
100
AcDbEntity
  8
画層1
  6
DASHED2
 62
     0
100
AcDbLine
 10
369.56
 20
357.2699999999999
 30
0.0
 11
369.56
 21
268.5099999999999
 31
0.0
  0
LINE
  5
3AA
330
2
100
AcDbEntity
  8
画層1
  6
DASHED2
 62
     0
100
AcDbLine
 10
395.56
 20
359.39
 30
0.0
 11
395.56
 21
266.3899999999999
 31
0.0
  0
LINE
  5
3AB
330
2
100
AcDbEntity
  8
画層1
  6
DASHED2
 62
     0
100
AcDbLine
 10
467.36
 20
219.3899999999999
 30
0.0
 11
446.56
 21
219.3899999999999
 31
0.0
  0
LINE
  5
3AC
330
2
100
AcDbEntity
  8
画層1
  6
DASHED2
 62
     0
100
AcDbLine
 10
446.56
 20
243.3899999999999
 30
0.0
 11
467.36
 21
243.3899999999999
 31
0.0
  0
LINE
  5
3AD
330
2
100
AcDbEntity
  8
画層1
 62
     0
100
AcDbLine
 10
541.36
 20
196.3899999999999
 30
0.0
 11
408.36
 21
196.3899999999999
 31
0.0
  0
DIMENSION
  5
3AE
330
2
100
AcDbEntity
  8
画層1
 62
     0
100
AcDbDimension
  2
*D31
 10
433.36
 20
171.3899999999999
 30
0.0
 11
487.36
 21
173.4793908629441
 31
0.0
 70
    32
 71
     5
 42
108.0
  3
STANDARD_WS
100
AcDbAlignedDimension
 13
541.36
 23
186.3899999999999
 33
0.0
 14
433.36
 24
224.39
 34
0.0
100
AcDbRotatedDimension
1001
ACAD
1000
DSTYLE
1002
{
1070
     3
1000
(<>)
1070
    47
1040
0.6
1070
   144
1040
1.0
1070
   146
1040
0.5
1070
   173
1070
     0
1070
   284
1070
     8
1070
   340
1005
2A
1070
   341
1005
2B
1070
   342
1005
2B
1070
   343
1005
2B
1002
}
  0
LINE
  5
3BB
330
2
100
AcDbEntity
  8
画層1
  6
DASHED2
 62
     0
100
AcDbLine
 10
395.56
 20
266.3899999999999
 30
0.0
 11
368.16
 21
266.3899999999999
 31
0.0
  0
LINE
  5
3BC
330
2
100
AcDbEntity
  8
画層1
 62
     0
100
AcDbLine
 10
408.36
 20
196.8899999999999
 30
0.0
 11
369.3599999999999
 21
196.8899999999999
 31
0.0
  0
LINE
  5
3BD
330
2
100
AcDbEntity
  8
画層1
 62
     0
100
AcDbLine
 10
408.36
 20
196.8899999999999
 30
0.0
 11
369.3599999999999
 21
196.8899999999999
 31
0.0
  0
LINE
  5
3BE
330
2
100
AcDbEntity
  8
画層1
 62
     0
100
AcDbLine
 10
408.36
 20
207.8899999999999
 30
0.0
 11
368.16
 21
207.8899999999999
 31
0.0
  0
LINE
  5
3BF
330
2
100
AcDbEntity
  8
画層1
 62
     0
100
AcDbLine
 10
369.3599999999999
 20
196.3899999999999
 30
0.0
 11
369.3599999999999
 21
207.8899999999999
 31
0.0
  0
LINE
  5
3C0
330
2
100
AcDbEntity
  8
画層1
 62
     0
100
AcDbLine
 10
367.36
 20
204.99
 30
0.0
 11
367.36
 21
199.7899999999999
 31
0.0
  0
LINE
  5
3C1
330
2
100
AcDbEntity
  8
画層1
 62
     0
100
AcDbLine
 10
365.36
 20
203.99
 30
0.0
 11
365.36
 21
200.7899999999999
 31
0.0
  0
LINE
  5
3C2
330
2
100
AcDbEntity
  8
画層1
 62
     0
100
AcDbLine
 10
367.36
 20
199.7899999999999
 30
0.0
 11
367.7599999999999
 21
198.5899999999999
 31
0.0
  0
ARC
  5
3C3
330
2
100
AcDbEntity
  8
画層1
 62
     0
100
AcDbCircle
 10
366.36
 20
200.7899999999999
 30
0.0
 40
1.0
100
AcDbArc
 50
180.0
 51
270.0
  0
LINE
  5
3C4
330
2
100
AcDbEntity
  8
画層1
 62
     0
100
AcDbLine
 10
366.36
 20
199.7899999999999
 30
0.0
 11
367.36
 21
199.7899999999999
 31
0.0
  0
LINE
  5
3C5
330
2
100
AcDbEntity
  8
画層1
 62
     0
100
AcDbLine
 10
368.16
 20
196.3899999999999
 30
0.0
 11
369.3599999999999
 21
196.3899999999999
 31
0.0
  0
LINE
  5
3C6
330
2
100
AcDbEntity
  8
画層1
 62
     0
100
AcDbLine
 10
367.7599999999999
 20
198.5899999999999
 30
0.0
 11
368.16
 21
198.5899999999999
 31
0.0
  0
LINE
  5
3C7
330
2
100
AcDbEntity
  8
画層1
 62
     0
100
AcDbLine
 10
367.7599999999999
 20
206.19
 30
0.0
 11
367.36
 21
204.99
 31
0.0
  0
ARC
  5
3C8
330
2
100
AcDbEntity
  8
画層1
 62
     0
100
AcDbCircle
 10
366.36
 20
203.99
 30
0.0
 40
1.0
100
AcDbArc
 50
90.0
 51
180.0
  0
LINE
  5
3C9
330
2
100
AcDbEntity
  8
画層1
 62
     0
100
AcDbLine
 10
367.36
 20
204.99
 30
0.0
 11
366.36
 21
204.99
 31
0.0
  0
LINE
  5
3CA
330
2
100
AcDbEntity
  8
画層1
 62
     0
100
AcDbLine
 10
365.9599999999999
 20
202.7899999999999
 30
0.0
 11
365.36
 21
202.7899999999999
 31
0.0
  0
LINE
  5
3CB
330
2
100
AcDbEntity
  8
画層1
 62
     0
100
AcDbLine
 10
365.36
 20
201.99
 30
0.0
 11
365.9599999999999
 21
201.99
 31
0.0
  0
LINE
  5
3CC
330
2
100
AcDbEntity
  8
画層1
 62
     0
100
AcDbLine
 10
365.9599999999999
 20
201.99
 30
0.0
 11
365.9599999999999
 21
202.7899999999999
 31
0.0
  0
LINE
  5
3CD
330
2
100
AcDbEntity
  8
画層1
 62
     0
100
AcDbLine
 10
368.16
 20
206.19
 30
0.0
 11
367.7599999999999
 21
206.19
 31
0.0
  0
LINE
  5
3CE
330
2
100
AcDbEntity
  8
画層1
  6
DASHED2
 62
     0
100
AcDbLine
 10
377.16
 20
280.2699999999999
 30
0.0
 11
375.16
 21
280.2699999999999
 31
0.0
  0
LINE
  5
3CF
330
2
100
AcDbEntity
  8
画層1
  6
DASHED2
 62
     0
100
AcDbLine
 10
377.16
 20
274.2699999999999
 30
0.0
 11
375.16
 21
274.2699999999999
 31
0.0
  0
LINE
  5
3D0
330
2
100
AcDbEntity
  8
画層1
  6
DASHED2
 62
     0
100
AcDbLine
 10
369.56
 20
271.7699999999999
 30
0.0
 11
378.36
 21
271.7699999999999
 31
0.0
  0
LINE
  5
3D1
330
2
100
AcDbEntity
  8
画層1
  6
DASHED2
 62
     0
100
AcDbLine
 10
369.56
 20
281.2699999999999
 30
0.0
 11
378.36
 21
281.2699999999999
 31
0.0
  0
LINE
  5
3D2
330
2
100
AcDbEntity
  8
画層1
  6
DASHED2
 62
     0
100
AcDbLine
 10
378.36
 20
273.2699999999999
 30
0.0
 11
369.56
 21
273.2699999999999
 31
0.0
  0
LINE
  5
3D3
330
2
100
AcDbEntity
  8
画層1
  6
DASHED2
 62
     0
100
AcDbLine
 10
368.16
 20
268.5099999999999
 30
0.0
 11
389.36
 21
268.5099999999999
 31
0.0
  0
LINE
  5
3D4
330
2
100
AcDbEntity
  8
画層1
 62
     0
100
AcDbLine
 10
367.06
 20
268.5099999999999
 30
0.0
 11
368.16
 21
268.5099999999999
 31
0.0
  0
LINE
  5
3D5
330
2
100
AcDbEntity
  8
画層1
 62
     0
100
AcDbLine
 10
367.06
 20
266.3899999999999
 30
0.0
 11
368.16
 21
266.3899999999999
 31
0.0
  0
LINE
  5
3D6
330
2
100
AcDbEntity
  8
画層1
 62
     0
100
AcDbLine
 10
367.06
 20
266.3899999999999
 30
0.0
 11
367.06
 21
268.5099999999999
 31
0.0
  0
ARC
  5
3D7
330
2
100
AcDbEntity
  8
画層1
  6
DASHED2
 62
     0
100
AcDbCircle
 10
375.16
 20
279.2699999999999
 30
0.0
 40
1.0
100
AcDbArc
 50
90.0
 51
180.0
  0
ARC
  5
3D8
330
2
100
AcDbEntity
  8
画層1
  6
DASHED2
 62
     0
100
AcDbCircle
 10
375.16
 20
275.2699999999999
 30
0.0
 40
1.0
100
AcDbArc
 50
180.0
 51
270.0
  0
LINE
  5
3D9
330
2
100
AcDbEntity
  8
画層1
  6
DASHED2
 62
     0
100
AcDbLine
 10
374.16
 20
279.2699999999999
 30
0.0
 11
374.16
 21
275.2699999999999
 31
0.0
  0
LINE
  5
3DA
330
2
100
AcDbEntity
  8
画層1
  6
DASHED2
 62
     0
100
AcDbLine
 10
389.36
 20
276.5099999999999
 30
0.0
 11
389.36
 21
268.5099999999999
 31
0.0
  0
LINE
  5
3DB
330
2
100
AcDbEntity
  8
画層1
  6
DASHED2
 62
     0
100
AcDbLine
 10
385.16
 20
274.5099999999999
 30
0.0
 11
385.16
 21
270.5099999999999
 31
0.0
  0
LINE
  5
3DC
330
2
100
AcDbEntity
  8
画層1
  6
DASHED2
 62
     0
100
AcDbLine
 10
388.16
 20
276.5099999999999
 30
0.0
 11
388.16
 21
268.5099999999999
 31
0.0
  0
LINE
  5
3DD
330
2
100
AcDbEntity
  8
画層1
  6
DASHED2
 62
     0
100
AcDbLine
 10
387.36
 20
275.51
 30
0.0
 11
387.36
 21
269.51
 31
0.0
  0
LINE
  5
3DE
330
2
100
AcDbEntity
  8
画層1
  6
DASHED2
 62
     0
100
AcDbLine
 10
378.36
 20
271.7699999999999
 30
0.0
 11
378.36
 21
268.5099999999999
 31
0.0
  0
ARC
  5
3DF
330
2
100
AcDbEntity
  8
画層1
  6
DASHED2
 62
     0
100
AcDbCircle
 10
386.16
 20
270.5099999999999
 30
0.0
 40
1.0
100
AcDbArc
 50
180.0
 51
270.0
  0
LINE
  5
3E0
330
2
100
AcDbEntity
  8
画層1
  6
DASHED2
 62
     0
100
AcDbLine
 10
388.16
 20
269.51
 30
0.0
 11
386.16
 21
269.51
 31
0.0
  0
LINE
  5
3E1
330
2
100
AcDbEntity
  8
画層1
  6
DASHED2
 62
     0
100
AcDbLine
 10
389.36
 20
278.01
 30
0.0
 11
382.56
 21
278.01
 31
0.0
  0
LINE
  5
3E2
330
2
100
AcDbEntity
  8
画層1
  6
DASHED2
 62
     0
100
AcDbLine
 10
382.56
 20
276.5099999999999
 30
0.0
 11
389.36
 21
276.5099999999999
 31
0.0
  0
LINE
  5
3E3
330
2
100
AcDbEntity
  8
画層1
  6
DASHED2
 62
     0
100
AcDbLine
 10
382.56
 20
278.01
 30
0.0
 11
382.56
 21
276.5099999999999
 31
0.0
  0
LINE
  5
3E4
330
2
100
AcDbEntity
  8
画層1
  6
DASHED2
 62
     0
100
AcDbLine
 10
376.36
 20
280.2699999999999
 30
0.0
 11
376.36
 21
274.2699999999999
 31
0.0
  0
LINE
  5
3E5
330
2
100
AcDbEntity
  8
画層1
  6
DASHED2
 62
     0
100
AcDbLine
 10
378.36
 20
281.2699999999999
 30
0.0
 11
378.36
 21
273.2699999999999
 31
0.0
  0
LINE
  5
3E6
330
2
100
AcDbEntity
  8
画層1
  6
DASHED2
 62
     0
100
AcDbLine
 10
377.16
 20
281.2699999999999
 30
0.0
 11
377.16
 21
273.2699999999999
 31
0.0
  0
LINE
  5
3E7
330
2
100
AcDbEntity
  8
画層1
  6
DASHED2
 62
     0
100
AcDbLine
 10
388.16
 20
279.0099999999999
 30
0.0
 11
386.16
 21
279.0099999999999
 31
0.0
  0
ARC
  5
3E8
330
2
100
AcDbEntity
  8
画層1
  6
DASHED2
 62
     0
100
AcDbCircle
 10
386.16
 20
280.01
 30
0.0
 40
1.0
100
AcDbArc
 50
180.0
 51
270.0
  0
ARC
  5
3E9
330
2
100
AcDbEntity
  8
画層1
  6
DASHED2
 62
     0
100
AcDbCircle
 10
386.16
 20
274.5099999999999
 30
0.0
 40
1.0
100
AcDbArc
 50
90.0
 51
180.0
  0
LINE
  5
3EA
330
2
100
AcDbEntity
  8
画層1
  6
DASHED2
 62
     0
100
AcDbLine
 10
388.16
 20
275.51
 30
0.0
 11
386.16
 21
275.51
 31
0.0
  0
ARC
  5
3EB
330
2
100
AcDbEntity
  8
画層1
  6
DASHED2
 62
     0
100
AcDbCircle
 10
429.86
 20
233.8899999999999
 30
0.0
 40
2.0
100
AcDbArc
 50
90.0
 51
180.0
  0
LINE
  5
3EC
330
2
100
AcDbEntity
  8
画層1
  6
DASHED2
 62
     0
100
AcDbLine
 10
432.3599999999999
 20
237.3899999999999
 30
0.0
 11
432.3599999999999
 21
225.3899999999999
 31
0.0
  0
LINE
  5
3ED
330
2
100
AcDbEntity
  8
画層1
  6
DASHED2
 62
     0
100
AcDbLine
 10
433.36
 20
239.3899999999999
 30
0.0
 11
433.36
 21
223.3899999999999
 31
0.0
  0
LINE
  5
3EE
330
2
100
AcDbEntity
  8
画層1
  6
DASHED2
 62
     0
100
AcDbLine
 10
420.3599999999999
 20
246.3899999999999
 30
0.0
 11
420.3599999999999
 21
216.3899999999999
 31
0.0
  0
LINE
  5
3EF
330
2
100
AcDbEntity
  8
画層1
  6
DASHED2
 62
     0
100
AcDbLine
 10
446.56
 20
205.39
 30
0.0
 11
446.56
 21
246.3899999999999
 31
0.0
  0
LINE
  5
3F0
330
2
100
AcDbEntity
  8
画層1
  6
DASHED2
 62
     0
100
AcDbLine
 10
445.36
 20
205.39
 30
0.0
 11
445.36
 21
246.3899999999999
 31
0.0
  0
LINE
  5
3F1
330
2
100
AcDbEntity
  8
画層1
  6
DASHED2
 62
     0
100
AcDbLine
 10
456.36
 20
246.3899999999999
 30
0.0
 11
456.36
 21
205.39
 31
0.0
  0
LINE
  5
3F2
330
2
100
AcDbEntity
  8
画層1
  6
DASHED2
 62
     0
100
AcDbLine
 10
420.3599999999999
 20
216.3899999999999
 30
0.0
 11
445.36
 21
216.3899999999999
 31
0.0
  0
LINE
  5
3F3
330
2
100
AcDbEntity
  8
画層1
 62
     0
100
AcDbLine
 10
408.36
 20
208.3899999999999
 30
0.0
 11
412.36
 21
208.3899999999999
 31
0.0
  0
LINE
  5
3F4
330
2
100
AcDbEntity
  8
画層1
 62
     0
100
AcDbLine
 10
407.16
 20
196.8899999999999
 30
0.0
 11
407.16
 21
207.8899999999999
 31
0.0
  0
LINE
  5
3F5
330
2
100
AcDbEntity
  8
画層1
 62
     0
100
AcDbLine
 10
408.36
 20
196.3899999999999
 30
0.0
 11
408.36
 21
208.3899999999999
 31
0.0
  0
ARC
  5
3F6
330
2
100
AcDbEntity
  8
画層1
 62
     0
100
AcDbCircle
 10
408.7799999999999
 20
202.3899999999999
 30
0.0
 40
4.111538461538548
100
AcDbArc
 50
133.1399999999999
 51
226.86
  0
LINE
  5
3F7
330
2
100
AcDbEntity
  8
画層1
 62
     0
100
AcDbLine
 10
405.9599999999999
 20
199.39
 30
0.0
 11
405.9599999999999
 21
205.39
 31
0.0
  0
LINE
  5
3F8
330
2
100
AcDbEntity
  8
画層1
 62
     0
100
AcDbLine
 10
405.16
 20
196.8899999999999
 30
0.0
 11
405.16
 21
200.43
 31
0.0
  0
LINE
  5
3F9
330
2
100
AcDbEntity
  8
画層1
 62
     0
100
AcDbLine
 10
405.9599999999999
 20
199.39
 30
0.0
 11
407.16
 21
199.39
 31
0.0
  0
LINE
  5
3FA
330
2
100
AcDbEntity
  8
画層1
 62
     0
100
AcDbLine
 10
405.9599999999999
 20
205.39
 30
0.0
 11
407.16
 21
205.39
 31
0.0
  0
LINE
  5
3FB
330
2
100
AcDbEntity
  8
画層1
 62
     0
100
AcDbLine
 10
405.16
 20
204.3499999999999
 30
0.0
 11
405.16
 21
207.8899999999999
 31
0.0
  0
LINE
  5
3FC
330
2
100
AcDbEntity
  8
画層1
  6
DASHED2
 62
     0
100
AcDbLine
 10
456.36
 20
205.39
 30
0.0
 11
445.36
 21
205.39
 31
0.0
  0
LINE
  5
3FD
330
2
100
AcDbEntity
  8
画層1
  6
DASHED2
 62
     0
100
AcDbLine
 10
442.86
 20
217.3899999999999
 30
0.0
 11
438.36
 21
218.3899999999999
 31
0.0
  0
LINE
  5
3FE
330
2
100
AcDbEntity
  8
画層1
  6
DASHED2
 62
     0
100
AcDbLine
 10
438.36
 20
218.3899999999999
 30
0.0
 11
437.36
 21
220.8899999999999
 31
0.0
  0
LINE
  5
3FF
330
2
100
AcDbEntity
  8
画層1
  6
DASHED2
 62
     0
100
AcDbLine
 10
437.36
 20
220.8899999999999
 30
0.0
 11
433.36
 21
223.3899999999999
 31
0.0
  0
LINE
  5
400
330
2
100
AcDbEntity
  8
画層1
  6
DASHED2
 62
     0
100
AcDbLine
 10
432.3599999999999
 20
225.3899999999999
 30
0.0
 11
433.36
 21
225.3899999999999
 31
0.0
  0
ARC
  5
401
330
2
100
AcDbEntity
  8
画層1
  6
DASHED2
 62
     0
100
AcDbCircle
 10
429.86
 20
228.8899999999999
 30
0.0
 40
2.0
100
AcDbArc
 50
180.0
 51
270.0
  0
LINE
  5
402
330
2
100
AcDbEntity
  8
画層1
  6
DASHED2
 62
     0
100
AcDbLine
 10
431.36
 20
226.8899999999999
 30
0.0
 11
431.36
 21
235.8899999999999
 31
0.0
  0
LINE
  5
403
330
2
100
AcDbEntity
  8
画層1
  6
DASHED2
 62
     0
100
AcDbLine
 10
429.86
 20
226.8899999999999
 30
0.0
 11
432.3599999999999
 21
226.8899999999999
 31
0.0
  0
LINE
  5
404
330
2
100
AcDbEntity
  8
画層1
  6
DASHED2
 62
     0
100
AcDbLine
 10
427.8599999999999
 20
233.8899999999999
 30
0.0
 11
427.8599999999999
 21
228.8899999999999
 31
0.0
  0
LINE
  5
405
330
2
100
AcDbEntity
  8
画層1
  6
DASHED2
 62
     0
100
AcDbLine
 10
432.3599999999999
 20
235.8899999999999
 30
0.0
 11
429.86
 21
235.8899999999999
 31
0.0
  0
CIRCLE
  5
406
330
2
100
AcDbEntity
  8
画層1
 62
     0
100
AcDbCircle
 10
451.36
 20
226.39
 30
0.0
 40
3.0
  0
LINE
  5
407
330
2
100
AcDbEntity
  8
画層1
  6
DASHED2
 62
     0
100
AcDbLine
 10
442.86
 20
216.3899999999999
 30
0.0
 11
442.86
 21
217.3899999999999
 31
0.0
  0
LINE
  5
408
330
2
100
AcDbEntity
  8
画層1
 62
     0
100
AcDbLine
 10
449.56
 20
226.8899999999999
 30
0.0
 11
449.86
 21
226.8899999999999
 31
0.0
  0
LINE
  5
409
330
2
100
AcDbEntity
  8
画層1
 62
     0
100
AcDbLine
 10
449.86
 20
225.89
 30
0.0
 11
449.56
 21
225.89
 31
0.0
  0
LINE
  5
40A
330
2
100
AcDbEntity
  8
画層1
 62
     0
100
AcDbLine
 10
449.56
 20
225.89
 30
0.0
 11
449.56
 21
226.8899999999999
 31
0.0
  0
ARC
  5
40B
330
2
100
AcDbEntity
  8
画層1
 62
     0
100
AcDbCircle
 10
449.86
 20
227.8899999999999
 30
0.0
 40
1.0
100
AcDbArc
 50
270.0
 51
0.0
  0
ARC
  5
40C
330
2
100
AcDbEntity
  8
画層1
 62
     0
100
AcDbCircle
 10
449.86
 20
224.8899999999999
 30
0.0
 40
1.0
100
AcDbArc
 50
0.0
 51
90.0
  0
LINE
  5
40D
330
2
100
AcDbEntity
  8
画層1
 62
     0
100
AcDbLine
 10
450.86
 20
228.1899999999999
 30
0.0
 11
451.86
 21
228.1899999999999
 31
0.0
  0
LINE
  5
40E
330
2
100
AcDbEntity
  8
画層1
 62
     0
100
AcDbLine
 10
450.86
 20
224.59
 30
0.0
 11
451.86
 21
224.59
 31
0.0
  0
LINE
  5
40F
330
2
100
AcDbEntity
  8
画層1
 62
     0
100
AcDbLine
 10
450.86
 20
227.8899999999999
 30
0.0
 11
450.86
 21
228.1899999999999
 31
0.0
  0
LINE
  5
410
330
2
100
AcDbEntity
  8
画層1
 62
     0
100
AcDbLine
 10
450.86
 20
224.59
 30
0.0
 11
450.86
 21
224.8899999999999
 31
0.0
  0
LINE
  5
411
330
2
100
AcDbEntity
  8
画層1
 62
     0
100
AcDbLine
 10
453.16
 20
225.89
 30
0.0
 11
452.8599999999999
 21
225.89
 31
0.0
  0
LINE
  5
412
330
2
100
AcDbEntity
  8
画層1
 62
     0
100
AcDbLine
 10
452.8599999999999
 20
226.8899999999999
 30
0.0
 11
453.16
 21
226.8899999999999
 31
0.0
  0
LINE
  5
413
330
2
100
AcDbEntity
  8
画層1
 62
     0
100
AcDbLine
 10
453.16
 20
225.89
 30
0.0
 11
453.16
 21
226.8899999999999
 31
0.0
  0
ARC
  5
414
330
2
100
AcDbEntity
  8
画層1
 62
     0
100
AcDbCircle
 10
452.8599999999999
 20
227.8899999999999
 30
0.0
 40
1.0
100
AcDbArc
 50
180.0
 51
270.0
  0
LINE
  5
415
330
2
100
AcDbEntity
  8
画層1
 62
     0
100
AcDbLine
 10
451.86
 20
228.1899999999999
 30
0.0
 11
451.86
 21
227.8899999999999
 31
0.0
  0
ARC
  5
416
330
2
100
AcDbEntity
  8
画層1
 62
     0
100
AcDbCircle
 10
452.8599999999999
 20
224.8899999999999
 30
0.0
 40
1.0
100
AcDbArc
 50
90.0
 51
180.0
  0
LINE
  5
417
330
2
100
AcDbEntity
  8
画層1
 62
     0
100
AcDbLine
 10
451.86
 20
224.8899999999999
 30
0.0
 11
451.86
 21
224.59
 31
0.0
  0
LINE
  5
418
330
2
100
AcDbEntity
  8
画層1
  6
DASHED2
 62
     0
100
AcDbLine
 10
420.3599999999999
 20
246.3899999999999
 30
0.0
 11
456.36
 21
246.3899999999999
 31
0.0
  0
LINE
  5
419
330
2
100
AcDbEntity
  8
画層1
  6
DASHED2
 62
     0
100
AcDbLine
 10
442.86
 20
245.3899999999999
 30
0.0
 11
438.36
 21
244.3899999999999
 31
0.0
  0
LINE
  5
41A
330
2
100
AcDbEntity
  8
画層1
  6
DASHED2
 62
     0
100
AcDbLine
 10
433.36
 20
237.3899999999999
 30
0.0
 11
432.3599999999999
 21
237.3899999999999
 31
0.0
  0
LINE
  5
41B
330
2
100
AcDbEntity
  8
画層1
  6
DASHED2
 62
     0
100
AcDbLine
 10
437.36
 20
241.8899999999999
 30
0.0
 11
433.36
 21
239.3899999999999
 31
0.0
  0
LINE
  5
41C
330
2
100
AcDbEntity
  8
画層1
  6
DASHED2
 62
     0
100
AcDbLine
 10
438.36
 20
244.3899999999999
 30
0.0
 11
437.36
 21
241.8899999999999
 31
0.0
  0
LINE
  5
41D
330
2
100
AcDbEntity
  8
画層1
  6
DASHED2
 62
     0
100
AcDbLine
 10
442.86
 20
246.3899999999999
 30
0.0
 11
442.86
 21
245.3899999999999
 31
0.0
  0
LINE
  5
41E
330
2
100
AcDbEntity
  8
画層1
 62
     0
100
AcDbLine
 10
539.7599999999999
 20
186.3899999999999
 30
0.0
 11
539.7599999999999
 21
196.3899999999999
 31
0.0
  0
LINE
  5
41F
330
2
100
AcDbEntity
  8
画層1
 62
     0
100
AcDbLine
 10
541.36
 20
186.3899999999999
 30
0.0
 11
539.7599999999999
 21
186.3899999999999
 31
0.0
  0
LINE
  5
420
330
2
100
AcDbEntity
  8
画層1
  6
DASHED2
 62
     0
100
AcDbLine
 10
467.36
 20
243.3899999999999
 30
0.0
 11
467.36
 21
219.3899999999999
 31
0.0
  0
CIRCLE
  5
421
330
2
100
AcDbEntity
  8
画層1
 62
     0
100
AcDbCircle
 10
494.3599999999999
 20
209.8899999999999
 30
0.0
 40
2.149999999999998
  0
LINE
  5
422
330
2
100
AcDbEntity
  8
画層1
 62
     0
100
AcDbLine
 10
513.1599999999999
 20
220.8899999999999
 30
0.0
 11
513.1599999999999
 21
221.89
 31
0.0
  0
LINE
  5
423
330
2
100
AcDbEntity
  8
画層1
 62
     0
100
AcDbLine
 10
512.86
 20
221.89
 30
0.0
 11
513.1599999999999
 21
221.89
 31
0.0
  0
LINE
  5
424
330
2
100
AcDbEntity
  8
画層1
 62
     0
100
AcDbLine
 10
513.1599999999999
 20
220.8899999999999
 30
0.0
 11
512.86
 21
220.8899999999999
 31
0.0
  0
LINE
  5
425
330
2
100
AcDbEntity
  8
画層1
 62
     0
100
AcDbLine
 10
509.86
 20
220.8899999999999
 30
0.0
 11
509.56
 21
220.8899999999999
 31
0.0
  0
LINE
  5
426
330
2
100
AcDbEntity
  8
画層1
 62
     0
100
AcDbLine
 10
509.56
 20
221.89
 30
0.0
 11
509.86
 21
221.89
 31
0.0
  0
LINE
  5
427
330
2
100
AcDbEntity
  8
画層1
 62
     0
100
AcDbLine
 10
509.56
 20
220.8899999999999
 30
0.0
 11
509.56
 21
221.89
 31
0.0
  0
LINE
  5
428
330
2
100
AcDbEntity
  8
画層1
 62
     0
100
AcDbLine
 10
511.8599999999999
 20
219.89
 30
0.0
 11
511.8599999999999
 21
219.5899999999999
 31
0.0
  0
LINE
  5
429
330
2
100
AcDbEntity
  8
画層1
 62
     0
100
AcDbLine
 10
511.8599999999999
 20
223.1899999999999
 30
0.0
 11
511.8599999999999
 21
222.8899999999999
 31
0.0
  0
LINE
  5
42A
330
2
100
AcDbEntity
  8
画層1
 62
     0
100
AcDbLine
 10
510.86
 20
219.5899999999999
 30
0.0
 11
510.86
 21
219.89
 31
0.0
  0
LINE
  5
42B
330
2
100
AcDbEntity
  8
画層1
 62
     0
100
AcDbLine
 10
510.86
 20
222.8899999999999
 30
0.0
 11
510.86
 21
223.1899999999999
 31
0.0
  0
ARC
  5
42C
330
2
100
AcDbEntity
  8
画層1
 62
     0
100
AcDbCircle
 10
509.86
 20
219.89
 30
0.0
 40
1.0
100
AcDbArc
 50
0.0
 51
90.0
  0
ARC
  5
42D
330
2
100
AcDbEntity
  8
画層1
 62
     0
100
AcDbCircle
 10
509.86
 20
222.8899999999999
 30
0.0
 40
1.0
100
AcDbArc
 50
270.0
 51
0.0
  0
LINE
  5
42E
330
2
100
AcDbEntity
  8
画層1
 62
     0
100
AcDbLine
 10
510.86
 20
219.5899999999999
 30
0.0
 11
511.8599999999999
 21
219.5899999999999
 31
0.0
  0
LINE
  5
42F
330
2
100
AcDbEntity
  8
画層1
 62
     0
100
AcDbLine
 10
510.86
 20
223.1899999999999
 30
0.0
 11
511.8599999999999
 21
223.1899999999999
 31
0.0
  0
ARC
  5
430
330
2
100
AcDbEntity
  8
画層1
 62
     0
100
AcDbCircle
 10
512.86
 20
219.89
 30
0.0
 40
1.0
100
AcDbArc
 50
90.0
 51
180.0
  0
ARC
  5
431
330
2
100
AcDbEntity
  8
画層1
 62
     0
100
AcDbCircle
 10
512.86
 20
222.8899999999999
 30
0.0
 40
1.0
100
AcDbArc
 50
180.0
 51
270.0
  0
CIRCLE
  5
432
330
2
100
AcDbEntity
  8
画層1
 62
     0
100
AcDbCircle
 10
511.3599999999999
 20
221.3899999999999
 30
0.0
 40
3.0
  0
LINE
  5
433
330
2
100
AcDbEntity
  8
画層1
  6
CENTER
 62
     0
100
AcDbLine
 10
535.7599999999999
 20
192.3899999999999
 30
0.0
 11
545.36
 21
192.3899999999999
 31
0.0
  0
LINE
  5
434
330
2
100
AcDbEntity
  8
画層1
 62
     0
100
AcDbLine
 10
541.36
 20
396.3899999999999
 30
0.0
 11
408.36
 21
396.3899999999999
 31
0.0
  0
DIMENSION
  5
435
330
2
100
AcDbEntity
  8
画層1
 62
     0
100
AcDbDimension
  2
*D29
 10
389.36
 20
421.3899999999999
 30
0.0
 11
465.3599999999999
 21
423.4793908629441
 31
0.0
 70
    32
 71
     5
 42
152.0
  3
STANDARD_WS
100
AcDbAlignedDimension
 13
541.36
 23
406.39
 33
0.0
 14
389.36
 24
359.39
 34
0.0
100
AcDbRotatedDimension
1001
ACAD
1000
DSTYLE
1002
{
1070
     3
1000
(<>)
1070
    47
1040
0.6
1070
   144
1040
1.0
1070
   146
1040
0.5
1070
   173
1070
     0
1070
   284
1070
     8
1070
   340
1005
2A
1070
   341
1005
2B
1070
   342
1005
2B
1070
   343
1005
2B
1002
}
  0
DIMENSION
  5
442
330
2
100
AcDbEntity
  8
画層1
 62
     0
100
AcDbDimension
  2
*D28
 10
365.36
 20
435.39
 30
0.0
 11
453.3599999999999
 21
437.27
 31
0.0
 70
    32
 71
     5
 42
176.0
  3
STANDARD_WS
100
AcDbAlignedDimension
 13
541.36
 23
406.39
 33
0.0
 14
365.36
 24
391.99
 34
0.0
100
AcDbRotatedDimension
1001
ACAD
1000
DSTYLE
1002
{
1070
    47
1040
0.6
1070
   144
1040
1.0
1070
   146
1040
0.5
1070
   173
1070
     0
1070
   284
1070
     8
1070
   340
1005
2A
1070
   341
1005
2B
1070
   342
1005
2B
1070
   343
1005
2B
1002
}
  0
DIMENSION
  5
44F
330
2
100
AcDbEntity
  8
画層1
 62
     0
100
AcDbDimension
  2
*D30
 10
378.36
 20
421.3899999999999
 30
0.0
 11
383.8599999999999
 21
423.2699999999999
 31
0.0
 70
    32
 71
     5
 42
11.0
  3
STANDARD_WS
100
AcDbAlignedDimension
 13
389.36
 23
359.39
 33
0.0
 14
378.36
 24
359.39
 34
0.0
100
AcDbRotatedDimension
1001
ACAD
1000
DSTYLE
1002
{
1070
   279
1070
     1
1070
    47
1040
0.6
1070
   144
1040
1.0
1070
   146
1040
0.5
1070
   173
1070
     0
1070
   284
1070
     8
1070
   340
1005
2A
1070
   341
1005
2B
1070
   342
1005
2B
1070
   343
1005
2B
1002
}
  0
LINE
  5
45C
330
2
100
AcDbEntity
  8
画層1
  6
DASHED2
 62
     0
100
AcDbLine
 10
368.16
 20
359.39
 30
0.0
 11
395.56
 21
359.39
 31
0.0
  0
LINE
  5
45D
330
2
100
AcDbEntity
  8
画層1
  6
DASHED2
 62
     0
100
AcDbLine
 10
389.36
 20
333.51
 30
0.0
 11
389.36
 21
325.51
 31
0.0
  0
LINE
  5
45E
330
2
100
AcDbEntity
  8
画層1
  6
DASHED2
 62
     0
100
AcDbLine
 10
385.16
 20
331.51
 30
0.0
 11
385.16
 21
327.51
 31
0.0
  0
LINE
  5
45F
330
2
100
AcDbEntity
  8
画層1
  6
DASHED2
 62
     0
100
AcDbLine
 10
388.16
 20
333.51
 30
0.0
 11
388.16
 21
325.51
 31
0.0
  0
LINE
  5
460
330
2
100
AcDbEntity
  8
画層1
  6
DASHED2
 62
     0
100
AcDbLine
 10
387.36
 20
332.5099999999999
 30
0.0
 11
387.36
 21
326.5099999999999
 31
0.0
  0
LINE
  5
461
330
2
100
AcDbEntity
  8
画層1
  6
DASHED2
 62
     0
100
AcDbLine
 10
382.56
 20
306.51
 30
0.0
 11
382.56
 21
305.01
 31
0.0
  0
LINE
  5
462
330
2
100
AcDbEntity
  8
画層1
  6
DASHED2
 62
     0
100
AcDbLine
 10
376.36
 20
308.7699999999999
 30
0.0
 11
376.36
 21
302.7699999999999
 31
0.0
  0
LINE
  5
463
330
2
100
AcDbEntity
  8
画層1
  6
DASHED2
 62
     0
100
AcDbLine
 10
374.16
 20
307.77
 30
0.0
 11
374.16
 21
303.77
 31
0.0
  0
LINE
  5
464
330
2
100
AcDbEntity
  8
画層1
  6
DASHED2
 62
     0
100
AcDbLine
 10
378.36
 20
309.7699999999999
 30
0.0
 11
378.36
 21
301.77
 31
0.0
  0
LINE
  5
465
330
2
100
AcDbEntity
  8
画層1
  6
DASHED2
 62
     0
100
AcDbLine
 10
377.16
 20
309.7699999999999
 30
0.0
 11
377.16
 21
301.77
 31
0.0
  0
LINE
  5
466
330
2
100
AcDbEntity
  8
画層1
  6
DASHED2
 62
     0
100
AcDbLine
 10
377.16
 20
302.7699999999999
 30
0.0
 11
375.16
 21
302.7699999999999
 31
0.0
  0
LINE
  5
467
330
2
100
AcDbEntity
  8
画層1
  6
DASHED2
 62
     0
100
AcDbLine
 10
377.16
 20
283.7699999999999
 30
0.0
 11
375.16
 21
283.7699999999999
 31
0.0
  0
LINE
  5
468
330
2
100
AcDbEntity
  8
画層1
  6
DASHED2
 62
     0
100
AcDbLine
 10
377.16
 20
299.2699999999999
 30
0.0
 11
375.16
 21
299.2699999999999
 31
0.0
  0
LINE
  5
469
330
2
100
AcDbEntity
  8
画層1
  6
DASHED2
 62
     0
100
AcDbLine
 10
377.16
 20
293.27
 30
0.0
 11
375.16
 21
293.27
 31
0.0
  0
LINE
  5
46A
330
2
100
AcDbEntity
  8
画層1
  6
DASHED2
 62
     0
100
AcDbLine
 10
377.16
 20
289.77
 30
0.0
 11
375.16
 21
289.77
 31
0.0
  0
LINE
  5
46B
330
2
100
AcDbEntity
  8
画層1
  6
DASHED2
 62
     0
100
AcDbLine
 10
378.36
 20
301.77
 30
0.0
 11
369.56
 21
301.77
 31
0.0
  0
LINE
  5
46C
330
2
100
AcDbEntity
  8
画層1
  6
DASHED2
 62
     0
100
AcDbLine
 10
369.56
 20
300.2699999999999
 30
0.0
 11
378.36
 21
300.2699999999999
 31
0.0
  0
LINE
  5
46D
330
2
100
AcDbEntity
  8
画層1
  6
DASHED2
 62
     0
100
AcDbLine
 10
378.36
 20
292.2699999999999
 30
0.0
 11
369.56
 21
292.2699999999999
 31
0.0
  0
LINE
  5
46E
330
2
100
AcDbEntity
  8
画層1
  6
DASHED2
 62
     0
100
AcDbLine
 10
369.56
 20
290.7699999999999
 30
0.0
 11
378.36
 21
290.7699999999999
 31
0.0
  0
LINE
  5
46F
330
2
100
AcDbEntity
  8
画層1
  6
DASHED2
 62
     0
100
AcDbLine
 10
378.36
 20
282.7699999999999
 30
0.0
 11
369.56
 21
282.7699999999999
 31
0.0
  0
ARC
  5
470
330
2
100
AcDbEntity
  8
画層1
  6
DASHED2
 62
     0
100
AcDbCircle
 10
375.16
 20
294.2699999999999
 30
0.0
 40
1.0
100
AcDbArc
 50
180.0
 51
270.0
  0
ARC
  5
471
330
2
100
AcDbEntity
  8
画層1
  6
DASHED2
 62
     0
100
AcDbCircle
 10
375.16
 20
284.7699999999999
 30
0.0
 40
1.0
100
AcDbArc
 50
180.0
 51
270.0
  0
ARC
  5
472
330
2
100
AcDbEntity
  8
画層1
  6
DASHED2
 62
     0
100
AcDbCircle
 10
375.16
 20
288.7699999999999
 30
0.0
 40
1.0
100
AcDbArc
 50
90.0
 51
180.0
  0
LINE
  5
473
330
2
100
AcDbEntity
  8
画層1
  6
DASHED2
 62
     0
100
AcDbLine
 10
374.16
 20
288.7699999999999
 30
0.0
 11
374.16
 21
284.7699999999999
 31
0.0
  0
ARC
  5
474
330
2
100
AcDbEntity
  8
画層1
  6
DASHED2
 62
     0
100
AcDbCircle
 10
375.16
 20
298.2699999999999
 30
0.0
 40
1.0
100
AcDbArc
 50
90.0
 51
180.0
  0
LINE
  5
475
330
2
100
AcDbEntity
  8
画層1
  6
DASHED2
 62
     0
100
AcDbLine
 10
374.16
 20
298.2699999999999
 30
0.0
 11
374.16
 21
294.2699999999999
 31
0.0
  0
ARC
  5
476
330
2
100
AcDbEntity
  8
画層1
  6
DASHED2
 62
     0
100
AcDbCircle
 10
375.16
 20
303.77
 30
0.0
 40
1.0
100
AcDbArc
 50
180.0
 51
270.0
  0
LINE
  5
477
330
2
100
AcDbEntity
  8
画層1
  6
DASHED2
 62
     0
100
AcDbLine
 10
389.36
 20
295.5099999999999
 30
0.0
 11
389.36
 21
287.5099999999999
 31
0.0
  0
LINE
  5
478
330
2
100
AcDbEntity
  8
画層1
  6
DASHED2
 62
     0
100
AcDbLine
 10
387.36
 20
294.51
 30
0.0
 11
387.36
 21
288.5099999999999
 31
0.0
  0
LINE
  5
479
330
2
100
AcDbEntity
  8
画層1
  6
DASHED2
 62
     0
100
AcDbLine
 10
388.16
 20
295.5099999999999
 30
0.0
 11
388.16
 21
287.5099999999999
 31
0.0
  0
ARC
  5
47A
330
2
100
AcDbEntity
  8
画層1
  6
DASHED2
 62
     0
100
AcDbCircle
 10
386.16
 20
293.5099999999999
 30
0.0
 40
1.0
100
AcDbArc
 50
90.0
 51
180.0
  0
LINE
  5
47B
330
2
100
AcDbEntity
  8
画層1
  6
DASHED2
 62
     0
100
AcDbLine
 10
376.36
 20
299.2699999999999
 30
0.0
 11
376.36
 21
293.27
 31
0.0
  0
LINE
  5
47C
330
2
100
AcDbEntity
  8
画層1
  6
DASHED2
 62
     0
100
AcDbLine
 10
378.36
 20
300.2699999999999
 30
0.0
 11
378.36
 21
292.2699999999999
 31
0.0
  0
LINE
  5
47D
330
2
100
AcDbEntity
  8
画層1
  6
DASHED2
 62
     0
100
AcDbLine
 10
377.16
 20
300.2699999999999
 30
0.0
 11
377.16
 21
292.2699999999999
 31
0.0
  0
LINE
  5
47E
330
2
100
AcDbEntity
  8
画層1
  6
DASHED2
 62
     0
100
AcDbLine
 10
389.36
 20
287.5099999999999
 30
0.0
 11
382.56
 21
287.5099999999999
 31
0.0
  0
LINE
  5
47F
330
2
100
AcDbEntity
  8
画層1
  6
DASHED2
 62
     0
100
AcDbLine
 10
382.56
 20
286.01
 30
0.0
 11
389.36
 21
286.01
 31
0.0
  0
LINE
  5
480
330
2
100
AcDbEntity
  8
画層1
  6
DASHED2
 62
     0
100
AcDbLine
 10
382.56
 20
287.5099999999999
 30
0.0
 11
382.56
 21
286.01
 31
0.0
  0
LINE
  5
481
330
2
100
AcDbEntity
  8
画層1
  6
DASHED2
 62
     0
100
AcDbLine
 10
376.36
 20
289.77
 30
0.0
 11
376.36
 21
283.7699999999999
 31
0.0
  0
LINE
  5
482
330
2
100
AcDbEntity
  8
画層1
  6
DASHED2
 62
     0
100
AcDbLine
 10
377.16
 20
290.7699999999999
 30
0.0
 11
377.16
 21
282.7699999999999
 31
0.0
  0
LINE
  5
483
330
2
100
AcDbEntity
  8
画層1
  6
DASHED2
 62
     0
100
AcDbLine
 10
378.36
 20
290.7699999999999
 30
0.0
 11
378.36
 21
282.7699999999999
 31
0.0
  0
LINE
  5
484
330
2
100
AcDbEntity
  8
画層1
  6
DASHED2
 62
     0
100
AcDbLine
 10
388.16
 20
285.0099999999999
 30
0.0
 11
386.16
 21
285.0099999999999
 31
0.0
  0
ARC
  5
485
330
2
100
AcDbEntity
  8
画層1
  6
DASHED2
 62
     0
100
AcDbCircle
 10
386.16
 20
284.0099999999999
 30
0.0
 40
1.0
100
AcDbArc
 50
90.0
 51
180.0
  0
LINE
  5
486
330
2
100
AcDbEntity
  8
画層1
  6
DASHED2
 62
     0
100
AcDbLine
 10
388.16
 20
288.5099999999999
 30
0.0
 11
386.16
 21
288.5099999999999
 31
0.0
  0
LINE
  5
487
330
2
100
AcDbEntity
  8
画層1
  6
DASHED2
 62
     0
100
AcDbLine
 10
385.16
 20
293.5099999999999
 30
0.0
 11
385.16
 21
289.5099999999999
 31
0.0
  0
ARC
  5
488
330
2
100
AcDbEntity
  8
画層1
  6
DASHED2
 62
     0
100
AcDbCircle
 10
386.16
 20
289.5099999999999
 30
0.0
 40
1.0
100
AcDbArc
 50
180.0
 51
270.0
  0
LINE
  5
489
330
2
100
AcDbEntity
  8
画層1
  6
DASHED2
 62
     0
100
AcDbLine
 10
382.56
 20
305.01
 30
0.0
 11
389.36
 21
305.01
 31
0.0
  0
LINE
  5
48A
330
2
100
AcDbEntity
  8
画層1
  6
DASHED2
 62
     0
100
AcDbLine
 10
389.36
 20
297.01
 30
0.0
 11
382.56
 21
297.01
 31
0.0
  0
LINE
  5
48B
330
2
100
AcDbEntity
  8
画層1
  6
DASHED2
 62
     0
100
AcDbLine
 10
382.56
 20
295.5099999999999
 30
0.0
 11
389.36
 21
295.5099999999999
 31
0.0
  0
LINE
  5
48C
330
2
100
AcDbEntity
  8
画層1
  6
DASHED2
 62
     0
100
AcDbLine
 10
382.56
 20
297.01
 30
0.0
 11
382.56
 21
295.5099999999999
 31
0.0
  0
ARC
  5
48D
330
2
100
AcDbEntity
  8
画層1
  6
DASHED2
 62
     0
100
AcDbCircle
 10
386.16
 20
303.01
 30
0.0
 40
1.0
100
AcDbArc
 50
90.0
 51
180.0
  0
LINE
  5
48E
330
2
100
AcDbEntity
  8
画層1
  6
DASHED2
 62
     0
100
AcDbLine
 10
388.16
 20
304.0099999999999
 30
0.0
 11
386.16
 21
304.0099999999999
 31
0.0
  0
ARC
  5
48F
330
2
100
AcDbEntity
  8
画層1
  6
DASHED2
 62
     0
100
AcDbCircle
 10
386.16
 20
299.0099999999999
 30
0.0
 40
1.0
100
AcDbArc
 50
180.0
 51
270.0
  0
LINE
  5
490
330
2
100
AcDbEntity
  8
画層1
  6
DASHED2
 62
     0
100
AcDbLine
 10
388.16
 20
298.0099999999999
 30
0.0
 11
386.16
 21
298.0099999999999
 31
0.0
  0
LINE
  5
491
330
2
100
AcDbEntity
  8
画層1
  6
DASHED2
 62
     0
100
AcDbLine
 10
388.16
 20
294.51
 30
0.0
 11
386.16
 21
294.51
 31
0.0
  0
LINE
  5
492
330
2
100
AcDbEntity
  8
画層1
  6
DASHED2
 62
     0
100
AcDbLine
 10
389.36
 20
305.01
 30
0.0
 11
389.36
 21
297.01
 31
0.0
  0
LINE
  5
493
330
2
100
AcDbEntity
  8
画層1
  6
DASHED2
 62
     0
100
AcDbLine
 10
388.16
 20
305.01
 30
0.0
 11
388.16
 21
297.01
 31
0.0
  0
LINE
  5
494
330
2
100
AcDbEntity
  8
画層1
  6
DASHED2
 62
     0
100
AcDbLine
 10
385.16
 20
303.01
 30
0.0
 11
385.16
 21
299.0099999999999
 31
0.0
  0
LINE
  5
495
330
2
100
AcDbEntity
  8
画層1
  6
DASHED2
 62
     0
100
AcDbLine
 10
387.36
 20
304.0099999999999
 30
0.0
 11
387.36
 21
298.0099999999999
 31
0.0
  0
LINE
  5
496
330
2
100
AcDbEntity
  8
画層1
  6
DASHED2
 62
     0
100
AcDbLine
 10
377.16
 20
308.7699999999999
 30
0.0
 11
375.16
 21
308.7699999999999
 31
0.0
  0
LINE
  5
497
330
2
100
AcDbEntity
  8
画層1
  6
DASHED2
 62
     0
100
AcDbLine
 10
377.16
 20
321.7699999999999
 30
0.0
 11
375.16
 21
321.7699999999999
 31
0.0
  0
LINE
  5
498
330
2
100
AcDbEntity
  8
画層1
  6
DASHED2
 62
     0
100
AcDbLine
 10
377.16
 20
318.27
 30
0.0
 11
375.16
 21
318.27
 31
0.0
  0
LINE
  5
499
330
2
100
AcDbEntity
  8
画層1
  6
DASHED2
 62
     0
100
AcDbLine
 10
377.16
 20
327.7699999999999
 30
0.0
 11
375.16
 21
327.7699999999999
 31
0.0
  0
LINE
  5
49A
330
2
100
AcDbEntity
  8
画層1
  6
DASHED2
 62
     0
100
AcDbLine
 10
377.16
 20
312.27
 30
0.0
 11
375.16
 21
312.27
 31
0.0
  0
LINE
  5
49B
330
2
100
AcDbEntity
  8
画層1
  6
DASHED2
 62
     0
100
AcDbLine
 10
369.56
 20
328.77
 30
0.0
 11
378.36
 21
328.77
 31
0.0
  0
LINE
  5
49C
330
2
100
AcDbEntity
  8
画層1
  6
DASHED2
 62
     0
100
AcDbLine
 10
378.36
 20
320.7699999999999
 30
0.0
 11
369.56
 21
320.7699999999999
 31
0.0
  0
LINE
  5
49D
330
2
100
AcDbEntity
  8
画層1
  6
DASHED2
 62
     0
100
AcDbLine
 10
369.56
 20
319.2699999999999
 30
0.0
 11
378.36
 21
319.2699999999999
 31
0.0
  0
LINE
  5
49E
330
2
100
AcDbEntity
  8
画層1
  6
DASHED2
 62
     0
100
AcDbLine
 10
378.36
 20
311.2699999999999
 30
0.0
 11
369.56
 21
311.2699999999999
 31
0.0
  0
LINE
  5
49F
330
2
100
AcDbEntity
  8
画層1
  6
DASHED2
 62
     0
100
AcDbLine
 10
369.56
 20
309.7699999999999
 30
0.0
 11
378.36
 21
309.7699999999999
 31
0.0
  0
LINE
  5
4A0
330
2
100
AcDbEntity
  8
画層1
  6
DASHED2
 62
     0
100
AcDbLine
 10
374.16
 20
317.2699999999999
 30
0.0
 11
374.16
 21
313.2699999999999
 31
0.0
  0
ARC
  5
4A1
330
2
100
AcDbEntity
  8
画層1
  6
DASHED2
 62
     0
100
AcDbCircle
 10
375.16
 20
307.77
 30
0.0
 40
1.0
100
AcDbArc
 50
90.0
 51
180.0
  0
ARC
  5
4A2
330
2
100
AcDbEntity
  8
画層1
  6
DASHED2
 62
     0
100
AcDbCircle
 10
375.16
 20
313.2699999999999
 30
0.0
 40
1.0
100
AcDbArc
 50
180.0
 51
270.0
  0
ARC
  5
4A3
330
2
100
AcDbEntity
  8
画層1
  6
DASHED2
 62
     0
100
AcDbCircle
 10
375.16
 20
326.77
 30
0.0
 40
1.0
100
AcDbArc
 50
90.0
 51
180.0
  0
ARC
  5
4A4
330
2
100
AcDbEntity
  8
画層1
  6
DASHED2
 62
     0
100
AcDbCircle
 10
375.16
 20
322.77
 30
0.0
 40
1.0
100
AcDbArc
 50
180.0
 51
270.0
  0
ARC
  5
4A5
330
2
100
AcDbEntity
  8
画層1
  6
DASHED2
 62
     0
100
AcDbCircle
 10
375.16
 20
317.2699999999999
 30
0.0
 40
1.0
100
AcDbArc
 50
90.0
 51
180.0
  0
LINE
  5
4A6
330
2
100
AcDbEntity
  8
画層1
  6
DASHED2
 62
     0
100
AcDbLine
 10
374.16
 20
326.77
 30
0.0
 11
374.16
 21
322.77
 31
0.0
  0
LINE
  5
4A7
330
2
100
AcDbEntity
  8
画層1
  6
DASHED2
 62
     0
100
AcDbLine
 10
389.36
 20
324.0099999999999
 30
0.0
 11
389.36
 21
316.0099999999999
 31
0.0
  0
LINE
  5
4A8
330
2
100
AcDbEntity
  8
画層1
  6
DASHED2
 62
     0
100
AcDbLine
 10
388.16
 20
324.0099999999999
 30
0.0
 11
388.16
 21
316.0099999999999
 31
0.0
  0
ARC
  5
4A9
330
2
100
AcDbEntity
  8
画層1
  6
DASHED2
 62
     0
100
AcDbCircle
 10
386.16
 20
318.0099999999999
 30
0.0
 40
1.0
100
AcDbArc
 50
180.0
 51
270.0
  0
LINE
  5
4AA
330
2
100
AcDbEntity
  8
画層1
  6
DASHED2
 62
     0
100
AcDbLine
 10
387.36
 20
323.01
 30
0.0
 11
387.36
 21
317.01
 31
0.0
  0
LINE
  5
4AB
330
2
100
AcDbEntity
  8
画層1
  6
DASHED2
 62
     0
100
AcDbLine
 10
376.36
 20
318.27
 30
0.0
 11
376.36
 21
312.27
 31
0.0
  0
LINE
  5
4AC
330
2
100
AcDbEntity
  8
画層1
  6
DASHED2
 62
     0
100
AcDbLine
 10
377.16
 20
319.2699999999999
 30
0.0
 11
377.16
 21
311.2699999999999
 31
0.0
  0
LINE
  5
4AD
330
2
100
AcDbEntity
  8
画層1
  6
DASHED2
 62
     0
100
AcDbLine
 10
378.36
 20
319.2699999999999
 30
0.0
 11
378.36
 21
311.2699999999999
 31
0.0
  0
LINE
  5
4AE
330
2
100
AcDbEntity
  8
画層1
  6
DASHED2
 62
     0
100
AcDbLine
 10
389.36
 20
306.51
 30
0.0
 11
382.56
 21
306.51
 31
0.0
  0
LINE
  5
4AF
330
2
100
AcDbEntity
  8
画層1
  6
DASHED2
 62
     0
100
AcDbLine
 10
389.36
 20
306.51
 30
0.0
 11
382.56
 21
306.51
 31
0.0
  0
LINE
  5
4B0
330
2
100
AcDbEntity
  8
画層1
  6
DASHED2
 62
     0
100
AcDbLine
 10
389.36
 20
316.0099999999999
 30
0.0
 11
382.56
 21
316.0099999999999
 31
0.0
  0
LINE
  5
4B1
330
2
100
AcDbEntity
  8
画層1
  6
DASHED2
 62
     0
100
AcDbLine
 10
382.56
 20
314.5099999999999
 30
0.0
 11
389.36
 21
314.5099999999999
 31
0.0
  0
LINE
  5
4B2
330
2
100
AcDbEntity
  8
画層1
  6
DASHED2
 62
     0
100
AcDbLine
 10
382.56
 20
316.0099999999999
 30
0.0
 11
382.56
 21
314.5099999999999
 31
0.0
  0
LINE
  5
4B3
330
2
100
AcDbEntity
  8
画層1
  6
DASHED2
 62
     0
100
AcDbLine
 10
385.16
 20
312.5099999999999
 30
0.0
 11
385.16
 21
308.51
 31
0.0
  0
LINE
  5
4B4
330
2
100
AcDbEntity
  8
画層1
  6
DASHED2
 62
     0
100
AcDbLine
 10
387.36
 20
313.5099999999999
 30
0.0
 11
387.36
 21
307.5099999999999
 31
0.0
  0
LINE
  5
4B5
330
2
100
AcDbEntity
  8
画層1
  6
DASHED2
 62
     0
100
AcDbLine
 10
389.36
 20
314.5099999999999
 30
0.0
 11
389.36
 21
306.51
 31
0.0
  0
LINE
  5
4B6
330
2
100
AcDbEntity
  8
画層1
  6
DASHED2
 62
     0
100
AcDbLine
 10
388.16
 20
314.5099999999999
 30
0.0
 11
388.16
 21
306.51
 31
0.0
  0
LINE
  5
4B7
330
2
100
AcDbEntity
  8
画層1
  6
DASHED2
 62
     0
100
AcDbLine
 10
388.16
 20
307.5099999999999
 30
0.0
 11
386.16
 21
307.5099999999999
 31
0.0
  0
ARC
  5
4B8
330
2
100
AcDbEntity
  8
画層1
  6
DASHED2
 62
     0
100
AcDbCircle
 10
386.16
 20
308.51
 30
0.0
 40
1.0
100
AcDbArc
 50
180.0
 51
270.0
  0
LINE
  5
4B9
330
2
100
AcDbEntity
  8
画層1
  6
DASHED2
 62
     0
100
AcDbLine
 10
388.16
 20
317.01
 30
0.0
 11
386.16
 21
317.01
 31
0.0
  0
LINE
  5
4BA
330
2
100
AcDbEntity
  8
画層1
  6
DASHED2
 62
     0
100
AcDbLine
 10
388.16
 20
313.5099999999999
 30
0.0
 11
386.16
 21
313.5099999999999
 31
0.0
  0
ARC
  5
4BB
330
2
100
AcDbEntity
  8
画層1
  6
DASHED2
 62
     0
100
AcDbCircle
 10
386.16
 20
312.5099999999999
 30
0.0
 40
1.0
100
AcDbArc
 50
90.0
 51
180.0
  0
LINE
  5
4BC
330
2
100
AcDbEntity
  8
画層1
  6
DASHED2
 62
     0
100
AcDbLine
 10
382.56
 20
324.0099999999999
 30
0.0
 11
389.36
 21
324.0099999999999
 31
0.0
  0
LINE
  5
4BD
330
2
100
AcDbEntity
  8
画層1
  6
DASHED2
 62
     0
100
AcDbLine
 10
389.36
 20
325.51
 30
0.0
 11
382.56
 21
325.51
 31
0.0
  0
LINE
  5
4BE
330
2
100
AcDbEntity
  8
画層1
  6
DASHED2
 62
     0
100
AcDbLine
 10
382.56
 20
325.51
 30
0.0
 11
382.56
 21
324.0099999999999
 31
0.0
  0
LINE
  5
4BF
330
2
100
AcDbEntity
  8
画層1
  6
DASHED2
 62
     0
100
AcDbLine
 10
376.36
 20
327.7699999999999
 30
0.0
 11
376.36
 21
321.7699999999999
 31
0.0
  0
LINE
  5
4C0
330
2
100
AcDbEntity
  8
画層1
  6
DASHED2
 62
     0
100
AcDbLine
 10
378.36
 20
328.77
 30
0.0
 11
378.36
 21
320.7699999999999
 31
0.0
  0
LINE
  5
4C1
330
2
100
AcDbEntity
  8
画層1
  6
DASHED2
 62
     0
100
AcDbLine
 10
377.16
 20
328.77
 30
0.0
 11
377.16
 21
320.7699999999999
 31
0.0
  0
ARC
  5
4C2
330
2
100
AcDbEntity
  8
画層1
  6
DASHED2
 62
     0
100
AcDbCircle
 10
386.16
 20
322.0099999999999
 30
0.0
 40
1.0
100
AcDbArc
 50
90.0
 51
180.0
  0
LINE
  5
4C3
330
2
100
AcDbEntity
  8
画層1
  6
DASHED2
 62
     0
100
AcDbLine
 10
388.16
 20
323.01
 30
0.0
 11
386.16
 21
323.01
 31
0.0
  0
LINE
  5
4C4
330
2
100
AcDbEntity
  8
画層1
  6
DASHED2
 62
     0
100
AcDbLine
 10
385.16
 20
322.0099999999999
 30
0.0
 11
385.16
 21
318.0099999999999
 31
0.0
  0
ARC
  5
4C5
330
2
100
AcDbEntity
  8
画層1
  6
DASHED2
 62
     0
100
AcDbCircle
 10
386.16
 20
327.51
 30
0.0
 40
1.0
100
AcDbArc
 50
180.0
 51
270.0
  0
LINE
  5
4C6
330
2
100
AcDbEntity
  8
画層1
  6
DASHED2
 62
     0
100
AcDbLine
 10
388.16
 20
326.5099999999999
 30
0.0
 11
386.16
 21
326.5099999999999
 31
0.0
  0
LINE
  5
4C7
330
2
100
AcDbEntity
  8
画層1
  6
DASHED2
 62
     0
100
AcDbLine
 10
388.16
 20
352.51
 30
0.0
 11
388.16
 21
344.51
 31
0.0
  0
LINE
  5
4C8
330
2
100
AcDbEntity
  8
画層1
  6
DASHED2
 62
     0
100
AcDbLine
 10
389.36
 20
352.51
 30
0.0
 11
389.36
 21
344.51
 31
0.0
  0
LINE
  5
4C9
330
2
100
AcDbEntity
  8
画層1
  6
DASHED2
 62
     0
100
AcDbLine
 10
374.16
 20
355.2699999999999
 30
0.0
 11
374.16
 21
351.2699999999999
 31
0.0
  0
LINE
  5
4CA
330
2
100
AcDbEntity
  8
画層1
  6
DASHED2
 62
     0
100
AcDbLine
 10
376.36
 20
356.2699999999999
 30
0.0
 11
376.36
 21
350.2699999999999
 31
0.0
  0
LINE
  5
4CB
330
2
100
AcDbEntity
  8
画層1
  6
DASHED2
 62
     0
100
AcDbLine
 10
378.36
 20
357.2699999999999
 30
0.0
 11
378.36
 21
349.2699999999999
 31
0.0
  0
LINE
  5
4CC
330
2
100
AcDbEntity
  8
画層1
  6
DASHED2
 62
     0
100
AcDbLine
 10
377.16
 20
357.2699999999999
 30
0.0
 11
377.16
 21
349.2699999999999
 31
0.0
  0
LINE
  5
4CD
330
2
100
AcDbEntity
  8
画層1
  6
DASHED2
 62
     0
100
AcDbLine
 10
377.16
 20
340.7699999999999
 30
0.0
 11
375.16
 21
340.7699999999999
 31
0.0
  0
LINE
  5
4CE
330
2
100
AcDbEntity
  8
画層1
  6
DASHED2
 62
     0
100
AcDbLine
 10
377.16
 20
350.2699999999999
 30
0.0
 11
375.16
 21
350.2699999999999
 31
0.0
  0
LINE
  5
4CF
330
2
100
AcDbEntity
  8
画層1
  6
DASHED2
 62
     0
100
AcDbLine
 10
377.16
 20
346.7699999999999
 30
0.0
 11
375.16
 21
346.7699999999999
 31
0.0
  0
LINE
  5
4D0
330
2
100
AcDbEntity
  8
画層1
  6
DASHED2
 62
     0
100
AcDbLine
 10
378.36
 20
339.7699999999999
 30
0.0
 11
369.56
 21
339.7699999999999
 31
0.0
  0
LINE
  5
4D1
330
2
100
AcDbEntity
  8
画層1
  6
DASHED2
 62
     0
100
AcDbLine
 10
378.36
 20
349.2699999999999
 30
0.0
 11
369.56
 21
349.2699999999999
 31
0.0
  0
LINE
  5
4D2
330
2
100
AcDbEntity
  8
画層1
  6
DASHED2
 62
     0
100
AcDbLine
 10
369.56
 20
347.77
 30
0.0
 11
378.36
 21
347.77
 31
0.0
  0
LINE
  5
4D3
330
2
100
AcDbEntity
  8
画層1
  6
DASHED2
 62
     0
100
AcDbLine
 10
377.16
 20
331.2699999999999
 30
0.0
 11
375.16
 21
331.2699999999999
 31
0.0
  0
LINE
  5
4D4
330
2
100
AcDbEntity
  8
画層1
  6
DASHED2
 62
     0
100
AcDbLine
 10
377.16
 20
337.27
 30
0.0
 11
375.16
 21
337.27
 31
0.0
  0
LINE
  5
4D5
330
2
100
AcDbEntity
  8
画層1
  6
DASHED2
 62
     0
100
AcDbLine
 10
369.56
 20
338.2699999999999
 30
0.0
 11
378.36
 21
338.2699999999999
 31
0.0
  0
LINE
  5
4D6
330
2
100
AcDbEntity
  8
画層1
  6
DASHED2
 62
     0
100
AcDbLine
 10
378.36
 20
330.2699999999999
 30
0.0
 11
369.56
 21
330.2699999999999
 31
0.0
  0
ARC
  5
4D7
330
2
100
AcDbEntity
  8
画層1
  6
DASHED2
 62
     0
100
AcDbCircle
 10
375.16
 20
332.2699999999999
 30
0.0
 40
1.0
100
AcDbArc
 50
180.0
 51
270.0
  0
ARC
  5
4D8
330
2
100
AcDbEntity
  8
画層1
  6
DASHED2
 62
     0
100
AcDbCircle
 10
375.16
 20
336.2699999999999
 30
0.0
 40
1.0
100
AcDbArc
 50
90.0
 51
180.0
  0
LINE
  5
4D9
330
2
100
AcDbEntity
  8
画層1
  6
DASHED2
 62
     0
100
AcDbLine
 10
374.16
 20
336.2699999999999
 30
0.0
 11
374.16
 21
332.2699999999999
 31
0.0
  0
ARC
  5
4DA
330
2
100
AcDbEntity
  8
画層1
  6
DASHED2
 62
     0
100
AcDbCircle
 10
375.16
 20
345.7699999999999
 30
0.0
 40
1.0
100
AcDbArc
 50
90.0
 51
180.0
  0
LINE
  5
4DB
330
2
100
AcDbEntity
  8
画層1
  6
DASHED2
 62
     0
100
AcDbLine
 10
374.16
 20
345.7699999999999
 30
0.0
 11
374.16
 21
341.7699999999999
 31
0.0
  0
ARC
  5
4DC
330
2
100
AcDbEntity
  8
画層1
  6
DASHED2
 62
     0
100
AcDbCircle
 10
375.16
 20
341.7699999999999
 30
0.0
 40
1.0
100
AcDbArc
 50
180.0
 51
270.0
  0
ARC
  5
4DD
330
2
100
AcDbEntity
  8
画層1
  6
DASHED2
 62
     0
100
AcDbCircle
 10
375.16
 20
351.2699999999999
 30
0.0
 40
1.0
100
AcDbArc
 50
180.0
 51
270.0
  0
LINE
  5
4DE
330
2
100
AcDbEntity
  8
画層1
  6
DASHED2
 62
     0
100
AcDbLine
 10
377.16
 20
347.77
 30
0.0
 11
377.16
 21
339.7699999999999
 31
0.0
  0
LINE
  5
4DF
330
2
100
AcDbEntity
  8
画層1
  6
DASHED2
 62
     0
100
AcDbLine
 10
378.36
 20
347.77
 30
0.0
 11
378.36
 21
339.7699999999999
 31
0.0
  0
LINE
  5
4E0
330
2
100
AcDbEntity
  8
画層1
  6
DASHED2
 62
     0
100
AcDbLine
 10
389.36
 20
343.0099999999999
 30
0.0
 11
389.36
 21
335.0099999999999
 31
0.0
  0
LINE
  5
4E1
330
2
100
AcDbEntity
  8
画層1
  6
DASHED2
 62
     0
100
AcDbLine
 10
387.36
 20
342.01
 30
0.0
 11
387.36
 21
336.01
 31
0.0
  0
LINE
  5
4E2
330
2
100
AcDbEntity
  8
画層1
  6
DASHED2
 62
     0
100
AcDbLine
 10
388.16
 20
343.0099999999999
 30
0.0
 11
388.16
 21
335.0099999999999
 31
0.0
  0
LINE
  5
4E3
330
2
100
AcDbEntity
  8
画層1
  6
DASHED2
 62
     0
100
AcDbLine
 10
385.16
 20
341.0099999999999
 30
0.0
 11
385.16
 21
337.0099999999999
 31
0.0
  0
LINE
  5
4E4
330
2
100
AcDbEntity
  8
画層1
  6
DASHED2
 62
     0
100
AcDbLine
 10
382.56
 20
333.51
 30
0.0
 11
389.36
 21
333.51
 31
0.0
  0
LINE
  5
4E5
330
2
100
AcDbEntity
  8
画層1
  6
DASHED2
 62
     0
100
AcDbLine
 10
389.36
 20
335.0099999999999
 30
0.0
 11
382.56
 21
335.0099999999999
 31
0.0
  0
LINE
  5
4E6
330
2
100
AcDbEntity
  8
画層1
  6
DASHED2
 62
     0
100
AcDbLine
 10
382.56
 20
335.0099999999999
 30
0.0
 11
382.56
 21
333.51
 31
0.0
  0
LINE
  5
4E7
330
2
100
AcDbEntity
  8
画層1
  6
DASHED2
 62
     0
100
AcDbLine
 10
376.36
 20
337.27
 30
0.0
 11
376.36
 21
331.2699999999999
 31
0.0
  0
LINE
  5
4E8
330
2
100
AcDbEntity
  8
画層1
  6
DASHED2
 62
     0
100
AcDbLine
 10
377.16
 20
338.2699999999999
 30
0.0
 11
377.16
 21
330.2699999999999
 31
0.0
  0
LINE
  5
4E9
330
2
100
AcDbEntity
  8
画層1
  6
DASHED2
 62
     0
100
AcDbLine
 10
378.36
 20
338.2699999999999
 30
0.0
 11
378.36
 21
330.2699999999999
 31
0.0
  0
ARC
  5
4EA
330
2
100
AcDbEntity
  8
画層1
  6
DASHED2
 62
     0
100
AcDbCircle
 10
386.16
 20
331.51
 30
0.0
 40
1.0
100
AcDbArc
 50
90.0
 51
180.0
  0
LINE
  5
4EB
330
2
100
AcDbEntity
  8
画層1
  6
DASHED2
 62
     0
100
AcDbLine
 10
388.16
 20
332.5099999999999
 30
0.0
 11
386.16
 21
332.5099999999999
 31
0.0
  0
LINE
  5
4EC
330
2
100
AcDbEntity
  8
画層1
  6
DASHED2
 62
     0
100
AcDbLine
 10
388.16
 20
336.01
 30
0.0
 11
386.16
 21
336.01
 31
0.0
  0
ARC
  5
4ED
330
2
100
AcDbEntity
  8
画層1
  6
DASHED2
 62
     0
100
AcDbCircle
 10
386.16
 20
337.0099999999999
 30
0.0
 40
1.0
100
AcDbArc
 50
180.0
 51
270.0
  0
LINE
  5
4EE
330
2
100
AcDbEntity
  8
画層1
  6
DASHED2
 62
     0
100
AcDbLine
 10
382.56
 20
343.0099999999999
 30
0.0
 11
389.36
 21
343.0099999999999
 31
0.0
  0
LINE
  5
4EF
330
2
100
AcDbEntity
  8
画層1
  6
DASHED2
 62
     0
100
AcDbLine
 10
389.36
 20
344.51
 30
0.0
 11
382.56
 21
344.51
 31
0.0
  0
LINE
  5
4F0
330
2
100
AcDbEntity
  8
画層1
  6
DASHED2
 62
     0
100
AcDbLine
 10
376.36
 20
346.7699999999999
 30
0.0
 11
376.36
 21
340.7699999999999
 31
0.0
  0
LINE
  5
4F1
330
2
100
AcDbEntity
  8
画層1
  6
DASHED2
 62
     0
100
AcDbLine
 10
382.56
 20
344.51
 30
0.0
 11
382.56
 21
343.0099999999999
 31
0.0
  0
ARC
  5
4F2
330
2
100
AcDbEntity
  8
画層1
  6
DASHED2
 62
     0
100
AcDbCircle
 10
386.16
 20
346.51
 30
0.0
 40
1.0
100
AcDbArc
 50
180.0
 51
270.0
  0
LINE
  5
4F3
330
2
100
AcDbEntity
  8
画層1
  6
DASHED2
 62
     0
100
AcDbLine
 10
387.36
 20
351.5099999999999
 30
0.0
 11
387.36
 21
345.5099999999999
 31
0.0
  0
ARC
  5
4F4
330
2
100
AcDbEntity
  8
画層1
  6
DASHED2
 62
     0
100
AcDbCircle
 10
386.16
 20
341.0099999999999
 30
0.0
 40
1.0
100
AcDbArc
 50
90.0
 51
180.0
  0
LINE
  5
4F5
330
2
100
AcDbEntity
  8
画層1
  6
DASHED2
 62
     0
100
AcDbLine
 10
388.16
 20
342.01
 30
0.0
 11
386.16
 21
342.01
 31
0.0
  0
LINE
  5
4F6
330
2
100
AcDbEntity
  8
画層1
  6
DASHED2
 62
     0
100
AcDbLine
 10
388.16
 20
345.5099999999999
 30
0.0
 11
386.16
 21
345.5099999999999
 31
0.0
  0
ARC
  5
4F7
330
2
100
AcDbEntity
  8
画層1
  6
DASHED2
 62
     0
100
AcDbCircle
 10
386.16
 20
350.51
 30
0.0
 40
1.0
100
AcDbArc
 50
90.0
 51
180.0
  0
LINE
  5
4F8
330
2
100
AcDbEntity
  8
画層1
  6
DASHED2
 62
     0
100
AcDbLine
 10
388.16
 20
351.5099999999999
 30
0.0
 11
386.16
 21
351.5099999999999
 31
0.0
  0
LINE
  5
4F9
330
2
100
AcDbEntity
  8
画層1
  6
DASHED2
 62
     0
100
AcDbLine
 10
385.16
 20
350.51
 30
0.0
 11
385.16
 21
346.51
 31
0.0
  0
LINE
  5
4FA
330
2
100
AcDbEntity
  8
画層1
  6
DASHED2
 62
     0
100
AcDbLine
 10
377.16
 20
356.2699999999999
 30
0.0
 11
375.16
 21
356.2699999999999
 31
0.0
  0
LINE
  5
4FB
330
2
100
AcDbEntity
  8
画層1
  6
DASHED2
 62
     0
100
AcDbLine
 10
368.16
 20
357.2699999999999
 30
0.0
 11
389.36
 21
357.2699999999999
 31
0.0
  0
ARC
  5
4FC
330
2
100
AcDbEntity
  8
画層1
 62
     0
100
AcDbCircle
 10
368.42
 20
363.39
 30
0.0
 40
1.25
100
AcDbArc
 50
101.54
 51
258.46
  0
ARC
  5
4FD
330
2
100
AcDbEntity
  8
画層1
 62
     0
100
AcDbCircle
 10
368.42
 20
353.39
 30
0.0
 40
1.25
100
AcDbArc
 50
101.54
 51
258.46
  0
LINE
  5
4FE
330
2
100
AcDbEntity
  8
画層1
 62
     0
100
AcDbLine
 10
367.06
 20
359.39
 30
0.0
 11
368.16
 21
359.39
 31
0.0
  0
LINE
  5
4FF
330
2
100
AcDbEntity
  8
画層1
 62
     0
100
AcDbLine
 10
367.06
 20
357.2699999999999
 30
0.0
 11
368.16
 21
357.2699999999999
 31
0.0
  0
LINE
  5
500
330
2
100
AcDbEntity
  8
画層1
 62
     0
100
AcDbLine
 10
367.06
 20
359.39
 30
0.0
 11
367.06
 21
357.2699999999999
 31
0.0
  0
ARC
  5
501
330
2
100
AcDbEntity
  8
画層1
  6
DASHED2
 62
     0
100
AcDbCircle
 10
375.16
 20
355.2699999999999
 30
0.0
 40
1.0
100
AcDbArc
 50
90.0
 51
180.0
  0
LINE
  5
502
330
2
100
AcDbEntity
  8
画層1
  6
DASHED2
 62
     0
100
AcDbLine
 10
389.36
 20
354.0099999999999
 30
0.0
 11
382.56
 21
354.0099999999999
 31
0.0
  0
LINE
  5
503
330
2
100
AcDbEntity
  8
画層1
  6
DASHED2
 62
     0
100
AcDbLine
 10
382.56
 20
352.51
 30
0.0
 11
389.36
 21
352.51
 31
0.0
  0
LINE
  5
504
330
2
100
AcDbEntity
  8
画層1
  6
DASHED2
 62
     0
100
AcDbLine
 10
382.56
 20
357.2699999999999
 30
0.0
 11
382.56
 21
352.51
 31
0.0
  0
LINE
  5
505
330
2
100
AcDbEntity
  8
画層1
  6
DASHED2
 62
     0
100
AcDbLine
 10
389.36
 20
357.2699999999999
 30
0.0
 11
389.36
 21
354.0099999999999
 31
0.0
  0
LINE
  5
506
330
2
100
AcDbEntity
  8
画層1
 62
     0
100
AcDbLine
 10
408.36
 20
395.8899999999999
 30
0.0
 11
369.3599999999999
 21
395.8899999999999
 31
0.0
  0
LINE
  5
507
330
2
100
AcDbEntity
  8
画層1
 62
     0
100
AcDbLine
 10
408.36
 20
395.8899999999999
 30
0.0
 11
369.3599999999999
 21
395.8899999999999
 31
0.0
  0
LINE
  5
508
330
2
100
AcDbEntity
  8
画層1
 62
     0
100
AcDbLine
 10
368.16
 20
384.89
 30
0.0
 11
408.36
 21
384.89
 31
0.0
  0
LINE
  5
509
330
2
100
AcDbEntity
  8
画層1
 62
     0
100
AcDbLine
 10
367.7599999999999
 20
386.5899999999999
 30
0.0
 11
367.36
 21
387.79
 31
0.0
  0
LINE
  5
50A
330
2
100
AcDbEntity
  8
画層1
 62
     0
100
AcDbLine
 10
369.3599999999999
 20
396.3899999999999
 30
0.0
 11
369.3599999999999
 21
384.89
 31
0.0
  0
LINE
  5
50B
330
2
100
AcDbEntity
  8
画層1
 62
     0
100
AcDbLine
 10
368.16
 20
386.5899999999999
 30
0.0
 11
367.7599999999999
 21
386.5899999999999
 31
0.0
  0
LINE
  5
50C
330
2
100
AcDbEntity
  8
画層1
 62
     0
100
AcDbLine
 10
367.36
 20
392.99
 30
0.0
 11
367.7599999999999
 21
394.19
 31
0.0
  0
LINE
  5
50D
330
2
100
AcDbEntity
  8
画層1
 62
     0
100
AcDbLine
 10
367.36
 20
387.79
 30
0.0
 11
366.36
 21
387.79
 31
0.0
  0
LINE
  5
50E
330
2
100
AcDbEntity
  8
画層1
 62
     0
100
AcDbLine
 10
366.36
 20
392.99
 30
0.0
 11
367.36
 21
392.99
 31
0.0
  0
LINE
  5
50F
330
2
100
AcDbEntity
  8
画層1
 62
     0
100
AcDbLine
 10
365.9599999999999
 20
390.79
 30
0.0
 11
365.9599999999999
 21
389.99
 31
0.0
  0
LINE
  5
510
330
2
100
AcDbEntity
  8
画層1
 62
     0
100
AcDbLine
 10
365.36
 20
388.79
 30
0.0
 11
365.36
 21
391.99
 31
0.0
  0
ARC
  5
511
330
2
100
AcDbEntity
  8
画層1
 62
     0
100
AcDbCircle
 10
366.36
 20
391.99
 30
0.0
 40
1.0
100
AcDbArc
 50
90.0
 51
180.0
  0
ARC
  5
512
330
2
100
AcDbEntity
  8
画層1
 62
     0
100
AcDbCircle
 10
366.36
 20
388.79
 30
0.0
 40
1.0
100
AcDbArc
 50
180.0
 51
270.0
  0
LINE
  5
513
330
2
100
AcDbEntity
  8
画層1
 62
     0
100
AcDbLine
 10
365.36
 20
390.79
 30
0.0
 11
365.9599999999999
 21
390.79
 31
0.0
  0
LINE
  5
514
330
2
100
AcDbEntity
  8
画層1
 62
     0
100
AcDbLine
 10
365.9599999999999
 20
389.99
 30
0.0
 11
365.36
 21
389.99
 31
0.0
  0
LINE
  5
515
330
2
100
AcDbEntity
  8
画層1
 62
     0
100
AcDbLine
 10
367.36
 20
387.79
 30
0.0
 11
367.36
 21
392.99
 31
0.0
  0
LINE
  5
516
330
2
100
AcDbEntity
  8
画層1
 62
     0
100
AcDbLine
 10
368.16
 20
396.3899999999999
 30
0.0
 11
369.3599999999999
 21
396.3899999999999
 31
0.0
  0
LINE
  5
517
330
2
100
AcDbEntity
  8
画層1
 62
     0
100
AcDbLine
 10
367.7599999999999
 20
394.19
 30
0.0
 11
368.16
 21
394.19
 31
0.0
  0
LINE
  5
518
330
2
100
AcDbEntity
  8
画層1
 62
     0
100
AcDbLine
 10
408.36
 20
384.39
 30
0.0
 11
412.36
 21
384.39
 31
0.0
  0
LINE
  5
519
330
2
100
AcDbEntity
  8
画層1
 62
     0
100
AcDbLine
 10
407.16
 20
395.8899999999999
 30
0.0
 11
407.16
 21
384.89
 31
0.0
  0
LINE
  5
51A
330
2
100
AcDbEntity
  8
画層1
 62
     0
100
AcDbLine
 10
408.36
 20
396.3899999999999
 30
0.0
 11
408.36
 21
384.39
 31
0.0
  0
LINE
  5
51B
330
2
100
AcDbEntity
  8
画層1
 62
     0
100
AcDbLine
 10
405.16
 20
388.4299999999999
 30
0.0
 11
405.16
 21
384.89
 31
0.0
  0
LINE
  5
51C
330
2
100
AcDbEntity
  8
画層1
 62
     0
100
AcDbLine
 10
405.9599999999999
 20
387.3899999999999
 30
0.0
 11
407.16
 21
387.3899999999999
 31
0.0
  0
LINE
  5
51D
330
2
100
AcDbEntity
  8
画層1
 62
     0
100
AcDbLine
 10
405.9599999999999
 20
393.3899999999999
 30
0.0
 11
407.16
 21
393.3899999999999
 31
0.0
  0
LINE
  5
51E
330
2
100
AcDbEntity
  8
画層1
 62
     0
100
AcDbLine
 10
405.16
 20
395.8899999999999
 30
0.0
 11
405.16
 21
392.35
 31
0.0
  0
LINE
  5
51F
330
2
100
AcDbEntity
  8
画層1
 62
     0
100
AcDbLine
 10
405.9599999999999
 20
393.3899999999999
 30
0.0
 11
405.9599999999999
 21
387.3899999999999
 31
0.0
  0
ARC
  5
520
330
2
100
AcDbEntity
  8
画層1
 62
     0
100
AcDbCircle
 10
408.7799999999999
 20
390.39
 30
0.0
 40
4.111538461538548
100
AcDbArc
 50
133.1399999999999
 51
226.86
  0
ARC
  5
521
330
2
100
AcDbEntity
  8
画層1
 62
     0
100
AcDbCircle
 10
442.36
 20
388.8899999999999
 30
0.0
 40
1.0
100
AcDbArc
 50
90.0
 51
180.0
  0
ARC
  5
522
330
2
100
AcDbEntity
  8
画層1
 62
     0
100
AcDbCircle
 10
442.36
 20
391.8899999999999
 30
0.0
 40
1.0
100
AcDbArc
 50
180.0
 51
270.0
  0
CIRCLE
  5
523
330
2
100
AcDbEntity
  8
画層1
 62
     0
100
AcDbCircle
 10
440.8599999999999
 20
390.39
 30
0.0
 40
3.0
  0
LINE
  5
524
330
2
100
AcDbEntity
  8
画層1
 62
     0
100
AcDbLine
 10
441.36
 20
388.8899999999999
 30
0.0
 11
441.36
 21
388.5899999999999
 31
0.0
  0
LINE
  5
525
330
2
100
AcDbEntity
  8
画層1
 62
     0
100
AcDbLine
 10
441.36
 20
392.1899999999999
 30
0.0
 11
441.36
 21
391.8899999999999
 31
0.0
  0
LINE
  5
526
330
2
100
AcDbEntity
  8
画層1
 62
     0
100
AcDbLine
 10
439.36
 20
389.8899999999999
 30
0.0
 11
439.06
 21
389.8899999999999
 31
0.0
  0
LINE
  5
527
330
2
100
AcDbEntity
  8
画層1
 62
     0
100
AcDbLine
 10
439.06
 20
390.89
 30
0.0
 11
439.36
 21
390.89
 31
0.0
  0
LINE
  5
528
330
2
100
AcDbEntity
  8
画層1
 62
     0
100
AcDbLine
 10
439.06
 20
389.8899999999999
 30
0.0
 11
439.06
 21
390.89
 31
0.0
  0
LINE
  5
529
330
2
100
AcDbEntity
  8
画層1
 62
     0
100
AcDbLine
 10
440.3599999999999
 20
388.5899999999999
 30
0.0
 11
440.3599999999999
 21
388.8899999999999
 31
0.0
  0
LINE
  5
52A
330
2
100
AcDbEntity
  8
画層1
 62
     0
100
AcDbLine
 10
440.3599999999999
 20
391.8899999999999
 30
0.0
 11
440.3599999999999
 21
392.1899999999999
 31
0.0
  0
ARC
  5
52B
330
2
100
AcDbEntity
  8
画層1
 62
     0
100
AcDbCircle
 10
439.36
 20
388.8899999999999
 30
0.0
 40
1.0
100
AcDbArc
 50
0.0
 51
90.0
  0
ARC
  5
52C
330
2
100
AcDbEntity
  8
画層1
 62
     0
100
AcDbCircle
 10
439.36
 20
391.8899999999999
 30
0.0
 40
1.0
100
AcDbArc
 50
270.0
 51
0.0
  0
LINE
  5
52D
330
2
100
AcDbEntity
  8
画層1
 62
     0
100
AcDbLine
 10
440.3599999999999
 20
388.5899999999999
 30
0.0
 11
441.36
 21
388.5899999999999
 31
0.0
  0
LINE
  5
52E
330
2
100
AcDbEntity
  8
画層1
 62
     0
100
AcDbLine
 10
440.3599999999999
 20
392.1899999999999
 30
0.0
 11
441.36
 21
392.1899999999999
 31
0.0
  0
LINE
  5
52F
330
2
100
AcDbEntity
  8
画層1
 62
     0
100
AcDbLine
 10
442.66
 20
389.8899999999999
 30
0.0
 11
442.66
 21
390.89
 31
0.0
  0
LINE
  5
530
330
2
100
AcDbEntity
  8
画層1
 62
     0
100
AcDbLine
 10
442.36
 20
390.89
 30
0.0
 11
442.66
 21
390.89
 31
0.0
  0
LINE
  5
531
330
2
100
AcDbEntity
  8
画層1
 62
     0
100
AcDbLine
 10
442.66
 20
389.8899999999999
 30
0.0
 11
442.36
 21
389.8899999999999
 31
0.0
  0
ARC
  5
532
330
2
100
AcDbEntity
  8
画層1
 62
     0
100
AcDbCircle
 10
512.86
 20
372.8899999999999
 30
0.0
 40
1.0
100
AcDbArc
 50
180.0
 51
270.0
  0
ARC
  5
533
330
2
100
AcDbEntity
  8
画層1
 62
     0
100
AcDbCircle
 10
512.86
 20
369.89
 30
0.0
 40
1.0
100
AcDbArc
 50
90.0
 51
180.0
  0
LINE
  5
534
330
2
100
AcDbEntity
  8
画層1
 62
     0
100
AcDbLine
 10
511.8599999999999
 20
373.1899999999999
 30
0.0
 11
511.8599999999999
 21
372.8899999999999
 31
0.0
  0
LINE
  5
535
330
2
100
AcDbEntity
  8
画層1
 62
     0
100
AcDbLine
 10
511.8599999999999
 20
369.89
 30
0.0
 11
511.8599999999999
 21
369.5899999999999
 31
0.0
  0
LINE
  5
536
330
2
100
AcDbEntity
  8
画層1
 62
     0
100
AcDbLine
 10
513.1599999999999
 20
370.8899999999999
 30
0.0
 11
512.86
 21
370.8899999999999
 31
0.0
  0
LINE
  5
537
330
2
100
AcDbEntity
  8
画層1
 62
     0
100
AcDbLine
 10
512.86
 20
371.89
 30
0.0
 11
513.1599999999999
 21
371.89
 31
0.0
  0
LINE
  5
538
330
2
100
AcDbEntity
  8
画層1
 62
     0
100
AcDbLine
 10
513.1599999999999
 20
370.8899999999999
 30
0.0
 11
513.1599999999999
 21
371.89
 31
0.0
  0
ARC
  5
539
330
2
100
AcDbEntity
  8
画層1
 62
     0
100
AcDbCircle
 10
509.86
 20
372.8899999999999
 30
0.0
 40
1.0
100
AcDbArc
 50
270.0
 51
0.0
  0
ARC
  5
53A
330
2
100
AcDbEntity
  8
画層1
 62
     0
100
AcDbCircle
 10
509.86
 20
369.89
 30
0.0
 40
1.0
100
AcDbArc
 50
0.0
 51
90.0
  0
LINE
  5
53B
330
2
100
AcDbEntity
  8
画層1
 62
     0
100
AcDbLine
 10
510.86
 20
372.8899999999999
 30
0.0
 11
510.86
 21
373.1899999999999
 31
0.0
  0
LINE
  5
53C
330
2
100
AcDbEntity
  8
画層1
 62
     0
100
AcDbLine
 10
510.86
 20
369.5899999999999
 30
0.0
 11
510.86
 21
369.89
 31
0.0
  0
LINE
  5
53D
330
2
100
AcDbEntity
  8
画層1
 62
     0
100
AcDbLine
 10
509.56
 20
370.8899999999999
 30
0.0
 11
509.56
 21
371.89
 31
0.0
  0
LINE
  5
53E
330
2
100
AcDbEntity
  8
画層1
 62
     0
100
AcDbLine
 10
509.56
 20
371.89
 30
0.0
 11
509.86
 21
371.89
 31
0.0
  0
LINE
  5
53F
330
2
100
AcDbEntity
  8
画層1
 62
     0
100
AcDbLine
 10
509.86
 20
370.8899999999999
 30
0.0
 11
509.56
 21
370.8899999999999
 31
0.0
  0
CIRCLE
  5
540
330
2
100
AcDbEntity
  8
画層1
 62
     0
100
AcDbCircle
 10
511.3599999999999
 20
371.3899999999999
 30
0.0
 40
3.0
  0
LINE
  5
541
330
2
100
AcDbEntity
  8
画層1
 62
     0
100
AcDbLine
 10
510.86
 20
373.1899999999999
 30
0.0
 11
511.8599999999999
 21
373.1899999999999
 31
0.0
  0
LINE
  5
542
330
2
100
AcDbEntity
  8
画層1
 62
     0
100
AcDbLine
 10
510.86
 20
369.5899999999999
 30
0.0
 11
511.8599999999999
 21
369.5899999999999
 31
0.0
  0
LINE
  5
543
330
2
100
AcDbEntity
  8
画層1
 62
     0
100
AcDbLine
 10
539.7599999999999
 20
396.3899999999999
 30
0.0
 11
539.7599999999999
 21
406.39
 31
0.0
  0
LINE
  5
544
330
2
100
AcDbEntity
  8
画層1
 62
     0
100
AcDbLine
 10
539.7599999999999
 20
406.39
 30
0.0
 11
541.36
 21
406.39
 31
0.0
  0
LINE
  5
545
330
2
100
AcDbEntity
  8
画層1
  6
CENTER
 62
     0
100
AcDbLine
 10
535.7599999999999
 20
400.3899999999999
 30
0.0
 11
545.36
 21
400.3899999999999
 31
0.0
  0
ENDSEC
  0
SECTION
  2
OBJECTS
  0
DICTIONARY
  5
7
330
0
100
AcDbDictionary
281
     1
  3
ACAD_GROUP
350
26
  3
ACAD_LAYOUT
350
B
  3
ACAD_MLINESTYLE
350
27
  3
ACAD_PLOTSETTINGS
350
28
  3
ACAD_PLOTSTYLENAME
350
6
  3
AcDbVariableDictionary
350
6C2
  3
DWGPROPS
350
766
  0
DICTIONARY
  5
26
102
{ACAD_REACTORS
330
7
102
}
330
7
100
AcDbDictionary
281
     1
  0
DICTIONARY
  5
B
102
{ACAD_REACTORS
330
7
102
}
330
7
100
AcDbDictionary
281
     1
  3
Model
350
A
  3
ﾚｲｱｳﾄ1
350
F
  0
DICTIONARY
  5
27
102
{ACAD_REACTORS
330
7
102
}
330
7
100
AcDbDictionary
281
     1
  3
STANDARD
350
31
  0
DICTIONARY
  5
28
102
{ACAD_REACTORS
330
7
102
}
330
7
100
AcDbDictionary
281
     1
  0
ACDBDICTIONARYWDFLT
  5
6
102
{ACAD_REACTORS
330
7
102
}
330
7
100
AcDbDictionary
281
     1
  3
Normal
350
5
100
AcDbDictionaryWithDefault
340
5
  0
DICTIONARY
  5
6C2
102
{ACAD_REACTORS
330
7
102
}
330
7
100
AcDbDictionary
281
     1
  3
INDEXCTL
350
6C3
  0
XRECORD
  5
766
102
{ACAD_REACTORS
330
7
102
}
330
7
100
AcDbXrecord
280
     1
  1
DWGPROPS COOKIE
  2

  3

  4

  6

  7

  8

  9

300
=
301
=
302
=
303
=
304
=
305
=
306
=
307
=
308
=
309
=
 40
4.439949768518518
 41
2450995.462150231
 42
2451964.721375115
  1

 90
        0
  0
LAYOUT
  5
A
102
{ACAD_REACTORS
330
B
102
}
330
B
100
AcDbPlotSettings
  1

  2
Canon LBP-740
  4
A3
  6

 40
5.87
 41
6.04
 42
5.87
 43
5.87
 44
296.93
 45
420.12
 46
0.0
 47
0.0
 48
0.0
 49
0.0
140
0.0
141
0.0
142
1.0
143
1.0
 70
 11952
 72
     1
 73
     1
 74
     1
  7
SHIMADEN.ctb
 75
    16
147
1.0
148
0.01
149
0.01
100
AcDbLayout
  1
Model
 70
     1
 71
     0
 10
0.0
 20
0.0
 11
12.0
 21
9.0
 12
0.0
 22
0.0
 32
0.0
 14
0.0
 24
0.0
 34
0.0
 15
0.0
 25
0.0
 35
0.0
146
0.0
 13
0.0
 23
0.0
 33
0.0
 16
1.0
 26
0.0
 36
0.0
 17
0.0
 27
1.0
 37
0.0
 76
     0
330
2
  0
LAYOUT
  5
F
102
{ACAD_REACTORS
330
B
102
}
330
B
100
AcDbPlotSettings
  1

  2
Canon LASER SHOT LBP-740
  4

  6

 40
0.0
 41
0.0
 42
0.0
 43
0.0
 44
0.0
 45
0.0
 46
0.0
 47
0.0
 48
0.0
 49
0.0
140
0.0
141
0.0
142
1.0
143
1.0
 70
   688
 72
     0
 73
     0
 74
     5
  7
SHIMADEN.ctb
 75
    16
147
1.0
148
0.0
149
0.0
100
AcDbLayout
  1
ﾚｲｱｳﾄ1
 70
     1
 71
     1
 10
0.0
 20
0.0
 11
420.0
 21
297.0
 12
0.0
 22
0.0
 32
0.0
 14
1.000000000000000E+20
 24
1.000000000000000E+20
 34
1.000000000000000E+20
 15
-1.000000000000000E+20
 25
-1.000000000000000E+20
 35
-1.000000000000000E+20
146
0.0
 13
0.0
 23
0.0
 33
0.0
 16
1.0
 26
0.0
 36
0.0
 17
0.0
 27
1.0
 37
0.0
 76
     0
330
C
  0
MLINESTYLE
  5
31
102
{ACAD_REACTORS
330
27
102
}
330
27
100
AcDbMlineStyle
  2
STANDARD
 70
     0
  3

 62
   256
 51
90.0
 52
90.0
 71
     2
 49
0.5
 62
   256
  6
BYLAYER
 49
-0.5
 62
   256
  6
BYLAYER
  0
ACDBPLACEHOLDER
  5
5
102
{ACAD_REACTORS
330
6
102
}
330
6
  0
DICTIONARYVAR
  5
6C3
102
{ACAD_REACTORS
330
6C2
102
}
330
6C2
100
DictionaryVariables
280
     0
  1
-1
  0
ENDSEC
  0
EOF
