  0
SECTION
  2
HEADER
  9
$ACADVER
  1
AC1015
  9
$ACADMAINTVER
 70
     6
  9
$DWGCODEPAGE
  3
ANSI_932
  9
$INSBASE
 10
0.0
 20
0.0
 30
0.0
  9
$EXTMIN
 10
235.2096122775221
 20
-1038.645509957673
 30
-0.000000000000013
  9
$EXTMAX
 10
872.4772604938644
 20
-581.7714659666678
 30
0.0000000000000023
  9
$LIMMIN
 10
0.0
 20
0.0
  9
$LIMMAX
 10
420.0
 20
297.0
  9
$ORTHOMODE
 70
     0
  9
$REGENMODE
 70
     1
  9
$FILLMODE
 70
     1
  9
$QTEXTMODE
 70
     0
  9
$MIRRTEXT
 70
     1
  9
$LTSCALE
 40
0.2
  9
$ATTMODE
 70
     1
  9
$TEXTSIZE
 40
2.5
  9
$TRACEWID
 40
1.0
  9
$TEXTSTYLE
  7
STYLE1
  9
$CLAYER
  8
画層1
  9
$CELTYPE
  6
DASHED2
  9
$CECOLOR
 62
     2
  9
$CELTSCALE
 40
1.0
  9
$DISPSILH
 70
     0
  9
$DIMSCALE
 40
1.0
  9
$DIMASZ
 40
1.5
  9
$DIMEXO
 40
0.63
  9
$DIMDLI
 40
3.75
  9
$DIMRND
 40
0.0
  9
$DIMDLE
 40
0.0
  9
$DIMEXE
 40
1.25
  9
$DIMTP
 40
0.6
  9
$DIMTM
 40
0.0
  9
$DIMTXT
 40
2.5
  9
$DIMCEN
 40
2.5
  9
$DIMTSZ
 40
0.0
  9
$DIMTOL
 70
     0
  9
$DIMLIM
 70
     0
  9
$DIMTIH
 70
     0
  9
$DIMTOH
 70
     0
  9
$DIMSE1
 70
     0
  9
$DIMSE2
 70
     0
  9
$DIMTAD
 70
     1
  9
$DIMZIN
 70
     8
  9
$DIMBLK
  1
OPEN30
  9
$DIMASO
 70
     1
  9
$DIMSHO
 70
     1
  9
$DIMPOST
  1

  9
$DIMAPOST
  1

  9
$DIMALT
 70
     0
  9
$DIMALTD
 70
     4
  9
$DIMALTF
 40
0.04
  9
$DIMLFAC
 40
1.0
  9
$DIMTOFL
 70
     1
  9
$DIMTVP
 40
0.0
  9
$DIMTIX
 70
     0
  9
$DIMSOXD
 70
     0
  9
$DIMSAH
 70
     0
  9
$DIMBLK1
  1

  9
$DIMBLK2
  1

  9
$DIMSTYLE
  2
STANDARD_WS
  9
$DIMCLRD
 70
     0
  9
$DIMCLRE
 70
     0
  9
$DIMCLRT
 70
     0
  9
$DIMTFAC
 40
0.5
  9
$DIMGAP
 40
0.63
  9
$DIMJUST
 70
     0
  9
$DIMSD1
 70
     0
  9
$DIMSD2
 70
     0
  9
$DIMTOLJ
 70
     1
  9
$DIMTZIN
 70
     8
  9
$DIMALTZ
 70
     0
  9
$DIMALTTZ
 70
     0
  9
$DIMUPT
 70
     0
  9
$DIMDEC
 70
     4
  9
$DIMTDEC
 70
     4
  9
$DIMALTU
 70
     8
  9
$DIMALTTD
 70
     4
  9
$DIMTXSTY
  7
STYLE1
  9
$DIMAUNIT
 70
     0
  9
$DIMADEC
 70
     0
  9
$DIMALTRND
 40
0.0
  9
$DIMAZIN
 70
     0
  9
$DIMDSEP
 70
    46
  9
$DIMATFIT
 70
     3
  9
$DIMFRAC
 70
     0
  9
$DIMLDRBLK
  1
OPEN30
  9
$DIMLUNIT
 70
     2
  9
$DIMLWD
 70
    -2
  9
$DIMLWE
 70
    -2
  9
$DIMTMOVE
 70
     0
  9
$LUNITS
 70
     2
  9
$LUPREC
 70
     4
  9
$SKETCHINC
 40
1.0
  9
$FILLETRAD
 40
3.0
  9
$AUNITS
 70
     0
  9
$AUPREC
 70
     0
  9
$MENU
  1
acad
  9
$ELEVATION
 40
0.0
  9
$PELEVATION
 40
0.0
  9
$THICKNESS
 40
0.0
  9
$LIMCHECK
 70
     0
  9
$CHAMFERA
 40
10.0
  9
$CHAMFERB
 40
10.0
  9
$CHAMFERC
 40
20.0
  9
$CHAMFERD
 40
0.0
  9
$SKPOLY
 70
     0
  9
$TDCREATE
 40
2450995.462150231
  9
$TDUCREATE
 40
2450995.087150231
  9
$TDUPDATE
 40
2453028.431466643
  9
$TDUUPDATE
 40
2453028.056466644
  9
$TDINDWG
 40
3.9310450347
  9
$TDUSRTIMER
 40
3.9310406713
  9
$USRTIMER
 70
     1
  9
$ANGBASE
 50
0.0
  9
$ANGDIR
 70
     0
  9
$PDMODE
 70
     0
  9
$PDSIZE
 40
0.0
  9
$PLINEWID
 40
10.0
  9
$SPLFRAME
 70
     0
  9
$SPLINETYPE
 70
     6
  9
$SPLINESEGS
 70
     8
  9
$HANDSEED
  5
1AFF
  9
$SURFTAB1
 70
     6
  9
$SURFTAB2
 70
     6
  9
$SURFTYPE
 70
     6
  9
$SURFU
 70
     6
  9
$SURFV
 70
     6
  9
$UCSBASE
  2

  9
$UCSNAME
  2

  9
$UCSORG
 10
0.0
 20
0.0
 30
0.0
  9
$UCSXDIR
 10
1.0
 20
0.0
 30
0.0
  9
$UCSYDIR
 10
0.0
 20
1.0
 30
0.0
  9
$UCSORTHOREF
  2

  9
$UCSORTHOVIEW
 70
     0
  9
$UCSORGTOP
 10
0.0
 20
0.0
 30
0.0
  9
$UCSORGBOTTOM
 10
0.0
 20
0.0
 30
0.0
  9
$UCSORGLEFT
 10
0.0
 20
0.0
 30
0.0
  9
$UCSORGRIGHT
 10
0.0
 20
0.0
 30
0.0
  9
$UCSORGFRONT
 10
0.0
 20
0.0
 30
0.0
  9
$UCSORGBACK
 10
0.0
 20
0.0
 30
0.0
  9
$PUCSBASE
  2

  9
$PUCSNAME
  2

  9
$PUCSORG
 10
0.0
 20
0.0
 30
0.0
  9
$PUCSXDIR
 10
1.0
 20
0.0
 30
0.0
  9
$PUCSYDIR
 10
0.0
 20
1.0
 30
0.0
  9
$PUCSORTHOREF
  2

  9
$PUCSORTHOVIEW
 70
     0
  9
$PUCSORGTOP
 10
0.0
 20
0.0
 30
0.0
  9
$PUCSORGBOTTOM
 10
0.0
 20
0.0
 30
0.0
  9
$PUCSORGLEFT
 10
0.0
 20
0.0
 30
0.0
  9
$PUCSORGRIGHT
 10
0.0
 20
0.0
 30
0.0
  9
$PUCSORGFRONT
 10
0.0
 20
0.0
 30
0.0
  9
$PUCSORGBACK
 10
0.0
 20
0.0
 30
0.0
  9
$USERI1
 70
     0
  9
$USERI2
 70
     0
  9
$USERI3
 70
     0
  9
$USERI4
 70
     0
  9
$USERI5
 70
     0
  9
$USERR1
 40
0.0
  9
$USERR2
 40
0.0
  9
$USERR3
 40
0.0
  9
$USERR4
 40
0.0
  9
$USERR5
 40
0.0
  9
$WORLDVIEW
 70
     1
  9
$SHADEDGE
 70
     3
  9
$SHADEDIF
 70
    70
  9
$TILEMODE
 70
     1
  9
$MAXACTVP
 70
    48
  9
$PINSBASE
 10
0.0
 20
0.0
 30
0.0
  9
$PLIMCHECK
 70
     0
  9
$PEXTMIN
 10
1.000000000000000E+20
 20
1.000000000000000E+20
 30
1.000000000000000E+20
  9
$PEXTMAX
 10
-1.000000000000000E+20
 20
-1.000000000000000E+20
 30
-1.000000000000000E+20
  9
$PLIMMIN
 10
0.0
 20
0.0
  9
$PLIMMAX
 10
420.0
 20
297.0
  9
$UNITMODE
 70
     0
  9
$VISRETAIN
 70
     1
  9
$PLINEGEN
 70
     0
  9
$PSLTSCALE
 70
     1
  9
$TREEDEPTH
 70
  3020
  9
$CMLSTYLE
  2
STANDARD
  9
$CMLJUST
 70
     0
  9
$CMLSCALE
 40
20.0
  9
$PROXYGRAPHICS
 70
     1
  9
$MEASUREMENT
 70
     1
  9
$CELWEIGHT
370
    -1
  9
$ENDCAPS
280
     0
  9
$JOINSTYLE
280
     0
  9
$LWDISPLAY
290
     0
  9
$INSUNITS
 70
     0
  9
$HYPERLINKBASE
  1

  9
$STYLESHEET
  1

  9
$XEDIT
290
     1
  9
$CEPSNTYPE
380
     0
  9
$PSTYLEMODE
290
     1
  9
$FINGERPRINTGUID
  2
{12426522-B208-11D3-A790-004026173390}
  9
$VERSIONGUID
  2
{15E080FD-9491-4D4F-A3A4-2E103B80EDD9}
  9
$EXTNAMES
290
     1
  9
$PSVPSCALE
 40
0.0
  9
$OLESTARTUP
290
     0
  0
ENDSEC
  0
SECTION
  2
CLASSES
  0
CLASS
  1
DICTIONARYVAR
  2
AcDbDictionaryVar
  3
AutoCAD 2000
 90
        0
280
     0
281
     0
  0
CLASS
  1
LWPOLYLINE
  2
AcDbPolyline
  3
AutoCAD 2000
 90
    32768
280
     0
281
     1
  0
CLASS
  1
OLE2FRAME
  2
AcDbOle2Frame
  3
AutoCAD 2000
 90
    32768
280
     0
281
     1
  0
CLASS
  1
HATCH
  2
AcDbHatch
  3
AutoCAD 2000
 90
    32768
280
     0
281
     1
  0
CLASS
  1
ACDBDICTIONARYWDFLT
  2
AcDbDictionaryWithDefault
  3
AutoCAD 2000
 90
        0
280
     0
281
     0
  0
CLASS
  1
ACDBPLACEHOLDER
  2
AcDbPlaceHolder
  3
AutoCAD 2000
 90
        0
280
     0
281
     0
  0
CLASS
  1
LAYOUT
  2
AcDbLayout
  3
AutoCAD 2000
 90
        0
280
     0
281
     0
  0
CLASS
  1
LONG_TRANSACTION
  2
AcDbLongTransaction
  3
AutoCAD 2000
 90
    32768
280
     0
281
     0
  0
CLASS
  1
LWPOLYLINE
  2
AcDbPolyline
  3
AutoCAD 2000
 90
    32768
280
     0
281
     1
  0
CLASS
  1
HATCH
  2
AcDbHatch
  3
AutoCAD 2000
 90
    32768
280
     0
281
     1
  0
CLASS
  1
XRECORD
  2
AcDbXrecord
  3
AutoCAD 2000
 90
    32768
280
     0
281
     0
  0
CLASS
  1
LONG_TRANSACTION
  2
AcDbLongTransaction
  3
AutoCAD 2000
 90
    32768
280
     0
281
     0
  0
CLASS
  1
LWPOLYLINE
  2
AcDbPolyline
  3
AutoCAD 2000
 90
    32768
280
     0
281
     1
  0
CLASS
  1
HATCH
  2
AcDbHatch
  3
AutoCAD 2000
 90
    32768
280
     0
281
     1
  0
CLASS
  1
XRECORD
  2
AcDbXrecord
  3
AutoCAD 2000
 90
    32768
280
     0
281
     0
  0
CLASS
  1
LONG_TRANSACTION
  2
AcDbLongTransaction
  3
AutoCAD 2000
 90
    32768
280
     0
281
     0
  0
CLASS
  1
LWPOLYLINE
  2
AcDbPolyline
  3
AutoCAD 2000
 90
    32768
280
     0
281
     1
  0
CLASS
  1
HATCH
  2
AcDbHatch
  3
AutoCAD 2000
 90
    32768
280
     0
281
     1
  0
CLASS
  1
XRECORD
  2
AcDbXrecord
  3
AutoCAD 2000
 90
    32768
280
     0
281
     0
  0
ENDSEC
  0
SECTION
  2
TABLES
  0
TABLE
  2
VPORT
  5
1E
330
0
100
AcDbSymbolTable
 70
     5
  0
VPORT
  5
1ADD
330
1E
100
AcDbSymbolTableRecord
100
AcDbViewportTableRecord
  2
*Active
 70
     0
 10
0.0
 20
0.0
 11
1.0
 21
1.0
 12
553.8434363856932
 22
-810.2084879621708
 13
0.0
 23
0.0
 14
1.0
 24
1.0
 15
2.0
 25
2.0
 16
0.0
 26
0.0
 36
1.0
 17
0.0
 27
0.0
 37
0.0
 40
459.7324843079466
 41
1.61482254697286
 42
50.0
 43
0.0
 44
0.0
 50
0.0
 51
0.0
 71
     0
 72
   100
 73
     1
 74
     1
 75
     0
 76
     0
 77
     0
 78
     0
281
     0
 65
     1
110
0.0
120
0.0
130
0.0
111
1.0
121
0.0
131
0.0
112
0.0
122
1.0
132
0.0
 79
     0
146
0.0
  0
ENDTAB
  0
TABLE
  2
LTYPE
  5
19
330
0
100
AcDbSymbolTable
 70
     4
  0
LTYPE
  5
1A
330
19
100
AcDbSymbolTableRecord
100
AcDbLinetypeTableRecord
  2
BYBLOCK
 70
     0
  3

 72
    65
 73
     0
 40
0.0
  0
LTYPE
  5
1B
330
19
100
AcDbSymbolTableRecord
100
AcDbLinetypeTableRecord
  2
BYLAYER
 70
     0
  3

 72
    65
 73
     0
 40
0.0
  0
LTYPE
  5
A
330
19
100
AcDbSymbolTableRecord
100
AcDbLinetypeTableRecord
  2
CONTINUOUS
 70
     0
  3
Solid line
 72
    65
 73
     0
 40
0.0
  0
LTYPE
  5
68
330
19
100
AcDbSymbolTableRecord
100
AcDbLinetypeTableRecord
  2
DASHED2
 70
     0
  3
Dashed (.5x) _ _ _ _ _ _ _ _ _ _ _ _ _ _ _ _ _
 72
    65
 73
     2
 40
9.529999999999999
 49
6.349999999999997
 74
     0
 49
-3.18
 74
     0
  0
LTYPE
  5
76
330
19
100
AcDbSymbolTableRecord
100
AcDbLinetypeTableRecord
  2
CENTER
 70
     0
  3
Center ____ _ ____ _ ____ _ ____ _ ____ _ ____
 72
    65
 73
     4
 40
50.8
 49
31.75
 74
     0
 49
-6.349999999999997
 74
     0
 49
6.349999999999997
 74
     0
 49
-6.349999999999997
 74
     0
  0
LTYPE
  5
F6E
330
19
100
AcDbSymbolTableRecord
100
AcDbLinetypeTableRecord
  2
DIVIDE
 70
     0
  3
Divide ____ . . ____ . . ____ . . ____ . . ____
 72
    65
 73
     6
 40
31.74999999999998
 49
12.7
 74
     0
 49
-6.349999999999998
 74
     0
 49
0.0
 74
     0
 49
-6.349999999999998
 74
     0
 49
0.0
 74
     0
 49
-6.349999999999998
 74
     0
  0
ENDTAB
  0
TABLE
  2
LAYER
  5
14
330
0
100
AcDbSymbolTable
 70
     3
  0
LAYER
  5
6
330
14
100
AcDbSymbolTableRecord
100
AcDbLayerTableRecord
  2
0
 70
     0
 62
     7
  6
CONTINUOUS
370
    -3
390
7
  0
LAYER
  5
3F
330
14
100
AcDbSymbolTableRecord
100
AcDbLayerTableRecord
  2
DEFPOINTS
 70
     0
 62
     7
  6
CONTINUOUS
290
     0
370
    -3
390
7
  0
LAYER
  5
26
330
14
100
AcDbSymbolTableRecord
100
AcDbLayerTableRecord
  2
画層1
 70
     0
 62
     7
  6
CONTINUOUS
370
    -3
390
7
  0
ENDTAB
  0
TABLE
  2
STYLE
  5
15
330
0
100
AcDbSymbolTable
 70
     3
  0
STYLE
  5
16
330
15
100
AcDbSymbolTableRecord
100
AcDbTextStyleTableRecord
  2
STANDARD
 70
     0
 40
2.5
 41
1.0
 50
0.0
 71
     0
 42
1.5
  3
MS PMincho.ttf
  4

1001
ACAD
1000
MS PMincho
1071
    32786
  0
STYLE
  5
27
330
15
100
AcDbSymbolTableRecord
100
AcDbTextStyleTableRecord
  2
STYLE1
 70
     0
 40
2.5
 41
1.0
 50
0.0
 71
     0
 42
2.5
  3
MS Gothic.ttf
  4

1001
ACAD
1000
MS Gothic
1071
    32817
  0
STYLE
  5
F6D
330
15
100
AcDbSymbolTableRecord
100
AcDbTextStyleTableRecord
  2

 70
     1
 40
0.0
 41
1.0
 50
0.0
 71
     0
 42
2.5
  3
ltypeshp.shx
  4

  0
ENDTAB
  0
TABLE
  2
VIEW
  5
1C
330
0
100
AcDbSymbolTable
 70
     0
  0
ENDTAB
  0
TABLE
  2
UCS
  5
1D
330
0
100
AcDbSymbolTable
 70
     0
  0
ENDTAB
  0
TABLE
  2
APPID
  5
20
330
0
100
AcDbSymbolTable
 70
     1
  0
APPID
  5
17
330
20
100
AcDbSymbolTableRecord
100
AcDbRegAppTableRecord
  2
ACAD
 70
     0
  0
ENDTAB
  0
TABLE
  2
DIMSTYLE
  5
21
330
0
100
AcDbSymbolTable
 70
     1
100
AcDbDimStyleTable
 71
     1
340
35
  0
DIMSTYLE
105
35
102
{ACAD_REACTORS
330
FF4
330
16F6
330
1760
330
1761
330
175F
330
17DC
330
17DB
330
18E5
330
18E2
330
18E4
330
18E3
330
1998
330
1999
330
19EA
330
19E8
330
19E9
330
1A65
330
1A66
330
1A64
102
}
330
21
100
AcDbSymbolTableRecord
100
AcDbDimStyleTableRecord
  2
STANDARD_WS
 70
     0
 41
1.5
 42
0.63
 43
3.75
 44
1.25
 73
     0
 74
     0
 77
     1
 78
     8
140
2.5
141
2.5
143
0.04
147
0.63
171
     4
172
     1
173
     1
273
     8
274
     4
340
16
341
2E
343
2E
344
2E
  0
ENDTAB
  0
TABLE
  2
BLOCK_RECORD
  5
1
330
0
100
AcDbSymbolTable
 70
    45
  0
BLOCK_RECORD
  5
2
102
{ACAD_XDICTIONARY
360
3
102
}
330
1
100
AcDbSymbolTableRecord
100
AcDbBlockTableRecord
  2
*MODEL_SPACE
340
560
  0
BLOCK_RECORD
  5
E
102
{ACAD_XDICTIONARY
360
F
102
}
330
1
100
AcDbSymbolTableRecord
100
AcDbBlockTableRecord
  2
*PAPER_SPACE
340
561
  0
BLOCK_RECORD
  5
2E
330
1
100
AcDbSymbolTableRecord
100
AcDbBlockTableRecord
  2
_OPEN
340
0
  0
BLOCK_RECORD
  5
28
330
1
100
AcDbSymbolTableRecord
100
AcDbBlockTableRecord
  2
_OPEN30
340
0
102
{BLKREFS
331
F9D
331
F9E
331
FA7
331
FA8
331
102F
331
1030
331
106B
331
106C
331
107D
331
107E
331
108F
331
1090
331
10A5
331
10A6
331
10C8
331
10C9
331
10D3
331
10D4
331
114F
331
1150
331
1158
331
1159
331
1173
331
1174
331
1192
331
1193
331
11B0
331
11B1
331
11E6
331
11E7
331
121D
331
121E
331
122A
331
122B
331
1237
331
1238
331
126A
331
126B
331
127C
331
127D
331
128B
331
128C
331
16FB
331
16FC
331
1706
331
1707
331
176A
331
176B
331
1776
331
1777
331
1782
331
1783
331
178D
331
178E
331
1796
331
1797
331
179F
331
17A0
331
17A8
331
17A9
331
17B1
331
17B2
331
17BA
331
17BB
331
17C3
331
17C4
331
17CC
331
17CD
331
17D5
331
17D6
331
17E1
331
17E2
331
17ED
331
17EE
331
17F8
331
17F9
331
1801
331
1802
331
180A
331
180B
331
1813
331
1814
331
181C
331
181D
331
1825
331
1826
331
182E
331
182F
331
1837
331
1838
331
1840
331
1841
331
1849
331
184A
331
1853
331
1854
331
185C
331
185D
331
1865
331
1866
331
186E
331
186F
331
1877
331
1878
331
1880
331
1881
331
1889
331
188A
331
1892
331
1893
331
189B
331
189C
331
18A4
331
18A5
331
18AD
331
18AE
331
18B6
331
18B7
331
18BF
331
18C0
331
18C8
331
18C9
331
18D3
331
18D4
331
18DC
331
18DD
331
18EF
331
18F0
331
18FB
331
18FC
331
1907
331
1908
331
1913
331
1914
331
191F
331
1920
331
1928
331
1929
331
1931
331
1932
331
193A
331
193B
331
1944
331
1945
331
194E
331
194F
331
1957
331
1958
331
1960
331
1961
331
1969
331
196A
331
1976
331
1977
331
197F
331
1980
331
1988
331
1989
331
1992
331
1993
331
199E
331
199F
331
19AA
331
19AB
331
19B5
331
19B6
331
19BE
331
19BF
331
19C7
331
19C8
331
19D0
331
19D1
331
19D9
331
19DA
331
19E2
331
19E3
331
19F1
331
19F2
331
19FD
331
19FE
331
1A09
331
1A0A
331
1A16
331
1A17
331
1A1F
331
1A20
331
1A28
331
1A29
331
1A31
331
1A32
331
1A3A
331
1A3B
331
1A43
331
1A44
331
1A4C
331
1A4D
331
1A55
331
1A56
331
1A5E
331
1A5F
331
1A6B
331
1A6C
331
1A77
331
1A78
331
1A83
331
1A84
331
1A8E
331
1A8F
331
1A97
331
1A98
331
1AA0
331
1AA1
331
1AA9
331
1AAA
331
1AB2
331
1AB3
331
1ABB
331
1ABC
331
1AC4
331
1AC5
331
1ACD
331
1ACE
331
1AD6
331
1AD7
102
}
  0
BLOCK_RECORD
  5
121
330
1
100
AcDbSymbolTableRecord
100
AcDbBlockTableRecord
  2
_DOTSMALL
340
0
  0
BLOCK_RECORD
  5
A82
330
1
100
AcDbSymbolTableRecord
100
AcDbBlockTableRecord
  2
*D3
340
0
  0
BLOCK_RECORD
  5
F7C
330
1
100
AcDbSymbolTableRecord
100
AcDbBlockTableRecord
  2
*D4
340
0
  0
BLOCK_RECORD
  5
FA3
330
1
100
AcDbSymbolTableRecord
100
AcDbBlockTableRecord
  2
*D5
340
0
  0
BLOCK_RECORD
  5
FAF
330
1
100
AcDbSymbolTableRecord
100
AcDbBlockTableRecord
  2
A$C6EDC16D0
340
0
  0
BLOCK_RECORD
  5
100A
330
1
100
AcDbSymbolTableRecord
100
AcDbBlockTableRecord
  2
*D7
340
0
  0
BLOCK_RECORD
  5
1020
330
1
100
AcDbSymbolTableRecord
100
AcDbBlockTableRecord
  2
*D8
340
0
  0
BLOCK_RECORD
  5
1036
330
1
100
AcDbSymbolTableRecord
100
AcDbBlockTableRecord
  2
*D9
340
0
  0
BLOCK_RECORD
  5
105C
330
1
100
AcDbSymbolTableRecord
100
AcDbBlockTableRecord
  2
*D10
340
0
  0
BLOCK_RECORD
  5
1096
330
1
100
AcDbSymbolTableRecord
100
AcDbBlockTableRecord
  2
*D11
340
0
  0
BLOCK_RECORD
  5
10AE
330
1
100
AcDbSymbolTableRecord
100
AcDbBlockTableRecord
  2
*D12
340
0
  0
BLOCK_RECORD
  5
10C4
330
1
100
AcDbSymbolTableRecord
100
AcDbBlockTableRecord
  2
*D13
340
0
  0
BLOCK_RECORD
  5
10DA
330
1
100
AcDbSymbolTableRecord
100
AcDbBlockTableRecord
  2
*D14
340
0
  0
BLOCK_RECORD
  5
10F0
330
1
100
AcDbSymbolTableRecord
100
AcDbBlockTableRecord
  2
*D15
340
0
  0
BLOCK_RECORD
  5
110F
330
1
100
AcDbSymbolTableRecord
100
AcDbBlockTableRecord
  2
*D16
340
0
  0
BLOCK_RECORD
  5
1137
330
1
100
AcDbSymbolTableRecord
100
AcDbBlockTableRecord
  2
*D17
340
0
  0
BLOCK_RECORD
  5
117A
330
1
100
AcDbSymbolTableRecord
100
AcDbBlockTableRecord
  2
*D18
340
0
  0
BLOCK_RECORD
  5
11C1
330
1
100
AcDbSymbolTableRecord
100
AcDbBlockTableRecord
  2
*D19
340
0
  0
BLOCK_RECORD
  5
11CE
330
1
100
AcDbSymbolTableRecord
100
AcDbBlockTableRecord
  2
*D20
340
0
  0
BLOCK_RECORD
  5
11F6
330
1
100
AcDbSymbolTableRecord
100
AcDbBlockTableRecord
  2
*D21
340
0
  0
BLOCK_RECORD
  5
1224
330
1
100
AcDbSymbolTableRecord
100
AcDbBlockTableRecord
  2
*D22
340
0
  0
BLOCK_RECORD
  5
1233
330
1
100
AcDbSymbolTableRecord
100
AcDbBlockTableRecord
  2
*D23
340
0
  0
BLOCK_RECORD
  5
1240
330
1
100
AcDbSymbolTableRecord
100
AcDbBlockTableRecord
  2
*D24
340
0
  0
BLOCK_RECORD
  5
16F7
330
1
100
AcDbSymbolTableRecord
100
AcDbBlockTableRecord
  2
*D27
340
0
  0
BLOCK_RECORD
  5
1766
330
1
100
AcDbSymbolTableRecord
100
AcDbBlockTableRecord
  2
*D28
340
0
  0
BLOCK_RECORD
  5
1772
330
1
100
AcDbSymbolTableRecord
100
AcDbBlockTableRecord
  2
*D29
340
0
  0
BLOCK_RECORD
  5
177E
330
1
100
AcDbSymbolTableRecord
100
AcDbBlockTableRecord
  2
*D30
340
0
  0
BLOCK_RECORD
  5
17DD
330
1
100
AcDbSymbolTableRecord
100
AcDbBlockTableRecord
  2
*D31
340
0
  0
BLOCK_RECORD
  5
17E9
330
1
100
AcDbSymbolTableRecord
100
AcDbBlockTableRecord
  2
*D32
340
0
  0
BLOCK_RECORD
  5
18EA
330
1
100
AcDbSymbolTableRecord
100
AcDbBlockTableRecord
  2
*D33
340
0
  0
BLOCK_RECORD
  5
18F7
330
1
100
AcDbSymbolTableRecord
100
AcDbBlockTableRecord
  2
*D34
340
0
  0
BLOCK_RECORD
  5
1903
330
1
100
AcDbSymbolTableRecord
100
AcDbBlockTableRecord
  2
*D35
340
0
  0
BLOCK_RECORD
  5
190F
330
1
100
AcDbSymbolTableRecord
100
AcDbBlockTableRecord
  2
*D36
340
0
  0
BLOCK_RECORD
  5
199A
330
1
100
AcDbSymbolTableRecord
100
AcDbBlockTableRecord
  2
*D37
340
0
  0
BLOCK_RECORD
  5
19A6
330
1
100
AcDbSymbolTableRecord
100
AcDbBlockTableRecord
  2
*D38
340
0
  0
BLOCK_RECORD
  5
19EB
330
1
100
AcDbSymbolTableRecord
100
AcDbBlockTableRecord
  2
*D39
340
0
  0
BLOCK_RECORD
  5
19F9
330
1
100
AcDbSymbolTableRecord
100
AcDbBlockTableRecord
  2
*D40
340
0
  0
BLOCK_RECORD
  5
1A05
330
1
100
AcDbSymbolTableRecord
100
AcDbBlockTableRecord
  2
*D41
340
0
  0
BLOCK_RECORD
  5
1A67
330
1
100
AcDbSymbolTableRecord
100
AcDbBlockTableRecord
  2
*D42
340
0
  0
BLOCK_RECORD
  5
1A73
330
1
100
AcDbSymbolTableRecord
100
AcDbBlockTableRecord
  2
*D43
340
0
  0
BLOCK_RECORD
  5
1A7F
330
1
100
AcDbSymbolTableRecord
100
AcDbBlockTableRecord
  2
*D44
340
0
  0
ENDTAB
  0
ENDSEC
  0
SECTION
  2
BLOCKS
  0
BLOCK
  5
5
330
2
100
AcDbEntity
  8
0
100
AcDbBlockBegin
  2
*MODEL_SPACE
 70
     0
 10
0.0
 20
0.0
 30
0.0
  3
*MODEL_SPACE
  1

  0
ENDBLK
  5
B
330
2
100
AcDbEntity
  8
0
100
AcDbBlockEnd
  0
BLOCK
  5
11
330
E
100
AcDbEntity
 67
     1
  8
0
100
AcDbBlockBegin
  2
*PAPER_SPACE
 70
     0
 10
0.0
 20
0.0
 30
0.0
  3
*PAPER_SPACE
  1

  0
ENDBLK
  5
12
330
E
100
AcDbEntity
 67
     1
  8
0
100
AcDbBlockEnd
  0
BLOCK
  5
32
330
2E
100
AcDbEntity
  8
0
100
AcDbBlockBegin
  2
_OPEN
 70
     0
 10
0.0
 20
0.0
 30
0.0
  3
_OPEN
  1

  0
LINE
  5
2F
330
2E
100
AcDbEntity
  8
0
  6
ByBlock
 62
     0
100
AcDbLine
 10
-1.0
 20
0.17
 30
0.0
 11
0.0
 21
0.0
 31
0.0
  0
LINE
  5
30
330
2E
100
AcDbEntity
  8
0
  6
ByBlock
 62
     0
100
AcDbLine
 10
0.0
 20
0.0
 30
0.0
 11
-1.0
 21
-0.17
 31
0.0
  0
LINE
  5
31
330
2E
100
AcDbEntity
  8
0
  6
ByBlock
 62
     0
100
AcDbLine
 10
0.0
 20
0.0
 30
0.0
 11
-1.0
 21
0.0
 31
0.0
  0
ENDBLK
  5
33
330
2E
100
AcDbEntity
  8
0
100
AcDbBlockEnd
  0
BLOCK
  5
2C
330
28
100
AcDbEntity
  8
0
100
AcDbBlockBegin
  2
_OPEN30
 70
     0
 10
0.0
 20
0.0
 30
0.0
  3
_OPEN30
  1

  0
LINE
  5
29
330
28
100
AcDbEntity
  8
0
  6
ByBlock
 62
     0
100
AcDbLine
 10
-1.0
 20
0.27
 30
0.0
 11
0.0
 21
0.0
 31
0.0
  0
LINE
  5
2A
330
28
100
AcDbEntity
  8
0
  6
ByBlock
 62
     0
100
AcDbLine
 10
0.0
 20
0.0
 30
0.0
 11
-1.0
 21
-0.27
 31
0.0
  0
LINE
  5
2B
330
28
100
AcDbEntity
  8
0
  6
ByBlock
 62
     0
100
AcDbLine
 10
0.0
 20
0.0
 30
0.0
 11
-1.0
 21
0.0
 31
0.0
  0
ENDBLK
  5
2D
330
28
100
AcDbEntity
  8
0
100
AcDbBlockEnd
  0
BLOCK
  5
123
330
121
100
AcDbEntity
  8
0
 62
     1
100
AcDbBlockBegin
  2
_DOTSMALL
 70
     0
 10
0.0
 20
0.0
 30
0.0
  3
_DOTSMALL
  1

  0
LWPOLYLINE
  5
122
330
121
100
AcDbEntity
  8
画層1
 62
     0
100
AcDbPolyline
 90
        2
 70
     1
 43
0.5
 10
-0.06
 20
0.0
 42
1.0
 10
0.06
 20
0.0
 42
1.0
  0
ENDBLK
  5
124
330
121
100
AcDbEntity
  8
0
 62
     1
100
AcDbBlockEnd
  0
BLOCK
  5
A8C
330
A82
100
AcDbEntity
  8
0
 62
     3
100
AcDbBlockBegin
  2
*D3
 70
     1
 10
0.0
 20
0.0
 30
0.0
  3
*D3
  1

  0
LINE
  5
1859
330
A82
100
AcDbEntity
  8
画層1
 62
     0
370
    -2
100
AcDbLine
 10
116.0469183776333
 20
-244.083619176081
 30
0.0
 11
96.22691837763325
 21
-244.083619176081
 31
0.0
  0
LINE
  5
185A
330
A82
100
AcDbEntity
  8
画層1
 62
     0
370
    -2
100
AcDbLine
 10
116.0469183776333
 20
-236.083619176081
 30
0.0
 11
96.22691837763325
 21
-236.083619176081
 31
0.0
  0
LINE
  5
185B
330
A82
100
AcDbEntity
  8
画層1
 62
     0
370
    -2
100
AcDbLine
 10
97.47691837763325
 20
-242.583619176081
 30
0.0
 11
97.47691837763325
 21
-237.583619176081
 31
0.0
  0
INSERT
  5
185C
330
A82
100
AcDbEntity
  8
画層1
 62
     0
370
    -2
100
AcDbBlockReference
  2
_OPEN30
 10
97.47691837763325
 20
-244.083619176081
 30
0.0
 41
1.5
 42
1.5
 43
1.5
 50
270.0
  0
INSERT
  5
185D
330
A82
100
AcDbEntity
  8
画層1
 62
     0
370
    -2
100
AcDbBlockReference
  2
_OPEN30
 10
97.47691837763325
 20
-236.083619176081
 30
0.0
 41
1.5
 42
1.5
 43
1.5
 50
90.0
  0
MTEXT
  5
185E
330
A82
100
AcDbEntity
  8
画層1
 62
     0
100
AcDbMText
 10
95.59691837763329
 20
-240.0836191760809
 30
0.0
 40
2.5
 41
0.0
 71
     5
 72
     1
  1
\A1;8
  7
STYLE1
 11
0.0000000000000001
 21
1.0
 31
0.0
 73
     1
 44
1.0
  0
POINT
  5
185F
330
A82
100
AcDbEntity
  8
DEFPOINTS
 62
     0
100
AcDbPoint
 10
116.6769183776332
 20
-244.083619176081
 30
0.0
  0
POINT
  5
1860
330
A82
100
AcDbEntity
  8
DEFPOINTS
 62
     0
100
AcDbPoint
 10
116.6769183776332
 20
-236.083619176081
 30
0.0
  0
POINT
  5
1861
330
A82
100
AcDbEntity
  8
DEFPOINTS
 62
     0
100
AcDbPoint
 10
97.47691837763325
 20
-236.083619176081
 30
0.0
  0
ENDBLK
  5
A8D
330
A82
100
AcDbEntity
  8
0
 62
     3
100
AcDbBlockEnd
  0
BLOCK
  5
F86
330
F7C
100
AcDbEntity
  8
0
 62
     3
100
AcDbBlockBegin
  2
*D4
 70
     1
 10
0.0
 20
0.0
 30
0.0
  3
*D4
  1

  0
LINE
  5
1898
330
F7C
100
AcDbEntity
  8
画層1
 62
     0
370
    -2
100
AcDbLine
 10
124.4769183776332
 20
-193.6536191760812
 30
0.0
 11
124.4769183776332
 21
-179.0336191760812
 31
0.0
  0
LINE
  5
1899
330
F7C
100
AcDbEntity
  8
画層1
 62
     0
370
    -2
100
AcDbLine
 10
224.4769183776332
 20
-193.6536191760812
 30
0.0
 11
224.4769183776332
 21
-179.0336191760812
 31
0.0
  0
LINE
  5
189A
330
F7C
100
AcDbEntity
  8
画層1
 62
     0
370
    -2
100
AcDbLine
 10
125.9769183776332
 20
-180.2836191760812
 30
0.0
 11
222.9769183776332
 21
-180.2836191760812
 31
0.0
  0
INSERT
  5
189B
330
F7C
100
AcDbEntity
  8
画層1
 62
     0
370
    -2
100
AcDbBlockReference
  2
_OPEN30
 10
124.4769183776332
 20
-180.2836191760812
 30
0.0
 41
1.5
 42
1.5
 43
1.5
 50
180.0
  0
INSERT
  5
189C
330
F7C
100
AcDbEntity
  8
画層1
 62
     0
370
    -2
100
AcDbBlockReference
  2
_OPEN30
 10
224.4769183776332
 20
-180.2836191760812
 30
0.0
 41
1.5
 42
1.5
 43
1.5
  0
MTEXT
  5
189D
330
F7C
100
AcDbEntity
  8
画層1
 62
     0
100
AcDbMText
 10
174.4769183776332
 20
-178.4036191760812
 30
0.0
 40
2.5
 41
0.0
 71
     5
 72
     1
  1
\A1;100
  7
STYLE1
 73
     1
 44
1.0
  0
POINT
  5
189E
330
F7C
100
AcDbEntity
  8
DEFPOINTS
 62
     0
100
AcDbPoint
 10
124.4769183776332
 20
-194.2836191760812
 30
0.0
  0
POINT
  5
189F
330
F7C
100
AcDbEntity
  8
DEFPOINTS
 62
     0
100
AcDbPoint
 10
224.4769183776332
 20
-194.2836191760812
 30
0.0
  0
POINT
  5
18A0
330
F7C
100
AcDbEntity
  8
DEFPOINTS
 62
     0
100
AcDbPoint
 10
224.4769183776332
 20
-180.2836191760812
 30
0.0
  0
ENDBLK
  5
F87
330
F7C
100
AcDbEntity
  8
0
 62
     3
100
AcDbBlockEnd
  0
BLOCK
  5
FAD
330
FA3
100
AcDbEntity
  8
0
 62
     3
100
AcDbBlockBegin
  2
*D5
 70
     1
 10
0.0
 20
0.0
 30
0.0
  3
*D5
  1

  0
LINE
  5
FA4
330
FA3
100
AcDbEntity
  8
画層1
 62
     0
370
    -2
100
AcDbLine
 10
118.8011687159888
 20
107.1030026895354
 30
0.0
 11
118.8011687159888
 21
81.75
 31
0.0
  0
LINE
  5
FA5
330
FA3
100
AcDbEntity
  8
画層1
 62
     0
370
    -2
100
AcDbLine
 10
145.3011687159888
 20
89.375
 30
0.0
 11
145.3011687159888
 21
81.75
 31
0.0
  0
LINE
  5
FA6
330
FA3
100
AcDbEntity
  8
画層1
 62
     0
370
    -2
100
AcDbLine
 10
120.3011687159887
 20
83.0
 30
0.0
 11
143.8011687159888
 21
83.0
 31
0.0
  0
INSERT
  5
FA7
330
FA3
100
AcDbEntity
  8
画層1
 62
     0
370
    -2
100
AcDbBlockReference
  2
_OPEN30
 10
118.8011687159888
 20
83.0
 30
0.0
 41
1.5
 42
1.5
 43
1.5
 50
180.0
  0
INSERT
  5
FA8
330
FA3
100
AcDbEntity
  8
画層1
 62
     0
370
    -2
100
AcDbBlockReference
  2
_OPEN30
 10
145.3011687159888
 20
83.0
 30
0.0
 41
1.5
 42
1.5
 43
1.5
  0
MTEXT
  5
FA9
330
FA3
100
AcDbEntity
  8
画層1
 62
     0
100
AcDbMText
 10
132.0511687159887
 20
84.875
 30
0.0
 40
2.5
 41
0.0
 71
     5
 72
     1
  1
\A1;53
  7
STYLE1
 73
     1
 44
1.0
  0
POINT
  5
FAA
330
FA3
100
AcDbEntity
  8
DEFPOINTS
 62
     0
100
AcDbPoint
 10
118.8011687159888
 20
107.7280026895355
 30
0.0
  0
POINT
  5
FAB
330
FA3
100
AcDbEntity
  8
DEFPOINTS
 62
     0
100
AcDbPoint
 10
145.3011687159888
 20
90.0
 30
0.0
  0
POINT
  5
FAC
330
FA3
100
AcDbEntity
  8
DEFPOINTS
 62
     0
100
AcDbPoint
 10
145.3011687159888
 20
83.0
 30
0.0
  0
ENDBLK
  5
FAE
330
FA3
100
AcDbEntity
  8
0
 62
     3
100
AcDbBlockEnd
  0
BLOCK
  5
FFE
330
FAF
100
AcDbEntity
  8
0
 62
     3
100
AcDbBlockBegin
  2
A$C6EDC16D0
 70
     0
 10
0.0
 20
0.0
 30
0.0
  3
A$C6EDC16D0
  1

  0
LINE
  5
FB0
330
FAF
100
AcDbEntity
  8
画層1
  6
CENTER
 62
     1
100
AcDbLine
 10
44.50000017184844
 20
46.2280030194235
 30
0.0
 11
47.50000017184844
 21
46.2280030194235
 31
0.0
  0
LINE
  5
FB1
330
FAF
100
AcDbEntity
  8
画層1
  6
CENTER
 62
     1
100
AcDbLine
 10
44.50000017184844
 20
38.22800301942351
 30
0.0
 11
47.50000017184844
 21
38.22800301942351
 31
0.0
  0
LINE
  5
FB2
330
FAF
100
AcDbEntity
  8
画層1
  6
DASHED2
 62
     2
100
AcDbLine
 10
62.50000017184845
 20
35.22800301942351
 30
0.0
 11
0.0000001718484555
 21
35.22800301942351
 31
0.0
  0
LINE
  5
FB3
330
FAF
100
AcDbEntity
  8
画層1
  6
DASHED2
 62
     2
100
AcDbLine
 10
0.0000001718484555
 20
49.2280030194235
 30
0.0
 11
62.50000017184845
 21
49.2280030194235
 31
0.0
  0
LINE
  5
FB4
330
FAF
100
AcDbEntity
  8
画層1
  6
DASHED2
 62
     2
100
AcDbLine
 10
0.0000001718484555
 20
35.22800301942351
 30
0.0
 11
0.0000001718484555
 21
49.2280030194235
 31
0.0
  0
ARC
  5
FB5
330
FAF
100
AcDbEntity
  8
画層1
  6
DASHED2
 62
     2
100
AcDbCircle
 10
33.50000017184845
 20
42.9780030194235
 30
0.0
 40
0.5
100
AcDbArc
 50
90.0
 51
180.0
  0
LINE
  5
FB6
330
FAF
100
AcDbEntity
  8
画層1
  6
DASHED2
 62
     2
100
AcDbLine
 10
33.65000017184843
 20
43.4780030194235
 30
0.0
 11
33.65000017184843
 21
43.9780030194235
 31
0.0
  0
ARC
  5
FB7
330
FAF
100
AcDbEntity
  8
画層1
  6
DASHED2
 62
     2
100
AcDbCircle
 10
32.00000017184844
 20
42.9780030194235
 30
0.0
 40
0.5
100
AcDbArc
 50
0.0
 51
90.0
  0
LINE
  5
FB8
330
FAF
100
AcDbEntity
  8
画層1
  6
DASHED2
 62
     2
100
AcDbLine
 10
31.85000017184846
 20
43.4780030194235
 30
0.0
 11
31.85000017184846
 21
43.9780030194235
 31
0.0
  0
CIRCLE
  5
FB9
330
FAF
100
AcDbEntity
  8
画層1
  6
DASHED2
 62
     2
100
AcDbCircle
 10
32.75000017184845
 20
43.7280030194235
 30
0.0
 40
1.75
  0
LINE
  5
FBA
330
FAF
100
AcDbEntity
  8
画層1
  6
DASHED2
 62
     2
100
AcDbLine
 10
40.25000017184845
 20
36.22800301942351
 30
0.0
 11
40.25000017184845
 21
46.2280030194235
 31
0.0
  0
LINE
  5
FBB
330
FAF
100
AcDbEntity
  8
画層1
  6
DASHED2
 62
     2
100
AcDbLine
 10
25.25000017184845
 20
46.2280030194235
 30
0.0
 11
25.25000017184845
 21
36.22800301942351
 31
0.0
  0
LINE
  5
FBC
330
FAF
100
AcDbEntity
  8
画層1
  6
DASHED2
 62
     2
100
AcDbLine
 10
36.07500017184838
 20
46.6030030194235
 30
0.0
 11
36.07500017184838
 21
35.85300301942351
 31
0.0
  0
LINE
  5
FBD
330
FAF
100
AcDbEntity
  8
画層1
  6
DASHED2
 62
     2
100
AcDbLine
 10
34.82500017184838
 20
46.6030030194235
 30
0.0
 11
34.82500017184838
 21
35.85300301942351
 31
0.0
  0
LINE
  5
FBE
330
FAF
100
AcDbEntity
  8
画層1
  6
DASHED2
 62
     2
100
AcDbLine
 10
30.67500017184852
 20
46.6030030194235
 30
0.0
 11
30.67500017184852
 21
35.85300301942351
 31
0.0
  0
LINE
  5
FBF
330
FAF
100
AcDbEntity
  8
画層1
  6
DASHED2
 62
     2
100
AcDbLine
 10
29.42500017184852
 20
46.6030030194235
 30
0.0
 11
29.42500017184852
 21
35.85300301942351
 31
0.0
  0
LINE
  5
FC0
330
FAF
100
AcDbEntity
  8
画層1
  6
CENTER
 62
     1
100
AcDbLine
 10
25.75000017184844
 20
38.72800301942351
 30
0.0
 11
28.75000017184845
 21
38.72800301942351
 31
0.0
  0
LINE
  5
FC1
330
FAF
100
AcDbEntity
  8
画層1
  6
DASHED2
 62
     2
100
AcDbLine
 10
25.25000017184845
 20
36.22800301942351
 30
0.0
 11
29.42500017184852
 21
36.22800301942351
 31
0.0
  0
LINE
  5
FC2
330
FAF
100
AcDbEntity
  8
画層1
  6
CENTER
 62
     1
100
AcDbLine
 10
18.00000017184844
 20
38.22800301942351
 30
0.0
 11
21.00000017184844
 21
38.22800301942351
 31
0.0
  0
LINE
  5
FC3
330
FAF
100
AcDbEntity
  8
画層1
  6
CENTER
 62
     1
100
AcDbLine
 10
19.50000017184844
 20
39.72800301942351
 30
0.0
 11
19.50000017184844
 21
36.72800301942351
 31
0.0
  0
LINE
  5
FC4
330
FAF
100
AcDbEntity
  8
画層1
  6
CENTER
 62
     1
100
AcDbLine
 10
27.25000017184845
 20
40.22800301942351
 30
0.0
 11
27.25000017184845
 21
37.22800301942351
 31
0.0
  0
LINE
  5
FC5
330
FAF
100
AcDbEntity
  8
画層1
  6
CENTER
 62
     1
100
AcDbLine
 10
36.75000017184845
 20
38.72800301942351
 30
0.0
 11
39.75000017184845
 21
38.72800301942351
 31
0.0
  0
LINE
  5
FC6
330
FAF
100
AcDbEntity
  8
画層1
  6
DASHED2
 62
     2
100
AcDbLine
 10
36.07500017184838
 20
36.22800301942351
 30
0.0
 11
40.25000017184845
 21
36.22800301942351
 31
0.0
  0
CIRCLE
  5
FC7
330
FAF
100
AcDbEntity
  8
画層1
  6
DASHED2
 62
     2
100
AcDbCircle
 10
32.75000017184845
 20
38.72800301942351
 30
0.0
 40
1.75
  0
LINE
  5
FC8
330
FAF
100
AcDbEntity
  8
画層1
  6
DASHED2
 62
     2
100
AcDbLine
 10
30.67500017184852
 20
36.22800301942351
 30
0.0
 11
34.82500017184838
 21
36.22800301942351
 31
0.0
  0
ARC
  5
FC9
330
FAF
100
AcDbEntity
  8
画層1
  6
DASHED2
 62
     2
100
AcDbCircle
 10
30.05000017184852
 20
35.85300301942351
 30
0.0
 40
0.625
100
AcDbArc
 50
180.0
 51
0.0
  0
ARC
  5
FCA
330
FAF
100
AcDbEntity
  8
画層1
  6
DASHED2
 62
     2
100
AcDbCircle
 10
35.45000017184838
 20
35.85300301942351
 30
0.0
 40
0.625
100
AcDbArc
 50
180.0
 51
0.0
  0
LINE
  5
FCB
330
FAF
100
AcDbEntity
  8
画層1
  6
DASHED2
 62
     2
100
AcDbLine
 10
32.50000017184845
 20
42.82800301942353
 30
0.0
 11
33.00000017184844
 21
42.82800301942353
 31
0.0
  0
LINE
  5
FCC
330
FAF
100
AcDbEntity
  8
画層1
  6
DASHED2
 62
     2
100
AcDbLine
 10
32.50000017184845
 20
39.62800301942349
 30
0.0
 11
33.00000017184844
 21
39.62800301942349
 31
0.0
  0
LINE
  5
FCD
330
FAF
100
AcDbEntity
  8
画層1
  6
DASHED2
 62
     2
100
AcDbLine
 10
32.50000017184845
 20
37.82800301942353
 30
0.0
 11
33.00000017184844
 21
37.82800301942353
 31
0.0
  0
LINE
  5
FCE
330
FAF
100
AcDbEntity
  8
画層1
  6
DASHED2
 62
     2
100
AcDbLine
 10
32.50000017184845
 20
42.82800301942353
 30
0.0
 11
32.50000017184845
 21
42.9780030194235
 31
0.0
  0
LINE
  5
FCF
330
FAF
100
AcDbEntity
  8
画層1
  6
DASHED2
 62
     2
100
AcDbLine
 10
32.00000017184857
 20
43.4780030194235
 30
0.0
 11
31.85000017184846
 21
43.4780030194235
 31
0.0
  0
ARC
  5
FD0
330
FAF
100
AcDbEntity
  8
画層1
  6
DASHED2
 62
     2
100
AcDbCircle
 10
32.00000017184844
 20
39.47800301942351
 30
0.0
 40
0.5
100
AcDbArc
 50
270.0
 51
0.0
  0
LINE
  5
FD1
330
FAF
100
AcDbEntity
  8
画層1
  6
DASHED2
 62
     2
100
AcDbLine
 10
31.85000017184846
 20
38.97800301942351
 30
0.0
 11
32.00000017184857
 21
38.97800301942351
 31
0.0
  0
LINE
  5
FD2
330
FAF
100
AcDbEntity
  8
画層1
  6
DASHED2
 62
     2
100
AcDbLine
 10
32.00000017184857
 20
38.47800301942351
 30
0.0
 11
31.85000017184846
 21
38.47800301942351
 31
0.0
  0
LINE
  5
FD3
330
FAF
100
AcDbEntity
  8
画層1
  6
DASHED2
 62
     2
100
AcDbLine
 10
31.85000017184846
 20
38.47800301942351
 30
0.0
 11
31.85000017184846
 21
38.97800301942351
 31
0.0
  0
LINE
  5
FD4
330
FAF
100
AcDbEntity
  8
画層1
  6
DASHED2
 62
     2
100
AcDbLine
 10
32.50000017184845
 20
39.47800301942351
 30
0.0
 11
32.50000017184845
 21
39.62800301942349
 31
0.0
  0
LINE
  5
FD5
330
FAF
100
AcDbEntity
  8
画層1
  6
DASHED2
 62
     2
100
AcDbLine
 10
32.50000017184845
 20
37.82800301942353
 30
0.0
 11
32.50000017184845
 21
37.97800301942351
 31
0.0
  0
ARC
  5
FD6
330
FAF
100
AcDbEntity
  8
画層1
  6
DASHED2
 62
     2
100
AcDbCircle
 10
32.00000017184844
 20
37.97800301942351
 30
0.0
 40
0.5
100
AcDbArc
 50
0.0
 51
90.0
  0
LINE
  5
FD7
330
FAF
100
AcDbEntity
  8
画層1
  6
DASHED2
 62
     2
100
AcDbLine
 10
33.00000017184844
 20
42.9780030194235
 30
0.0
 11
33.00000017184844
 21
42.82800301942353
 31
0.0
  0
LINE
  5
FD8
330
FAF
100
AcDbEntity
  8
画層1
  6
DASHED2
 62
     2
100
AcDbLine
 10
33.65000017184843
 20
43.4780030194235
 30
0.0
 11
33.50000017184845
 21
43.4780030194235
 31
0.0
  0
ARC
  5
FD9
330
FAF
100
AcDbEntity
  8
画層1
  6
DASHED2
 62
     2
100
AcDbCircle
 10
33.50000017184845
 20
39.47800301942351
 30
0.0
 40
0.5
100
AcDbArc
 50
180.0
 51
270.0
  0
LINE
  5
FDA
330
FAF
100
AcDbEntity
  8
画層1
  6
DASHED2
 62
     2
100
AcDbLine
 10
33.00000017184844
 20
39.62800301942349
 30
0.0
 11
33.00000017184844
 21
39.47800301942351
 31
0.0
  0
LINE
  5
FDB
330
FAF
100
AcDbEntity
  8
画層1
  6
DASHED2
 62
     2
100
AcDbLine
 10
33.50000017184845
 20
38.97800301942351
 30
0.0
 11
33.65000017184843
 21
38.97800301942351
 31
0.0
  0
LINE
  5
FDC
330
FAF
100
AcDbEntity
  8
画層1
  6
DASHED2
 62
     2
100
AcDbLine
 10
33.65000017184843
 20
38.47800301942351
 30
0.0
 11
33.50000017184845
 21
38.47800301942351
 31
0.0
  0
LINE
  5
FDD
330
FAF
100
AcDbEntity
  8
画層1
  6
DASHED2
 62
     2
100
AcDbLine
 10
33.65000017184843
 20
38.47800301942351
 30
0.0
 11
33.65000017184843
 21
38.97800301942351
 31
0.0
  0
LINE
  5
FDE
330
FAF
100
AcDbEntity
  8
画層1
  6
DASHED2
 62
     2
100
AcDbLine
 10
33.00000017184844
 20
37.97800301942351
 30
0.0
 11
33.00000017184844
 21
37.82800301942353
 31
0.0
  0
ARC
  5
FDF
330
FAF
100
AcDbEntity
  8
画層1
  6
DASHED2
 62
     2
100
AcDbCircle
 10
33.50000017184845
 20
37.97800301942351
 30
0.0
 40
0.5
100
AcDbArc
 50
90.0
 51
180.0
  0
LINE
  5
FE0
330
FAF
100
AcDbEntity
  8
画層1
  6
CENTER
 62
     1
100
AcDbLine
 10
38.25000017184845
 20
40.22800301942351
 30
0.0
 11
38.25000017184845
 21
37.22800301942351
 31
0.0
  0
LINE
  5
FE1
330
FAF
100
AcDbEntity
  8
画層1
  6
DASHED2
 62
     2
100
AcDbLine
 10
29.42500017184852
 20
46.2280030194235
 30
0.0
 11
25.25000017184845
 21
46.2280030194235
 31
0.0
  0
LINE
  5
FE2
330
FAF
100
AcDbEntity
  8
画層1
  6
CENTER
 62
     1
100
AcDbLine
 10
18.00000017184844
 20
46.2280030194235
 30
0.0
 11
21.00000017184844
 21
46.2280030194235
 31
0.0
  0
LINE
  5
FE3
330
FAF
100
AcDbEntity
  8
画層1
  6
CENTER
 62
     1
100
AcDbLine
 10
19.50000017184844
 20
47.7280030194235
 30
0.0
 11
19.50000017184844
 21
44.7280030194235
 31
0.0
  0
LINE
  5
FE4
330
FAF
100
AcDbEntity
  8
画層1
  6
DASHED2
 62
     2
100
AcDbLine
 10
40.25000017184845
 20
46.2280030194235
 30
0.0
 11
36.07500017184838
 21
46.2280030194235
 31
0.0
  0
LINE
  5
FE5
330
FAF
100
AcDbEntity
  8
画層1
  6
DASHED2
 62
     2
100
AcDbLine
 10
32.50000017184845
 20
44.62800301942349
 30
0.0
 11
33.00000017184844
 21
44.62800301942349
 31
0.0
  0
LINE
  5
FE6
330
FAF
100
AcDbEntity
  8
画層1
  6
DASHED2
 62
     2
100
AcDbLine
 10
34.82500017184838
 20
46.2280030194235
 30
0.0
 11
30.67500017184852
 21
46.2280030194235
 31
0.0
  0
LINE
  5
FE7
330
FAF
100
AcDbEntity
  8
画層1
  6
DASHED2
 62
     2
100
AcDbLine
 10
32.50000017184845
 20
44.4780030194235
 30
0.0
 11
32.50000017184845
 21
44.62800301942349
 31
0.0
  0
LINE
  5
FE8
330
FAF
100
AcDbEntity
  8
画層1
  6
DASHED2
 62
     2
100
AcDbLine
 10
31.85000017184846
 20
43.9780030194235
 30
0.0
 11
32.00000017184857
 21
43.9780030194235
 31
0.0
  0
ARC
  5
FE9
330
FAF
100
AcDbEntity
  8
画層1
  6
DASHED2
 62
     2
100
AcDbCircle
 10
32.00000017184844
 20
44.4780030194235
 30
0.0
 40
0.5
100
AcDbArc
 50
270.0
 51
0.0
  0
ARC
  5
FEA
330
FAF
100
AcDbEntity
  8
画層1
  6
DASHED2
 62
     2
100
AcDbCircle
 10
30.05000017184852
 20
46.6030030194235
 30
0.0
 40
0.625
100
AcDbArc
 50
0.0
 51
180.0
  0
LINE
  5
FEB
330
FAF
100
AcDbEntity
  8
画層1
  6
DASHED2
 62
     2
100
AcDbLine
 10
33.50000017184845
 20
43.9780030194235
 30
0.0
 11
33.65000017184843
 21
43.9780030194235
 31
0.0
  0
LINE
  5
FEC
330
FAF
100
AcDbEntity
  8
画層1
  6
DASHED2
 62
     2
100
AcDbLine
 10
33.00000017184844
 20
44.62800301942349
 30
0.0
 11
33.00000017184844
 21
44.4780030194235
 31
0.0
  0
ARC
  5
FED
330
FAF
100
AcDbEntity
  8
画層1
  6
DASHED2
 62
     2
100
AcDbCircle
 10
33.50000017184845
 20
44.4780030194235
 30
0.0
 40
0.5
100
AcDbArc
 50
180.0
 51
270.0
  0
ARC
  5
FEE
330
FAF
100
AcDbEntity
  8
画層1
  6
DASHED2
 62
     2
100
AcDbCircle
 10
35.45000017184838
 20
46.6030030194235
 30
0.0
 40
0.625
100
AcDbArc
 50
0.0
 51
180.0
  0
LINE
  5
FEF
330
FAF
100
AcDbEntity
  8
画層1
  6
DASHED2
 62
     2
100
AcDbLine
 10
62.50000017184845
 20
49.2280030194235
 30
0.0
 11
62.50000017184845
 21
35.22800301942351
 31
0.0
  0
LINE
  5
FF0
330
FAF
100
AcDbEntity
  8
画層1
  6
CENTER
 62
     1
100
AcDbLine
 10
46.00000017184846
 20
39.72800301942351
 30
0.0
 11
46.00000017184846
 21
36.72800301942351
 31
0.0
  0
LINE
  5
FF1
330
FAF
100
AcDbEntity
  8
画層1
  6
CENTER
 62
     1
100
AcDbLine
 10
46.00000017184846
 20
47.7280030194235
 30
0.0
 11
46.00000017184846
 21
44.7280030194235
 31
0.0
  0
LINE
  5
FF2
330
FAF
100
AcDbEntity
  8
画層1
  6
DASHED2
 62
     2
100
AcDbLine
 10
24.50000017184844
 20
54.2280030194235
 30
0.0
 11
24.50000017184844
 21
23.72800301942351
 31
0.0
  0
LINE
  5
FF3
330
FAF
100
AcDbEntity
  8
画層1
  6
DASHED2
 62
     2
100
AcDbLine
 10
14.50000017184845
 20
54.2280030194235
 30
0.0
 11
14.50000017184845
 21
23.72800301942351
 31
0.0
  0
DIMENSION
  5
FF4
330
FAF
100
AcDbEntity
  8
画層1
 62
     1
100
AcDbDimension
  2
*D5
 10
46.00000017184846
 20
1.250000329887938
 30
0.0
 11
32.75000017184845
 21
3.125000329887939
 31
0.0
 12
-99.30116854414041
 22
-81.74999967011206
 32
0.0
 71
     5
 42
53.0
  3
STANDARD_WS
100
AcDbAlignedDimension
 13
19.50000017184844
 23
25.97800301942351
 33
0.0
 14
46.00000017184846
 24
8.250000329887939
 34
0.0
100
AcDbRotatedDimension
1001
ACAD
1000
DSTYLE
1002
{
1070
    47
1040
0.6
1070
   144
1040
2.0
1070
   146
1040
0.5
1070
   173
1070
     0
1070
   284
1070
     8
1070
   340
1005
27
1070
   341
1005
28
1070
   342
1005
28
1070
   343
1005
28
1002
}
  0
LINE
  5
FF5
330
FAF
100
AcDbEntity
  8
画層1
  6
CENTER
 62
     1
100
AcDbLine
 10
19.50000017184844
 20
32.47800301942351
 30
0.0
 11
19.50000017184844
 21
23.97800301942351
 31
0.0
  0
LINE
  5
FF6
330
FAF
100
AcDbEntity
  8
画層1
  6
CENTER
 62
     1
100
AcDbLine
 10
15.25000017184845
 20
28.22800301942351
 30
0.0
 11
23.75000017184845
 21
28.22800301942351
 31
0.0
  0
CIRCLE
  5
FF7
330
FAF
100
AcDbEntity
  8
画層1
  6
DASHED2
 62
     2
100
AcDbCircle
 10
19.50000017184844
 20
28.22800301942351
 30
0.0
 40
2.25
  0
LINE
  5
FF8
330
FAF
100
AcDbEntity
  8
画層1
  6
CENTER
 62
     1
100
AcDbLine
 10
41.75000017184845
 20
28.22800301942351
 30
0.0
 11
50.25000017184845
 21
28.22800301942351
 31
0.0
  0
CIRCLE
  5
FF9
330
FAF
100
AcDbEntity
  8
画層1
  6
DASHED2
 62
     2
100
AcDbCircle
 10
46.00000017184846
 20
28.22800301942351
 30
0.0
 40
2.25
  0
LEADER
  5
FFA
330
FAF
100
AcDbEntity
  8
画層1
 62
     1
100
AcDbLeader
  3
STANDARD_WS
 73
     0
 75
     1
 40
2.906091370558375
 41
7.779187817258882
 76
     3
 10
44.95246904861287
 20
26.23672741171553
 30
0.0
 10
35.49036528435988
 20
8.250000329887939
 30
0.0
 10
33.99036528435988
 20
8.250000329887939
 30
0.0
340
FFB
213
-0.5
223
0.2103808082507612
233
0.0
1001
ACAD
1000
DSTYLE
1002
{
1070
   341
1005
28
1070
   147
1040
0.625
1070
    77
1070
     2
1070
    47
1040
0.6
1070
   144
1040
2.0
1070
   146
1040
0.5
1070
   284
1070
     8
1070
   340
1005
27
1002
}
  0
MTEXT
  5
FFB
102
{ACAD_REACTORS
330
FFA
102
}
330
FAF
100
AcDbEntity
  8
画層1
 62
     1
100
AcDbMText
 10
33.86536528435988
 20
8.664619521637177
 30
0.0
 40
2.5
 41
0.0
 71
     9
 72
     1
  1
2-φ9
  7
STYLE1
 73
     1
 44
1.0
  0
LINE
  5
FFC
330
FAF
100
AcDbEntity
  8
画層1
 62
     1
100
AcDbLine
 10
46.00000017184846
 20
25.97800301942351
 30
0.0
 11
46.00000017184846
 21
11.87500032988792
 31
0.0
  0
LINE
  5
FFD
330
FAF
100
AcDbEntity
  8
画層1
  6
CENTER
 62
     1
100
AcDbLine
 10
46.00000017184846
 20
32.47800301942351
 30
0.0
 11
46.00000017184846
 21
23.97800301942351
 31
0.0
  0
ENDBLK
  5
FFF
330
FAF
100
AcDbEntity
  8
0
 62
     3
100
AcDbBlockEnd
  0
BLOCK
  5
1014
330
100A
100
AcDbEntity
  8
0
 62
     3
100
AcDbBlockBegin
  2
*D7
 70
     1
 10
0.0
 20
0.0
 30
0.0
  3
*D7
  1

  0
LINE
  5
18A1
330
100A
100
AcDbEntity
  8
画層1
 62
     0
370
    -2
100
AcDbLine
 10
224.4769183776332
 20
-193.6536191760812
 30
0.0
 11
224.4769183776332
 21
-179.0336191760812
 31
0.0
  0
LINE
  5
18A2
330
100A
100
AcDbEntity
  8
画層1
 62
     0
370
    -2
100
AcDbLine
 10
238.4769183776333
 20
-198.1536191760812
 30
0.0
 11
238.4769183776333
 21
-179.0336191760812
 31
0.0
  0
LINE
  5
18A3
330
100A
100
AcDbEntity
  8
画層1
 62
     0
370
    -2
100
AcDbLine
 10
225.9769183776332
 20
-180.2836191760812
 30
0.0
 11
236.9769183776333
 21
-180.2836191760812
 31
0.0
  0
INSERT
  5
18A4
330
100A
100
AcDbEntity
  8
画層1
 62
     0
370
    -2
100
AcDbBlockReference
  2
_OPEN30
 10
224.4769183776332
 20
-180.2836191760812
 30
0.0
 41
1.5
 42
1.5
 43
1.5
 50
180.0
  0
INSERT
  5
18A5
330
100A
100
AcDbEntity
  8
画層1
 62
     0
370
    -2
100
AcDbBlockReference
  2
_OPEN30
 10
238.4769183776333
 20
-180.2836191760812
 30
0.0
 41
1.5
 42
1.5
 43
1.5
  0
MTEXT
  5
18A6
330
100A
100
AcDbEntity
  8
画層1
 62
     0
100
AcDbMText
 10
231.4769183776332
 20
-178.194228313137
 30
0.0
 40
2.5
 41
0.0
 71
     5
 72
     1
  1
\A1;(14)
  7
STYLE1
 73
     1
 44
1.0
  0
POINT
  5
18A7
330
100A
100
AcDbEntity
  8
DEFPOINTS
 62
     0
100
AcDbPoint
 10
224.4769183776332
 20
-194.2836191760812
 30
0.0
  0
POINT
  5
18A8
330
100A
100
AcDbEntity
  8
DEFPOINTS
 62
     0
100
AcDbPoint
 10
238.4769183776333
 20
-198.7836191760812
 30
0.0
  0
POINT
  5
18A9
330
100A
100
AcDbEntity
  8
DEFPOINTS
 62
     0
100
AcDbPoint
 10
238.4769183776333
 20
-180.2836191760812
 30
0.0
  0
ENDBLK
  5
1015
330
100A
100
AcDbEntity
  8
0
 62
     3
100
AcDbBlockEnd
  0
BLOCK
  5
102A
330
1020
100
AcDbEntity
  8
0
 62
     1
100
AcDbBlockBegin
  2
*D8
 70
     1
 10
0.0
 20
0.0
 30
0.0
  3
*D8
  1

  0
LINE
  5
188F
330
1020
100
AcDbEntity
  8
画層1
 62
     0
370
    -2
100
AcDbLine
 10
110.4769183776332
 20
-186.6536191760811
 30
0.0
 11
110.4769183776332
 21
-172.0336191760812
 31
0.0
  0
LINE
  5
1890
330
1020
100
AcDbEntity
  8
画層1
 62
     0
370
    -2
100
AcDbLine
 10
238.4769183776333
 20
-198.1536191760812
 30
0.0
 11
238.4769183776333
 21
-172.0336191760812
 31
0.0
  0
LINE
  5
1891
330
1020
100
AcDbEntity
  8
画層1
 62
     0
370
    -2
100
AcDbLine
 10
111.9769183776333
 20
-173.2836191760812
 30
0.0
 11
236.9769183776333
 21
-173.2836191760812
 31
0.0
  0
INSERT
  5
1892
330
1020
100
AcDbEntity
  8
画層1
 62
     0
370
    -2
100
AcDbBlockReference
  2
_OPEN30
 10
110.4769183776332
 20
-173.2836191760812
 30
0.0
 41
1.5
 42
1.5
 43
1.5
 50
180.0
  0
INSERT
  5
1893
330
1020
100
AcDbEntity
  8
画層1
 62
     0
370
    -2
100
AcDbBlockReference
  2
_OPEN30
 10
238.4769183776333
 20
-173.2836191760812
 30
0.0
 41
1.5
 42
1.5
 43
1.5
  0
MTEXT
  5
1894
330
1020
100
AcDbEntity
  8
画層1
 62
     0
100
AcDbMText
 10
174.4769183776333
 20
-171.4036191760812
 30
0.0
 40
2.5
 41
0.0
 71
     5
 72
     1
  1
\A1;128
  7
STYLE1
 73
     1
 44
1.0
  0
POINT
  5
1895
330
1020
100
AcDbEntity
  8
DEFPOINTS
 62
     0
100
AcDbPoint
 10
110.4769183776332
 20
-187.2836191760811
 30
0.0
  0
POINT
  5
1896
330
1020
100
AcDbEntity
  8
DEFPOINTS
 62
     0
100
AcDbPoint
 10
238.4769183776333
 20
-198.7836191760812
 30
0.0
  0
POINT
  5
1897
330
1020
100
AcDbEntity
  8
DEFPOINTS
 62
     0
100
AcDbPoint
 10
238.4769183776333
 20
-173.2836191760812
 30
0.0
  0
ENDBLK
  5
102B
330
1020
100
AcDbEntity
  8
0
 62
     1
100
AcDbBlockEnd
  0
BLOCK
  5
1040
330
1036
100
AcDbEntity
  8
0
 62
     1
100
AcDbBlockBegin
  2
*D9
 70
     1
 10
0.0
 20
0.0
 30
0.0
  3
*D9
  1

  0
LINE
  5
1846
330
1036
100
AcDbEntity
  8
画層1
 62
     0
370
    -2
100
AcDbLine
 10
238.4769183776333
 20
-197.1536191760812
 30
0.0
 11
238.4769183776333
 21
-172.0336191760812
 31
0.0
  0
LINE
  5
1847
330
1036
100
AcDbEntity
  8
画層1
 62
     0
370
    -2
100
AcDbLine
 10
244.4769183776333
 20
-253.6536191760812
 30
0.0
 11
244.4769183776333
 21
-172.0336191760812
 31
0.0
  0
LINE
  5
1848
330
1036
100
AcDbEntity
  8
画層1
 62
     0
370
    -2
100
AcDbLine
 10
239.9769183776333
 20
-173.2836191760812
 30
0.0
 11
242.9769183776333
 21
-173.2836191760812
 31
0.0
  0
INSERT
  5
1849
330
1036
100
AcDbEntity
  8
画層1
 62
     0
370
    -2
100
AcDbBlockReference
  2
_OPEN30
 10
238.4769183776333
 20
-173.2836191760812
 30
0.0
 41
1.5
 42
1.5
 43
1.5
 50
180.0
  0
INSERT
  5
184A
330
1036
100
AcDbEntity
  8
画層1
 62
     0
370
    -2
100
AcDbBlockReference
  2
_OPEN30
 10
244.4769183776333
 20
-173.2836191760812
 30
0.0
 41
1.5
 42
1.5
 43
1.5
  0
MTEXT
  5
184B
330
1036
100
AcDbEntity
  8
画層1
 62
     0
100
AcDbMText
 10
241.4769183776333
 20
-171.4036191760812
 30
0.0
 40
2.5
 41
0.0
 71
     5
 72
     1
  1
\A1;6
  7
STYLE1
 73
     1
 44
1.0
  0
POINT
  5
184C
330
1036
100
AcDbEntity
  8
DEFPOINTS
 62
     0
100
AcDbPoint
 10
238.4769183776333
 20
-197.7836191760812
 30
0.0
  0
POINT
  5
184D
330
1036
100
AcDbEntity
  8
DEFPOINTS
 62
     0
100
AcDbPoint
 10
244.4769183776333
 20
-254.2836191760812
 30
0.0
  0
POINT
  5
184E
330
1036
100
AcDbEntity
  8
DEFPOINTS
 62
     0
100
AcDbPoint
 10
244.4769183776333
 20
-173.2836191760812
 30
0.0
  0
ENDBLK
  5
1041
330
1036
100
AcDbEntity
  8
0
 62
     1
100
AcDbBlockEnd
  0
BLOCK
  5
1066
330
105C
100
AcDbEntity
  8
0
 62
     1
100
AcDbBlockBegin
  2
*D10
 70
     1
 10
0.0
 20
0.0
 30
0.0
  3
*D10
  1

  0
LINE
  5
183D
330
105C
100
AcDbEntity
  8
画層1
 62
     0
370
    -2
100
AcDbLine
 10
104.4769183776332
 20
-253.6536191760812
 30
0.0
 11
104.4769183776332
 21
-165.0336191760812
 31
0.0
  0
LINE
  5
183E
330
105C
100
AcDbEntity
  8
画層1
 62
     0
370
    -2
100
AcDbLine
 10
244.4769183776333
 20
-253.6536191760812
 30
0.0
 11
244.4769183776333
 21
-165.0336191760812
 31
0.0
  0
LINE
  5
183F
330
105C
100
AcDbEntity
  8
画層1
 62
     0
370
    -2
100
AcDbLine
 10
105.9769183776332
 20
-166.2836191760812
 30
0.0
 11
242.9769183776333
 21
-166.2836191760812
 31
0.0
  0
INSERT
  5
1840
330
105C
100
AcDbEntity
  8
画層1
 62
     0
370
    -2
100
AcDbBlockReference
  2
_OPEN30
 10
104.4769183776332
 20
-166.2836191760812
 30
0.0
 41
1.5
 42
1.5
 43
1.5
 50
180.0
  0
INSERT
  5
1841
330
105C
100
AcDbEntity
  8
画層1
 62
     0
370
    -2
100
AcDbBlockReference
  2
_OPEN30
 10
244.4769183776333
 20
-166.2836191760812
 30
0.0
 41
1.5
 42
1.5
 43
1.5
  0
MTEXT
  5
1842
330
105C
100
AcDbEntity
  8
画層1
 62
     0
100
AcDbMText
 10
174.4769183776333
 20
-164.4036191760812
 30
0.0
 40
2.5
 41
0.0
 71
     5
 72
     1
  1
\A1;140
  7
STYLE1
 73
     1
 44
1.0
  0
POINT
  5
1843
330
105C
100
AcDbEntity
  8
DEFPOINTS
 62
     0
100
AcDbPoint
 10
104.4769183776332
 20
-254.2836191760812
 30
0.0
  0
POINT
  5
1844
330
105C
100
AcDbEntity
  8
DEFPOINTS
 62
     0
100
AcDbPoint
 10
244.4769183776333
 20
-254.2836191760812
 30
0.0
  0
POINT
  5
1845
330
105C
100
AcDbEntity
  8
DEFPOINTS
 62
     0
100
AcDbPoint
 10
244.4769183776333
 20
-166.2836191760812
 30
0.0
  0
ENDBLK
  5
1067
330
105C
100
AcDbEntity
  8
0
 62
     1
100
AcDbBlockEnd
  0
BLOCK
  5
10A0
330
1096
100
AcDbEntity
  8
0
 62
     1
100
AcDbBlockBegin
  2
*D11
 70
     1
 10
0.0
 20
0.0
 30
0.0
  3
*D11
  1

  0
LINE
  5
1834
330
1096
100
AcDbEntity
  8
画層1
 62
     0
370
    -2
100
AcDbLine
 10
123.8469183776332
 20
-194.2836191760812
 30
0.0
 11
89.22691837763323
 21
-194.2836191760812
 31
0.0
  0
LINE
  5
1835
330
1096
100
AcDbEntity
  8
画層1
 62
     0
370
    -2
100
AcDbLine
 10
123.8469183776332
 20
-480.283619176081
 30
0.0
 11
89.22691837763316
 21
-480.283619176081
 31
0.0
  0
LINE
  5
1836
330
1096
100
AcDbEntity
  8
画層1
 62
     0
370
    -2
100
AcDbLine
 10
90.47691837763323
 20
-195.7836191760812
 30
0.0
 11
90.47691837763318
 21
-478.783619176081
 31
0.0
  0
INSERT
  5
1837
330
1096
100
AcDbEntity
  8
画層1
 62
     0
370
    -2
100
AcDbBlockReference
  2
_OPEN30
 10
90.47691837763323
 20
-194.2836191760812
 30
0.0
 41
1.5
 42
1.5
 43
1.5
 50
90.0
  0
INSERT
  5
1838
330
1096
100
AcDbEntity
  8
画層1
 62
     0
370
    -2
100
AcDbBlockReference
  2
_OPEN30
 10
90.47691837763316
 20
-480.283619176081
 30
0.0
 41
1.5
 42
1.5
 43
1.5
 50
270.0
  0
MTEXT
  5
1839
330
1096
100
AcDbEntity
  8
画層1
 62
     0
100
AcDbMText
 10
88.59691837763326
 20
-337.2836191760811
 30
0.0
 40
2.5
 41
0.0
 71
     5
 72
     1
  1
\A1;286
  7
STYLE1
 11
0.0000000000000001
 21
1.0
 31
0.0
 73
     1
 44
1.0
  0
POINT
  5
183A
330
1096
100
AcDbEntity
  8
DEFPOINTS
 62
     0
100
AcDbPoint
 10
124.4769183776332
 20
-194.2836191760812
 30
0.0
  0
POINT
  5
183B
330
1096
100
AcDbEntity
  8
DEFPOINTS
 62
     0
100
AcDbPoint
 10
124.4769183776332
 20
-480.283619176081
 30
0.0
  0
POINT
  5
183C
330
1096
100
AcDbEntity
  8
DEFPOINTS
 62
     0
100
AcDbPoint
 10
90.47691837763316
 20
-480.283619176081
 30
0.0
  0
ENDBLK
  5
10A1
330
1096
100
AcDbEntity
  8
0
 62
     1
100
AcDbBlockEnd
  0
BLOCK
  5
10B8
330
10AE
100
AcDbEntity
  8
0
 62
     1
100
AcDbBlockBegin
  2
*D12
 70
     1
 10
0.0
 20
0.0
 30
0.0
  3
*D12
  1

  0
LINE
  5
182B
330
10AE
100
AcDbEntity
  8
画層1
 62
     0
370
    -2
100
AcDbLine
 10
238.7069183776332
 20
-187.2836191760812
 30
0.0
 11
259.7269183776332
 21
-187.2836191760812
 31
0.0
  0
LINE
  5
182C
330
10AE
100
AcDbEntity
  8
画層1
 62
     0
370
    -2
100
AcDbLine
 10
238.7069183776332
 20
-487.2836191760811
 30
0.0
 11
259.7269183776331
 21
-487.2836191760811
 31
0.0
  0
LINE
  5
182D
330
10AE
100
AcDbEntity
  8
画層1
 62
     0
370
    -2
100
AcDbLine
 10
258.4769183776332
 20
-188.7836191760812
 30
0.0
 11
258.4769183776332
 21
-485.7836191760811
 31
0.0
  0
INSERT
  5
182E
330
10AE
100
AcDbEntity
  8
画層1
 62
     0
370
    -2
100
AcDbBlockReference
  2
_OPEN30
 10
258.4769183776332
 20
-187.2836191760812
 30
0.0
 41
1.5
 42
1.5
 43
1.5
 50
90.0
  0
INSERT
  5
182F
330
10AE
100
AcDbEntity
  8
画層1
 62
     0
370
    -2
100
AcDbBlockReference
  2
_OPEN30
 10
258.4769183776332
 20
-487.2836191760811
 30
0.0
 41
1.5
 42
1.5
 43
1.5
 50
270.0
  0
MTEXT
  5
1830
330
10AE
100
AcDbEntity
  8
画層1
 62
     0
100
AcDbMText
 10
256.5969183776333
 20
-337.2836191760811
 30
0.0
 40
2.5
 41
0.0
 71
     5
 72
     1
  1
\A1;300
  7
STYLE1
 11
0.0000000000000001
 21
1.0
 31
0.0
 73
     1
 44
1.0
  0
POINT
  5
1831
330
10AE
100
AcDbEntity
  8
DEFPOINTS
 62
     0
100
AcDbPoint
 10
238.0769183776332
 20
-187.2836191760812
 30
0.0
  0
POINT
  5
1832
330
10AE
100
AcDbEntity
  8
DEFPOINTS
 62
     0
100
AcDbPoint
 10
238.0769183776332
 20
-487.2836191760811
 30
0.0
  0
POINT
  5
1833
330
10AE
100
AcDbEntity
  8
DEFPOINTS
 62
     0
100
AcDbPoint
 10
258.4769183776332
 20
-487.2836191760811
 30
0.0
  0
ENDBLK
  5
10B9
330
10AE
100
AcDbEntity
  8
0
 62
     1
100
AcDbBlockEnd
  0
BLOCK
  5
10CE
330
10C4
100
AcDbEntity
  8
0
 62
     1
100
AcDbBlockBegin
  2
*D13
 70
     1
 10
0.0
 20
0.0
 30
0.0
  3
*D13
  1

  0
LINE
  5
186B
330
10C4
100
AcDbEntity
  8
画層1
 62
     0
370
    -2
100
AcDbLine
 10
238.7069183776332
 20
-487.2836191760811
 30
0.0
 11
252.7269183776332
 21
-487.2836191760811
 31
0.0
  0
LINE
  5
186C
330
10C4
100
AcDbEntity
  8
画層1
 62
     0
370
    -2
100
AcDbLine
 10
204.1069183776332
 20
-473.2836191760809
 30
0.0
 11
252.7269183776332
 21
-473.2836191760809
 31
0.0
  0
LINE
  5
186D
330
10C4
100
AcDbEntity
  8
画層1
 62
     0
370
    -2
100
AcDbLine
 10
251.4769183776332
 20
-485.7836191760811
 30
0.0
 11
251.4769183776332
 21
-474.783619176081
 31
0.0
  0
INSERT
  5
186E
330
10C4
100
AcDbEntity
  8
画層1
 62
     0
370
    -2
100
AcDbBlockReference
  2
_OPEN30
 10
251.4769183776332
 20
-487.2836191760811
 30
0.0
 41
1.5
 42
1.5
 43
1.5
 50
270.0
  0
INSERT
  5
186F
330
10C4
100
AcDbEntity
  8
画層1
 62
     0
370
    -2
100
AcDbBlockReference
  2
_OPEN30
 10
251.4769183776332
 20
-473.2836191760809
 30
0.0
 41
1.5
 42
1.5
 43
1.5
 50
90.0
  0
MTEXT
  5
1870
330
10C4
100
AcDbEntity
  8
画層1
 62
     0
100
AcDbMText
 10
249.5969183776332
 20
-480.283619176081
 30
0.0
 40
2.5
 41
0.0
 71
     5
 72
     1
  1
\A1;14
  7
STYLE1
 11
0.0000000000000001
 21
1.0
 31
0.0
 73
     1
 44
1.0
  0
POINT
  5
1871
330
10C4
100
AcDbEntity
  8
DEFPOINTS
 62
     0
100
AcDbPoint
 10
238.0769183776332
 20
-487.2836191760811
 30
0.0
  0
POINT
  5
1872
330
10C4
100
AcDbEntity
  8
DEFPOINTS
 62
     0
100
AcDbPoint
 10
203.4769183776332
 20
-473.2836191760809
 30
0.0
  0
POINT
  5
1873
330
10C4
100
AcDbEntity
  8
DEFPOINTS
 62
     0
100
AcDbPoint
 10
251.4769183776332
 20
-473.2836191760809
 30
0.0
  0
ENDBLK
  5
10CF
330
10C4
100
AcDbEntity
  8
0
 62
     1
100
AcDbBlockEnd
  0
BLOCK
  5
10E4
330
10DA
100
AcDbEntity
  8
0
 62
     1
100
AcDbBlockBegin
  2
*D14
 70
     1
 10
0.0
 20
0.0
 30
0.0
  3
*D14
  1

  0
LINE
  5
184F
330
10DA
100
AcDbEntity
  8
画層1
 62
     0
370
    -2
100
AcDbLine
 10
127.9769183776332
 20
-487.9136191760811
 30
0.0
 11
127.9769183776332
 21
-525.5336191760811
 31
0.0
  0
LINE
  5
1850
330
10DA
100
AcDbEntity
  8
画層1
 62
     0
370
    -2
100
AcDbLine
 10
120.9769183776332
 20
-487.9136191760811
 30
0.0
 11
120.9769183776332
 21
-525.5336191760811
 31
0.0
  0
LINE
  5
1851
330
10DA
100
AcDbEntity
  8
画層1
 62
     0
370
    -2
100
AcDbLine
 10
126.4769183776332
 20
-524.2836191760812
 30
0.0
 11
122.4769183776333
 21
-524.2836191760812
 31
0.0
  0
LINE
  5
1852
330
10DA
100
AcDbEntity
  8
画層1
 62
     0
370
    -2
100
AcDbLine
 10
120.9769183776332
 20
-524.2836191760812
 30
0.0
 11
95.7676797989531
 21
-524.2836191760812
 31
0.0
  0
INSERT
  5
1853
330
10DA
100
AcDbEntity
  8
画層1
 62
     0
370
    -2
100
AcDbBlockReference
  2
_OPEN30
 10
127.9769183776332
 20
-524.2836191760812
 30
0.0
 41
1.5
 42
1.5
 43
1.5
  0
INSERT
  5
1854
330
10DA
100
AcDbEntity
  8
画層1
 62
     0
370
    -2
100
AcDbBlockReference
  2
_OPEN30
 10
120.9769183776332
 20
-524.2836191760812
 30
0.0
 41
1.5
 42
1.5
 43
1.5
 50
180.0
  0
MTEXT
  5
1855
330
10DA
100
AcDbEntity
  8
画層1
 62
     0
100
AcDbMText
 10
107.6222990882931
 20
-522.1625024248121
 30
0.0
 40
2.5
 41
0.0
 71
     5
 72
     1
  1
\A1;2-φ7 キリカキ
  7
STYLE1
 73
     1
 44
1.0
  0
POINT
  5
1856
330
10DA
100
AcDbEntity
  8
DEFPOINTS
 62
     0
100
AcDbPoint
 10
127.9769183776332
 20
-487.2836191760811
 30
0.0
  0
POINT
  5
1857
330
10DA
100
AcDbEntity
  8
DEFPOINTS
 62
     0
100
AcDbPoint
 10
120.9769183776332
 20
-487.2836191760811
 30
0.0
  0
POINT
  5
1858
330
10DA
100
AcDbEntity
  8
DEFPOINTS
 62
     0
100
AcDbPoint
 10
120.9769183776332
 20
-524.2836191760812
 30
0.0
  0
ENDBLK
  5
10E5
330
10DA
100
AcDbEntity
  8
0
 62
     1
100
AcDbBlockEnd
  0
BLOCK
  5
10FA
330
10F0
100
AcDbEntity
  8
0
 62
     1
100
AcDbBlockBegin
  2
*D15
 70
     1
 10
0.0
 20
0.0
 30
0.0
  3
*D15
  1

  0
LINE
  5
187D
330
10F0
100
AcDbEntity
  8
画層1
 62
     0
370
    -2
100
AcDbLine
 10
191.9769183776332
 20
-487.9136191760811
 30
0.0
 11
191.9769183776332
 21
-525.5336191760811
 31
0.0
  0
LINE
  5
187E
330
10F0
100
AcDbEntity
  8
画層1
 62
     0
370
    -2
100
AcDbLine
 10
216.9769183776331
 20
-487.9136191760811
 30
0.0
 11
216.9769183776331
 21
-525.5336191760811
 31
0.0
  0
LINE
  5
187F
330
10F0
100
AcDbEntity
  8
画層1
 62
     0
370
    -2
100
AcDbLine
 10
193.4769183776332
 20
-524.2836191760812
 30
0.0
 11
215.4769183776332
 21
-524.2836191760812
 31
0.0
  0
INSERT
  5
1880
330
10F0
100
AcDbEntity
  8
画層1
 62
     0
370
    -2
100
AcDbBlockReference
  2
_OPEN30
 10
191.9769183776332
 20
-524.2836191760812
 30
0.0
 41
1.5
 42
1.5
 43
1.5
 50
180.0
  0
INSERT
  5
1881
330
10F0
100
AcDbEntity
  8
画層1
 62
     0
370
    -2
100
AcDbBlockReference
  2
_OPEN30
 10
216.9769183776331
 20
-524.2836191760812
 30
0.0
 41
1.5
 42
1.5
 43
1.5
  0
MTEXT
  5
1882
330
10F0
100
AcDbEntity
  8
画層1
 62
     0
100
AcDbMText
 10
204.4769183776331
 20
-522.4036191760811
 30
0.0
 40
2.5
 41
0.0
 71
     5
 72
     1
  1
\A1;25
  7
STYLE1
 73
     1
 44
1.0
  0
POINT
  5
1883
330
10F0
100
AcDbEntity
  8
DEFPOINTS
 62
     0
100
AcDbPoint
 10
191.9769183776332
 20
-487.2836191760811
 30
0.0
  0
POINT
  5
1884
330
10F0
100
AcDbEntity
  8
DEFPOINTS
 62
     0
100
AcDbPoint
 10
216.9769183776331
 20
-487.2836191760811
 30
0.0
  0
POINT
  5
1885
330
10F0
100
AcDbEntity
  8
DEFPOINTS
 62
     0
100
AcDbPoint
 10
216.9769183776331
 20
-524.2836191760812
 30
0.0
  0
ENDBLK
  5
10FB
330
10F0
100
AcDbEntity
  8
0
 62
     1
100
AcDbBlockEnd
  0
BLOCK
  5
1119
330
110F
100
AcDbEntity
  8
0
 62
     1
100
AcDbBlockBegin
  2
*D16
 70
     1
 10
0.0
 20
0.0
 30
0.0
  3
*D16
  1

  0
LINE
  5
1874
330
110F
100
AcDbEntity
  8
画層1
 62
     0
370
    -2
100
AcDbLine
 10
146.4769183776332
 20
-473.913619176081
 30
0.0
 11
146.4769183776332
 21
-532.5336191760811
 31
0.0
  0
LINE
  5
1875
330
110F
100
AcDbEntity
  8
画層1
 62
     0
370
    -2
100
AcDbLine
 10
204.4769183776331
 20
-473.913619176081
 30
0.0
 11
204.4769183776331
 21
-532.5336191760811
 31
0.0
  0
LINE
  5
1876
330
110F
100
AcDbEntity
  8
画層1
 62
     0
370
    -2
100
AcDbLine
 10
147.9769183776332
 20
-531.2836191760811
 30
0.0
 11
202.9769183776332
 21
-531.2836191760811
 31
0.0
  0
INSERT
  5
1877
330
110F
100
AcDbEntity
  8
画層1
 62
     0
370
    -2
100
AcDbBlockReference
  2
_OPEN30
 10
146.4769183776332
 20
-531.2836191760811
 30
0.0
 41
1.5
 42
1.5
 43
1.5
 50
180.0
  0
INSERT
  5
1878
330
110F
100
AcDbEntity
  8
画層1
 62
     0
370
    -2
100
AcDbBlockReference
  2
_OPEN30
 10
204.4769183776331
 20
-531.2836191760811
 30
0.0
 41
1.5
 42
1.5
 43
1.5
  0
MTEXT
  5
1879
330
110F
100
AcDbEntity
  8
画層1
 62
     0
100
AcDbMText
 10
175.4769183776332
 20
-529.4036191760811
 30
0.0
 40
2.5
 41
0.0
 71
     5
 72
     1
  1
\A1;58
  7
STYLE1
 73
     1
 44
1.0
  0
POINT
  5
187A
330
110F
100
AcDbEntity
  8
DEFPOINTS
 62
     0
100
AcDbPoint
 10
146.4769183776332
 20
-473.2836191760809
 30
0.0
  0
POINT
  5
187B
330
110F
100
AcDbEntity
  8
DEFPOINTS
 62
     0
100
AcDbPoint
 10
204.4769183776331
 20
-473.2836191760809
 30
0.0
  0
POINT
  5
187C
330
110F
100
AcDbEntity
  8
DEFPOINTS
 62
     0
100
AcDbPoint
 10
204.4769183776331
 20
-531.2836191760811
 30
0.0
  0
ENDBLK
  5
111A
330
110F
100
AcDbEntity
  8
0
 62
     1
100
AcDbBlockEnd
  0
BLOCK
  5
1141
330
1137
100
AcDbEntity
  8
0
 62
     1
100
AcDbBlockBegin
  2
*D17
 70
     1
 10
0.0
 20
0.0
 30
0.0
  3
*D17
  1

  0
LINE
  5
1862
330
1137
100
AcDbEntity
  8
画層1
 62
     0
370
    -2
100
AcDbLine
 10
204.4769183776331
 20
-473.913619176081
 30
0.0
 11
204.4769183776331
 21
-532.5336191760811
 31
0.0
  0
LINE
  5
1863
330
1137
100
AcDbEntity
  8
画層1
 62
     0
370
    -2
100
AcDbLine
 10
238.4769183776333
 20
-476.413619176081
 30
0.0
 11
238.4769183776333
 21
-532.5336191760811
 31
0.0
  0
LINE
  5
1864
330
1137
100
AcDbEntity
  8
画層1
 62
     0
370
    -2
100
AcDbLine
 10
205.9769183776332
 20
-531.2836191760811
 30
0.0
 11
236.9769183776333
 21
-531.2836191760811
 31
0.0
  0
INSERT
  5
1865
330
1137
100
AcDbEntity
  8
画層1
 62
     0
370
    -2
100
AcDbBlockReference
  2
_OPEN30
 10
204.4769183776331
 20
-531.2836191760811
 30
0.0
 41
1.5
 42
1.5
 43
1.5
 50
180.0
  0
INSERT
  5
1866
330
1137
100
AcDbEntity
  8
画層1
 62
     0
370
    -2
100
AcDbBlockReference
  2
_OPEN30
 10
238.4769183776333
 20
-531.2836191760811
 30
0.0
 41
1.5
 42
1.5
 43
1.5
  0
MTEXT
  5
1867
330
1137
100
AcDbEntity
  8
画層1
 62
     0
100
AcDbMText
 10
221.4769183776332
 20
-529.194228313137
 30
0.0
 40
2.5
 41
0.0
 71
     5
 72
     1
  1
\A1;(34)
  7
STYLE1
 73
     1
 44
1.0
  0
POINT
  5
1868
330
1137
100
AcDbEntity
  8
DEFPOINTS
 62
     0
100
AcDbPoint
 10
204.4769183776331
 20
-473.2836191760809
 30
0.0
  0
POINT
  5
1869
330
1137
100
AcDbEntity
  8
DEFPOINTS
 62
     0
100
AcDbPoint
 10
238.4769183776333
 20
-475.783619176081
 30
0.0
  0
POINT
  5
186A
330
1137
100
AcDbEntity
  8
DEFPOINTS
 62
     0
100
AcDbPoint
 10
238.4769183776333
 20
-531.2836191760811
 30
0.0
  0
ENDBLK
  5
1142
330
1137
100
AcDbEntity
  8
0
 62
     1
100
AcDbBlockEnd
  0
BLOCK
  5
1184
330
117A
100
AcDbEntity
  8
0
 62
     1
100
AcDbBlockBegin
  2
*D18
 70
     1
 10
0.0
 20
0.0
 30
0.0
  3
*D18
  1

  0
LINE
  5
1886
330
117A
100
AcDbEntity
  8
画層1
 62
     0
370
    -2
100
AcDbLine
 10
171.3269183776333
 20
-446.6636191760811
 30
0.0
 11
171.3269183776333
 21
-462.5336191760809
 31
0.0
  0
LINE
  5
1887
330
117A
100
AcDbEntity
  8
画層1
 62
     0
370
    -2
100
AcDbLine
 10
179.6269183776331
 20
-446.6636191760811
 30
0.0
 11
179.6269183776331
 21
-462.5336191760809
 31
0.0
  0
LINE
  5
1888
330
117A
100
AcDbEntity
  8
画層1
 62
     0
370
    -2
100
AcDbLine
 10
172.8269183776333
 20
-461.283619176081
 30
0.0
 11
178.1269183776331
 21
-461.283619176081
 31
0.0
  0
INSERT
  5
1889
330
117A
100
AcDbEntity
  8
画層1
 62
     0
370
    -2
100
AcDbBlockReference
  2
_OPEN30
 10
171.3269183776333
 20
-461.283619176081
 30
0.0
 41
1.5
 42
1.5
 43
1.5
 50
180.0
  0
INSERT
  5
188A
330
117A
100
AcDbEntity
  8
画層1
 62
     0
370
    -2
100
AcDbBlockReference
  2
_OPEN30
 10
179.6269183776331
 20
-461.283619176081
 30
0.0
 41
1.5
 42
1.5
 43
1.5
  0
MTEXT
  5
188B
330
117A
100
AcDbEntity
  8
画層1
 62
     0
100
AcDbMText
 10
175.4769183776332
 20
-459.4036191760809
 30
0.0
 40
2.5
 41
0.0
 71
     5
 72
     1
  1
\A1;8.3
  7
STYLE1
 73
     1
 44
1.0
  0
POINT
  5
188C
330
117A
100
AcDbEntity
  8
DEFPOINTS
 62
     0
100
AcDbPoint
 10
171.3269183776333
 20
-446.0336191760811
 30
0.0
  0
POINT
  5
188D
330
117A
100
AcDbEntity
  8
DEFPOINTS
 62
     0
100
AcDbPoint
 10
179.6269183776331
 20
-446.0336191760811
 30
0.0
  0
POINT
  5
188E
330
117A
100
AcDbEntity
  8
DEFPOINTS
 62
     0
100
AcDbPoint
 10
179.6269183776331
 20
-461.283619176081
 30
0.0
  0
ENDBLK
  5
1185
330
117A
100
AcDbEntity
  8
0
 62
     1
100
AcDbBlockEnd
  0
BLOCK
  5
11CB
330
11C1
100
AcDbEntity
  8
0
 62
     1
100
AcDbBlockBegin
  2
*D19
 70
     1
 10
0.0
 20
0.0
 30
0.0
  3
*D19
  1

  0
LINE
  5
18B3
330
11C1
100
AcDbEntity
  8
画層1
 62
     0
370
    -2
100
AcDbLine
 10
633.4769183776335
 20
-186.6536191760812
 30
0.0
 11
633.4769183776335
 21
-179.0336191760812
 31
0.0
  0
LINE
  5
18B4
330
11C1
100
AcDbEntity
  8
画層1
 62
     0
370
    -2
100
AcDbLine
 10
388.4769183776333
 20
-229.6536191760812
 30
0.0
 11
388.4769183776333
 21
-179.0336191760812
 31
0.0
  0
LINE
  5
18B5
330
11C1
100
AcDbEntity
  8
画層1
 62
     0
370
    -2
100
AcDbLine
 10
631.9769183776335
 20
-180.2836191760812
 30
0.0
 11
389.9769183776332
 21
-180.2836191760812
 31
0.0
  0
INSERT
  5
18B6
330
11C1
100
AcDbEntity
  8
画層1
 62
     0
370
    -2
100
AcDbBlockReference
  2
_OPEN30
 10
633.4769183776335
 20
-180.2836191760812
 30
0.0
 41
1.5
 42
1.5
 43
1.5
  0
INSERT
  5
18B7
330
11C1
100
AcDbEntity
  8
画層1
 62
     0
370
    -2
100
AcDbBlockReference
  2
_OPEN30
 10
388.4769183776333
 20
-180.2836191760812
 30
0.0
 41
1.5
 42
1.5
 43
1.5
 50
180.0
  0
MTEXT
  5
18B8
330
11C1
100
AcDbEntity
  8
画層1
 62
     0
100
AcDbMText
 10
510.9769183776334
 20
-178.194228313137
 30
0.0
 40
2.5
 41
0.0
 71
     5
 72
     1
  1
\A1;(245)
  7
STYLE1
 73
     1
 44
1.0
  0
POINT
  5
18B9
330
11C1
100
AcDbEntity
  8
DEFPOINTS
 62
     0
100
AcDbPoint
 10
633.4769183776335
 20
-187.2836191760812
 30
0.0
  0
POINT
  5
18BA
330
11C1
100
AcDbEntity
  8
DEFPOINTS
 62
     0
100
AcDbPoint
 10
388.4769183776333
 20
-230.2836191760812
 30
0.0
  0
POINT
  5
18BB
330
11C1
100
AcDbEntity
  8
DEFPOINTS
 62
     0
100
AcDbPoint
 10
388.4769183776333
 20
-180.2836191760812
 30
0.0
  0
ENDBLK
  5
11CC
330
11C1
100
AcDbEntity
  8
0
 62
     1
100
AcDbBlockEnd
  0
BLOCK
  5
11D8
330
11CE
100
AcDbEntity
  8
0
 62
     1
100
AcDbBlockBegin
  2
*D20
 70
     1
 10
0.0
 20
0.0
 30
0.0
  3
*D20
  1

  0
LINE
  5
18AA
330
11CE
100
AcDbEntity
  8
画層1
 62
     0
370
    -2
100
AcDbLine
 10
388.4769183776333
 20
-229.6536191760812
 30
0.0
 11
388.4769183776333
 21
-179.0336191760812
 31
0.0
  0
LINE
  5
18AB
330
11CE
100
AcDbEntity
  8
画層1
 62
     0
370
    -2
100
AcDbLine
 10
375.9769183776333
 20
-227.6536191760812
 30
0.0
 11
375.9769183776333
 21
-179.0336191760812
 31
0.0
  0
LINE
  5
18AC
330
11CE
100
AcDbEntity
  8
画層1
 62
     0
370
    -2
100
AcDbLine
 10
386.9769183776332
 20
-180.2836191760812
 30
0.0
 11
377.4769183776332
 21
-180.2836191760812
 31
0.0
  0
INSERT
  5
18AD
330
11CE
100
AcDbEntity
  8
画層1
 62
     0
370
    -2
100
AcDbBlockReference
  2
_OPEN30
 10
388.4769183776333
 20
-180.2836191760812
 30
0.0
 41
1.5
 42
1.5
 43
1.5
  0
INSERT
  5
18AE
330
11CE
100
AcDbEntity
  8
画層1
 62
     0
370
    -2
100
AcDbBlockReference
  2
_OPEN30
 10
375.9769183776333
 20
-180.2836191760812
 30
0.0
 41
1.5
 42
1.5
 43
1.5
 50
180.0
  0
MTEXT
  5
18AF
330
11CE
100
AcDbEntity
  8
画層1
 62
     0
100
AcDbMText
 10
382.2269183776333
 20
-178.4036191760812
 30
0.0
 40
2.5
 41
0.0
 71
     5
 72
     1
  1
\A1;12.5
  7
STYLE1
 73
     1
 44
1.0
  0
POINT
  5
18B0
330
11CE
100
AcDbEntity
  8
DEFPOINTS
 62
     0
100
AcDbPoint
 10
388.4769183776333
 20
-230.2836191760812
 30
0.0
  0
POINT
  5
18B1
330
11CE
100
AcDbEntity
  8
DEFPOINTS
 62
     0
100
AcDbPoint
 10
375.9769183776333
 20
-228.2836191760812
 30
0.0
  0
POINT
  5
18B2
330
11CE
100
AcDbEntity
  8
DEFPOINTS
 62
     0
100
AcDbPoint
 10
375.9769183776333
 20
-180.2836191760812
 30
0.0
  0
ENDBLK
  5
11D9
330
11CE
100
AcDbEntity
  8
0
 62
     1
100
AcDbBlockEnd
  0
BLOCK
  5
1200
330
11F6
100
AcDbEntity
  8
0
 62
     1
100
AcDbBlockBegin
  2
*D21
 70
     1
 10
0.0
 20
0.0
 30
0.0
  3
*D21
  1

  0
LINE
  5
18D9
330
11F6
100
AcDbEntity
  8
画層1
 62
     0
370
    -2
100
AcDbLine
 10
633.4769183776335
 20
-186.6536191760812
 30
0.0
 11
633.4769183776335
 21
-172.0336191760812
 31
0.0
  0
LINE
  5
18DA
330
11F6
100
AcDbEntity
  8
画層1
 62
     0
370
    -2
100
AcDbLine
 10
359.4769183776333
 20
-190.0536191760813
 30
0.0
 11
359.4769183776333
 21
-172.0336191760812
 31
0.0
  0
LINE
  5
18DB
330
11F6
100
AcDbEntity
  8
画層1
 62
     0
370
    -2
100
AcDbLine
 10
631.9769183776335
 20
-173.2836191760812
 30
0.0
 11
360.9769183776332
 21
-173.2836191760812
 31
0.0
  0
INSERT
  5
18DC
330
11F6
100
AcDbEntity
  8
画層1
 62
     0
370
    -2
100
AcDbBlockReference
  2
_OPEN30
 10
633.4769183776335
 20
-173.2836191760812
 30
0.0
 41
1.5
 42
1.5
 43
1.5
  0
INSERT
  5
18DD
330
11F6
100
AcDbEntity
  8
画層1
 62
     0
370
    -2
100
AcDbBlockReference
  2
_OPEN30
 10
359.4769183776333
 20
-173.2836191760812
 30
0.0
 41
1.5
 42
1.5
 43
1.5
 50
180.0
  0
MTEXT
  5
18DE
330
11F6
100
AcDbEntity
  8
画層1
 62
     0
100
AcDbMText
 10
496.4769183776334
 20
-171.4036191760812
 30
0.0
 40
2.5
 41
0.0
 71
     5
 72
     1
  1
\A1;274
  7
STYLE1
 73
     1
 44
1.0
  0
POINT
  5
18DF
330
11F6
100
AcDbEntity
  8
DEFPOINTS
 62
     0
100
AcDbPoint
 10
633.4769183776335
 20
-187.2836191760812
 30
0.0
  0
POINT
  5
18E0
330
11F6
100
AcDbEntity
  8
DEFPOINTS
 62
     0
100
AcDbPoint
 10
359.4769183776333
 20
-190.6836191760813
 30
0.0
  0
POINT
  5
18E1
330
11F6
100
AcDbEntity
  8
DEFPOINTS
 62
     0
100
AcDbPoint
 10
359.4769183776333
 20
-173.2836191760812
 30
0.0
  0
ENDBLK
  5
1201
330
11F6
100
AcDbEntity
  8
0
 62
     1
100
AcDbBlockEnd
  0
BLOCK
  5
1230
330
1224
100
AcDbEntity
  8
0
 62
     1
100
AcDbBlockBegin
  2
*D22
 70
     1
 10
0.0
 20
0.0
 30
0.0
  3
*D22
  1

  0
LINE
  5
18CE
330
1224
100
AcDbEntity
  8
画層1
 62
     0
370
    -2
100
AcDbLine
 10
468.4769183776334
 20
-487.9136191760811
 30
0.0
 11
468.4769183776334
 21
-525.5336191760811
 31
0.0
  0
LINE
  5
18CF
330
1224
100
AcDbEntity
  8
画層1
 62
     0
370
    -2
100
AcDbLine
 10
472.4769183776334
 20
-487.9136191760811
 30
0.0
 11
472.4769183776334
 21
-525.5336191760811
 31
0.0
  0
LINE
  5
18D0
330
1224
100
AcDbEntity
  8
画層1
 62
     0
370
    -2
100
AcDbLine
 10
466.9769183776335
 20
-524.2836191760812
 30
0.0
 11
465.4769183776334
 21
-524.2836191760812
 31
0.0
  0
LINE
  5
18D1
330
1224
100
AcDbEntity
  8
画層1
 62
     0
370
    -2
100
AcDbLine
 10
473.9769183776334
 20
-524.2836191760812
 30
0.0
 11
475.4769183776335
 21
-524.2836191760812
 31
0.0
  0
LINE
  5
18D2
330
1224
100
AcDbEntity
  8
画層1
 62
     0
370
    -2
100
AcDbLine
 10
468.4769183776334
 20
-524.2836191760812
 30
0.0
 11
472.4769183776334
 21
-524.2836191760812
 31
0.0
  0
INSERT
  5
18D3
330
1224
100
AcDbEntity
  8
画層1
 62
     0
370
    -2
100
AcDbBlockReference
  2
_OPEN30
 10
468.4769183776334
 20
-524.2836191760812
 30
0.0
 41
1.5
 42
1.5
 43
1.5
  0
INSERT
  5
18D4
330
1224
100
AcDbEntity
  8
画層1
 62
     0
370
    -2
100
AcDbBlockReference
  2
_OPEN30
 10
472.4769183776334
 20
-524.2836191760812
 30
0.0
 41
1.5
 42
1.5
 43
1.5
 50
180.0
  0
MTEXT
  5
18D5
330
1224
100
AcDbEntity
  8
画層1
 62
     0
100
AcDbMText
 10
470.4769183776334
 20
-522.4036191760811
 30
0.0
 40
2.5
 41
0.0
 71
     5
 72
     1
  1
\A1;4
  7
STYLE1
 73
     1
 44
1.0
  0
POINT
  5
18D6
330
1224
100
AcDbEntity
  8
DEFPOINTS
 62
     0
100
AcDbPoint
 10
468.4769183776334
 20
-487.2836191760811
 30
0.0
  0
POINT
  5
18D7
330
1224
100
AcDbEntity
  8
DEFPOINTS
 62
     0
100
AcDbPoint
 10
472.4769183776334
 20
-487.2836191760811
 30
0.0
  0
POINT
  5
18D8
330
1224
100
AcDbEntity
  8
DEFPOINTS
 62
     0
100
AcDbPoint
 10
472.4769183776334
 20
-524.2836191760812
 30
0.0
  0
ENDBLK
  5
1231
330
1224
100
AcDbEntity
  8
0
 62
     1
100
AcDbBlockEnd
  0
BLOCK
  5
123D
330
1233
100
AcDbEntity
  8
0
 62
     1
100
AcDbBlockBegin
  2
*D23
 70
     1
 10
0.0
 20
0.0
 30
0.0
  3
*D23
  1

  0
LINE
  5
18C5
330
1233
100
AcDbEntity
  8
画層1
 62
     0
370
    -2
100
AcDbLine
 10
468.4769183776334
 20
-487.9136191760811
 30
0.0
 11
468.4769183776334
 21
-532.5336191760811
 31
0.0
  0
LINE
  5
18C6
330
1233
100
AcDbEntity
  8
画層1
 62
     0
370
    -2
100
AcDbLine
 10
633.4769183776335
 20
-487.9136191760811
 30
0.0
 11
633.4769183776335
 21
-532.5336191760811
 31
0.0
  0
LINE
  5
18C7
330
1233
100
AcDbEntity
  8
画層1
 62
     0
370
    -2
100
AcDbLine
 10
469.9769183776334
 20
-531.2836191760811
 30
0.0
 11
631.9769183776335
 21
-531.2836191760811
 31
0.0
  0
INSERT
  5
18C8
330
1233
100
AcDbEntity
  8
画層1
 62
     0
370
    -2
100
AcDbBlockReference
  2
_OPEN30
 10
468.4769183776334
 20
-531.2836191760811
 30
0.0
 41
1.5
 42
1.5
 43
1.5
 50
180.0
  0
INSERT
  5
18C9
330
1233
100
AcDbEntity
  8
画層1
 62
     0
370
    -2
100
AcDbBlockReference
  2
_OPEN30
 10
633.4769183776335
 20
-531.2836191760811
 30
0.0
 41
1.5
 42
1.5
 43
1.5
  0
MTEXT
  5
18CA
330
1233
100
AcDbEntity
  8
画層1
 62
     0
100
AcDbMText
 10
550.9769183776334
 20
-529.4036191760811
 30
0.0
 40
2.5
 41
0.0
 71
     5
 72
     1
  1
\A1;165
  7
STYLE1
 73
     1
 44
1.0
  0
POINT
  5
18CB
330
1233
100
AcDbEntity
  8
DEFPOINTS
 62
     0
100
AcDbPoint
 10
468.4769183776334
 20
-487.2836191760811
 30
0.0
  0
POINT
  5
18CC
330
1233
100
AcDbEntity
  8
DEFPOINTS
 62
     0
100
AcDbPoint
 10
633.4769183776335
 20
-487.2836191760811
 30
0.0
  0
POINT
  5
18CD
330
1233
100
AcDbEntity
  8
DEFPOINTS
 62
     0
100
AcDbPoint
 10
633.4769183776335
 20
-531.2836191760811
 30
0.0
  0
ENDBLK
  5
123E
330
1233
100
AcDbEntity
  8
0
 62
     1
100
AcDbBlockEnd
  0
BLOCK
  5
124A
330
1240
100
AcDbEntity
  8
0
 62
     1
100
AcDbBlockBegin
  2
*D24
 70
     1
 10
0.0
 20
0.0
 30
0.0
  3
*D24
  1

  0
LINE
  5
18BC
330
1240
100
AcDbEntity
  8
画層1
 62
     0
370
    -2
100
AcDbLine
 10
633.4769183776335
 20
-488.5436191760812
 30
0.0
 11
633.4769183776335
 21
-539.5336191760809
 31
0.0
  0
LINE
  5
18BD
330
1240
100
AcDbEntity
  8
画層1
 62
     0
370
    -2
100
AcDbLine
 10
463.4769183776334
 20
-445.9136191760811
 30
0.0
 11
463.4769183776334
 21
-539.5336191760809
 31
0.0
  0
LINE
  5
18BE
330
1240
100
AcDbEntity
  8
画層1
 62
     0
370
    -2
100
AcDbLine
 10
631.9769183776335
 20
-538.2836191760809
 30
0.0
 11
464.9769183776334
 21
-538.2836191760809
 31
0.0
  0
INSERT
  5
18BF
330
1240
100
AcDbEntity
  8
画層1
 62
     0
370
    -2
100
AcDbBlockReference
  2
_OPEN30
 10
633.4769183776335
 20
-538.2836191760809
 30
0.0
 41
1.5
 42
1.5
 43
1.5
  0
INSERT
  5
18C0
330
1240
100
AcDbEntity
  8
画層1
 62
     0
370
    -2
100
AcDbBlockReference
  2
_OPEN30
 10
463.4769183776334
 20
-538.2836191760809
 30
0.0
 41
1.5
 42
1.5
 43
1.5
 50
180.0
  0
MTEXT
  5
18C1
330
1240
100
AcDbEntity
  8
画層1
 62
     0
100
AcDbMText
 10
548.4769183776335
 20
-536.1942283131368
 30
0.0
 40
2.5
 41
0.0
 71
     5
 72
     1
  1
\A1;(170)
  7
STYLE1
 73
     1
 44
1.0
  0
POINT
  5
18C2
330
1240
100
AcDbEntity
  8
DEFPOINTS
 62
     0
100
AcDbPoint
 10
633.4769183776335
 20
-487.9136191760811
 30
0.0
  0
POINT
  5
18C3
330
1240
100
AcDbEntity
  8
DEFPOINTS
 62
     0
100
AcDbPoint
 10
463.4769183776334
 20
-445.2836191760811
 30
0.0
  0
POINT
  5
18C4
330
1240
100
AcDbEntity
  8
DEFPOINTS
 62
     0
100
AcDbPoint
 10
463.4769183776334
 20
-538.2836191760809
 30
0.0
  0
ENDBLK
  5
124B
330
1240
100
AcDbEntity
  8
0
 62
     1
100
AcDbBlockEnd
  0
BLOCK
  5
1701
330
16F7
100
AcDbEntity
  8
0
 62
     3
100
AcDbBlockBegin
  2
*D27
 70
     1
 10
0.0
 20
0.0
 30
0.0
  3
*D27
  1

  0
LINE
  5
198E
330
16F7
100
AcDbEntity
  8
画層1
 62
     0
370
    -2
100
AcDbLine
 10
377.4805818396357
 20
-927.6018044443027
 30
0.0
 11
377.4805818396357
 21
-943.4718044443025
 31
0.0
  0
LINE
  5
198F
330
16F7
100
AcDbEntity
  8
画層1
 62
     0
370
    -2
100
AcDbLine
 10
385.7805818396355
 20
-927.6018044443027
 30
0.0
 11
385.7805818396355
 21
-943.4718044443025
 31
0.0
  0
LINE
  5
1990
330
16F7
100
AcDbEntity
  8
画層1
 62
     0
370
    -2
100
AcDbLine
 10
378.9805818396357
 20
-942.2218044443026
 30
0.0
 11
384.2805818396355
 21
-942.2218044443026
 31
0.0
  0
LINE
  5
1991
330
16F7
100
AcDbEntity
  8
画層1
 62
     0
370
    -2
100
AcDbLine
 10
385.7805818396355
 20
-942.2218044443026
 30
0.0
 11
393.0837290477573
 21
-942.2218044443026
 31
0.0
  0
INSERT
  5
1992
330
16F7
100
AcDbEntity
  8
画層1
 62
     0
370
    -2
100
AcDbBlockReference
  2
_OPEN30
 10
377.4805818396357
 20
-942.2218044443026
 30
0.0
 41
1.5
 42
1.5
 43
1.5
 50
180.0
  0
INSERT
  5
1993
330
16F7
100
AcDbEntity
  8
画層1
 62
     0
370
    -2
100
AcDbBlockReference
  2
_OPEN30
 10
385.7805818396355
 20
-942.2218044443026
 30
0.0
 41
1.5
 42
1.5
 43
1.5
  0
MTEXT
  5
1994
330
16F7
100
AcDbEntity
  8
画層1
 62
     0
100
AcDbMText
 10
390.1821554436964
 20
-940.3418044443025
 30
0.0
 40
2.5
 41
0.0
 71
     5
 72
     1
  1
\A1;8.3
  7
STYLE1
 73
     1
 44
1.0
  0
POINT
  5
1995
330
16F7
100
AcDbEntity
  8
DEFPOINTS
 62
     0
100
AcDbPoint
 10
377.4805818396357
 20
-926.9718044443028
 30
0.0
  0
POINT
  5
1996
330
16F7
100
AcDbEntity
  8
DEFPOINTS
 62
     0
100
AcDbPoint
 10
385.7805818396355
 20
-926.9718044443028
 30
0.0
  0
POINT
  5
1997
330
16F7
100
AcDbEntity
  8
DEFPOINTS
 62
     0
100
AcDbPoint
 10
385.7805818396355
 20
-942.2218044443026
 30
0.0
  0
ENDBLK
  5
1702
330
16F7
100
AcDbEntity
  8
0
 62
     3
100
AcDbBlockEnd
  0
BLOCK
  5
1770
330
1766
100
AcDbEntity
  8
0
 62
     2
100
AcDbBlockBegin
  2
*D28
 70
     1
 10
0.0
 20
0.0
 30
0.0
  3
*D28
  1

  0
LINE
  5
17D2
330
1766
100
AcDbEntity
  8
画層1
 62
     0
370
    -2
100
AcDbLine
 10
311.6305818396355
 20
-609.5918044443027
 30
0.0
 11
311.6305818396355
 21
-590.9718044443029
 31
0.0
  0
LINE
  5
17D3
330
1766
100
AcDbEntity
  8
画層1
 62
     0
370
    -2
100
AcDbLine
 10
451.6305818396355
 20
-609.5918044443027
 30
0.0
 11
451.6305818396355
 21
-590.9718044443029
 31
0.0
  0
LINE
  5
17D4
330
1766
100
AcDbEntity
  8
画層1
 62
     0
370
    -2
100
AcDbLine
 10
313.1305818396355
 20
-592.2218044443029
 30
0.0
 11
450.1305818396355
 21
-592.2218044443029
 31
0.0
  0
INSERT
  5
17D5
330
1766
100
AcDbEntity
  8
画層1
 62
     0
370
    -2
100
AcDbBlockReference
  2
_OPEN30
 10
311.6305818396355
 20
-592.2218044443029
 30
0.0
 41
1.5
 42
1.5
 43
1.5
 50
180.0
  0
INSERT
  5
17D6
330
1766
100
AcDbEntity
  8
画層1
 62
     0
370
    -2
100
AcDbBlockReference
  2
_OPEN30
 10
451.6305818396355
 20
-592.2218044443029
 30
0.0
 41
1.5
 42
1.5
 43
1.5
  0
MTEXT
  5
17D7
330
1766
100
AcDbEntity
  8
画層1
 62
     0
100
AcDbMText
 10
381.6305818396354
 20
-590.3418044443029
 30
0.0
 40
2.5
 41
0.0
 71
     5
 72
     1
  1
\A1;140
  7
STYLE1
 73
     1
 44
1.0
  0
POINT
  5
17D8
330
1766
100
AcDbEntity
  8
DEFPOINTS
 62
     0
100
AcDbPoint
 10
311.6305818396355
 20
-610.2218044443027
 30
0.0
  0
POINT
  5
17D9
330
1766
100
AcDbEntity
  8
DEFPOINTS
 62
     0
100
AcDbPoint
 10
451.6305818396355
 20
-610.2218044443027
 30
0.0
  0
POINT
  5
17DA
330
1766
100
AcDbEntity
  8
DEFPOINTS
 62
     0
100
AcDbPoint
 10
451.6305818396355
 20
-592.2218044443029
 30
0.0
  0
ENDBLK
  5
1771
330
1766
100
AcDbEntity
  8
0
 62
     2
100
AcDbBlockEnd
  0
BLOCK
  5
177C
330
1772
100
AcDbEntity
  8
0
 62
     2
100
AcDbBlockBegin
  2
*D29
 70
     1
 10
0.0
 20
0.0
 30
0.0
  3
*D29
  1

  0
LINE
  5
17B7
330
1772
100
AcDbEntity
  8
画層1
 62
     0
370
    -2
100
AcDbLine
 10
451.6305818396355
 20
-609.5918044443027
 30
0.0
 11
451.6305818396355
 21
-590.9718044443029
 31
0.0
  0
LINE
  5
17B8
330
1772
100
AcDbEntity
  8
画層1
 62
     0
370
    -2
100
AcDbLine
 10
482.6305818396356
 20
-598.5918044443028
 30
0.0
 11
482.6305818396356
 21
-590.9718044443029
 31
0.0
  0
LINE
  5
17B9
330
1772
100
AcDbEntity
  8
画層1
 62
     0
370
    -2
100
AcDbLine
 10
453.1305818396354
 20
-592.2218044443029
 30
0.0
 11
481.1305818396355
 21
-592.2218044443029
 31
0.0
  0
INSERT
  5
17BA
330
1772
100
AcDbEntity
  8
画層1
 62
     0
370
    -2
100
AcDbBlockReference
  2
_OPEN30
 10
451.6305818396355
 20
-592.2218044443029
 30
0.0
 41
1.5
 42
1.5
 43
1.5
 50
180.0
  0
INSERT
  5
17BB
330
1772
100
AcDbEntity
  8
画層1
 62
     0
370
    -2
100
AcDbBlockReference
  2
_OPEN30
 10
482.6305818396356
 20
-592.2218044443029
 30
0.0
 41
1.5
 42
1.5
 43
1.5
  0
MTEXT
  5
17BC
330
1772
100
AcDbEntity
  8
画層1
 62
     0
100
AcDbMText
 10
467.1305818396355
 20
-590.1324135813588
 30
0.0
 40
2.5
 41
0.0
 71
     5
 72
     1
  1
\A1;(31)
  7
STYLE1
 73
     1
 44
1.0
  0
POINT
  5
17BD
330
1772
100
AcDbEntity
  8
DEFPOINTS
 62
     0
100
AcDbPoint
 10
451.6305818396355
 20
-610.2218044443027
 30
0.0
  0
POINT
  5
17BE
330
1772
100
AcDbEntity
  8
DEFPOINTS
 62
     0
100
AcDbPoint
 10
482.6305818396356
 20
-599.2218044443028
 30
0.0
  0
POINT
  5
17BF
330
1772
100
AcDbEntity
  8
DEFPOINTS
 62
     0
100
AcDbPoint
 10
482.6305818396356
 20
-592.2218044443029
 30
0.0
  0
ENDBLK
  5
177D
330
1772
100
AcDbEntity
  8
0
 62
     2
100
AcDbBlockEnd
  0
BLOCK
  5
1788
330
177E
100
AcDbEntity
  8
0
 62
     2
100
AcDbBlockBegin
  2
*D30
 70
     1
 10
0.0
 20
0.0
 30
0.0
  3
*D30
  1

  0
LINE
  5
17C9
330
177E
100
AcDbEntity
  8
画層1
 62
     0
370
    -2
100
AcDbLine
 10
280.6305818396356
 20
-598.5918044443028
 30
0.0
 11
280.6305818396356
 21
-583.971804444303
 31
0.0
  0
LINE
  5
17CA
330
177E
100
AcDbEntity
  8
画層1
 62
     0
370
    -2
100
AcDbLine
 10
482.6305818396356
 20
-598.5918044443028
 30
0.0
 11
482.6305818396356
 21
-583.971804444303
 31
0.0
  0
LINE
  5
17CB
330
177E
100
AcDbEntity
  8
画層1
 62
     0
370
    -2
100
AcDbLine
 10
282.1305818396356
 20
-585.2218044443029
 30
0.0
 11
481.1305818396355
 21
-585.2218044443029
 31
0.0
  0
INSERT
  5
17CC
330
177E
100
AcDbEntity
  8
画層1
 62
     0
370
    -2
100
AcDbBlockReference
  2
_OPEN30
 10
280.6305818396356
 20
-585.2218044443029
 30
0.0
 41
1.5
 42
1.5
 43
1.5
 50
180.0
  0
INSERT
  5
17CD
330
177E
100
AcDbEntity
  8
画層1
 62
     0
370
    -2
100
AcDbBlockReference
  2
_OPEN30
 10
482.6305818396356
 20
-585.2218044443029
 30
0.0
 41
1.5
 42
1.5
 43
1.5
  0
MTEXT
  5
17CE
330
177E
100
AcDbEntity
  8
画層1
 62
     0
100
AcDbMText
 10
381.6305818396356
 20
-583.3418044443029
 30
0.0
 40
2.5
 41
0.0
 71
     5
 72
     1
  1
\A1;202
  7
STYLE1
 73
     1
 44
1.0
  0
POINT
  5
17CF
330
177E
100
AcDbEntity
  8
DEFPOINTS
 62
     0
100
AcDbPoint
 10
280.6305818396356
 20
-599.2218044443028
 30
0.0
  0
POINT
  5
17D0
330
177E
100
AcDbEntity
  8
DEFPOINTS
 62
     0
100
AcDbPoint
 10
482.6305818396356
 20
-599.2218044443028
 30
0.0
  0
POINT
  5
17D1
330
177E
100
AcDbEntity
  8
DEFPOINTS
 62
     0
100
AcDbPoint
 10
482.6305818396356
 20
-585.2218044443029
 30
0.0
  0
ENDBLK
  5
1789
330
177E
100
AcDbEntity
  8
0
 62
     2
100
AcDbBlockEnd
  0
BLOCK
  5
17E7
330
17DD
100
AcDbEntity
  8
0
 62
     2
100
AcDbBlockBegin
  2
*D31
 70
     1
 10
0.0
 20
0.0
 30
0.0
  3
*D31
  1

  0
LINE
  5
1810
330
17DD
100
AcDbEntity
  8
画層1
 62
     0
370
    -2
100
AcDbLine
 10
294.2005818396357
 20
-655.0218044443028
 30
0.0
 11
272.3805818396355
 21
-655.0218044443028
 31
0.0
  0
LINE
  5
1811
330
17DD
100
AcDbEntity
  8
画層1
 62
     0
370
    -2
100
AcDbLine
 10
294.2005818396357
 20
-647.0218044443027
 30
0.0
 11
272.3805818396355
 21
-647.0218044443027
 31
0.0
  0
LINE
  5
1812
330
17DD
100
AcDbEntity
  8
画層1
 62
     0
370
    -2
100
AcDbLine
 10
273.6305818396355
 20
-653.5218044443028
 30
0.0
 11
273.6305818396355
 21
-648.5218044443028
 31
0.0
  0
INSERT
  5
1813
330
17DD
100
AcDbEntity
  8
画層1
 62
     0
370
    -2
100
AcDbBlockReference
  2
_OPEN30
 10
273.6305818396355
 20
-655.0218044443028
 30
0.0
 41
1.5
 42
1.5
 43
1.5
 50
270.0
  0
INSERT
  5
1814
330
17DD
100
AcDbEntity
  8
画層1
 62
     0
370
    -2
100
AcDbBlockReference
  2
_OPEN30
 10
273.6305818396355
 20
-647.0218044443027
 30
0.0
 41
1.5
 42
1.5
 43
1.5
 50
90.0
  0
MTEXT
  5
1815
330
17DD
100
AcDbEntity
  8
画層1
 62
     0
100
AcDbMText
 10
271.7505818396356
 20
-651.0218044443027
 30
0.0
 40
2.5
 41
0.0
 71
     5
 72
     1
  1
\A1;8
  7
STYLE1
 11
0.0000000000000001
 21
1.0
 31
0.0
 73
     1
 44
1.0
  0
POINT
  5
1816
330
17DD
100
AcDbEntity
  8
DEFPOINTS
 62
     0
100
AcDbPoint
 10
294.8305818396357
 20
-655.0218044443028
 30
0.0
  0
POINT
  5
1817
330
17DD
100
AcDbEntity
  8
DEFPOINTS
 62
     0
100
AcDbPoint
 10
294.8305818396357
 20
-647.0218044443027
 30
0.0
  0
POINT
  5
1818
330
17DD
100
AcDbEntity
  8
DEFPOINTS
 62
     0
100
AcDbPoint
 10
273.6305818396355
 20
-647.0218044443027
 30
0.0
  0
ENDBLK
  5
17E8
330
17DD
100
AcDbEntity
  8
0
 62
     2
100
AcDbBlockEnd
  0
BLOCK
  5
17F3
330
17E9
100
AcDbEntity
  8
0
 62
     2
100
AcDbBlockBegin
  2
*D32
 70
     1
 10
0.0
 20
0.0
 30
0.0
  3
*D32
  1

  0
LINE
  5
1822
330
17E9
100
AcDbEntity
  8
画層1
 62
     0
370
    -2
100
AcDbLine
 10
311.0005818396355
 20
-610.2218044443027
 30
0.0
 11
265.3805818396356
 21
-610.2218044443027
 31
0.0
  0
LINE
  5
1823
330
17E9
100
AcDbEntity
  8
画層1
 62
     0
370
    -2
100
AcDbLine
 10
311.0005818396356
 20
-966.2218044443028
 30
0.0
 11
265.3805818396355
 21
-966.2218044443028
 31
0.0
  0
LINE
  5
1824
330
17E9
100
AcDbEntity
  8
画層1
 62
     0
370
    -2
100
AcDbLine
 10
266.6305818396356
 20
-611.7218044443027
 30
0.0
 11
266.6305818396355
 21
-964.7218044443029
 31
0.0
  0
INSERT
  5
1825
330
17E9
100
AcDbEntity
  8
画層1
 62
     0
370
    -2
100
AcDbBlockReference
  2
_OPEN30
 10
266.6305818396356
 20
-610.2218044443027
 30
0.0
 41
1.5
 42
1.5
 43
1.5
 50
90.0
  0
INSERT
  5
1826
330
17E9
100
AcDbEntity
  8
画層1
 62
     0
370
    -2
100
AcDbBlockReference
  2
_OPEN30
 10
266.6305818396355
 20
-966.2218044443028
 30
0.0
 41
1.5
 42
1.5
 43
1.5
 50
270.0
  0
MTEXT
  5
1827
330
17E9
100
AcDbEntity
  8
画層1
 62
     0
100
AcDbMText
 10
264.7505818396357
 20
-788.2218044443027
 30
0.0
 40
2.5
 41
0.0
 71
     5
 72
     1
  1
\A1;356
  7
STYLE1
 11
0.0000000000000001
 21
1.0
 31
0.0
 73
     1
 44
1.0
  0
POINT
  5
1828
330
17E9
100
AcDbEntity
  8
DEFPOINTS
 62
     0
100
AcDbPoint
 10
311.6305818396355
 20
-610.2218044443027
 30
0.0
  0
POINT
  5
1829
330
17E9
100
AcDbEntity
  8
DEFPOINTS
 62
     0
100
AcDbPoint
 10
311.6305818396356
 20
-966.2218044443028
 30
0.0
  0
POINT
  5
182A
330
17E9
100
AcDbEntity
  8
DEFPOINTS
 62
     0
100
AcDbPoint
 10
266.6305818396355
 20
-966.2218044443028
 30
0.0
  0
ENDBLK
  5
17F4
330
17E9
100
AcDbEntity
  8
0
 62
     2
100
AcDbBlockEnd
  0
BLOCK
  5
18F5
330
18EA
100
AcDbEntity
  8
0
 62
     2
100
AcDbBlockBegin
  2
*D33
 70
     1
 10
0.0
 20
0.0
 30
0.0
  3
*D33
  1

  0
LINE
  5
194A
330
18EA
100
AcDbEntity
  8
画層1
 62
     0
370
    -2
100
AcDbLine
 10
316.1305818396356
 20
-975.8518044443027
 30
0.0
 11
316.1305818396356
 21
-1024.636556170625
 31
0.0
  0
LINE
  5
194B
330
18EA
100
AcDbEntity
  8
画層1
 62
     0
370
    -2
100
AcDbLine
 10
307.1305818396356
 20
-975.8518044443027
 30
0.0
 11
307.1305818396356
 21
-1024.636556170625
 31
0.0
  0
LINE
  5
194C
330
18EA
100
AcDbEntity
  8
画層1
 62
     0
370
    -2
100
AcDbLine
 10
314.6305818396356
 20
-1023.386556170625
 30
0.0
 11
308.6305818396356
 21
-1023.386556170625
 31
0.0
  0
LINE
  5
194D
330
18EA
100
AcDbEntity
  8
画層1
 62
     0
370
    -2
100
AcDbLine
 10
307.1305818396356
 20
-1023.386556170625
 30
0.0
 11
281.9213432609554
 21
-1023.386556170625
 31
0.0
  0
INSERT
  5
194E
330
18EA
100
AcDbEntity
  8
画層1
 62
     0
370
    -2
100
AcDbBlockReference
  2
_OPEN30
 10
316.1305818396356
 20
-1023.386556170625
 30
0.0
 41
1.5
 42
1.5
 43
1.5
  0
INSERT
  5
194F
330
18EA
100
AcDbEntity
  8
画層1
 62
     0
370
    -2
100
AcDbBlockReference
  2
_OPEN30
 10
307.1305818396356
 20
-1023.386556170625
 30
0.0
 41
1.5
 42
1.5
 43
1.5
 50
180.0
  0
MTEXT
  5
1950
330
18EA
100
AcDbEntity
  8
画層1
 62
     0
100
AcDbMText
 10
293.7759625502954
 20
-1021.265439419356
 30
0.0
 40
2.5
 41
0.0
 71
     5
 72
     1
  1
\A1;2-φ9 キリカキ
  7
STYLE1
 73
     1
 44
1.0
  0
POINT
  5
1951
330
18EA
100
AcDbEntity
  8
DEFPOINTS
 62
     0
100
AcDbPoint
 10
316.1305818396356
 20
-975.2218044443027
 30
0.0
  0
POINT
  5
1952
330
18EA
100
AcDbEntity
  8
DEFPOINTS
 62
     0
100
AcDbPoint
 10
307.1305818396356
 20
-975.2218044443027
 30
0.0
  0
POINT
  5
1953
330
18EA
100
AcDbEntity
  8
DEFPOINTS
 62
     0
100
AcDbPoint
 10
307.1305818396356
 20
-1023.386556170625
 30
0.0
  0
ENDBLK
  5
18F6
330
18EA
100
AcDbEntity
  8
0
 62
     2
100
AcDbBlockEnd
  0
BLOCK
  5
1901
330
18F7
100
AcDbEntity
  8
0
 62
     2
100
AcDbBlockBegin
  2
*D34
 70
     1
 10
0.0
 20
0.0
 30
0.0
  3
*D34
  1

  0
LINE
  5
197C
330
18F7
100
AcDbEntity
  8
画層1
 62
     0
370
    -2
100
AcDbLine
 10
401.1305818396356
 20
-975.8518044443027
 30
0.0
 11
401.1305818396356
 21
-1024.636556170625
 31
0.0
  0
LINE
  5
197D
330
18F7
100
AcDbEntity
  8
画層1
 62
     0
370
    -2
100
AcDbLine
 10
446.1305818396356
 20
-975.8518044443027
 30
0.0
 11
446.1305818396356
 21
-1024.636556170625
 31
0.0
  0
LINE
  5
197E
330
18F7
100
AcDbEntity
  8
画層1
 62
     0
370
    -2
100
AcDbLine
 10
402.6305818396356
 20
-1023.386556170625
 30
0.0
 11
444.6305818396356
 21
-1023.386556170625
 31
0.0
  0
INSERT
  5
197F
330
18F7
100
AcDbEntity
  8
画層1
 62
     0
370
    -2
100
AcDbBlockReference
  2
_OPEN30
 10
401.1305818396356
 20
-1023.386556170625
 30
0.0
 41
1.5
 42
1.5
 43
1.5
 50
180.0
  0
INSERT
  5
1980
330
18F7
100
AcDbEntity
  8
画層1
 62
     0
370
    -2
100
AcDbBlockReference
  2
_OPEN30
 10
446.1305818396356
 20
-1023.386556170625
 30
0.0
 41
1.5
 42
1.5
 43
1.5
  0
MTEXT
  5
1981
330
18F7
100
AcDbEntity
  8
画層1
 62
     0
100
AcDbMText
 10
423.6305818396356
 20
-1021.506556170625
 30
0.0
 40
2.5
 41
0.0
 71
     5
 72
     1
  1
\A1;45
  7
STYLE1
 73
     1
 44
1.0
  0
POINT
  5
1982
330
18F7
100
AcDbEntity
  8
DEFPOINTS
 62
     0
100
AcDbPoint
 10
401.1305818396356
 20
-975.2218044443027
 30
0.0
  0
POINT
  5
1983
330
18F7
100
AcDbEntity
  8
DEFPOINTS
 62
     0
100
AcDbPoint
 10
446.1305818396356
 20
-975.2218044443027
 30
0.0
  0
POINT
  5
1984
330
18F7
100
AcDbEntity
  8
DEFPOINTS
 62
     0
100
AcDbPoint
 10
446.1305818396356
 20
-1023.386556170625
 30
0.0
  0
ENDBLK
  5
1902
330
18F7
100
AcDbEntity
  8
0
 62
     2
100
AcDbBlockEnd
  0
BLOCK
  5
190D
330
1903
100
AcDbEntity
  8
0
 62
     2
100
AcDbBlockBegin
  2
*D35
 70
     1
 10
0.0
 20
0.0
 30
0.0
  3
*D35
  1

  0
LINE
  5
1985
330
1903
100
AcDbEntity
  8
画層1
 62
     0
370
    -2
100
AcDbLine
 10
339.6305818396356
 20
-954.8518044443026
 30
0.0
 11
339.6305818396356
 21
-1031.636556170625
 31
0.0
  0
LINE
  5
1986
330
1903
100
AcDbEntity
  8
画層1
 62
     0
370
    -2
100
AcDbLine
 10
423.6305818396356
 20
-954.8518044443026
 30
0.0
 11
423.6305818396356
 21
-1031.636556170625
 31
0.0
  0
LINE
  5
1987
330
1903
100
AcDbEntity
  8
画層1
 62
     0
370
    -2
100
AcDbLine
 10
341.1305818396356
 20
-1030.386556170625
 30
0.0
 11
422.1305818396356
 21
-1030.386556170625
 31
0.0
  0
INSERT
  5
1988
330
1903
100
AcDbEntity
  8
画層1
 62
     0
370
    -2
100
AcDbBlockReference
  2
_OPEN30
 10
339.6305818396356
 20
-1030.386556170625
 30
0.0
 41
1.5
 42
1.5
 43
1.5
 50
180.0
  0
INSERT
  5
1989
330
1903
100
AcDbEntity
  8
画層1
 62
     0
370
    -2
100
AcDbBlockReference
  2
_OPEN30
 10
423.6305818396356
 20
-1030.386556170625
 30
0.0
 41
1.5
 42
1.5
 43
1.5
  0
MTEXT
  5
198A
330
1903
100
AcDbEntity
  8
画層1
 62
     0
100
AcDbMText
 10
381.6305818396356
 20
-1028.506556170625
 30
0.0
 40
2.5
 41
0.0
 71
     5
 72
     1
  1
\A1;84
  7
STYLE1
 73
     1
 44
1.0
  0
POINT
  5
198B
330
1903
100
AcDbEntity
  8
DEFPOINTS
 62
     0
100
AcDbPoint
 10
339.6305818396356
 20
-954.2218044443027
 30
0.0
  0
POINT
  5
198C
330
1903
100
AcDbEntity
  8
DEFPOINTS
 62
     0
100
AcDbPoint
 10
423.6305818396356
 20
-954.2218044443027
 30
0.0
  0
POINT
  5
198D
330
1903
100
AcDbEntity
  8
DEFPOINTS
 62
     0
100
AcDbPoint
 10
423.6305818396356
 20
-1030.386556170625
 30
0.0
  0
ENDBLK
  5
190E
330
1903
100
AcDbEntity
  8
0
 62
     2
100
AcDbBlockEnd
  0
BLOCK
  5
1919
330
190F
100
AcDbEntity
  8
0
 62
     2
100
AcDbBlockBegin
  2
*D36
 70
     1
 10
0.0
 20
0.0
 30
0.0
  3
*D36
  1

  0
LINE
  5
195D
330
190F
100
AcDbEntity
  8
画層1
 62
     0
370
    -2
100
AcDbLine
 10
423.6305818396356
 20
-954.8518044443026
 30
0.0
 11
423.6305818396356
 21
-1031.636556170625
 31
0.0
  0
LINE
  5
195E
330
190F
100
AcDbEntity
  8
画層1
 62
     0
370
    -2
100
AcDbLine
 10
482.6305818396355
 20
-977.8518044443028
 30
0.0
 11
482.6305818396355
 21
-1031.636556170625
 31
0.0
  0
LINE
  5
195F
330
190F
100
AcDbEntity
  8
画層1
 62
     0
370
    -2
100
AcDbLine
 10
425.1305818396356
 20
-1030.386556170625
 30
0.0
 11
481.1305818396355
 21
-1030.386556170625
 31
0.0
  0
INSERT
  5
1960
330
190F
100
AcDbEntity
  8
画層1
 62
     0
370
    -2
100
AcDbBlockReference
  2
_OPEN30
 10
423.6305818396356
 20
-1030.386556170625
 30
0.0
 41
1.5
 42
1.5
 43
1.5
 50
180.0
  0
INSERT
  5
1961
330
190F
100
AcDbEntity
  8
画層1
 62
     0
370
    -2
100
AcDbBlockReference
  2
_OPEN30
 10
482.6305818396355
 20
-1030.386556170625
 30
0.0
 41
1.5
 42
1.5
 43
1.5
  0
MTEXT
  5
1962
330
190F
100
AcDbEntity
  8
画層1
 62
     0
100
AcDbMText
 10
453.1305818396355
 20
-1028.297165307681
 30
0.0
 40
2.5
 41
0.0
 71
     5
 72
     1
  1
\A1;(59)
  7
STYLE1
 73
     1
 44
1.0
  0
POINT
  5
1963
330
190F
100
AcDbEntity
  8
DEFPOINTS
 62
     0
100
AcDbPoint
 10
423.6305818396356
 20
-954.2218044443027
 30
0.0
  0
POINT
  5
1964
330
190F
100
AcDbEntity
  8
DEFPOINTS
 62
     0
100
AcDbPoint
 10
482.6305818396355
 20
-977.2218044443029
 30
0.0
  0
POINT
  5
1965
330
190F
100
AcDbEntity
  8
DEFPOINTS
 62
     0
100
AcDbPoint
 10
482.6305818396355
 20
-1030.386556170625
 30
0.0
  0
ENDBLK
  5
191A
330
190F
100
AcDbEntity
  8
0
 62
     2
100
AcDbBlockEnd
  0
BLOCK
  5
19A4
330
199A
100
AcDbEntity
  8
0
 62
     2
100
AcDbBlockBegin
  2
*D37
 70
     1
 10
0.0
 20
0.0
 30
0.0
  3
*D37
  1

  0
LINE
  5
19DF
330
199A
100
AcDbEntity
  8
画層1
 62
     0
370
    -2
100
AcDbLine
 10
483.2605818396356
 20
-599.2218044443028
 30
0.0
 11
497.8805818396355
 21
-599.2218044443028
 31
0.0
  0
LINE
  5
19E0
330
199A
100
AcDbEntity
  8
画層1
 62
     0
370
    -2
100
AcDbLine
 10
483.2605818396355
 20
-977.2218044443029
 30
0.0
 11
497.8805818396353
 21
-977.2218044443029
 31
0.0
  0
LINE
  5
19E1
330
199A
100
AcDbEntity
  8
画層1
 62
     0
370
    -2
100
AcDbLine
 10
496.6305818396355
 20
-600.7218044443028
 30
0.0
 11
496.6305818396354
 21
-975.7218044443028
 31
0.0
  0
INSERT
  5
19E2
330
199A
100
AcDbEntity
  8
画層1
 62
     0
370
    -2
100
AcDbBlockReference
  2
_OPEN30
 10
496.6305818396355
 20
-599.2218044443028
 30
0.0
 41
1.5
 42
1.5
 43
1.5
 50
90.0
  0
INSERT
  5
19E3
330
199A
100
AcDbEntity
  8
画層1
 62
     0
370
    -2
100
AcDbBlockReference
  2
_OPEN30
 10
496.6305818396354
 20
-977.2218044443029
 30
0.0
 41
1.5
 42
1.5
 43
1.5
 50
270.0
  0
MTEXT
  5
19E4
330
199A
100
AcDbEntity
  8
画層1
 62
     0
100
AcDbMText
 10
494.7505818396355
 20
-788.2218044443027
 30
0.0
 40
2.5
 41
0.0
 71
     5
 72
     1
  1
\A1;378
  7
STYLE1
 11
0.0000000000000001
 21
1.0
 31
0.0
 73
     1
 44
1.0
  0
POINT
  5
19E5
330
199A
100
AcDbEntity
  8
DEFPOINTS
 62
     0
100
AcDbPoint
 10
482.6305818396356
 20
-599.2218044443028
 30
0.0
  0
POINT
  5
19E6
330
199A
100
AcDbEntity
  8
DEFPOINTS
 62
     0
100
AcDbPoint
 10
482.6305818396355
 20
-977.2218044443029
 30
0.0
  0
POINT
  5
19E7
330
199A
100
AcDbEntity
  8
DEFPOINTS
 62
     0
100
AcDbPoint
 10
496.6305818396354
 20
-977.2218044443029
 30
0.0
  0
ENDBLK
  5
19A5
330
199A
100
AcDbEntity
  8
0
 62
     2
100
AcDbBlockEnd
  0
BLOCK
  5
19B0
330
19A6
100
AcDbEntity
  8
0
 62
     2
100
AcDbBlockBegin
  2
*D38
 70
     1
 10
0.0
 20
0.0
 30
0.0
  3
*D38
  1

  0
LINE
  5
19D6
330
19A6
100
AcDbEntity
  8
画層1
 62
     0
370
    -2
100
AcDbLine
 10
483.2605818396355
 20
-977.2218044443029
 30
0.0
 11
490.8805818396354
 21
-977.2218044443029
 31
0.0
  0
LINE
  5
19D7
330
19A6
100
AcDbEntity
  8
画層1
 62
     0
370
    -2
100
AcDbLine
 10
424.2605818396356
 20
-954.2218044443027
 30
0.0
 11
490.8805818396354
 21
-954.2218044443027
 31
0.0
  0
LINE
  5
19D8
330
19A6
100
AcDbEntity
  8
画層1
 62
     0
370
    -2
100
AcDbLine
 10
489.6305818396354
 20
-975.7218044443028
 30
0.0
 11
489.6305818396354
 21
-955.7218044443027
 31
0.0
  0
INSERT
  5
19D9
330
19A6
100
AcDbEntity
  8
画層1
 62
     0
370
    -2
100
AcDbBlockReference
  2
_OPEN30
 10
489.6305818396354
 20
-977.2218044443029
 30
0.0
 41
1.5
 42
1.5
 43
1.5
 50
270.0
  0
INSERT
  5
19DA
330
19A6
100
AcDbEntity
  8
画層1
 62
     0
370
    -2
100
AcDbBlockReference
  2
_OPEN30
 10
489.6305818396354
 20
-954.2218044443027
 30
0.0
 41
1.5
 42
1.5
 43
1.5
 50
90.0
  0
MTEXT
  5
19DB
330
19A6
100
AcDbEntity
  8
画層1
 62
     0
100
AcDbMText
 10
487.7505818396356
 20
-965.7218044443027
 30
0.0
 40
2.5
 41
0.0
 71
     5
 72
     1
  1
\A1;23
  7
STYLE1
 11
0.0000000000000001
 21
1.0
 31
0.0
 73
     1
 44
1.0
  0
POINT
  5
19DC
330
19A6
100
AcDbEntity
  8
DEFPOINTS
 62
     0
100
AcDbPoint
 10
482.6305818396355
 20
-977.2218044443029
 30
0.0
  0
POINT
  5
19DD
330
19A6
100
AcDbEntity
  8
DEFPOINTS
 62
     0
100
AcDbPoint
 10
423.6305818396356
 20
-954.2218044443027
 30
0.0
  0
POINT
  5
19DE
330
19A6
100
AcDbEntity
  8
DEFPOINTS
 62
     0
100
AcDbPoint
 10
489.6305818396354
 20
-954.2218044443027
 30
0.0
  0
ENDBLK
  5
19B1
330
19A6
100
AcDbEntity
  8
0
 62
     2
100
AcDbBlockEnd
  0
BLOCK
  5
19F7
330
19EB
100
AcDbEntity
  8
0
 62
     2
100
AcDbBlockBegin
  2
*D39
 70
     1
 10
0.0
 20
0.0
 30
0.0
  3
*D39
  1

  0
LINE
  5
1A49
330
19EB
100
AcDbEntity
  8
画層1
 62
     0
370
    -2
100
AcDbLine
 10
707.4389206732846
 20
-975.8518044443027
 30
0.0
 11
707.4389206732846
 21
-1024.636556170624
 31
0.0
  0
LINE
  5
1A4A
330
19EB
100
AcDbEntity
  8
画層1
 62
     0
370
    -2
100
AcDbLine
 10
712.4389206732846
 20
-975.8518044443027
 30
0.0
 11
712.4389206732846
 21
-1024.636556170624
 31
0.0
  0
LINE
  5
1A4B
330
19EB
100
AcDbEntity
  8
画層1
 62
     0
370
    -2
100
AcDbLine
 10
708.9389206732846
 20
-1023.386556170625
 30
0.0
 11
710.9389206732847
 21
-1023.386556170625
 31
0.0
  0
INSERT
  5
1A4C
330
19EB
100
AcDbEntity
  8
画層1
 62
     0
370
    -2
100
AcDbBlockReference
  2
_OPEN30
 10
707.4389206732846
 20
-1023.386556170625
 30
0.0
 41
1.5
 42
1.5
 43
1.5
 50
180.0
  0
INSERT
  5
1A4D
330
19EB
100
AcDbEntity
  8
画層1
 62
     0
370
    -2
100
AcDbBlockReference
  2
_OPEN30
 10
712.4389206732846
 20
-1023.386556170625
 30
0.0
 41
1.5
 42
1.5
 43
1.5
  0
MTEXT
  5
1A4E
330
19EB
100
AcDbEntity
  8
画層1
 62
     0
100
AcDbMText
 10
709.9389206732846
 20
-1021.506556170625
 30
0.0
 40
2.5
 41
0.0
 71
     5
 72
     1
  1
\A1;5
  7
STYLE1
 73
     1
 44
1.0
  0
POINT
  5
1A4F
330
19EB
100
AcDbEntity
  8
DEFPOINTS
 62
     0
100
AcDbPoint
 10
707.4389206732846
 20
-975.2218044443027
 30
0.0
  0
POINT
  5
1A50
330
19EB
100
AcDbEntity
  8
DEFPOINTS
 62
     0
100
AcDbPoint
 10
712.4389206732846
 20
-975.2218044443027
 30
0.0
  0
POINT
  5
1A51
330
19EB
100
AcDbEntity
  8
DEFPOINTS
 62
     0
100
AcDbPoint
 10
712.4389206732846
 20
-1023.386556170625
 30
0.0
  0
ENDBLK
  5
19F8
330
19EB
100
AcDbEntity
  8
0
 62
     2
100
AcDbBlockEnd
  0
BLOCK
  5
1A03
330
19F9
100
AcDbEntity
  8
0
 62
     2
100
AcDbBlockBegin
  2
*D40
 70
     1
 10
0.0
 20
0.0
 30
0.0
  3
*D40
  1

  0
LINE
  5
1A52
330
19F9
100
AcDbEntity
  8
画層1
 62
     0
370
    -2
100
AcDbLine
 10
707.4389206732846
 20
-975.8518044443027
 30
0.0
 11
707.4389206732846
 21
-1031.636556170625
 31
0.0
  0
LINE
  5
1A53
330
19F9
100
AcDbEntity
  8
画層1
 62
     0
370
    -2
100
AcDbLine
 10
869.4389206732846
 20
-975.8518044443027
 30
0.0
 11
869.4389206732846
 21
-1031.636556170625
 31
0.0
  0
LINE
  5
1A54
330
19F9
100
AcDbEntity
  8
画層1
 62
     0
370
    -2
100
AcDbLine
 10
708.9389206732846
 20
-1030.386556170624
 30
0.0
 11
867.9389206732846
 21
-1030.386556170624
 31
0.0
  0
INSERT
  5
1A55
330
19F9
100
AcDbEntity
  8
画層1
 62
     0
370
    -2
100
AcDbBlockReference
  2
_OPEN30
 10
707.4389206732846
 20
-1030.386556170624
 30
0.0
 41
1.5
 42
1.5
 43
1.5
 50
180.0
  0
INSERT
  5
1A56
330
19F9
100
AcDbEntity
  8
画層1
 62
     0
370
    -2
100
AcDbBlockReference
  2
_OPEN30
 10
869.4389206732846
 20
-1030.386556170624
 30
0.0
 41
1.5
 42
1.5
 43
1.5
  0
MTEXT
  5
1A57
330
19F9
100
AcDbEntity
  8
画層1
 62
     0
100
AcDbMText
 10
788.4389206732846
 20
-1028.506556170625
 30
0.0
 40
2.5
 41
0.0
 71
     5
 72
     1
  1
\A1;162
  7
STYLE1
 73
     1
 44
1.0
  0
POINT
  5
1A58
330
19F9
100
AcDbEntity
  8
DEFPOINTS
 62
     0
100
AcDbPoint
 10
707.4389206732846
 20
-975.2218044443027
 30
0.0
  0
POINT
  5
1A59
330
19F9
100
AcDbEntity
  8
DEFPOINTS
 62
     0
100
AcDbPoint
 10
869.4389206732846
 20
-975.2218044443027
 30
0.0
  0
POINT
  5
1A5A
330
19F9
100
AcDbEntity
  8
DEFPOINTS
 62
     0
100
AcDbPoint
 10
869.4389206732846
 20
-1030.386556170624
 30
0.0
  0
ENDBLK
  5
1A04
330
19F9
100
AcDbEntity
  8
0
 62
     2
100
AcDbBlockEnd
  0
BLOCK
  5
1A0F
330
1A05
100
AcDbEntity
  8
0
 62
     2
100
AcDbBlockBegin
  2
*D41
 70
     1
 10
0.0
 20
0.0
 30
0.0
  3
*D41
  1

  0
LINE
  5
1A5B
330
1A05
100
AcDbEntity
  8
画層1
 62
     0
370
    -2
100
AcDbLine
 10
869.4389206732846
 20
-975.8518044443027
 30
0.0
 11
869.4389206732846
 21
-1038.636556170624
 31
0.0
  0
LINE
  5
1A5C
330
1A05
100
AcDbEntity
  8
画層1
 62
     0
370
    -2
100
AcDbLine
 10
703.4389206732846
 20
-926.8518044443027
 30
0.0
 11
703.4389206732846
 21
-1038.636556170624
 31
0.0
  0
LINE
  5
1A5D
330
1A05
100
AcDbEntity
  8
画層1
 62
     0
370
    -2
100
AcDbLine
 10
867.9389206732846
 20
-1037.386556170624
 30
0.0
 11
704.9389206732846
 21
-1037.386556170624
 31
0.0
  0
INSERT
  5
1A5E
330
1A05
100
AcDbEntity
  8
画層1
 62
     0
370
    -2
100
AcDbBlockReference
  2
_OPEN30
 10
869.4389206732846
 20
-1037.386556170624
 30
0.0
 41
1.5
 42
1.5
 43
1.5
  0
INSERT
  5
1A5F
330
1A05
100
AcDbEntity
  8
画層1
 62
     0
370
    -2
100
AcDbBlockReference
  2
_OPEN30
 10
703.4389206732846
 20
-1037.386556170624
 30
0.0
 41
1.5
 42
1.5
 43
1.5
 50
180.0
  0
MTEXT
  5
1A60
330
1A05
100
AcDbEntity
  8
画層1
 62
     0
100
AcDbMText
 10
786.4389206732846
 20
-1035.29716530768
 30
0.0
 40
2.5
 41
0.0
 71
     5
 72
     1
  1
\A1;(166)
  7
STYLE1
 73
     1
 44
1.0
  0
POINT
  5
1A61
330
1A05
100
AcDbEntity
  8
DEFPOINTS
 62
     0
100
AcDbPoint
 10
869.4389206732846
 20
-975.2218044443027
 30
0.0
  0
POINT
  5
1A62
330
1A05
100
AcDbEntity
  8
DEFPOINTS
 62
     0
100
AcDbPoint
 10
703.4389206732846
 20
-926.2218044443027
 30
0.0
  0
POINT
  5
1A63
330
1A05
100
AcDbEntity
  8
DEFPOINTS
 62
     0
100
AcDbPoint
 10
703.4389206732846
 20
-1037.386556170624
 30
0.0
  0
ENDBLK
  5
1A10
330
1A05
100
AcDbEntity
  8
0
 62
     2
100
AcDbBlockEnd
  0
BLOCK
  5
1A71
330
1A67
100
AcDbEntity
  8
0
 62
     2
100
AcDbBlockBegin
  2
*D42
 70
     1
 10
0.0
 20
0.0
 30
0.0
  3
*D42
  1

  0
LINE
  5
1AC1
330
1A67
100
AcDbEntity
  8
画層1
 62
     0
370
    -2
100
AcDbLine
 10
869.4389206732846
 20
-600.5918044443027
 30
0.0
 11
869.4389206732846
 21
-592.9718044443027
 31
0.0
  0
LINE
  5
1AC2
330
1A67
100
AcDbEntity
  8
画層1
 62
     0
370
    -2
100
AcDbLine
 10
615.4389206732846
 20
-640.5918044443027
 30
0.0
 11
615.4389206732846
 21
-592.9718044443027
 31
0.0
  0
LINE
  5
1AC3
330
1A67
100
AcDbEntity
  8
画層1
 62
     0
370
    -2
100
AcDbLine
 10
867.9389206732846
 20
-594.2218044443027
 30
0.0
 11
616.9389206732846
 21
-594.2218044443027
 31
0.0
  0
INSERT
  5
1AC4
330
1A67
100
AcDbEntity
  8
画層1
 62
     0
370
    -2
100
AcDbBlockReference
  2
_OPEN30
 10
869.4389206732846
 20
-594.2218044443027
 30
0.0
 41
1.5
 42
1.5
 43
1.5
  0
INSERT
  5
1AC5
330
1A67
100
AcDbEntity
  8
画層1
 62
     0
370
    -2
100
AcDbBlockReference
  2
_OPEN30
 10
615.4389206732846
 20
-594.2218044443027
 30
0.0
 41
1.5
 42
1.5
 43
1.5
 50
180.0
  0
MTEXT
  5
1AC6
330
1A67
100
AcDbEntity
  8
画層1
 62
     0
100
AcDbMText
 10
742.4389206732846
 20
-592.1324135813586
 30
0.0
 40
2.5
 41
0.0
 71
     5
 72
     1
  1
\A1;(254)
  7
STYLE1
 73
     1
 44
1.0
  0
POINT
  5
1AC7
330
1A67
100
AcDbEntity
  8
DEFPOINTS
 62
     0
100
AcDbPoint
 10
869.4389206732846
 20
-601.2218044443027
 30
0.0
  0
POINT
  5
1AC8
330
1A67
100
AcDbEntity
  8
DEFPOINTS
 62
     0
100
AcDbPoint
 10
615.4389206732846
 20
-641.2218044443027
 30
0.0
  0
POINT
  5
1AC9
330
1A67
100
AcDbEntity
  8
DEFPOINTS
 62
     0
100
AcDbPoint
 10
615.4389206732846
 20
-594.2218044443027
 30
0.0
  0
ENDBLK
  5
1A72
330
1A67
100
AcDbEntity
  8
0
 62
     2
100
AcDbBlockEnd
  0
BLOCK
  5
1A7D
330
1A73
100
AcDbEntity
  8
0
 62
     2
100
AcDbBlockBegin
  2
*D43
 70
     1
 10
0.0
 20
0.0
 30
0.0
  3
*D43
  1

  0
LINE
  5
1ACA
330
1A73
100
AcDbEntity
  8
画層1
 62
     0
370
    -2
100
AcDbLine
 10
615.4389206732846
 20
-640.5918044443027
 30
0.0
 11
615.4389206732846
 21
-592.9718044443027
 31
0.0
  0
LINE
  5
1ACB
330
1A73
100
AcDbEntity
  8
画層1
 62
     0
370
    -2
100
AcDbLine
 10
602.9389206732846
 20
-638.5918044443027
 30
0.0
 11
602.9389206732846
 21
-592.9718044443027
 31
0.0
  0
LINE
  5
1ACC
330
1A73
100
AcDbEntity
  8
画層1
 62
     0
370
    -2
100
AcDbLine
 10
613.9389206732846
 20
-594.2218044443027
 30
0.0
 11
604.4389206732846
 21
-594.2218044443027
 31
0.0
  0
INSERT
  5
1ACD
330
1A73
100
AcDbEntity
  8
画層1
 62
     0
370
    -2
100
AcDbBlockReference
  2
_OPEN30
 10
615.4389206732846
 20
-594.2218044443027
 30
0.0
 41
1.5
 42
1.5
 43
1.5
  0
INSERT
  5
1ACE
330
1A73
100
AcDbEntity
  8
画層1
 62
     0
370
    -2
100
AcDbBlockReference
  2
_OPEN30
 10
602.9389206732846
 20
-594.2218044443027
 30
0.0
 41
1.5
 42
1.5
 43
1.5
 50
180.0
  0
MTEXT
  5
1ACF
330
1A73
100
AcDbEntity
  8
画層1
 62
     0
100
AcDbMText
 10
609.1889206732846
 20
-592.3418044443027
 30
0.0
 40
2.5
 41
0.0
 71
     5
 72
     1
  1
\A1;12.5
  7
STYLE1
 73
     1
 44
1.0
  0
POINT
  5
1AD0
330
1A73
100
AcDbEntity
  8
DEFPOINTS
 62
     0
100
AcDbPoint
 10
615.4389206732846
 20
-641.2218044443027
 30
0.0
  0
POINT
  5
1AD1
330
1A73
100
AcDbEntity
  8
DEFPOINTS
 62
     0
100
AcDbPoint
 10
602.9389206732846
 20
-639.2218044443027
 30
0.0
  0
POINT
  5
1AD2
330
1A73
100
AcDbEntity
  8
DEFPOINTS
 62
     0
100
AcDbPoint
 10
602.9389206732846
 20
-594.2218044443027
 30
0.0
  0
ENDBLK
  5
1A7E
330
1A73
100
AcDbEntity
  8
0
 62
     2
100
AcDbBlockEnd
  0
BLOCK
  5
1A89
330
1A7F
100
AcDbEntity
  8
0
 62
     2
100
AcDbBlockBegin
  2
*D44
 70
     1
 10
0.0
 20
0.0
 30
0.0
  3
*D44
  1

  0
LINE
  5
1AD3
330
1A7F
100
AcDbEntity
  8
画層1
 62
     0
370
    -2
100
AcDbLine
 10
869.4389206732846
 20
-600.5918044443027
 30
0.0
 11
869.4389206732846
 21
-585.9718044443027
 31
0.0
  0
LINE
  5
1AD4
330
1A7F
100
AcDbEntity
  8
画層1
 62
     0
370
    -2
100
AcDbLine
 10
586.4389206732846
 20
-625.9918044443029
 30
0.0
 11
586.4389206732846
 21
-585.9718044443027
 31
0.0
  0
LINE
  5
1AD5
330
1A7F
100
AcDbEntity
  8
画層1
 62
     0
370
    -2
100
AcDbLine
 10
867.9389206732846
 20
-587.2218044443027
 30
0.0
 11
587.9389206732846
 21
-587.2218044443027
 31
0.0
  0
INSERT
  5
1AD6
330
1A7F
100
AcDbEntity
  8
画層1
 62
     0
370
    -2
100
AcDbBlockReference
  2
_OPEN30
 10
869.4389206732846
 20
-587.2218044443027
 30
0.0
 41
1.5
 42
1.5
 43
1.5
  0
INSERT
  5
1AD7
330
1A7F
100
AcDbEntity
  8
画層1
 62
     0
370
    -2
100
AcDbBlockReference
  2
_OPEN30
 10
586.4389206732846
 20
-587.2218044443027
 30
0.0
 41
1.5
 42
1.5
 43
1.5
 50
180.0
  0
MTEXT
  5
1AD8
330
1A7F
100
AcDbEntity
  8
画層1
 62
     0
100
AcDbMText
 10
727.9389206732846
 20
-585.3418044443027
 30
0.0
 40
2.5
 41
0.0
 71
     5
 72
     1
  1
\A1;283
  7
STYLE1
 73
     1
 44
1.0
  0
POINT
  5
1AD9
330
1A7F
100
AcDbEntity
  8
DEFPOINTS
 62
     0
100
AcDbPoint
 10
869.4389206732846
 20
-601.2218044443027
 30
0.0
  0
POINT
  5
1ADA
330
1A7F
100
AcDbEntity
  8
DEFPOINTS
 62
     0
100
AcDbPoint
 10
586.4389206732846
 20
-626.6218044443029
 30
0.0
  0
POINT
  5
1ADB
330
1A7F
100
AcDbEntity
  8
DEFPOINTS
 62
     0
100
AcDbPoint
 10
586.4389206732846
 20
-587.2218044443027
 30
0.0
  0
ENDBLK
  5
1A8A
330
1A7F
100
AcDbEntity
  8
0
 62
     2
100
AcDbBlockEnd
  0
ENDSEC
  0
SECTION
  2
ENTITIES
  0
LINE
  5
12CB
330
2
100
AcDbEntity
  8
画層1
 62
     3
100
AcDbLine
 10
280.6305818396356
 20
-599.2218044443028
 30
0.0
 11
482.6305818396356
 21
-599.2218044443028
 31
0.0
  0
LINE
  5
12CC
330
2
100
AcDbEntity
  8
画層1
 62
     3
100
AcDbLine
 10
482.6305818396356
 20
-599.2218044443028
 30
0.0
 11
482.6305818396356
 21
-626.2218044443028
 31
0.0
  0
LINE
  5
12CD
330
2
100
AcDbEntity
  8
画層1
 62
     3
100
AcDbLine
 10
482.6305818396355
 20
-977.2218044443029
 30
0.0
 11
280.6305818396355
 21
-977.2218044443029
 31
0.0
  0
LINE
  5
12CE
330
2
100
AcDbEntity
  8
画層1
 62
     3
100
AcDbLine
 10
280.6305818396356
 20
-599.2218044443028
 30
0.0
 11
280.6305818396356
 21
-637.2218044443028
 31
0.0
  0
LINE
  5
12CF
330
2
100
AcDbEntity
  8
画層1
 62
     3
100
AcDbLine
 10
282.6305818396356
 20
-639.2218044443028
 30
0.0
 11
313.6305818396356
 21
-639.2218044443028
 31
0.0
  0
LINE
  5
12D0
330
2
100
AcDbEntity
  8
画層1
 62
     3
100
AcDbLine
 10
313.6305818396356
 20
-639.2218044443028
 30
0.0
 11
313.6305818396356
 21
-732.2218044443028
 31
0.0
  0
LINE
  5
12D1
330
2
100
AcDbEntity
  8
画層1
 62
     3
100
AcDbLine
 10
313.6305818396356
 20
-732.2218044443028
 30
0.0
 11
282.6305818396356
 21
-732.2218044443028
 31
0.0
  0
LINE
  5
12D2
330
2
100
AcDbEntity
  8
画層1
 62
     3
100
AcDbLine
 10
280.6305818396356
 20
-734.2218044443028
 30
0.0
 11
280.6305818396355
 21
-977.2218044443029
 31
0.0
  0
ARC
  5
12D3
330
2
100
AcDbEntity
  8
画層1
 62
     3
100
AcDbCircle
 10
282.6305818396356
 20
-637.2218044443028
 30
0.0
 40
2.0
100
AcDbArc
 50
180.0
 51
270.0
  0
ARC
  5
12D4
330
2
100
AcDbEntity
  8
画層1
 62
     3
100
AcDbCircle
 10
282.6305818396356
 20
-734.2218044443028
 30
0.0
 40
2.0
100
AcDbArc
 50
90.0
 51
180.0
  0
LINE
  5
12DE
330
2
100
AcDbEntity
  8
画層1
 62
     3
100
AcDbLine
 10
314.6305818396356
 20
-638.2218044443027
 30
0.0
 11
293.6305818396357
 21
-638.2218044443027
 31
0.0
  0
LINE
  5
12DF
330
2
100
AcDbEntity
  8
画層1
 62
     3
100
AcDbLine
 10
293.6305818396357
 20
-638.2218044443027
 30
0.0
 11
293.6305818396357
 21
-612.7218044443027
 31
0.0
  0
LINE
  5
12E0
330
2
100
AcDbEntity
  8
画層1
 62
     3
100
AcDbLine
 10
314.6305818396356
 20
-733.2218044443027
 30
0.0
 11
314.6305818396356
 21
-638.2218044443027
 31
0.0
  0
LINE
  5
12E1
330
2
100
AcDbEntity
  8
画層1
 62
     3
100
AcDbLine
 10
296.7305818396356
 20
-729.7218044443027
 30
0.0
 11
296.7305818396356
 21
-722.7218044443027
 31
0.0
  0
CIRCLE
  5
12E2
330
2
100
AcDbEntity
  8
画層1
 62
     3
100
AcDbCircle
 10
300.2305818396356
 20
-726.2218044443027
 30
0.0
 40
3.0
  0
LINE
  5
12E3
330
2
100
AcDbEntity
  8
画層1
 62
     3
100
AcDbLine
 10
303.7305818396356
 20
-722.7218044443027
 30
0.0
 11
303.7305818396356
 21
-729.7218044443027
 31
0.0
  0
LINE
  5
12E4
330
2
100
AcDbEntity
  8
画層1
 62
     3
100
AcDbLine
 10
298.7305818396356
 20
-726.7218044443027
 30
0.0
 11
297.2705818396357
 21
-726.7218044443027
 31
0.0
  0
LINE
  5
12E5
330
2
100
AcDbEntity
  8
画層1
 62
     3
100
AcDbLine
 10
303.7305818396356
 20
-729.7218044443027
 30
0.0
 11
296.7305818396356
 21
-729.7218044443027
 31
0.0
  0
LINE
  5
12E6
330
2
100
AcDbEntity
  8
画層1
 62
     3
100
AcDbLine
 10
294.8305818396357
 20
-730.2218044443027
 30
0.0
 11
304.2305818396356
 21
-730.2218044443027
 31
0.0
  0
LINE
  5
12E7
330
2
100
AcDbEntity
  8
画層1
 62
     3
100
AcDbLine
 10
303.1805818396355
 20
-726.7218044443027
 30
0.0
 11
301.7305818396356
 21
-726.7218044443027
 31
0.0
  0
ARC
  5
12E8
330
2
100
AcDbEntity
  8
画層1
 62
     3
100
AcDbCircle
 10
298.7305818396356
 20
-727.7218044443027
 30
0.0
 40
1.0
100
AcDbArc
 50
0.0
 51
90.0
  0
LINE
  5
12E9
330
2
100
AcDbEntity
  8
画層1
 62
     3
100
AcDbLine
 10
299.7305818396357
 20
-728.0218044443028
 30
0.0
 11
300.7305818396357
 21
-728.0218044443028
 31
0.0
  0
LINE
  5
12EA
330
2
100
AcDbEntity
  8
画層1
 62
     3
100
AcDbLine
 10
300.7305818396357
 20
-727.7218044443027
 30
0.0
 11
300.7305818396357
 21
-728.0218044443028
 31
0.0
  0
LINE
  5
12EB
330
2
100
AcDbEntity
  8
画層1
 62
     3
100
AcDbLine
 10
299.7305818396357
 20
-728.0218044443028
 30
0.0
 11
299.7305818396357
 21
-727.7218044443027
 31
0.0
  0
ARC
  5
12EC
330
2
100
AcDbEntity
  8
画層1
 62
     3
100
AcDbCircle
 10
301.7305818396356
 20
-727.7218044443027
 30
0.0
 40
1.0
100
AcDbArc
 50
90.0
 51
180.0
  0
LINE
  5
12ED
330
2
100
AcDbEntity
  8
画層1
 62
     3
100
AcDbLine
 10
313.1305818396356
 20
-669.9218044443028
 30
0.0
 11
313.1305818396356
 21
-676.9218044443028
 31
0.0
  0
CIRCLE
  5
12EE
330
2
100
AcDbEntity
  8
画層1
 62
     3
100
AcDbCircle
 10
309.6305818396356
 20
-673.4218044443028
 30
0.0
 40
3.0
  0
LINE
  5
12EF
330
2
100
AcDbEntity
  8
画層1
 62
     3
100
AcDbLine
 10
306.1305818396356
 20
-676.9218044443028
 30
0.0
 11
306.1305818396356
 21
-669.9218044443028
 31
0.0
  0
LINE
  5
12F0
330
2
100
AcDbEntity
  8
画層1
 62
     3
100
AcDbLine
 10
313.1305818396356
 20
-698.1218044443029
 30
0.0
 11
313.1305818396356
 21
-705.1218044443028
 31
0.0
  0
ARC
  5
12F1
330
2
100
AcDbEntity
  8
画層1
 62
     3
100
AcDbCircle
 10
311.1305818396356
 20
-700.1218044443029
 30
0.0
 40
1.0
100
AcDbArc
 50
180.0
 51
270.0
  0
ARC
  5
12F2
330
2
100
AcDbEntity
  8
画層1
 62
     3
100
AcDbCircle
 10
308.1305818396356
 20
-700.1218044443029
 30
0.0
 40
1.0
100
AcDbArc
 50
270.0
 51
0.0
  0
CIRCLE
  5
12F3
330
2
100
AcDbEntity
  8
画層1
 62
     3
100
AcDbCircle
 10
309.6305818396356
 20
-701.6218044443029
 30
0.0
 40
3.0
  0
LINE
  5
12F4
330
2
100
AcDbEntity
  8
画層1
 62
     3
100
AcDbLine
 10
306.1305818396356
 20
-705.1218044443028
 30
0.0
 11
306.1305818396356
 21
-698.1218044443029
 31
0.0
  0
LINE
  5
12F5
330
2
100
AcDbEntity
  8
画層1
 62
     3
100
AcDbLine
 10
303.7305818396356
 20
-694.5218044443028
 30
0.0
 11
303.7305818396356
 21
-701.5218044443026
 31
0.0
  0
LINE
  5
12F6
330
2
100
AcDbEntity
  8
画層1
 62
     3
100
AcDbLine
 10
296.7305818396356
 20
-701.5218044443026
 30
0.0
 11
296.7305818396356
 21
-694.5218044443028
 31
0.0
  0
CIRCLE
  5
12F7
330
2
100
AcDbEntity
  8
画層1
 62
     3
100
AcDbCircle
 10
300.2305818396356
 20
-698.0218044443029
 30
0.0
 40
3.0
  0
LINE
  5
12F8
330
2
100
AcDbEntity
  8
画層1
 62
     3
100
AcDbLine
 10
304.2305818396356
 20
-715.0218044443026
 30
0.0
 11
313.6305818396356
 21
-715.0218044443026
 31
0.0
  0
LINE
  5
12F9
330
2
100
AcDbEntity
  8
画層1
 62
     3
100
AcDbLine
 10
304.2305818396356
 20
-716.4218044443027
 30
0.0
 11
313.6305818396356
 21
-716.4218044443027
 31
0.0
  0
LINE
  5
12FA
330
2
100
AcDbEntity
  8
画層1
 62
     3
100
AcDbLine
 10
304.2305818396356
 20
-705.6218044443028
 30
0.0
 11
313.6305818396356
 21
-705.6218044443028
 31
0.0
  0
LINE
  5
12FB
330
2
100
AcDbEntity
  8
画層1
 62
     3
100
AcDbLine
 10
304.2305818396356
 20
-707.0218044443026
 30
0.0
 11
313.6305818396356
 21
-707.0218044443026
 31
0.0
  0
LINE
  5
12FC
330
2
100
AcDbEntity
  8
画層1
 62
     3
100
AcDbLine
 10
304.2305818396356
 20
-724.4218044443027
 30
0.0
 11
313.6305818396356
 21
-724.4218044443027
 31
0.0
  0
LINE
  5
12FD
330
2
100
AcDbEntity
  8
画層1
 62
     3
100
AcDbLine
 10
303.7305818396356
 20
-713.3218044443029
 30
0.0
 11
303.7305818396356
 21
-720.3218044443028
 31
0.0
  0
LINE
  5
12FE
330
2
100
AcDbEntity
  8
画層1
 62
     3
100
AcDbLine
 10
296.7305818396356
 20
-720.3218044443028
 30
0.0
 11
296.7305818396356
 21
-713.3218044443029
 31
0.0
  0
LINE
  5
12FF
330
2
100
AcDbEntity
  8
画層1
 62
     3
100
AcDbLine
 10
297.2705818396357
 20
-716.3218044443028
 30
0.0
 11
298.7305818396356
 21
-716.3218044443028
 31
0.0
  0
LINE
  5
1300
330
2
100
AcDbEntity
  8
画層1
 62
     3
100
AcDbLine
 10
298.7305818396356
 20
-717.3218044443029
 30
0.0
 11
297.2705818396357
 21
-717.3218044443029
 31
0.0
  0
CIRCLE
  5
1301
330
2
100
AcDbEntity
  8
画層1
 62
     3
100
AcDbCircle
 10
300.2305818396356
 20
-716.8218044443029
 30
0.0
 40
3.0
  0
LINE
  5
1302
330
2
100
AcDbEntity
  8
画層1
 62
     3
100
AcDbLine
 10
296.7305818396356
 20
-722.7218044443027
 30
0.0
 11
303.7305818396356
 21
-722.7218044443027
 31
0.0
  0
LINE
  5
1303
330
2
100
AcDbEntity
  8
画層1
 62
     3
100
AcDbLine
 10
303.7305818396356
 20
-720.3218044443028
 30
0.0
 11
296.7305818396356
 21
-720.3218044443028
 31
0.0
  0
LINE
  5
1304
330
2
100
AcDbEntity
  8
画層1
 62
     3
100
AcDbLine
 10
297.2705818396357
 20
-725.7218044443027
 30
0.0
 11
298.7305818396356
 21
-725.7218044443027
 31
0.0
  0
LINE
  5
1305
330
2
100
AcDbEntity
  8
画層1
 62
     3
100
AcDbLine
 10
294.8305818396357
 20
-722.2218044443028
 30
0.0
 11
304.2305818396356
 21
-722.2218044443028
 31
0.0
  0
LINE
  5
1306
330
2
100
AcDbEntity
  8
画層1
 62
     3
100
AcDbLine
 10
294.8305818396357
 20
-720.8218044443029
 30
0.0
 11
304.2305818396356
 21
-720.8218044443029
 31
0.0
  0
LINE
  5
1307
330
2
100
AcDbEntity
  8
画層1
 62
     3
100
AcDbLine
 10
301.7305818396356
 20
-716.3218044443028
 30
0.0
 11
303.1805818396355
 21
-716.3218044443028
 31
0.0
  0
LINE
  5
1308
330
2
100
AcDbEntity
  8
画層1
 62
     3
100
AcDbLine
 10
303.1805818396355
 20
-717.3218044443029
 30
0.0
 11
301.7305818396356
 21
-717.3218044443029
 31
0.0
  0
ARC
  5
1309
330
2
100
AcDbEntity
  8
画層1
 62
     3
100
AcDbCircle
 10
298.7305818396356
 20
-718.3218044443028
 30
0.0
 40
1.0
100
AcDbArc
 50
0.0
 51
90.0
  0
LINE
  5
130A
330
2
100
AcDbEntity
  8
画層1
 62
     3
100
AcDbLine
 10
299.7305818396357
 20
-718.6218044443028
 30
0.0
 11
300.7305818396357
 21
-718.6218044443028
 31
0.0
  0
LINE
  5
130B
330
2
100
AcDbEntity
  8
画層1
 62
     3
100
AcDbLine
 10
300.7305818396357
 20
-718.3218044443028
 30
0.0
 11
300.7305818396357
 21
-718.6218044443028
 31
0.0
  0
LINE
  5
130C
330
2
100
AcDbEntity
  8
画層1
 62
     3
100
AcDbLine
 10
299.7305818396357
 20
-718.6218044443028
 30
0.0
 11
299.7305818396357
 21
-718.3218044443028
 31
0.0
  0
ARC
  5
130D
330
2
100
AcDbEntity
  8
画層1
 62
     3
100
AcDbCircle
 10
298.7305818396356
 20
-715.3218044443028
 30
0.0
 40
1.0
100
AcDbArc
 50
270.0
 51
0.0
  0
LINE
  5
130E
330
2
100
AcDbEntity
  8
画層1
 62
     3
100
AcDbLine
 10
299.7305818396357
 20
-715.0218044443026
 30
0.0
 11
300.7305818396357
 21
-715.0218044443026
 31
0.0
  0
LINE
  5
130F
330
2
100
AcDbEntity
  8
画層1
 62
     3
100
AcDbLine
 10
299.7305818396357
 20
-715.3218044443028
 30
0.0
 11
299.7305818396357
 21
-715.0218044443026
 31
0.0
  0
LINE
  5
1310
330
2
100
AcDbEntity
  8
画層1
 62
     3
100
AcDbLine
 10
300.7305818396357
 20
-715.0218044443026
 30
0.0
 11
300.7305818396357
 21
-715.3218044443028
 31
0.0
  0
ARC
  5
1311
330
2
100
AcDbEntity
  8
画層1
 62
     3
100
AcDbCircle
 10
301.7305818396356
 20
-718.3218044443028
 30
0.0
 40
1.0
100
AcDbArc
 50
90.0
 51
180.0
  0
ARC
  5
1312
330
2
100
AcDbEntity
  8
画層1
 62
     3
100
AcDbCircle
 10
301.7305818396356
 20
-715.3218044443028
 30
0.0
 40
1.0
100
AcDbArc
 50
180.0
 51
270.0
  0
LINE
  5
1313
330
2
100
AcDbEntity
  8
画層1
 62
     3
100
AcDbLine
 10
301.7305818396356
 20
-725.7218044443027
 30
0.0
 11
303.1805818396355
 21
-725.7218044443027
 31
0.0
  0
ARC
  5
1314
330
2
100
AcDbEntity
  8
画層1
 62
     3
100
AcDbCircle
 10
298.7305818396356
 20
-724.7218044443027
 30
0.0
 40
1.0
100
AcDbArc
 50
270.0
 51
0.0
  0
LINE
  5
1315
330
2
100
AcDbEntity
  8
画層1
 62
     3
100
AcDbLine
 10
299.7305818396357
 20
-724.4218044443027
 30
0.0
 11
300.7305818396357
 21
-724.4218044443027
 31
0.0
  0
LINE
  5
1316
330
2
100
AcDbEntity
  8
画層1
 62
     3
100
AcDbLine
 10
299.7305818396357
 20
-724.7218044443027
 30
0.0
 11
299.7305818396357
 21
-724.4218044443027
 31
0.0
  0
LINE
  5
1317
330
2
100
AcDbEntity
  8
画層1
 62
     3
100
AcDbLine
 10
300.7305818396357
 20
-724.4218044443027
 30
0.0
 11
300.7305818396357
 21
-724.7218044443027
 31
0.0
  0
ARC
  5
1318
330
2
100
AcDbEntity
  8
画層1
 62
     3
100
AcDbCircle
 10
301.7305818396356
 20
-724.7218044443027
 30
0.0
 40
1.0
100
AcDbArc
 50
180.0
 51
270.0
  0
LINE
  5
1319
330
2
100
AcDbEntity
  8
画層1
 62
     3
100
AcDbLine
 10
298.7305818396356
 20
-707.9218044443027
 30
0.0
 11
297.2705818396357
 21
-707.9218044443027
 31
0.0
  0
LINE
  5
131A
330
2
100
AcDbEntity
  8
画層1
 62
     3
100
AcDbLine
 10
297.2705818396357
 20
-706.9218044443026
 30
0.0
 11
298.7305818396356
 21
-706.9218044443026
 31
0.0
  0
LINE
  5
131B
330
2
100
AcDbEntity
  8
画層1
 62
     3
100
AcDbLine
 10
296.7305818396356
 20
-703.9218044443027
 30
0.0
 11
303.7305818396356
 21
-703.9218044443027
 31
0.0
  0
LINE
  5
131C
330
2
100
AcDbEntity
  8
画層1
 62
     3
100
AcDbLine
 10
303.7305818396356
 20
-701.5218044443026
 30
0.0
 11
296.7305818396356
 21
-701.5218044443026
 31
0.0
  0
LINE
  5
131D
330
2
100
AcDbEntity
  8
画層1
 62
     3
100
AcDbLine
 10
296.7305818396356
 20
-713.3218044443029
 30
0.0
 11
303.7305818396356
 21
-713.3218044443029
 31
0.0
  0
LINE
  5
131E
330
2
100
AcDbEntity
  8
画層1
 62
     3
100
AcDbLine
 10
303.7305818396356
 20
-710.9218044443026
 30
0.0
 11
296.7305818396356
 21
-710.9218044443026
 31
0.0
  0
CIRCLE
  5
131F
330
2
100
AcDbEntity
  8
画層1
 62
     3
100
AcDbCircle
 10
300.2305818396356
 20
-707.4218044443027
 30
0.0
 40
3.0
  0
LINE
  5
1320
330
2
100
AcDbEntity
  8
画層1
 62
     3
100
AcDbLine
 10
294.8305818396357
 20
-712.8218044443029
 30
0.0
 11
304.2305818396356
 21
-712.8218044443029
 31
0.0
  0
LINE
  5
1321
330
2
100
AcDbEntity
  8
画層1
 62
     3
100
AcDbLine
 10
294.8305818396357
 20
-711.4218044443027
 30
0.0
 11
304.2305818396356
 21
-711.4218044443027
 31
0.0
  0
LINE
  5
1322
330
2
100
AcDbEntity
  8
画層1
 62
     3
100
AcDbLine
 10
294.8305818396357
 20
-703.4218044443027
 30
0.0
 11
304.2305818396356
 21
-703.4218044443027
 31
0.0
  0
LINE
  5
1323
330
2
100
AcDbEntity
  8
画層1
 62
     3
100
AcDbLine
 10
294.8305818396357
 20
-702.0218044443029
 30
0.0
 11
304.2305818396356
 21
-702.0218044443029
 31
0.0
  0
LINE
  5
1324
330
2
100
AcDbEntity
  8
画層1
 62
     3
100
AcDbLine
 10
296.7305818396356
 20
-710.9218044443026
 30
0.0
 11
296.7305818396356
 21
-703.9218044443027
 31
0.0
  0
LINE
  5
1325
330
2
100
AcDbEntity
  8
画層1
 62
     3
100
AcDbLine
 10
303.1805818396355
 20
-707.9218044443027
 30
0.0
 11
301.7305818396356
 21
-707.9218044443027
 31
0.0
  0
LINE
  5
1326
330
2
100
AcDbEntity
  8
画層1
 62
     3
100
AcDbLine
 10
301.7305818396356
 20
-706.9218044443026
 30
0.0
 11
303.1805818396355
 21
-706.9218044443026
 31
0.0
  0
ARC
  5
1327
330
2
100
AcDbEntity
  8
画層1
 62
     3
100
AcDbCircle
 10
298.7305818396356
 20
-708.9218044443026
 30
0.0
 40
1.0
100
AcDbArc
 50
0.0
 51
90.0
  0
ARC
  5
1328
330
2
100
AcDbEntity
  8
画層1
 62
     3
100
AcDbCircle
 10
298.7305818396356
 20
-705.9218044443026
 30
0.0
 40
1.0
100
AcDbArc
 50
270.0
 51
0.0
  0
LINE
  5
1329
330
2
100
AcDbEntity
  8
画層1
 62
     3
100
AcDbLine
 10
299.7305818396357
 20
-709.2218044443027
 30
0.0
 11
300.7305818396357
 21
-709.2218044443027
 31
0.0
  0
LINE
  5
132A
330
2
100
AcDbEntity
  8
画層1
 62
     3
100
AcDbLine
 10
300.7305818396357
 20
-708.9218044443026
 30
0.0
 11
300.7305818396357
 21
-709.2218044443027
 31
0.0
  0
LINE
  5
132B
330
2
100
AcDbEntity
  8
画層1
 62
     3
100
AcDbLine
 10
299.7305818396357
 20
-709.2218044443027
 30
0.0
 11
299.7305818396357
 21
-708.9218044443026
 31
0.0
  0
LINE
  5
132C
330
2
100
AcDbEntity
  8
画層1
 62
     3
100
AcDbLine
 10
299.7305818396357
 20
-705.6218044443028
 30
0.0
 11
300.7305818396357
 21
-705.6218044443028
 31
0.0
  0
LINE
  5
132D
330
2
100
AcDbEntity
  8
画層1
 62
     3
100
AcDbLine
 10
299.7305818396357
 20
-705.9218044443026
 30
0.0
 11
299.7305818396357
 21
-705.6218044443028
 31
0.0
  0
LINE
  5
132E
330
2
100
AcDbEntity
  8
画層1
 62
     3
100
AcDbLine
 10
300.7305818396357
 20
-705.6218044443028
 30
0.0
 11
300.7305818396357
 21
-705.9218044443026
 31
0.0
  0
ARC
  5
132F
330
2
100
AcDbEntity
  8
画層1
 62
     3
100
AcDbCircle
 10
301.7305818396356
 20
-708.9218044443026
 30
0.0
 40
1.0
100
AcDbArc
 50
90.0
 51
180.0
  0
ARC
  5
1330
330
2
100
AcDbEntity
  8
画層1
 62
     3
100
AcDbCircle
 10
301.7305818396356
 20
-705.9218044443026
 30
0.0
 40
1.0
100
AcDbArc
 50
180.0
 51
270.0
  0
LINE
  5
1331
330
2
100
AcDbEntity
  8
画層1
 62
     3
100
AcDbLine
 10
303.7305818396356
 20
-703.9218044443027
 30
0.0
 11
303.7305818396356
 21
-710.9218044443026
 31
0.0
  0
LINE
  5
1332
330
2
100
AcDbEntity
  8
画層1
 62
     3
100
AcDbLine
 10
313.1305818396356
 20
-707.5218044443026
 30
0.0
 11
313.1305818396356
 21
-714.5218044443027
 31
0.0
  0
CIRCLE
  5
1333
330
2
100
AcDbEntity
  8
画層1
 62
     3
100
AcDbCircle
 10
309.6305818396356
 20
-711.0218044443026
 30
0.0
 40
3.0
  0
LINE
  5
1334
330
2
100
AcDbEntity
  8
画層1
 62
     3
100
AcDbLine
 10
306.1305818396356
 20
-714.5218044443027
 30
0.0
 11
306.1305818396356
 21
-707.5218044443026
 31
0.0
  0
ARC
  5
1335
330
2
100
AcDbEntity
  8
画層1
 62
     3
100
AcDbCircle
 10
311.1305818396356
 20
-718.9218044443026
 30
0.0
 40
1.0
100
AcDbArc
 50
180.0
 51
270.0
  0
ARC
  5
1336
330
2
100
AcDbEntity
  8
画層1
 62
     3
100
AcDbCircle
 10
311.1305818396356
 20
-721.9218044443026
 30
0.0
 40
1.0
100
AcDbArc
 50
90.0
 51
180.0
  0
CIRCLE
  5
1337
330
2
100
AcDbEntity
  8
画層1
 62
     3
100
AcDbCircle
 10
309.6305818396356
 20
-720.4218044443027
 30
0.0
 40
3.0
  0
LINE
  5
1338
330
2
100
AcDbEntity
  8
画層1
 62
     3
100
AcDbLine
 10
313.1305818396356
 20
-714.5218044443027
 30
0.0
 11
306.1305818396356
 21
-714.5218044443027
 31
0.0
  0
LINE
  5
1339
330
2
100
AcDbEntity
  8
画層1
 62
     3
100
AcDbLine
 10
306.1305818396356
 20
-716.9218044443026
 30
0.0
 11
313.1305818396356
 21
-716.9218044443026
 31
0.0
  0
LINE
  5
133A
330
2
100
AcDbEntity
  8
画層1
 62
     3
100
AcDbLine
 10
313.1305818396356
 20
-723.9218044443027
 30
0.0
 11
306.1305818396356
 21
-723.9218044443027
 31
0.0
  0
ARC
  5
133B
330
2
100
AcDbEntity
  8
画層1
 62
     3
100
AcDbCircle
 10
308.1305818396356
 20
-718.9218044443026
 30
0.0
 40
1.0
100
AcDbArc
 50
270.0
 51
0.0
  0
ARC
  5
133C
330
2
100
AcDbEntity
  8
画層1
 62
     3
100
AcDbCircle
 10
308.1305818396356
 20
-721.9218044443026
 30
0.0
 40
1.0
100
AcDbArc
 50
0.0
 51
90.0
  0
LINE
  5
133D
330
2
100
AcDbEntity
  8
画層1
 62
     3
100
AcDbLine
 10
308.1305818396356
 20
-720.9218044443026
 30
0.0
 11
306.6705818396356
 21
-720.9218044443026
 31
0.0
  0
LINE
  5
133E
330
2
100
AcDbEntity
  8
画層1
 62
     3
100
AcDbLine
 10
306.6705818396356
 20
-719.9218044443027
 30
0.0
 11
308.1305818396356
 21
-719.9218044443027
 31
0.0
  0
LINE
  5
133F
330
2
100
AcDbEntity
  8
画層1
 62
     3
100
AcDbLine
 10
310.1305818396356
 20
-721.9218044443026
 30
0.0
 11
310.1305818396356
 21
-722.2218044443028
 31
0.0
  0
LINE
  5
1340
330
2
100
AcDbEntity
  8
画層1
 62
     3
100
AcDbLine
 10
310.1305818396356
 20
-718.6218044443028
 30
0.0
 11
310.1305818396356
 21
-718.9218044443026
 31
0.0
  0
LINE
  5
1341
330
2
100
AcDbEntity
  8
画層1
 62
     3
100
AcDbLine
 10
309.1305818396356
 20
-722.2218044443028
 30
0.0
 11
309.1305818396356
 21
-721.9218044443026
 31
0.0
  0
LINE
  5
1342
330
2
100
AcDbEntity
  8
画層1
 62
     3
100
AcDbLine
 10
309.1305818396356
 20
-718.9218044443026
 30
0.0
 11
309.1305818396356
 21
-718.6218044443028
 31
0.0
  0
LINE
  5
1343
330
2
100
AcDbEntity
  8
画層1
 62
     3
100
AcDbLine
 10
309.1305818396356
 20
-722.2218044443028
 30
0.0
 11
310.1305818396356
 21
-722.2218044443028
 31
0.0
  0
LINE
  5
1344
330
2
100
AcDbEntity
  8
画層1
 62
     3
100
AcDbLine
 10
309.1305818396356
 20
-718.6218044443028
 30
0.0
 11
310.1305818396356
 21
-718.6218044443028
 31
0.0
  0
LINE
  5
1345
330
2
100
AcDbEntity
  8
画層1
 62
     3
100
AcDbLine
 10
306.1305818396356
 20
-723.9218044443027
 30
0.0
 11
306.1305818396356
 21
-716.9218044443026
 31
0.0
  0
LINE
  5
1346
330
2
100
AcDbEntity
  8
画層1
 62
     3
100
AcDbLine
 10
312.5805818396355
 20
-720.9218044443026
 30
0.0
 11
311.1305818396356
 21
-720.9218044443026
 31
0.0
  0
LINE
  5
1347
330
2
100
AcDbEntity
  8
画層1
 62
     3
100
AcDbLine
 10
311.1305818396356
 20
-719.9218044443027
 30
0.0
 11
312.5805818396355
 21
-719.9218044443027
 31
0.0
  0
LINE
  5
1348
330
2
100
AcDbEntity
  8
画層1
 62
     3
100
AcDbLine
 10
313.1305818396356
 20
-716.9218044443026
 30
0.0
 11
313.1305818396356
 21
-723.9218044443027
 31
0.0
  0
ARC
  5
1349
330
2
100
AcDbEntity
  8
画層1
 62
     3
100
AcDbCircle
 10
311.1305818396356
 20
-703.1218044443028
 30
0.0
 40
1.0
100
AcDbArc
 50
90.0
 51
180.0
  0
ARC
  5
134A
330
2
100
AcDbEntity
  8
画層1
 62
     3
100
AcDbCircle
 10
311.1305818396356
 20
-712.5218044443028
 30
0.0
 40
1.0
100
AcDbArc
 50
90.0
 51
180.0
  0
ARC
  5
134B
330
2
100
AcDbEntity
  8
画層1
 62
     3
100
AcDbCircle
 10
311.1305818396356
 20
-709.5218044443027
 30
0.0
 40
1.0
100
AcDbArc
 50
180.0
 51
270.0
  0
LINE
  5
134C
330
2
100
AcDbEntity
  8
画層1
 62
     3
100
AcDbLine
 10
313.1305818396356
 20
-705.1218044443028
 30
0.0
 11
306.1305818396356
 21
-705.1218044443028
 31
0.0
  0
LINE
  5
134D
330
2
100
AcDbEntity
  8
画層1
 62
     3
100
AcDbLine
 10
306.1305818396356
 20
-707.5218044443026
 30
0.0
 11
313.1305818396356
 21
-707.5218044443026
 31
0.0
  0
LINE
  5
134E
330
2
100
AcDbEntity
  8
画層1
 62
     3
100
AcDbLine
 10
310.1305818396356
 20
-709.2218044443027
 30
0.0
 11
310.1305818396356
 21
-709.5218044443027
 31
0.0
  0
LINE
  5
134F
330
2
100
AcDbEntity
  8
画層1
 62
     3
100
AcDbLine
 10
309.1305818396356
 20
-709.5218044443027
 30
0.0
 11
309.1305818396356
 21
-709.2218044443027
 31
0.0
  0
ARC
  5
1350
330
2
100
AcDbEntity
  8
画層1
 62
     3
100
AcDbCircle
 10
308.1305818396356
 20
-703.1218044443028
 30
0.0
 40
1.0
100
AcDbArc
 50
0.0
 51
90.0
  0
LINE
  5
1351
330
2
100
AcDbEntity
  8
画層1
 62
     3
100
AcDbLine
 10
308.1305818396356
 20
-702.1218044443028
 30
0.0
 11
306.6705818396356
 21
-702.1218044443028
 31
0.0
  0
LINE
  5
1352
330
2
100
AcDbEntity
  8
画層1
 62
     3
100
AcDbLine
 10
306.6705818396356
 20
-701.1218044443029
 30
0.0
 11
308.1305818396356
 21
-701.1218044443029
 31
0.0
  0
LINE
  5
1353
330
2
100
AcDbEntity
  8
画層1
 62
     3
100
AcDbLine
 10
310.1305818396356
 20
-703.1218044443028
 30
0.0
 11
310.1305818396356
 21
-703.4218044443027
 31
0.0
  0
LINE
  5
1354
330
2
100
AcDbEntity
  8
画層1
 62
     3
100
AcDbLine
 10
309.1305818396356
 20
-703.4218044443027
 30
0.0
 11
309.1305818396356
 21
-703.1218044443028
 31
0.0
  0
LINE
  5
1355
330
2
100
AcDbEntity
  8
画層1
 62
     3
100
AcDbLine
 10
309.1305818396356
 20
-709.2218044443027
 30
0.0
 11
310.1305818396356
 21
-709.2218044443027
 31
0.0
  0
LINE
  5
1356
330
2
100
AcDbEntity
  8
画層1
 62
     3
100
AcDbLine
 10
309.1305818396356
 20
-703.4218044443027
 30
0.0
 11
310.1305818396356
 21
-703.4218044443027
 31
0.0
  0
ARC
  5
1357
330
2
100
AcDbEntity
  8
画層1
 62
     3
100
AcDbCircle
 10
308.1305818396356
 20
-712.5218044443028
 30
0.0
 40
1.0
100
AcDbArc
 50
0.0
 51
90.0
  0
LINE
  5
1358
330
2
100
AcDbEntity
  8
画層1
 62
     3
100
AcDbLine
 10
308.1305818396356
 20
-711.5218044443026
 30
0.0
 11
306.6705818396356
 21
-711.5218044443026
 31
0.0
  0
LINE
  5
1359
330
2
100
AcDbEntity
  8
画層1
 62
     3
100
AcDbLine
 10
306.6705818396356
 20
-710.5218044443027
 30
0.0
 11
308.1305818396356
 21
-710.5218044443027
 31
0.0
  0
LINE
  5
135A
330
2
100
AcDbEntity
  8
画層1
 62
     3
100
AcDbLine
 10
310.1305818396356
 20
-712.5218044443028
 30
0.0
 11
310.1305818396356
 21
-712.8218044443029
 31
0.0
  0
LINE
  5
135B
330
2
100
AcDbEntity
  8
画層1
 62
     3
100
AcDbLine
 10
309.1305818396356
 20
-712.8218044443029
 30
0.0
 11
309.1305818396356
 21
-712.5218044443028
 31
0.0
  0
LINE
  5
135C
330
2
100
AcDbEntity
  8
画層1
 62
     3
100
AcDbLine
 10
309.1305818396356
 20
-712.8218044443029
 30
0.0
 11
310.1305818396356
 21
-712.8218044443029
 31
0.0
  0
ARC
  5
135D
330
2
100
AcDbEntity
  8
画層1
 62
     3
100
AcDbCircle
 10
308.1305818396356
 20
-709.5218044443027
 30
0.0
 40
1.0
100
AcDbArc
 50
270.0
 51
0.0
  0
LINE
  5
135E
330
2
100
AcDbEntity
  8
画層1
 62
     3
100
AcDbLine
 10
312.5805818396355
 20
-702.1218044443028
 30
0.0
 11
311.1305818396356
 21
-702.1218044443028
 31
0.0
  0
LINE
  5
135F
330
2
100
AcDbEntity
  8
画層1
 62
     3
100
AcDbLine
 10
311.1305818396356
 20
-701.1218044443029
 30
0.0
 11
312.5805818396355
 21
-701.1218044443029
 31
0.0
  0
LINE
  5
1360
330
2
100
AcDbEntity
  8
画層1
 62
     3
100
AcDbLine
 10
312.5805818396355
 20
-711.5218044443026
 30
0.0
 11
311.1305818396356
 21
-711.5218044443026
 31
0.0
  0
LINE
  5
1361
330
2
100
AcDbEntity
  8
画層1
 62
     3
100
AcDbLine
 10
311.1305818396356
 20
-710.5218044443027
 30
0.0
 11
312.5805818396355
 21
-710.5218044443027
 31
0.0
  0
LINE
  5
1362
330
2
100
AcDbEntity
  8
画層1
 62
     3
100
AcDbLine
 10
304.2305818396356
 20
-686.8218044443028
 30
0.0
 11
313.6305818396356
 21
-686.8218044443028
 31
0.0
  0
LINE
  5
1363
330
2
100
AcDbEntity
  8
画層1
 62
     3
100
AcDbLine
 10
304.2305818396356
 20
-688.2218044443027
 30
0.0
 11
313.6305818396356
 21
-688.2218044443027
 31
0.0
  0
LINE
  5
1364
330
2
100
AcDbEntity
  8
画層1
 62
     3
100
AcDbLine
 10
304.2305818396356
 20
-677.4218044443028
 30
0.0
 11
313.6305818396356
 21
-677.4218044443028
 31
0.0
  0
LINE
  5
1365
330
2
100
AcDbEntity
  8
画層1
 62
     3
100
AcDbLine
 10
304.2305818396356
 20
-678.8218044443027
 30
0.0
 11
313.6305818396356
 21
-678.8218044443027
 31
0.0
  0
LINE
  5
1366
330
2
100
AcDbEntity
  8
画層1
 62
     3
100
AcDbLine
 10
304.2305818396356
 20
-697.6218044443028
 30
0.0
 11
313.6305818396356
 21
-697.6218044443028
 31
0.0
  0
LINE
  5
1367
330
2
100
AcDbEntity
  8
画層1
 62
     3
100
AcDbLine
 10
304.2305818396356
 20
-696.2218044443027
 30
0.0
 11
313.6305818396356
 21
-696.2218044443027
 31
0.0
  0
LINE
  5
1368
330
2
100
AcDbEntity
  8
画層1
 62
     3
100
AcDbLine
 10
303.7305818396356
 20
-685.1218044443028
 30
0.0
 11
303.7305818396356
 21
-692.1218044443029
 31
0.0
  0
ARC
  5
1369
330
2
100
AcDbEntity
  8
画層1
 62
     3
100
AcDbCircle
 10
298.7305818396356
 20
-687.1218044443029
 30
0.0
 40
1.0
100
AcDbArc
 50
270.0
 51
0.0
  0
LINE
  5
136A
330
2
100
AcDbEntity
  8
画層1
 62
     3
100
AcDbLine
 10
296.7305818396356
 20
-692.1218044443029
 30
0.0
 11
296.7305818396356
 21
-685.1218044443028
 31
0.0
  0
CIRCLE
  5
136B
330
2
100
AcDbEntity
  8
画層1
 62
     3
100
AcDbCircle
 10
300.2305818396356
 20
-688.6218044443029
 30
0.0
 40
3.0
  0
ARC
  5
136C
330
2
100
AcDbEntity
  8
画層1
 62
     3
100
AcDbCircle
 10
301.7305818396356
 20
-687.1218044443029
 30
0.0
 40
1.0
100
AcDbArc
 50
180.0
 51
270.0
  0
LINE
  5
136D
330
2
100
AcDbEntity
  8
画層1
 62
     3
100
AcDbLine
 10
298.7305818396356
 20
-689.1218044443029
 30
0.0
 11
297.2705818396357
 21
-689.1218044443029
 31
0.0
  0
LINE
  5
136E
330
2
100
AcDbEntity
  8
画層1
 62
     3
100
AcDbLine
 10
296.7305818396356
 20
-694.5218044443028
 30
0.0
 11
303.7305818396356
 21
-694.5218044443028
 31
0.0
  0
LINE
  5
136F
330
2
100
AcDbEntity
  8
画層1
 62
     3
100
AcDbLine
 10
303.7305818396356
 20
-692.1218044443029
 30
0.0
 11
296.7305818396356
 21
-692.1218044443029
 31
0.0
  0
LINE
  5
1370
330
2
100
AcDbEntity
  8
画層1
 62
     3
100
AcDbLine
 10
294.8305818396357
 20
-692.6218044443029
 30
0.0
 11
304.2305818396356
 21
-692.6218044443029
 31
0.0
  0
LINE
  5
1371
330
2
100
AcDbEntity
  8
画層1
 62
     3
100
AcDbLine
 10
294.8305818396357
 20
-694.0218044443029
 30
0.0
 11
304.2305818396356
 21
-694.0218044443029
 31
0.0
  0
LINE
  5
1372
330
2
100
AcDbEntity
  8
画層1
 62
     3
100
AcDbLine
 10
297.2705818396357
 20
-697.5218044443027
 30
0.0
 11
298.7305818396356
 21
-697.5218044443027
 31
0.0
  0
LINE
  5
1373
330
2
100
AcDbEntity
  8
画層1
 62
     3
100
AcDbLine
 10
298.7305818396356
 20
-698.5218044443026
 30
0.0
 11
297.2705818396357
 21
-698.5218044443026
 31
0.0
  0
LINE
  5
1374
330
2
100
AcDbEntity
  8
画層1
 62
     3
100
AcDbLine
 10
303.1805818396355
 20
-689.1218044443029
 30
0.0
 11
301.7305818396356
 21
-689.1218044443029
 31
0.0
  0
ARC
  5
1375
330
2
100
AcDbEntity
  8
画層1
 62
     3
100
AcDbCircle
 10
298.7305818396356
 20
-690.1218044443029
 30
0.0
 40
1.0
100
AcDbArc
 50
0.0
 51
90.0
  0
LINE
  5
1376
330
2
100
AcDbEntity
  8
画層1
 62
     3
100
AcDbLine
 10
299.7305818396357
 20
-690.4218044443028
 30
0.0
 11
300.7305818396357
 21
-690.4218044443028
 31
0.0
  0
LINE
  5
1377
330
2
100
AcDbEntity
  8
画層1
 62
     3
100
AcDbLine
 10
300.7305818396357
 20
-690.1218044443029
 30
0.0
 11
300.7305818396357
 21
-690.4218044443028
 31
0.0
  0
LINE
  5
1378
330
2
100
AcDbEntity
  8
画層1
 62
     3
100
AcDbLine
 10
299.7305818396357
 20
-690.4218044443028
 30
0.0
 11
299.7305818396357
 21
-690.1218044443029
 31
0.0
  0
ARC
  5
1379
330
2
100
AcDbEntity
  8
画層1
 62
     3
100
AcDbCircle
 10
301.7305818396356
 20
-690.1218044443029
 30
0.0
 40
1.0
100
AcDbArc
 50
90.0
 51
180.0
  0
LINE
  5
137A
330
2
100
AcDbEntity
  8
画層1
 62
     3
100
AcDbLine
 10
301.7305818396356
 20
-697.5218044443027
 30
0.0
 11
303.1805818396355
 21
-697.5218044443027
 31
0.0
  0
LINE
  5
137B
330
2
100
AcDbEntity
  8
画層1
 62
     3
100
AcDbLine
 10
303.1805818396355
 20
-698.5218044443026
 30
0.0
 11
301.7305818396356
 21
-698.5218044443026
 31
0.0
  0
ARC
  5
137C
330
2
100
AcDbEntity
  8
画層1
 62
     3
100
AcDbCircle
 10
298.7305818396356
 20
-696.5218044443028
 30
0.0
 40
1.0
100
AcDbArc
 50
270.0
 51
0.0
  0
ARC
  5
137D
330
2
100
AcDbEntity
  8
画層1
 62
     3
100
AcDbCircle
 10
298.7305818396356
 20
-699.5218044443029
 30
0.0
 40
1.0
100
AcDbArc
 50
0.0
 51
90.0
  0
LINE
  5
137E
330
2
100
AcDbEntity
  8
画層1
 62
     3
100
AcDbLine
 10
299.7305818396357
 20
-696.5218044443028
 30
0.0
 11
299.7305818396357
 21
-696.2218044443027
 31
0.0
  0
LINE
  5
137F
330
2
100
AcDbEntity
  8
画層1
 62
     3
100
AcDbLine
 10
300.7305818396357
 20
-696.2218044443027
 30
0.0
 11
300.7305818396357
 21
-696.5218044443028
 31
0.0
  0
LINE
  5
1380
330
2
100
AcDbEntity
  8
画層1
 62
     3
100
AcDbLine
 10
299.7305818396357
 20
-699.8218044443028
 30
0.0
 11
300.7305818396357
 21
-699.8218044443028
 31
0.0
  0
LINE
  5
1381
330
2
100
AcDbEntity
  8
画層1
 62
     3
100
AcDbLine
 10
300.7305818396357
 20
-699.5218044443029
 30
0.0
 11
300.7305818396357
 21
-699.8218044443028
 31
0.0
  0
LINE
  5
1382
330
2
100
AcDbEntity
  8
画層1
 62
     3
100
AcDbLine
 10
299.7305818396357
 20
-699.8218044443028
 30
0.0
 11
299.7305818396357
 21
-699.5218044443029
 31
0.0
  0
LINE
  5
1383
330
2
100
AcDbEntity
  8
画層1
 62
     3
100
AcDbLine
 10
299.7305818396357
 20
-696.2218044443027
 30
0.0
 11
300.7305818396357
 21
-696.2218044443027
 31
0.0
  0
ARC
  5
1384
330
2
100
AcDbEntity
  8
画層1
 62
     3
100
AcDbCircle
 10
301.7305818396356
 20
-696.5218044443028
 30
0.0
 40
1.0
100
AcDbArc
 50
180.0
 51
270.0
  0
ARC
  5
1385
330
2
100
AcDbEntity
  8
画層1
 62
     3
100
AcDbCircle
 10
301.7305818396356
 20
-699.5218044443029
 30
0.0
 40
1.0
100
AcDbArc
 50
90.0
 51
180.0
  0
LINE
  5
1386
330
2
100
AcDbEntity
  8
画層1
 62
     3
100
AcDbLine
 10
298.7305818396356
 20
-679.7218044443027
 30
0.0
 11
297.2705818396357
 21
-679.7218044443027
 31
0.0
  0
LINE
  5
1387
330
2
100
AcDbEntity
  8
画層1
 62
     3
100
AcDbLine
 10
297.2705818396357
 20
-678.7218044443027
 30
0.0
 11
298.7305818396356
 21
-678.7218044443027
 31
0.0
  0
LINE
  5
1388
330
2
100
AcDbEntity
  8
画層1
 62
     3
100
AcDbLine
 10
296.7305818396356
 20
-675.7218044443027
 30
0.0
 11
303.7305818396356
 21
-675.7218044443027
 31
0.0
  0
LINE
  5
1389
330
2
100
AcDbEntity
  8
画層1
 62
     3
100
AcDbLine
 10
297.2705818396357
 20
-688.1218044443029
 30
0.0
 11
298.7305818396356
 21
-688.1218044443029
 31
0.0
  0
LINE
  5
138A
330
2
100
AcDbEntity
  8
画層1
 62
     3
100
AcDbLine
 10
296.7305818396356
 20
-685.1218044443028
 30
0.0
 11
303.7305818396356
 21
-685.1218044443028
 31
0.0
  0
LINE
  5
138B
330
2
100
AcDbEntity
  8
画層1
 62
     3
100
AcDbLine
 10
303.7305818396356
 20
-682.7218044443029
 30
0.0
 11
296.7305818396356
 21
-682.7218044443029
 31
0.0
  0
CIRCLE
  5
138C
330
2
100
AcDbEntity
  8
画層1
 62
     3
100
AcDbCircle
 10
300.2305818396356
 20
-679.2218044443027
 30
0.0
 40
3.0
  0
LINE
  5
138D
330
2
100
AcDbEntity
  8
画層1
 62
     3
100
AcDbLine
 10
294.8305818396357
 20
-684.6218044443029
 30
0.0
 11
304.2305818396356
 21
-684.6218044443029
 31
0.0
  0
LINE
  5
138E
330
2
100
AcDbEntity
  8
画層1
 62
     3
100
AcDbLine
 10
294.8305818396357
 20
-683.2218044443027
 30
0.0
 11
304.2305818396356
 21
-683.2218044443027
 31
0.0
  0
LINE
  5
138F
330
2
100
AcDbEntity
  8
画層1
 62
     3
100
AcDbLine
 10
296.7305818396356
 20
-682.7218044443029
 30
0.0
 11
296.7305818396356
 21
-675.7218044443027
 31
0.0
  0
LINE
  5
1390
330
2
100
AcDbEntity
  8
画層1
 62
     3
100
AcDbLine
 10
303.1805818396355
 20
-679.7218044443027
 30
0.0
 11
301.7305818396356
 21
-679.7218044443027
 31
0.0
  0
LINE
  5
1391
330
2
100
AcDbEntity
  8
画層1
 62
     3
100
AcDbLine
 10
301.7305818396356
 20
-678.7218044443027
 30
0.0
 11
303.1805818396355
 21
-678.7218044443027
 31
0.0
  0
ARC
  5
1392
330
2
100
AcDbEntity
  8
画層1
 62
     3
100
AcDbCircle
 10
298.7305818396356
 20
-677.7218044443027
 30
0.0
 40
1.0
100
AcDbArc
 50
270.0
 51
0.0
  0
ARC
  5
1393
330
2
100
AcDbEntity
  8
画層1
 62
     3
100
AcDbCircle
 10
298.7305818396356
 20
-680.7218044443029
 30
0.0
 40
1.0
100
AcDbArc
 50
0.0
 51
90.0
  0
LINE
  5
1394
330
2
100
AcDbEntity
  8
画層1
 62
     3
100
AcDbLine
 10
300.7305818396357
 20
-680.7218044443029
 30
0.0
 11
300.7305818396357
 21
-681.0218044443029
 31
0.0
  0
LINE
  5
1395
330
2
100
AcDbEntity
  8
画層1
 62
     3
100
AcDbLine
 10
299.7305818396357
 20
-681.0218044443029
 30
0.0
 11
299.7305818396357
 21
-680.7218044443029
 31
0.0
  0
LINE
  5
1396
330
2
100
AcDbEntity
  8
画層1
 62
     3
100
AcDbLine
 10
299.7305818396357
 20
-681.0218044443029
 30
0.0
 11
300.7305818396357
 21
-681.0218044443029
 31
0.0
  0
LINE
  5
1397
330
2
100
AcDbEntity
  8
画層1
 62
     3
100
AcDbLine
 10
299.7305818396357
 20
-677.4218044443028
 30
0.0
 11
300.7305818396357
 21
-677.4218044443028
 31
0.0
  0
LINE
  5
1398
330
2
100
AcDbEntity
  8
画層1
 62
     3
100
AcDbLine
 10
299.7305818396357
 20
-677.7218044443027
 30
0.0
 11
299.7305818396357
 21
-677.4218044443028
 31
0.0
  0
LINE
  5
1399
330
2
100
AcDbEntity
  8
画層1
 62
     3
100
AcDbLine
 10
300.7305818396357
 20
-677.4218044443028
 30
0.0
 11
300.7305818396357
 21
-677.7218044443027
 31
0.0
  0
ARC
  5
139A
330
2
100
AcDbEntity
  8
画層1
 62
     3
100
AcDbCircle
 10
301.7305818396356
 20
-677.7218044443027
 30
0.0
 40
1.0
100
AcDbArc
 50
180.0
 51
270.0
  0
ARC
  5
139B
330
2
100
AcDbEntity
  8
画層1
 62
     3
100
AcDbCircle
 10
301.7305818396356
 20
-680.7218044443029
 30
0.0
 40
1.0
100
AcDbArc
 50
90.0
 51
180.0
  0
LINE
  5
139C
330
2
100
AcDbEntity
  8
画層1
 62
     3
100
AcDbLine
 10
301.7305818396356
 20
-688.1218044443029
 30
0.0
 11
303.1805818396355
 21
-688.1218044443029
 31
0.0
  0
LINE
  5
139D
330
2
100
AcDbEntity
  8
画層1
 62
     3
100
AcDbLine
 10
299.7305818396357
 20
-686.8218044443028
 30
0.0
 11
300.7305818396357
 21
-686.8218044443028
 31
0.0
  0
LINE
  5
139E
330
2
100
AcDbEntity
  8
画層1
 62
     3
100
AcDbLine
 10
299.7305818396357
 20
-687.1218044443029
 30
0.0
 11
299.7305818396357
 21
-686.8218044443028
 31
0.0
  0
LINE
  5
139F
330
2
100
AcDbEntity
  8
画層1
 62
     3
100
AcDbLine
 10
300.7305818396357
 20
-686.8218044443028
 30
0.0
 11
300.7305818396357
 21
-687.1218044443029
 31
0.0
  0
LINE
  5
13A0
330
2
100
AcDbEntity
  8
画層1
 62
     3
100
AcDbLine
 10
303.7305818396356
 20
-675.7218044443027
 30
0.0
 11
303.7305818396356
 21
-682.7218044443029
 31
0.0
  0
ARC
  5
13A1
330
2
100
AcDbEntity
  8
画層1
 62
     3
100
AcDbCircle
 10
311.1305818396356
 20
-693.7218044443027
 30
0.0
 40
1.0
100
AcDbArc
 50
90.0
 51
180.0
  0
ARC
  5
13A2
330
2
100
AcDbEntity
  8
画層1
 62
     3
100
AcDbCircle
 10
311.1305818396356
 20
-690.7218044443027
 30
0.0
 40
1.0
100
AcDbArc
 50
180.0
 51
270.0
  0
CIRCLE
  5
13A3
330
2
100
AcDbEntity
  8
画層1
 62
     3
100
AcDbCircle
 10
309.6305818396356
 20
-692.2218044443027
 30
0.0
 40
3.0
  0
LINE
  5
13A4
330
2
100
AcDbEntity
  8
画層1
 62
     3
100
AcDbLine
 10
306.1305818396356
 20
-688.7218044443027
 30
0.0
 11
313.1305818396356
 21
-688.7218044443027
 31
0.0
  0
LINE
  5
13A5
330
2
100
AcDbEntity
  8
画層1
 62
     3
100
AcDbLine
 10
306.1305818396356
 20
-698.1218044443029
 30
0.0
 11
313.1305818396356
 21
-698.1218044443029
 31
0.0
  0
LINE
  5
13A6
330
2
100
AcDbEntity
  8
画層1
 62
     3
100
AcDbLine
 10
313.1305818396356
 20
-695.7218044443027
 30
0.0
 11
306.1305818396356
 21
-695.7218044443027
 31
0.0
  0
ARC
  5
13A7
330
2
100
AcDbEntity
  8
画層1
 62
     3
100
AcDbCircle
 10
308.1305818396356
 20
-693.7218044443027
 30
0.0
 40
1.0
100
AcDbArc
 50
0.0
 51
90.0
  0
LINE
  5
13A8
330
2
100
AcDbEntity
  8
画層1
 62
     3
100
AcDbLine
 10
308.1305818396356
 20
-692.7218044443027
 30
0.0
 11
306.6705818396356
 21
-692.7218044443027
 31
0.0
  0
LINE
  5
13A9
330
2
100
AcDbEntity
  8
画層1
 62
     3
100
AcDbLine
 10
310.1305818396356
 20
-693.7218044443027
 30
0.0
 11
310.1305818396356
 21
-694.0218044443029
 31
0.0
  0
LINE
  5
13AA
330
2
100
AcDbEntity
  8
画層1
 62
     3
100
AcDbLine
 10
309.1305818396356
 20
-694.0218044443029
 30
0.0
 11
309.1305818396356
 21
-693.7218044443027
 31
0.0
  0
LINE
  5
13AB
330
2
100
AcDbEntity
  8
画層1
 62
     3
100
AcDbLine
 10
309.1305818396356
 20
-694.0218044443029
 30
0.0
 11
310.1305818396356
 21
-694.0218044443029
 31
0.0
  0
ARC
  5
13AC
330
2
100
AcDbEntity
  8
画層1
 62
     3
100
AcDbCircle
 10
308.1305818396356
 20
-690.7218044443027
 30
0.0
 40
1.0
100
AcDbArc
 50
270.0
 51
0.0
  0
LINE
  5
13AD
330
2
100
AcDbEntity
  8
画層1
 62
     3
100
AcDbLine
 10
306.6705818396356
 20
-691.7218044443027
 30
0.0
 11
308.1305818396356
 21
-691.7218044443027
 31
0.0
  0
LINE
  5
13AE
330
2
100
AcDbEntity
  8
画層1
 62
     3
100
AcDbLine
 10
310.1305818396356
 20
-690.4218044443028
 30
0.0
 11
310.1305818396356
 21
-690.7218044443027
 31
0.0
  0
LINE
  5
13AF
330
2
100
AcDbEntity
  8
画層1
 62
     3
100
AcDbLine
 10
309.1305818396356
 20
-690.7218044443027
 30
0.0
 11
309.1305818396356
 21
-690.4218044443028
 31
0.0
  0
LINE
  5
13B0
330
2
100
AcDbEntity
  8
画層1
 62
     3
100
AcDbLine
 10
309.1305818396356
 20
-690.4218044443028
 30
0.0
 11
310.1305818396356
 21
-690.4218044443028
 31
0.0
  0
LINE
  5
13B1
330
2
100
AcDbEntity
  8
画層1
 62
     3
100
AcDbLine
 10
310.1305818396356
 20
-699.8218044443028
 30
0.0
 11
310.1305818396356
 21
-700.1218044443029
 31
0.0
  0
LINE
  5
13B2
330
2
100
AcDbEntity
  8
画層1
 62
     3
100
AcDbLine
 10
309.1305818396356
 20
-700.1218044443029
 30
0.0
 11
309.1305818396356
 21
-699.8218044443028
 31
0.0
  0
LINE
  5
13B3
330
2
100
AcDbEntity
  8
画層1
 62
     3
100
AcDbLine
 10
309.1305818396356
 20
-699.8218044443028
 30
0.0
 11
310.1305818396356
 21
-699.8218044443028
 31
0.0
  0
LINE
  5
13B4
330
2
100
AcDbEntity
  8
画層1
 62
     3
100
AcDbLine
 10
306.1305818396356
 20
-695.7218044443027
 30
0.0
 11
306.1305818396356
 21
-688.7218044443027
 31
0.0
  0
LINE
  5
13B5
330
2
100
AcDbEntity
  8
画層1
 62
     3
100
AcDbLine
 10
312.5805818396355
 20
-692.7218044443027
 30
0.0
 11
311.1305818396356
 21
-692.7218044443027
 31
0.0
  0
LINE
  5
13B6
330
2
100
AcDbEntity
  8
画層1
 62
     3
100
AcDbLine
 10
311.1305818396356
 20
-691.7218044443027
 30
0.0
 11
312.5805818396355
 21
-691.7218044443027
 31
0.0
  0
LINE
  5
13B7
330
2
100
AcDbEntity
  8
画層1
 62
     3
100
AcDbLine
 10
313.1305818396356
 20
-688.7218044443027
 30
0.0
 11
313.1305818396356
 21
-695.7218044443027
 31
0.0
  0
ARC
  5
13B8
330
2
100
AcDbEntity
  8
画層1
 62
     3
100
AcDbCircle
 10
311.1305818396356
 20
-684.3218044443029
 30
0.0
 40
1.0
100
AcDbArc
 50
90.0
 51
180.0
  0
ARC
  5
13B9
330
2
100
AcDbEntity
  8
画層1
 62
     3
100
AcDbCircle
 10
311.1305818396356
 20
-681.3218044443028
 30
0.0
 40
1.0
100
AcDbArc
 50
180.0
 51
270.0
  0
CIRCLE
  5
13BA
330
2
100
AcDbEntity
  8
画層1
 62
     3
100
AcDbCircle
 10
309.6305818396356
 20
-682.8218044443028
 30
0.0
 40
3.0
  0
LINE
  5
13BB
330
2
100
AcDbEntity
  8
画層1
 62
     3
100
AcDbLine
 10
313.1305818396356
 20
-686.3218044443028
 30
0.0
 11
306.1305818396356
 21
-686.3218044443028
 31
0.0
  0
LINE
  5
13BC
330
2
100
AcDbEntity
  8
画層1
 62
     3
100
AcDbLine
 10
313.1305818396356
 20
-676.9218044443028
 30
0.0
 11
306.1305818396356
 21
-676.9218044443028
 31
0.0
  0
LINE
  5
13BD
330
2
100
AcDbEntity
  8
画層1
 62
     3
100
AcDbLine
 10
306.1305818396356
 20
-679.3218044443029
 30
0.0
 11
313.1305818396356
 21
-679.3218044443029
 31
0.0
  0
LINE
  5
13BE
330
2
100
AcDbEntity
  8
画層1
 62
     3
100
AcDbLine
 10
309.1305818396356
 20
-681.0218044443029
 30
0.0
 11
310.1305818396356
 21
-681.0218044443029
 31
0.0
  0
ARC
  5
13BF
330
2
100
AcDbEntity
  8
画層1
 62
     3
100
AcDbCircle
 10
308.1305818396356
 20
-684.3218044443029
 30
0.0
 40
1.0
100
AcDbArc
 50
0.0
 51
90.0
  0
LINE
  5
13C0
330
2
100
AcDbEntity
  8
画層1
 62
     3
100
AcDbLine
 10
310.1305818396356
 20
-684.3218044443029
 30
0.0
 11
310.1305818396356
 21
-684.6218044443029
 31
0.0
  0
LINE
  5
13C1
330
2
100
AcDbEntity
  8
画層1
 62
     3
100
AcDbLine
 10
309.1305818396356
 20
-684.6218044443029
 30
0.0
 11
309.1305818396356
 21
-684.3218044443029
 31
0.0
  0
LINE
  5
13C2
330
2
100
AcDbEntity
  8
画層1
 62
     3
100
AcDbLine
 10
309.1305818396356
 20
-684.6218044443029
 30
0.0
 11
310.1305818396356
 21
-684.6218044443029
 31
0.0
  0
ARC
  5
13C3
330
2
100
AcDbEntity
  8
画層1
 62
     3
100
AcDbCircle
 10
308.1305818396356
 20
-681.3218044443028
 30
0.0
 40
1.0
100
AcDbArc
 50
270.0
 51
0.0
  0
LINE
  5
13C4
330
2
100
AcDbEntity
  8
画層1
 62
     3
100
AcDbLine
 10
308.1305818396356
 20
-683.3218044443029
 30
0.0
 11
306.6705818396356
 21
-683.3218044443029
 31
0.0
  0
LINE
  5
13C5
330
2
100
AcDbEntity
  8
画層1
 62
     3
100
AcDbLine
 10
306.6705818396356
 20
-682.3218044443028
 30
0.0
 11
308.1305818396356
 21
-682.3218044443028
 31
0.0
  0
LINE
  5
13C6
330
2
100
AcDbEntity
  8
画層1
 62
     3
100
AcDbLine
 10
310.1305818396356
 20
-681.0218044443029
 30
0.0
 11
310.1305818396356
 21
-681.3218044443028
 31
0.0
  0
LINE
  5
13C7
330
2
100
AcDbEntity
  8
画層1
 62
     3
100
AcDbLine
 10
309.1305818396356
 20
-681.3218044443028
 30
0.0
 11
309.1305818396356
 21
-681.0218044443029
 31
0.0
  0
LINE
  5
13C8
330
2
100
AcDbEntity
  8
画層1
 62
     3
100
AcDbLine
 10
306.1305818396356
 20
-686.3218044443028
 30
0.0
 11
306.1305818396356
 21
-679.3218044443029
 31
0.0
  0
LINE
  5
13C9
330
2
100
AcDbEntity
  8
画層1
 62
     3
100
AcDbLine
 10
312.5805818396355
 20
-683.3218044443029
 30
0.0
 11
311.1305818396356
 21
-683.3218044443029
 31
0.0
  0
LINE
  5
13CA
330
2
100
AcDbEntity
  8
画層1
 62
     3
100
AcDbLine
 10
311.1305818396356
 20
-682.3218044443028
 30
0.0
 11
312.5805818396355
 21
-682.3218044443028
 31
0.0
  0
LINE
  5
13CB
330
2
100
AcDbEntity
  8
画層1
 62
     3
100
AcDbLine
 10
313.1305818396356
 20
-679.3218044443029
 30
0.0
 11
313.1305818396356
 21
-686.3218044443028
 31
0.0
  0
ARC
  5
13CC
330
2
100
AcDbEntity
  8
画層1
 62
     3
100
AcDbCircle
 10
298.7305818396356
 20
-649.5218044443028
 30
0.0
 40
1.0
100
AcDbArc
 50
270.0
 51
0.0
  0
ARC
  5
13CD
330
2
100
AcDbEntity
  8
画層1
 62
     3
100
AcDbCircle
 10
301.7305818396356
 20
-649.5218044443028
 30
0.0
 40
1.0
100
AcDbArc
 50
180.0
 51
270.0
  0
LINE
  5
13CE
330
2
100
AcDbEntity
  8
画層1
 62
     3
100
AcDbLine
 10
303.7305818396356
 20
-647.5218044443029
 30
0.0
 11
303.7305818396356
 21
-654.5218044443029
 31
0.0
  0
LINE
  5
13CF
330
2
100
AcDbEntity
  8
画層1
 62
     3
100
AcDbLine
 10
296.7305818396356
 20
-654.5218044443029
 30
0.0
 11
296.7305818396356
 21
-647.5218044443029
 31
0.0
  0
CIRCLE
  5
13D0
330
2
100
AcDbEntity
  8
画層1
 62
     3
100
AcDbCircle
 10
300.2305818396356
 20
-651.0218044443027
 30
0.0
 40
3.0
  0
LINE
  5
13D1
330
2
100
AcDbEntity
  8
画層1
 62
     3
100
AcDbLine
 10
304.2305818396356
 20
-650.6218044443029
 30
0.0
 11
313.6305818396356
 21
-650.6218044443029
 31
0.0
  0
LINE
  5
13D2
330
2
100
AcDbEntity
  8
画層1
 62
     3
100
AcDbLine
 10
304.2305818396356
 20
-660.0218044443029
 30
0.0
 11
313.6305818396356
 21
-660.0218044443029
 31
0.0
  0
LINE
  5
13D3
330
2
100
AcDbEntity
  8
画層1
 62
     3
100
AcDbLine
 10
304.2305818396356
 20
-658.6218044443029
 30
0.0
 11
313.6305818396356
 21
-658.6218044443029
 31
0.0
  0
LINE
  5
13D4
330
2
100
AcDbEntity
  8
画層1
 62
     3
100
AcDbLine
 10
304.2305818396356
 20
-668.0218044443027
 30
0.0
 11
313.6305818396356
 21
-668.0218044443027
 31
0.0
  0
LINE
  5
13D5
330
2
100
AcDbEntity
  8
画層1
 62
     3
100
AcDbLine
 10
304.2305818396356
 20
-669.4218044443028
 30
0.0
 11
313.6305818396356
 21
-669.4218044443028
 31
0.0
  0
LINE
  5
13D6
330
2
100
AcDbEntity
  8
画層1
 62
     3
100
AcDbLine
 10
303.7305818396356
 20
-656.9218044443028
 30
0.0
 11
303.7305818396356
 21
-663.9218044443027
 31
0.0
  0
LINE
  5
13D7
330
2
100
AcDbEntity
  8
画層1
 62
     3
100
AcDbLine
 10
296.7305818396356
 20
-663.9218044443027
 30
0.0
 11
296.7305818396356
 21
-656.9218044443028
 31
0.0
  0
CIRCLE
  5
13D8
330
2
100
AcDbEntity
  8
画層1
 62
     3
100
AcDbCircle
 10
300.2305818396356
 20
-660.4218044443028
 30
0.0
 40
3.0
  0
LINE
  5
13D9
330
2
100
AcDbEntity
  8
画層1
 62
     3
100
AcDbLine
 10
296.7305818396356
 20
-666.3218044443028
 30
0.0
 11
303.7305818396356
 21
-666.3218044443028
 31
0.0
  0
LINE
  5
13DA
330
2
100
AcDbEntity
  8
画層1
 62
     3
100
AcDbLine
 10
303.7305818396356
 20
-663.9218044443027
 30
0.0
 11
296.7305818396356
 21
-663.9218044443027
 31
0.0
  0
LINE
  5
13DB
330
2
100
AcDbEntity
  8
画層1
 62
     3
100
AcDbLine
 10
297.2705818396357
 20
-669.3218044443028
 30
0.0
 11
298.7305818396356
 21
-669.3218044443028
 31
0.0
  0
LINE
  5
13DC
330
2
100
AcDbEntity
  8
画層1
 62
     3
100
AcDbLine
 10
298.7305818396356
 20
-670.3218044443028
 30
0.0
 11
297.2705818396357
 21
-670.3218044443028
 31
0.0
  0
LINE
  5
13DD
330
2
100
AcDbEntity
  8
画層1
 62
     3
100
AcDbLine
 10
303.7305818396356
 20
-673.3218044443028
 30
0.0
 11
296.7305818396356
 21
-673.3218044443028
 31
0.0
  0
CIRCLE
  5
13DE
330
2
100
AcDbEntity
  8
画層1
 62
     3
100
AcDbCircle
 10
300.2305818396356
 20
-669.8218044443028
 30
0.0
 40
3.0
  0
LINE
  5
13DF
330
2
100
AcDbEntity
  8
画層1
 62
     3
100
AcDbLine
 10
294.8305818396357
 20
-675.2218044443027
 30
0.0
 11
304.2305818396356
 21
-675.2218044443027
 31
0.0
  0
LINE
  5
13E0
330
2
100
AcDbEntity
  8
画層1
 62
     3
100
AcDbLine
 10
294.8305818396357
 20
-673.8218044443028
 30
0.0
 11
304.2305818396356
 21
-673.8218044443028
 31
0.0
  0
LINE
  5
13E1
330
2
100
AcDbEntity
  8
画層1
 62
     3
100
AcDbLine
 10
294.8305818396357
 20
-665.8218044443028
 30
0.0
 11
304.2305818396356
 21
-665.8218044443028
 31
0.0
  0
LINE
  5
13E2
330
2
100
AcDbEntity
  8
画層1
 62
     3
100
AcDbLine
 10
294.8305818396357
 20
-664.4218044443028
 30
0.0
 11
304.2305818396356
 21
-664.4218044443028
 31
0.0
  0
LINE
  5
13E3
330
2
100
AcDbEntity
  8
画層1
 62
     3
100
AcDbLine
 10
296.7305818396356
 20
-673.3218044443028
 30
0.0
 11
296.7305818396356
 21
-666.3218044443028
 31
0.0
  0
LINE
  5
13E4
330
2
100
AcDbEntity
  8
画層1
 62
     3
100
AcDbLine
 10
301.7305818396356
 20
-669.3218044443028
 30
0.0
 11
303.1805818396355
 21
-669.3218044443028
 31
0.0
  0
LINE
  5
13E5
330
2
100
AcDbEntity
  8
画層1
 62
     3
100
AcDbLine
 10
303.1805818396355
 20
-670.3218044443028
 30
0.0
 11
301.7305818396356
 21
-670.3218044443028
 31
0.0
  0
ARC
  5
13E6
330
2
100
AcDbEntity
  8
画層1
 62
     3
100
AcDbCircle
 10
298.7305818396356
 20
-668.3218044443028
 30
0.0
 40
1.0
100
AcDbArc
 50
270.0
 51
0.0
  0
ARC
  5
13E7
330
2
100
AcDbEntity
  8
画層1
 62
     3
100
AcDbCircle
 10
298.7305818396356
 20
-671.3218044443029
 30
0.0
 40
1.0
100
AcDbArc
 50
0.0
 51
90.0
  0
LINE
  5
13E8
330
2
100
AcDbEntity
  8
画層1
 62
     3
100
AcDbLine
 10
299.7305818396357
 20
-668.0218044443027
 30
0.0
 11
300.7305818396357
 21
-668.0218044443027
 31
0.0
  0
LINE
  5
13E9
330
2
100
AcDbEntity
  8
画層1
 62
     3
100
AcDbLine
 10
299.7305818396357
 20
-668.3218044443028
 30
0.0
 11
299.7305818396357
 21
-668.0218044443027
 31
0.0
  0
LINE
  5
13EA
330
2
100
AcDbEntity
  8
画層1
 62
     3
100
AcDbLine
 10
300.7305818396357
 20
-668.0218044443027
 30
0.0
 11
300.7305818396357
 21
-668.3218044443028
 31
0.0
  0
LINE
  5
13EB
330
2
100
AcDbEntity
  8
画層1
 62
     3
100
AcDbLine
 10
299.7305818396357
 20
-671.6218044443029
 30
0.0
 11
300.7305818396357
 21
-671.6218044443029
 31
0.0
  0
LINE
  5
13EC
330
2
100
AcDbEntity
  8
画層1
 62
     3
100
AcDbLine
 10
300.7305818396357
 20
-671.3218044443029
 30
0.0
 11
300.7305818396357
 21
-671.6218044443029
 31
0.0
  0
LINE
  5
13ED
330
2
100
AcDbEntity
  8
画層1
 62
     3
100
AcDbLine
 10
299.7305818396357
 20
-671.6218044443029
 30
0.0
 11
299.7305818396357
 21
-671.3218044443029
 31
0.0
  0
ARC
  5
13EE
330
2
100
AcDbEntity
  8
画層1
 62
     3
100
AcDbCircle
 10
301.7305818396356
 20
-668.3218044443028
 30
0.0
 40
1.0
100
AcDbArc
 50
180.0
 51
270.0
  0
ARC
  5
13EF
330
2
100
AcDbEntity
  8
画層1
 62
     3
100
AcDbCircle
 10
301.7305818396356
 20
-671.3218044443029
 30
0.0
 40
1.0
100
AcDbArc
 50
90.0
 51
180.0
  0
LINE
  5
13F0
330
2
100
AcDbEntity
  8
画層1
 62
     3
100
AcDbLine
 10
303.7305818396356
 20
-666.3218044443028
 30
0.0
 11
303.7305818396356
 21
-673.3218044443028
 31
0.0
  0
LINE
  5
13F1
330
2
100
AcDbEntity
  8
画層1
 62
     3
100
AcDbLine
 10
298.7305818396356
 20
-651.5218044443027
 30
0.0
 11
297.2705818396357
 21
-651.5218044443027
 31
0.0
  0
LINE
  5
13F2
330
2
100
AcDbEntity
  8
画層1
 62
     3
100
AcDbLine
 10
297.2705818396357
 20
-650.5218044443028
 30
0.0
 11
298.7305818396356
 21
-650.5218044443028
 31
0.0
  0
LINE
  5
13F3
330
2
100
AcDbEntity
  8
画層1
 62
     3
100
AcDbLine
 10
297.2705818396357
 20
-659.9218044443027
 30
0.0
 11
298.7305818396356
 21
-659.9218044443027
 31
0.0
  0
LINE
  5
13F4
330
2
100
AcDbEntity
  8
画層1
 62
     3
100
AcDbLine
 10
298.7305818396356
 20
-660.9218044443028
 30
0.0
 11
297.2705818396357
 21
-660.9218044443028
 31
0.0
  0
LINE
  5
13F5
330
2
100
AcDbEntity
  8
画層1
 62
     3
100
AcDbLine
 10
296.7305818396356
 20
-656.9218044443028
 30
0.0
 11
303.7305818396356
 21
-656.9218044443028
 31
0.0
  0
LINE
  5
13F6
330
2
100
AcDbEntity
  8
画層1
 62
     3
100
AcDbLine
 10
303.7305818396356
 20
-654.5218044443029
 30
0.0
 11
296.7305818396356
 21
-654.5218044443029
 31
0.0
  0
LINE
  5
13F7
330
2
100
AcDbEntity
  8
画層1
 62
     3
100
AcDbLine
 10
294.8305818396357
 20
-656.4218044443028
 30
0.0
 11
304.2305818396356
 21
-656.4218044443028
 31
0.0
  0
LINE
  5
13F8
330
2
100
AcDbEntity
  8
画層1
 62
     3
100
AcDbLine
 10
294.8305818396357
 20
-655.0218044443028
 30
0.0
 11
304.2305818396356
 21
-655.0218044443028
 31
0.0
  0
LINE
  5
13F9
330
2
100
AcDbEntity
  8
画層1
 62
     3
100
AcDbLine
 10
303.1805818396355
 20
-651.5218044443027
 30
0.0
 11
301.7305818396356
 21
-651.5218044443027
 31
0.0
  0
LINE
  5
13FA
330
2
100
AcDbEntity
  8
画層1
 62
     3
100
AcDbLine
 10
301.7305818396356
 20
-650.5218044443028
 30
0.0
 11
303.1805818396355
 21
-650.5218044443028
 31
0.0
  0
ARC
  5
13FB
330
2
100
AcDbEntity
  8
画層1
 62
     3
100
AcDbCircle
 10
298.7305818396356
 20
-652.5218044443028
 30
0.0
 40
1.0
100
AcDbArc
 50
0.0
 51
90.0
  0
ARC
  5
13FC
330
2
100
AcDbEntity
  8
画層1
 62
     3
100
AcDbCircle
 10
301.7305818396356
 20
-652.5218044443028
 30
0.0
 40
1.0
100
AcDbArc
 50
90.0
 51
180.0
  0
LINE
  5
13FD
330
2
100
AcDbEntity
  8
画層1
 62
     3
100
AcDbLine
 10
299.7305818396357
 20
-652.8218044443028
 30
0.0
 11
300.7305818396357
 21
-652.8218044443028
 31
0.0
  0
LINE
  5
13FE
330
2
100
AcDbEntity
  8
画層1
 62
     3
100
AcDbLine
 10
299.7305818396357
 20
-652.8218044443028
 30
0.0
 11
299.7305818396357
 21
-652.5218044443028
 31
0.0
  0
LINE
  5
13FF
330
2
100
AcDbEntity
  8
画層1
 62
     3
100
AcDbLine
 10
300.7305818396357
 20
-652.5218044443028
 30
0.0
 11
300.7305818396357
 21
-652.8218044443028
 31
0.0
  0
LINE
  5
1400
330
2
100
AcDbEntity
  8
画層1
 62
     3
100
AcDbLine
 10
301.7305818396356
 20
-659.9218044443027
 30
0.0
 11
303.1805818396355
 21
-659.9218044443027
 31
0.0
  0
LINE
  5
1401
330
2
100
AcDbEntity
  8
画層1
 62
     3
100
AcDbLine
 10
303.1805818396355
 20
-660.9218044443028
 30
0.0
 11
301.7305818396356
 21
-660.9218044443028
 31
0.0
  0
LINE
  5
1402
330
2
100
AcDbEntity
  8
画層1
 62
     3
100
AcDbLine
 10
299.7305818396357
 20
-658.9218044443027
 30
0.0
 11
299.7305818396357
 21
-658.6218044443029
 31
0.0
  0
LINE
  5
1403
330
2
100
AcDbEntity
  8
画層1
 62
     3
100
AcDbLine
 10
300.7305818396357
 20
-658.6218044443029
 30
0.0
 11
300.7305818396357
 21
-658.9218044443027
 31
0.0
  0
ARC
  5
1404
330
2
100
AcDbEntity
  8
画層1
 62
     3
100
AcDbCircle
 10
298.7305818396356
 20
-661.9218044443027
 30
0.0
 40
1.0
100
AcDbArc
 50
0.0
 51
90.0
  0
ARC
  5
1405
330
2
100
AcDbEntity
  8
画層1
 62
     3
100
AcDbCircle
 10
298.7305818396356
 20
-658.9218044443027
 30
0.0
 40
1.0
100
AcDbArc
 50
270.0
 51
0.0
  0
LINE
  5
1406
330
2
100
AcDbEntity
  8
画層1
 62
     3
100
AcDbLine
 10
299.7305818396357
 20
-662.2218044443027
 30
0.0
 11
300.7305818396357
 21
-662.2218044443027
 31
0.0
  0
LINE
  5
1407
330
2
100
AcDbEntity
  8
画層1
 62
     3
100
AcDbLine
 10
300.7305818396357
 20
-661.9218044443027
 30
0.0
 11
300.7305818396357
 21
-662.2218044443027
 31
0.0
  0
LINE
  5
1408
330
2
100
AcDbEntity
  8
画層1
 62
     3
100
AcDbLine
 10
299.7305818396357
 20
-662.2218044443027
 30
0.0
 11
299.7305818396357
 21
-661.9218044443027
 31
0.0
  0
LINE
  5
1409
330
2
100
AcDbEntity
  8
画層1
 62
     3
100
AcDbLine
 10
299.7305818396357
 20
-658.6218044443029
 30
0.0
 11
300.7305818396357
 21
-658.6218044443029
 31
0.0
  0
ARC
  5
140A
330
2
100
AcDbEntity
  8
画層1
 62
     3
100
AcDbCircle
 10
301.7305818396356
 20
-661.9218044443027
 30
0.0
 40
1.0
100
AcDbArc
 50
90.0
 51
180.0
  0
ARC
  5
140B
330
2
100
AcDbEntity
  8
画層1
 62
     3
100
AcDbCircle
 10
301.7305818396356
 20
-658.9218044443027
 30
0.0
 40
1.0
100
AcDbArc
 50
180.0
 51
270.0
  0
ARC
  5
140C
330
2
100
AcDbEntity
  8
画層1
 62
     3
100
AcDbCircle
 10
308.1305818396356
 20
-662.5218044443029
 30
0.0
 40
1.0
100
AcDbArc
 50
270.0
 51
0.0
  0
ARC
  5
140D
330
2
100
AcDbEntity
  8
画層1
 62
     3
100
AcDbCircle
 10
311.1305818396356
 20
-662.5218044443029
 30
0.0
 40
1.0
100
AcDbArc
 50
180.0
 51
270.0
  0
LINE
  5
140E
330
2
100
AcDbEntity
  8
画層1
 62
     3
100
AcDbLine
 10
313.1305818396356
 20
-660.5218044443029
 30
0.0
 11
313.1305818396356
 21
-667.5218044443028
 31
0.0
  0
LINE
  5
140F
330
2
100
AcDbEntity
  8
画層1
 62
     3
100
AcDbLine
 10
306.1305818396356
 20
-667.5218044443028
 30
0.0
 11
306.1305818396356
 21
-660.5218044443029
 31
0.0
  0
CIRCLE
  5
1410
330
2
100
AcDbEntity
  8
画層1
 62
     3
100
AcDbCircle
 10
309.6305818396356
 20
-664.0218044443027
 30
0.0
 40
3.0
  0
ARC
  5
1411
330
2
100
AcDbEntity
  8
画層1
 62
     3
100
AcDbCircle
 10
311.1305818396356
 20
-665.5218044443028
 30
0.0
 40
1.0
100
AcDbArc
 50
90.0
 51
180.0
  0
ARC
  5
1412
330
2
100
AcDbEntity
  8
画層1
 62
     3
100
AcDbCircle
 10
311.1305818396356
 20
-671.9218044443027
 30
0.0
 40
1.0
100
AcDbArc
 50
180.0
 51
270.0
  0
ARC
  5
1413
330
2
100
AcDbEntity
  8
画層1
 62
     3
100
AcDbCircle
 10
311.1305818396356
 20
-674.9218044443027
 30
0.0
 40
1.0
100
AcDbArc
 50
90.0
 51
180.0
  0
LINE
  5
1414
330
2
100
AcDbEntity
  8
画層1
 62
     3
100
AcDbLine
 10
313.1305818396356
 20
-667.5218044443028
 30
0.0
 11
306.1305818396356
 21
-667.5218044443028
 31
0.0
  0
LINE
  5
1415
330
2
100
AcDbEntity
  8
画層1
 62
     3
100
AcDbLine
 10
306.1305818396356
 20
-669.9218044443028
 30
0.0
 11
313.1305818396356
 21
-669.9218044443028
 31
0.0
  0
ARC
  5
1416
330
2
100
AcDbEntity
  8
画層1
 62
     3
100
AcDbCircle
 10
308.1305818396356
 20
-665.5218044443028
 30
0.0
 40
1.0
100
AcDbArc
 50
0.0
 51
90.0
  0
LINE
  5
1417
330
2
100
AcDbEntity
  8
画層1
 62
     3
100
AcDbLine
 10
308.1305818396356
 20
-664.5218044443029
 30
0.0
 11
306.6705818396356
 21
-664.5218044443029
 31
0.0
  0
LINE
  5
1418
330
2
100
AcDbEntity
  8
画層1
 62
     3
100
AcDbLine
 10
306.6705818396356
 20
-663.5218044443027
 30
0.0
 11
308.1305818396356
 21
-663.5218044443027
 31
0.0
  0
LINE
  5
1419
330
2
100
AcDbEntity
  8
画層1
 62
     3
100
AcDbLine
 10
310.1305818396356
 20
-665.5218044443028
 30
0.0
 11
310.1305818396356
 21
-665.8218044443028
 31
0.0
  0
LINE
  5
141A
330
2
100
AcDbEntity
  8
画層1
 62
     3
100
AcDbLine
 10
309.1305818396356
 20
-665.8218044443028
 30
0.0
 11
309.1305818396356
 21
-665.5218044443028
 31
0.0
  0
LINE
  5
141B
330
2
100
AcDbEntity
  8
画層1
 62
     3
100
AcDbLine
 10
309.1305818396356
 20
-665.8218044443028
 30
0.0
 11
310.1305818396356
 21
-665.8218044443028
 31
0.0
  0
ARC
  5
141C
330
2
100
AcDbEntity
  8
画層1
 62
     3
100
AcDbCircle
 10
308.1305818396356
 20
-671.9218044443027
 30
0.0
 40
1.0
100
AcDbArc
 50
270.0
 51
0.0
  0
ARC
  5
141D
330
2
100
AcDbEntity
  8
画層1
 62
     3
100
AcDbCircle
 10
308.1305818396356
 20
-674.9218044443027
 30
0.0
 40
1.0
100
AcDbArc
 50
0.0
 51
90.0
  0
LINE
  5
141E
330
2
100
AcDbEntity
  8
画層1
 62
     3
100
AcDbLine
 10
308.1305818396356
 20
-673.9218044443028
 30
0.0
 11
306.6705818396356
 21
-673.9218044443028
 31
0.0
  0
LINE
  5
141F
330
2
100
AcDbEntity
  8
画層1
 62
     3
100
AcDbLine
 10
306.6705818396356
 20
-672.9218044443028
 30
0.0
 11
308.1305818396356
 21
-672.9218044443028
 31
0.0
  0
LINE
  5
1420
330
2
100
AcDbEntity
  8
画層1
 62
     3
100
AcDbLine
 10
310.1305818396356
 20
-674.9218044443027
 30
0.0
 11
310.1305818396356
 21
-675.2218044443027
 31
0.0
  0
LINE
  5
1421
330
2
100
AcDbEntity
  8
画層1
 62
     3
100
AcDbLine
 10
310.1305818396356
 20
-671.6218044443029
 30
0.0
 11
310.1305818396356
 21
-671.9218044443027
 31
0.0
  0
LINE
  5
1422
330
2
100
AcDbEntity
  8
画層1
 62
     3
100
AcDbLine
 10
309.1305818396356
 20
-675.2218044443027
 30
0.0
 11
309.1305818396356
 21
-674.9218044443027
 31
0.0
  0
LINE
  5
1423
330
2
100
AcDbEntity
  8
画層1
 62
     3
100
AcDbLine
 10
309.1305818396356
 20
-671.9218044443027
 30
0.0
 11
309.1305818396356
 21
-671.6218044443029
 31
0.0
  0
LINE
  5
1424
330
2
100
AcDbEntity
  8
画層1
 62
     3
100
AcDbLine
 10
309.1305818396356
 20
-675.2218044443027
 30
0.0
 11
310.1305818396356
 21
-675.2218044443027
 31
0.0
  0
LINE
  5
1425
330
2
100
AcDbEntity
  8
画層1
 62
     3
100
AcDbLine
 10
309.1305818396356
 20
-671.6218044443029
 30
0.0
 11
310.1305818396356
 21
-671.6218044443029
 31
0.0
  0
LINE
  5
1426
330
2
100
AcDbEntity
  8
画層1
 62
     3
100
AcDbLine
 10
312.5805818396355
 20
-664.5218044443029
 30
0.0
 11
311.1305818396356
 21
-664.5218044443029
 31
0.0
  0
LINE
  5
1427
330
2
100
AcDbEntity
  8
画層1
 62
     3
100
AcDbLine
 10
311.1305818396356
 20
-663.5218044443027
 30
0.0
 11
312.5805818396355
 21
-663.5218044443027
 31
0.0
  0
LINE
  5
1428
330
2
100
AcDbEntity
  8
画層1
 62
     3
100
AcDbLine
 10
312.5805818396355
 20
-673.9218044443028
 30
0.0
 11
311.1305818396356
 21
-673.9218044443028
 31
0.0
  0
LINE
  5
1429
330
2
100
AcDbEntity
  8
画層1
 62
     3
100
AcDbLine
 10
311.1305818396356
 20
-672.9218044443028
 30
0.0
 11
312.5805818396355
 21
-672.9218044443028
 31
0.0
  0
LINE
  5
142A
330
2
100
AcDbEntity
  8
画層1
 62
     3
100
AcDbLine
 10
306.1305818396356
 20
-651.1218044443029
 30
0.0
 11
313.1305818396356
 21
-651.1218044443029
 31
0.0
  0
ARC
  5
142B
330
2
100
AcDbEntity
  8
画層1
 62
     3
100
AcDbCircle
 10
311.1305818396356
 20
-656.1218044443029
 30
0.0
 40
1.0
100
AcDbArc
 50
90.0
 51
180.0
  0
ARC
  5
142C
330
2
100
AcDbEntity
  8
画層1
 62
     3
100
AcDbCircle
 10
311.1305818396356
 20
-653.1218044443029
 30
0.0
 40
1.0
100
AcDbArc
 50
180.0
 51
270.0
  0
CIRCLE
  5
142D
330
2
100
AcDbEntity
  8
画層1
 62
     3
100
AcDbCircle
 10
309.6305818396356
 20
-654.6218044443029
 30
0.0
 40
3.0
  0
LINE
  5
142E
330
2
100
AcDbEntity
  8
画層1
 62
     3
100
AcDbLine
 10
306.1305818396356
 20
-660.5218044443029
 30
0.0
 11
313.1305818396356
 21
-660.5218044443029
 31
0.0
  0
LINE
  5
142F
330
2
100
AcDbEntity
  8
画層1
 62
     3
100
AcDbLine
 10
313.1305818396356
 20
-658.1218044443029
 30
0.0
 11
306.1305818396356
 21
-658.1218044443029
 31
0.0
  0
LINE
  5
1430
330
2
100
AcDbEntity
  8
画層1
 62
     3
100
AcDbLine
 10
310.1305818396356
 20
-652.8218044443028
 30
0.0
 11
310.1305818396356
 21
-653.1218044443029
 31
0.0
  0
LINE
  5
1431
330
2
100
AcDbEntity
  8
画層1
 62
     3
100
AcDbLine
 10
309.1305818396356
 20
-653.1218044443029
 30
0.0
 11
309.1305818396356
 21
-652.8218044443028
 31
0.0
  0
LINE
  5
1432
330
2
100
AcDbEntity
  8
画層1
 62
     3
100
AcDbLine
 10
309.1305818396356
 20
-652.8218044443028
 30
0.0
 11
310.1305818396356
 21
-652.8218044443028
 31
0.0
  0
LINE
  5
1433
330
2
100
AcDbEntity
  8
画層1
 62
     3
100
AcDbLine
 10
310.1305818396356
 20
-662.2218044443027
 30
0.0
 11
310.1305818396356
 21
-662.5218044443029
 31
0.0
  0
LINE
  5
1434
330
2
100
AcDbEntity
  8
画層1
 62
     3
100
AcDbLine
 10
309.1305818396356
 20
-662.5218044443029
 30
0.0
 11
309.1305818396356
 21
-662.2218044443027
 31
0.0
  0
LINE
  5
1435
330
2
100
AcDbEntity
  8
画層1
 62
     3
100
AcDbLine
 10
309.1305818396356
 20
-662.2218044443027
 30
0.0
 11
310.1305818396356
 21
-662.2218044443027
 31
0.0
  0
ARC
  5
1436
330
2
100
AcDbEntity
  8
画層1
 62
     3
100
AcDbCircle
 10
308.1305818396356
 20
-656.1218044443029
 30
0.0
 40
1.0
100
AcDbArc
 50
0.0
 51
90.0
  0
ARC
  5
1437
330
2
100
AcDbEntity
  8
画層1
 62
     3
100
AcDbCircle
 10
308.1305818396356
 20
-653.1218044443029
 30
0.0
 40
1.0
100
AcDbArc
 50
270.0
 51
0.0
  0
LINE
  5
1438
330
2
100
AcDbEntity
  8
画層1
 62
     3
100
AcDbLine
 10
308.1305818396356
 20
-655.1218044443029
 30
0.0
 11
306.6705818396356
 21
-655.1218044443029
 31
0.0
  0
LINE
  5
1439
330
2
100
AcDbEntity
  8
画層1
 62
     3
100
AcDbLine
 10
306.6705818396356
 20
-654.1218044443029
 30
0.0
 11
308.1305818396356
 21
-654.1218044443029
 31
0.0
  0
LINE
  5
143A
330
2
100
AcDbEntity
  8
画層1
 62
     3
100
AcDbLine
 10
310.1305818396356
 20
-656.1218044443029
 30
0.0
 11
310.1305818396356
 21
-656.4218044443028
 31
0.0
  0
LINE
  5
143B
330
2
100
AcDbEntity
  8
画層1
 62
     3
100
AcDbLine
 10
309.1305818396356
 20
-656.4218044443028
 30
0.0
 11
309.1305818396356
 21
-656.1218044443029
 31
0.0
  0
LINE
  5
143C
330
2
100
AcDbEntity
  8
画層1
 62
     3
100
AcDbLine
 10
309.1305818396356
 20
-656.4218044443028
 30
0.0
 11
310.1305818396356
 21
-656.4218044443028
 31
0.0
  0
LINE
  5
143D
330
2
100
AcDbEntity
  8
画層1
 62
     3
100
AcDbLine
 10
306.1305818396356
 20
-658.1218044443029
 30
0.0
 11
306.1305818396356
 21
-651.1218044443029
 31
0.0
  0
LINE
  5
143E
330
2
100
AcDbEntity
  8
画層1
 62
     3
100
AcDbLine
 10
312.5805818396355
 20
-655.1218044443029
 30
0.0
 11
311.1305818396356
 21
-655.1218044443029
 31
0.0
  0
LINE
  5
143F
330
2
100
AcDbEntity
  8
画層1
 62
     3
100
AcDbLine
 10
311.1305818396356
 20
-654.1218044443029
 30
0.0
 11
312.5805818396355
 21
-654.1218044443029
 31
0.0
  0
LINE
  5
1440
330
2
100
AcDbEntity
  8
画層1
 62
     3
100
AcDbLine
 10
313.1305818396356
 20
-651.1218044443029
 30
0.0
 11
313.1305818396356
 21
-658.1218044443029
 31
0.0
  0
LINE
  5
1441
330
2
100
AcDbEntity
  8
画層1
 62
     3
100
AcDbLine
 10
304.2305818396356
 20
-649.2218044443027
 30
0.0
 11
313.6305818396356
 21
-649.2218044443027
 31
0.0
  0
LINE
  5
1442
330
2
100
AcDbEntity
  8
画層1
 62
     3
100
AcDbLine
 10
304.2305818396356
 20
-641.2218044443027
 30
0.0
 11
313.6305818396356
 21
-641.2218044443027
 31
0.0
  0
LINE
  5
1443
330
2
100
AcDbEntity
  8
画層1
 62
     3
100
AcDbLine
 10
296.7305818396356
 20
-647.5218044443029
 30
0.0
 11
303.7305818396356
 21
-647.5218044443029
 31
0.0
  0
LINE
  5
1444
330
2
100
AcDbEntity
  8
画層1
 62
     3
100
AcDbLine
 10
294.8305818396357
 20
-647.0218044443027
 30
0.0
 11
304.2305818396356
 21
-647.0218044443027
 31
0.0
  0
LINE
  5
1445
330
2
100
AcDbEntity
  8
画層1
 62
     3
100
AcDbLine
 10
300.7305818396357
 20
-649.2218044443027
 30
0.0
 11
300.7305818396357
 21
-649.5218044443028
 31
0.0
  0
LINE
  5
1446
330
2
100
AcDbEntity
  8
画層1
 62
     3
100
AcDbLine
 10
299.7305818396357
 20
-649.5218044443028
 30
0.0
 11
299.7305818396357
 21
-649.2218044443027
 31
0.0
  0
LINE
  5
1447
330
2
100
AcDbEntity
  8
画層1
 62
     3
100
AcDbLine
 10
299.7305818396357
 20
-649.2218044443027
 30
0.0
 11
300.7305818396357
 21
-649.2218044443027
 31
0.0
  0
ARC
  5
1448
330
2
100
AcDbEntity
  8
画層1
 62
     3
100
AcDbCircle
 10
311.1305818396356
 20
-643.7218044443027
 30
0.0
 40
1.0
100
AcDbArc
 50
180.0
 51
270.0
  0
ARC
  5
1449
330
2
100
AcDbEntity
  8
画層1
 62
     3
100
AcDbCircle
 10
311.1305818396356
 20
-646.7218044443027
 30
0.0
 40
1.0
100
AcDbArc
 50
90.0
 51
180.0
  0
CIRCLE
  5
144A
330
2
100
AcDbEntity
  8
画層1
 62
     3
100
AcDbCircle
 10
309.6305818396356
 20
-645.2218044443029
 30
0.0
 40
3.0
  0
LINE
  5
144B
330
2
100
AcDbEntity
  8
画層1
 62
     3
100
AcDbLine
 10
313.1305818396356
 20
-648.7218044443027
 30
0.0
 11
306.1305818396356
 21
-648.7218044443027
 31
0.0
  0
LINE
  5
144C
330
2
100
AcDbEntity
  8
画層1
 62
     3
100
AcDbLine
 10
306.1305818396356
 20
-641.7218044443027
 30
0.0
 11
313.1305818396356
 21
-641.7218044443027
 31
0.0
  0
ARC
  5
144D
330
2
100
AcDbEntity
  8
画層1
 62
     3
100
AcDbCircle
 10
308.1305818396356
 20
-643.7218044443027
 30
0.0
 40
1.0
100
AcDbArc
 50
270.0
 51
0.0
  0
ARC
  5
144E
330
2
100
AcDbEntity
  8
画層1
 62
     3
100
AcDbCircle
 10
308.1305818396356
 20
-646.7218044443027
 30
0.0
 40
1.0
100
AcDbArc
 50
0.0
 51
90.0
  0
LINE
  5
144F
330
2
100
AcDbEntity
  8
画層1
 62
     3
100
AcDbLine
 10
306.6705818396356
 20
-644.7218044443027
 30
0.0
 11
308.1305818396356
 21
-644.7218044443027
 31
0.0
  0
LINE
  5
1450
330
2
100
AcDbEntity
  8
画層1
 62
     3
100
AcDbLine
 10
308.1305818396356
 20
-645.7218044443027
 30
0.0
 11
306.6705818396356
 21
-645.7218044443027
 31
0.0
  0
LINE
  5
1451
330
2
100
AcDbEntity
  8
画層1
 62
     3
100
AcDbLine
 10
310.1305818396356
 20
-646.7218044443027
 30
0.0
 11
310.1305818396356
 21
-647.0218044443027
 31
0.0
  0
LINE
  5
1452
330
2
100
AcDbEntity
  8
画層1
 62
     3
100
AcDbLine
 10
310.1305818396356
 20
-643.4218044443028
 30
0.0
 11
310.1305818396356
 21
-643.7218044443027
 31
0.0
  0
LINE
  5
1453
330
2
100
AcDbEntity
  8
画層1
 62
     3
100
AcDbLine
 10
309.1305818396356
 20
-647.0218044443027
 30
0.0
 11
309.1305818396356
 21
-646.7218044443027
 31
0.0
  0
LINE
  5
1454
330
2
100
AcDbEntity
  8
画層1
 62
     3
100
AcDbLine
 10
309.1305818396356
 20
-643.7218044443027
 30
0.0
 11
309.1305818396356
 21
-643.4218044443028
 31
0.0
  0
LINE
  5
1455
330
2
100
AcDbEntity
  8
画層1
 62
     3
100
AcDbLine
 10
309.1305818396356
 20
-647.0218044443027
 30
0.0
 11
310.1305818396356
 21
-647.0218044443027
 31
0.0
  0
LINE
  5
1456
330
2
100
AcDbEntity
  8
画層1
 62
     3
100
AcDbLine
 10
309.1305818396356
 20
-643.4218044443028
 30
0.0
 11
310.1305818396356
 21
-643.4218044443028
 31
0.0
  0
LINE
  5
1457
330
2
100
AcDbEntity
  8
画層1
 62
     3
100
AcDbLine
 10
306.1305818396356
 20
-648.7218044443027
 30
0.0
 11
306.1305818396356
 21
-641.7218044443027
 31
0.0
  0
LINE
  5
1458
330
2
100
AcDbEntity
  8
画層1
 62
     3
100
AcDbLine
 10
313.1305818396356
 20
-641.7218044443027
 30
0.0
 11
313.1305818396356
 21
-648.7218044443027
 31
0.0
  0
LINE
  5
1459
330
2
100
AcDbEntity
  8
画層1
 62
     3
100
AcDbLine
 10
311.1305818396356
 20
-644.7218044443027
 30
0.0
 11
312.5805818396355
 21
-644.7218044443027
 31
0.0
  0
LINE
  5
145A
330
2
100
AcDbEntity
  8
画層1
 62
     3
100
AcDbLine
 10
312.5805818396355
 20
-645.7218044443027
 30
0.0
 11
311.1305818396356
 21
-645.7218044443027
 31
0.0
  0
LINE
  5
145B
330
2
100
AcDbEntity
  8
画層1
 62
     3
100
AcDbLine
 10
294.8305818396357
 20
-639.2218044443027
 30
0.0
 11
294.8305818396357
 21
-732.2218044443027
 31
0.0
  0
LINE
  5
145C
330
2
100
AcDbEntity
  8
画層1
 62
     3
100
AcDbLine
 10
304.2305818396356
 20
-639.2218044443027
 30
0.0
 11
304.2305818396356
 21
-732.2218044443027
 31
0.0
  0
LINE
  5
145D
330
2
100
AcDbEntity
  8
画層1
 62
     3
100
AcDbLine
 10
293.6305818396357
 20
-833.7218044443027
 30
0.0
 11
293.6305818396357
 21
-733.2218044443027
 31
0.0
  0
LINE
  5
145E
330
2
100
AcDbEntity
  8
画層1
 62
     3
100
AcDbLine
 10
293.6305818396357
 20
-733.2218044443027
 30
0.0
 11
314.6305818396356
 21
-733.2218044443027
 31
0.0
  0
LINE
  5
145F
330
2
100
AcDbEntity
  8
画層1
 62
     3
100
AcDbLine
 10
297.1305818396356
 20
-609.2218044443027
 30
0.0
 11
364.1305818396356
 21
-609.2218044443027
 31
0.0
  0
ARC
  5
1460
330
2
100
AcDbEntity
  8
画層1
 62
     3
100
AcDbCircle
 10
297.1305818396356
 20
-612.7218044443027
 30
0.0
 40
3.5
100
AcDbArc
 50
90.0
 51
180.0
  0
LINE
  5
1461
330
2
100
AcDbEntity
  8
画層1
 62
     3
100
AcDbLine
 10
367.6305818396355
 20
-612.7218044443027
 30
0.0
 11
367.6305818396355
 21
-833.7218044443027
 31
0.0
  0
ARC
  5
1462
330
2
100
AcDbEntity
  8
画層1
 62
     3
100
AcDbCircle
 10
364.1305818396356
 20
-612.7218044443027
 30
0.0
 40
3.5
100
AcDbArc
 50
0.0
 51
90.0
  0
ARC
  5
1463
330
2
100
AcDbEntity
  8
画層1
 62
     3
100
AcDbCircle
 10
330.1305818396356
 20
-625.7218044443027
 30
0.0
 40
2.5
100
AcDbArc
 50
90.0
 51
180.0
  0
ARC
  5
1464
330
2
100
AcDbEntity
  8
画層1
 62
     3
100
AcDbCircle
 10
362.1305818396356
 20
-625.7218044443027
 30
0.0
 40
2.5
100
AcDbArc
 50
0.0
 51
90.0
  0
CIRCLE
  5
1465
330
2
100
AcDbEntity
  8
画層1
 62
     3
100
AcDbCircle
 10
355.1305818396356
 20
-673.2218044443027
 30
0.0
 40
2.5
  0
CIRCLE
  5
1466
330
2
100
AcDbEntity
  8
画層1
 62
     3
100
AcDbCircle
 10
355.1305818396356
 20
-688.2218044443027
 30
0.0
 40
2.5
  0
CIRCLE
  5
1467
330
2
100
AcDbEntity
  8
画層1
 62
     3
100
AcDbCircle
 10
335.1305818396356
 20
-663.2218044443027
 30
0.0
 40
1.75
  0
CIRCLE
  5
1468
330
2
100
AcDbEntity
  8
画層1
 62
     3
100
AcDbCircle
 10
335.1305818396356
 20
-673.2218044443027
 30
0.0
 40
1.75
  0
CIRCLE
  5
1469
330
2
100
AcDbEntity
  8
画層1
 62
     3
100
AcDbCircle
 10
335.0205818396356
 20
-653.2218044443027
 30
0.0
 40
1.75
  0
CIRCLE
  5
146A
330
2
100
AcDbEntity
  8
画層1
 62
     3
100
AcDbCircle
 10
335.1305818396356
 20
-643.2218044443029
 30
0.0
 40
1.75
  0
CIRCLE
  5
146B
330
2
100
AcDbEntity
  8
画層1
 62
     3
100
AcDbCircle
 10
355.1305818396356
 20
-658.2218044443027
 30
0.0
 40
2.5
  0
CIRCLE
  5
146C
330
2
100
AcDbEntity
  8
画層1
 62
     3
100
AcDbCircle
 10
355.1305818396356
 20
-643.2218044443029
 30
0.0
 40
2.5
  0
LINE
  5
146D
330
2
100
AcDbEntity
  8
画層1
 62
     3
100
AcDbLine
 10
330.1305818396356
 20
-623.2218044443027
 30
0.0
 11
362.1305818396356
 21
-623.2218044443027
 31
0.0
  0
LINE
  5
146E
330
2
100
AcDbEntity
  8
画層1
 62
     3
100
AcDbLine
 10
327.6305818396356
 20
-830.7218044443027
 30
0.0
 11
327.6305818396356
 21
-625.7218044443027
 31
0.0
  0
LINE
  5
146F
330
2
100
AcDbEntity
  8
画層1
 62
     3
100
AcDbLine
 10
364.6305818396356
 20
-625.7218044443027
 30
0.0
 11
364.6305818396356
 21
-830.7218044443027
 31
0.0
  0
LINE
  5
1470
330
2
100
AcDbEntity
  8
画層1
 62
     3
100
AcDbLine
 10
362.1305818396356
 20
-833.2218044443028
 30
0.0
 11
330.1305818396356
 21
-833.2218044443028
 31
0.0
  0
ARC
  5
1471
330
2
100
AcDbEntity
  8
画層1
 62
     3
100
AcDbCircle
 10
330.1305818396356
 20
-830.7218044443027
 30
0.0
 40
2.5
100
AcDbArc
 50
180.0
 51
270.0
  0
LINE
  5
1472
330
2
100
AcDbEntity
  8
画層1
 62
     3
100
AcDbLine
 10
364.1305818396356
 20
-837.2218044443027
 30
0.0
 11
297.1305818396356
 21
-837.2218044443027
 31
0.0
  0
ARC
  5
1473
330
2
100
AcDbEntity
  8
画層1
 62
     3
100
AcDbCircle
 10
297.1305818396356
 20
-833.7218044443027
 30
0.0
 40
3.5
100
AcDbArc
 50
180.0
 51
270.0
  0
ARC
  5
1474
330
2
100
AcDbEntity
  8
画層1
 62
     3
100
AcDbCircle
 10
362.1305818396356
 20
-830.7218044443027
 30
0.0
 40
2.5
100
AcDbArc
 50
270.0
 51
0.0
  0
ARC
  5
1475
330
2
100
AcDbEntity
  8
画層1
 62
     3
100
AcDbCircle
 10
364.1305818396356
 20
-833.7218044443027
 30
0.0
 40
3.5
100
AcDbArc
 50
270.0
 51
0.0
  0
LINE
  5
1476
330
2
100
AcDbEntity
  8
画層1
 62
     3
100
AcDbLine
 10
284.6305818396356
 20
-630.0218044443028
 30
0.0
 11
285.6305818396356
 21
-630.0218044443028
 31
0.0
  0
LINE
  5
1477
330
2
100
AcDbEntity
  8
画層1
 62
     3
100
AcDbLine
 10
284.6305818396356
 20
-626.421804444303
 30
0.0
 11
285.6305818396356
 21
-626.421804444303
 31
0.0
  0
CIRCLE
  5
1478
330
2
100
AcDbEntity
  8
画層1
 62
     3
100
AcDbCircle
 10
285.1305818396356
 20
-628.2218044443028
 30
0.0
 40
2.6
  0
CIRCLE
  5
1479
330
2
100
AcDbEntity
  8
画層1
 62
     3
100
AcDbCircle
 10
285.1305818396356
 20
-628.2218044443028
 30
0.0
 40
3.799999999999998
  0
ARC
  5
147A
330
2
100
AcDbEntity
  8
画層1
 62
     3
100
AcDbCircle
 10
283.6305818396356
 20
-626.7218044443029
 30
0.0
 40
1.0
100
AcDbArc
 50
270.0
 51
0.0
  0
LINE
  5
147B
330
2
100
AcDbEntity
  8
画層1
 62
     3
100
AcDbLine
 10
284.6305818396356
 20
-630.0218044443028
 30
0.0
 11
284.6305818396356
 21
-629.7218044443028
 31
0.0
  0
LINE
  5
147C
330
2
100
AcDbEntity
  8
画層1
 62
     3
100
AcDbLine
 10
283.3305818396355
 20
-627.7218044443028
 30
0.0
 11
283.6305818396356
 21
-627.7218044443028
 31
0.0
  0
LINE
  5
147D
330
2
100
AcDbEntity
  8
画層1
 62
     3
100
AcDbLine
 10
283.3305818396355
 20
-628.7218044443029
 30
0.0
 11
283.3305818396355
 21
-627.7218044443028
 31
0.0
  0
LINE
  5
147E
330
2
100
AcDbEntity
  8
画層1
 62
     3
100
AcDbLine
 10
283.6305818396356
 20
-628.7218044443029
 30
0.0
 11
283.3305818396355
 21
-628.7218044443029
 31
0.0
  0
ARC
  5
147F
330
2
100
AcDbEntity
  8
画層1
 62
     3
100
AcDbCircle
 10
283.6305818396356
 20
-629.7218044443028
 30
0.0
 40
1.0
100
AcDbArc
 50
0.0
 51
90.00000000000005
  0
LINE
  5
1480
330
2
100
AcDbEntity
  8
画層1
 62
     3
100
AcDbLine
 10
284.6305818396356
 20
-626.7218044443029
 30
0.0
 11
284.6305818396356
 21
-626.421804444303
 31
0.0
  0
ARC
  5
1481
330
2
100
AcDbEntity
  8
画層1
 62
     3
100
AcDbCircle
 10
286.6305818396355
 20
-626.7218044443029
 30
0.0
 40
1.0
100
AcDbArc
 50
180.0
 51
270.0
  0
LINE
  5
1482
330
2
100
AcDbEntity
  8
画層1
 62
     3
100
AcDbLine
 10
286.6305818396355
 20
-627.7218044443028
 30
0.0
 11
286.9305818396355
 21
-627.7218044443028
 31
0.0
  0
LINE
  5
1483
330
2
100
AcDbEntity
  8
画層1
 62
     3
100
AcDbLine
 10
286.9305818396355
 20
-628.7218044443029
 30
0.0
 11
286.9305818396355
 21
-627.7218044443028
 31
0.0
  0
LINE
  5
1484
330
2
100
AcDbEntity
  8
画層1
 62
     3
100
AcDbLine
 10
286.9305818396355
 20
-628.7218044443029
 30
0.0
 11
286.6305818396355
 21
-628.7218044443029
 31
0.0
  0
LINE
  5
1485
330
2
100
AcDbEntity
  8
画層1
 62
     3
100
AcDbLine
 10
285.6305818396356
 20
-629.7218044443028
 30
0.0
 11
285.6305818396356
 21
-630.0218044443028
 31
0.0
  0
ARC
  5
1486
330
2
100
AcDbEntity
  8
画層1
 62
     3
100
AcDbCircle
 10
286.6305818396355
 20
-629.7218044443028
 30
0.0
 40
1.0
100
AcDbArc
 50
90.00000000000005
 51
180.0
  0
LINE
  5
1487
330
2
100
AcDbEntity
  8
画層1
 62
     3
100
AcDbLine
 10
285.6305818396356
 20
-626.421804444303
 30
0.0
 11
285.6305818396356
 21
-626.7218044443029
 31
0.0
  0
CIRCLE
  5
1488
330
2
100
AcDbEntity
  8
画層1
 62
     3
100
AcDbCircle
 10
478.1305818396356
 20
-628.2218044443028
 30
0.0
 40
3.799999999999998
  0
CIRCLE
  5
1489
330
2
100
AcDbEntity
  8
画層1
 62
     3
100
AcDbCircle
 10
478.1305818396356
 20
-628.2218044443028
 30
0.0
 40
2.6
  0
ARC
  5
148A
330
2
100
AcDbEntity
  8
画層1
 62
     3
100
AcDbCircle
 10
479.6305818396355
 20
-626.7218044443029
 30
0.0
 40
1.0
100
AcDbArc
 50
180.0
 51
270.0
  0
ARC
  5
148B
330
2
100
AcDbEntity
  8
画層1
 62
     3
100
AcDbCircle
 10
476.6305818396356
 20
-626.7218044443029
 30
0.0
 40
1.0
100
AcDbArc
 50
270.0
 51
0.0
  0
ARC
  5
148C
330
2
100
AcDbEntity
  8
画層1
 62
     3
100
AcDbCircle
 10
479.6305818396355
 20
-629.7218044443028
 30
0.0
 40
1.0
100
AcDbArc
 50
90.00000000000005
 51
180.0
  0
LINE
  5
148D
330
2
100
AcDbEntity
  8
画層1
 62
     3
100
AcDbLine
 10
478.6305818396356
 20
-629.7218044443028
 30
0.0
 11
478.6305818396356
 21
-630.0218044443028
 31
0.0
  0
LINE
  5
148E
330
2
100
AcDbEntity
  8
画層1
 62
     3
100
AcDbLine
 10
479.9305818396355
 20
-628.7218044443029
 30
0.0
 11
479.6305818396355
 21
-628.7218044443029
 31
0.0
  0
LINE
  5
148F
330
2
100
AcDbEntity
  8
画層1
 62
     3
100
AcDbLine
 10
479.9305818396355
 20
-628.7218044443029
 30
0.0
 11
479.9305818396355
 21
-627.7218044443028
 31
0.0
  0
LINE
  5
1490
330
2
100
AcDbEntity
  8
画層1
 62
     3
100
AcDbLine
 10
479.6305818396355
 20
-627.7218044443028
 30
0.0
 11
479.9305818396355
 21
-627.7218044443028
 31
0.0
  0
ARC
  5
1491
330
2
100
AcDbEntity
  8
画層1
 62
     3
100
AcDbCircle
 10
476.6305818396356
 20
-629.7218044443028
 30
0.0
 40
1.0
100
AcDbArc
 50
0.0
 51
90.00000000000005
  0
LINE
  5
1492
330
2
100
AcDbEntity
  8
画層1
 62
     3
100
AcDbLine
 10
476.6305818396356
 20
-628.7218044443029
 30
0.0
 11
476.3305818396355
 21
-628.7218044443029
 31
0.0
  0
LINE
  5
1493
330
2
100
AcDbEntity
  8
画層1
 62
     3
100
AcDbLine
 10
476.3305818396355
 20
-628.7218044443029
 30
0.0
 11
476.3305818396355
 21
-627.7218044443028
 31
0.0
  0
LINE
  5
1494
330
2
100
AcDbEntity
  8
画層1
 62
     3
100
AcDbLine
 10
476.3305818396355
 20
-627.7218044443028
 30
0.0
 11
476.6305818396356
 21
-627.7218044443028
 31
0.0
  0
LINE
  5
1495
330
2
100
AcDbEntity
  8
画層1
 62
     3
100
AcDbLine
 10
477.6305818396356
 20
-630.0218044443028
 30
0.0
 11
477.6305818396356
 21
-629.7218044443028
 31
0.0
  0
LINE
  5
1496
330
2
100
AcDbEntity
  8
画層1
 62
     3
100
AcDbLine
 10
477.6305818396356
 20
-630.0218044443028
 30
0.0
 11
478.6305818396356
 21
-630.0218044443028
 31
0.0
  0
LINE
  5
1497
330
2
100
AcDbEntity
  8
画層1
 62
     3
100
AcDbLine
 10
478.6305818396356
 20
-626.421804444303
 30
0.0
 11
478.6305818396356
 21
-626.7218044443029
 31
0.0
  0
LINE
  5
1498
330
2
100
AcDbEntity
  8
画層1
 62
     3
100
AcDbLine
 10
477.6305818396356
 20
-626.7218044443029
 30
0.0
 11
477.6305818396356
 21
-626.421804444303
 31
0.0
  0
LINE
  5
1499
330
2
100
AcDbEntity
  8
画層1
 62
     3
100
AcDbLine
 10
477.6305818396356
 20
-626.421804444303
 30
0.0
 11
478.6305818396356
 21
-626.421804444303
 31
0.0
  0
CIRCLE
  5
149A
330
2
100
AcDbEntity
  8
画層1
 62
     3
100
AcDbCircle
 10
285.1305818396355
 20
-948.2218044443028
 30
0.0
 40
3.799999999999998
  0
CIRCLE
  5
149B
330
2
100
AcDbEntity
  8
画層1
 62
     3
100
AcDbCircle
 10
285.1305818396355
 20
-948.2218044443028
 30
0.0
 40
2.6
  0
ARC
  5
149C
330
2
100
AcDbEntity
  8
画層1
 62
     3
100
AcDbCircle
 10
286.6305818396354
 20
-946.7218044443029
 30
0.0
 40
1.0
100
AcDbArc
 50
180.0
 51
270.0
  0
ARC
  5
149D
330
2
100
AcDbEntity
  8
画層1
 62
     3
100
AcDbCircle
 10
283.6305818396355
 20
-946.7218044443029
 30
0.0
 40
1.0
100
AcDbArc
 50
270.0
 51
0.0
  0
ARC
  5
149E
330
2
100
AcDbEntity
  8
画層1
 62
     3
100
AcDbCircle
 10
286.6305818396354
 20
-949.7218044443028
 30
0.0
 40
1.0
100
AcDbArc
 50
90.00000000000005
 51
180.0
  0
LINE
  5
149F
330
2
100
AcDbEntity
  8
画層1
 62
     3
100
AcDbLine
 10
285.6305818396355
 20
-949.7218044443028
 30
0.0
 11
285.6305818396355
 21
-950.0218044443029
 31
0.0
  0
LINE
  5
14A0
330
2
100
AcDbEntity
  8
画層1
 62
     3
100
AcDbLine
 10
286.9305818396355
 20
-948.7218044443029
 30
0.0
 11
286.6305818396354
 21
-948.7218044443029
 31
0.0
  0
LINE
  5
14A1
330
2
100
AcDbEntity
  8
画層1
 62
     3
100
AcDbLine
 10
286.9305818396355
 20
-948.7218044443029
 30
0.0
 11
286.9305818396355
 21
-947.7218044443029
 31
0.0
  0
LINE
  5
14A2
330
2
100
AcDbEntity
  8
画層1
 62
     3
100
AcDbLine
 10
286.6305818396354
 20
-947.7218044443029
 30
0.0
 11
286.9305818396355
 21
-947.7218044443029
 31
0.0
  0
ARC
  5
14A3
330
2
100
AcDbEntity
  8
画層1
 62
     3
100
AcDbCircle
 10
283.6305818396355
 20
-949.7218044443028
 30
0.0
 40
1.0
100
AcDbArc
 50
0.0
 51
90.00000000000005
  0
LINE
  5
14A4
330
2
100
AcDbEntity
  8
画層1
 62
     3
100
AcDbLine
 10
283.6305818396355
 20
-948.7218044443029
 30
0.0
 11
283.3305818396354
 21
-948.7218044443029
 31
0.0
  0
LINE
  5
14A5
330
2
100
AcDbEntity
  8
画層1
 62
     3
100
AcDbLine
 10
283.3305818396354
 20
-948.7218044443029
 30
0.0
 11
283.3305818396354
 21
-947.7218044443029
 31
0.0
  0
LINE
  5
14A6
330
2
100
AcDbEntity
  8
画層1
 62
     3
100
AcDbLine
 10
283.3305818396354
 20
-947.7218044443029
 30
0.0
 11
283.6305818396355
 21
-947.7218044443029
 31
0.0
  0
LINE
  5
14A7
330
2
100
AcDbEntity
  8
画層1
 62
     3
100
AcDbLine
 10
284.6305818396355
 20
-950.0218044443029
 30
0.0
 11
284.6305818396355
 21
-949.7218044443028
 31
0.0
  0
LINE
  5
14A8
330
2
100
AcDbEntity
  8
画層1
 62
     3
100
AcDbLine
 10
284.6305818396355
 20
-950.0218044443029
 30
0.0
 11
285.6305818396355
 21
-950.0218044443029
 31
0.0
  0
LINE
  5
14A9
330
2
100
AcDbEntity
  8
画層1
 62
     3
100
AcDbLine
 10
285.6305818396355
 20
-946.4218044443029
 30
0.0
 11
285.6305818396355
 21
-946.7218044443029
 31
0.0
  0
LINE
  5
14AA
330
2
100
AcDbEntity
  8
画層1
 62
     3
100
AcDbLine
 10
284.6305818396355
 20
-946.7218044443029
 30
0.0
 11
284.6305818396355
 21
-946.4218044443029
 31
0.0
  0
LINE
  5
14AB
330
2
100
AcDbEntity
  8
画層1
 62
     3
100
AcDbLine
 10
284.6305818396355
 20
-946.4218044443029
 30
0.0
 11
285.6305818396355
 21
-946.4218044443029
 31
0.0
  0
ARC
  5
14AC
330
2
100
AcDbEntity
  8
画層1
 62
     3
100
AcDbCircle
 10
476.6305818396356
 20
-946.7218044443029
 30
0.0
 40
1.0
100
AcDbArc
 50
270.0
 51
0.0
  0
ARC
  5
14AD
330
2
100
AcDbEntity
  8
画層1
 62
     3
100
AcDbCircle
 10
479.6305818396354
 20
-946.7218044443029
 30
0.0
 40
1.0
100
AcDbArc
 50
180.0
 51
270.0
  0
CIRCLE
  5
14AE
330
2
100
AcDbEntity
  8
画層1
 62
     3
100
AcDbCircle
 10
478.1305818396355
 20
-948.2218044443028
 30
0.0
 40
2.6
  0
CIRCLE
  5
14AF
330
2
100
AcDbEntity
  8
画層1
 62
     3
100
AcDbCircle
 10
478.1305818396355
 20
-948.2218044443028
 30
0.0
 40
3.799999999999998
  0
LINE
  5
14B0
330
2
100
AcDbEntity
  8
画層1
 62
     3
100
AcDbLine
 10
477.6305818396355
 20
-950.0218044443029
 30
0.0
 11
478.6305818396355
 21
-950.0218044443029
 31
0.0
  0
LINE
  5
14B1
330
2
100
AcDbEntity
  8
画層1
 62
     3
100
AcDbLine
 10
477.6305818396355
 20
-950.0218044443029
 30
0.0
 11
477.6305818396355
 21
-949.7218044443028
 31
0.0
  0
LINE
  5
14B2
330
2
100
AcDbEntity
  8
画層1
 62
     3
100
AcDbLine
 10
476.3305818396355
 20
-947.7218044443029
 30
0.0
 11
476.6305818396356
 21
-947.7218044443029
 31
0.0
  0
LINE
  5
14B3
330
2
100
AcDbEntity
  8
画層1
 62
     3
100
AcDbLine
 10
476.3305818396355
 20
-948.7218044443029
 30
0.0
 11
476.3305818396355
 21
-947.7218044443029
 31
0.0
  0
LINE
  5
14B4
330
2
100
AcDbEntity
  8
画層1
 62
     3
100
AcDbLine
 10
476.6305818396356
 20
-948.7218044443029
 30
0.0
 11
476.3305818396355
 21
-948.7218044443029
 31
0.0
  0
ARC
  5
14B5
330
2
100
AcDbEntity
  8
画層1
 62
     3
100
AcDbCircle
 10
476.6305818396356
 20
-949.7218044443028
 30
0.0
 40
1.0
100
AcDbArc
 50
0.0
 51
90.00000000000005
  0
LINE
  5
14B6
330
2
100
AcDbEntity
  8
画層1
 62
     3
100
AcDbLine
 10
479.6305818396354
 20
-947.7218044443029
 30
0.0
 11
479.9305818396355
 21
-947.7218044443029
 31
0.0
  0
LINE
  5
14B7
330
2
100
AcDbEntity
  8
画層1
 62
     3
100
AcDbLine
 10
479.9305818396355
 20
-948.7218044443029
 30
0.0
 11
479.9305818396355
 21
-947.7218044443029
 31
0.0
  0
LINE
  5
14B8
330
2
100
AcDbEntity
  8
画層1
 62
     3
100
AcDbLine
 10
479.9305818396355
 20
-948.7218044443029
 30
0.0
 11
479.6305818396354
 21
-948.7218044443029
 31
0.0
  0
LINE
  5
14B9
330
2
100
AcDbEntity
  8
画層1
 62
     3
100
AcDbLine
 10
478.6305818396355
 20
-949.7218044443028
 30
0.0
 11
478.6305818396355
 21
-950.0218044443029
 31
0.0
  0
ARC
  5
14BA
330
2
100
AcDbEntity
  8
画層1
 62
     3
100
AcDbCircle
 10
479.6305818396354
 20
-949.7218044443028
 30
0.0
 40
1.0
100
AcDbArc
 50
90.00000000000005
 51
180.0
  0
LINE
  5
14BB
330
2
100
AcDbEntity
  8
画層1
 62
     3
100
AcDbLine
 10
477.6305818396355
 20
-946.4218044443029
 30
0.0
 11
478.6305818396355
 21
-946.4218044443029
 31
0.0
  0
LINE
  5
14BC
330
2
100
AcDbEntity
  8
画層1
 62
     3
100
AcDbLine
 10
477.6305818396355
 20
-946.7218044443029
 30
0.0
 11
477.6305818396355
 21
-946.4218044443029
 31
0.0
  0
LINE
  5
14BD
330
2
100
AcDbEntity
  8
画層1
 62
     3
100
AcDbLine
 10
478.6305818396355
 20
-946.4218044443029
 30
0.0
 11
478.6305818396355
 21
-946.7218044443029
 31
0.0
  0
LINE
  5
14C0
330
2
100
AcDbEntity
  8
画層1
 62
     3
100
AcDbLine
 10
482.6305818396356
 20
-626.2218044443028
 30
0.0
 11
481.3616807239163
 21
-626.2218044443028
 31
0.0
  0
LINE
  5
14C1
330
2
100
AcDbEntity
  8
画層1
 62
     3
100
AcDbLine
 10
482.6305818396356
 20
-630.2218044443028
 30
0.0
 11
481.3616807239163
 21
-630.2218044443028
 31
0.0
  0
LINE
  5
14C2
330
2
100
AcDbEntity
  8
画層1
 62
     3
100
AcDbLine
 10
482.6305818396356
 20
-630.2218044443028
 30
0.0
 11
482.6305818396354
 21
-946.2218044443027
 31
0.0
  0
LINE
  5
14C3
330
2
100
AcDbEntity
  8
画層1
 62
     3
100
AcDbLine
 10
482.6305818396355
 20
-950.2218044443027
 30
0.0
 11
481.3616807239163
 21
-950.2218044443027
 31
0.0
  0
LINE
  5
14C4
330
2
100
AcDbEntity
  8
画層1
 62
     3
100
AcDbLine
 10
482.6305818396355
 20
-946.2218044443028
 30
0.0
 11
481.3616807239163
 21
-946.2218044443028
 31
0.0
  0
LINE
  5
14C5
330
2
100
AcDbEntity
  8
画層1
 62
     3
100
AcDbLine
 10
482.6305818396354
 20
-950.2218044443027
 30
0.0
 11
482.6305818396355
 21
-977.2218044443029
 31
0.0
  0
LINE
  5
14CC
330
2
100
AcDbEntity
  8
画層1
 62
     3
100
AcDbLine
 10
290.6305818396356
 20
-639.2218044443028
 30
0.0
 11
290.6305818396356
 21
-732.2218044443028
 31
0.0
  0
LINE
  5
14CD
330
2
100
AcDbEntity
  8
画層1
 62
     3
100
AcDbLine
 10
289.0305818396356
 20
-732.2218044443028
 30
0.0
 11
289.0305818396356
 21
-639.2218044443028
 31
0.0
  0
CIRCLE
  5
14D3
330
2
100
AcDbEntity
  8
画層1
 62
     3
100
AcDbCircle
 10
339.6305818396356
 20
-872.2218044443026
 30
0.0
 40
12.5
  0
LINE
  5
14D4
330
2
100
AcDbEntity
  8
画層1
 62
     3
100
AcDbLine
 10
482.1305818396356
 20
-626.2218044443028
 30
0.0
 11
482.1305818396356
 21
-630.2218044443028
 31
0.0
  0
LINE
  5
14D5
330
2
100
AcDbEntity
  8
画層1
 62
     3
100
AcDbLine
 10
482.1305818396356
 20
-946.2218044443028
 30
0.0
 11
482.1305818396356
 21
-950.2218044443027
 31
0.0
  0
CIRCLE
  5
14DE
330
2
100
AcDbEntity
  8
画層1
 62
     3
100
AcDbCircle
 10
738.4389206732846
 20
-778.2218044443027
 30
0.0
 40
6.495190528383318
  0
LWPOLYLINE
  5
14DF
330
2
100
AcDbEntity
  8
画層1
 62
     3
100
AcDbPolyline
 90
        6
 70
     1
 43
0.0
 10
731.9437301449013
 20
-781.9718044443027
 10
738.4389206732846
 20
-785.7218044443027
 10
744.9341112016679
 20
-781.9718044443027
 10
744.9341112016679
 20
-774.4718044443027
 10
738.4389206732846
 20
-770.7218044443027
 10
731.9437301449013
 20
-774.4718044443027
  0
CIRCLE
  5
14E0
330
2
100
AcDbEntity
  8
画層1
 62
     3
100
AcDbCircle
 10
738.4389206732846
 20
-778.2218044443027
 30
0.0
 40
8.0
  0
LINE
  5
1505
330
2
100
AcDbEntity
  8
画層1
  6
CENTER
 62
     1
100
AcDbLine
 10
303.1305818396355
 20
-610.2218044443027
 30
0.0
 11
320.1305818396355
 21
-610.2218044443027
 31
0.0
  0
CIRCLE
  5
1506
330
2
100
AcDbEntity
  8
画層1
  6
DASHED2
 62
     2
100
AcDbCircle
 10
311.6305818396355
 20
-610.2218044443027
 30
0.0
 40
4.5
  0
LINE
  5
1507
330
2
100
AcDbEntity
  8
画層1
  6
CENTER
 62
     1
100
AcDbLine
 10
311.6305818396355
 20
-601.7218044443027
 30
0.0
 11
311.6305818396355
 21
-618.7218044443027
 31
0.0
  0
LINE
  5
1508
330
2
100
AcDbEntity
  8
画層1
  6
CENTER
 62
     1
100
AcDbLine
 10
451.6305818396355
 20
-601.7218044443027
 30
0.0
 11
451.6305818396355
 21
-618.7218044443027
 31
0.0
  0
CIRCLE
  5
1509
330
2
100
AcDbEntity
  8
画層1
  6
DASHED2
 62
     2
100
AcDbCircle
 10
451.6305818396355
 20
-610.2218044443027
 30
0.0
 40
4.5
  0
LINE
  5
150A
330
2
100
AcDbEntity
  8
画層1
  6
CENTER
 62
     1
100
AcDbLine
 10
443.1305818396355
 20
-610.2218044443027
 30
0.0
 11
460.1305818396355
 21
-610.2218044443027
 31
0.0
  0
ARC
  5
150D
330
2
100
AcDbEntity
  8
画層1
  6
DASHED2
 62
     2
100
AcDbCircle
 10
311.6305818396356
 20
-966.2218044443028
 30
0.0
 40
4.5
100
AcDbArc
 50
0.0
 51
180.0
  0
LINE
  5
150E
330
2
100
AcDbEntity
  8
画層1
  6
DASHED2
 62
     2
100
AcDbLine
 10
307.1305818396356
 20
-966.2218044443028
 30
0.0
 11
307.1305818396356
 21
-975.2218044443029
 31
0.0
  0
LINE
  5
150F
330
2
100
AcDbEntity
  8
画層1
  6
DASHED2
 62
     2
100
AcDbLine
 10
316.1305818396356
 20
-966.2218044443028
 30
0.0
 11
316.1305818396356
 21
-975.2218044443029
 31
0.0
  0
LINE
  5
1510
330
2
100
AcDbEntity
  8
画層1
  6
CENTER
 62
     1
100
AcDbLine
 10
303.1305818396356
 20
-966.2218044443028
 30
0.0
 11
320.1305818396356
 21
-966.2218044443028
 31
0.0
  0
LINE
  5
1511
330
2
100
AcDbEntity
  8
画層1
  6
CENTER
 62
     1
100
AcDbLine
 10
311.6305818396356
 20
-957.7218044443027
 30
0.0
 11
311.6305818396356
 21
-974.7218044443028
 31
0.0
  0
LINE
  5
1512
330
2
100
AcDbEntity
  8
画層1
  6
CENTER
 62
     1
100
AcDbLine
 10
443.1305818396356
 20
-966.2218044443026
 30
0.0
 11
460.1305818396355
 21
-966.2218044443026
 31
0.0
  0
LINE
  5
1513
330
2
100
AcDbEntity
  8
画層1
  6
DASHED2
 62
     2
100
AcDbLine
 10
456.1305818396355
 20
-966.2218044443026
 30
0.0
 11
456.1305818396355
 21
-975.2218044443027
 31
0.0
  0
LINE
  5
1514
330
2
100
AcDbEntity
  8
画層1
  6
DASHED2
 62
     2
100
AcDbLine
 10
447.1305818396356
 20
-966.2218044443026
 30
0.0
 11
447.1305818396356
 21
-975.2218044443027
 31
0.0
  0
LINE
  5
1515
330
2
100
AcDbEntity
  8
画層1
  6
CENTER
 62
     1
100
AcDbLine
 10
451.6305818396356
 20
-957.7218044443027
 30
0.0
 11
451.6305818396356
 21
-974.7218044443028
 31
0.0
  0
ARC
  5
1516
330
2
100
AcDbEntity
  8
画層1
  6
DASHED2
 62
     2
100
AcDbCircle
 10
451.6305818396356
 20
-966.2218044443026
 30
0.0
 40
4.5
100
AcDbArc
 50
0.0
 51
180.0
  0
LINE
  5
151B
330
2
100
AcDbEntity
  8
画層1
 62
     3
100
AcDbLine
 10
590.4389206732846
 20
-599.2218044443028
 30
0.0
 11
619.4389206732846
 21
-599.2218044443028
 31
0.0
  0
LINE
  5
151C
330
2
100
AcDbEntity
  8
画層1
 62
     3
100
AcDbLine
 10
619.4389206732846
 20
-599.2218044443028
 30
0.0
 11
619.4389206732846
 21
-600.2218044443028
 31
0.0
  0
LINE
  5
151D
330
2
100
AcDbEntity
  8
画層1
 62
     3
100
AcDbLine
 10
619.4389206732846
 20
-600.2218044443028
 30
0.0
 11
590.4389206732846
 21
-600.2218044443028
 31
0.0
  0
LINE
  5
151E
330
2
100
AcDbEntity
  8
画層1
 62
     3
100
AcDbLine
 10
619.4389206732846
 20
-976.2218044443025
 30
0.0
 11
590.4389206732846
 21
-976.2218044443025
 31
0.0
  0
LINE
  5
151F
330
2
100
AcDbEntity
  8
画層1
 62
     3
100
AcDbLine
 10
590.4389206732846
 20
-977.2218044443025
 30
0.0
 11
619.4389206732846
 21
-977.2218044443025
 31
0.0
  0
LINE
  5
1520
330
2
100
AcDbEntity
  8
画層1
 62
     3
100
AcDbLine
 10
619.4389206732846
 20
-977.2218044443025
 30
0.0
 11
619.4389206732846
 21
-976.2218044443025
 31
0.0
  0
LINE
  5
1521
330
2
100
AcDbEntity
  8
画層1
 62
     3
100
AcDbLine
 10
589.4389206732846
 20
-976.2218044443025
 30
0.0
 11
589.4389206732846
 21
-600.2218044443028
 31
0.0
  0
LINE
  5
1522
330
2
100
AcDbEntity
  8
画層1
 62
     3
100
AcDbLine
 10
590.4389206732846
 20
-600.2218044443028
 30
0.0
 11
590.4389206732846
 21
-976.2218044443025
 31
0.0
  0
ARC
  5
1524
330
2
100
AcDbEntity
  8
画層1
 62
     3
100
AcDbCircle
 10
590.4389206732846
 20
-976.2218044443025
 30
0.0
 40
1.0
100
AcDbArc
 50
180.0
 51
270.0
  0
ARC
  5
1525
330
2
100
AcDbEntity
  8
画層1
 62
     3
100
AcDbCircle
 10
590.4389206732846
 20
-600.2218044443028
 30
0.0
 40
1.0
100
AcDbArc
 50
90.0
 51
180.0
  0
LINE
  5
152A
330
2
100
AcDbEntity
  8
画層1
 62
     3
100
AcDbLine
 10
590.4389206732846
 20
-601.2218044443027
 30
0.0
 11
869.4389206732846
 21
-601.2218044443027
 31
0.0
  0
LINE
  5
152B
330
2
100
AcDbEntity
  8
画層1
 62
     3
100
AcDbLine
 10
869.4389206732846
 20
-601.2218044443027
 30
0.0
 11
869.4389206732846
 21
-975.2218044443027
 31
0.0
  0
LINE
  5
152C
330
2
100
AcDbEntity
  8
画層1
 62
     3
100
AcDbLine
 10
869.4389206732846
 20
-975.2218044443027
 30
0.0
 11
590.4389206732846
 21
-975.2218044443027
 31
0.0
  0
LINE
  5
152D
330
2
100
AcDbEntity
  8
画層1
 62
     3
100
AcDbLine
 10
592.0389206732846
 20
-975.2218044443027
 30
0.0
 11
592.0389206732846
 21
-601.2218044443027
 31
0.0
  0
CIRCLE
  5
1534
330
2
100
AcDbEntity
  8
画層1
 62
     3
100
AcDbCircle
 10
731.4389206732847
 20
-873.2218044443028
 30
0.0
 40
5.0
  0
CIRCLE
  5
1535
330
2
100
AcDbEntity
  8
画層1
 62
     3
100
AcDbCircle
 10
731.4389206732847
 20
-873.2218044443028
 30
0.0
 40
3.5
  0
LINE
  5
1536
330
2
100
AcDbEntity
  8
画層1
 62
     3
100
AcDbLine
 10
732.9389206732844
 20
-872.7218044443025
 30
0.0
 11
733.2389206732845
 21
-872.7218044443025
 31
0.0
  0
LINE
  5
1537
330
2
100
AcDbEntity
  8
画層1
 62
     3
100
AcDbLine
 10
731.9389206732844
 20
-871.4218044443027
 30
0.0
 11
731.9389206732844
 21
-871.7218044443027
 31
0.0
  0
LINE
  5
1538
330
2
100
AcDbEntity
  8
画層1
 62
     3
100
AcDbLine
 10
730.9389206732846
 20
-871.7218044443027
 30
0.0
 11
730.9389206732846
 21
-871.4218044443027
 31
0.0
  0
LINE
  5
1539
330
2
100
AcDbEntity
  8
画層1
 62
     3
100
AcDbLine
 10
729.6389206732847
 20
-872.7218044443025
 30
0.0
 11
729.9389206732844
 21
-872.7218044443025
 31
0.0
  0
LINE
  5
153A
330
2
100
AcDbEntity
  8
画層1
 62
     3
100
AcDbLine
 10
730.9389206732846
 20
-871.4218044443027
 30
0.0
 11
731.9389206732844
 21
-871.4218044443027
 31
0.0
  0
ARC
  5
153B
330
2
100
AcDbEntity
  8
画層1
 62
     3
100
AcDbCircle
 10
729.9389206732844
 20
-871.7218044443027
 30
0.0
 40
1.0
100
AcDbArc
 50
270.0
 51
0.0
  0
ARC
  5
153C
330
2
100
AcDbEntity
  8
画層1
 62
     3
100
AcDbCircle
 10
732.9389206732844
 20
-871.7218044443027
 30
0.0
 40
1.0
100
AcDbArc
 50
180.0
 51
270.0
  0
LINE
  5
153D
330
2
100
AcDbEntity
  8
画層1
 62
     3
100
AcDbLine
 10
733.2389206732845
 20
-873.7218044443027
 30
0.0
 11
732.9389206732844
 21
-873.7218044443027
 31
0.0
  0
LINE
  5
153E
330
2
100
AcDbEntity
  8
画層1
 62
     3
100
AcDbLine
 10
731.9389206732844
 20
-874.7218044443027
 30
0.0
 11
731.9389206732844
 21
-875.0218044443027
 31
0.0
  0
LINE
  5
153F
330
2
100
AcDbEntity
  8
画層1
 62
     3
100
AcDbLine
 10
729.9389206732844
 20
-873.7218044443027
 30
0.0
 11
729.6389206732847
 21
-873.7218044443027
 31
0.0
  0
LINE
  5
1540
330
2
100
AcDbEntity
  8
画層1
 62
     3
100
AcDbLine
 10
730.9389206732846
 20
-875.0218044443027
 30
0.0
 11
730.9389206732846
 21
-874.7218044443027
 31
0.0
  0
LINE
  5
1541
330
2
100
AcDbEntity
  8
画層1
 62
     3
100
AcDbLine
 10
730.9389206732846
 20
-875.0218044443027
 30
0.0
 11
731.9389206732844
 21
-875.0218044443027
 31
0.0
  0
ARC
  5
1542
330
2
100
AcDbEntity
  8
画層1
 62
     3
100
AcDbCircle
 10
732.9389206732844
 20
-874.7218044443027
 30
0.0
 40
1.0
100
AcDbArc
 50
90.0
 51
180.0
  0
ARC
  5
1543
330
2
100
AcDbEntity
  8
画層1
 62
     3
100
AcDbCircle
 10
729.9389206732844
 20
-874.7218044443027
 30
0.0
 40
1.0
100
AcDbArc
 50
0.0
 51
90.0
  0
LINE
  5
1544
330
2
100
AcDbEntity
  8
画層1
 62
     3
100
AcDbLine
 10
733.2389206732845
 20
-873.7218044443027
 30
0.0
 11
733.2389206732845
 21
-872.7218044443025
 31
0.0
  0
LINE
  5
1545
330
2
100
AcDbEntity
  8
画層1
 62
     3
100
AcDbLine
 10
729.6389206732847
 20
-873.7218044443027
 30
0.0
 11
729.6389206732847
 21
-872.7218044443025
 31
0.0
  0
ARC
  5
1546
330
2
100
AcDbEntity
  8
画層1
 62
     3
100
AcDbCircle
 10
729.9389206732844
 20
-914.7218044443025
 30
0.0
 40
1.0
100
AcDbArc
 50
0.0
 51
90.0
  0
ARC
  5
1547
330
2
100
AcDbEntity
  8
画層1
 62
     3
100
AcDbCircle
 10
729.9389206732844
 20
-911.7218044443028
 30
0.0
 40
1.0
100
AcDbArc
 50
270.0
 51
0.0
  0
CIRCLE
  5
1548
330
2
100
AcDbEntity
  8
画層1
 62
     3
100
AcDbCircle
 10
731.4389206732847
 20
-913.2218044443026
 30
0.0
 40
3.5
  0
CIRCLE
  5
1549
330
2
100
AcDbEntity
  8
画層1
 62
     3
100
AcDbCircle
 10
731.4389206732847
 20
-913.2218044443026
 30
0.0
 40
5.0
  0
LINE
  5
154A
330
2
100
AcDbEntity
  8
画層1
 62
     3
100
AcDbLine
 10
729.6389206732847
 20
-913.7218044443027
 30
0.0
 11
729.6389206732847
 21
-912.7218044443026
 31
0.0
  0
LINE
  5
154B
330
2
100
AcDbEntity
  8
画層1
 62
     3
100
AcDbLine
 10
729.9389206732844
 20
-913.7218044443027
 30
0.0
 11
729.6389206732847
 21
-913.7218044443027
 31
0.0
  0
LINE
  5
154C
330
2
100
AcDbEntity
  8
画層1
 62
     3
100
AcDbLine
 10
729.6389206732847
 20
-912.7218044443026
 30
0.0
 11
729.9389206732844
 21
-912.7218044443026
 31
0.0
  0
LINE
  5
154D
330
2
100
AcDbEntity
  8
画層1
 62
     3
100
AcDbLine
 10
733.2389206732845
 20
-913.7218044443027
 30
0.0
 11
733.2389206732845
 21
-912.7218044443026
 31
0.0
  0
ARC
  5
154E
330
2
100
AcDbEntity
  8
画層1
 62
     3
100
AcDbCircle
 10
732.9389206732844
 20
-914.7218044443025
 30
0.0
 40
1.0
100
AcDbArc
 50
90.0
 51
180.0
  0
LINE
  5
154F
330
2
100
AcDbEntity
  8
画層1
 62
     3
100
AcDbLine
 10
730.9389206732846
 20
-915.0218044443027
 30
0.0
 11
731.9389206732844
 21
-915.0218044443027
 31
0.0
  0
LINE
  5
1550
330
2
100
AcDbEntity
  8
画層1
 62
     3
100
AcDbLine
 10
730.9389206732846
 20
-915.0218044443027
 30
0.0
 11
730.9389206732846
 21
-914.7218044443025
 31
0.0
  0
LINE
  5
1551
330
2
100
AcDbEntity
  8
画層1
 62
     3
100
AcDbLine
 10
731.9389206732844
 20
-914.7218044443025
 30
0.0
 11
731.9389206732844
 21
-915.0218044443027
 31
0.0
  0
LINE
  5
1552
330
2
100
AcDbEntity
  8
画層1
 62
     3
100
AcDbLine
 10
733.2389206732845
 20
-913.7218044443027
 30
0.0
 11
732.9389206732844
 21
-913.7218044443027
 31
0.0
  0
ARC
  5
1553
330
2
100
AcDbEntity
  8
画層1
 62
     3
100
AcDbCircle
 10
732.9389206732844
 20
-911.7218044443028
 30
0.0
 40
1.0
100
AcDbArc
 50
180.0
 51
270.0
  0
LINE
  5
1554
330
2
100
AcDbEntity
  8
画層1
 62
     3
100
AcDbLine
 10
730.9389206732846
 20
-911.4218044443026
 30
0.0
 11
731.9389206732844
 21
-911.4218044443026
 31
0.0
  0
LINE
  5
1555
330
2
100
AcDbEntity
  8
画層1
 62
     3
100
AcDbLine
 10
730.9389206732846
 20
-911.7218044443028
 30
0.0
 11
730.9389206732846
 21
-911.4218044443026
 31
0.0
  0
LINE
  5
1556
330
2
100
AcDbEntity
  8
画層1
 62
     3
100
AcDbLine
 10
731.9389206732844
 20
-911.4218044443026
 30
0.0
 11
731.9389206732844
 21
-911.7218044443028
 31
0.0
  0
LINE
  5
1557
330
2
100
AcDbEntity
  8
画層1
 62
     3
100
AcDbLine
 10
732.9389206732844
 20
-912.7218044443026
 30
0.0
 11
733.2389206732845
 21
-912.7218044443026
 31
0.0
  0
CIRCLE
  5
1558
330
2
100
AcDbEntity
  8
画層1
 62
     3
100
AcDbCircle
 10
738.4389206732846
 20
-778.2218044443027
 30
0.0
 40
9.5
  0
CIRCLE
  5
1559
330
2
100
AcDbEntity
  8
画層1
 62
     3
100
AcDbCircle
 10
738.4389206732846
 20
-678.2218044443027
 30
0.0
 40
9.5
  0
CIRCLE
  5
155A
330
2
100
AcDbEntity
  8
画層1
 62
     3
100
AcDbCircle
 10
738.4389206732846
 20
-678.2218044443027
 30
0.0
 40
8.0
  0
LWPOLYLINE
  5
155B
330
2
100
AcDbEntity
  8
画層1
 62
     3
100
AcDbPolyline
 90
        6
 70
     1
 43
0.0
 10
731.9437301449013
 20
-681.9718044443027
 10
738.4389206732846
 20
-685.7218044443027
 10
744.9341112016679
 20
-681.9718044443027
 10
744.9341112016679
 20
-674.4718044443027
 10
738.4389206732846
 20
-670.7218044443027
 10
731.9437301449013
 20
-674.4718044443027
  0
CIRCLE
  5
155C
330
2
100
AcDbEntity
  8
画層1
 62
     3
100
AcDbCircle
 10
738.4389206732846
 20
-678.2218044443027
 30
0.0
 40
6.495190528383318
  0
LINE
  5
1561
330
2
100
AcDbEntity
  8
画層1
 62
     3
100
AcDbLine
 10
280.5305818396356
 20
-674.4718044443027
 30
0.0
 11
286.5305818396356
 21
-674.4718044443027
 31
0.0
  0
LINE
  5
1562
330
2
100
AcDbEntity
  8
画層1
 62
     3
100
AcDbLine
 10
286.5305818396356
 20
-670.7218044443027
 30
0.0
 11
280.5305818396356
 21
-670.7218044443027
 31
0.0
  0
LINE
  5
1563
330
2
100
AcDbEntity
  8
画層1
 62
     3
100
AcDbLine
 10
286.5305818396356
 20
-685.7218044443027
 30
0.0
 11
280.5305818396356
 21
-685.7218044443027
 31
0.0
  0
LINE
  5
1564
330
2
100
AcDbEntity
  8
画層1
 62
     3
100
AcDbLine
 10
280.5305818396356
 20
-681.9718044443027
 30
0.0
 11
286.5305818396356
 21
-681.9718044443027
 31
0.0
  0
ARC
  5
1565
330
2
100
AcDbEntity
  8
画層1
 62
     3
100
AcDbCircle
 10
281.7883943396356
 20
-683.8468044443027
 30
0.0
 40
2.257812500000015
100
AcDbArc
 50
123.8550261282922
 51
180.0
  0
LINE
  5
1566
330
2
100
AcDbEntity
  8
画層1
 62
     3
100
AcDbLine
 10
279.5305818396355
 20
-683.8468044443027
 30
0.0
 11
279.5305818396355
 21
-672.5968044443027
 31
0.0
  0
LINE
  5
1567
330
2
100
AcDbEntity
  8
画層1
 62
     3
100
AcDbLine
 10
280.5305818396356
 20
-685.7218044443027
 30
0.0
 11
279.5305818396355
 21
-683.8468044443027
 31
0.0
  0
ARC
  5
1568
330
2
100
AcDbEntity
  8
画層1
 62
     3
100
AcDbCircle
 10
281.7883943396356
 20
-672.5968044443027
 30
0.0
 40
2.257812500000015
100
AcDbArc
 50
180.0
 51
236.1449738717076
  0
LINE
  5
1569
330
2
100
AcDbEntity
  8
画層1
 62
     3
100
AcDbLine
 10
280.5305818396356
 20
-670.7218044443027
 30
0.0
 11
279.5305818396355
 21
-672.5968044443027
 31
0.0
  0
ARC
  5
156A
330
2
100
AcDbEntity
  8
画層1
 62
     3
100
AcDbCircle
 10
287.0618318396356
 20
-678.2218044443027
 30
0.0
 40
7.53125
100
AcDbArc
 50
150.1371656437263
 51
209.8628343562736
  0
LINE
  5
156B
330
2
100
AcDbEntity
  8
画層1
 62
     3
100
AcDbLine
 10
288.0305818396355
 20
-687.7218044443027
 30
0.0
 11
288.0305818396355
 21
-668.7218044443027
 31
0.0
  0
LINE
  5
156C
330
2
100
AcDbEntity
  8
画層1
 62
     3
100
AcDbLine
 10
286.5305818396356
 20
-686.2218044443027
 30
0.0
 11
286.5305818396356
 21
-670.2218044443027
 31
0.0
  0
LINE
  5
156D
330
2
100
AcDbEntity
  8
画層1
 62
     3
100
AcDbLine
 10
288.0305818396355
 20
-686.2218044443027
 30
0.0
 11
286.5305818396356
 21
-686.2218044443027
 31
0.0
  0
LINE
  5
156E
330
2
100
AcDbEntity
  8
画層1
 62
     3
100
AcDbLine
 10
286.5305818396356
 20
-670.2218044443027
 30
0.0
 11
288.0305818396355
 21
-670.2218044443027
 31
0.0
  0
LINE
  5
156F
330
2
100
AcDbEntity
  8
画層1
 62
     3
100
AcDbLine
 10
288.0305818396355
 20
-668.7218044443027
 30
0.0
 11
289.0305818396356
 21
-668.7218044443027
 31
0.0
  0
LINE
  5
1570
330
2
100
AcDbEntity
  8
画層1
 62
     3
100
AcDbLine
 10
288.0305818396355
 20
-687.7218044443027
 30
0.0
 11
289.0305818396356
 21
-687.7218044443027
 31
0.0
  0
LINE
  5
1573
330
2
100
AcDbEntity
  8
画層1
 62
     3
100
AcDbLine
 10
595.4389206732846
 20
-628.9218044443027
 30
0.0
 11
592.0389206732846
 21
-628.9218044443027
 31
0.0
  0
LINE
  5
1574
330
2
100
AcDbEntity
  8
画層1
 62
     3
100
AcDbLine
 10
594.6389206732849
 20
-629.7218044443027
 30
0.0
 11
592.0389206732846
 21
-629.7218044443026
 31
0.0
  0
LINE
  5
1575
330
2
100
AcDbEntity
  8
画層1
 62
     3
100
AcDbLine
 10
589.4389206732846
 20
-627.5218044443028
 30
0.0
 11
590.4389206732846
 21
-627.5218044443028
 31
0.0
  0
LINE
  5
1576
330
2
100
AcDbEntity
  8
画層1
 62
     3
100
AcDbLine
 10
589.4389206732846
 20
-626.7218044443027
 30
0.0
 11
590.4389206732846
 21
-626.7218044443027
 31
0.0
  0
ARC
  5
1577
330
2
100
AcDbEntity
  8
画層1
 62
     3
100
AcDbCircle
 10
587.4389206732846
 20
-629.8218044443029
 30
0.0
 40
1.0
100
AcDbArc
 50
180.0
 51
270.0
  0
ARC
  5
1578
330
2
100
AcDbEntity
  8
画層1
 62
     3
100
AcDbCircle
 10
587.4389206732846
 20
-626.6218044443029
 30
0.0
 40
1.0
100
AcDbArc
 50
90.0
 51
180.0
  0
LINE
  5
1579
330
2
100
AcDbEntity
  8
画層1
 62
     3
100
AcDbLine
 10
586.4389206732847
 20
-628.6218044443029
 30
0.0
 11
587.0389206732845
 21
-628.6218044443029
 31
0.0
  0
LINE
  5
157A
330
2
100
AcDbEntity
  8
画層1
 62
     3
100
AcDbLine
 10
587.0389206732845
 20
-627.8218044443028
 30
0.0
 11
586.4389206732847
 21
-627.8218044443028
 31
0.0
  0
LINE
  5
157B
330
2
100
AcDbEntity
  8
画層1
 62
     3
100
AcDbLine
 10
586.4389206732847
 20
-626.6218044443029
 30
0.0
 11
586.4389206732847
 21
-629.8218044443029
 31
0.0
  0
LINE
  5
157C
330
2
100
AcDbEntity
  8
画層1
 62
     3
100
AcDbLine
 10
588.8389206732846
 20
-624.4218044443027
 30
0.0
 11
588.2389206732845
 21
-625.6218044443029
 31
0.0
  0
LINE
  5
157D
330
2
100
AcDbEntity
  8
画層1
 62
     3
100
AcDbLine
 10
588.2389206732845
 20
-625.6218044443029
 30
0.0
 11
588.2389206732845
 21
-630.8218044443028
 31
0.0
  0
LINE
  5
157E
330
2
100
AcDbEntity
  8
画層1
 62
     3
100
AcDbLine
 10
588.2389206732845
 20
-630.8218044443028
 30
0.0
 11
588.8389206732846
 21
-632.0218044443028
 31
0.0
  0
LINE
  5
157F
330
2
100
AcDbEntity
  8
画層1
 62
     3
100
AcDbLine
 10
588.8389206732846
 20
-632.0218044443028
 30
0.0
 11
589.4389206732846
 21
-632.0218044443028
 31
0.0
  0
LINE
  5
1580
330
2
100
AcDbEntity
  8
画層1
 62
     3
100
AcDbLine
 10
589.4389206732846
 20
-624.4218044443027
 30
0.0
 11
588.8389206732846
 21
-624.4218044443027
 31
0.0
  0
LINE
  5
1581
330
2
100
AcDbEntity
  8
画層1
 62
     3
100
AcDbLine
 10
587.0389206732845
 20
-628.6218044443029
 30
0.0
 11
587.0389206732845
 21
-627.8218044443028
 31
0.0
  0
LINE
  5
1582
330
2
100
AcDbEntity
  8
画層1
 62
     3
100
AcDbLine
 10
587.4389206732846
 20
-630.8218044443028
 30
0.0
 11
588.2389206732845
 21
-630.8218044443028
 31
0.0
  0
LINE
  5
1583
330
2
100
AcDbEntity
  8
画層1
 62
     3
100
AcDbLine
 10
588.2389206732845
 20
-625.6218044443029
 30
0.0
 11
587.4389206732846
 21
-625.6218044443029
 31
0.0
  0
LINE
  5
1584
330
2
100
AcDbEntity
  8
画層1
 62
     3
100
AcDbLine
 10
595.4389206732846
 20
-627.5218044443028
 30
0.0
 11
595.4389206732846
 21
-628.9218044443027
 31
0.0
  0
LINE
  5
1585
330
2
100
AcDbEntity
  8
画層1
 62
     3
100
AcDbLine
 10
594.6389206732849
 20
-626.7218044443027
 30
0.0
 11
594.6389206732849
 21
-629.7218044443027
 31
0.0
  0
LINE
  5
1586
330
2
100
AcDbEntity
  8
画層1
 62
     3
100
AcDbLine
 10
595.4389206732846
 20
-628.9218044443027
 30
0.0
 11
594.6389206732849
 21
-629.7218044443027
 31
0.0
  0
LINE
  5
1587
330
2
100
AcDbEntity
  8
画層1
 62
     3
100
AcDbLine
 10
594.6389206732849
 20
-626.7218044443027
 30
0.0
 11
595.4389206732846
 21
-627.5218044443028
 31
0.0
  0
LINE
  5
1589
330
2
100
AcDbEntity
  8
画層1
 62
     3
100
AcDbLine
 10
590.4389206732846
 20
-626.2218044443028
 30
0.0
 11
589.4389206732846
 21
-626.2218044443028
 31
0.0
  0
LINE
  5
158A
330
2
100
AcDbEntity
  8
画層1
 62
     3
100
AcDbLine
 10
590.4389206732846
 20
-630.2218044443028
 30
0.0
 11
589.4389206732846
 21
-630.2218044443028
 31
0.0
  0
LINE
  5
158B
330
2
100
AcDbEntity
  8
画層1
 62
     3
100
AcDbLine
 10
590.4389206732846
 20
-629.7218044443027
 30
0.0
 11
589.4389206732846
 21
-629.7218044443027
 31
0.0
  0
LINE
  5
158C
330
2
100
AcDbEntity
  8
画層1
 62
     3
100
AcDbLine
 10
590.4389206732846
 20
-628.9218044443027
 30
0.0
 11
589.4389206732846
 21
-628.9218044443027
 31
0.0
  0
LINE
  5
158D
330
2
100
AcDbEntity
  8
画層1
 62
     3
100
AcDbLine
 10
592.0389206732846
 20
-627.5218044443028
 30
0.0
 11
595.4389206732846
 21
-627.5218044443028
 31
0.0
  0
LINE
  5
158E
330
2
100
AcDbEntity
  8
画層1
 62
     3
100
AcDbLine
 10
592.0389206732846
 20
-626.7218044443027
 30
0.0
 11
594.6389206732849
 21
-626.7218044443027
 31
0.0
  0
LINE
  5
158F
330
2
100
AcDbEntity
  8
画層1
 62
     3
100
AcDbLine
 10
592.0389206732846
 20
-946.7218044443027
 30
0.0
 11
594.6389206732849
 21
-946.7218044443027
 31
0.0
  0
LINE
  5
1590
330
2
100
AcDbEntity
  8
画層1
 62
     3
100
AcDbLine
 10
592.0389206732846
 20
-947.5218044443028
 30
0.0
 11
595.4389206732846
 21
-947.5218044443028
 31
0.0
  0
LINE
  5
1591
330
2
100
AcDbEntity
  8
画層1
 62
     3
100
AcDbLine
 10
595.4389206732846
 20
-948.9218044443028
 30
0.0
 11
592.0389206732846
 21
-948.9218044443028
 31
0.0
  0
LINE
  5
1592
330
2
100
AcDbEntity
  8
画層1
 62
     3
100
AcDbLine
 10
594.6389206732849
 20
-949.7218044443027
 30
0.0
 11
592.0389206732846
 21
-949.7218044443027
 31
0.0
  0
LINE
  5
1593
330
2
100
AcDbEntity
  8
画層1
 62
     3
100
AcDbLine
 10
588.2389206732845
 20
-945.621804444303
 30
0.0
 11
588.2389206732845
 21
-950.8218044443028
 31
0.0
  0
LINE
  5
1594
330
2
100
AcDbEntity
  8
画層1
 62
     3
100
AcDbLine
 10
586.4389206732846
 20
-946.621804444303
 30
0.0
 11
586.4389206732846
 21
-949.8218044443028
 31
0.0
  0
LINE
  5
1595
330
2
100
AcDbEntity
  8
画層1
 62
     3
100
AcDbLine
 10
587.4389206732846
 20
-950.8218044443028
 30
0.0
 11
588.2389206732845
 21
-950.8218044443028
 31
0.0
  0
LINE
  5
1596
330
2
100
AcDbEntity
  8
画層1
 62
     3
100
AcDbLine
 10
587.0389206732845
 20
-948.6218044443029
 30
0.0
 11
587.0389206732845
 21
-947.8218044443028
 31
0.0
  0
LINE
  5
1597
330
2
100
AcDbEntity
  8
画層1
 62
     3
100
AcDbLine
 10
587.0389206732845
 20
-947.8218044443028
 30
0.0
 11
586.4389206732846
 21
-947.8218044443028
 31
0.0
  0
LINE
  5
1598
330
2
100
AcDbEntity
  8
画層1
 62
     3
100
AcDbLine
 10
586.4389206732846
 20
-948.6218044443029
 30
0.0
 11
587.0389206732845
 21
-948.6218044443029
 31
0.0
  0
ARC
  5
1599
330
2
100
AcDbEntity
  8
画層1
 62
     3
100
AcDbCircle
 10
587.4389206732846
 20
-949.8218044443028
 30
0.0
 40
1.0
100
AcDbArc
 50
180.0
 51
270.0
  0
LINE
  5
159A
330
2
100
AcDbEntity
  8
画層1
 62
     3
100
AcDbLine
 10
589.4389206732846
 20
-947.5218044443028
 30
0.0
 11
590.4389206732846
 21
-947.5218044443028
 31
0.0
  0
LINE
  5
159B
330
2
100
AcDbEntity
  8
画層1
 62
     3
100
AcDbLine
 10
590.4389206732846
 20
-948.9218044443028
 30
0.0
 11
589.4389206732846
 21
-948.9218044443028
 31
0.0
  0
LINE
  5
159C
330
2
100
AcDbEntity
  8
画層1
 62
     3
100
AcDbLine
 10
590.4389206732846
 20
-949.7218044443027
 30
0.0
 11
589.4389206732846
 21
-949.7218044443027
 31
0.0
  0
LINE
  5
159D
330
2
100
AcDbEntity
  8
画層1
 62
     3
100
AcDbLine
 10
590.4389206732846
 20
-950.2218044443027
 30
0.0
 11
589.4389206732846
 21
-950.2218044443027
 31
0.0
  0
LINE
  5
159E
330
2
100
AcDbEntity
  8
画層1
 62
     3
100
AcDbLine
 10
588.8389206732845
 20
-952.0218044443028
 30
0.0
 11
589.4389206732846
 21
-952.0218044443028
 31
0.0
  0
LINE
  5
159F
330
2
100
AcDbEntity
  8
画層1
 62
     3
100
AcDbLine
 10
588.2389206732845
 20
-950.8218044443028
 30
0.0
 11
588.8389206732845
 21
-952.0218044443028
 31
0.0
  0
LINE
  5
15A0
330
2
100
AcDbEntity
  8
画層1
 62
     3
100
AcDbLine
 10
588.2389206732845
 20
-945.621804444303
 30
0.0
 11
587.4389206732846
 21
-945.621804444303
 31
0.0
  0
ARC
  5
15A1
330
2
100
AcDbEntity
  8
画層1
 62
     3
100
AcDbCircle
 10
587.4389206732846
 20
-946.621804444303
 30
0.0
 40
1.0
100
AcDbArc
 50
90.0
 51
180.0
  0
LINE
  5
15A2
330
2
100
AcDbEntity
  8
画層1
 62
     3
100
AcDbLine
 10
589.4389206732846
 20
-946.7218044443027
 30
0.0
 11
590.4389206732846
 21
-946.7218044443027
 31
0.0
  0
LINE
  5
15A3
330
2
100
AcDbEntity
  8
画層1
 62
     3
100
AcDbLine
 10
590.4389206732846
 20
-946.2218044443028
 30
0.0
 11
589.4389206732846
 21
-946.2218044443028
 31
0.0
  0
LINE
  5
15A4
330
2
100
AcDbEntity
  8
画層1
 62
     3
100
AcDbLine
 10
589.4389206732846
 20
-944.4218044443028
 30
0.0
 11
588.8389206732845
 21
-944.4218044443028
 31
0.0
  0
LINE
  5
15A5
330
2
100
AcDbEntity
  8
画層1
 62
     3
100
AcDbLine
 10
588.8389206732845
 20
-944.4218044443028
 30
0.0
 11
588.2389206732845
 21
-945.621804444303
 31
0.0
  0
LINE
  5
15A6
330
2
100
AcDbEntity
  8
画層1
 62
     3
100
AcDbLine
 10
594.6389206732849
 20
-946.7218044443027
 30
0.0
 11
595.4389206732846
 21
-947.5218044443028
 31
0.0
  0
LINE
  5
15A7
330
2
100
AcDbEntity
  8
画層1
 62
     3
100
AcDbLine
 10
594.6389206732849
 20
-946.7218044443027
 30
0.0
 11
594.6389206732849
 21
-949.7218044443027
 31
0.0
  0
LINE
  5
15A8
330
2
100
AcDbEntity
  8
画層1
 62
     3
100
AcDbLine
 10
595.4389206732846
 20
-948.9218044443028
 30
0.0
 11
594.6389206732849
 21
-949.7218044443027
 31
0.0
  0
LINE
  5
15A9
330
2
100
AcDbEntity
  8
画層1
 62
     3
100
AcDbLine
 10
595.4389206732846
 20
-947.5218044443028
 30
0.0
 11
595.4389206732846
 21
-948.9218044443028
 31
0.0
  0
LINE
  5
15AC
330
2
100
AcDbEntity
  8
画層1
  6
DASHED2
 62
     2
100
AcDbLine
 10
616.9389206732845
 20
-724.8218044443027
 30
0.0
 11
616.9389206732845
 21
-727.6218044443027
 31
0.0
  0
LINE
  5
15AD
330
2
100
AcDbEntity
  8
画層1
  6
DASHED2
 62
     2
100
AcDbLine
 10
620.9389206732845
 20
-722.7218044443027
 30
0.0
 11
620.9389206732845
 21
-729.7218044443027
 31
0.0
  0
LINE
  5
15AE
330
2
100
AcDbEntity
  8
画層1
  6
DASHED2
 62
     2
100
AcDbLine
 10
622.9389206732845
 20
-722.2218044443028
 30
0.0
 11
622.9389206732845
 21
-730.2218044443027
 31
0.0
  0
LINE
  5
15AF
330
2
100
AcDbEntity
  8
画層1
  6
DASHED2
 62
     2
100
AcDbLine
 10
620.1389206732848
 20
-723.2218044443027
 30
0.0
 11
620.1389206732848
 21
-729.2218044443027
 31
0.0
  0
LINE
  5
15B0
330
2
100
AcDbEntity
  8
画層1
  6
DASHED2
 62
     2
100
AcDbLine
 10
602.9389206732846
 20
-732.2218044443027
 30
0.0
 11
602.9389206732846
 21
-724.4218044443027
 31
0.0
  0
LINE
  5
15B1
330
2
100
AcDbEntity
  8
画層1
  6
DASHED2
 62
     2
100
AcDbLine
 10
628.9389206732845
 20
-639.2218044443027
 30
0.0
 11
628.9389206732845
 21
-732.2218044443027
 31
0.0
  0
LINE
  5
15B2
330
2
100
AcDbEntity
  8
画層1
  6
DASHED2
 62
     2
100
AcDbLine
 10
602.9389206732846
 20
-730.2218044443027
 30
0.0
 11
622.9389206732845
 21
-730.2218044443027
 31
0.0
  0
LINE
  5
15B3
330
2
100
AcDbEntity
  8
画層1
  6
DASHED2
 62
     2
100
AcDbLine
 10
628.9389206732845
 20
-732.2218044443027
 30
0.0
 11
602.9389206732846
 21
-732.2218044443027
 31
0.0
  0
ARC
  5
15B4
330
2
100
AcDbEntity
  8
画層1
  6
DASHED2
 62
     2
100
AcDbCircle
 10
618.5389206732845
 20
-727.6218044443027
 30
0.0
 40
1.6
100
AcDbArc
 50
180.0
 51
270.0
  0
LINE
  5
15B5
330
2
100
AcDbEntity
  8
画層1
  6
DASHED2
 62
     2
100
AcDbLine
 10
620.9389206732845
 20
-729.7218044443027
 30
0.0
 11
622.9389206732845
 21
-729.7218044443027
 31
0.0
  0
LINE
  5
15B6
330
2
100
AcDbEntity
  8
画層1
  6
DASHED2
 62
     2
100
AcDbLine
 10
618.5389206732845
 20
-729.2218044443027
 30
0.0
 11
620.9389206732845
 21
-729.2218044443027
 31
0.0
  0
LINE
  5
15B7
330
2
100
AcDbEntity
  8
画層1
  6
DASHED2
 62
     2
100
AcDbLine
 10
602.9389206732846
 20
-688.2218044443027
 30
0.0
 11
611.9389206732848
 21
-688.2218044443027
 31
0.0
  0
LINE
  5
15B8
330
2
100
AcDbEntity
  8
画層1
  6
DASHED2
 62
     2
100
AcDbLine
 10
611.9389206732848
 20
-686.8218044443027
 30
0.0
 11
602.9389206732846
 21
-686.8218044443027
 31
0.0
  0
LINE
  5
15B9
330
2
100
AcDbEntity
  8
画層1
  6
DASHED2
 62
     2
100
AcDbLine
 10
602.9389206732846
 20
-669.4218044443028
 30
0.0
 11
611.9389206732848
 21
-669.4218044443028
 31
0.0
  0
LINE
  5
15BA
330
2
100
AcDbEntity
  8
画層1
  6
DASHED2
 62
     2
100
AcDbLine
 10
611.9389206732848
 20
-668.0218044443027
 30
0.0
 11
602.9389206732846
 21
-668.0218044443027
 31
0.0
  0
LINE
  5
15BB
330
2
100
AcDbEntity
  8
画層1
  6
DASHED2
 62
     2
100
AcDbLine
 10
611.9389206732848
 20
-677.4218044443028
 30
0.0
 11
602.9389206732846
 21
-677.4218044443028
 31
0.0
  0
LINE
  5
15BC
330
2
100
AcDbEntity
  8
画層1
  6
DASHED2
 62
     2
100
AcDbLine
 10
602.9389206732846
 20
-678.8218044443028
 30
0.0
 11
611.9389206732848
 21
-678.8218044443028
 31
0.0
  0
LINE
  5
15BD
330
2
100
AcDbEntity
  8
画層1
  6
DASHED2
 62
     2
100
AcDbLine
 10
602.9389206732846
 20
-650.6218044443029
 30
0.0
 11
611.9389206732848
 21
-650.6218044443029
 31
0.0
  0
LINE
  5
15BE
330
2
100
AcDbEntity
  8
画層1
  6
DASHED2
 62
     2
100
AcDbLine
 10
602.9389206732846
 20
-660.0218044443029
 30
0.0
 11
611.9389206732848
 21
-660.0218044443029
 31
0.0
  0
LINE
  5
15BF
330
2
100
AcDbEntity
  8
画層1
  6
DASHED2
 62
     2
100
AcDbLine
 10
611.9389206732848
 20
-658.6218044443029
 30
0.0
 11
602.9389206732846
 21
-658.6218044443029
 31
0.0
  0
LINE
  5
15C0
330
2
100
AcDbEntity
  8
画層1
  6
DASHED2
 62
     2
100
AcDbLine
 10
602.9389206732846
 20
-641.2218044443027
 30
0.0
 11
615.4389206732846
 21
-641.2218044443027
 31
0.0
  0
LINE
  5
15C1
330
2
100
AcDbEntity
  8
画層1
  6
DASHED2
 62
     2
100
AcDbLine
 10
611.9389206732848
 20
-649.2218044443027
 30
0.0
 11
602.9389206732846
 21
-649.2218044443027
 31
0.0
  0
LINE
  5
15C2
330
2
100
AcDbEntity
  8
画層1
  6
DASHED2
 62
     2
100
AcDbLine
 10
602.9389206732846
 20
-639.2218044443027
 30
0.0
 11
628.9389206732845
 21
-639.2218044443027
 31
0.0
  0
LINE
  5
15C3
330
2
100
AcDbEntity
  8
画層1
  6
DASHED2
 62
     2
100
AcDbLine
 10
611.9389206732848
 20
-724.4218044443027
 30
0.0
 11
602.9389206732846
 21
-724.4218044443027
 31
0.0
  0
LINE
  5
15C4
330
2
100
AcDbEntity
  8
画層1
  6
DASHED2
 62
     2
100
AcDbLine
 10
602.9389206732846
 20
-716.4218044443027
 30
0.0
 11
611.9389206732848
 21
-716.4218044443027
 31
0.0
  0
LINE
  5
15C5
330
2
100
AcDbEntity
  8
画層1
  6
DASHED2
 62
     2
100
AcDbLine
 10
611.9389206732848
 20
-715.0218044443028
 30
0.0
 11
602.9389206732846
 21
-715.0218044443028
 31
0.0
  0
LINE
  5
15C6
330
2
100
AcDbEntity
  8
画層1
  6
DASHED2
 62
     2
100
AcDbLine
 10
611.9389206732848
 20
-705.6218044443028
 30
0.0
 11
602.9389206732846
 21
-705.6218044443028
 31
0.0
  0
LINE
  5
15C7
330
2
100
AcDbEntity
  8
画層1
  6
DASHED2
 62
     2
100
AcDbLine
 10
602.9389206732846
 20
-707.0218044443028
 30
0.0
 11
611.9389206732848
 21
-707.0218044443028
 31
0.0
  0
LINE
  5
15C8
330
2
100
AcDbEntity
  8
画層1
  6
DASHED2
 62
     2
100
AcDbLine
 10
602.9389206732846
 20
-697.6218044443028
 30
0.0
 11
611.9389206732848
 21
-697.6218044443028
 31
0.0
  0
LINE
  5
15C9
330
2
100
AcDbEntity
  8
画層1
  6
DASHED2
 62
     2
100
AcDbLine
 10
611.9389206732848
 20
-696.2218044443027
 30
0.0
 11
602.9389206732846
 21
-696.2218044443027
 31
0.0
  0
LINE
  5
15CA
330
2
100
AcDbEntity
  8
画層1
  6
DASHED2
 62
     2
100
AcDbLine
 10
602.9389206732846
 20
-715.0218044443028
 30
0.0
 11
602.9389206732846
 21
-716.4218044443027
 31
0.0
  0
LINE
  5
15CB
330
2
100
AcDbEntity
  8
画層1
  6
DASHED2
 62
     2
100
AcDbLine
 10
602.9389206732846
 20
-705.6218044443028
 30
0.0
 11
602.9389206732846
 21
-707.0218044443028
 31
0.0
  0
LINE
  5
15CC
330
2
100
AcDbEntity
  8
画層1
  6
DASHED2
 62
     2
100
AcDbLine
 10
602.9389206732846
 20
-696.2218044443027
 30
0.0
 11
602.9389206732846
 21
-697.6218044443028
 31
0.0
  0
LINE
  5
15CD
330
2
100
AcDbEntity
  8
画層1
  6
DASHED2
 62
     2
100
AcDbLine
 10
602.9389206732846
 20
-677.4218044443028
 30
0.0
 11
602.9389206732846
 21
-678.8218044443028
 31
0.0
  0
LINE
  5
15CE
330
2
100
AcDbEntity
  8
画層1
  6
DASHED2
 62
     2
100
AcDbLine
 10
602.9389206732846
 20
-686.8218044443027
 30
0.0
 11
602.9389206732846
 21
-688.2218044443027
 31
0.0
  0
LINE
  5
15CF
330
2
100
AcDbEntity
  8
画層1
  6
DASHED2
 62
     2
100
AcDbLine
 10
602.9389206732846
 20
-649.2218044443027
 30
0.0
 11
602.9389206732846
 21
-650.6218044443029
 31
0.0
  0
LINE
  5
15D0
330
2
100
AcDbEntity
  8
画層1
  6
DASHED2
 62
     2
100
AcDbLine
 10
602.9389206732846
 20
-668.0218044443027
 30
0.0
 11
602.9389206732846
 21
-669.4218044443028
 31
0.0
  0
LINE
  5
15D1
330
2
100
AcDbEntity
  8
画層1
  6
DASHED2
 62
     2
100
AcDbLine
 10
602.9389206732846
 20
-658.6218044443029
 30
0.0
 11
602.9389206732846
 21
-660.0218044443029
 31
0.0
  0
LINE
  5
15D2
330
2
100
AcDbEntity
  8
画層1
  6
DASHED2
 62
     2
100
AcDbLine
 10
602.9389206732846
 20
-639.2218044443027
 30
0.0
 11
602.9389206732846
 21
-641.2218044443027
 31
0.0
  0
LINE
  5
15D3
330
2
100
AcDbEntity
  8
画層1
  6
DASHED2
 62
     2
100
AcDbLine
 10
622.9389206732845
 20
-675.2218044443027
 30
0.0
 11
622.9389206732845
 21
-683.2218044443027
 31
0.0
  0
LINE
  5
15D4
330
2
100
AcDbEntity
  8
画層1
  6
DASHED2
 62
     2
100
AcDbLine
 10
609.9389206732849
 20
-669.9218044443028
 30
0.0
 11
609.9389206732849
 21
-676.9218044443028
 31
0.0
  0
LINE
  5
15D5
330
2
100
AcDbEntity
  8
画層1
  6
DASHED2
 62
     2
100
AcDbLine
 10
611.9389206732848
 20
-669.4218044443028
 30
0.0
 11
611.9389206732848
 21
-677.4218044443028
 31
0.0
  0
ARC
  5
15D6
330
2
100
AcDbEntity
  8
画層1
  6
DASHED2
 62
     2
100
AcDbCircle
 10
607.5389206732845
 20
-674.8218044443028
 30
0.0
 40
1.6
100
AcDbArc
 50
180.0
 51
270.0
  0
LINE
  5
15D7
330
2
100
AcDbEntity
  8
画層1
  6
DASHED2
 62
     2
100
AcDbLine
 10
609.1389206732848
 20
-670.4218044443027
 30
0.0
 11
609.1389206732848
 21
-676.4218044443027
 31
0.0
  0
ARC
  5
15D8
330
2
100
AcDbEntity
  8
画層1
  6
DASHED2
 62
     2
100
AcDbCircle
 10
618.5389206732845
 20
-699.4218044443027
 30
0.0
 40
1.6
100
AcDbArc
 50
180.0
 51
270.0
  0
LINE
  5
15D9
330
2
100
AcDbEntity
  8
画層1
  6
DASHED2
 62
     2
100
AcDbLine
 10
609.9389206732849
 20
-698.1218044443028
 30
0.0
 11
609.9389206732849
 21
-705.1218044443028
 31
0.0
  0
LINE
  5
15DA
330
2
100
AcDbEntity
  8
画層1
  6
DASHED2
 62
     2
100
AcDbLine
 10
611.9389206732848
 20
-697.6218044443028
 30
0.0
 11
611.9389206732848
 21
-705.6218044443028
 31
0.0
  0
LINE
  5
15DB
330
2
100
AcDbEntity
  8
画層1
  6
DASHED2
 62
     2
100
AcDbLine
 10
605.9389206732845
 20
-700.2218044443027
 30
0.0
 11
605.9389206732845
 21
-703.0218044443028
 31
0.0
  0
LINE
  5
15DC
330
2
100
AcDbEntity
  8
画層1
  6
DASHED2
 62
     2
100
AcDbLine
 10
609.1389206732848
 20
-698.6218044443027
 30
0.0
 11
609.1389206732848
 21
-704.6218044443028
 31
0.0
  0
LINE
  5
15DD
330
2
100
AcDbEntity
  8
画層1
  6
DASHED2
 62
     2
100
AcDbLine
 10
620.9389206732845
 20
-694.5218044443028
 30
0.0
 11
620.9389206732845
 21
-701.5218044443027
 31
0.0
  0
LINE
  5
15DE
330
2
100
AcDbEntity
  8
画層1
  6
DASHED2
 62
     2
100
AcDbLine
 10
622.9389206732845
 20
-694.0218044443029
 30
0.0
 11
622.9389206732845
 21
-702.0218044443029
 31
0.0
  0
LINE
  5
15DF
330
2
100
AcDbEntity
  8
画層1
  6
DASHED2
 62
     2
100
AcDbLine
 10
620.1389206732848
 20
-695.0218044443028
 30
0.0
 11
620.1389206732848
 21
-701.0218044443027
 31
0.0
  0
ARC
  5
15E0
330
2
100
AcDbEntity
  8
画層1
  6
DASHED2
 62
     2
100
AcDbCircle
 10
618.5389206732845
 20
-706.0218044443027
 30
0.0
 40
1.6
100
AcDbArc
 50
90.0
 51
180.0
  0
ARC
  5
15E1
330
2
100
AcDbEntity
  8
画層1
  6
DASHED2
 62
     2
100
AcDbCircle
 10
618.5389206732845
 20
-718.2218044443028
 30
0.0
 40
1.6
100
AcDbArc
 50
180.0
 51
270.0
  0
ARC
  5
15E2
330
2
100
AcDbEntity
  8
画層1
  6
DASHED2
 62
     2
100
AcDbCircle
 10
618.5389206732845
 20
-715.4218044443027
 30
0.0
 40
1.6
100
AcDbArc
 50
90.0
 51
180.0
  0
ARC
  5
15E3
330
2
100
AcDbEntity
  8
画層1
  6
DASHED2
 62
     2
100
AcDbCircle
 10
618.5389206732845
 20
-708.8218044443027
 30
0.0
 40
1.6
100
AcDbArc
 50
180.0
 51
270.0
  0
LINE
  5
15E4
330
2
100
AcDbEntity
  8
画層1
  6
DASHED2
 62
     2
100
AcDbLine
 10
622.9389206732845
 20
-720.8218044443027
 30
0.0
 11
613.9389206732845
 21
-720.8218044443027
 31
0.0
  0
LINE
  5
15E5
330
2
100
AcDbEntity
  8
画層1
  6
DASHED2
 62
     2
100
AcDbLine
 10
613.9389206732845
 20
-722.2218044443028
 30
0.0
 11
622.9389206732845
 21
-722.2218044443028
 31
0.0
  0
LINE
  5
15E6
330
2
100
AcDbEntity
  8
画層1
  6
DASHED2
 62
     2
100
AcDbLine
 10
613.9389206732845
 20
-712.8218044443029
 30
0.0
 11
622.9389206732845
 21
-712.8218044443029
 31
0.0
  0
LINE
  5
15E7
330
2
100
AcDbEntity
  8
画層1
  6
DASHED2
 62
     2
100
AcDbLine
 10
622.9389206732845
 20
-711.4218044443027
 30
0.0
 11
613.9389206732845
 21
-711.4218044443027
 31
0.0
  0
LINE
  5
15E8
330
2
100
AcDbEntity
  8
画層1
  6
DASHED2
 62
     2
100
AcDbLine
 10
613.9389206732845
 20
-703.4218044443028
 30
0.0
 11
622.9389206732845
 21
-703.4218044443028
 31
0.0
  0
LINE
  5
15E9
330
2
100
AcDbEntity
  8
画層1
  6
DASHED2
 62
     2
100
AcDbLine
 10
622.9389206732845
 20
-702.0218044443029
 30
0.0
 11
613.9389206732845
 21
-702.0218044443029
 31
0.0
  0
ARC
  5
15EA
330
2
100
AcDbEntity
  8
画層1
  6
DASHED2
 62
     2
100
AcDbCircle
 10
618.5389206732845
 20
-724.8218044443027
 30
0.0
 40
1.6
100
AcDbArc
 50
90.0
 51
180.0
  0
ARC
  5
15EB
330
2
100
AcDbEntity
  8
画層1
  6
DASHED2
 62
     2
100
AcDbCircle
 10
607.5389206732845
 20
-712.4218044443026
 30
0.0
 40
1.6
100
AcDbArc
 50
180.0
 51
270.0
  0
LINE
  5
15EC
330
2
100
AcDbEntity
  8
画層1
  6
DASHED2
 62
     2
100
AcDbLine
 10
611.9389206732848
 20
-707.0218044443028
 30
0.0
 11
611.9389206732848
 21
-715.0218044443028
 31
0.0
  0
LINE
  5
15ED
330
2
100
AcDbEntity
  8
画層1
  6
DASHED2
 62
     2
100
AcDbLine
 10
609.9389206732849
 20
-707.5218044443028
 30
0.0
 11
609.9389206732849
 21
-714.5218044443027
 31
0.0
  0
LINE
  5
15EE
330
2
100
AcDbEntity
  8
画層1
  6
DASHED2
 62
     2
100
AcDbLine
 10
609.1389206732848
 20
-708.0218044443028
 30
0.0
 11
609.1389206732848
 21
-714.0218044443027
 31
0.0
  0
LINE
  5
15EF
330
2
100
AcDbEntity
  8
画層1
  6
DASHED2
 62
     2
100
AcDbLine
 10
609.9389206732849
 20
-714.5218044443027
 30
0.0
 11
611.9389206732848
 21
-714.5218044443027
 31
0.0
  0
LINE
  5
15F0
330
2
100
AcDbEntity
  8
画層1
  6
DASHED2
 62
     2
100
AcDbLine
 10
611.9389206732848
 20
-716.9218044443027
 30
0.0
 11
609.9389206732849
 21
-716.9218044443027
 31
0.0
  0
LINE
  5
15F1
330
2
100
AcDbEntity
  8
画層1
  6
DASHED2
 62
     2
100
AcDbLine
 10
609.9389206732849
 20
-723.9218044443027
 30
0.0
 11
611.9389206732848
 21
-723.9218044443027
 31
0.0
  0
ARC
  5
15F2
330
2
100
AcDbEntity
  8
画層1
  6
DASHED2
 62
     2
100
AcDbCircle
 10
607.5389206732845
 20
-719.0218044443028
 30
0.0
 40
1.6
100
AcDbArc
 50
90.0
 51
180.0
  0
LINE
  5
15F3
330
2
100
AcDbEntity
  8
画層1
  6
DASHED2
 62
     2
100
AcDbLine
 10
609.1389206732848
 20
-717.4218044443026
 30
0.0
 11
609.1389206732848
 21
-723.4218044443026
 31
0.0
  0
LINE
  5
15F4
330
2
100
AcDbEntity
  8
画層1
  6
DASHED2
 62
     2
100
AcDbLine
 10
605.9389206732845
 20
-719.0218044443028
 30
0.0
 11
605.9389206732845
 21
-721.8218044443027
 31
0.0
  0
ARC
  5
15F5
330
2
100
AcDbEntity
  8
画層1
  6
DASHED2
 62
     2
100
AcDbCircle
 10
607.5389206732845
 20
-721.8218044443027
 30
0.0
 40
1.6
100
AcDbArc
 50
180.0
 51
270.0
  0
LINE
  5
15F6
330
2
100
AcDbEntity
  8
画層1
  6
DASHED2
 62
     2
100
AcDbLine
 10
607.5389206732845
 20
-723.4218044443026
 30
0.0
 11
609.9389206732849
 21
-723.4218044443026
 31
0.0
  0
LINE
  5
15F7
330
2
100
AcDbEntity
  8
画層1
  6
DASHED2
 62
     2
100
AcDbLine
 10
607.5389206732845
 20
-714.0218044443027
 30
0.0
 11
609.9389206732849
 21
-714.0218044443027
 31
0.0
  0
LINE
  5
15F8
330
2
100
AcDbEntity
  8
画層1
  6
DASHED2
 62
     2
100
AcDbLine
 10
609.9389206732849
 20
-717.4218044443026
 30
0.0
 11
607.5389206732845
 21
-717.4218044443026
 31
0.0
  0
LINE
  5
15F9
330
2
100
AcDbEntity
  8
画層1
  6
DASHED2
 62
     2
100
AcDbLine
 10
609.9389206732849
 20
-716.9218044443027
 30
0.0
 11
609.9389206732849
 21
-723.9218044443027
 31
0.0
  0
LINE
  5
15FA
330
2
100
AcDbEntity
  8
画層1
  6
DASHED2
 62
     2
100
AcDbLine
 10
613.9389206732845
 20
-720.8218044443027
 30
0.0
 11
613.9389206732845
 21
-722.2218044443028
 31
0.0
  0
LINE
  5
15FB
330
2
100
AcDbEntity
  8
画層1
  6
DASHED2
 62
     2
100
AcDbLine
 10
611.9389206732848
 20
-716.4218044443027
 30
0.0
 11
611.9389206732848
 21
-724.4218044443027
 31
0.0
  0
LINE
  5
15FC
330
2
100
AcDbEntity
  8
画層1
  6
DASHED2
 62
     2
100
AcDbLine
 10
609.9389206732849
 20
-705.1218044443028
 30
0.0
 11
611.9389206732848
 21
-705.1218044443028
 31
0.0
  0
LINE
  5
15FD
330
2
100
AcDbEntity
  8
画層1
  6
DASHED2
 62
     2
100
AcDbLine
 10
611.9389206732848
 20
-707.5218044443028
 30
0.0
 11
609.9389206732849
 21
-707.5218044443028
 31
0.0
  0
ARC
  5
15FE
330
2
100
AcDbEntity
  8
画層1
  6
DASHED2
 62
     2
100
AcDbCircle
 10
607.5389206732845
 20
-703.0218044443028
 30
0.0
 40
1.6
100
AcDbArc
 50
180.0
 51
270.0
  0
LINE
  5
15FF
330
2
100
AcDbEntity
  8
画層1
  6
DASHED2
 62
     2
100
AcDbLine
 10
607.5389206732845
 20
-704.6218044443028
 30
0.0
 11
609.9389206732849
 21
-704.6218044443028
 31
0.0
  0
LINE
  5
1600
330
2
100
AcDbEntity
  8
画層1
  6
DASHED2
 62
     2
100
AcDbLine
 10
609.9389206732849
 20
-708.0218044443028
 30
0.0
 11
607.5389206732845
 21
-708.0218044443028
 31
0.0
  0
LINE
  5
1601
330
2
100
AcDbEntity
  8
画層1
  6
DASHED2
 62
     2
100
AcDbLine
 10
605.9389206732845
 20
-709.6218044443028
 30
0.0
 11
605.9389206732845
 21
-712.4218044443026
 31
0.0
  0
ARC
  5
1602
330
2
100
AcDbEntity
  8
画層1
  6
DASHED2
 62
     2
100
AcDbCircle
 10
607.5389206732845
 20
-709.6218044443028
 30
0.0
 40
1.6
100
AcDbArc
 50
90.0
 51
180.0
  0
LINE
  5
1603
330
2
100
AcDbEntity
  8
画層1
  6
DASHED2
 62
     2
100
AcDbLine
 10
613.9389206732845
 20
-702.0218044443029
 30
0.0
 11
613.9389206732845
 21
-703.4218044443028
 31
0.0
  0
LINE
  5
1604
330
2
100
AcDbEntity
  8
画層1
  6
DASHED2
 62
     2
100
AcDbLine
 10
613.9389206732845
 20
-711.4218044443027
 30
0.0
 11
613.9389206732845
 21
-712.8218044443029
 31
0.0
  0
LINE
  5
1605
330
2
100
AcDbEntity
  8
画層1
  6
DASHED2
 62
     2
100
AcDbLine
 10
620.9389206732845
 20
-713.3218044443027
 30
0.0
 11
620.9389206732845
 21
-720.3218044443027
 31
0.0
  0
LINE
  5
1606
330
2
100
AcDbEntity
  8
画層1
  6
DASHED2
 62
     2
100
AcDbLine
 10
622.9389206732845
 20
-712.8218044443029
 30
0.0
 11
622.9389206732845
 21
-720.8218044443027
 31
0.0
  0
LINE
  5
1607
330
2
100
AcDbEntity
  8
画層1
  6
DASHED2
 62
     2
100
AcDbLine
 10
622.9389206732845
 20
-722.7218044443027
 30
0.0
 11
620.9389206732845
 21
-722.7218044443027
 31
0.0
  0
LINE
  5
1608
330
2
100
AcDbEntity
  8
画層1
  6
DASHED2
 62
     2
100
AcDbLine
 10
620.9389206732845
 20
-720.3218044443027
 30
0.0
 11
622.9389206732845
 21
-720.3218044443027
 31
0.0
  0
LINE
  5
1609
330
2
100
AcDbEntity
  8
画層1
  6
DASHED2
 62
     2
100
AcDbLine
 10
620.1389206732848
 20
-713.8218044443028
 30
0.0
 11
620.1389206732848
 21
-719.8218044443027
 31
0.0
  0
LINE
  5
160A
330
2
100
AcDbEntity
  8
画層1
  6
DASHED2
 62
     2
100
AcDbLine
 10
616.9389206732845
 20
-715.4218044443027
 30
0.0
 11
616.9389206732845
 21
-718.2218044443028
 31
0.0
  0
LINE
  5
160B
330
2
100
AcDbEntity
  8
画層1
  6
DASHED2
 62
     2
100
AcDbLine
 10
620.9389206732845
 20
-723.2218044443027
 30
0.0
 11
618.5389206732845
 21
-723.2218044443027
 31
0.0
  0
LINE
  5
160C
330
2
100
AcDbEntity
  8
画層1
  6
DASHED2
 62
     2
100
AcDbLine
 10
618.5389206732845
 20
-719.8218044443027
 30
0.0
 11
620.9389206732845
 21
-719.8218044443027
 31
0.0
  0
LINE
  5
160D
330
2
100
AcDbEntity
  8
画層1
  6
DASHED2
 62
     2
100
AcDbLine
 10
620.9389206732845
 20
-713.8218044443028
 30
0.0
 11
618.5389206732845
 21
-713.8218044443028
 31
0.0
  0
LINE
  5
160E
330
2
100
AcDbEntity
  8
画層1
  6
DASHED2
 62
     2
100
AcDbLine
 10
622.9389206732845
 20
-703.9218044443027
 30
0.0
 11
620.9389206732845
 21
-703.9218044443027
 31
0.0
  0
LINE
  5
160F
330
2
100
AcDbEntity
  8
画層1
  6
DASHED2
 62
     2
100
AcDbLine
 10
620.9389206732845
 20
-701.5218044443027
 30
0.0
 11
622.9389206732845
 21
-701.5218044443027
 31
0.0
  0
LINE
  5
1610
330
2
100
AcDbEntity
  8
画層1
  6
DASHED2
 62
     2
100
AcDbLine
 10
622.9389206732845
 20
-713.3218044443027
 30
0.0
 11
620.9389206732845
 21
-713.3218044443027
 31
0.0
  0
LINE
  5
1611
330
2
100
AcDbEntity
  8
画層1
  6
DASHED2
 62
     2
100
AcDbLine
 10
620.9389206732845
 20
-710.9218044443026
 30
0.0
 11
622.9389206732845
 21
-710.9218044443026
 31
0.0
  0
LINE
  5
1612
330
2
100
AcDbEntity
  8
画層1
  6
DASHED2
 62
     2
100
AcDbLine
 10
616.9389206732845
 20
-706.0218044443027
 30
0.0
 11
616.9389206732845
 21
-708.8218044443027
 31
0.0
  0
LINE
  5
1613
330
2
100
AcDbEntity
  8
画層1
  6
DASHED2
 62
     2
100
AcDbLine
 10
620.9389206732845
 20
-704.4218044443027
 30
0.0
 11
618.5389206732845
 21
-704.4218044443027
 31
0.0
  0
LINE
  5
1614
330
2
100
AcDbEntity
  8
画層1
  6
DASHED2
 62
     2
100
AcDbLine
 10
618.5389206732845
 20
-701.0218044443027
 30
0.0
 11
620.9389206732845
 21
-701.0218044443027
 31
0.0
  0
LINE
  5
1615
330
2
100
AcDbEntity
  8
画層1
  6
DASHED2
 62
     2
100
AcDbLine
 10
618.5389206732845
 20
-710.4218044443028
 30
0.0
 11
620.9389206732845
 21
-710.4218044443028
 31
0.0
  0
LINE
  5
1616
330
2
100
AcDbEntity
  8
画層1
  6
DASHED2
 62
     2
100
AcDbLine
 10
620.9389206732845
 20
-703.9218044443027
 30
0.0
 11
620.9389206732845
 21
-710.9218044443026
 31
0.0
  0
LINE
  5
1617
330
2
100
AcDbEntity
  8
画層1
  6
DASHED2
 62
     2
100
AcDbLine
 10
620.1389206732848
 20
-704.4218044443027
 30
0.0
 11
620.1389206732848
 21
-710.4218044443028
 31
0.0
  0
LINE
  5
1618
330
2
100
AcDbEntity
  8
画層1
  6
DASHED2
 62
     2
100
AcDbLine
 10
622.9389206732845
 20
-703.4218044443028
 30
0.0
 11
622.9389206732845
 21
-711.4218044443027
 31
0.0
  0
ARC
  5
1619
330
2
100
AcDbEntity
  8
画層1
  6
DASHED2
 62
     2
100
AcDbCircle
 10
618.5389206732845
 20
-677.8218044443028
 30
0.0
 40
1.6
100
AcDbArc
 50
90.0
 51
180.0
  0
ARC
  5
161A
330
2
100
AcDbEntity
  8
画層1
  6
DASHED2
 62
     2
100
AcDbCircle
 10
618.5389206732845
 20
-690.0218044443028
 30
0.0
 40
1.6
100
AcDbArc
 50
180.0
 51
270.0
  0
ARC
  5
161B
330
2
100
AcDbEntity
  8
画層1
  6
DASHED2
 62
     2
100
AcDbCircle
 10
618.5389206732845
 20
-687.2218044443028
 30
0.0
 40
1.6
100
AcDbArc
 50
90.0
 51
180.0
  0
ARC
  5
161C
330
2
100
AcDbEntity
  8
画層1
  6
DASHED2
 62
     2
100
AcDbCircle
 10
618.5389206732845
 20
-680.6218044443029
 30
0.0
 40
1.6
100
AcDbArc
 50
180.0
 51
270.0
  0
LINE
  5
161D
330
2
100
AcDbEntity
  8
画層1
  6
DASHED2
 62
     2
100
AcDbLine
 10
622.9389206732845
 20
-692.6218044443029
 30
0.0
 11
613.9389206732845
 21
-692.6218044443029
 31
0.0
  0
LINE
  5
161E
330
2
100
AcDbEntity
  8
画層1
  6
DASHED2
 62
     2
100
AcDbLine
 10
613.9389206732845
 20
-694.0218044443029
 30
0.0
 11
622.9389206732845
 21
-694.0218044443029
 31
0.0
  0
LINE
  5
161F
330
2
100
AcDbEntity
  8
画層1
  6
DASHED2
 62
     2
100
AcDbLine
 10
613.9389206732845
 20
-684.6218044443029
 30
0.0
 11
622.9389206732845
 21
-684.6218044443029
 31
0.0
  0
LINE
  5
1620
330
2
100
AcDbEntity
  8
画層1
  6
DASHED2
 62
     2
100
AcDbLine
 10
622.9389206732845
 20
-683.2218044443027
 30
0.0
 11
613.9389206732845
 21
-683.2218044443027
 31
0.0
  0
ARC
  5
1621
330
2
100
AcDbEntity
  8
画層1
  6
DASHED2
 62
     2
100
AcDbCircle
 10
618.5389206732845
 20
-696.6218044443028
 30
0.0
 40
1.6
100
AcDbArc
 50
90.0
 51
180.0
  0
LINE
  5
1622
330
2
100
AcDbEntity
  8
画層1
  6
DASHED2
 62
     2
100
AcDbLine
 10
611.9389206732848
 20
-688.2218044443027
 30
0.0
 11
611.9389206732848
 21
-696.2218044443027
 31
0.0
  0
LINE
  5
1623
330
2
100
AcDbEntity
  8
画層1
  6
DASHED2
 62
     2
100
AcDbLine
 10
611.9389206732848
 20
-688.7218044443027
 30
0.0
 11
609.9389206732849
 21
-688.7218044443027
 31
0.0
  0
LINE
  5
1624
330
2
100
AcDbEntity
  8
画層1
  6
DASHED2
 62
     2
100
AcDbLine
 10
611.9389206732848
 20
-698.1218044443028
 30
0.0
 11
609.9389206732849
 21
-698.1218044443028
 31
0.0
  0
LINE
  5
1625
330
2
100
AcDbEntity
  8
画層1
  6
DASHED2
 62
     2
100
AcDbLine
 10
609.9389206732849
 20
-695.7218044443027
 30
0.0
 11
611.9389206732848
 21
-695.7218044443027
 31
0.0
  0
LINE
  5
1626
330
2
100
AcDbEntity
  8
画層1
  6
DASHED2
 62
     2
100
AcDbLine
 10
605.9389206732845
 20
-690.8218044443028
 30
0.0
 11
605.9389206732845
 21
-693.6218044443029
 31
0.0
  0
ARC
  5
1627
330
2
100
AcDbEntity
  8
画層1
  6
DASHED2
 62
     2
100
AcDbCircle
 10
607.5389206732845
 20
-690.8218044443028
 30
0.0
 40
1.6
100
AcDbArc
 50
90.0
 51
180.0
  0
LINE
  5
1628
330
2
100
AcDbEntity
  8
画層1
  6
DASHED2
 62
     2
100
AcDbLine
 10
609.1389206732848
 20
-689.2218044443027
 30
0.0
 11
609.1389206732848
 21
-695.2218044443029
 31
0.0
  0
LINE
  5
1629
330
2
100
AcDbEntity
  8
画層1
  6
DASHED2
 62
     2
100
AcDbLine
 10
609.9389206732849
 20
-689.2218044443027
 30
0.0
 11
607.5389206732845
 21
-689.2218044443027
 31
0.0
  0
LINE
  5
162A
330
2
100
AcDbEntity
  8
画層1
  6
DASHED2
 62
     2
100
AcDbLine
 10
607.5389206732845
 20
-695.2218044443029
 30
0.0
 11
609.9389206732849
 21
-695.2218044443029
 31
0.0
  0
ARC
  5
162B
330
2
100
AcDbEntity
  8
画層1
  6
DASHED2
 62
     2
100
AcDbCircle
 10
607.5389206732845
 20
-700.2218044443027
 30
0.0
 40
1.6
100
AcDbArc
 50
90.0
 51
180.0
  0
LINE
  5
162C
330
2
100
AcDbEntity
  8
画層1
  6
DASHED2
 62
     2
100
AcDbLine
 10
609.9389206732849
 20
-698.6218044443027
 30
0.0
 11
607.5389206732845
 21
-698.6218044443027
 31
0.0
  0
ARC
  5
162D
330
2
100
AcDbEntity
  8
画層1
  6
DASHED2
 62
     2
100
AcDbCircle
 10
607.5389206732845
 20
-693.6218044443029
 30
0.0
 40
1.6
100
AcDbArc
 50
180.0
 51
270.0
  0
LINE
  5
162E
330
2
100
AcDbEntity
  8
画層1
  6
DASHED2
 62
     2
100
AcDbLine
 10
609.9389206732849
 20
-688.7218044443027
 30
0.0
 11
609.9389206732849
 21
-695.7218044443027
 31
0.0
  0
LINE
  5
162F
330
2
100
AcDbEntity
  8
画層1
  6
DASHED2
 62
     2
100
AcDbLine
 10
613.9389206732845
 20
-692.6218044443029
 30
0.0
 11
613.9389206732845
 21
-694.0218044443029
 31
0.0
  0
LINE
  5
1630
330
2
100
AcDbEntity
  8
画層1
  6
DASHED2
 62
     2
100
AcDbLine
 10
611.9389206732848
 20
-679.3218044443029
 30
0.0
 11
609.9389206732849
 21
-679.3218044443029
 31
0.0
  0
LINE
  5
1631
330
2
100
AcDbEntity
  8
画層1
  6
DASHED2
 62
     2
100
AcDbLine
 10
609.9389206732849
 20
-676.9218044443028
 30
0.0
 11
611.9389206732848
 21
-676.9218044443028
 31
0.0
  0
LINE
  5
1632
330
2
100
AcDbEntity
  8
画層1
  6
DASHED2
 62
     2
100
AcDbLine
 10
609.9389206732849
 20
-686.3218044443028
 30
0.0
 11
611.9389206732848
 21
-686.3218044443028
 31
0.0
  0
LINE
  5
1633
330
2
100
AcDbEntity
  8
画層1
  6
DASHED2
 62
     2
100
AcDbLine
 10
607.5389206732845
 20
-676.4218044443027
 30
0.0
 11
609.9389206732849
 21
-676.4218044443027
 31
0.0
  0
LINE
  5
1634
330
2
100
AcDbEntity
  8
画層1
  6
DASHED2
 62
     2
100
AcDbLine
 10
609.9389206732849
 20
-679.8218044443029
 30
0.0
 11
607.5389206732845
 21
-679.8218044443029
 31
0.0
  0
LINE
  5
1635
330
2
100
AcDbEntity
  8
画層1
  6
DASHED2
 62
     2
100
AcDbLine
 10
605.9389206732845
 20
-681.4218044443028
 30
0.0
 11
605.9389206732845
 21
-684.2218044443027
 31
0.0
  0
ARC
  5
1636
330
2
100
AcDbEntity
  8
画層1
  6
DASHED2
 62
     2
100
AcDbCircle
 10
607.5389206732845
 20
-684.2218044443027
 30
0.0
 40
1.6
100
AcDbArc
 50
180.0
 51
270.0
  0
LINE
  5
1637
330
2
100
AcDbEntity
  8
画層1
  6
DASHED2
 62
     2
100
AcDbLine
 10
607.5389206732845
 20
-685.8218044443028
 30
0.0
 11
609.9389206732849
 21
-685.8218044443028
 31
0.0
  0
LINE
  5
1638
330
2
100
AcDbEntity
  8
画層1
  6
DASHED2
 62
     2
100
AcDbLine
 10
609.1389206732848
 20
-679.8218044443029
 30
0.0
 11
609.1389206732848
 21
-685.8218044443028
 31
0.0
  0
LINE
  5
1639
330
2
100
AcDbEntity
  8
画層1
  6
DASHED2
 62
     2
100
AcDbLine
 10
609.9389206732849
 20
-679.3218044443029
 30
0.0
 11
609.9389206732849
 21
-686.3218044443028
 31
0.0
  0
ARC
  5
163A
330
2
100
AcDbEntity
  8
画層1
  6
DASHED2
 62
     2
100
AcDbCircle
 10
607.5389206732845
 20
-681.4218044443028
 30
0.0
 40
1.6
100
AcDbArc
 50
90.0
 51
180.0
  0
LINE
  5
163B
330
2
100
AcDbEntity
  8
画層1
  6
DASHED2
 62
     2
100
AcDbLine
 10
613.9389206732845
 20
-683.2218044443027
 30
0.0
 11
613.9389206732845
 21
-684.6218044443029
 31
0.0
  0
LINE
  5
163C
330
2
100
AcDbEntity
  8
画層1
  6
DASHED2
 62
     2
100
AcDbLine
 10
611.9389206732848
 20
-678.8218044443028
 30
0.0
 11
611.9389206732848
 21
-686.8218044443027
 31
0.0
  0
LINE
  5
163D
330
2
100
AcDbEntity
  8
画層1
  6
DASHED2
 62
     2
100
AcDbLine
 10
622.9389206732845
 20
-684.6218044443029
 30
0.0
 11
622.9389206732845
 21
-692.6218044443029
 31
0.0
  0
LINE
  5
163E
330
2
100
AcDbEntity
  8
画層1
  6
DASHED2
 62
     2
100
AcDbLine
 10
620.9389206732845
 20
-685.1218044443028
 30
0.0
 11
620.9389206732845
 21
-692.1218044443029
 31
0.0
  0
LINE
  5
163F
330
2
100
AcDbEntity
  8
画層1
  6
DASHED2
 62
     2
100
AcDbLine
 10
620.1389206732848
 20
-685.6218044443029
 30
0.0
 11
620.1389206732848
 21
-691.6218044443029
 31
0.0
  0
LINE
  5
1640
330
2
100
AcDbEntity
  8
画層1
  6
DASHED2
 62
     2
100
AcDbLine
 10
616.9389206732845
 20
-687.2218044443028
 30
0.0
 11
616.9389206732845
 21
-690.0218044443028
 31
0.0
  0
LINE
  5
1641
330
2
100
AcDbEntity
  8
画層1
  6
DASHED2
 62
     2
100
AcDbLine
 10
622.9389206732845
 20
-694.5218044443028
 30
0.0
 11
620.9389206732845
 21
-694.5218044443028
 31
0.0
  0
LINE
  5
1642
330
2
100
AcDbEntity
  8
画層1
  6
DASHED2
 62
     2
100
AcDbLine
 10
620.9389206732845
 20
-692.1218044443029
 30
0.0
 11
622.9389206732845
 21
-692.1218044443029
 31
0.0
  0
LINE
  5
1643
330
2
100
AcDbEntity
  8
画層1
  6
DASHED2
 62
     2
100
AcDbLine
 10
620.9389206732845
 20
-695.0218044443028
 30
0.0
 11
618.5389206732845
 21
-695.0218044443028
 31
0.0
  0
LINE
  5
1644
330
2
100
AcDbEntity
  8
画層1
  6
DASHED2
 62
     2
100
AcDbLine
 10
618.5389206732845
 20
-691.6218044443029
 30
0.0
 11
620.9389206732845
 21
-691.6218044443029
 31
0.0
  0
LINE
  5
1645
330
2
100
AcDbEntity
  8
画層1
  6
DASHED2
 62
     2
100
AcDbLine
 10
616.9389206732845
 20
-696.6218044443028
 30
0.0
 11
616.9389206732845
 21
-699.4218044443027
 31
0.0
  0
LINE
  5
1646
330
2
100
AcDbEntity
  8
画層1
  6
DASHED2
 62
     2
100
AcDbLine
 10
622.9389206732845
 20
-675.7218044443027
 30
0.0
 11
620.9389206732845
 21
-675.7218044443027
 31
0.0
  0
LINE
  5
1647
330
2
100
AcDbEntity
  8
画層1
  6
DASHED2
 62
     2
100
AcDbLine
 10
622.9389206732845
 20
-685.1218044443028
 30
0.0
 11
620.9389206732845
 21
-685.1218044443028
 31
0.0
  0
LINE
  5
1648
330
2
100
AcDbEntity
  8
画層1
  6
DASHED2
 62
     2
100
AcDbLine
 10
620.9389206732845
 20
-682.7218044443029
 30
0.0
 11
622.9389206732845
 21
-682.7218044443029
 31
0.0
  0
LINE
  5
1649
330
2
100
AcDbEntity
  8
画層1
  6
DASHED2
 62
     2
100
AcDbLine
 10
616.9389206732845
 20
-677.8218044443028
 30
0.0
 11
616.9389206732845
 21
-680.6218044443029
 31
0.0
  0
LINE
  5
164A
330
2
100
AcDbEntity
  8
画層1
  6
DASHED2
 62
     2
100
AcDbLine
 10
620.9389206732845
 20
-676.2218044443027
 30
0.0
 11
618.5389206732845
 21
-676.2218044443027
 31
0.0
  0
LINE
  5
164B
330
2
100
AcDbEntity
  8
画層1
  6
DASHED2
 62
     2
100
AcDbLine
 10
620.9389206732845
 20
-685.6218044443029
 30
0.0
 11
618.5389206732845
 21
-685.6218044443029
 31
0.0
  0
LINE
  5
164C
330
2
100
AcDbEntity
  8
画層1
  6
DASHED2
 62
     2
100
AcDbLine
 10
618.5389206732845
 20
-682.2218044443027
 30
0.0
 11
620.9389206732845
 21
-682.2218044443027
 31
0.0
  0
LINE
  5
164D
330
2
100
AcDbEntity
  8
画層1
  6
DASHED2
 62
     2
100
AcDbLine
 10
620.9389206732845
 20
-675.7218044443027
 30
0.0
 11
620.9389206732845
 21
-682.7218044443029
 31
0.0
  0
LINE
  5
164E
330
2
100
AcDbEntity
  8
画層1
  6
DASHED2
 62
     2
100
AcDbLine
 10
620.1389206732848
 20
-676.2218044443027
 30
0.0
 11
620.1389206732848
 21
-682.2218044443027
 31
0.0
  0
LINE
  5
164F
330
2
100
AcDbEntity
  8
画層1
  6
DASHED2
 62
     2
100
AcDbLine
 10
616.9389206732845
 20
-649.6218044443029
 30
0.0
 11
616.9389206732845
 21
-652.4218044443028
 31
0.0
  0
LINE
  5
1650
330
2
100
AcDbEntity
  8
画層1
  6
DASHED2
 62
     2
100
AcDbLine
 10
620.9389206732845
 20
-647.5218044443029
 30
0.0
 11
620.9389206732845
 21
-654.5218044443029
 31
0.0
  0
LINE
  5
1651
330
2
100
AcDbEntity
  8
画層1
  6
DASHED2
 62
     2
100
AcDbLine
 10
620.1389206732848
 20
-648.0218044443029
 30
0.0
 11
620.1389206732848
 21
-654.0218044443029
 31
0.0
  0
LINE
  5
1652
330
2
100
AcDbEntity
  8
画層1
  6
DASHED2
 62
     2
100
AcDbLine
 10
622.9389206732845
 20
-647.0218044443027
 30
0.0
 11
622.9389206732845
 21
-655.0218044443028
 31
0.0
  0
ARC
  5
1653
330
2
100
AcDbEntity
  8
画層1
  6
DASHED2
 62
     2
100
AcDbCircle
 10
618.5389206732845
 20
-661.8218044443028
 30
0.0
 40
1.6
100
AcDbArc
 50
180.0
 51
270.0
  0
ARC
  5
1654
330
2
100
AcDbEntity
  8
画層1
  6
DASHED2
 62
     2
100
AcDbCircle
 10
618.5389206732845
 20
-659.0218044443028
 30
0.0
 40
1.6
100
AcDbArc
 50
90.0
 51
180.0
  0
ARC
  5
1655
330
2
100
AcDbEntity
  8
画層1
  6
DASHED2
 62
     2
100
AcDbCircle
 10
618.5389206732845
 20
-652.4218044443028
 30
0.0
 40
1.6
100
AcDbArc
 50
180.0
 51
270.0
  0
LINE
  5
1656
330
2
100
AcDbEntity
  8
画層1
  6
DASHED2
 62
     2
100
AcDbLine
 10
622.9389206732845
 20
-664.4218044443028
 30
0.0
 11
613.9389206732845
 21
-664.4218044443028
 31
0.0
  0
LINE
  5
1657
330
2
100
AcDbEntity
  8
画層1
  6
DASHED2
 62
     2
100
AcDbLine
 10
613.9389206732845
 20
-665.8218044443028
 30
0.0
 11
622.9389206732845
 21
-665.8218044443028
 31
0.0
  0
LINE
  5
1658
330
2
100
AcDbEntity
  8
画層1
  6
DASHED2
 62
     2
100
AcDbLine
 10
613.9389206732845
 20
-656.4218044443028
 30
0.0
 11
622.9389206732845
 21
-656.4218044443028
 31
0.0
  0
LINE
  5
1659
330
2
100
AcDbEntity
  8
画層1
  6
DASHED2
 62
     2
100
AcDbLine
 10
622.9389206732845
 20
-655.0218044443028
 30
0.0
 11
613.9389206732845
 21
-655.0218044443028
 31
0.0
  0
ARC
  5
165A
330
2
100
AcDbEntity
  8
画層1
  6
DASHED2
 62
     2
100
AcDbCircle
 10
618.5389206732845
 20
-671.2218044443027
 30
0.0
 40
1.6
100
AcDbArc
 50
180.0
 51
270.0
  0
LINE
  5
165B
330
2
100
AcDbEntity
  8
画層1
  6
DASHED2
 62
     2
100
AcDbLine
 10
622.9389206732845
 20
-673.8218044443028
 30
0.0
 11
613.9389206732845
 21
-673.8218044443028
 31
0.0
  0
LINE
  5
165C
330
2
100
AcDbEntity
  8
画層1
  6
DASHED2
 62
     2
100
AcDbLine
 10
613.9389206732845
 20
-675.2218044443027
 30
0.0
 11
622.9389206732845
 21
-675.2218044443027
 31
0.0
  0
ARC
  5
165D
330
2
100
AcDbEntity
  8
画層1
  6
DASHED2
 62
     2
100
AcDbCircle
 10
618.5389206732845
 20
-668.4218044443028
 30
0.0
 40
1.6
100
AcDbArc
 50
90.0
 51
180.0
  0
LINE
  5
165E
330
2
100
AcDbEntity
  8
画層1
  6
DASHED2
 62
     2
100
AcDbLine
 10
605.9389206732845
 20
-662.6218044443028
 30
0.0
 11
605.9389206732845
 21
-665.4218044443028
 31
0.0
  0
LINE
  5
165F
330
2
100
AcDbEntity
  8
画層1
  6
DASHED2
 62
     2
100
AcDbLine
 10
609.9389206732849
 20
-660.5218044443029
 30
0.0
 11
609.9389206732849
 21
-667.5218044443028
 31
0.0
  0
LINE
  5
1660
330
2
100
AcDbEntity
  8
画層1
  6
DASHED2
 62
     2
100
AcDbLine
 10
611.9389206732848
 20
-660.0218044443029
 30
0.0
 11
611.9389206732848
 21
-668.0218044443027
 31
0.0
  0
LINE
  5
1661
330
2
100
AcDbEntity
  8
画層1
  6
DASHED2
 62
     2
100
AcDbLine
 10
609.1389206732848
 20
-661.0218044443028
 30
0.0
 11
609.1389206732848
 21
-667.0218044443029
 31
0.0
  0
LINE
  5
1662
330
2
100
AcDbEntity
  8
画層1
  6
DASHED2
 62
     2
100
AcDbLine
 10
611.9389206732848
 20
-669.9218044443028
 30
0.0
 11
609.9389206732849
 21
-669.9218044443028
 31
0.0
  0
LINE
  5
1663
330
2
100
AcDbEntity
  8
画層1
  6
DASHED2
 62
     2
100
AcDbLine
 10
609.9389206732849
 20
-667.5218044443028
 30
0.0
 11
611.9389206732848
 21
-667.5218044443028
 31
0.0
  0
LINE
  5
1664
330
2
100
AcDbEntity
  8
画層1
  6
DASHED2
 62
     2
100
AcDbLine
 10
605.9389206732845
 20
-672.0218044443027
 30
0.0
 11
605.9389206732845
 21
-674.8218044443028
 31
0.0
  0
ARC
  5
1665
330
2
100
AcDbEntity
  8
画層1
  6
DASHED2
 62
     2
100
AcDbCircle
 10
607.5389206732845
 20
-672.0218044443027
 30
0.0
 40
1.6
100
AcDbArc
 50
90.0
 51
180.0
  0
LINE
  5
1666
330
2
100
AcDbEntity
  8
画層1
  6
DASHED2
 62
     2
100
AcDbLine
 10
609.9389206732849
 20
-670.4218044443027
 30
0.0
 11
607.5389206732845
 21
-670.4218044443027
 31
0.0
  0
LINE
  5
1667
330
2
100
AcDbEntity
  8
画層1
  6
DASHED2
 62
     2
100
AcDbLine
 10
607.5389206732845
 20
-667.0218044443029
 30
0.0
 11
609.9389206732849
 21
-667.0218044443029
 31
0.0
  0
ARC
  5
1668
330
2
100
AcDbEntity
  8
画層1
  6
DASHED2
 62
     2
100
AcDbCircle
 10
607.5389206732845
 20
-665.4218044443028
 30
0.0
 40
1.6
100
AcDbArc
 50
180.0
 51
270.0
  0
LINE
  5
1669
330
2
100
AcDbEntity
  8
画層1
  6
DASHED2
 62
     2
100
AcDbLine
 10
613.9389206732845
 20
-664.4218044443028
 30
0.0
 11
613.9389206732845
 21
-665.8218044443028
 31
0.0
  0
LINE
  5
166A
330
2
100
AcDbEntity
  8
画層1
  6
DASHED2
 62
     2
100
AcDbLine
 10
613.9389206732845
 20
-673.8218044443028
 30
0.0
 11
613.9389206732845
 21
-675.2218044443027
 31
0.0
  0
LINE
  5
166B
330
2
100
AcDbEntity
  8
画層1
  6
DASHED2
 62
     2
100
AcDbLine
 10
611.9389206732848
 20
-651.1218044443029
 30
0.0
 11
609.9389206732849
 21
-651.1218044443029
 31
0.0
  0
LINE
  5
166C
330
2
100
AcDbEntity
  8
画層1
  6
DASHED2
 62
     2
100
AcDbLine
 10
611.9389206732848
 20
-660.5218044443029
 30
0.0
 11
609.9389206732849
 21
-660.5218044443029
 31
0.0
  0
LINE
  5
166D
330
2
100
AcDbEntity
  8
画層1
  6
DASHED2
 62
     2
100
AcDbLine
 10
609.9389206732849
 20
-658.1218044443029
 30
0.0
 11
611.9389206732848
 21
-658.1218044443029
 31
0.0
  0
LINE
  5
166E
330
2
100
AcDbEntity
  8
画層1
  6
DASHED2
 62
     2
100
AcDbLine
 10
609.9389206732849
 20
-651.6218044443029
 30
0.0
 11
607.5389206732845
 21
-651.6218044443029
 31
0.0
  0
ARC
  5
166F
330
2
100
AcDbEntity
  8
画層1
  6
DASHED2
 62
     2
100
AcDbCircle
 10
607.5389206732845
 20
-662.6218044443028
 30
0.0
 40
1.6
100
AcDbArc
 50
90.0
 51
180.0
  0
LINE
  5
1670
330
2
100
AcDbEntity
  8
画層1
  6
DASHED2
 62
     2
100
AcDbLine
 10
605.9389206732845
 20
-653.2218044443027
 30
0.0
 11
605.9389206732845
 21
-656.0218044443029
 31
0.0
  0
ARC
  5
1671
330
2
100
AcDbEntity
  8
画層1
  6
DASHED2
 62
     2
100
AcDbCircle
 10
607.5389206732845
 20
-656.0218044443029
 30
0.0
 40
1.6
100
AcDbArc
 50
180.0
 51
270.0
  0
LINE
  5
1672
330
2
100
AcDbEntity
  8
画層1
  6
DASHED2
 62
     2
100
AcDbLine
 10
607.5389206732845
 20
-657.6218044443029
 30
0.0
 11
609.9389206732849
 21
-657.6218044443029
 31
0.0
  0
LINE
  5
1673
330
2
100
AcDbEntity
  8
画層1
  6
DASHED2
 62
     2
100
AcDbLine
 10
609.9389206732849
 20
-661.0218044443028
 30
0.0
 11
607.5389206732845
 21
-661.0218044443028
 31
0.0
  0
ARC
  5
1674
330
2
100
AcDbEntity
  8
画層1
  6
DASHED2
 62
     2
100
AcDbCircle
 10
607.5389206732845
 20
-653.2218044443027
 30
0.0
 40
1.6
100
AcDbArc
 50
90.0
 51
180.0
  0
LINE
  5
1675
330
2
100
AcDbEntity
  8
画層1
  6
DASHED2
 62
     2
100
AcDbLine
 10
609.1389206732848
 20
-651.6218044443029
 30
0.0
 11
609.1389206732848
 21
-657.6218044443029
 31
0.0
  0
LINE
  5
1676
330
2
100
AcDbEntity
  8
画層1
  6
DASHED2
 62
     2
100
AcDbLine
 10
609.9389206732849
 20
-651.1218044443029
 30
0.0
 11
609.9389206732849
 21
-658.1218044443029
 31
0.0
  0
LINE
  5
1677
330
2
100
AcDbEntity
  8
画層1
  6
DASHED2
 62
     2
100
AcDbLine
 10
613.9389206732845
 20
-655.0218044443028
 30
0.0
 11
613.9389206732845
 21
-656.4218044443028
 31
0.0
  0
LINE
  5
1678
330
2
100
AcDbEntity
  8
画層1
  6
DASHED2
 62
     2
100
AcDbLine
 10
611.9389206732848
 20
-650.6218044443029
 30
0.0
 11
611.9389206732848
 21
-658.6218044443029
 31
0.0
  0
LINE
  5
1679
330
2
100
AcDbEntity
  8
画層1
  6
DASHED2
 62
     2
100
AcDbLine
 10
622.9389206732845
 20
-656.4218044443028
 30
0.0
 11
622.9389206732845
 21
-664.4218044443028
 31
0.0
  0
LINE
  5
167A
330
2
100
AcDbEntity
  8
画層1
  6
DASHED2
 62
     2
100
AcDbLine
 10
620.9389206732845
 20
-656.9218044443028
 30
0.0
 11
620.9389206732845
 21
-663.9218044443027
 31
0.0
  0
LINE
  5
167B
330
2
100
AcDbEntity
  8
画層1
  6
DASHED2
 62
     2
100
AcDbLine
 10
620.1389206732848
 20
-657.4218044443028
 30
0.0
 11
620.1389206732848
 21
-663.4218044443027
 31
0.0
  0
LINE
  5
167C
330
2
100
AcDbEntity
  8
画層1
  6
DASHED2
 62
     2
100
AcDbLine
 10
622.9389206732845
 20
-666.3218044443028
 30
0.0
 11
620.9389206732845
 21
-666.3218044443028
 31
0.0
  0
LINE
  5
167D
330
2
100
AcDbEntity
  8
画層1
  6
DASHED2
 62
     2
100
AcDbLine
 10
620.9389206732845
 20
-663.9218044443027
 30
0.0
 11
622.9389206732845
 21
-663.9218044443027
 31
0.0
  0
LINE
  5
167E
330
2
100
AcDbEntity
  8
画層1
  6
DASHED2
 62
     2
100
AcDbLine
 10
620.9389206732845
 20
-673.3218044443028
 30
0.0
 11
622.9389206732845
 21
-673.3218044443028
 31
0.0
  0
LINE
  5
167F
330
2
100
AcDbEntity
  8
画層1
  6
DASHED2
 62
     2
100
AcDbLine
 10
620.9389206732845
 20
-666.8218044443029
 30
0.0
 11
618.5389206732845
 21
-666.8218044443029
 31
0.0
  0
LINE
  5
1680
330
2
100
AcDbEntity
  8
画層1
  6
DASHED2
 62
     2
100
AcDbLine
 10
618.5389206732845
 20
-663.4218044443027
 30
0.0
 11
620.9389206732845
 21
-663.4218044443027
 31
0.0
  0
LINE
  5
1681
330
2
100
AcDbEntity
  8
画層1
  6
DASHED2
 62
     2
100
AcDbLine
 10
616.9389206732845
 20
-668.4218044443028
 30
0.0
 11
616.9389206732845
 21
-671.2218044443027
 31
0.0
  0
LINE
  5
1682
330
2
100
AcDbEntity
  8
画層1
  6
DASHED2
 62
     2
100
AcDbLine
 10
618.5389206732845
 20
-672.8218044443028
 30
0.0
 11
620.9389206732845
 21
-672.8218044443028
 31
0.0
  0
LINE
  5
1683
330
2
100
AcDbEntity
  8
画層1
  6
DASHED2
 62
     2
100
AcDbLine
 10
620.9389206732845
 20
-666.3218044443028
 30
0.0
 11
620.9389206732845
 21
-673.3218044443028
 31
0.0
  0
LINE
  5
1684
330
2
100
AcDbEntity
  8
画層1
  6
DASHED2
 62
     2
100
AcDbLine
 10
620.1389206732848
 20
-666.8218044443029
 30
0.0
 11
620.1389206732848
 21
-672.8218044443028
 31
0.0
  0
LINE
  5
1685
330
2
100
AcDbEntity
  8
画層1
  6
DASHED2
 62
     2
100
AcDbLine
 10
622.9389206732845
 20
-665.8218044443028
 30
0.0
 11
622.9389206732845
 21
-673.8218044443028
 31
0.0
  0
LINE
  5
1686
330
2
100
AcDbEntity
  8
画層1
  6
DASHED2
 62
     2
100
AcDbLine
 10
622.9389206732845
 20
-656.9218044443028
 30
0.0
 11
620.9389206732845
 21
-656.9218044443028
 31
0.0
  0
LINE
  5
1687
330
2
100
AcDbEntity
  8
画層1
  6
DASHED2
 62
     2
100
AcDbLine
 10
620.9389206732845
 20
-654.5218044443029
 30
0.0
 11
622.9389206732845
 21
-654.5218044443029
 31
0.0
  0
LINE
  5
1688
330
2
100
AcDbEntity
  8
画層1
  6
DASHED2
 62
     2
100
AcDbLine
 10
616.9389206732845
 20
-659.0218044443028
 30
0.0
 11
616.9389206732845
 21
-661.8218044443028
 31
0.0
  0
LINE
  5
1689
330
2
100
AcDbEntity
  8
画層1
  6
DASHED2
 62
     2
100
AcDbLine
 10
620.9389206732845
 20
-657.4218044443028
 30
0.0
 11
618.5389206732845
 21
-657.4218044443028
 31
0.0
  0
LINE
  5
168A
330
2
100
AcDbEntity
  8
画層1
  6
DASHED2
 62
     2
100
AcDbLine
 10
618.5389206732845
 20
-654.0218044443029
 30
0.0
 11
620.9389206732845
 21
-654.0218044443029
 31
0.0
  0
ARC
  5
168B
330
2
100
AcDbEntity
  8
画層1
  6
DASHED2
 62
     2
100
AcDbCircle
 10
618.5389206732845
 20
-649.6218044443029
 30
0.0
 40
1.6
100
AcDbArc
 50
90.0
 51
180.0
  0
LINE
  5
168C
330
2
100
AcDbEntity
  8
画層1
  6
DASHED2
 62
     2
100
AcDbLine
 10
622.9389206732845
 20
-647.0218044443027
 30
0.0
 11
615.4389206732846
 21
-647.0218044443027
 31
0.0
  0
LINE
  5
168D
330
2
100
AcDbEntity
  8
画層1
  6
DASHED2
 62
     2
100
AcDbLine
 10
609.9389206732849
 20
-648.7218044443027
 30
0.0
 11
611.9389206732848
 21
-648.7218044443027
 31
0.0
  0
LINE
  5
168E
330
2
100
AcDbEntity
  8
画層1
  6
DASHED2
 62
     2
100
AcDbLine
 10
611.9389206732848
 20
-641.7218044443027
 30
0.0
 11
609.9389206732849
 21
-641.7218044443027
 31
0.0
  0
LINE
  5
168F
330
2
100
AcDbEntity
  8
画層1
  6
DASHED2
 62
     2
100
AcDbLine
 10
609.9389206732849
 20
-641.7218044443027
 30
0.0
 11
609.9389206732849
 21
-648.7218044443027
 31
0.0
  0
LINE
  5
1690
330
2
100
AcDbEntity
  8
画層1
  6
DASHED2
 62
     2
100
AcDbLine
 10
605.9389206732845
 20
-643.8218044443028
 30
0.0
 11
605.9389206732845
 21
-646.6218044443029
 31
0.0
  0
ARC
  5
1691
330
2
100
AcDbEntity
  8
画層1
  6
DASHED2
 62
     2
100
AcDbCircle
 10
607.5389206732845
 20
-646.6218044443029
 30
0.0
 40
1.6
100
AcDbArc
 50
180.0
 51
270.0
  0
ARC
  5
1692
330
2
100
AcDbEntity
  8
画層1
  6
DASHED2
 62
     2
100
AcDbCircle
 10
607.5389206732845
 20
-643.8218044443028
 30
0.0
 40
1.6
100
AcDbArc
 50
90.0
 51
180.0
  0
LINE
  5
1693
330
2
100
AcDbEntity
  8
画層1
  6
DASHED2
 62
     2
100
AcDbLine
 10
609.1389206732848
 20
-642.2218044443027
 30
0.0
 11
609.1389206732848
 21
-648.2218044443027
 31
0.0
  0
LINE
  5
1694
330
2
100
AcDbEntity
  8
画層1
  6
DASHED2
 62
     2
100
AcDbLine
 10
609.9389206732849
 20
-642.2218044443027
 30
0.0
 11
607.5389206732845
 21
-642.2218044443027
 31
0.0
  0
LINE
  5
1695
330
2
100
AcDbEntity
  8
画層1
  6
DASHED2
 62
     2
100
AcDbLine
 10
607.5389206732845
 20
-648.2218044443027
 30
0.0
 11
609.9389206732849
 21
-648.2218044443027
 31
0.0
  0
LINE
  5
1696
330
2
100
AcDbEntity
  8
画層1
  6
DASHED2
 62
     2
100
AcDbLine
 10
615.4389206732846
 20
-647.0218044443027
 30
0.0
 11
615.4389206732846
 21
-641.2218044443027
 31
0.0
  0
LINE
  5
1697
330
2
100
AcDbEntity
  8
画層1
  6
DASHED2
 62
     2
100
AcDbLine
 10
611.9389206732848
 20
-641.2218044443027
 30
0.0
 11
611.9389206732848
 21
-649.2218044443027
 31
0.0
  0
LINE
  5
1698
330
2
100
AcDbEntity
  8
画層1
  6
DASHED2
 62
     2
100
AcDbLine
 10
622.9389206732845
 20
-647.5218044443029
 30
0.0
 11
620.9389206732845
 21
-647.5218044443029
 31
0.0
  0
LINE
  5
1699
330
2
100
AcDbEntity
  8
画層1
  6
DASHED2
 62
     2
100
AcDbLine
 10
620.9389206732845
 20
-648.0218044443029
 30
0.0
 11
618.5389206732845
 21
-648.0218044443029
 31
0.0
  0
LINE
  5
169F
330
2
100
AcDbEntity
  8
画層1
  6
DASHED2
 62
     2
100
AcDbLine
 10
471.6305818396356
 20
-928.2218044443027
 30
0.0
 11
471.6305818396356
 21
-898.7218044443027
 31
0.0
  0
LINE
  5
16A0
330
2
100
AcDbEntity
  8
画層1
  6
DASHED2
 62
     2
100
AcDbLine
 10
471.6305818396356
 20
-898.7218044443027
 30
0.0
 11
380.6305818396356
 21
-898.7218044443027
 31
0.0
  0
LINE
  5
16A1
330
2
100
AcDbEntity
  8
画層1
  6
DASHED2
 62
     2
100
AcDbLine
 10
378.6305818396356
 20
-896.7218044443027
 30
0.0
 11
378.6305818396356
 21
-889.2218044443026
 31
0.0
  0
LINE
  5
16A2
330
2
100
AcDbEntity
  8
画層1
  6
DASHED2
 62
     2
100
AcDbLine
 10
378.6305818396356
 20
-889.2218044443026
 30
0.0
 11
291.6305818396356
 21
-889.2218044443026
 31
0.0
  0
LINE
  5
16A3
330
2
100
AcDbEntity
  8
画層1
  6
DASHED2
 62
     2
100
AcDbLine
 10
291.6305818396356
 20
-889.2218044443026
 30
0.0
 11
291.6305818396356
 21
-928.2218044443027
 31
0.0
  0
LINE
  5
16A4
330
2
100
AcDbEntity
  8
画層1
  6
DASHED2
 62
     2
100
AcDbLine
 10
291.6305818396356
 20
-928.2218044443027
 30
0.0
 11
471.6305818396356
 21
-928.2218044443027
 31
0.0
  0
ARC
  5
16A5
330
2
100
AcDbEntity
  8
画層1
  6
DASHED2
 62
     2
100
AcDbCircle
 10
380.6305818396356
 20
-896.7218044443027
 30
0.0
 40
2.0
100
AcDbArc
 50
180.0
 51
270.0
  0
LINE
  5
16B0
330
2
100
AcDbEntity
  8
画層1
  6
CENTER
 62
     1
100
AcDbLine
 10
459.6305818396356
 20
-908.2218044443028
 30
0.0
 11
465.6305818396356
 21
-908.2218044443028
 31
0.0
  0
LINE
  5
16B1
330
2
100
AcDbEntity
  8
画層1
  6
CENTER
 62
     1
100
AcDbLine
 10
462.6305818396356
 20
-905.2218044443026
 30
0.0
 11
462.6305818396356
 21
-911.2218044443027
 31
0.0
  0
LINE
  5
16B2
330
2
100
AcDbEntity
  8
画層1
  6
CENTER
 62
     1
100
AcDbLine
 10
459.6305818396356
 20
-923.3865561706251
 30
0.0
 11
465.6305818396356
 21
-923.3865561706251
 31
0.0
  0
LINE
  5
16B3
330
2
100
AcDbEntity
  8
画層1
  6
CENTER
 62
     1
100
AcDbLine
 10
462.6305818396356
 20
-920.3865561706249
 30
0.0
 11
462.6305818396356
 21
-926.386556170625
 31
0.0
  0
LINE
  5
16B4
330
2
100
AcDbEntity
  8
画層1
  6
CENTER
 62
     1
100
AcDbLine
 10
435.6305818396356
 20
-918.2218044443027
 30
0.0
 11
441.6305818396356
 21
-918.2218044443027
 31
0.0
  0
LINE
  5
16B5
330
2
100
AcDbEntity
  8
画層1
  6
CENTER
 62
     1
100
AcDbLine
 10
438.6305818396356
 20
-915.2218044443026
 30
0.0
 11
438.6305818396356
 21
-921.2218044443027
 31
0.0
  0
LINE
  5
16B6
330
2
100
AcDbEntity
  8
画層1
  6
CENTER
 62
     1
100
AcDbLine
 10
408.6305818396356
 20
-915.2218044443026
 30
0.0
 11
408.6305818396356
 21
-921.2218044443027
 31
0.0
  0
LINE
  5
16B7
330
2
100
AcDbEntity
  8
画層1
  6
CENTER
 62
     1
100
AcDbLine
 10
405.6305818396356
 20
-918.2218044443027
 30
0.0
 11
411.6305818396356
 21
-918.2218044443027
 31
0.0
  0
LINE
  5
16B8
330
2
100
AcDbEntity
  8
画層1
  6
CENTER
 62
     1
100
AcDbLine
 10
392.6305818396356
 20
-918.2218044443025
 30
0.0
 11
392.6305818396356
 21
-924.2218044443026
 31
0.0
  0
LINE
  5
16B9
330
2
100
AcDbEntity
  8
画層1
  6
CENTER
 62
     1
100
AcDbLine
 10
389.6305818396356
 20
-921.2218044443027
 30
0.0
 11
395.6305818396356
 21
-921.2218044443027
 31
0.0
  0
LINE
  5
16BA
330
2
100
AcDbEntity
  8
画層1
  6
CENTER
 62
     1
100
AcDbLine
 10
370.6305818396356
 20
-918.2218044443025
 30
0.0
 11
370.6305818396356
 21
-924.2218044443026
 31
0.0
  0
LINE
  5
16BB
330
2
100
AcDbEntity
  8
画層1
  6
CENTER
 62
     1
100
AcDbLine
 10
373.6305818396356
 20
-921.2218044443027
 30
0.0
 11
367.6305818396356
 21
-921.2218044443027
 31
0.0
  0
LINE
  5
16BC
330
2
100
AcDbEntity
  8
画層1
  6
CENTER
 62
     1
100
AcDbLine
 10
354.6305818396356
 20
-915.2218044443026
 30
0.0
 11
354.6305818396356
 21
-921.2218044443027
 31
0.0
  0
LINE
  5
16BD
330
2
100
AcDbEntity
  8
画層1
  6
CENTER
 62
     1
100
AcDbLine
 10
357.6305818396356
 20
-918.2218044443027
 30
0.0
 11
351.6305818396356
 21
-918.2218044443027
 31
0.0
  0
LINE
  5
16BE
330
2
100
AcDbEntity
  8
画層1
  6
CENTER
 62
     1
100
AcDbLine
 10
324.6305818396356
 20
-915.2218044443026
 30
0.0
 11
324.6305818396356
 21
-921.2218044443027
 31
0.0
  0
LINE
  5
16BF
330
2
100
AcDbEntity
  8
画層1
  6
CENTER
 62
     1
100
AcDbLine
 10
327.6305818396356
 20
-918.2218044443027
 30
0.0
 11
321.6305818396356
 21
-918.2218044443027
 31
0.0
  0
LINE
  5
16C0
330
2
100
AcDbEntity
  8
画層1
  6
CENTER
 62
     1
100
AcDbLine
 10
303.6305818396356
 20
-923.3865561706251
 30
0.0
 11
297.6305818396356
 21
-923.3865561706251
 31
0.0
  0
LINE
  5
16C1
330
2
100
AcDbEntity
  8
画層1
  6
CENTER
 62
     1
100
AcDbLine
 10
300.6305818396356
 20
-920.3865561706249
 30
0.0
 11
300.6305818396356
 21
-926.386556170625
 31
0.0
  0
LINE
  5
16C2
330
2
100
AcDbEntity
  8
画層1
  6
CENTER
 62
     1
100
AcDbLine
 10
303.6305818396356
 20
-908.2218044443028
 30
0.0
 11
297.6305818396356
 21
-908.2218044443028
 31
0.0
  0
LINE
  5
16C3
330
2
100
AcDbEntity
  8
画層1
  6
CENTER
 62
     1
100
AcDbLine
 10
300.6305818396356
 20
-905.2218044443026
 30
0.0
 11
300.6305818396356
 21
-911.2218044443027
 31
0.0
  0
LINE
  5
16C4
330
2
100
AcDbEntity
  8
画層1
  6
DASHED2
 62
     2
100
AcDbLine
 10
385.7805818396355
 20
-906.2218044443026
 30
0.0
 11
377.4805818396357
 21
-906.2218044443026
 31
0.0
  0
ARC
  5
16C5
330
2
100
AcDbEntity
  8
画層1
  6
DASHED2
 62
     2
100
AcDbCircle
 10
376.2305818396357
 20
-905.4718044443028
 30
0.0
 40
1.25
100
AcDbArc
 50
0.0
 51
180.0
  0
ARC
  5
16C6
330
2
100
AcDbEntity
  8
画層1
  6
DASHED2
 62
     2
100
AcDbCircle
 10
387.0305818396355
 20
-905.4718044443028
 30
0.0
 40
1.25
100
AcDbArc
 50
0.0
 51
180.0
  0
LINE
  5
16C7
330
2
100
AcDbEntity
  8
画層1
  6
DASHED2
 62
     2
100
AcDbLine
 10
374.9805818396358
 20
-906.2218044443026
 30
0.0
 11
366.6305818396356
 21
-906.2218044443026
 31
0.0
  0
LINE
  5
16C8
330
2
100
AcDbEntity
  8
画層1
  6
DASHED2
 62
     2
100
AcDbLine
 10
396.6305818396356
 20
-906.2218044443026
 30
0.0
 11
388.2805818396355
 21
-906.2218044443026
 31
0.0
  0
LINE
  5
16C9
330
2
100
AcDbEntity
  8
画層1
  6
DASHED2
 62
     2
100
AcDbLine
 10
385.7805818396355
 20
-905.4718044443028
 30
0.0
 11
385.7805818396355
 21
-926.9718044443028
 31
0.0
  0
LINE
  5
16CA
330
2
100
AcDbEntity
  8
画層1
  6
DASHED2
 62
     2
100
AcDbLine
 10
388.2805818396355
 20
-905.4718044443028
 30
0.0
 11
388.2805818396355
 21
-926.9718044443028
 31
0.0
  0
CIRCLE
  5
16CB
330
2
100
AcDbEntity
  8
画層1
  6
DASHED2
 62
     2
100
AcDbCircle
 10
381.6305818396356
 20
-911.2218044443025
 30
0.0
 40
3.5
  0
LINE
  5
16CC
330
2
100
AcDbEntity
  8
画層1
  6
DASHED2
 62
     2
100
AcDbLine
 10
396.6305818396356
 20
-926.2218044443027
 30
0.0
 11
396.6305818396356
 21
-906.2218044443026
 31
0.0
  0
ARC
  5
16CD
330
2
100
AcDbEntity
  8
画層1
  6
DASHED2
 62
     2
100
AcDbCircle
 10
380.1305818396356
 20
-909.7218044443026
 30
0.0
 40
1.0
100
AcDbArc
 50
270.0
 51
0.0
  0
ARC
  5
16CE
330
2
100
AcDbEntity
  8
画層1
  6
DASHED2
 62
     2
100
AcDbCircle
 10
380.1305818396356
 20
-912.7218044443026
 30
0.0
 40
1.0
100
AcDbArc
 50
0.0
 51
90.0
  0
LINE
  5
16CF
330
2
100
AcDbEntity
  8
画層1
  6
DASHED2
 62
     2
100
AcDbLine
 10
379.8305818396357
 20
-911.7218044443028
 30
0.0
 11
379.8305818396357
 21
-910.7218044443026
 31
0.0
  0
LINE
  5
16D0
330
2
100
AcDbEntity
  8
画層1
  6
DASHED2
 62
     2
100
AcDbLine
 10
380.1305818396357
 20
-911.7218044443028
 30
0.0
 11
379.8305818396357
 21
-911.7218044443028
 31
0.0
  0
LINE
  5
16D1
330
2
100
AcDbEntity
  8
画層1
  6
DASHED2
 62
     2
100
AcDbLine
 10
379.8305818396357
 20
-910.7218044443026
 30
0.0
 11
380.1305818396357
 21
-910.7218044443026
 31
0.0
  0
LINE
  5
16D2
330
2
100
AcDbEntity
  8
画層1
  6
DASHED2
 62
     2
100
AcDbLine
 10
383.4305818396356
 20
-911.7218044443028
 30
0.0
 11
383.4305818396356
 21
-910.7218044443026
 31
0.0
  0
LINE
  5
16D3
330
2
100
AcDbEntity
  8
画層1
  6
DASHED2
 62
     2
100
AcDbLine
 10
383.4305818396356
 20
-911.7218044443028
 30
0.0
 11
383.1305818396356
 21
-911.7218044443028
 31
0.0
  0
LINE
  5
16D4
330
2
100
AcDbEntity
  8
画層1
  6
DASHED2
 62
     2
100
AcDbLine
 10
382.1305818396356
 20
-912.7218044443026
 30
0.0
 11
382.1305818396356
 21
-913.0218044443026
 31
0.0
  0
LINE
  5
16D5
330
2
100
AcDbEntity
  8
画層1
  6
DASHED2
 62
     2
100
AcDbLine
 10
381.1305818396356
 20
-913.0218044443026
 30
0.0
 11
381.1305818396356
 21
-912.7218044443026
 31
0.0
  0
LINE
  5
16D6
330
2
100
AcDbEntity
  8
画層1
  6
DASHED2
 62
     2
100
AcDbLine
 10
381.1305818396356
 20
-913.0218044443026
 30
0.0
 11
382.1305818396356
 21
-913.0218044443026
 31
0.0
  0
ARC
  5
16D7
330
2
100
AcDbEntity
  8
画層1
  6
DASHED2
 62
     2
100
AcDbCircle
 10
383.1305818396356
 20
-912.7218044443026
 30
0.0
 40
1.0
100
AcDbArc
 50
90.0
 51
180.0
  0
ARC
  5
16D8
330
2
100
AcDbEntity
  8
画層1
  6
DASHED2
 62
     2
100
AcDbCircle
 10
383.1305818396356
 20
-909.7218044443026
 30
0.0
 40
1.0
100
AcDbArc
 50
180.0
 51
270.0
  0
LINE
  5
16D9
330
2
100
AcDbEntity
  8
画層1
  6
DASHED2
 62
     2
100
AcDbLine
 10
382.1305818396356
 20
-909.4218044443026
 30
0.0
 11
382.1305818396356
 21
-909.7218044443026
 31
0.0
  0
LINE
  5
16DA
330
2
100
AcDbEntity
  8
画層1
  6
DASHED2
 62
     2
100
AcDbLine
 10
383.1305818396356
 20
-910.7218044443026
 30
0.0
 11
383.4305818396356
 21
-910.7218044443026
 31
0.0
  0
LINE
  5
16DB
330
2
100
AcDbEntity
  8
画層1
  6
DASHED2
 62
     2
100
AcDbLine
 10
381.1305818396356
 20
-909.7218044443026
 30
0.0
 11
381.1305818396356
 21
-909.4218044443026
 31
0.0
  0
LINE
  5
16DC
330
2
100
AcDbEntity
  8
画層1
  6
DASHED2
 62
     2
100
AcDbLine
 10
381.1305818396356
 20
-909.4218044443026
 30
0.0
 11
382.1305818396356
 21
-909.4218044443026
 31
0.0
  0
LINE
  5
16DD
330
2
100
AcDbEntity
  8
画層1
  6
DASHED2
 62
     2
100
AcDbLine
 10
374.9805818396358
 20
-905.4718044443028
 30
0.0
 11
374.9805818396358
 21
-926.9718044443028
 31
0.0
  0
LINE
  5
16DE
330
2
100
AcDbEntity
  8
画層1
  6
DASHED2
 62
     2
100
AcDbLine
 10
377.4805818396357
 20
-905.4718044443028
 30
0.0
 11
377.4805818396357
 21
-926.9718044443028
 31
0.0
  0
LINE
  5
16DF
330
2
100
AcDbEntity
  8
画層1
  6
DASHED2
 62
     2
100
AcDbLine
 10
366.6305818396356
 20
-906.2218044443026
 30
0.0
 11
366.6305818396356
 21
-926.2218044443027
 31
0.0
  0
LINE
  5
16E0
330
2
100
AcDbEntity
  8
画層1
  6
DASHED2
 62
     2
100
AcDbLine
 10
366.6305818396356
 20
-926.2218044443027
 30
0.0
 11
374.9805818396358
 21
-926.2218044443027
 31
0.0
  0
CIRCLE
  5
16E1
330
2
100
AcDbEntity
  8
画層1
  6
DASHED2
 62
     2
100
AcDbCircle
 10
381.6305818396356
 20
-921.2218044443027
 30
0.0
 40
3.5
  0
LINE
  5
16E2
330
2
100
AcDbEntity
  8
画層1
  6
DASHED2
 62
     2
100
AcDbLine
 10
377.4805818396357
 20
-926.2218044443027
 30
0.0
 11
385.7805818396355
 21
-926.2218044443027
 31
0.0
  0
ARC
  5
16E3
330
2
100
AcDbEntity
  8
画層1
  6
DASHED2
 62
     2
100
AcDbCircle
 10
380.1305818396356
 20
-922.7218044443027
 30
0.0
 40
1.0
100
AcDbArc
 50
0.0
 51
90.0
  0
ARC
  5
16E4
330
2
100
AcDbEntity
  8
画層1
  6
DASHED2
 62
     2
100
AcDbCircle
 10
380.1305818396356
 20
-919.7218044443026
 30
0.0
 40
1.0
100
AcDbArc
 50
270.0
 51
0.0
  0
LINE
  5
16E5
330
2
100
AcDbEntity
  8
画層1
  6
DASHED2
 62
     2
100
AcDbLine
 10
379.8305818396357
 20
-921.7218044443026
 30
0.0
 11
379.8305818396357
 21
-920.7218044443028
 31
0.0
  0
LINE
  5
16E6
330
2
100
AcDbEntity
  8
画層1
  6
DASHED2
 62
     2
100
AcDbLine
 10
380.1305818396357
 20
-921.7218044443026
 30
0.0
 11
379.8305818396357
 21
-921.7218044443026
 31
0.0
  0
LINE
  5
16E7
330
2
100
AcDbEntity
  8
画層1
  6
DASHED2
 62
     2
100
AcDbLine
 10
379.8305818396357
 20
-920.7218044443028
 30
0.0
 11
380.1305818396357
 21
-920.7218044443028
 31
0.0
  0
ARC
  5
16E8
330
2
100
AcDbEntity
  8
画層1
  6
DASHED2
 62
     2
100
AcDbCircle
 10
383.1305818396356
 20
-922.7218044443027
 30
0.0
 40
1.0
100
AcDbArc
 50
90.0
 51
180.0
  0
LINE
  5
16E9
330
2
100
AcDbEntity
  8
画層1
  6
DASHED2
 62
     2
100
AcDbLine
 10
382.1305818396356
 20
-922.7218044443027
 30
0.0
 11
382.1305818396356
 21
-923.0218044443025
 31
0.0
  0
LINE
  5
16EA
330
2
100
AcDbEntity
  8
画層1
  6
DASHED2
 62
     2
100
AcDbLine
 10
383.4305818396356
 20
-921.7218044443026
 30
0.0
 11
383.4305818396356
 21
-920.7218044443028
 31
0.0
  0
LINE
  5
16EB
330
2
100
AcDbEntity
  8
画層1
  6
DASHED2
 62
     2
100
AcDbLine
 10
383.4305818396356
 20
-921.7218044443026
 30
0.0
 11
383.1305818396356
 21
-921.7218044443026
 31
0.0
  0
LINE
  5
16EC
330
2
100
AcDbEntity
  8
画層1
  6
DASHED2
 62
     2
100
AcDbLine
 10
383.1305818396356
 20
-920.7218044443028
 30
0.0
 11
383.4305818396356
 21
-920.7218044443028
 31
0.0
  0
LINE
  5
16ED
330
2
100
AcDbEntity
  8
画層1
  6
DASHED2
 62
     2
100
AcDbLine
 10
382.1305818396356
 20
-919.4218044443026
 30
0.0
 11
382.1305818396356
 21
-919.7218044443026
 31
0.0
  0
ARC
  5
16EE
330
2
100
AcDbEntity
  8
画層1
  6
DASHED2
 62
     2
100
AcDbCircle
 10
383.1305818396356
 20
-919.7218044443026
 30
0.0
 40
1.0
100
AcDbArc
 50
180.0
 51
270.0
  0
LINE
  5
16EF
330
2
100
AcDbEntity
  8
画層1
  6
DASHED2
 62
     2
100
AcDbLine
 10
381.1305818396356
 20
-923.0218044443025
 30
0.0
 11
381.1305818396356
 21
-922.7218044443027
 31
0.0
  0
LINE
  5
16F0
330
2
100
AcDbEntity
  8
画層1
  6
DASHED2
 62
     2
100
AcDbLine
 10
381.1305818396356
 20
-919.7218044443026
 30
0.0
 11
381.1305818396356
 21
-919.4218044443026
 31
0.0
  0
LINE
  5
16F1
330
2
100
AcDbEntity
  8
画層1
  6
DASHED2
 62
     2
100
AcDbLine
 10
381.1305818396356
 20
-923.0218044443025
 30
0.0
 11
382.1305818396356
 21
-923.0218044443025
 31
0.0
  0
LINE
  5
16F2
330
2
100
AcDbEntity
  8
画層1
  6
DASHED2
 62
     2
100
AcDbLine
 10
381.1305818396356
 20
-919.4218044443026
 30
0.0
 11
382.1305818396356
 21
-919.4218044443026
 31
0.0
  0
ARC
  5
16F3
330
2
100
AcDbEntity
  8
画層1
  6
DASHED2
 62
     2
100
AcDbCircle
 10
376.2305818396357
 20
-926.9718044443028
 30
0.0
 40
1.25
100
AcDbArc
 50
180.0
 51
0.0
  0
ARC
  5
16F4
330
2
100
AcDbEntity
  8
画層1
  6
DASHED2
 62
     2
100
AcDbCircle
 10
387.0305818396355
 20
-926.9718044443028
 30
0.0
 40
1.25
100
AcDbArc
 50
180.0
 51
0.0
  0
LINE
  5
16F5
330
2
100
AcDbEntity
  8
画層1
  6
DASHED2
 62
     2
100
AcDbLine
 10
388.2805818396355
 20
-926.2218044443027
 30
0.0
 11
396.6305818396356
 21
-926.2218044443027
 31
0.0
  0
DIMENSION
  5
16F6
330
2
100
AcDbEntity
  8
画層1
 62
     1
100
AcDbDimension
  2
*D27
 10
385.7805818396355
 20
-942.2218044443026
 30
0.0
 11
390.1821554436964
 21
-942.2218044443026
 31
0.0
 70
   160
 71
     5
 42
8.299999999999783
  3
STANDARD_WS
100
AcDbAlignedDimension
 13
377.4805818396357
 23
-926.9718044443028
 33
0.0
 14
385.7805818396355
 24
-926.9718044443028
 34
0.0
100
AcDbRotatedDimension
1001
ACAD
1000
DSTYLE
1002
{
1070
    47
1040
0.6
1070
   146
1040
0.5
1070
   173
1070
     0
1070
   284
1070
     8
1070
   340
1005
27
1070
   341
1005
28
1070
   342
1005
28
1070
   343
1005
0
1070
   344
1005
0
1002
}
  0
LINE
  5
1711
330
2
100
AcDbEntity
  8
画層1
  6
DASHED2
 62
     2
100
AcDbLine
 10
316.1305818396356
 20
-975.2218044443027
 30
0.0
 11
362.1305818396356
 21
-975.2218044443027
 31
0.0
  0
LINE
  5
1712
330
2
100
AcDbEntity
  8
画層1
  6
DASHED2
 62
     2
100
AcDbLine
 10
362.1305818396356
 20
-975.2218044443027
 30
0.0
 11
362.1305818396356
 21
-898.2218044443028
 31
0.0
  0
LINE
  5
1713
330
2
100
AcDbEntity
  8
画層1
  6
DASHED2
 62
     2
100
AcDbLine
 10
362.1305818396356
 20
-898.2218044443028
 30
0.0
 11
317.1305818396356
 21
-898.2218044443028
 31
0.0
  0
LINE
  5
1714
330
2
100
AcDbEntity
  8
画層1
  6
DASHED2
 62
     2
100
AcDbLine
 10
317.1305818396356
 20
-898.2218044443028
 30
0.0
 11
317.1305818396356
 21
-975.2218044443027
 31
0.0
  0
LINE
  5
1715
330
2
100
AcDbEntity
  8
画層1
  6
DASHED2
 62
     2
100
AcDbLine
 10
317.1305818396356
 20
-903.2218044443027
 30
0.0
 11
362.1305818396356
 21
-903.2218044443027
 31
0.0
  0
LINE
  5
1716
330
2
100
AcDbEntity
  8
画層1
  6
DASHED2
 62
     2
100
AcDbLine
 10
307.1305818396356
 20
-975.2218044443027
 30
0.0
 11
302.1305818396356
 21
-975.2218044443027
 31
0.0
  0
CIRCLE
  5
1717
330
2
100
AcDbEntity
  8
画層1
  6
DASHED2
 62
     2
100
AcDbCircle
 10
339.6305818396356
 20
-954.2218044443027
 30
0.0
 40
6.5
  0
LINE
  5
1718
330
2
100
AcDbEntity
  8
画層1
  6
DASHED2
 62
     2
100
AcDbLine
 10
446.1305818396356
 20
-898.2218044443028
 30
0.0
 11
446.1305818396356
 21
-975.2218044443027
 31
0.0
  0
LINE
  5
1719
330
2
100
AcDbEntity
  8
画層1
  6
DASHED2
 62
     2
100
AcDbLine
 10
401.1305818396356
 20
-975.2218044443027
 30
0.0
 11
401.1305818396356
 21
-898.2218044443028
 31
0.0
  0
LINE
  5
171A
330
2
100
AcDbEntity
  8
画層1
  6
DASHED2
 62
     2
100
AcDbLine
 10
446.1305818396356
 20
-903.2218044443027
 30
0.0
 11
401.1305818396356
 21
-903.2218044443027
 31
0.0
  0
LINE
  5
171B
330
2
100
AcDbEntity
  8
画層1
  6
DASHED2
 62
     2
100
AcDbLine
 10
401.1305818396356
 20
-898.2218044443028
 30
0.0
 11
446.1305818396356
 21
-898.2218044443028
 31
0.0
  0
CIRCLE
  5
171C
330
2
100
AcDbEntity
  8
画層1
  6
DASHED2
 62
     2
100
AcDbCircle
 10
423.6305818396356
 20
-954.2218044443027
 30
0.0
 40
6.5
  0
LINE
  5
171D
330
2
100
AcDbEntity
  8
画層1
  6
DASHED2
 62
     2
100
AcDbLine
 10
447.1305818396356
 20
-975.2218044443027
 30
0.0
 11
401.1305818396356
 21
-975.2218044443027
 31
0.0
  0
LINE
  5
171E
330
2
100
AcDbEntity
  8
画層1
  6
DASHED2
 62
     2
100
AcDbLine
 10
456.1305818396355
 20
-975.2218044443027
 30
0.0
 11
461.1305818396356
 21
-975.2218044443027
 31
0.0
  0
LINE
  5
171F
330
2
100
AcDbEntity
  8
画層1
  6
DIVIDE
 62
     1
100
AcDbLine
 10
470.6305818396355
 20
-916.386556170625
 30
0.0
 11
292.6305818396356
 21
-916.386556170625
 31
0.0
  0
LINE
  5
1720
330
2
100
AcDbEntity
  8
画層1
  6
DIVIDE
 62
     1
100
AcDbLine
 10
470.6305818396355
 20
-1011.386556170625
 30
0.0
 11
470.6305818396355
 21
-916.386556170625
 31
0.0
  0
LINE
  5
1721
330
2
100
AcDbEntity
  8
画層1
  6
DIVIDE
 62
     1
100
AcDbLine
 10
292.6305818396356
 20
-1011.386556170625
 30
0.0
 11
292.6305818396356
 21
-916.386556170625
 31
0.0
  0
LINE
  5
1722
330
2
100
AcDbEntity
  8
画層1
  6
DIVIDE
 62
     1
100
AcDbLine
 10
297.6305818396356
 20
-1016.386556170625
 30
0.0
 11
465.6305818396354
 21
-1016.386556170625
 31
0.0
  0
ARC
  5
1725
330
2
100
AcDbEntity
  8
画層1
  6
DIVIDE
 62
     1
100
AcDbCircle
 10
465.6305818396354
 20
-1011.386556170625
 30
0.0
 40
5.0
100
AcDbArc
 50
270.0
 51
0.0
  0
ARC
  5
1726
330
2
100
AcDbEntity
  8
画層1
  6
DIVIDE
 62
     1
100
AcDbCircle
 10
297.6305818396356
 20
-1011.386556170625
 30
0.0
 40
5.0
100
AcDbArc
 50
180.0
 51
270.0
  0
LINE
  5
1733
330
2
100
AcDbEntity
  8
画層1
  6
DASHED2
 62
     2
100
AcDbLine
 10
712.4389206732846
 20
-889.2218044443026
 30
0.0
 11
722.4389206732846
 21
-889.2218044443026
 31
0.0
  0
LINE
  5
1734
330
2
100
AcDbEntity
  8
画層1
  6
DASHED2
 62
     2
100
AcDbLine
 10
722.4389206732846
 20
-889.2218044443026
 30
0.0
 11
722.4389206732846
 21
-928.2218044443027
 31
0.0
  0
LINE
  5
1735
330
2
100
AcDbEntity
  8
画層1
  6
DASHED2
 62
     2
100
AcDbLine
 10
722.4389206732846
 20
-928.2218044443027
 30
0.0
 11
712.4389206732846
 21
-928.2218044443027
 31
0.0
  0
LINE
  5
1736
330
2
100
AcDbEntity
  8
画層1
  6
DASHED2
 62
     2
100
AcDbLine
 10
712.4389206732846
 20
-928.2218044443027
 30
0.0
 11
712.4389206732846
 21
-889.2218044443026
 31
0.0
  0
LINE
  5
1737
330
2
100
AcDbEntity
  8
画層1
  6
DASHED2
 62
     2
100
AcDbLine
 10
712.4389206732846
 20
-898.7218044443027
 30
0.0
 11
722.4389206732846
 21
-898.7218044443027
 31
0.0
  0
LINE
  5
173A
330
2
100
AcDbEntity
  8
画層1
  6
DASHED2
 62
     2
100
AcDbLine
 10
704.4389206732846
 20
-898.2218044443028
 30
0.0
 11
654.4389206732846
 21
-898.2218044443028
 31
0.0
  0
LINE
  5
173B
330
2
100
AcDbEntity
  8
画層1
  6
DASHED2
 62
     2
100
AcDbLine
 10
654.4389206732846
 20
-898.2218044443028
 30
0.0
 11
654.4389206732846
 21
-903.2218044443027
 31
0.0
  0
LINE
  5
173C
330
2
100
AcDbEntity
  8
画層1
  6
DASHED2
 62
     2
100
AcDbLine
 10
654.4389206732846
 20
-903.2218044443027
 30
0.0
 11
704.4389206732846
 21
-903.2218044443027
 31
0.0
  0
LINE
  5
173D
330
2
100
AcDbEntity
  8
画層1
  6
DASHED2
 62
     2
100
AcDbLine
 10
707.4389206732846
 20
-906.2218044443026
 30
0.0
 11
707.4389206732846
 21
-975.2218044443027
 31
0.0
  0
LINE
  5
173E
330
2
100
AcDbEntity
  8
画層1
  6
DASHED2
 62
     2
100
AcDbLine
 10
712.4389206732846
 20
-906.2218044443028
 30
0.0
 11
712.4389206732846
 21
-975.2218044443027
 31
0.0
  0
ARC
  5
173F
330
2
100
AcDbEntity
  8
画層1
  6
DASHED2
 62
     2
100
AcDbCircle
 10
704.4389206732846
 20
-906.2218044443028
 30
0.0
 40
8.0
100
AcDbArc
 50
0.0
 51
90.0
  0
ARC
  5
1740
330
2
100
AcDbEntity
  8
画層1
  6
DASHED2
 62
     2
100
AcDbCircle
 10
704.4389206732846
 20
-906.2218044443026
 30
0.0
 40
3.0
100
AcDbArc
 50
0.0
 51
90.0
  0
LINE
  5
1741
330
2
100
AcDbEntity
  8
画層1
  6
DASHED2
 62
     2
100
AcDbLine
 10
703.4389206732846
 20
-926.2218044443027
 30
0.0
 11
703.4389206732846
 21
-906.2218044443026
 31
0.0
  0
LINE
  5
1742
330
2
100
AcDbEntity
  8
画層1
  6
DASHED2
 62
     2
100
AcDbLine
 10
702.9389206732846
 20
-926.2218044443027
 30
0.0
 11
702.9389206732846
 21
-906.2218044443026
 31
0.0
  0
LINE
  5
1743
330
2
100
AcDbEntity
  8
画層1
  6
DASHED2
 62
     2
100
AcDbLine
 10
696.4389206732846
 20
-904.2218044443027
 30
0.0
 11
696.4389206732846
 21
-928.2218044443027
 31
0.0
  0
LINE
  5
1744
330
2
100
AcDbEntity
  8
画層1
  6
DASHED2
 62
     2
100
AcDbLine
 10
696.4389206732846
 20
-928.2218044443027
 30
0.0
 11
712.4389206732846
 21
-928.2218044443027
 31
0.0
  0
LINE
  5
1745
330
2
100
AcDbEntity
  8
画層1
  6
DASHED2
 62
     2
100
AcDbLine
 10
709.4389206732846
 20
-926.2218044443027
 30
0.0
 11
702.9389206732846
 21
-926.2218044443027
 31
0.0
  0
LINE
  5
1746
330
2
100
AcDbEntity
  8
画層1
  6
DASHED2
 62
     2
100
AcDbLine
 10
702.9389206732846
 20
-907.7218044443027
 30
0.0
 11
701.4389206732846
 21
-907.7218044443027
 31
0.0
  0
LINE
  5
1747
330
2
100
AcDbEntity
  8
画層1
  6
DASHED2
 62
     2
100
AcDbLine
 10
702.9389206732846
 20
-924.7218044443027
 30
0.0
 11
701.4389206732846
 21
-924.7218044443027
 31
0.0
  0
LINE
  5
1748
330
2
100
AcDbEntity
  8
画層1
  6
DASHED2
 62
     2
100
AcDbLine
 10
702.9389206732846
 20
-917.7218044443026
 30
0.0
 11
701.4389206732846
 21
-917.7218044443026
 31
0.0
  0
LINE
  5
1749
330
2
100
AcDbEntity
  8
画層1
  6
DASHED2
 62
     2
100
AcDbLine
 10
702.9389206732846
 20
-914.7218044443025
 30
0.0
 11
701.4389206732846
 21
-914.7218044443025
 31
0.0
  0
LINE
  5
174A
330
2
100
AcDbEntity
  8
画層1
  6
DASHED2
 62
     2
100
AcDbLine
 10
712.4389206732846
 20
-904.2218044443027
 30
0.0
 11
696.4389206732846
 21
-904.2218044443027
 31
0.0
  0
ARC
  5
174B
330
2
100
AcDbEntity
  8
画層1
  6
DASHED2
 62
     2
100
AcDbCircle
 10
713.4269820509869
 20
-911.2218044443025
 30
0.0
 40
12.48853936998062
100
AcDbArc
 50
163.7244588984995
 51
196.275541101502
  0
ARC
  5
174C
330
2
100
AcDbEntity
  8
画層1
  6
DASHED2
 62
     2
100
AcDbCircle
 10
713.4269820509869
 20
-921.2218044443027
 30
0.0
 40
12.48853936998062
100
AcDbArc
 50
163.7244588984995
 51
196.275541101502
  0
LINE
  5
174D
330
2
100
AcDbEntity
  8
画層1
  6
DASHED2
 62
     2
100
AcDbLine
 10
702.9389206732846
 20
-906.2218044443026
 30
0.0
 11
709.4389206732846
 21
-906.2218044443026
 31
0.0
  0
LINE
  5
174E
330
2
100
AcDbEntity
  8
画層1
  6
CENTER
 62
     1
100
AcDbLine
 10
667.4389206732846
 20
-923.3865561706251
 30
0.0
 11
725.4389206732846
 21
-923.3865561706251
 31
0.0
  0
LINE
  5
174F
330
2
100
AcDbEntity
  8
画層1
  6
DIVIDE
 62
     1
100
AcDbLine
 10
670.4389206732846
 20
-1016.386556170625
 30
0.0
 11
670.4389206732846
 21
-916.386556170625
 31
0.0
  0
LINE
  5
1750
330
2
100
AcDbEntity
  8
画層1
  6
DIVIDE
 62
     1
100
AcDbLine
 10
672.4389206732846
 20
-1016.386556170625
 30
0.0
 11
672.4389206732846
 21
-916.386556170625
 31
0.0
  0
LINE
  5
1751
330
2
100
AcDbEntity
  8
画層1
  6
DIVIDE
 62
     1
100
AcDbLine
 10
670.4389206732846
 20
-916.386556170625
 30
0.0
 11
672.4389206732846
 21
-916.386556170625
 31
0.0
  0
LINE
  5
1752
330
2
100
AcDbEntity
  8
画層1
  6
DIVIDE
 62
     1
100
AcDbLine
 10
670.4389206732846
 20
-1016.386556170625
 30
0.0
 11
672.4389206732846
 21
-1016.386556170625
 31
0.0
  0
LINE
  5
1758
330
2
100
AcDbEntity
  8
画層1
  6
DASHED2
 62
     2
100
AcDbLine
 10
709.4389206732845
 20
-904.2218044443027
 30
0.0
 11
709.4389206732848
 21
-906.2218044443024
 31
0.0
  0
LINE
  5
1759
330
2
100
AcDbEntity
  8
画層1
  6
DASHED2
 62
     2
100
AcDbLine
 10
709.4389206732848
 20
-926.2218044443025
 30
0.0
 11
709.4389206732846
 21
-928.2218044443027
 31
0.0
  0
LINE
  5
175A
330
2
100
AcDbEntity
  8
画層1
  6
CENTER
 62
     1
100
AcDbLine
 10
381.6305818396356
 20
-980.2218044443028
 30
0.0
 11
381.6305818396356
 21
-596.2218044443027
 31
0.0
  0
LINE
  5
175D
330
2
100
AcDbEntity
  8
画層1
  6
CENTER
 62
     1
100
AcDbLine
 10
862.4389206732844
 20
-610.2218044443027
 30
0.0
 11
872.4389206732846
 21
-610.2218044443027
 31
0.0
  0
LINE
  5
175E
330
2
100
AcDbEntity
  8
画層1
  6
CENTER
 62
     1
100
AcDbLine
 10
862.4389206732844
 20
-966.2218044443026
 30
0.0
 11
872.4389206732846
 21
-966.2218044443026
 31
0.0
  0
DIMENSION
  5
175F
330
2
100
AcDbEntity
  8
画層1
 62
     1
100
AcDbDimension
  2
*D30
 10
482.6305818396356
 20
-585.2218044443029
 30
0.0
 11
381.6305818396356
 21
-583.3418044443029
 31
0.0
 70
    32
 71
     5
 42
202.0
  3
STANDARD_WS
100
AcDbAlignedDimension
 13
280.6305818396356
 23
-599.2218044443028
 33
0.0
 14
482.6305818396356
 24
-599.2218044443028
 34
0.0
100
AcDbRotatedDimension
1001
ACAD
1000
DSTYLE
1002
{
1070
    47
1040
0.6
1070
   146
1040
0.5
1070
   173
1070
     0
1070
   284
1070
     8
1070
   340
1005
27
1070
   341
1005
28
1070
   342
1005
28
1070
   343
1005
0
1070
   344
1005
0
1002
}
  0
DIMENSION
  5
1760
330
2
100
AcDbEntity
  8
画層1
 62
     1
100
AcDbDimension
  2
*D28
 10
451.6305818396355
 20
-592.2218044443029
 30
0.0
 11
381.6305818396354
 21
-590.3418044443029
 31
0.0
 70
    32
 71
     5
 42
140.0
  3
STANDARD_WS
100
AcDbAlignedDimension
 13
311.6305818396355
 23
-610.2218044443027
 33
0.0
 14
451.6305818396355
 24
-610.2218044443027
 34
0.0
100
AcDbRotatedDimension
1001
ACAD
1000
DSTYLE
1002
{
1070
    47
1040
0.6
1070
   146
1040
0.5
1070
   173
1070
     0
1070
   284
1070
     8
1070
   340
1005
27
1070
   341
1005
28
1070
   342
1005
28
1070
   343
1005
0
1070
   344
1005
0
1002
}
  0
DIMENSION
  5
1761
330
2
100
AcDbEntity
  8
画層1
 62
     1
100
AcDbDimension
  2
*D29
 10
482.6305818396356
 20
-592.2218044443029
 30
0.0
 11
467.1305818396355
 21
-590.1324135813588
 31
0.0
 70
    32
 71
     5
 42
31.00000000000011
  3
STANDARD_WS
100
AcDbAlignedDimension
 13
451.6305818396355
 23
-610.2218044443027
 33
0.0
 14
482.6305818396356
 24
-599.2218044443028
 34
0.0
100
AcDbRotatedDimension
1001
ACAD
1000
DSTYLE
1002
{
1070
     3
1000
(<>)
1070
   279
1070
     1
1070
    47
1040
0.6
1070
   146
1040
0.5
1070
   173
1070
     0
1070
   284
1070
     8
1070
   340
1005
27
1070
   341
1005
28
1070
   342
1005
28
1070
   343
1005
0
1070
   344
1005
0
1002
}
  0
LEADER
  5
1762
330
2
100
AcDbEntity
  8
画層1
 62
     1
100
AcDbLeader
  3
STANDARD_WS
 73
     0
 75
     1
 40
2.5
 41
10.86294416243654
 76
     3
 10
298.7305818396356
 20
-649.5218044443028
 30
0.0
 10
248.2088849962729
 20
-599.2218044443028
 30
0.0
 10
246.7088849962729
 20
-599.2218044443028
 30
0.0
340
1763
213
-1.0
223
0.4207616165015227
233
0.0
1001
ACAD
1000
DSTYLE
1002
{
1070
     6
1000
DOTSMALL
1070
    47
1040
0.6
1070
    77
1070
     2
1070
   144
1040
2.0
1070
   146
1040
0.5
1070
   147
1040
0.63
1070
   284
1070
     8
1070
   340
1005
27
1070
   341
1005
121
1070
   343
1005
121
1002
}
  0
MTEXT
  5
1763
102
{ACAD_REACTORS
330
1762
102
}
330
2
100
AcDbEntity
  8
画層1
 62
     1
100
AcDbMText
 10
247.0788849962729
 20
-599.0125660608043
 30
0.0
 40
2.5
 41
0.0
 71
     9
 72
     1
  1
18-M3.5
  7
STYLE1
 73
     1
 44
1.0
  0
LEADER
  5
1764
330
2
100
AcDbEntity
  8
画層1
 62
     1
100
AcDbLeader
  3
STANDARD_WS
 73
     0
 74
     0
 75
     1
 40
2.906091370558375
 41
7.779187817258882
 76
     3
 10
455.6907933750949
 20
-608.2815255243218
 30
0.0
 10
488.4167499179725
 20
-592.6425660608042
 30
0.0
 10
489.9167499179725
 20
-592.6425660608042
 30
0.0
340
1765
1001
ACAD
1000
DSTYLE
1002
{
1070
    47
1040
0.6
1070
    77
1070
     2
1070
   144
1040
2.0
1070
   146
1040
0.5
1070
   147
1040
0.63
1070
   284
1070
     8
1070
   340
1005
27
1070
   341
1005
28
1070
   343
1005
121
1002
}
  0
MTEXT
  5
1765
102
{ACAD_REACTORS
330
1764
102
}
330
2
100
AcDbEntity
  8
画層1
 62
     1
100
AcDbMText
 10
490.5467499179725
 20
-590.5595203755251
 30
0.0
 40
2.5
 41
0.0
 71
     4
 72
     1
  1
2-φ9
  7
STYLE1
 73
     1
 44
1.0
  0
DIMENSION
  5
17DB
330
2
100
AcDbEntity
  8
画層1
 62
     1
100
AcDbDimension
  2
*D32
 10
266.6305818396355
 20
-966.2218044443028
 30
0.0
 11
264.7505818396357
 21
-788.2218044443027
 31
0.0
 70
    32
 71
     5
 42
356.0000000000001
  3
STANDARD_WS
100
AcDbAlignedDimension
 13
311.6305818396355
 23
-610.2218044443027
 33
0.0
 14
311.6305818396356
 24
-966.2218044443028
 34
0.0
 50
90.0
100
AcDbRotatedDimension
1001
ACAD
1000
DSTYLE
1002
{
1070
    47
1040
0.6
1070
   146
1040
0.5
1070
   173
1070
     0
1070
   284
1070
     8
1070
   340
1005
27
1070
   341
1005
28
1070
   342
1005
28
1070
   343
1005
0
1070
   344
1005
0
1002
}
  0
DIMENSION
  5
17DC
330
2
100
AcDbEntity
  8
画層1
 62
     1
100
AcDbDimension
  2
*D31
 10
273.6305818396355
 20
-647.0218044443027
 30
0.0
 11
271.7505818396356
 21
-651.0218044443027
 31
0.0
 70
    32
 71
     5
 42
8.0
  3
STANDARD_WS
100
AcDbAlignedDimension
 13
294.8305818396357
 23
-655.0218044443028
 33
0.0
 14
294.8305818396357
 24
-647.0218044443027
 34
0.0
 50
90.0
100
AcDbRotatedDimension
1001
ACAD
1000
DSTYLE
1002
{
1070
    47
1040
0.6
1070
   144
1040
1.0
1070
   146
1040
0.5
1070
   173
1070
     0
1070
   284
1070
     8
1070
   340
1005
27
1070
   341
1005
28
1070
     5
1000
OPEN30
1070
     6
1000
OPEN30
1002
}
  0
DIMENSION
  5
18E2
330
2
100
AcDbEntity
  8
画層1
 62
     1
100
AcDbDimension
  2
*D34
 10
446.1305818396356
 20
-1023.386556170625
 30
0.0
 11
423.6305818396356
 21
-1021.506556170625
 31
0.0
 70
    32
 71
     5
 42
45.0
  3
STANDARD_WS
100
AcDbAlignedDimension
 13
401.1305818396356
 23
-975.2218044443027
 33
0.0
 14
446.1305818396356
 24
-975.2218044443027
 34
0.0
100
AcDbRotatedDimension
1001
ACAD
1000
DSTYLE
1002
{
1070
    47
1040
0.6
1070
   146
1040
0.5
1070
   173
1070
     0
1070
   284
1070
     8
1070
   340
1005
27
1070
   341
1005
28
1070
   342
1005
28
1070
   343
1005
0
1070
   344
1005
0
1002
}
  0
DIMENSION
  5
18E3
330
2
100
AcDbEntity
  8
画層1
 62
     1
100
AcDbDimension
  2
*D36
 10
482.6305818396355
 20
-1030.386556170625
 30
0.0
 11
453.1305818396355
 21
-1028.297165307681
 31
0.0
 70
    32
 71
     5
 42
58.99999999999988
  3
STANDARD_WS
100
AcDbAlignedDimension
 13
423.6305818396356
 23
-954.2218044443027
 33
0.0
 14
482.6305818396355
 24
-977.2218044443029
 34
0.0
100
AcDbRotatedDimension
1001
ACAD
1000
DSTYLE
1002
{
1070
     3
1000
(<>)
1070
   279
1070
     1
1070
    47
1040
0.6
1070
   146
1040
0.5
1070
   173
1070
     0
1070
   284
1070
     8
1070
   340
1005
27
1070
   341
1005
28
1070
   342
1005
28
1070
   343
1005
0
1070
   344
1005
0
1002
}
  0
DIMENSION
  5
18E4
330
2
100
AcDbEntity
  8
画層1
 62
     1
100
AcDbDimension
  2
*D35
 10
423.6305818396356
 20
-1030.386556170625
 30
0.0
 11
381.6305818396356
 21
-1028.506556170625
 31
0.0
 70
    32
 71
     5
 42
84.0
  3
STANDARD_WS
100
AcDbAlignedDimension
 13
339.6305818396356
 23
-954.2218044443027
 33
0.0
 14
423.6305818396356
 24
-954.2218044443027
 34
0.0
100
AcDbRotatedDimension
1001
ACAD
1000
DSTYLE
1002
{
1070
    47
1040
0.6
1070
   146
1040
0.5
1070
   173
1070
     0
1070
   284
1070
     8
1070
   340
1005
27
1070
   341
1005
28
1070
   342
1005
28
1070
   343
1005
0
1070
   344
1005
0
1002
}
  0
DIMENSION
  5
18E5
330
2
100
AcDbEntity
  8
画層1
 62
     1
100
AcDbDimension
  2
*D33
 10
307.1305818396356
 20
-1023.386556170625
 30
0.0
 11
293.7759625502954
 21
-1021.265439419356
 31
0.0
 70
    32
 71
     5
 42
9.0
  3
STANDARD_WS
100
AcDbAlignedDimension
 13
316.1305818396356
 23
-975.2218044443027
 33
0.0
 14
307.1305818396356
 24
-975.2218044443027
 34
0.0
100
AcDbRotatedDimension
1001
ACAD
1000
DSTYLE
1002
{
1070
     3
1000
2-φ<> キリカキ
1070
    47
1040
0.6
1070
   146
1040
0.5
1070
   173
1070
     0
1070
   284
1070
     8
1070
   340
1005
27
1070
   341
1005
28
1070
   342
1005
28
1070
   343
1005
0
1070
   344
1005
0
1002
}
  0
LEADER
  5
18E6
330
2
100
AcDbEntity
  8
画層1
 62
     1
100
AcDbLeader
  3
STANDARD_WS
 73
     0
 75
     1
 40
2.5
 41
6.180203045685279
 76
     3
 10
380.1305818396356
 20
-922.7218044443027
 30
0.0
 10
325.8526585221622
 20
-1037.386556170625
 30
0.0
 10
324.3526585221623
 20
-1037.386556170625
 30
0.0
340
18E7
213
-1.0
223
0.4207616165015227
233
0.0
1001
ACAD
1000
DSTYLE
1002
{
1070
     6
1000
DOTSMALL
1070
    47
1040
0.6
1070
    77
1070
     2
1070
   144
1040
2.0
1070
   146
1040
0.5
1070
   147
1040
0.63
1070
   284
1070
     8
1070
   340
1005
27
1070
   341
1005
121
1070
   343
1005
121
1002
}
  0
MTEXT
  5
18E7
102
{ACAD_REACTORS
330
18E6
102
}
330
2
100
AcDbEntity
  8
画層1
 62
     1
100
AcDbMText
 10
324.7226585221623
 20
-1037.177317787126
 30
0.0
 40
2.5
 41
0.0
 71
     9
 72
     1
  1
M3.5
  7
STYLE1
 73
     1
 44
1.0
  0
LEADER
  5
18E8
330
2
100
AcDbEntity
  8
画層1
 62
     1
100
AcDbLeader
  3
STANDARD_WS
 73
     0
 75
     1
 40
2.906091370558375
 41
9.403553299492385
 76
     3
 10
338.2260716115915
 20
-960.5682484107552
 30
0.0
 10
321.071958332611
 20
-1030.386556170625
 30
0.0
 10
319.571958332611
 20
-1030.386556170625
 30
0.0
340
18E9
213
-1.0
223
0.4207616165015227
233
0.0
1001
ACAD
1000
DSTYLE
1002
{
1070
    47
1040
0.6
1070
    77
1070
     2
1070
   144
1040
2.0
1070
   146
1040
0.5
1070
   147
1040
0.63
1070
   284
1070
     8
1070
   340
1005
27
1070
   341
1005
28
1070
   343
1005
121
1002
}
  0
MTEXT
  5
18E9
102
{ACAD_REACTORS
330
18E8
102
}
330
2
100
AcDbEntity
  8
画層1
 62
     1
100
AcDbMText
 10
319.941958332611
 20
-1030.177317787126
 30
0.0
 40
2.5
 41
0.0
 71
     9
 72
     1
  1
2-φ13
  7
STYLE1
 73
     1
 44
1.0
  0
LINE
  5
196F
330
2
100
AcDbEntity
  8
画層1
  6
CENTER
 62
     1
100
AcDbLine
 10
415.1305818396356
 20
-954.2218044443027
 30
0.0
 11
432.1305818396356
 21
-954.2218044443027
 31
0.0
  0
LINE
  5
1970
330
2
100
AcDbEntity
  8
画層1
  6
CENTER
 62
     1
100
AcDbLine
 10
423.6305818396356
 20
-945.7218044443028
 30
0.0
 11
423.6305818396356
 21
-962.7218044443029
 31
0.0
  0
LINE
  5
1971
330
2
100
AcDbEntity
  8
画層1
  6
CENTER
 62
     1
100
AcDbLine
 10
331.1305818396356
 20
-954.2218044443027
 30
0.0
 11
348.1305818396356
 21
-954.2218044443027
 31
0.0
  0
LINE
  5
1972
330
2
100
AcDbEntity
  8
画層1
  6
CENTER
 62
     1
100
AcDbLine
 10
339.6305818396356
 20
-945.7218044443026
 30
0.0
 11
339.6305818396356
 21
-962.7218044443027
 31
0.0
  0
DIMENSION
  5
1998
330
2
100
AcDbEntity
  8
画層1
 62
     1
100
AcDbDimension
  2
*D37
 10
496.6305818396354
 20
-977.2218044443029
 30
0.0
 11
494.7505818396355
 21
-788.2218044443027
 31
0.0
 70
    32
 71
     5
 42
378.0
  3
STANDARD_WS
100
AcDbAlignedDimension
 13
482.6305818396356
 23
-599.2218044443028
 33
0.0
 14
482.6305818396355
 24
-977.2218044443029
 34
0.0
 50
90.0
100
AcDbRotatedDimension
1001
ACAD
1000
DSTYLE
1002
{
1070
    47
1040
0.6
1070
   146
1040
0.5
1070
   173
1070
     0
1070
   284
1070
     8
1070
   340
1005
27
1070
   341
1005
28
1070
   342
1005
28
1070
   343
1005
0
1070
   344
1005
0
1002
}
  0
DIMENSION
  5
1999
330
2
100
AcDbEntity
  8
画層1
 62
     1
100
AcDbDimension
  2
*D38
 10
489.6305818396354
 20
-954.2218044443027
 30
0.0
 11
487.7505818396356
 21
-965.7218044443027
 31
0.0
 70
    32
 71
     5
 42
23.00000000000011
  3
STANDARD_WS
100
AcDbAlignedDimension
 13
482.6305818396355
 23
-977.2218044443029
 33
0.0
 14
423.6305818396356
 24
-954.2218044443027
 34
0.0
 50
90.0
100
AcDbRotatedDimension
1001
ACAD
1000
DSTYLE
1002
{
1070
    47
1040
0.6
1070
   146
1040
0.5
1070
   173
1070
     0
1070
   284
1070
     8
1070
   340
1005
27
1070
   341
1005
28
1070
   342
1005
28
1070
   343
1005
0
1070
   344
1005
0
1002
}
  0
DIMENSION
  5
19E8
330
2
100
AcDbEntity
  8
画層1
 62
     1
100
AcDbDimension
  2
*D40
 10
869.4389206732846
 20
-1030.386556170624
 30
0.0
 11
788.4389206732846
 21
-1028.506556170625
 31
0.0
 70
    32
 71
     5
 42
162.0
  3
STANDARD_WS
100
AcDbAlignedDimension
 13
707.4389206732846
 23
-975.2218044443027
 33
0.0
 14
869.4389206732846
 24
-975.2218044443027
 34
0.0
100
AcDbRotatedDimension
1001
ACAD
1000
DSTYLE
1002
{
1070
    47
1040
0.6
1070
   146
1040
0.5
1070
   173
1070
     0
1070
   284
1070
     8
1070
   340
1005
27
1070
   341
1005
28
1070
   342
1005
28
1070
   343
1005
0
1070
   344
1005
0
1002
}
  0
DIMENSION
  5
19E9
330
2
100
AcDbEntity
  8
画層1
 62
     1
100
AcDbDimension
  2
*D41
 10
703.4389206732846
 20
-1037.386556170624
 30
0.0
 11
786.4389206732846
 21
-1035.29716530768
 31
0.0
 70
    32
 71
     5
 42
166.0
  3
STANDARD_WS
100
AcDbAlignedDimension
 13
869.4389206732846
 23
-975.2218044443027
 33
0.0
 14
703.4389206732846
 24
-926.2218044443027
 34
0.0
100
AcDbRotatedDimension
1001
ACAD
1000
DSTYLE
1002
{
1070
     3
1000
(<>)
1070
    47
1040
0.6
1070
   146
1040
0.5
1070
   173
1070
     0
1070
   284
1070
     8
1070
   340
1005
27
1070
   341
1005
28
1070
   342
1005
28
1070
   343
1005
0
1070
   344
1005
0
1002
}
  0
DIMENSION
  5
19EA
330
2
100
AcDbEntity
  8
画層1
 62
     1
100
AcDbDimension
  2
*D39
 10
712.4389206732846
 20
-1023.386556170625
 30
0.0
 11
709.9389206732846
 21
-1021.506556170625
 31
0.0
 70
    32
 71
     5
 42
5.0
  3
STANDARD_WS
100
AcDbAlignedDimension
 13
707.4389206732846
 23
-975.2218044443027
 33
0.0
 14
712.4389206732846
 24
-975.2218044443027
 34
0.0
100
AcDbRotatedDimension
1001
ACAD
1000
DSTYLE
1002
{
1070
    47
1040
0.6
1070
   146
1040
0.5
1070
   173
1070
     0
1070
   284
1070
     8
1070
   340
1005
27
1070
   341
1005
28
1070
   342
1005
28
1070
   343
1005
0
1070
   344
1005
0
1002
}
  0
DIMENSION
  5
1A64
330
2
100
AcDbEntity
  8
画層1
 62
     1
100
AcDbDimension
  2
*D44
 10
586.4389206732846
 20
-587.2218044443027
 30
0.0
 11
727.9389206732846
 21
-585.3418044443027
 31
0.0
 70
    32
 71
     5
 42
283.0
  3
STANDARD_WS
100
AcDbAlignedDimension
 13
869.4389206732846
 23
-601.2218044443027
 33
0.0
 14
586.4389206732846
 24
-626.6218044443029
 34
0.0
100
AcDbRotatedDimension
1001
ACAD
1000
DSTYLE
1002
{
1070
    47
1040
0.6
1070
   146
1040
0.5
1070
   173
1070
     0
1070
   284
1070
     8
1070
   340
1005
27
1070
   341
1005
28
1070
   342
1005
28
1070
   343
1005
0
1070
   344
1005
0
1002
}
  0
DIMENSION
  5
1A65
330
2
100
AcDbEntity
  8
画層1
 62
     1
100
AcDbDimension
  2
*D42
 10
615.4389206732846
 20
-594.2218044443027
 30
0.0
 11
742.4389206732846
 21
-592.1324135813586
 31
0.0
 70
    32
 71
     5
 42
254.0
  3
STANDARD_WS
100
AcDbAlignedDimension
 13
869.4389206732846
 23
-601.2218044443027
 33
0.0
 14
615.4389206732846
 24
-641.2218044443027
 34
0.0
100
AcDbRotatedDimension
1001
ACAD
1000
DSTYLE
1002
{
1070
     3
1000
(<>)
1070
    47
1040
0.6
1070
   146
1040
0.5
1070
   173
1070
     0
1070
   284
1070
     8
1070
   340
1005
27
1070
   341
1005
28
1070
   342
1005
28
1070
   343
1005
0
1070
   344
1005
0
1002
}
  0
DIMENSION
  5
1A66
330
2
100
AcDbEntity
  8
画層1
 62
     1
100
AcDbDimension
  2
*D43
 10
602.9389206732846
 20
-594.2218044443027
 30
0.0
 11
609.1889206732846
 21
-592.3418044443027
 31
0.0
 70
    32
 71
     5
 42
12.5
  3
STANDARD_WS
100
AcDbAlignedDimension
 13
615.4389206732846
 23
-641.2218044443027
 33
0.0
 14
602.9389206732846
 24
-639.2218044443027
 34
0.0
100
AcDbRotatedDimension
1001
ACAD
1000
DSTYLE
1002
{
1070
   279
1070
     1
1070
    47
1040
0.6
1070
   146
1040
0.5
1070
   173
1070
     0
1070
   284
1070
     8
1070
   340
1005
27
1070
   341
1005
28
1070
   342
1005
28
1070
   343
1005
0
1070
   344
1005
0
1002
}
  0
ENDSEC
  0
SECTION
  2
OBJECTS
  0
DICTIONARY
  5
9
330
0
100
AcDbDictionary
281
     1
  3
ACAD_GROUP
350
23
  3
ACAD_LAYOUT
350
D
  3
ACAD_MLINESTYLE
350
24
  3
ACAD_PLOTSETTINGS
350
25
  3
ACAD_PLOTSTYLENAME
350
8
  3
ACDBHEADERROUNDTRIPXREC
350
1ADE
  3
AcDbVariableDictionary
350
8A3
  3
DWGPROPS
350
618
  0
DICTIONARY
  5
3
330
2
100
AcDbDictionary
280
     1
281
     1
  3
ACAD_LAYOUTSELFREF
360
54F
  0
DICTIONARY
  5
F
330
E
100
AcDbDictionary
280
     1
281
     1
  3
ACAD_LAYOUTSELFREF
360
550
  0
DICTIONARY
  5
23
102
{ACAD_REACTORS
330
9
102
}
330
9
100
AcDbDictionary
281
     1
  0
DICTIONARY
  5
D
102
{ACAD_REACTORS
330
9
102
}
330
9
100
AcDbDictionary
281
     1
  3
Model
350
560
  3
ﾚｲｱｳﾄ1
350
561
  0
DICTIONARY
  5
24
102
{ACAD_REACTORS
330
9
102
}
330
9
100
AcDbDictionary
281
     1
  3
STANDARD
350
34
  0
DICTIONARY
  5
25
102
{ACAD_REACTORS
330
9
102
}
330
9
100
AcDbDictionary
281
     1
  0
ACDBDICTIONARYWDFLT
  5
8
102
{ACAD_REACTORS
330
9
102
}
330
9
100
AcDbDictionary
281
     1
  3
Normal
350
7
100
AcDbDictionaryWithDefault
340
7
  0
DICTIONARY
  5
1ADE
102
{ACAD_REACTORS
330
9
102
}
330
9
100
AcDbDictionary
281
     1
  3
CEPSNTYPE
350
1AE8
  3
DIMSTYLEDATA
350
1AEC
  3
FINGERPRINTGUID
350
1AE9
  3
HYPERLINKBASE
350
1AE1
  3
INSUNITS
350
1AE7
  3
LAYOUTDICT
350
1AE3
  3
LWETCUNION
350
1AE6
  3
PLOTSETDICT
350
1AE4
  3
PLOTSTYLNAMDICT
350
1AE5
  3
PSVPSCALE
350
1AEB
  3
PUCSBASE
350
1AEF
  3
PUCSORGBACK
350
1AF5
  3
PUCSORGBOTTOM
350
1AF1
  3
PUCSORGFRONT
350
1AF4
  3
PUCSORGLEFT
350
1AF2
  3
PUCSORGRIGHT
350
1AF3
  3
PUCSORGTOP
350
1AF0
  3
PUCSORTHOREF
350
1AED
  3
PUCSORTHOVIEW
350
1AEE
  3
STYLESHEET
350
1AE2
  3
TSTACKALIGN
350
1ADF
  3
TSTACKSIZE
350
1AE0
  3
UCSBASE
350
1AF8
  3
UCSORGBACK
350
1AFE
  3
UCSORGBOTTOM
350
1AFA
  3
UCSORGFRONT
350
1AFD
  3
UCSORGLEFT
350
1AFB
  3
UCSORGRIGHT
350
1AFC
  3
UCSORGTOP
350
1AF9
  3
UCSORTHOREF
350
1AF6
  3
UCSORTHOVIEW
350
1AF7
  3
VERSIONGUID
350
1AEA
  0
DICTIONARY
  5
8A3
102
{ACAD_REACTORS
330
9
102
}
330
9
100
AcDbDictionary
281
     1
  3
DIMASSOC
350
8A4
  0
XRECORD
  5
618
102
{ACAD_REACTORS
330
9
102
}
330
9
100
AcDbXrecord
280
     1
  1
DWGPROPS COOKIE
  2

  3

  4

  6

  7

  8

  9

300
=
301
=
302
=
303
=
304
=
305
=
306
=
307
=
308
=
309
=
 40
3.523243749999998
 41
2450995.462150231
 42
2451964.71968472
  1

 90
        0
  0
XRECORD
  5
54F
102
{ACAD_REACTORS
330
3
102
}
330
3
100
AcDbXrecord
280
     1
340
2
  0
XRECORD
  5
550
102
{ACAD_REACTORS
330
F
102
}
330
F
100
AcDbXrecord
280
     1
340
E
  0
LAYOUT
  5
560
102
{ACAD_REACTORS
330
D
102
}
330
D
100
AcDbPlotSettings
  1

  2
EPSON MJ-6000C
  4

  6

 40
0.0
 41
0.0
 42
0.0
 43
0.0
 44
0.0
 45
0.0
 46
0.0
 47
0.0
 48
0.0
 49
0.0
140
0.0
141
0.0
142
1.0
143
1.0
 70
  1712
 72
     0
 73
     0
 74
     0
  7

 75
     0
147
1.0
148
0.0
149
0.0
100
AcDbLayout
  1
Model
 70
     1
 71
     0
 10
0.0
 20
0.0
 11
12.0
 21
9.0
 12
0.0
 22
0.0
 32
0.0
 14
0.0
 24
0.0
 34
0.0
 15
0.0
 25
0.0
 35
0.0
146
0.0
 13
0.0
 23
0.0
 33
0.0
 16
1.0
 26
0.0
 36
0.0
 17
0.0
 27
1.0
 37
0.0
 76
     0
330
2
  0
LAYOUT
  5
561
102
{ACAD_REACTORS
330
D
102
}
330
D
100
AcDbPlotSettings
  1

  2
EPSON MJ-6000C
  4

  6

 40
0.0
 41
0.0
 42
0.0
 43
0.0
 44
0.0
 45
0.0
 46
0.0
 47
0.0
 48
0.0
 49
0.0
140
0.0
141
0.0
142
1.0
143
1.0
 70
   688
 72
     0
 73
     0
 74
     5
  7

 75
    16
147
1.0
148
0.0
149
0.0
100
AcDbLayout
  1
ﾚｲｱｳﾄ1
 70
     1
 71
     1
 10
0.0
 20
0.0
 11
420.0
 21
297.0
 12
0.0
 22
0.0
 32
0.0
 14
1.000000000000000E+20
 24
1.000000000000000E+20
 34
1.000000000000000E+20
 15
-1.000000000000000E+20
 25
-1.000000000000000E+20
 35
-1.000000000000000E+20
146
0.0
 13
0.0
 23
0.0
 33
0.0
 16
1.0
 26
0.0
 36
0.0
 17
0.0
 27
1.0
 37
0.0
 76
     0
330
E
  0
MLINESTYLE
  5
34
102
{ACAD_REACTORS
330
24
102
}
330
24
100
AcDbMlineStyle
  2
STANDARD
 70
     0
  3

 62
   256
 51
90.0
 52
90.0
 71
     2
 49
0.5
 62
   256
  6
BYLAYER
 49
-0.5
 62
   256
  6
BYLAYER
  0
ACDBPLACEHOLDER
  5
7
102
{ACAD_REACTORS
330
8
102
}
330
8
  0
XRECORD
  5
1AE8
102
{ACAD_REACTORS
330
1ADE
102
}
330
1ADE
100
AcDbXrecord
280
     1
 90
        0
  0
XRECORD
  5
1AEC
102
{ACAD_REACTORS
330
1ADE
102
}
330
1ADE
100
AcDbXrecord
280
     1
1000
DSTYLE
1002
{
1070
   341
340
28
1070
   342
340
28
1002
}
  0
XRECORD
  5
1AE9
102
{ACAD_REACTORS
330
1ADE
102
}
330
1ADE
100
AcDbXrecord
280
     1
  1
{12426522-B208-11D3-A790-004026173390}
  0
XRECORD
  5
1AE1
102
{ACAD_REACTORS
330
1ADE
102
}
330
1ADE
100
AcDbXrecord
280
     1
  1

  0
XRECORD
  5
1AE7
102
{ACAD_REACTORS
330
1ADE
102
}
330
1ADE
100
AcDbXrecord
280
     1
 90
        0
  0
XRECORD
  5
1AE3
102
{ACAD_REACTORS
330
1ADE
102
}
330
1ADE
100
AcDbXrecord
280
     1
340
D
  0
XRECORD
  5
1AE6
102
{ACAD_REACTORS
330
1ADE
102
}
330
1ADE
100
AcDbXrecord
280
     1
 90
    10781
  0
XRECORD
  5
1AE4
102
{ACAD_REACTORS
330
1ADE
102
}
330
1ADE
100
AcDbXrecord
280
     1
340
25
  0
XRECORD
  5
1AE5
102
{ACAD_REACTORS
330
1ADE
102
}
330
1ADE
100
AcDbXrecord
280
     1
340
8
  0
XRECORD
  5
1AEB
102
{ACAD_REACTORS
330
1ADE
102
}
330
1ADE
100
AcDbXrecord
280
     1
 40
0.0
  0
XRECORD
  5
1AEF
102
{ACAD_REACTORS
330
1ADE
102
}
330
1ADE
100
AcDbXrecord
280
     1
340
0
  0
XRECORD
  5
1AF5
102
{ACAD_REACTORS
330
1ADE
102
}
330
1ADE
100
AcDbXrecord
280
     1
 10
0.0
 20
0.0
 30
0.0
  0
XRECORD
  5
1AF1
102
{ACAD_REACTORS
330
1ADE
102
}
330
1ADE
100
AcDbXrecord
280
     1
 10
0.0
 20
0.0
 30
0.0
  0
XRECORD
  5
1AF4
102
{ACAD_REACTORS
330
1ADE
102
}
330
1ADE
100
AcDbXrecord
280
     1
 10
0.0
 20
0.0
 30
0.0
  0
XRECORD
  5
1AF2
102
{ACAD_REACTORS
330
1ADE
102
}
330
1ADE
100
AcDbXrecord
280
     1
 10
0.0
 20
0.0
 30
0.0
  0
XRECORD
  5
1AF3
102
{ACAD_REACTORS
330
1ADE
102
}
330
1ADE
100
AcDbXrecord
280
     1
 10
0.0
 20
0.0
 30
0.0
  0
XRECORD
  5
1AF0
102
{ACAD_REACTORS
330
1ADE
102
}
330
1ADE
100
AcDbXrecord
280
     1
 10
0.0
 20
0.0
 30
0.0
  0
XRECORD
  5
1AED
102
{ACAD_REACTORS
330
1ADE
102
}
330
1ADE
100
AcDbXrecord
280
     1
340
0
  0
XRECORD
  5
1AEE
102
{ACAD_REACTORS
330
1ADE
102
}
330
1ADE
100
AcDbXrecord
280
     1
 70
     0
  0
XRECORD
  5
1AE2
102
{ACAD_REACTORS
330
1ADE
102
}
330
1ADE
100
AcDbXrecord
280
     1
  1

  0
XRECORD
  5
1ADF
102
{ACAD_REACTORS
330
1ADE
102
}
330
1ADE
100
AcDbXrecord
280
     1
 90
        1
  0
XRECORD
  5
1AE0
102
{ACAD_REACTORS
330
1ADE
102
}
330
1ADE
100
AcDbXrecord
280
     1
 90
       70
  0
XRECORD
  5
1AF8
102
{ACAD_REACTORS
330
1ADE
102
}
330
1ADE
100
AcDbXrecord
280
     1
340
0
  0
XRECORD
  5
1AFE
102
{ACAD_REACTORS
330
1ADE
102
}
330
1ADE
100
AcDbXrecord
280
     1
 10
0.0
 20
0.0
 30
0.0
  0
XRECORD
  5
1AFA
102
{ACAD_REACTORS
330
1ADE
102
}
330
1ADE
100
AcDbXrecord
280
     1
 10
0.0
 20
0.0
 30
0.0
  0
XRECORD
  5
1AFD
102
{ACAD_REACTORS
330
1ADE
102
}
330
1ADE
100
AcDbXrecord
280
     1
 10
0.0
 20
0.0
 30
0.0
  0
XRECORD
  5
1AFB
102
{ACAD_REACTORS
330
1ADE
102
}
330
1ADE
100
AcDbXrecord
280
     1
 10
0.0
 20
0.0
 30
0.0
  0
XRECORD
  5
1AFC
102
{ACAD_REACTORS
330
1ADE
102
}
330
1ADE
100
AcDbXrecord
280
     1
 10
0.0
 20
0.0
 30
0.0
  0
XRECORD
  5
1AF9
102
{ACAD_REACTORS
330
1ADE
102
}
330
1ADE
100
AcDbXrecord
280
     1
 10
0.0
 20
0.0
 30
0.0
  0
XRECORD
  5
1AF6
102
{ACAD_REACTORS
330
1ADE
102
}
330
1ADE
100
AcDbXrecord
280
     1
340
0
  0
XRECORD
  5
1AF7
102
{ACAD_REACTORS
330
1ADE
102
}
330
1ADE
100
AcDbXrecord
280
     1
 70
     0
  0
XRECORD
  5
1AEA
102
{ACAD_REACTORS
330
1ADE
102
}
330
1ADE
100
AcDbXrecord
280
     1
  1
{15E080FD-9491-4D4F-A3A4-2E103B80EDD9}
  0
DICTIONARYVAR
  5
8A4
102
{ACAD_REACTORS
330
8A3
102
}
330
8A3
100
DictionaryVariables
280
     0
  1
1
  0
ENDSEC
  0
EOF
