  0
SECTION
  2
HEADER
  9
$ACADVER
  1
AC1015
  9
$ACADMAINTVER
 70
     6
  9
$DWGCODEPAGE
  3
ANSI_932
  9
$INSBASE
 10
0.0
 20
0.0
 30
0.0
  9
$EXTMIN
 10
57.0772457633716
 20
-354.7565816687615
 30
-0.0000000000000058
  9
$EXTMAX
 10
612.959163303025
 20
21.94913638959701
 30
0.0000000000000104
  9
$LIMMIN
 10
0.0
 20
0.0
  9
$LIMMAX
 10
420.0
 20
297.0
  9
$ORTHOMODE
 70
     0
  9
$REGENMODE
 70
     1
  9
$FILLMODE
 70
     1
  9
$QTEXTMODE
 70
     0
  9
$MIRRTEXT
 70
     1
  9
$LTSCALE
 40
0.2
  9
$ATTMODE
 70
     1
  9
$TEXTSIZE
 40
2.5
  9
$TRACEWID
 40
1.0
  9
$TEXTSTYLE
  7
STYLE1
  9
$CLAYER
  8
画層1
  9
$CELTYPE
  6
BYLAYER
  9
$CECOLOR
 62
     1
  9
$CELTSCALE
 40
1.0
  9
$DISPSILH
 70
     0
  9
$DIMSCALE
 40
1.0
  9
$DIMASZ
 40
1.5
  9
$DIMEXO
 40
0.63
  9
$DIMDLI
 40
3.75
  9
$DIMRND
 40
0.0
  9
$DIMDLE
 40
0.0
  9
$DIMEXE
 40
1.25
  9
$DIMTP
 40
0.6
  9
$DIMTM
 40
0.0
  9
$DIMTXT
 40
2.5
  9
$DIMCEN
 40
2.5
  9
$DIMTSZ
 40
0.0
  9
$DIMTOL
 70
     0
  9
$DIMLIM
 70
     0
  9
$DIMTIH
 70
     0
  9
$DIMTOH
 70
     0
  9
$DIMSE1
 70
     0
  9
$DIMSE2
 70
     0
  9
$DIMTAD
 70
     1
  9
$DIMZIN
 70
     8
  9
$DIMBLK
  1
OPEN30
  9
$DIMASO
 70
     1
  9
$DIMSHO
 70
     1
  9
$DIMPOST
  1

  9
$DIMAPOST
  1

  9
$DIMALT
 70
     0
  9
$DIMALTD
 70
     4
  9
$DIMALTF
 40
0.04
  9
$DIMLFAC
 40
1.0
  9
$DIMTOFL
 70
     1
  9
$DIMTVP
 40
0.0
  9
$DIMTIX
 70
     0
  9
$DIMSOXD
 70
     0
  9
$DIMSAH
 70
     0
  9
$DIMBLK1
  1

  9
$DIMBLK2
  1

  9
$DIMSTYLE
  2
STANDARD_WS
  9
$DIMCLRD
 70
     0
  9
$DIMCLRE
 70
     0
  9
$DIMCLRT
 70
     0
  9
$DIMTFAC
 40
0.5
  9
$DIMGAP
 40
0.63
  9
$DIMJUST
 70
     0
  9
$DIMSD1
 70
     0
  9
$DIMSD2
 70
     0
  9
$DIMTOLJ
 70
     1
  9
$DIMTZIN
 70
     8
  9
$DIMALTZ
 70
     0
  9
$DIMALTTZ
 70
     0
  9
$DIMUPT
 70
     0
  9
$DIMDEC
 70
     4
  9
$DIMTDEC
 70
     4
  9
$DIMALTU
 70
     8
  9
$DIMALTTD
 70
     4
  9
$DIMTXSTY
  7
STYLE1
  9
$DIMAUNIT
 70
     0
  9
$DIMADEC
 70
     0
  9
$DIMALTRND
 40
0.0
  9
$DIMAZIN
 70
     0
  9
$DIMDSEP
 70
    46
  9
$DIMATFIT
 70
     3
  9
$DIMFRAC
 70
     0
  9
$DIMLDRBLK
  1
OPEN30
  9
$DIMLUNIT
 70
     2
  9
$DIMLWD
 70
    -2
  9
$DIMLWE
 70
    -2
  9
$DIMTMOVE
 70
     0
  9
$LUNITS
 70
     2
  9
$LUPREC
 70
     4
  9
$SKETCHINC
 40
1.0
  9
$FILLETRAD
 40
3.0
  9
$AUNITS
 70
     0
  9
$AUPREC
 70
     0
  9
$MENU
  1
acad
  9
$ELEVATION
 40
0.0
  9
$PELEVATION
 40
0.0
  9
$THICKNESS
 40
0.0
  9
$LIMCHECK
 70
     0
  9
$CHAMFERA
 40
10.0
  9
$CHAMFERB
 40
10.0
  9
$CHAMFERC
 40
20.0
  9
$CHAMFERD
 40
0.0
  9
$SKPOLY
 70
     0
  9
$TDCREATE
 40
2450995.462150231
  9
$TDUCREATE
 40
2450995.087150231
  9
$TDUPDATE
 40
2453027.720827789
  9
$TDUUPDATE
 40
2453027.345827789
  9
$TDINDWG
 40
3.8695467361
  9
$TDUSRTIMER
 40
3.8695423727
  9
$USRTIMER
 70
     1
  9
$ANGBASE
 50
0.0
  9
$ANGDIR
 70
     0
  9
$PDMODE
 70
     0
  9
$PDSIZE
 40
0.0
  9
$PLINEWID
 40
10.0
  9
$SPLFRAME
 70
     0
  9
$SPLINETYPE
 70
     6
  9
$SPLINESEGS
 70
     8
  9
$HANDSEED
  5
12E8
  9
$SURFTAB1
 70
     6
  9
$SURFTAB2
 70
     6
  9
$SURFTYPE
 70
     6
  9
$SURFU
 70
     6
  9
$SURFV
 70
     6
  9
$UCSBASE
  2

  9
$UCSNAME
  2

  9
$UCSORG
 10
0.0
 20
0.0
 30
0.0
  9
$UCSXDIR
 10
1.0
 20
0.0
 30
0.0
  9
$UCSYDIR
 10
0.0
 20
1.0
 30
0.0
  9
$UCSORTHOREF
  2

  9
$UCSORTHOVIEW
 70
     0
  9
$UCSORGTOP
 10
0.0
 20
0.0
 30
0.0
  9
$UCSORGBOTTOM
 10
0.0
 20
0.0
 30
0.0
  9
$UCSORGLEFT
 10
0.0
 20
0.0
 30
0.0
  9
$UCSORGRIGHT
 10
0.0
 20
0.0
 30
0.0
  9
$UCSORGFRONT
 10
0.0
 20
0.0
 30
0.0
  9
$UCSORGBACK
 10
0.0
 20
0.0
 30
0.0
  9
$PUCSBASE
  2

  9
$PUCSNAME
  2

  9
$PUCSORG
 10
0.0
 20
0.0
 30
0.0
  9
$PUCSXDIR
 10
1.0
 20
0.0
 30
0.0
  9
$PUCSYDIR
 10
0.0
 20
1.0
 30
0.0
  9
$PUCSORTHOREF
  2

  9
$PUCSORTHOVIEW
 70
     0
  9
$PUCSORGTOP
 10
0.0
 20
0.0
 30
0.0
  9
$PUCSORGBOTTOM
 10
0.0
 20
0.0
 30
0.0
  9
$PUCSORGLEFT
 10
0.0
 20
0.0
 30
0.0
  9
$PUCSORGRIGHT
 10
0.0
 20
0.0
 30
0.0
  9
$PUCSORGFRONT
 10
0.0
 20
0.0
 30
0.0
  9
$PUCSORGBACK
 10
0.0
 20
0.0
 30
0.0
  9
$USERI1
 70
     0
  9
$USERI2
 70
     0
  9
$USERI3
 70
     0
  9
$USERI4
 70
     0
  9
$USERI5
 70
     0
  9
$USERR1
 40
0.0
  9
$USERR2
 40
0.0
  9
$USERR3
 40
0.0
  9
$USERR4
 40
0.0
  9
$USERR5
 40
0.0
  9
$WORLDVIEW
 70
     1
  9
$SHADEDGE
 70
     3
  9
$SHADEDIF
 70
    70
  9
$TILEMODE
 70
     1
  9
$MAXACTVP
 70
    48
  9
$PINSBASE
 10
0.0
 20
0.0
 30
0.0
  9
$PLIMCHECK
 70
     0
  9
$PEXTMIN
 10
1.000000000000000E+20
 20
1.000000000000000E+20
 30
1.000000000000000E+20
  9
$PEXTMAX
 10
-1.000000000000000E+20
 20
-1.000000000000000E+20
 30
-1.000000000000000E+20
  9
$PLIMMIN
 10
0.0
 20
0.0
  9
$PLIMMAX
 10
420.0
 20
297.0
  9
$UNITMODE
 70
     0
  9
$VISRETAIN
 70
     1
  9
$PLINEGEN
 70
     0
  9
$PSLTSCALE
 70
     1
  9
$TREEDEPTH
 70
  3020
  9
$CMLSTYLE
  2
STANDARD
  9
$CMLJUST
 70
     0
  9
$CMLSCALE
 40
20.0
  9
$PROXYGRAPHICS
 70
     1
  9
$MEASUREMENT
 70
     1
  9
$CELWEIGHT
370
    -1
  9
$ENDCAPS
280
     0
  9
$JOINSTYLE
280
     0
  9
$LWDISPLAY
290
     0
  9
$INSUNITS
 70
     0
  9
$HYPERLINKBASE
  1

  9
$STYLESHEET
  1

  9
$XEDIT
290
     1
  9
$CEPSNTYPE
380
     0
  9
$PSTYLEMODE
290
     1
  9
$FINGERPRINTGUID
  2
{12426522-B208-11D3-A790-004026173390}
  9
$VERSIONGUID
  2
{3024908E-37B2-4A3C-89D1-BFCD46DFC13E}
  9
$EXTNAMES
290
     1
  9
$PSVPSCALE
 40
0.0
  9
$OLESTARTUP
290
     0
  0
ENDSEC
  0
SECTION
  2
CLASSES
  0
CLASS
  1
DICTIONARYVAR
  2
AcDbDictionaryVar
  3
AutoCAD 2000
 90
        0
280
     0
281
     0
  0
CLASS
  1
LWPOLYLINE
  2
AcDbPolyline
  3
AutoCAD 2000
 90
    32768
280
     0
281
     1
  0
CLASS
  1
OLE2FRAME
  2
AcDbOle2Frame
  3
AutoCAD 2000
 90
    32768
280
     0
281
     1
  0
CLASS
  1
HATCH
  2
AcDbHatch
  3
AutoCAD 2000
 90
    32768
280
     0
281
     1
  0
CLASS
  1
ACDBDICTIONARYWDFLT
  2
AcDbDictionaryWithDefault
  3
AutoCAD 2000
 90
        0
280
     0
281
     0
  0
CLASS
  1
ACDBPLACEHOLDER
  2
AcDbPlaceHolder
  3
AutoCAD 2000
 90
        0
280
     0
281
     0
  0
CLASS
  1
LAYOUT
  2
AcDbLayout
  3
AutoCAD 2000
 90
        0
280
     0
281
     0
  0
CLASS
  1
LONG_TRANSACTION
  2
AcDbLongTransaction
  3
AutoCAD 2000
 90
    32768
280
     0
281
     0
  0
CLASS
  1
LWPOLYLINE
  2
AcDbPolyline
  3
AutoCAD 2000
 90
    32768
280
     0
281
     1
  0
CLASS
  1
HATCH
  2
AcDbHatch
  3
AutoCAD 2000
 90
    32768
280
     0
281
     1
  0
CLASS
  1
XRECORD
  2
AcDbXrecord
  3
AutoCAD 2000
 90
    32768
280
     0
281
     0
  0
CLASS
  1
LONG_TRANSACTION
  2
AcDbLongTransaction
  3
AutoCAD 2000
 90
    32768
280
     0
281
     0
  0
CLASS
  1
LWPOLYLINE
  2
AcDbPolyline
  3
AutoCAD 2000
 90
    32768
280
     0
281
     1
  0
CLASS
  1
HATCH
  2
AcDbHatch
  3
AutoCAD 2000
 90
    32768
280
     0
281
     1
  0
CLASS
  1
XRECORD
  2
AcDbXrecord
  3
AutoCAD 2000
 90
    32768
280
     0
281
     0
  0
CLASS
  1
LONG_TRANSACTION
  2
AcDbLongTransaction
  3
AutoCAD 2000
 90
    32768
280
     0
281
     0
  0
CLASS
  1
LWPOLYLINE
  2
AcDbPolyline
  3
AutoCAD 2000
 90
    32768
280
     0
281
     1
  0
CLASS
  1
HATCH
  2
AcDbHatch
  3
AutoCAD 2000
 90
    32768
280
     0
281
     1
  0
CLASS
  1
XRECORD
  2
AcDbXrecord
  3
AutoCAD 2000
 90
    32768
280
     0
281
     0
  0
ENDSEC
  0
SECTION
  2
TABLES
  0
TABLE
  2
VPORT
  5
1E
330
0
100
AcDbSymbolTable
 70
     3
  0
VPORT
  5
12C6
330
1E
100
AcDbSymbolTableRecord
100
AcDbViewportTableRecord
  2
*Active
 70
     0
 10
0.0
 20
0.0
 11
1.0
 21
1.0
 12
335.0182045331982
 22
-166.4037226395822
 13
0.0
 23
0.0
 14
1.0
 24
1.0
 15
2.0
 25
2.0
 16
0.0
 26
0.0
 36
1.0
 17
0.0
 27
0.0
 37
0.0
 40
379.0625838647716
 41
1.61482254697286
 42
50.0
 43
0.0
 44
0.0
 50
0.0
 51
0.0
 71
     0
 72
   100
 73
     1
 74
     1
 75
     0
 76
     0
 77
     0
 78
     0
281
     0
 65
     1
110
0.0
120
0.0
130
0.0
111
1.0
121
0.0
131
0.0
112
0.0
122
1.0
132
0.0
 79
     0
146
0.0
  0
ENDTAB
  0
TABLE
  2
LTYPE
  5
19
330
0
100
AcDbSymbolTable
 70
     4
  0
LTYPE
  5
1A
330
19
100
AcDbSymbolTableRecord
100
AcDbLinetypeTableRecord
  2
BYBLOCK
 70
     0
  3

 72
    65
 73
     0
 40
0.0
  0
LTYPE
  5
1B
330
19
100
AcDbSymbolTableRecord
100
AcDbLinetypeTableRecord
  2
BYLAYER
 70
     0
  3

 72
    65
 73
     0
 40
0.0
  0
LTYPE
  5
A
330
19
100
AcDbSymbolTableRecord
100
AcDbLinetypeTableRecord
  2
CONTINUOUS
 70
     0
  3
Solid line
 72
    65
 73
     0
 40
0.0
  0
LTYPE
  5
68
330
19
100
AcDbSymbolTableRecord
100
AcDbLinetypeTableRecord
  2
DASHED2
 70
     0
  3
Dashed (.5x) _ _ _ _ _ _ _ _ _ _ _ _ _ _ _ _ _
 72
    65
 73
     2
 40
9.529999999999999
 49
6.349999999999997
 74
     0
 49
-3.18
 74
     0
  0
LTYPE
  5
76
330
19
100
AcDbSymbolTableRecord
100
AcDbLinetypeTableRecord
  2
CENTER
 70
     0
  3
Center ____ _ ____ _ ____ _ ____ _ ____ _ ____
 72
    65
 73
     4
 40
50.8
 49
31.75
 74
     0
 49
-6.349999999999997
 74
     0
 49
6.349999999999997
 74
     0
 49
-6.349999999999997
 74
     0
  0
LTYPE
  5
F6E
330
19
100
AcDbSymbolTableRecord
100
AcDbLinetypeTableRecord
  2
DIVIDE
 70
     0
  3
Divide ____ . . ____ . . ____ . . ____ . . ____
 72
    65
 73
     6
 40
31.74999999999998
 49
12.7
 74
     0
 49
-6.349999999999998
 74
     0
 49
0.0
 74
     0
 49
-6.349999999999998
 74
     0
 49
0.0
 74
     0
 49
-6.349999999999998
 74
     0
  0
ENDTAB
  0
TABLE
  2
LAYER
  5
14
330
0
100
AcDbSymbolTable
 70
     3
  0
LAYER
  5
6
330
14
100
AcDbSymbolTableRecord
100
AcDbLayerTableRecord
  2
0
 70
     0
 62
     7
  6
CONTINUOUS
370
    -3
390
7
  0
LAYER
  5
3F
330
14
100
AcDbSymbolTableRecord
100
AcDbLayerTableRecord
  2
DEFPOINTS
 70
     0
 62
     7
  6
CONTINUOUS
290
     0
370
    -3
390
7
  0
LAYER
  5
26
330
14
100
AcDbSymbolTableRecord
100
AcDbLayerTableRecord
  2
画層1
 70
     0
 62
     7
  6
CONTINUOUS
370
    -3
390
7
  0
ENDTAB
  0
TABLE
  2
STYLE
  5
15
330
0
100
AcDbSymbolTable
 70
     3
  0
STYLE
  5
16
330
15
100
AcDbSymbolTableRecord
100
AcDbTextStyleTableRecord
  2
STANDARD
 70
     0
 40
2.5
 41
1.0
 50
0.0
 71
     0
 42
1.5
  3
MS PMincho.ttf
  4

1001
ACAD
1000
MS PMincho
1071
    32786
  0
STYLE
  5
27
330
15
100
AcDbSymbolTableRecord
100
AcDbTextStyleTableRecord
  2
STYLE1
 70
     0
 40
2.5
 41
1.0
 50
0.0
 71
     0
 42
2.5
  3
MS Gothic.ttf
  4

1001
ACAD
1000
MS Gothic
1071
    32817
  0
STYLE
  5
F6D
330
15
100
AcDbSymbolTableRecord
100
AcDbTextStyleTableRecord
  2

 70
     1
 40
0.0
 41
1.0
 50
0.0
 71
     0
 42
2.5
  3
ltypeshp.shx
  4

  0
ENDTAB
  0
TABLE
  2
VIEW
  5
1C
330
0
100
AcDbSymbolTable
 70
     0
  0
ENDTAB
  0
TABLE
  2
UCS
  5
1D
330
0
100
AcDbSymbolTable
 70
     0
  0
ENDTAB
  0
TABLE
  2
APPID
  5
20
330
0
100
AcDbSymbolTable
 70
     1
  0
APPID
  5
17
330
20
100
AcDbSymbolTableRecord
100
AcDbRegAppTableRecord
  2
ACAD
 70
     0
  0
ENDTAB
  0
TABLE
  2
DIMSTYLE
  5
21
330
0
100
AcDbSymbolTable
 70
     1
100
AcDbDimStyleTable
 71
     1
340
35
  0
DIMSTYLE
105
35
102
{ACAD_REACTORS
330
A7F
330
F7B
330
1009
330
101F
330
1035
330
105B
330
1095
330
10AD
330
10C3
330
10D9
330
10EF
330
110E
330
1136
330
1179
330
11C0
330
11CD
330
11F5
330
1223
330
1232
330
123F
330
FF4
102
}
330
21
100
AcDbSymbolTableRecord
100
AcDbDimStyleTableRecord
  2
STANDARD_WS
 70
     0
 41
1.5
 42
0.63
 43
3.75
 44
1.25
 73
     0
 74
     0
 77
     1
 78
     8
140
2.5
141
2.5
143
0.04
147
0.63
171
     4
172
     1
173
     1
273
     8
274
     4
340
16
341
2E
343
2E
344
2E
  0
ENDTAB
  0
TABLE
  2
BLOCK_RECORD
  5
1
330
0
100
AcDbSymbolTable
 70
    25
  0
BLOCK_RECORD
  5
2
102
{ACAD_XDICTIONARY
360
3
102
}
330
1
100
AcDbSymbolTableRecord
100
AcDbBlockTableRecord
  2
*MODEL_SPACE
340
560
  0
BLOCK_RECORD
  5
E
102
{ACAD_XDICTIONARY
360
F
102
}
330
1
100
AcDbSymbolTableRecord
100
AcDbBlockTableRecord
  2
*PAPER_SPACE
340
561
  0
BLOCK_RECORD
  5
2E
330
1
100
AcDbSymbolTableRecord
100
AcDbBlockTableRecord
  2
_OPEN
340
0
  0
BLOCK_RECORD
  5
28
330
1
100
AcDbSymbolTableRecord
100
AcDbBlockTableRecord
  2
_OPEN30
340
0
102
{BLKREFS
331
F9D
331
F9E
331
FA7
331
FA8
331
102F
331
1030
331
106B
331
106C
331
107D
331
107E
331
108F
331
1090
331
10A5
331
10A6
331
10C8
331
10C9
331
10D3
331
10D4
331
114F
331
1150
331
1158
331
1159
331
1173
331
1174
331
1192
331
1193
331
11B0
331
11B1
331
11E6
331
11E7
331
121D
331
121E
331
122A
331
122B
331
1237
331
1238
331
126A
331
126B
331
127C
331
127D
331
128B
331
128C
102
}
  0
BLOCK_RECORD
  5
121
330
1
100
AcDbSymbolTableRecord
100
AcDbBlockTableRecord
  2
_DOTSMALL
340
0
  0
BLOCK_RECORD
  5
A82
330
1
100
AcDbSymbolTableRecord
100
AcDbBlockTableRecord
  2
*D3
340
0
  0
BLOCK_RECORD
  5
F7C
330
1
100
AcDbSymbolTableRecord
100
AcDbBlockTableRecord
  2
*D4
340
0
  0
BLOCK_RECORD
  5
FA3
330
1
100
AcDbSymbolTableRecord
100
AcDbBlockTableRecord
  2
*D5
340
0
  0
BLOCK_RECORD
  5
FAF
330
1
100
AcDbSymbolTableRecord
100
AcDbBlockTableRecord
  2
A$C6EDC16D0
340
0
  0
BLOCK_RECORD
  5
100A
330
1
100
AcDbSymbolTableRecord
100
AcDbBlockTableRecord
  2
*D7
340
0
  0
BLOCK_RECORD
  5
1020
330
1
100
AcDbSymbolTableRecord
100
AcDbBlockTableRecord
  2
*D8
340
0
  0
BLOCK_RECORD
  5
1036
330
1
100
AcDbSymbolTableRecord
100
AcDbBlockTableRecord
  2
*D9
340
0
  0
BLOCK_RECORD
  5
105C
330
1
100
AcDbSymbolTableRecord
100
AcDbBlockTableRecord
  2
*D10
340
0
  0
BLOCK_RECORD
  5
1096
330
1
100
AcDbSymbolTableRecord
100
AcDbBlockTableRecord
  2
*D11
340
0
  0
BLOCK_RECORD
  5
10AE
330
1
100
AcDbSymbolTableRecord
100
AcDbBlockTableRecord
  2
*D12
340
0
  0
BLOCK_RECORD
  5
10C4
330
1
100
AcDbSymbolTableRecord
100
AcDbBlockTableRecord
  2
*D13
340
0
  0
BLOCK_RECORD
  5
10DA
330
1
100
AcDbSymbolTableRecord
100
AcDbBlockTableRecord
  2
*D14
340
0
  0
BLOCK_RECORD
  5
10F0
330
1
100
AcDbSymbolTableRecord
100
AcDbBlockTableRecord
  2
*D15
340
0
  0
BLOCK_RECORD
  5
110F
330
1
100
AcDbSymbolTableRecord
100
AcDbBlockTableRecord
  2
*D16
340
0
  0
BLOCK_RECORD
  5
1137
330
1
100
AcDbSymbolTableRecord
100
AcDbBlockTableRecord
  2
*D17
340
0
  0
BLOCK_RECORD
  5
117A
330
1
100
AcDbSymbolTableRecord
100
AcDbBlockTableRecord
  2
*D18
340
0
  0
BLOCK_RECORD
  5
11C1
330
1
100
AcDbSymbolTableRecord
100
AcDbBlockTableRecord
  2
*D19
340
0
  0
BLOCK_RECORD
  5
11CE
330
1
100
AcDbSymbolTableRecord
100
AcDbBlockTableRecord
  2
*D20
340
0
  0
BLOCK_RECORD
  5
11F6
330
1
100
AcDbSymbolTableRecord
100
AcDbBlockTableRecord
  2
*D21
340
0
  0
BLOCK_RECORD
  5
1224
330
1
100
AcDbSymbolTableRecord
100
AcDbBlockTableRecord
  2
*D22
340
0
  0
BLOCK_RECORD
  5
1233
330
1
100
AcDbSymbolTableRecord
100
AcDbBlockTableRecord
  2
*D23
340
0
  0
BLOCK_RECORD
  5
1240
330
1
100
AcDbSymbolTableRecord
100
AcDbBlockTableRecord
  2
*D24
340
0
  0
ENDTAB
  0
ENDSEC
  0
SECTION
  2
BLOCKS
  0
BLOCK
  5
5
330
2
100
AcDbEntity
  8
0
100
AcDbBlockBegin
  2
*MODEL_SPACE
 70
     0
 10
0.0
 20
0.0
 30
0.0
  3
*MODEL_SPACE
  1

  0
ENDBLK
  5
B
330
2
100
AcDbEntity
  8
0
100
AcDbBlockEnd
  0
BLOCK
  5
11
330
E
100
AcDbEntity
 67
     1
  8
0
100
AcDbBlockBegin
  2
*PAPER_SPACE
 70
     0
 10
0.0
 20
0.0
 30
0.0
  3
*PAPER_SPACE
  1

  0
ENDBLK
  5
12
330
E
100
AcDbEntity
 67
     1
  8
0
100
AcDbBlockEnd
  0
BLOCK
  5
32
330
2E
100
AcDbEntity
  8
0
100
AcDbBlockBegin
  2
_OPEN
 70
     0
 10
0.0
 20
0.0
 30
0.0
  3
_OPEN
  1

  0
LINE
  5
2F
330
2E
100
AcDbEntity
  8
0
  6
ByBlock
 62
     0
100
AcDbLine
 10
-1.0
 20
0.17
 30
0.0
 11
0.0
 21
0.0
 31
0.0
  0
LINE
  5
30
330
2E
100
AcDbEntity
  8
0
  6
ByBlock
 62
     0
100
AcDbLine
 10
0.0
 20
0.0
 30
0.0
 11
-1.0
 21
-0.17
 31
0.0
  0
LINE
  5
31
330
2E
100
AcDbEntity
  8
0
  6
ByBlock
 62
     0
100
AcDbLine
 10
0.0
 20
0.0
 30
0.0
 11
-1.0
 21
0.0
 31
0.0
  0
ENDBLK
  5
33
330
2E
100
AcDbEntity
  8
0
100
AcDbBlockEnd
  0
BLOCK
  5
2C
330
28
100
AcDbEntity
  8
0
100
AcDbBlockBegin
  2
_OPEN30
 70
     0
 10
0.0
 20
0.0
 30
0.0
  3
_OPEN30
  1

  0
LINE
  5
29
330
28
100
AcDbEntity
  8
0
  6
ByBlock
 62
     0
100
AcDbLine
 10
-1.0
 20
0.27
 30
0.0
 11
0.0
 21
0.0
 31
0.0
  0
LINE
  5
2A
330
28
100
AcDbEntity
  8
0
  6
ByBlock
 62
     0
100
AcDbLine
 10
0.0
 20
0.0
 30
0.0
 11
-1.0
 21
-0.27
 31
0.0
  0
LINE
  5
2B
330
28
100
AcDbEntity
  8
0
  6
ByBlock
 62
     0
100
AcDbLine
 10
0.0
 20
0.0
 30
0.0
 11
-1.0
 21
0.0
 31
0.0
  0
ENDBLK
  5
2D
330
28
100
AcDbEntity
  8
0
100
AcDbBlockEnd
  0
BLOCK
  5
123
330
121
100
AcDbEntity
  8
0
 62
     1
100
AcDbBlockBegin
  2
_DOTSMALL
 70
     0
 10
0.0
 20
0.0
 30
0.0
  3
_DOTSMALL
  1

  0
LWPOLYLINE
  5
122
330
121
100
AcDbEntity
  8
画層1
 62
     0
100
AcDbPolyline
 90
        2
 70
     1
 43
0.5
 10
-0.06
 20
0.0
 42
1.0
 10
0.06
 20
0.0
 42
1.0
  0
ENDBLK
  5
124
330
121
100
AcDbEntity
  8
0
 62
     1
100
AcDbBlockEnd
  0
BLOCK
  5
A8C
330
A82
100
AcDbEntity
  8
0
 62
     3
100
AcDbBlockBegin
  2
*D3
 70
     1
 10
0.0
 20
0.0
 30
0.0
  3
*D3
  1

  0
LINE
  5
108C
330
A82
100
AcDbEntity
  8
画層1
 62
     0
370
    -2
100
AcDbLine
 10
92.4849625650315
 20
-59.28629273710669
 30
0.0
 11
72.66496256503143
 21
-59.28629273710669
 31
0.0
  0
LINE
  5
108D
330
A82
100
AcDbEntity
  8
画層1
 62
     0
370
    -2
100
AcDbLine
 10
92.4849625650315
 20
-51.28629273710668
 30
0.0
 11
72.66496256503143
 21
-51.28629273710668
 31
0.0
  0
LINE
  5
108E
330
A82
100
AcDbEntity
  8
画層1
 62
     0
370
    -2
100
AcDbLine
 10
73.91496256503143
 20
-57.78629273710667
 30
0.0
 11
73.91496256503143
 21
-52.78629273710667
 31
0.0
  0
INSERT
  5
108F
330
A82
100
AcDbEntity
  8
画層1
 62
     0
370
    -2
100
AcDbBlockReference
  2
_OPEN30
 10
73.91496256503143
 20
-59.28629273710669
 30
0.0
 41
1.5
 42
1.5
 43
1.5
 50
270.0
  0
INSERT
  5
1090
330
A82
100
AcDbEntity
  8
画層1
 62
     0
370
    -2
100
AcDbBlockReference
  2
_OPEN30
 10
73.91496256503143
 20
-51.28629273710668
 30
0.0
 41
1.5
 42
1.5
 43
1.5
 50
90.0
  0
MTEXT
  5
1091
330
A82
100
AcDbEntity
  8
画層1
 62
     0
100
AcDbMText
 10
72.03496256503145
 20
-55.28629273710667
 30
0.0
 40
2.5
 41
0.0
 71
     5
 72
     1
  1
\A1;8
  7
STYLE1
 11
0.0000000000000001
 21
1.0
 31
0.0
 73
     1
 44
1.0
  0
POINT
  5
1092
330
A82
100
AcDbEntity
  8
DEFPOINTS
 62
     0
100
AcDbPoint
 10
93.11496256503149
 20
-59.28629273710669
 30
0.0
  0
POINT
  5
1093
330
A82
100
AcDbEntity
  8
DEFPOINTS
 62
     0
100
AcDbPoint
 10
93.11496256503149
 20
-51.28629273710668
 30
0.0
  0
POINT
  5
1094
330
A82
100
AcDbEntity
  8
DEFPOINTS
 62
     0
100
AcDbPoint
 10
73.91496256503143
 20
-51.28629273710668
 30
0.0
  0
ENDBLK
  5
A8D
330
A82
100
AcDbEntity
  8
0
 62
     3
100
AcDbBlockEnd
  0
BLOCK
  5
F86
330
F7C
100
AcDbEntity
  8
0
 62
     3
100
AcDbBlockBegin
  2
*D4
 70
     1
 10
0.0
 20
0.0
 30
0.0
  3
*D4
  1

  0
LINE
  5
F9A
330
F7C
100
AcDbEntity
  8
画層1
 62
     0
370
    -2
100
AcDbLine
 10
100.9149625650314
 20
-8.856292737106906
 30
0.0
 11
100.9149625650314
 21
5.763707262893092
 31
0.0
  0
LINE
  5
F9B
330
F7C
100
AcDbEntity
  8
画層1
 62
     0
370
    -2
100
AcDbLine
 10
200.9149625650314
 20
-8.856292737106906
 30
0.0
 11
200.9149625650314
 21
5.763707262893092
 31
0.0
  0
LINE
  5
F9C
330
F7C
100
AcDbEntity
  8
画層1
 62
     0
370
    -2
100
AcDbLine
 10
102.4149625650314
 20
4.513707262893092
 30
0.0
 11
199.4149625650314
 21
4.513707262893092
 31
0.0
  0
INSERT
  5
F9D
330
F7C
100
AcDbEntity
  8
画層1
 62
     0
370
    -2
100
AcDbBlockReference
  2
_OPEN30
 10
100.9149625650314
 20
4.513707262893092
 30
0.0
 41
1.5
 42
1.5
 43
1.5
 50
180.0
  0
INSERT
  5
F9E
330
F7C
100
AcDbEntity
  8
画層1
 62
     0
370
    -2
100
AcDbBlockReference
  2
_OPEN30
 10
200.9149625650314
 20
4.513707262893092
 30
0.0
 41
1.5
 42
1.5
 43
1.5
  0
MTEXT
  5
F9F
330
F7C
100
AcDbEntity
  8
画層1
 62
     0
100
AcDbMText
 10
150.9149625650314
 20
6.393707262893092
 30
0.0
 40
2.5
 41
0.0
 71
     5
 72
     1
  1
\A1;100
  7
STYLE1
 73
     1
 44
1.0
  0
POINT
  5
FA0
330
F7C
100
AcDbEntity
  8
DEFPOINTS
 62
     0
100
AcDbPoint
 10
100.9149625650314
 20
-9.486292737106907
 30
0.0
  0
POINT
  5
FA1
330
F7C
100
AcDbEntity
  8
DEFPOINTS
 62
     0
100
AcDbPoint
 10
200.9149625650314
 20
-9.486292737106907
 30
0.0
  0
POINT
  5
FA2
330
F7C
100
AcDbEntity
  8
DEFPOINTS
 62
     0
100
AcDbPoint
 10
200.9149625650314
 20
4.513707262893092
 30
0.0
  0
ENDBLK
  5
F87
330
F7C
100
AcDbEntity
  8
0
 62
     3
100
AcDbBlockEnd
  0
BLOCK
  5
FAD
330
FA3
100
AcDbEntity
  8
0
 62
     3
100
AcDbBlockBegin
  2
*D5
 70
     1
 10
0.0
 20
0.0
 30
0.0
  3
*D5
  1

  0
LINE
  5
FA4
330
FA3
100
AcDbEntity
  8
画層1
 62
     0
370
    -2
100
AcDbLine
 10
118.8011687159888
 20
107.1030026895354
 30
0.0
 11
118.8011687159888
 21
81.75
 31
0.0
  0
LINE
  5
FA5
330
FA3
100
AcDbEntity
  8
画層1
 62
     0
370
    -2
100
AcDbLine
 10
145.3011687159888
 20
89.375
 30
0.0
 11
145.3011687159888
 21
81.75
 31
0.0
  0
LINE
  5
FA6
330
FA3
100
AcDbEntity
  8
画層1
 62
     0
370
    -2
100
AcDbLine
 10
120.3011687159887
 20
83.0
 30
0.0
 11
143.8011687159888
 21
83.0
 31
0.0
  0
INSERT
  5
FA7
330
FA3
100
AcDbEntity
  8
画層1
 62
     0
370
    -2
100
AcDbBlockReference
  2
_OPEN30
 10
118.8011687159888
 20
83.0
 30
0.0
 41
1.5
 42
1.5
 43
1.5
 50
180.0
  0
INSERT
  5
FA8
330
FA3
100
AcDbEntity
  8
画層1
 62
     0
370
    -2
100
AcDbBlockReference
  2
_OPEN30
 10
145.3011687159888
 20
83.0
 30
0.0
 41
1.5
 42
1.5
 43
1.5
  0
MTEXT
  5
FA9
330
FA3
100
AcDbEntity
  8
画層1
 62
     0
100
AcDbMText
 10
132.0511687159887
 20
84.875
 30
0.0
 40
2.5
 41
0.0
 71
     5
 72
     1
  1
\A1;53
  7
STYLE1
 73
     1
 44
1.0
  0
POINT
  5
FAA
330
FA3
100
AcDbEntity
  8
DEFPOINTS
 62
     0
100
AcDbPoint
 10
118.8011687159888
 20
107.7280026895355
 30
0.0
  0
POINT
  5
FAB
330
FA3
100
AcDbEntity
  8
DEFPOINTS
 62
     0
100
AcDbPoint
 10
145.3011687159888
 20
90.0
 30
0.0
  0
POINT
  5
FAC
330
FA3
100
AcDbEntity
  8
DEFPOINTS
 62
     0
100
AcDbPoint
 10
145.3011687159888
 20
83.0
 30
0.0
  0
ENDBLK
  5
FAE
330
FA3
100
AcDbEntity
  8
0
 62
     3
100
AcDbBlockEnd
  0
BLOCK
  5
FFE
330
FAF
100
AcDbEntity
  8
0
 62
     3
100
AcDbBlockBegin
  2
A$C6EDC16D0
 70
     0
 10
0.0
 20
0.0
 30
0.0
  3
A$C6EDC16D0
  1

  0
LINE
  5
FB0
330
FAF
100
AcDbEntity
  8
画層1
  6
CENTER
 62
     1
100
AcDbLine
 10
44.50000017184844
 20
46.2280030194235
 30
0.0
 11
47.50000017184844
 21
46.2280030194235
 31
0.0
  0
LINE
  5
FB1
330
FAF
100
AcDbEntity
  8
画層1
  6
CENTER
 62
     1
100
AcDbLine
 10
44.50000017184844
 20
38.22800301942351
 30
0.0
 11
47.50000017184844
 21
38.22800301942351
 31
0.0
  0
LINE
  5
FB2
330
FAF
100
AcDbEntity
  8
画層1
  6
DASHED2
 62
     2
100
AcDbLine
 10
62.50000017184845
 20
35.22800301942351
 30
0.0
 11
0.0000001718484555
 21
35.22800301942351
 31
0.0
  0
LINE
  5
FB3
330
FAF
100
AcDbEntity
  8
画層1
  6
DASHED2
 62
     2
100
AcDbLine
 10
0.0000001718484555
 20
49.2280030194235
 30
0.0
 11
62.50000017184845
 21
49.2280030194235
 31
0.0
  0
LINE
  5
FB4
330
FAF
100
AcDbEntity
  8
画層1
  6
DASHED2
 62
     2
100
AcDbLine
 10
0.0000001718484555
 20
35.22800301942351
 30
0.0
 11
0.0000001718484555
 21
49.2280030194235
 31
0.0
  0
ARC
  5
FB5
330
FAF
100
AcDbEntity
  8
画層1
  6
DASHED2
 62
     2
100
AcDbCircle
 10
33.50000017184845
 20
42.9780030194235
 30
0.0
 40
0.5
100
AcDbArc
 50
90.0
 51
180.0
  0
LINE
  5
FB6
330
FAF
100
AcDbEntity
  8
画層1
  6
DASHED2
 62
     2
100
AcDbLine
 10
33.65000017184843
 20
43.4780030194235
 30
0.0
 11
33.65000017184843
 21
43.9780030194235
 31
0.0
  0
ARC
  5
FB7
330
FAF
100
AcDbEntity
  8
画層1
  6
DASHED2
 62
     2
100
AcDbCircle
 10
32.00000017184844
 20
42.9780030194235
 30
0.0
 40
0.5
100
AcDbArc
 50
0.0
 51
90.0
  0
LINE
  5
FB8
330
FAF
100
AcDbEntity
  8
画層1
  6
DASHED2
 62
     2
100
AcDbLine
 10
31.85000017184846
 20
43.4780030194235
 30
0.0
 11
31.85000017184846
 21
43.9780030194235
 31
0.0
  0
CIRCLE
  5
FB9
330
FAF
100
AcDbEntity
  8
画層1
  6
DASHED2
 62
     2
100
AcDbCircle
 10
32.75000017184845
 20
43.7280030194235
 30
0.0
 40
1.75
  0
LINE
  5
FBA
330
FAF
100
AcDbEntity
  8
画層1
  6
DASHED2
 62
     2
100
AcDbLine
 10
40.25000017184845
 20
36.22800301942351
 30
0.0
 11
40.25000017184845
 21
46.2280030194235
 31
0.0
  0
LINE
  5
FBB
330
FAF
100
AcDbEntity
  8
画層1
  6
DASHED2
 62
     2
100
AcDbLine
 10
25.25000017184845
 20
46.2280030194235
 30
0.0
 11
25.25000017184845
 21
36.22800301942351
 31
0.0
  0
LINE
  5
FBC
330
FAF
100
AcDbEntity
  8
画層1
  6
DASHED2
 62
     2
100
AcDbLine
 10
36.07500017184838
 20
46.6030030194235
 30
0.0
 11
36.07500017184838
 21
35.85300301942351
 31
0.0
  0
LINE
  5
FBD
330
FAF
100
AcDbEntity
  8
画層1
  6
DASHED2
 62
     2
100
AcDbLine
 10
34.82500017184838
 20
46.6030030194235
 30
0.0
 11
34.82500017184838
 21
35.85300301942351
 31
0.0
  0
LINE
  5
FBE
330
FAF
100
AcDbEntity
  8
画層1
  6
DASHED2
 62
     2
100
AcDbLine
 10
30.67500017184852
 20
46.6030030194235
 30
0.0
 11
30.67500017184852
 21
35.85300301942351
 31
0.0
  0
LINE
  5
FBF
330
FAF
100
AcDbEntity
  8
画層1
  6
DASHED2
 62
     2
100
AcDbLine
 10
29.42500017184852
 20
46.6030030194235
 30
0.0
 11
29.42500017184852
 21
35.85300301942351
 31
0.0
  0
LINE
  5
FC0
330
FAF
100
AcDbEntity
  8
画層1
  6
CENTER
 62
     1
100
AcDbLine
 10
25.75000017184844
 20
38.72800301942351
 30
0.0
 11
28.75000017184845
 21
38.72800301942351
 31
0.0
  0
LINE
  5
FC1
330
FAF
100
AcDbEntity
  8
画層1
  6
DASHED2
 62
     2
100
AcDbLine
 10
25.25000017184845
 20
36.22800301942351
 30
0.0
 11
29.42500017184852
 21
36.22800301942351
 31
0.0
  0
LINE
  5
FC2
330
FAF
100
AcDbEntity
  8
画層1
  6
CENTER
 62
     1
100
AcDbLine
 10
18.00000017184844
 20
38.22800301942351
 30
0.0
 11
21.00000017184844
 21
38.22800301942351
 31
0.0
  0
LINE
  5
FC3
330
FAF
100
AcDbEntity
  8
画層1
  6
CENTER
 62
     1
100
AcDbLine
 10
19.50000017184844
 20
39.72800301942351
 30
0.0
 11
19.50000017184844
 21
36.72800301942351
 31
0.0
  0
LINE
  5
FC4
330
FAF
100
AcDbEntity
  8
画層1
  6
CENTER
 62
     1
100
AcDbLine
 10
27.25000017184845
 20
40.22800301942351
 30
0.0
 11
27.25000017184845
 21
37.22800301942351
 31
0.0
  0
LINE
  5
FC5
330
FAF
100
AcDbEntity
  8
画層1
  6
CENTER
 62
     1
100
AcDbLine
 10
36.75000017184845
 20
38.72800301942351
 30
0.0
 11
39.75000017184845
 21
38.72800301942351
 31
0.0
  0
LINE
  5
FC6
330
FAF
100
AcDbEntity
  8
画層1
  6
DASHED2
 62
     2
100
AcDbLine
 10
36.07500017184838
 20
36.22800301942351
 30
0.0
 11
40.25000017184845
 21
36.22800301942351
 31
0.0
  0
CIRCLE
  5
FC7
330
FAF
100
AcDbEntity
  8
画層1
  6
DASHED2
 62
     2
100
AcDbCircle
 10
32.75000017184845
 20
38.72800301942351
 30
0.0
 40
1.75
  0
LINE
  5
FC8
330
FAF
100
AcDbEntity
  8
画層1
  6
DASHED2
 62
     2
100
AcDbLine
 10
30.67500017184852
 20
36.22800301942351
 30
0.0
 11
34.82500017184838
 21
36.22800301942351
 31
0.0
  0
ARC
  5
FC9
330
FAF
100
AcDbEntity
  8
画層1
  6
DASHED2
 62
     2
100
AcDbCircle
 10
30.05000017184852
 20
35.85300301942351
 30
0.0
 40
0.625
100
AcDbArc
 50
180.0
 51
0.0
  0
ARC
  5
FCA
330
FAF
100
AcDbEntity
  8
画層1
  6
DASHED2
 62
     2
100
AcDbCircle
 10
35.45000017184838
 20
35.85300301942351
 30
0.0
 40
0.625
100
AcDbArc
 50
180.0
 51
0.0
  0
LINE
  5
FCB
330
FAF
100
AcDbEntity
  8
画層1
  6
DASHED2
 62
     2
100
AcDbLine
 10
32.50000017184845
 20
42.82800301942353
 30
0.0
 11
33.00000017184844
 21
42.82800301942353
 31
0.0
  0
LINE
  5
FCC
330
FAF
100
AcDbEntity
  8
画層1
  6
DASHED2
 62
     2
100
AcDbLine
 10
32.50000017184845
 20
39.62800301942349
 30
0.0
 11
33.00000017184844
 21
39.62800301942349
 31
0.0
  0
LINE
  5
FCD
330
FAF
100
AcDbEntity
  8
画層1
  6
DASHED2
 62
     2
100
AcDbLine
 10
32.50000017184845
 20
37.82800301942353
 30
0.0
 11
33.00000017184844
 21
37.82800301942353
 31
0.0
  0
LINE
  5
FCE
330
FAF
100
AcDbEntity
  8
画層1
  6
DASHED2
 62
     2
100
AcDbLine
 10
32.50000017184845
 20
42.82800301942353
 30
0.0
 11
32.50000017184845
 21
42.9780030194235
 31
0.0
  0
LINE
  5
FCF
330
FAF
100
AcDbEntity
  8
画層1
  6
DASHED2
 62
     2
100
AcDbLine
 10
32.00000017184857
 20
43.4780030194235
 30
0.0
 11
31.85000017184846
 21
43.4780030194235
 31
0.0
  0
ARC
  5
FD0
330
FAF
100
AcDbEntity
  8
画層1
  6
DASHED2
 62
     2
100
AcDbCircle
 10
32.00000017184844
 20
39.47800301942351
 30
0.0
 40
0.5
100
AcDbArc
 50
270.0
 51
0.0
  0
LINE
  5
FD1
330
FAF
100
AcDbEntity
  8
画層1
  6
DASHED2
 62
     2
100
AcDbLine
 10
31.85000017184846
 20
38.97800301942351
 30
0.0
 11
32.00000017184857
 21
38.97800301942351
 31
0.0
  0
LINE
  5
FD2
330
FAF
100
AcDbEntity
  8
画層1
  6
DASHED2
 62
     2
100
AcDbLine
 10
32.00000017184857
 20
38.47800301942351
 30
0.0
 11
31.85000017184846
 21
38.47800301942351
 31
0.0
  0
LINE
  5
FD3
330
FAF
100
AcDbEntity
  8
画層1
  6
DASHED2
 62
     2
100
AcDbLine
 10
31.85000017184846
 20
38.47800301942351
 30
0.0
 11
31.85000017184846
 21
38.97800301942351
 31
0.0
  0
LINE
  5
FD4
330
FAF
100
AcDbEntity
  8
画層1
  6
DASHED2
 62
     2
100
AcDbLine
 10
32.50000017184845
 20
39.47800301942351
 30
0.0
 11
32.50000017184845
 21
39.62800301942349
 31
0.0
  0
LINE
  5
FD5
330
FAF
100
AcDbEntity
  8
画層1
  6
DASHED2
 62
     2
100
AcDbLine
 10
32.50000017184845
 20
37.82800301942353
 30
0.0
 11
32.50000017184845
 21
37.97800301942351
 31
0.0
  0
ARC
  5
FD6
330
FAF
100
AcDbEntity
  8
画層1
  6
DASHED2
 62
     2
100
AcDbCircle
 10
32.00000017184844
 20
37.97800301942351
 30
0.0
 40
0.5
100
AcDbArc
 50
0.0
 51
90.0
  0
LINE
  5
FD7
330
FAF
100
AcDbEntity
  8
画層1
  6
DASHED2
 62
     2
100
AcDbLine
 10
33.00000017184844
 20
42.9780030194235
 30
0.0
 11
33.00000017184844
 21
42.82800301942353
 31
0.0
  0
LINE
  5
FD8
330
FAF
100
AcDbEntity
  8
画層1
  6
DASHED2
 62
     2
100
AcDbLine
 10
33.65000017184843
 20
43.4780030194235
 30
0.0
 11
33.50000017184845
 21
43.4780030194235
 31
0.0
  0
ARC
  5
FD9
330
FAF
100
AcDbEntity
  8
画層1
  6
DASHED2
 62
     2
100
AcDbCircle
 10
33.50000017184845
 20
39.47800301942351
 30
0.0
 40
0.5
100
AcDbArc
 50
180.0
 51
270.0
  0
LINE
  5
FDA
330
FAF
100
AcDbEntity
  8
画層1
  6
DASHED2
 62
     2
100
AcDbLine
 10
33.00000017184844
 20
39.62800301942349
 30
0.0
 11
33.00000017184844
 21
39.47800301942351
 31
0.0
  0
LINE
  5
FDB
330
FAF
100
AcDbEntity
  8
画層1
  6
DASHED2
 62
     2
100
AcDbLine
 10
33.50000017184845
 20
38.97800301942351
 30
0.0
 11
33.65000017184843
 21
38.97800301942351
 31
0.0
  0
LINE
  5
FDC
330
FAF
100
AcDbEntity
  8
画層1
  6
DASHED2
 62
     2
100
AcDbLine
 10
33.65000017184843
 20
38.47800301942351
 30
0.0
 11
33.50000017184845
 21
38.47800301942351
 31
0.0
  0
LINE
  5
FDD
330
FAF
100
AcDbEntity
  8
画層1
  6
DASHED2
 62
     2
100
AcDbLine
 10
33.65000017184843
 20
38.47800301942351
 30
0.0
 11
33.65000017184843
 21
38.97800301942351
 31
0.0
  0
LINE
  5
FDE
330
FAF
100
AcDbEntity
  8
画層1
  6
DASHED2
 62
     2
100
AcDbLine
 10
33.00000017184844
 20
37.97800301942351
 30
0.0
 11
33.00000017184844
 21
37.82800301942353
 31
0.0
  0
ARC
  5
FDF
330
FAF
100
AcDbEntity
  8
画層1
  6
DASHED2
 62
     2
100
AcDbCircle
 10
33.50000017184845
 20
37.97800301942351
 30
0.0
 40
0.5
100
AcDbArc
 50
90.0
 51
180.0
  0
LINE
  5
FE0
330
FAF
100
AcDbEntity
  8
画層1
  6
CENTER
 62
     1
100
AcDbLine
 10
38.25000017184845
 20
40.22800301942351
 30
0.0
 11
38.25000017184845
 21
37.22800301942351
 31
0.0
  0
LINE
  5
FE1
330
FAF
100
AcDbEntity
  8
画層1
  6
DASHED2
 62
     2
100
AcDbLine
 10
29.42500017184852
 20
46.2280030194235
 30
0.0
 11
25.25000017184845
 21
46.2280030194235
 31
0.0
  0
LINE
  5
FE2
330
FAF
100
AcDbEntity
  8
画層1
  6
CENTER
 62
     1
100
AcDbLine
 10
18.00000017184844
 20
46.2280030194235
 30
0.0
 11
21.00000017184844
 21
46.2280030194235
 31
0.0
  0
LINE
  5
FE3
330
FAF
100
AcDbEntity
  8
画層1
  6
CENTER
 62
     1
100
AcDbLine
 10
19.50000017184844
 20
47.7280030194235
 30
0.0
 11
19.50000017184844
 21
44.7280030194235
 31
0.0
  0
LINE
  5
FE4
330
FAF
100
AcDbEntity
  8
画層1
  6
DASHED2
 62
     2
100
AcDbLine
 10
40.25000017184845
 20
46.2280030194235
 30
0.0
 11
36.07500017184838
 21
46.2280030194235
 31
0.0
  0
LINE
  5
FE5
330
FAF
100
AcDbEntity
  8
画層1
  6
DASHED2
 62
     2
100
AcDbLine
 10
32.50000017184845
 20
44.62800301942349
 30
0.0
 11
33.00000017184844
 21
44.62800301942349
 31
0.0
  0
LINE
  5
FE6
330
FAF
100
AcDbEntity
  8
画層1
  6
DASHED2
 62
     2
100
AcDbLine
 10
34.82500017184838
 20
46.2280030194235
 30
0.0
 11
30.67500017184852
 21
46.2280030194235
 31
0.0
  0
LINE
  5
FE7
330
FAF
100
AcDbEntity
  8
画層1
  6
DASHED2
 62
     2
100
AcDbLine
 10
32.50000017184845
 20
44.4780030194235
 30
0.0
 11
32.50000017184845
 21
44.62800301942349
 31
0.0
  0
LINE
  5
FE8
330
FAF
100
AcDbEntity
  8
画層1
  6
DASHED2
 62
     2
100
AcDbLine
 10
31.85000017184846
 20
43.9780030194235
 30
0.0
 11
32.00000017184857
 21
43.9780030194235
 31
0.0
  0
ARC
  5
FE9
330
FAF
100
AcDbEntity
  8
画層1
  6
DASHED2
 62
     2
100
AcDbCircle
 10
32.00000017184844
 20
44.4780030194235
 30
0.0
 40
0.5
100
AcDbArc
 50
270.0
 51
0.0
  0
ARC
  5
FEA
330
FAF
100
AcDbEntity
  8
画層1
  6
DASHED2
 62
     2
100
AcDbCircle
 10
30.05000017184852
 20
46.6030030194235
 30
0.0
 40
0.625
100
AcDbArc
 50
0.0
 51
180.0
  0
LINE
  5
FEB
330
FAF
100
AcDbEntity
  8
画層1
  6
DASHED2
 62
     2
100
AcDbLine
 10
33.50000017184845
 20
43.9780030194235
 30
0.0
 11
33.65000017184843
 21
43.9780030194235
 31
0.0
  0
LINE
  5
FEC
330
FAF
100
AcDbEntity
  8
画層1
  6
DASHED2
 62
     2
100
AcDbLine
 10
33.00000017184844
 20
44.62800301942349
 30
0.0
 11
33.00000017184844
 21
44.4780030194235
 31
0.0
  0
ARC
  5
FED
330
FAF
100
AcDbEntity
  8
画層1
  6
DASHED2
 62
     2
100
AcDbCircle
 10
33.50000017184845
 20
44.4780030194235
 30
0.0
 40
0.5
100
AcDbArc
 50
180.0
 51
270.0
  0
ARC
  5
FEE
330
FAF
100
AcDbEntity
  8
画層1
  6
DASHED2
 62
     2
100
AcDbCircle
 10
35.45000017184838
 20
46.6030030194235
 30
0.0
 40
0.625
100
AcDbArc
 50
0.0
 51
180.0
  0
LINE
  5
FEF
330
FAF
100
AcDbEntity
  8
画層1
  6
DASHED2
 62
     2
100
AcDbLine
 10
62.50000017184845
 20
49.2280030194235
 30
0.0
 11
62.50000017184845
 21
35.22800301942351
 31
0.0
  0
LINE
  5
FF0
330
FAF
100
AcDbEntity
  8
画層1
  6
CENTER
 62
     1
100
AcDbLine
 10
46.00000017184846
 20
39.72800301942351
 30
0.0
 11
46.00000017184846
 21
36.72800301942351
 31
0.0
  0
LINE
  5
FF1
330
FAF
100
AcDbEntity
  8
画層1
  6
CENTER
 62
     1
100
AcDbLine
 10
46.00000017184846
 20
47.7280030194235
 30
0.0
 11
46.00000017184846
 21
44.7280030194235
 31
0.0
  0
LINE
  5
FF2
330
FAF
100
AcDbEntity
  8
画層1
  6
DASHED2
 62
     2
100
AcDbLine
 10
24.50000017184844
 20
54.2280030194235
 30
0.0
 11
24.50000017184844
 21
23.72800301942351
 31
0.0
  0
LINE
  5
FF3
330
FAF
100
AcDbEntity
  8
画層1
  6
DASHED2
 62
     2
100
AcDbLine
 10
14.50000017184845
 20
54.2280030194235
 30
0.0
 11
14.50000017184845
 21
23.72800301942351
 31
0.0
  0
DIMENSION
  5
FF4
330
FAF
100
AcDbEntity
  8
画層1
 62
     1
100
AcDbDimension
  2
*D5
 10
46.00000017184846
 20
1.250000329887938
 30
0.0
 11
32.75000017184845
 21
3.125000329887939
 31
0.0
 12
-99.30116854414041
 22
-81.74999967011206
 32
0.0
 71
     5
 42
53.0
  3
STANDARD_WS
100
AcDbAlignedDimension
 13
19.50000017184844
 23
25.97800301942351
 33
0.0
 14
46.00000017184846
 24
8.250000329887939
 34
0.0
100
AcDbRotatedDimension
1001
ACAD
1000
DSTYLE
1002
{
1070
    47
1040
0.6
1070
   144
1040
2.0
1070
   146
1040
0.5
1070
   173
1070
     0
1070
   284
1070
     8
1070
   340
1005
27
1070
   341
1005
28
1070
   342
1005
28
1070
   343
1005
28
1002
}
  0
LINE
  5
FF5
330
FAF
100
AcDbEntity
  8
画層1
  6
CENTER
 62
     1
100
AcDbLine
 10
19.50000017184844
 20
32.47800301942351
 30
0.0
 11
19.50000017184844
 21
23.97800301942351
 31
0.0
  0
LINE
  5
FF6
330
FAF
100
AcDbEntity
  8
画層1
  6
CENTER
 62
     1
100
AcDbLine
 10
15.25000017184845
 20
28.22800301942351
 30
0.0
 11
23.75000017184845
 21
28.22800301942351
 31
0.0
  0
CIRCLE
  5
FF7
330
FAF
100
AcDbEntity
  8
画層1
  6
DASHED2
 62
     2
100
AcDbCircle
 10
19.50000017184844
 20
28.22800301942351
 30
0.0
 40
2.25
  0
LINE
  5
FF8
330
FAF
100
AcDbEntity
  8
画層1
  6
CENTER
 62
     1
100
AcDbLine
 10
41.75000017184845
 20
28.22800301942351
 30
0.0
 11
50.25000017184845
 21
28.22800301942351
 31
0.0
  0
CIRCLE
  5
FF9
330
FAF
100
AcDbEntity
  8
画層1
  6
DASHED2
 62
     2
100
AcDbCircle
 10
46.00000017184846
 20
28.22800301942351
 30
0.0
 40
2.25
  0
LEADER
  5
FFA
330
FAF
100
AcDbEntity
  8
画層1
 62
     1
100
AcDbLeader
  3
STANDARD_WS
 73
     0
 75
     1
 40
2.906091370558375
 41
7.779187817258882
 76
     3
 10
44.95246904861287
 20
26.23672741171553
 30
0.0
 10
35.49036528435988
 20
8.250000329887939
 30
0.0
 10
33.99036528435988
 20
8.250000329887939
 30
0.0
340
FFB
213
-0.5
223
0.2103808082507612
233
0.0
1001
ACAD
1000
DSTYLE
1002
{
1070
   341
1005
28
1070
   147
1040
0.625
1070
    77
1070
     2
1070
    47
1040
0.6
1070
   144
1040
2.0
1070
   146
1040
0.5
1070
   284
1070
     8
1070
   340
1005
27
1002
}
  0
MTEXT
  5
FFB
102
{ACAD_REACTORS
330
FFA
102
}
330
FAF
100
AcDbEntity
  8
画層1
 62
     1
100
AcDbMText
 10
33.86536528435988
 20
8.664619521637177
 30
0.0
 40
2.5
 41
0.0
 71
     9
 72
     1
  1
2-φ9
  7
STYLE1
 73
     1
 44
1.0
  0
LINE
  5
FFC
330
FAF
100
AcDbEntity
  8
画層1
 62
     1
100
AcDbLine
 10
46.00000017184846
 20
25.97800301942351
 30
0.0
 11
46.00000017184846
 21
11.87500032988792
 31
0.0
  0
LINE
  5
FFD
330
FAF
100
AcDbEntity
  8
画層1
  6
CENTER
 62
     1
100
AcDbLine
 10
46.00000017184846
 20
32.47800301942351
 30
0.0
 11
46.00000017184846
 21
23.97800301942351
 31
0.0
  0
ENDBLK
  5
FFF
330
FAF
100
AcDbEntity
  8
0
 62
     3
100
AcDbBlockEnd
  0
BLOCK
  5
1014
330
100A
100
AcDbEntity
  8
0
 62
     3
100
AcDbBlockBegin
  2
*D7
 70
     1
 10
0.0
 20
0.0
 30
0.0
  3
*D7
  1

  0
LINE
  5
107A
330
100A
100
AcDbEntity
  8
画層1
 62
     0
370
    -2
100
AcDbLine
 10
200.9149625650314
 20
-8.856292737106906
 30
0.0
 11
200.9149625650314
 21
5.763707262893092
 31
0.0
  0
LINE
  5
107B
330
100A
100
AcDbEntity
  8
画層1
 62
     0
370
    -2
100
AcDbLine
 10
214.9149625650315
 20
-13.3562927371069
 30
0.0
 11
214.9149625650315
 21
5.763707262893092
 31
0.0
  0
LINE
  5
107C
330
100A
100
AcDbEntity
  8
画層1
 62
     0
370
    -2
100
AcDbLine
 10
202.4149625650314
 20
4.513707262893092
 30
0.0
 11
213.4149625650314
 21
4.513707262893092
 31
0.0
  0
INSERT
  5
107D
330
100A
100
AcDbEntity
  8
画層1
 62
     0
370
    -2
100
AcDbBlockReference
  2
_OPEN30
 10
200.9149625650314
 20
4.513707262893092
 30
0.0
 41
1.5
 42
1.5
 43
1.5
 50
180.0
  0
INSERT
  5
107E
330
100A
100
AcDbEntity
  8
画層1
 62
     0
370
    -2
100
AcDbBlockReference
  2
_OPEN30
 10
214.9149625650315
 20
4.513707262893092
 30
0.0
 41
1.5
 42
1.5
 43
1.5
  0
MTEXT
  5
107F
330
100A
100
AcDbEntity
  8
画層1
 62
     0
100
AcDbMText
 10
207.9149625650313
 20
6.603098125837253
 30
0.0
 40
2.5
 41
0.0
 71
     5
 72
     1
  1
\A1;(14)
  7
STYLE1
 73
     1
 44
1.0
  0
POINT
  5
1080
330
100A
100
AcDbEntity
  8
DEFPOINTS
 62
     0
100
AcDbPoint
 10
200.9149625650314
 20
-9.486292737106907
 30
0.0
  0
POINT
  5
1081
330
100A
100
AcDbEntity
  8
DEFPOINTS
 62
     0
100
AcDbPoint
 10
214.9149625650315
 20
-13.9862927371069
 30
0.0
  0
POINT
  5
1082
330
100A
100
AcDbEntity
  8
DEFPOINTS
 62
     0
100
AcDbPoint
 10
214.9149625650315
 20
4.513707262893092
 30
0.0
  0
ENDBLK
  5
1015
330
100A
100
AcDbEntity
  8
0
 62
     3
100
AcDbBlockEnd
  0
BLOCK
  5
102A
330
1020
100
AcDbEntity
  8
0
 62
     1
100
AcDbBlockBegin
  2
*D8
 70
     1
 10
0.0
 20
0.0
 30
0.0
  3
*D8
  1

  0
LINE
  5
102C
330
1020
100
AcDbEntity
  8
画層1
 62
     0
370
    -2
100
AcDbLine
 10
86.91496256503148
 20
-1.856292737106793
 30
0.0
 11
86.91496256503148
 21
12.76370726289309
 31
0.0
  0
LINE
  5
102D
330
1020
100
AcDbEntity
  8
画層1
 62
     0
370
    -2
100
AcDbLine
 10
214.9149625650315
 20
-13.3562927371069
 30
0.0
 11
214.9149625650315
 21
12.76370726289309
 31
0.0
  0
LINE
  5
102E
330
1020
100
AcDbEntity
  8
画層1
 62
     0
370
    -2
100
AcDbLine
 10
88.41496256503148
 20
11.51370726289309
 30
0.0
 11
213.4149625650314
 21
11.51370726289309
 31
0.0
  0
INSERT
  5
102F
330
1020
100
AcDbEntity
  8
画層1
 62
     0
370
    -2
100
AcDbBlockReference
  2
_OPEN30
 10
86.91496256503148
 20
11.51370726289309
 30
0.0
 41
1.5
 42
1.5
 43
1.5
 50
180.0
  0
INSERT
  5
1030
330
1020
100
AcDbEntity
  8
画層1
 62
     0
370
    -2
100
AcDbBlockReference
  2
_OPEN30
 10
214.9149625650315
 20
11.51370726289309
 30
0.0
 41
1.5
 42
1.5
 43
1.5
  0
MTEXT
  5
1031
330
1020
100
AcDbEntity
  8
画層1
 62
     0
100
AcDbMText
 10
150.9149625650314
 20
13.39370726289309
 30
0.0
 40
2.5
 41
0.0
 71
     5
 72
     1
  1
\A1;128
  7
STYLE1
 73
     1
 44
1.0
  0
POINT
  5
1032
330
1020
100
AcDbEntity
  8
DEFPOINTS
 62
     0
100
AcDbPoint
 10
86.91496256503148
 20
-2.486292737106793
 30
0.0
  0
POINT
  5
1033
330
1020
100
AcDbEntity
  8
DEFPOINTS
 62
     0
100
AcDbPoint
 10
214.9149625650315
 20
-13.9862927371069
 30
0.0
  0
POINT
  5
1034
330
1020
100
AcDbEntity
  8
DEFPOINTS
 62
     0
100
AcDbPoint
 10
214.9149625650315
 20
11.51370726289309
 30
0.0
  0
ENDBLK
  5
102B
330
1020
100
AcDbEntity
  8
0
 62
     1
100
AcDbBlockEnd
  0
BLOCK
  5
1040
330
1036
100
AcDbEntity
  8
0
 62
     1
100
AcDbBlockBegin
  2
*D9
 70
     1
 10
0.0
 20
0.0
 30
0.0
  3
*D9
  1

  0
LINE
  5
1288
330
1036
100
AcDbEntity
  8
画層1
 62
     0
370
    -2
100
AcDbLine
 10
214.9149625650315
 20
-12.35629273710689
 30
0.0
 11
214.9149625650315
 21
12.76370726289309
 31
0.0
  0
LINE
  5
1289
330
1036
100
AcDbEntity
  8
画層1
 62
     0
370
    -2
100
AcDbLine
 10
220.9149625650315
 20
-68.8562927371069
 30
0.0
 11
220.9149625650315
 21
12.76370726289309
 31
0.0
  0
LINE
  5
128A
330
1036
100
AcDbEntity
  8
画層1
 62
     0
370
    -2
100
AcDbLine
 10
216.4149625650313
 20
11.51370726289309
 30
0.0
 11
219.4149625650315
 21
11.51370726289309
 31
0.0
  0
INSERT
  5
128B
330
1036
100
AcDbEntity
  8
画層1
 62
     0
370
    -2
100
AcDbBlockReference
  2
_OPEN30
 10
214.9149625650315
 20
11.51370726289309
 30
0.0
 41
1.5
 42
1.5
 43
1.5
 50
180.0
  0
INSERT
  5
128C
330
1036
100
AcDbEntity
  8
画層1
 62
     0
370
    -2
100
AcDbBlockReference
  2
_OPEN30
 10
220.9149625650315
 20
11.51370726289309
 30
0.0
 41
1.5
 42
1.5
 43
1.5
  0
MTEXT
  5
128D
330
1036
100
AcDbEntity
  8
画層1
 62
     0
100
AcDbMText
 10
217.9149625650314
 20
13.39370726289309
 30
0.0
 40
2.5
 41
0.0
 71
     5
 72
     1
  1
\A1;6
  7
STYLE1
 73
     1
 44
1.0
  0
POINT
  5
128E
330
1036
100
AcDbEntity
  8
DEFPOINTS
 62
     0
100
AcDbPoint
 10
214.9149625650315
 20
-12.9862927371069
 30
0.0
  0
POINT
  5
128F
330
1036
100
AcDbEntity
  8
DEFPOINTS
 62
     0
100
AcDbPoint
 10
220.9149625650315
 20
-69.4862927371069
 30
0.0
  0
POINT
  5
1290
330
1036
100
AcDbEntity
  8
DEFPOINTS
 62
     0
100
AcDbPoint
 10
220.9149625650315
 20
11.51370726289309
 30
0.0
  0
ENDBLK
  5
1041
330
1036
100
AcDbEntity
  8
0
 62
     1
100
AcDbBlockEnd
  0
BLOCK
  5
1066
330
105C
100
AcDbEntity
  8
0
 62
     1
100
AcDbBlockBegin
  2
*D10
 70
     1
 10
0.0
 20
0.0
 30
0.0
  3
*D10
  1

  0
LINE
  5
1068
330
105C
100
AcDbEntity
  8
画層1
 62
     0
370
    -2
100
AcDbLine
 10
80.91496256503143
 20
-68.8562927371069
 30
0.0
 11
80.91496256503143
 21
19.76370726289308
 31
0.0
  0
LINE
  5
1069
330
105C
100
AcDbEntity
  8
画層1
 62
     0
370
    -2
100
AcDbLine
 10
220.9149625650315
 20
-68.8562927371069
 30
0.0
 11
220.9149625650315
 21
19.76370726289308
 31
0.0
  0
LINE
  5
106A
330
105C
100
AcDbEntity
  8
画層1
 62
     0
370
    -2
100
AcDbLine
 10
82.41496256503143
 20
18.51370726289308
 30
0.0
 11
219.4149625650315
 21
18.51370726289308
 31
0.0
  0
INSERT
  5
106B
330
105C
100
AcDbEntity
  8
画層1
 62
     0
370
    -2
100
AcDbBlockReference
  2
_OPEN30
 10
80.91496256503143
 20
18.51370726289308
 30
0.0
 41
1.5
 42
1.5
 43
1.5
 50
180.0
  0
INSERT
  5
106C
330
105C
100
AcDbEntity
  8
画層1
 62
     0
370
    -2
100
AcDbBlockReference
  2
_OPEN30
 10
220.9149625650315
 20
18.51370726289308
 30
0.0
 41
1.5
 42
1.5
 43
1.5
  0
MTEXT
  5
106D
330
105C
100
AcDbEntity
  8
画層1
 62
     0
100
AcDbMText
 10
150.9149625650314
 20
20.39370726289309
 30
0.0
 40
2.5
 41
0.0
 71
     5
 72
     1
  1
\A1;140
  7
STYLE1
 73
     1
 44
1.0
  0
POINT
  5
106E
330
105C
100
AcDbEntity
  8
DEFPOINTS
 62
     0
100
AcDbPoint
 10
80.91496256503143
 20
-69.4862927371069
 30
0.0
  0
POINT
  5
106F
330
105C
100
AcDbEntity
  8
DEFPOINTS
 62
     0
100
AcDbPoint
 10
220.9149625650315
 20
-69.4862927371069
 30
0.0
  0
POINT
  5
1070
330
105C
100
AcDbEntity
  8
DEFPOINTS
 62
     0
100
AcDbPoint
 10
220.9149625650315
 20
18.51370726289308
 30
0.0
  0
ENDBLK
  5
1067
330
105C
100
AcDbEntity
  8
0
 62
     1
100
AcDbBlockEnd
  0
BLOCK
  5
10A0
330
1096
100
AcDbEntity
  8
0
 62
     1
100
AcDbBlockBegin
  2
*D11
 70
     1
 10
0.0
 20
0.0
 30
0.0
  3
*D11
  1

  0
LINE
  5
10A2
330
1096
100
AcDbEntity
  8
画層1
 62
     0
370
    -2
100
AcDbLine
 10
100.2849625650314
 20
-9.486292737106907
 30
0.0
 11
65.66496256503143
 21
-9.486292737106897
 31
0.0
  0
LINE
  5
10A3
330
1096
100
AcDbEntity
  8
画層1
 62
     0
370
    -2
100
AcDbLine
 10
100.2849625650314
 20
-295.4862927371067
 30
0.0
 11
65.66496256503135
 21
-295.4862927371067
 31
0.0
  0
LINE
  5
10A4
330
1096
100
AcDbEntity
  8
画層1
 62
     0
370
    -2
100
AcDbLine
 10
66.91496256503143
 20
-10.98629273710689
 30
0.0
 11
66.91496256503135
 21
-293.9862927371068
 31
0.0
  0
INSERT
  5
10A5
330
1096
100
AcDbEntity
  8
画層1
 62
     0
370
    -2
100
AcDbBlockReference
  2
_OPEN30
 10
66.91496256503143
 20
-9.486292737106897
 30
0.0
 41
1.5
 42
1.5
 43
1.5
 50
90.0
  0
INSERT
  5
10A6
330
1096
100
AcDbEntity
  8
画層1
 62
     0
370
    -2
100
AcDbBlockReference
  2
_OPEN30
 10
66.91496256503135
 20
-295.4862927371067
 30
0.0
 41
1.5
 42
1.5
 43
1.5
 50
270.0
  0
MTEXT
  5
10A7
330
1096
100
AcDbEntity
  8
画層1
 62
     0
100
AcDbMText
 10
65.03496256503144
 20
-152.4862927371068
 30
0.0
 40
2.5
 41
0.0
 71
     5
 72
     1
  1
\A1;286
  7
STYLE1
 11
0.0000000000000001
 21
1.0
 31
0.0
 73
     1
 44
1.0
  0
POINT
  5
10A8
330
1096
100
AcDbEntity
  8
DEFPOINTS
 62
     0
100
AcDbPoint
 10
100.9149625650314
 20
-9.486292737106907
 30
0.0
  0
POINT
  5
10A9
330
1096
100
AcDbEntity
  8
DEFPOINTS
 62
     0
100
AcDbPoint
 10
100.9149625650314
 20
-295.4862927371067
 30
0.0
  0
POINT
  5
10AA
330
1096
100
AcDbEntity
  8
DEFPOINTS
 62
     0
100
AcDbPoint
 10
66.91496256503135
 20
-295.4862927371067
 30
0.0
  0
ENDBLK
  5
10A1
330
1096
100
AcDbEntity
  8
0
 62
     1
100
AcDbBlockEnd
  0
BLOCK
  5
10B8
330
10AE
100
AcDbEntity
  8
0
 62
     1
100
AcDbBlockBegin
  2
*D12
 70
     1
 10
0.0
 20
0.0
 30
0.0
  3
*D12
  1

  0
LINE
  5
10D0
330
10AE
100
AcDbEntity
  8
画層1
 62
     0
370
    -2
100
AcDbLine
 10
215.1449625650314
 20
-2.486292737106908
 30
0.0
 11
236.1649625650314
 21
-2.486292737106913
 31
0.0
  0
LINE
  5
10D1
330
10AE
100
AcDbEntity
  8
画層1
 62
     0
370
    -2
100
AcDbLine
 10
215.1449625650314
 20
-302.4862927371068
 30
0.0
 11
236.1649625650314
 21
-302.4862927371068
 31
0.0
  0
LINE
  5
10D2
330
10AE
100
AcDbEntity
  8
画層1
 62
     0
370
    -2
100
AcDbLine
 10
234.9149625650315
 20
-3.986292737106913
 30
0.0
 11
234.9149625650313
 21
-300.9862927371067
 31
0.0
  0
INSERT
  5
10D3
330
10AE
100
AcDbEntity
  8
画層1
 62
     0
370
    -2
100
AcDbBlockReference
  2
_OPEN30
 10
234.9149625650315
 20
-2.486292737106913
 30
0.0
 41
1.5
 42
1.5
 43
1.5
 50
90.0
  0
INSERT
  5
10D4
330
10AE
100
AcDbEntity
  8
画層1
 62
     0
370
    -2
100
AcDbBlockReference
  2
_OPEN30
 10
234.9149625650313
 20
-302.4862927371068
 30
0.0
 41
1.5
 42
1.5
 43
1.5
 50
270.0
  0
MTEXT
  5
10D5
330
10AE
100
AcDbEntity
  8
画層1
 62
     0
100
AcDbMText
 10
233.0349625650315
 20
-152.4862927371068
 30
0.0
 40
2.5
 41
0.0
 71
     5
 72
     1
  1
\A1;300
  7
STYLE1
 11
0.0000000000000001
 21
1.0
 31
0.0
 73
     1
 44
1.0
  0
POINT
  5
10D6
330
10AE
100
AcDbEntity
  8
DEFPOINTS
 62
     0
100
AcDbPoint
 10
214.5149625650314
 20
-2.486292737106906
 30
0.0
  0
POINT
  5
10D7
330
10AE
100
AcDbEntity
  8
DEFPOINTS
 62
     0
100
AcDbPoint
 10
214.5149625650314
 20
-302.4862927371068
 30
0.0
  0
POINT
  5
10D8
330
10AE
100
AcDbEntity
  8
DEFPOINTS
 62
     0
100
AcDbPoint
 10
234.9149625650313
 20
-302.4862927371068
 30
0.0
  0
ENDBLK
  5
10B9
330
10AE
100
AcDbEntity
  8
0
 62
     1
100
AcDbBlockEnd
  0
BLOCK
  5
10CE
330
10C4
100
AcDbEntity
  8
0
 62
     1
100
AcDbBlockBegin
  2
*D13
 70
     1
 10
0.0
 20
0.0
 30
0.0
  3
*D13
  1

  0
LINE
  5
10C5
330
10C4
100
AcDbEntity
  8
画層1
 62
     0
370
    -2
100
AcDbLine
 10
215.1449625650314
 20
-302.4862927371068
 30
0.0
 11
229.1649625650314
 21
-302.4862927371068
 31
0.0
  0
LINE
  5
10C6
330
10C4
100
AcDbEntity
  8
画層1
 62
     0
370
    -2
100
AcDbLine
 10
180.5449625650314
 20
-288.4862927371066
 30
0.0
 11
229.1649625650314
 21
-288.4862927371066
 31
0.0
  0
LINE
  5
10C7
330
10C4
100
AcDbEntity
  8
画層1
 62
     0
370
    -2
100
AcDbLine
 10
227.9149625650314
 20
-300.9862927371067
 30
0.0
 11
227.9149625650314
 21
-289.9862927371068
 31
0.0
  0
INSERT
  5
10C8
330
10C4
100
AcDbEntity
  8
画層1
 62
     0
370
    -2
100
AcDbBlockReference
  2
_OPEN30
 10
227.9149625650314
 20
-302.4862927371068
 30
0.0
 41
1.5
 42
1.5
 43
1.5
 50
270.0
  0
INSERT
  5
10C9
330
10C4
100
AcDbEntity
  8
画層1
 62
     0
370
    -2
100
AcDbBlockReference
  2
_OPEN30
 10
227.9149625650314
 20
-288.4862927371066
 30
0.0
 41
1.5
 42
1.5
 43
1.5
 50
90.0
  0
MTEXT
  5
10CA
330
10C4
100
AcDbEntity
  8
画層1
 62
     0
100
AcDbMText
 10
226.0349625650313
 20
-295.4862927371067
 30
0.0
 40
2.5
 41
0.0
 71
     5
 72
     1
  1
\A1;14
  7
STYLE1
 11
0.0000000000000001
 21
1.0
 31
0.0
 73
     1
 44
1.0
  0
POINT
  5
10CB
330
10C4
100
AcDbEntity
  8
DEFPOINTS
 62
     0
100
AcDbPoint
 10
214.5149625650314
 20
-302.4862927371068
 30
0.0
  0
POINT
  5
10CC
330
10C4
100
AcDbEntity
  8
DEFPOINTS
 62
     0
100
AcDbPoint
 10
179.9149625650314
 20
-288.4862927371066
 30
0.0
  0
POINT
  5
10CD
330
10C4
100
AcDbEntity
  8
DEFPOINTS
 62
     0
100
AcDbPoint
 10
227.9149625650314
 20
-288.4862927371066
 30
0.0
  0
ENDBLK
  5
10CF
330
10C4
100
AcDbEntity
  8
0
 62
     1
100
AcDbBlockEnd
  0
BLOCK
  5
10E4
330
10DA
100
AcDbEntity
  8
0
 62
     1
100
AcDbBlockBegin
  2
*D14
 70
     1
 10
0.0
 20
0.0
 30
0.0
  3
*D14
  1

  0
LINE
  5
11AC
330
10DA
100
AcDbEntity
  8
画層1
 62
     0
370
    -2
100
AcDbLine
 10
104.4149625650314
 20
-303.1162927371068
 30
0.0
 11
104.4149625650314
 21
-340.7362927371067
 31
0.0
  0
LINE
  5
11AD
330
10DA
100
AcDbEntity
  8
画層1
 62
     0
370
    -2
100
AcDbLine
 10
97.41496256503149
 20
-303.1162927371068
 30
0.0
 11
97.41496256503149
 21
-340.7362927371067
 31
0.0
  0
LINE
  5
11AE
330
10DA
100
AcDbEntity
  8
画層1
 62
     0
370
    -2
100
AcDbLine
 10
102.9149625650314
 20
-339.4862927371068
 30
0.0
 11
98.91496256503144
 21
-339.4862927371068
 31
0.0
  0
LINE
  5
11AF
330
10DA
100
AcDbEntity
  8
画層1
 62
     0
370
    -2
100
AcDbLine
 10
97.41496256503149
 20
-339.4862927371068
 30
0.0
 11
72.20572398635126
 21
-339.4862927371068
 31
0.0
  0
INSERT
  5
11B0
330
10DA
100
AcDbEntity
  8
画層1
 62
     0
370
    -2
100
AcDbBlockReference
  2
_OPEN30
 10
104.4149625650314
 20
-339.4862927371068
 30
0.0
 41
1.5
 42
1.5
 43
1.5
  0
INSERT
  5
11B1
330
10DA
100
AcDbEntity
  8
画層1
 62
     0
370
    -2
100
AcDbBlockReference
  2
_OPEN30
 10
97.41496256503149
 20
-339.4862927371068
 30
0.0
 41
1.5
 42
1.5
 43
1.5
 50
180.0
  0
MTEXT
  5
11B2
330
10DA
100
AcDbEntity
  8
画層1
 62
     0
100
AcDbMText
 10
84.06034327569136
 20
-337.3651759858376
 30
0.0
 40
2.5
 41
0.0
 71
     5
 72
     1
  1
\A1;2-φ7 キリカキ
  7
STYLE1
 73
     1
 44
1.0
  0
POINT
  5
11B3
330
10DA
100
AcDbEntity
  8
DEFPOINTS
 62
     0
100
AcDbPoint
 10
104.4149625650314
 20
-302.4862927371068
 30
0.0
  0
POINT
  5
11B4
330
10DA
100
AcDbEntity
  8
DEFPOINTS
 62
     0
100
AcDbPoint
 10
97.41496256503149
 20
-302.4862927371068
 30
0.0
  0
POINT
  5
11B5
330
10DA
100
AcDbEntity
  8
DEFPOINTS
 62
     0
100
AcDbPoint
 10
97.41496256503149
 20
-339.4862927371068
 30
0.0
  0
ENDBLK
  5
10E5
330
10DA
100
AcDbEntity
  8
0
 62
     1
100
AcDbBlockEnd
  0
BLOCK
  5
10FA
330
10F0
100
AcDbEntity
  8
0
 62
     1
100
AcDbBlockBegin
  2
*D15
 70
     1
 10
0.0
 20
0.0
 30
0.0
  3
*D15
  1

  0
LINE
  5
1155
330
10F0
100
AcDbEntity
  8
画層1
 62
     0
370
    -2
100
AcDbLine
 10
168.4149625650314
 20
-303.1162927371068
 30
0.0
 11
168.4149625650314
 21
-340.7362927371067
 31
0.0
  0
LINE
  5
1156
330
10F0
100
AcDbEntity
  8
画層1
 62
     0
370
    -2
100
AcDbLine
 10
193.4149625650314
 20
-303.1162927371068
 30
0.0
 11
193.4149625650314
 21
-340.7362927371067
 31
0.0
  0
LINE
  5
1157
330
10F0
100
AcDbEntity
  8
画層1
 62
     0
370
    -2
100
AcDbLine
 10
169.9149625650314
 20
-339.4862927371068
 30
0.0
 11
191.9149625650313
 21
-339.4862927371068
 31
0.0
  0
INSERT
  5
1158
330
10F0
100
AcDbEntity
  8
画層1
 62
     0
370
    -2
100
AcDbBlockReference
  2
_OPEN30
 10
168.4149625650314
 20
-339.4862927371068
 30
0.0
 41
1.5
 42
1.5
 43
1.5
 50
180.0
  0
INSERT
  5
1159
330
10F0
100
AcDbEntity
  8
画層1
 62
     0
370
    -2
100
AcDbBlockReference
  2
_OPEN30
 10
193.4149625650314
 20
-339.4862927371068
 30
0.0
 41
1.5
 42
1.5
 43
1.5
  0
MTEXT
  5
115A
330
10F0
100
AcDbEntity
  8
画層1
 62
     0
100
AcDbMText
 10
180.9149625650314
 20
-337.6062927371068
 30
0.0
 40
2.5
 41
0.0
 71
     5
 72
     1
  1
\A1;25
  7
STYLE1
 73
     1
 44
1.0
  0
POINT
  5
115B
330
10F0
100
AcDbEntity
  8
DEFPOINTS
 62
     0
100
AcDbPoint
 10
168.4149625650314
 20
-302.4862927371068
 30
0.0
  0
POINT
  5
115C
330
10F0
100
AcDbEntity
  8
DEFPOINTS
 62
     0
100
AcDbPoint
 10
193.4149625650314
 20
-302.4862927371068
 30
0.0
  0
POINT
  5
115D
330
10F0
100
AcDbEntity
  8
DEFPOINTS
 62
     0
100
AcDbPoint
 10
193.4149625650314
 20
-339.4862927371068
 30
0.0
  0
ENDBLK
  5
10FB
330
10F0
100
AcDbEntity
  8
0
 62
     1
100
AcDbBlockEnd
  0
BLOCK
  5
1119
330
110F
100
AcDbEntity
  8
0
 62
     1
100
AcDbBlockBegin
  2
*D16
 70
     1
 10
0.0
 20
0.0
 30
0.0
  3
*D16
  1

  0
LINE
  5
114C
330
110F
100
AcDbEntity
  8
画層1
 62
     0
370
    -2
100
AcDbLine
 10
122.9149625650314
 20
-289.1162927371068
 30
0.0
 11
122.9149625650314
 21
-347.7362927371068
 31
0.0
  0
LINE
  5
114D
330
110F
100
AcDbEntity
  8
画層1
 62
     0
370
    -2
100
AcDbLine
 10
180.9149625650314
 20
-289.1162927371068
 30
0.0
 11
180.9149625650314
 21
-347.7362927371068
 31
0.0
  0
LINE
  5
114E
330
110F
100
AcDbEntity
  8
画層1
 62
     0
370
    -2
100
AcDbLine
 10
124.4149625650314
 20
-346.4862927371068
 30
0.0
 11
179.4149625650313
 21
-346.4862927371068
 31
0.0
  0
INSERT
  5
114F
330
110F
100
AcDbEntity
  8
画層1
 62
     0
370
    -2
100
AcDbBlockReference
  2
_OPEN30
 10
122.9149625650314
 20
-346.4862927371068
 30
0.0
 41
1.5
 42
1.5
 43
1.5
 50
180.0
  0
INSERT
  5
1150
330
110F
100
AcDbEntity
  8
画層1
 62
     0
370
    -2
100
AcDbBlockReference
  2
_OPEN30
 10
180.9149625650314
 20
-346.4862927371068
 30
0.0
 41
1.5
 42
1.5
 43
1.5
  0
MTEXT
  5
1151
330
110F
100
AcDbEntity
  8
画層1
 62
     0
100
AcDbMText
 10
151.9149625650314
 20
-344.6062927371067
 30
0.0
 40
2.5
 41
0.0
 71
     5
 72
     1
  1
\A1;58
  7
STYLE1
 73
     1
 44
1.0
  0
POINT
  5
1152
330
110F
100
AcDbEntity
  8
DEFPOINTS
 62
     0
100
AcDbPoint
 10
122.9149625650314
 20
-288.4862927371066
 30
0.0
  0
POINT
  5
1153
330
110F
100
AcDbEntity
  8
DEFPOINTS
 62
     0
100
AcDbPoint
 10
180.9149625650314
 20
-288.4862927371066
 30
0.0
  0
POINT
  5
1154
330
110F
100
AcDbEntity
  8
DEFPOINTS
 62
     0
100
AcDbPoint
 10
180.9149625650314
 20
-346.4862927371068
 30
0.0
  0
ENDBLK
  5
111A
330
110F
100
AcDbEntity
  8
0
 62
     1
100
AcDbBlockEnd
  0
BLOCK
  5
1141
330
1137
100
AcDbEntity
  8
0
 62
     1
100
AcDbBlockBegin
  2
*D17
 70
     1
 10
0.0
 20
0.0
 30
0.0
  3
*D17
  1

  0
LINE
  5
1170
330
1137
100
AcDbEntity
  8
画層1
 62
     0
370
    -2
100
AcDbLine
 10
180.9149625650314
 20
-289.1162927371068
 30
0.0
 11
180.9149625650314
 21
-347.7362927371068
 31
0.0
  0
LINE
  5
1171
330
1137
100
AcDbEntity
  8
画層1
 62
     0
370
    -2
100
AcDbLine
 10
214.9149625650315
 20
-291.6162927371067
 30
0.0
 11
214.9149625650315
 21
-347.7362927371068
 31
0.0
  0
LINE
  5
1172
330
1137
100
AcDbEntity
  8
画層1
 62
     0
370
    -2
100
AcDbLine
 10
182.4149625650314
 20
-346.4862927371068
 30
0.0
 11
213.4149625650314
 21
-346.4862927371068
 31
0.0
  0
INSERT
  5
1173
330
1137
100
AcDbEntity
  8
画層1
 62
     0
370
    -2
100
AcDbBlockReference
  2
_OPEN30
 10
180.9149625650314
 20
-346.4862927371068
 30
0.0
 41
1.5
 42
1.5
 43
1.5
 50
180.0
  0
INSERT
  5
1174
330
1137
100
AcDbEntity
  8
画層1
 62
     0
370
    -2
100
AcDbBlockReference
  2
_OPEN30
 10
214.9149625650315
 20
-346.4862927371068
 30
0.0
 41
1.5
 42
1.5
 43
1.5
  0
MTEXT
  5
1175
330
1137
100
AcDbEntity
  8
画層1
 62
     0
100
AcDbMText
 10
197.9149625650314
 20
-344.3969018741626
 30
0.0
 40
2.5
 41
0.0
 71
     5
 72
     1
  1
\A1;(34)
  7
STYLE1
 73
     1
 44
1.0
  0
POINT
  5
1176
330
1137
100
AcDbEntity
  8
DEFPOINTS
 62
     0
100
AcDbPoint
 10
180.9149625650314
 20
-288.4862927371066
 30
0.0
  0
POINT
  5
1177
330
1137
100
AcDbEntity
  8
DEFPOINTS
 62
     0
100
AcDbPoint
 10
214.9149625650315
 20
-290.9862927371067
 30
0.0
  0
POINT
  5
1178
330
1137
100
AcDbEntity
  8
DEFPOINTS
 62
     0
100
AcDbPoint
 10
214.9149625650315
 20
-346.4862927371068
 30
0.0
  0
ENDBLK
  5
1142
330
1137
100
AcDbEntity
  8
0
 62
     1
100
AcDbBlockEnd
  0
BLOCK
  5
1184
330
117A
100
AcDbEntity
  8
0
 62
     1
100
AcDbBlockBegin
  2
*D18
 70
     1
 10
0.0
 20
0.0
 30
0.0
  3
*D18
  1

  0
LINE
  5
118F
330
117A
100
AcDbEntity
  8
画層1
 62
     0
370
    -2
100
AcDbLine
 10
147.7649625650315
 20
-261.8662927371067
 30
0.0
 11
147.7649625650315
 21
-277.7362927371068
 31
0.0
  0
LINE
  5
1190
330
117A
100
AcDbEntity
  8
画層1
 62
     0
370
    -2
100
AcDbLine
 10
156.0649625650313
 20
-261.8662927371067
 30
0.0
 11
156.0649625650313
 21
-277.7362927371068
 31
0.0
  0
LINE
  5
1191
330
117A
100
AcDbEntity
  8
画層1
 62
     0
370
    -2
100
AcDbLine
 10
149.2649625650315
 20
-276.4862927371066
 30
0.0
 11
154.5649625650313
 21
-276.4862927371066
 31
0.0
  0
INSERT
  5
1192
330
117A
100
AcDbEntity
  8
画層1
 62
     0
370
    -2
100
AcDbBlockReference
  2
_OPEN30
 10
147.7649625650315
 20
-276.4862927371066
 30
0.0
 41
1.5
 42
1.5
 43
1.5
 50
180.0
  0
INSERT
  5
1193
330
117A
100
AcDbEntity
  8
画層1
 62
     0
370
    -2
100
AcDbBlockReference
  2
_OPEN30
 10
156.0649625650313
 20
-276.4862927371066
 30
0.0
 41
1.5
 42
1.5
 43
1.5
  0
MTEXT
  5
1194
330
117A
100
AcDbEntity
  8
画層1
 62
     0
100
AcDbMText
 10
151.9149625650314
 20
-274.6062927371068
 30
0.0
 40
2.5
 41
0.0
 71
     5
 72
     1
  1
\A1;8.3
  7
STYLE1
 73
     1
 44
1.0
  0
POINT
  5
1195
330
117A
100
AcDbEntity
  8
DEFPOINTS
 62
     0
100
AcDbPoint
 10
147.7649625650315
 20
-261.2362927371068
 30
0.0
  0
POINT
  5
1196
330
117A
100
AcDbEntity
  8
DEFPOINTS
 62
     0
100
AcDbPoint
 10
156.0649625650313
 20
-261.2362927371068
 30
0.0
  0
POINT
  5
1197
330
117A
100
AcDbEntity
  8
DEFPOINTS
 62
     0
100
AcDbPoint
 10
156.0649625650313
 20
-276.4862927371066
 30
0.0
  0
ENDBLK
  5
1185
330
117A
100
AcDbEntity
  8
0
 62
     1
100
AcDbBlockEnd
  0
BLOCK
  5
11CB
330
11C1
100
AcDbEntity
  8
0
 62
     1
100
AcDbBlockBegin
  2
*D19
 70
     1
 10
0.0
 20
0.0
 30
0.0
  3
*D19
  1

  0
LINE
  5
1279
330
11C1
100
AcDbEntity
  8
画層1
 62
     0
370
    -2
100
AcDbLine
 10
609.9149625650317
 20
-1.856292737106907
 30
0.0
 11
609.9149625650317
 21
5.763707262893092
 31
0.0
  0
LINE
  5
127A
330
11C1
100
AcDbEntity
  8
画層1
 62
     0
370
    -2
100
AcDbLine
 10
364.9149625650315
 20
-44.85629273710689
 30
0.0
 11
364.9149625650315
 21
5.763707262893092
 31
0.0
  0
LINE
  5
127B
330
11C1
100
AcDbEntity
  8
画層1
 62
     0
370
    -2
100
AcDbLine
 10
608.4149625650317
 20
4.513707262893092
 30
0.0
 11
366.4149625650313
 21
4.513707262893092
 31
0.0
  0
INSERT
  5
127C
330
11C1
100
AcDbEntity
  8
画層1
 62
     0
370
    -2
100
AcDbBlockReference
  2
_OPEN30
 10
609.9149625650317
 20
4.513707262893092
 30
0.0
 41
1.5
 42
1.5
 43
1.5
  0
INSERT
  5
127D
330
11C1
100
AcDbEntity
  8
画層1
 62
     0
370
    -2
100
AcDbBlockReference
  2
_OPEN30
 10
364.9149625650315
 20
4.513707262893092
 30
0.0
 41
1.5
 42
1.5
 43
1.5
 50
180.0
  0
MTEXT
  5
127E
330
11C1
100
AcDbEntity
  8
画層1
 62
     0
100
AcDbMText
 10
487.4149625650314
 20
6.603098125837253
 30
0.0
 40
2.5
 41
0.0
 71
     5
 72
     1
  1
\A1;(245)
  7
STYLE1
 73
     1
 44
1.0
  0
POINT
  5
127F
330
11C1
100
AcDbEntity
  8
DEFPOINTS
 62
     0
100
AcDbPoint
 10
609.9149625650317
 20
-2.486292737106906
 30
0.0
  0
POINT
  5
1280
330
11C1
100
AcDbEntity
  8
DEFPOINTS
 62
     0
100
AcDbPoint
 10
364.9149625650315
 20
-45.48629273710689
 30
0.0
  0
POINT
  5
1281
330
11C1
100
AcDbEntity
  8
DEFPOINTS
 62
     0
100
AcDbPoint
 10
364.9149625650315
 20
4.513707262893092
 30
0.0
  0
ENDBLK
  5
11CC
330
11C1
100
AcDbEntity
  8
0
 62
     1
100
AcDbBlockEnd
  0
BLOCK
  5
11D8
330
11CE
100
AcDbEntity
  8
0
 62
     1
100
AcDbBlockBegin
  2
*D20
 70
     1
 10
0.0
 20
0.0
 30
0.0
  3
*D20
  1

  0
LINE
  5
11E3
330
11CE
100
AcDbEntity
  8
画層1
 62
     0
370
    -2
100
AcDbLine
 10
364.9149625650315
 20
-44.85629273710689
 30
0.0
 11
364.9149625650315
 21
5.763707262893092
 31
0.0
  0
LINE
  5
11E4
330
11CE
100
AcDbEntity
  8
画層1
 62
     0
370
    -2
100
AcDbLine
 10
352.4149625650315
 20
-42.85629273710689
 30
0.0
 11
352.4149625650315
 21
5.763707262893092
 31
0.0
  0
LINE
  5
11E5
330
11CE
100
AcDbEntity
  8
画層1
 62
     0
370
    -2
100
AcDbLine
 10
363.4149625650313
 20
4.513707262893092
 30
0.0
 11
353.9149625650313
 21
4.513707262893092
 31
0.0
  0
INSERT
  5
11E6
330
11CE
100
AcDbEntity
  8
画層1
 62
     0
370
    -2
100
AcDbBlockReference
  2
_OPEN30
 10
364.9149625650315
 20
4.513707262893092
 30
0.0
 41
1.5
 42
1.5
 43
1.5
  0
INSERT
  5
11E7
330
11CE
100
AcDbEntity
  8
画層1
 62
     0
370
    -2
100
AcDbBlockReference
  2
_OPEN30
 10
352.4149625650315
 20
4.513707262893092
 30
0.0
 41
1.5
 42
1.5
 43
1.5
 50
180.0
  0
MTEXT
  5
11E8
330
11CE
100
AcDbEntity
  8
画層1
 62
     0
100
AcDbMText
 10
358.6649625650315
 20
6.393707262893092
 30
0.0
 40
2.5
 41
0.0
 71
     5
 72
     1
  1
\A1;12.5
  7
STYLE1
 73
     1
 44
1.0
  0
POINT
  5
11E9
330
11CE
100
AcDbEntity
  8
DEFPOINTS
 62
     0
100
AcDbPoint
 10
364.9149625650315
 20
-45.48629273710689
 30
0.0
  0
POINT
  5
11EA
330
11CE
100
AcDbEntity
  8
DEFPOINTS
 62
     0
100
AcDbPoint
 10
352.4149625650315
 20
-43.48629273710691
 30
0.0
  0
POINT
  5
11EB
330
11CE
100
AcDbEntity
  8
DEFPOINTS
 62
     0
100
AcDbPoint
 10
352.4149625650315
 20
4.513707262893092
 30
0.0
  0
ENDBLK
  5
11D9
330
11CE
100
AcDbEntity
  8
0
 62
     1
100
AcDbBlockEnd
  0
BLOCK
  5
1200
330
11F6
100
AcDbEntity
  8
0
 62
     1
100
AcDbBlockBegin
  2
*D21
 70
     1
 10
0.0
 20
0.0
 30
0.0
  3
*D21
  1

  0
LINE
  5
121A
330
11F6
100
AcDbEntity
  8
画層1
 62
     0
370
    -2
100
AcDbLine
 10
609.9149625650317
 20
-1.856292737106907
 30
0.0
 11
609.9149625650317
 21
12.76370726289309
 31
0.0
  0
LINE
  5
121B
330
11F6
100
AcDbEntity
  8
画層1
 62
     0
370
    -2
100
AcDbLine
 10
335.9149625650315
 20
-5.256292737107054
 30
0.0
 11
335.9149625650315
 21
12.76370726289309
 31
0.0
  0
LINE
  5
121C
330
11F6
100
AcDbEntity
  8
画層1
 62
     0
370
    -2
100
AcDbLine
 10
608.4149625650317
 20
11.51370726289309
 30
0.0
 11
337.4149625650313
 21
11.51370726289309
 31
0.0
  0
INSERT
  5
121D
330
11F6
100
AcDbEntity
  8
画層1
 62
     0
370
    -2
100
AcDbBlockReference
  2
_OPEN30
 10
609.9149625650317
 20
11.51370726289309
 30
0.0
 41
1.5
 42
1.5
 43
1.5
  0
INSERT
  5
121E
330
11F6
100
AcDbEntity
  8
画層1
 62
     0
370
    -2
100
AcDbBlockReference
  2
_OPEN30
 10
335.9149625650315
 20
11.51370726289309
 30
0.0
 41
1.5
 42
1.5
 43
1.5
 50
180.0
  0
MTEXT
  5
121F
330
11F6
100
AcDbEntity
  8
画層1
 62
     0
100
AcDbMText
 10
472.9149625650315
 20
13.39370726289309
 30
0.0
 40
2.5
 41
0.0
 71
     5
 72
     1
  1
\A1;274
  7
STYLE1
 73
     1
 44
1.0
  0
POINT
  5
1220
330
11F6
100
AcDbEntity
  8
DEFPOINTS
 62
     0
100
AcDbPoint
 10
609.9149625650317
 20
-2.486292737106906
 30
0.0
  0
POINT
  5
1221
330
11F6
100
AcDbEntity
  8
DEFPOINTS
 62
     0
100
AcDbPoint
 10
335.9149625650315
 20
-5.886292737107055
 30
0.0
  0
POINT
  5
1222
330
11F6
100
AcDbEntity
  8
DEFPOINTS
 62
     0
100
AcDbPoint
 10
335.9149625650315
 20
11.51370726289309
 30
0.0
  0
ENDBLK
  5
1201
330
11F6
100
AcDbEntity
  8
0
 62
     1
100
AcDbBlockEnd
  0
BLOCK
  5
1230
330
1224
100
AcDbEntity
  8
0
 62
     1
100
AcDbBlockBegin
  2
*D22
 70
     1
 10
0.0
 20
0.0
 30
0.0
  3
*D22
  1

  0
LINE
  5
1225
330
1224
100
AcDbEntity
  8
画層1
 62
     0
370
    -2
100
AcDbLine
 10
444.9149625650316
 20
-303.1162927371068
 30
0.0
 11
444.9149625650316
 21
-340.7362927371067
 31
0.0
  0
LINE
  5
1226
330
1224
100
AcDbEntity
  8
画層1
 62
     0
370
    -2
100
AcDbLine
 10
448.9149625650316
 20
-303.1162927371068
 30
0.0
 11
448.9149625650316
 21
-340.7362927371067
 31
0.0
  0
LINE
  5
1227
330
1224
100
AcDbEntity
  8
画層1
 62
     0
370
    -2
100
AcDbLine
 10
443.4149625650317
 20
-339.4862927371068
 30
0.0
 11
441.9149625650316
 21
-339.4862927371068
 31
0.0
  0
LINE
  5
1228
330
1224
100
AcDbEntity
  8
画層1
 62
     0
370
    -2
100
AcDbLine
 10
450.4149625650316
 20
-339.4862927371068
 30
0.0
 11
451.9149625650316
 21
-339.4862927371068
 31
0.0
  0
LINE
  5
1229
330
1224
100
AcDbEntity
  8
画層1
 62
     0
370
    -2
100
AcDbLine
 10
444.9149625650316
 20
-339.4862927371068
 30
0.0
 11
448.9149625650316
 21
-339.4862927371068
 31
0.0
  0
INSERT
  5
122A
330
1224
100
AcDbEntity
  8
画層1
 62
     0
370
    -2
100
AcDbBlockReference
  2
_OPEN30
 10
444.9149625650316
 20
-339.4862927371068
 30
0.0
 41
1.5
 42
1.5
 43
1.5
  0
INSERT
  5
122B
330
1224
100
AcDbEntity
  8
画層1
 62
     0
370
    -2
100
AcDbBlockReference
  2
_OPEN30
 10
448.9149625650316
 20
-339.4862927371068
 30
0.0
 41
1.5
 42
1.5
 43
1.5
 50
180.0
  0
MTEXT
  5
122C
330
1224
100
AcDbEntity
  8
画層1
 62
     0
100
AcDbMText
 10
446.9149625650316
 20
-337.6062927371068
 30
0.0
 40
2.5
 41
0.0
 71
     5
 72
     1
  1
\A1;4
  7
STYLE1
 73
     1
 44
1.0
  0
POINT
  5
122D
330
1224
100
AcDbEntity
  8
DEFPOINTS
 62
     0
100
AcDbPoint
 10
444.9149625650316
 20
-302.4862927371068
 30
0.0
  0
POINT
  5
122E
330
1224
100
AcDbEntity
  8
DEFPOINTS
 62
     0
100
AcDbPoint
 10
448.9149625650316
 20
-302.4862927371068
 30
0.0
  0
POINT
  5
122F
330
1224
100
AcDbEntity
  8
DEFPOINTS
 62
     0
100
AcDbPoint
 10
448.9149625650316
 20
-339.4862927371068
 30
0.0
  0
ENDBLK
  5
1231
330
1224
100
AcDbEntity
  8
0
 62
     1
100
AcDbBlockEnd
  0
BLOCK
  5
123D
330
1233
100
AcDbEntity
  8
0
 62
     1
100
AcDbBlockBegin
  2
*D23
 70
     1
 10
0.0
 20
0.0
 30
0.0
  3
*D23
  1

  0
LINE
  5
1234
330
1233
100
AcDbEntity
  8
画層1
 62
     0
370
    -2
100
AcDbLine
 10
444.9149625650316
 20
-303.1162927371068
 30
0.0
 11
444.9149625650316
 21
-347.7362927371068
 31
0.0
  0
LINE
  5
1235
330
1233
100
AcDbEntity
  8
画層1
 62
     0
370
    -2
100
AcDbLine
 10
609.9149625650317
 20
-303.1162927371068
 30
0.0
 11
609.9149625650317
 21
-347.7362927371068
 31
0.0
  0
LINE
  5
1236
330
1233
100
AcDbEntity
  8
画層1
 62
     0
370
    -2
100
AcDbLine
 10
446.4149625650316
 20
-346.4862927371068
 30
0.0
 11
608.4149625650317
 21
-346.4862927371068
 31
0.0
  0
INSERT
  5
1237
330
1233
100
AcDbEntity
  8
画層1
 62
     0
370
    -2
100
AcDbBlockReference
  2
_OPEN30
 10
444.9149625650316
 20
-346.4862927371068
 30
0.0
 41
1.5
 42
1.5
 43
1.5
 50
180.0
  0
INSERT
  5
1238
330
1233
100
AcDbEntity
  8
画層1
 62
     0
370
    -2
100
AcDbBlockReference
  2
_OPEN30
 10
609.9149625650317
 20
-346.4862927371068
 30
0.0
 41
1.5
 42
1.5
 43
1.5
  0
MTEXT
  5
1239
330
1233
100
AcDbEntity
  8
画層1
 62
     0
100
AcDbMText
 10
527.4149625650315
 20
-344.6062927371067
 30
0.0
 40
2.5
 41
0.0
 71
     5
 72
     1
  1
\A1;165
  7
STYLE1
 73
     1
 44
1.0
  0
POINT
  5
123A
330
1233
100
AcDbEntity
  8
DEFPOINTS
 62
     0
100
AcDbPoint
 10
444.9149625650316
 20
-302.4862927371068
 30
0.0
  0
POINT
  5
123B
330
1233
100
AcDbEntity
  8
DEFPOINTS
 62
     0
100
AcDbPoint
 10
609.9149625650317
 20
-302.4862927371068
 30
0.0
  0
POINT
  5
123C
330
1233
100
AcDbEntity
  8
DEFPOINTS
 62
     0
100
AcDbPoint
 10
609.9149625650317
 20
-346.4862927371068
 30
0.0
  0
ENDBLK
  5
123E
330
1233
100
AcDbEntity
  8
0
 62
     1
100
AcDbBlockEnd
  0
BLOCK
  5
124A
330
1240
100
AcDbEntity
  8
0
 62
     1
100
AcDbBlockBegin
  2
*D24
 70
     1
 10
0.0
 20
0.0
 30
0.0
  3
*D24
  1

  0
LINE
  5
1267
330
1240
100
AcDbEntity
  8
画層1
 62
     0
370
    -2
100
AcDbLine
 10
609.9149625650317
 20
-303.7462927371068
 30
0.0
 11
609.9149625650317
 21
-354.7362927371068
 31
0.0
  0
LINE
  5
1268
330
1240
100
AcDbEntity
  8
画層1
 62
     0
370
    -2
100
AcDbLine
 10
439.9149625650316
 20
-261.1162927371068
 30
0.0
 11
439.9149625650316
 21
-354.7362927371068
 31
0.0
  0
LINE
  5
1269
330
1240
100
AcDbEntity
  8
画層1
 62
     0
370
    -2
100
AcDbLine
 10
608.4149625650317
 20
-353.4862927371066
 30
0.0
 11
441.4149625650316
 21
-353.4862927371066
 31
0.0
  0
INSERT
  5
126A
330
1240
100
AcDbEntity
  8
画層1
 62
     0
370
    -2
100
AcDbBlockReference
  2
_OPEN30
 10
609.9149625650317
 20
-353.4862927371066
 30
0.0
 41
1.5
 42
1.5
 43
1.5
  0
INSERT
  5
126B
330
1240
100
AcDbEntity
  8
画層1
 62
     0
370
    -2
100
AcDbBlockReference
  2
_OPEN30
 10
439.9149625650316
 20
-353.4862927371066
 30
0.0
 41
1.5
 42
1.5
 43
1.5
 50
180.0
  0
MTEXT
  5
126C
330
1240
100
AcDbEntity
  8
画層1
 62
     0
100
AcDbMText
 10
524.9149625650317
 20
-351.3969018741626
 30
0.0
 40
2.5
 41
0.0
 71
     5
 72
     1
  1
\A1;(170)
  7
STYLE1
 73
     1
 44
1.0
  0
POINT
  5
126D
330
1240
100
AcDbEntity
  8
DEFPOINTS
 62
     0
100
AcDbPoint
 10
609.9149625650317
 20
-303.1162927371068
 30
0.0
  0
POINT
  5
126E
330
1240
100
AcDbEntity
  8
DEFPOINTS
 62
     0
100
AcDbPoint
 10
439.9149625650316
 20
-260.4862927371068
 30
0.0
  0
POINT
  5
126F
330
1240
100
AcDbEntity
  8
DEFPOINTS
 62
     0
100
AcDbPoint
 10
439.9149625650316
 20
-353.4862927371066
 30
0.0
  0
ENDBLK
  5
124B
330
1240
100
AcDbEntity
  8
0
 62
     1
100
AcDbBlockEnd
  0
ENDSEC
  0
SECTION
  2
ENTITIES
  0
LINE
  5
8A5
330
2
100
AcDbEntity
  8
画層1
 62
     3
100
AcDbLine
 10
86.91496256503148
 20
-2.486292737106793
 30
0.0
 11
86.91496256503148
 21
-43.4862927371068
 31
0.0
  0
LINE
  5
8A6
330
2
100
AcDbEntity
  8
画層1
 62
     3
100
AcDbLine
 10
86.91496256503148
 20
-43.4862927371068
 30
0.0
 11
111.9149625650314
 21
-43.4862927371068
 31
0.0
  0
LINE
  5
8A7
330
2
100
AcDbEntity
  8
画層1
 62
     3
100
AcDbLine
 10
111.9149625650314
 20
-43.4862927371068
 30
0.0
 11
111.9149625650314
 21
-136.4862927371067
 31
0.0
  0
LINE
  5
8A8
330
2
100
AcDbEntity
  8
画層1
 62
     3
100
AcDbLine
 10
111.9149625650314
 20
-136.4862927371067
 30
0.0
 11
86.91496256503148
 21
-136.4862927371067
 31
0.0
  0
LINE
  5
8A9
330
2
100
AcDbEntity
  8
画層1
 62
     3
100
AcDbLine
 10
86.91496256503148
 20
-136.4862927371067
 30
0.0
 11
86.91496256503143
 21
-302.4862927371068
 31
0.0
  0
ARC
  5
8AA
330
2
100
AcDbEntity
  8
画層1
 62
     3
100
AcDbCircle
 10
209.9149625650313
 20
-295.9862927371068
 30
0.0
 40
5.0
100
AcDbArc
 50
90.0
 51
180.0
  0
ARC
  5
8AB
330
2
100
AcDbEntity
  8
画層1
 62
     3
100
AcDbCircle
 10
208.0149625650313
 20
-295.9862927371068
 30
0.0
 40
1.0
100
AcDbArc
 50
270.0
 51
0.0
  0
ARC
  5
8AC
330
2
100
AcDbEntity
  8
画層1
 62
     3
100
AcDbCircle
 10
208.0149625650313
 20
-298.9862927371067
 30
0.0
 40
1.0
100
AcDbArc
 50
0.0
 51
90.0
  0
CIRCLE
  5
8AD
330
2
100
AcDbEntity
  8
画層1
 62
     3
100
AcDbCircle
 10
209.5149625650313
 20
-297.4862927371066
 30
0.0
 40
3.799999999999998
  0
CIRCLE
  5
8AE
330
2
100
AcDbEntity
  8
画層1
 62
     3
100
AcDbCircle
 10
209.5149625650313
 20
-297.4862927371066
 30
0.0
 40
2.6
  0
LINE
  5
8AF
330
2
100
AcDbEntity
  8
画層1
 62
     3
100
AcDbLine
 10
204.9149625650314
 20
-295.9862927371068
 30
0.0
 11
204.9149625650314
 21
-302.4862927371068
 31
0.0
  0
LINE
  5
8B0
330
2
100
AcDbEntity
  8
画層1
 62
     3
100
AcDbLine
 10
207.7149625650313
 20
-296.9862927371067
 30
0.0
 11
208.0149625650313
 21
-296.9862927371067
 31
0.0
  0
LINE
  5
8B1
330
2
100
AcDbEntity
  8
画層1
 62
     3
100
AcDbLine
 10
207.7149625650313
 20
-297.9862927371068
 30
0.0
 11
207.7149625650313
 21
-296.9862927371067
 31
0.0
  0
LINE
  5
8B2
330
2
100
AcDbEntity
  8
画層1
 62
     3
100
AcDbLine
 10
208.0149625650313
 20
-297.9862927371068
 30
0.0
 11
207.7149625650313
 21
-297.9862927371068
 31
0.0
  0
LINE
  5
8B3
330
2
100
AcDbEntity
  8
画層1
 62
     3
100
AcDbLine
 10
210.0149625650313
 20
-295.6862927371068
 30
0.0
 11
210.0149625650313
 21
-295.9862927371068
 31
0.0
  0
ARC
  5
8B4
330
2
100
AcDbEntity
  8
画層1
 62
     3
100
AcDbCircle
 10
211.0149625650314
 20
-295.9862927371068
 30
0.0
 40
1.0
100
AcDbArc
 50
180.0
 51
270.0
  0
LINE
  5
8B5
330
2
100
AcDbEntity
  8
画層1
 62
     3
100
AcDbLine
 10
211.0149625650314
 20
-296.9862927371067
 30
0.0
 11
211.3149625650314
 21
-296.9862927371067
 31
0.0
  0
LINE
  5
8B6
330
2
100
AcDbEntity
  8
画層1
 62
     3
100
AcDbLine
 10
211.3149625650314
 20
-297.9862927371068
 30
0.0
 11
211.3149625650314
 21
-296.9862927371067
 31
0.0
  0
LINE
  5
8B7
330
2
100
AcDbEntity
  8
画層1
 62
     3
100
AcDbLine
 10
211.3149625650314
 20
-297.9862927371068
 30
0.0
 11
211.0149625650314
 21
-297.9862927371068
 31
0.0
  0
LINE
  5
8B8
330
2
100
AcDbEntity
  8
画層1
 62
     3
100
AcDbLine
 10
210.0149625650313
 20
-298.9862927371067
 30
0.0
 11
210.0149625650313
 21
-299.2862927371067
 31
0.0
  0
ARC
  5
8B9
330
2
100
AcDbEntity
  8
画層1
 62
     3
100
AcDbCircle
 10
211.0149625650314
 20
-298.9862927371067
 30
0.0
 40
1.0
100
AcDbArc
 50
90.0
 51
180.0
  0
LINE
  5
8BA
330
2
100
AcDbEntity
  8
画層1
 62
     3
100
AcDbLine
 10
209.0149625650314
 20
-295.9862927371068
 30
0.0
 11
209.0149625650314
 21
-295.6862927371068
 31
0.0
  0
LINE
  5
8BB
330
2
100
AcDbEntity
  8
画層1
 62
     3
100
AcDbLine
 10
209.0149625650314
 20
-299.2862927371067
 30
0.0
 11
209.0149625650314
 21
-298.9862927371067
 31
0.0
  0
LINE
  5
8BC
330
2
100
AcDbEntity
  8
画層1
 62
     3
100
AcDbLine
 10
209.0149625650314
 20
-299.2862927371067
 30
0.0
 11
210.0149625650313
 21
-299.2862927371067
 31
0.0
  0
LINE
  5
8BD
330
2
100
AcDbEntity
  8
画層1
 62
     3
100
AcDbLine
 10
209.0149625650314
 20
-295.6862927371068
 30
0.0
 11
210.0149625650313
 21
-295.6862927371068
 31
0.0
  0
LINE
  5
8BE
330
2
100
AcDbEntity
  8
画層1
 62
     3
100
AcDbLine
 10
214.9149625650315
 20
-290.9862927371067
 30
0.0
 11
209.9149625650313
 21
-290.9862927371067
 31
0.0
  0
LINE
  5
8BF
330
2
100
AcDbEntity
  8
画層1
 62
     3
100
AcDbLine
 10
214.5149625650314
 20
-302.4862927371068
 30
0.0
 11
86.91496256503143
 21
-302.4862927371068
 31
0.0
  0
LINE
  5
8C1
330
2
100
AcDbEntity
  8
画層1
 62
     3
100
AcDbLine
 10
211.7149625650313
 20
-301.9862927371068
 30
0.0
 11
204.9149625650314
 21
-301.9862927371068
 31
0.0
  0
LINE
  5
8C2
330
2
100
AcDbEntity
  8
画層1
 62
     3
100
AcDbLine
 10
213.7149625650313
 20
-299.9862927371068
 30
0.0
 11
213.7149625650313
 21
-290.9862927371067
 31
0.0
  0
ARC
  5
8C4
330
2
100
AcDbEntity
  8
画層1
 62
     3
100
AcDbCircle
 10
211.7149625650315
 20
-299.9862927371068
 30
0.0
 40
2.0
100
AcDbArc
 50
269.9999999999982
 51
0.0000000000032569
  0
LINE
  5
8CC
330
2
100
AcDbEntity
  8
画層1
 62
     3
100
AcDbLine
 10
214.5149625650314
 20
-2.486292737106906
 30
0.0
 11
86.91496256503143
 21
-2.486292737106906
 31
0.0
  0
ARC
  5
8CD
330
2
100
AcDbEntity
  8
画層1
 62
     3
100
AcDbCircle
 10
211.7149625650315
 20
-4.986292737106793
 30
0.0
 40
2.0
100
AcDbArc
 50
359.9999999999967
 51
90.00000000000161
  0
LINE
  5
8CE
330
2
100
AcDbEntity
  8
画層1
 62
     3
100
AcDbLine
 10
214.9149625650315
 20
-12.9862927371069
 30
0.0
 11
209.9149625650313
 21
-12.9862927371069
 31
0.0
  0
LINE
  5
8CF
330
2
100
AcDbEntity
  8
画層1
 62
     3
100
AcDbLine
 10
213.7149625650313
 20
-4.986292737106907
 30
0.0
 11
213.7149625650313
 21
-12.9862927371069
 31
0.0
  0
CIRCLE
  5
8D0
330
2
100
AcDbEntity
  8
画層1
 62
     3
100
AcDbCircle
 10
209.5149625650313
 20
-7.486292737106907
 30
0.0
 40
3.799999999999998
  0
ARC
  5
8D1
330
2
100
AcDbEntity
  8
画層1
 62
     3
100
AcDbCircle
 10
209.9149625650313
 20
-7.986292737106907
 30
0.0
 40
5.0
100
AcDbArc
 50
180.0
 51
270.0
  0
LINE
  5
8D2
330
2
100
AcDbEntity
  8
画層1
 62
     3
100
AcDbLine
 10
211.7149625650313
 20
-2.986292737106906
 30
0.0
 11
204.9149625650314
 21
-2.986292737106906
 31
0.0
  0
CIRCLE
  5
8D3
330
2
100
AcDbEntity
  8
画層1
 62
     3
100
AcDbCircle
 10
209.5149625650313
 20
-7.486292737106907
 30
0.0
 40
2.6
  0
ARC
  5
8D4
330
2
100
AcDbEntity
  8
画層1
 62
     3
100
AcDbCircle
 10
208.0149625650313
 20
-5.986292737106907
 30
0.0
 40
1.0
100
AcDbArc
 50
270.0
 51
0.0
  0
ARC
  5
8D5
330
2
100
AcDbEntity
  8
画層1
 62
     3
100
AcDbCircle
 10
208.0149625650313
 20
-8.986292737106907
 30
0.0
 40
1.0
100
AcDbArc
 50
0.0
 51
90.00000000000005
  0
LINE
  5
8D6
330
2
100
AcDbEntity
  8
画層1
 62
     3
100
AcDbLine
 10
208.0149625650313
 20
-6.986292737106907
 30
0.0
 11
207.7149625650313
 21
-6.986292737106907
 31
0.0
  0
LINE
  5
8D7
330
2
100
AcDbEntity
  8
画層1
 62
     3
100
AcDbLine
 10
207.7149625650313
 20
-6.986292737106907
 30
0.0
 11
207.7149625650313
 21
-7.986292737106907
 31
0.0
  0
LINE
  5
8D8
330
2
100
AcDbEntity
  8
画層1
 62
     3
100
AcDbLine
 10
207.7149625650313
 20
-7.986292737106907
 30
0.0
 11
208.0149625650313
 21
-7.986292737106907
 31
0.0
  0
LINE
  5
8D9
330
2
100
AcDbEntity
  8
画層1
 62
     3
100
AcDbLine
 10
204.9149625650314
 20
-7.986292737106907
 30
0.0
 11
204.9149625650314
 21
-2.486292737106906
 31
0.0
  0
LINE
  5
8DA
330
2
100
AcDbEntity
  8
画層1
 62
     3
100
AcDbLine
 10
209.0149625650314
 20
-9.286292737106805
 30
0.0
 11
210.0149625650313
 21
-9.286292737106805
 31
0.0
  0
LINE
  5
8DB
330
2
100
AcDbEntity
  8
画層1
 62
     3
100
AcDbLine
 10
209.0149625650314
 20
-5.686292737106839
 30
0.0
 11
210.0149625650313
 21
-5.686292737106839
 31
0.0
  0
LINE
  5
8DC
330
2
100
AcDbEntity
  8
画層1
 62
     3
100
AcDbLine
 10
209.0149625650314
 20
-5.686292737106839
 30
0.0
 11
209.0149625650314
 21
-5.986292737106907
 31
0.0
  0
LINE
  5
8DD
330
2
100
AcDbEntity
  8
画層1
 62
     3
100
AcDbLine
 10
209.0149625650314
 20
-8.986292737106907
 30
0.0
 11
209.0149625650314
 21
-9.286292737106805
 31
0.0
  0
ARC
  5
8DE
330
2
100
AcDbEntity
  8
画層1
 62
     3
100
AcDbCircle
 10
211.0149625650314
 20
-5.986292737106907
 30
0.0
 40
1.0
100
AcDbArc
 50
180.0
 51
270.0
  0
LINE
  5
8DF
330
2
100
AcDbEntity
  8
画層1
 62
     3
100
AcDbLine
 10
210.0149625650313
 20
-5.986292737106907
 30
0.0
 11
210.0149625650313
 21
-5.686292737106839
 31
0.0
  0
LINE
  5
8E0
330
2
100
AcDbEntity
  8
画層1
 62
     3
100
AcDbLine
 10
211.3149625650314
 20
-6.986292737106907
 30
0.0
 11
211.0149625650314
 21
-6.986292737106907
 31
0.0
  0
LINE
  5
8E1
330
2
100
AcDbEntity
  8
画層1
 62
     3
100
AcDbLine
 10
211.3149625650314
 20
-6.986292737106907
 30
0.0
 11
211.3149625650314
 21
-7.986292737106907
 31
0.0
  0
LINE
  5
8E2
330
2
100
AcDbEntity
  8
画層1
 62
     3
100
AcDbLine
 10
211.0149625650314
 20
-7.986292737106907
 30
0.0
 11
211.3149625650314
 21
-7.986292737106907
 31
0.0
  0
ARC
  5
8E3
330
2
100
AcDbEntity
  8
画層1
 62
     3
100
AcDbCircle
 10
211.0149625650314
 20
-8.986292737106907
 30
0.0
 40
1.0
100
AcDbArc
 50
90.00000000000005
 51
180.0
  0
LINE
  5
8E4
330
2
100
AcDbEntity
  8
画層1
 62
     3
100
AcDbLine
 10
210.0149625650313
 20
-9.286292737106805
 30
0.0
 11
210.0149625650313
 21
-8.986292737106907
 31
0.0
  0
LINE
  5
8E7
330
2
100
AcDbEntity
  8
画層1
 62
     3
100
AcDbLine
 10
95.41496256503142
 20
-13.48629273710668
 30
0.0
 11
162.4149625650314
 21
-13.48629273710668
 31
0.0
  0
ARC
  5
8E8
330
2
100
AcDbEntity
  8
画層1
 62
     3
100
AcDbCircle
 10
95.41496256503142
 20
-16.98629273710668
 30
0.0
 40
3.5
100
AcDbArc
 50
90.0
 51
180.0
  0
LINE
  5
8E9
330
2
100
AcDbEntity
  8
画層1
 62
     3
100
AcDbLine
 10
91.91496256503148
 20
-42.48629273710668
 30
0.0
 11
91.91496256503148
 21
-16.98629273710668
 31
0.0
  0
LINE
  5
8EA
330
2
100
AcDbEntity
  8
画層1
 62
     3
100
AcDbLine
 10
112.9149625650314
 20
-42.48629273710668
 30
0.0
 11
91.91496256503148
 21
-42.48629273710668
 31
0.0
  0
LINE
  5
8EB
330
2
100
AcDbEntity
  8
画層1
 62
     3
100
AcDbLine
 10
112.9149625650314
 20
-137.4862927371065
 30
0.0
 11
112.9149625650314
 21
-42.48629273710668
 31
0.0
  0
LINE
  5
8EC
330
2
100
AcDbEntity
  8
画層1
 62
     3
100
AcDbLine
 10
91.91496256503148
 20
-237.9862927371065
 30
0.0
 11
91.91496256503148
 21
-137.4862927371065
 31
0.0
  0
LINE
  5
8ED
330
2
100
AcDbEntity
  8
画層1
 62
     3
100
AcDbLine
 10
91.91496256503148
 20
-137.4862927371065
 30
0.0
 11
112.9149625650314
 21
-137.4862927371065
 31
0.0
  0
LINE
  5
8EE
330
2
100
AcDbEntity
  8
画層1
 62
     3
100
AcDbLine
 10
162.9149625650313
 20
-29.98629273710668
 30
0.0
 11
162.9149625650313
 21
-234.9862927371066
 31
0.0
  0
LINE
  5
8EF
330
2
100
AcDbEntity
  8
画層1
 62
     3
100
AcDbLine
 10
165.9149625650313
 20
-16.98629273710668
 30
0.0
 11
165.9149625650313
 21
-237.9862927371065
 31
0.0
  0
LINE
  5
8F0
330
2
100
AcDbEntity
  8
画層1
 62
     3
100
AcDbLine
 10
128.4149625650313
 20
-27.48629273710668
 30
0.0
 11
160.4149625650314
 21
-27.48629273710668
 31
0.0
  0
ARC
  5
8F1
330
2
100
AcDbEntity
  8
画層1
 62
     3
100
AcDbCircle
 10
162.4149625650314
 20
-16.98629273710668
 30
0.0
 40
3.5
100
AcDbArc
 50
0.0
 51
90.0
  0
ARC
  5
8F2
330
2
100
AcDbEntity
  8
画層1
 62
     3
100
AcDbCircle
 10
160.4149625650314
 20
-29.98629273710668
 30
0.0
 40
2.5
100
AcDbArc
 50
0.0
 51
90.0
  0
CIRCLE
  5
8F3
330
2
100
AcDbEntity
  8
画層1
 62
     3
100
AcDbCircle
 10
133.4149625650314
 20
-77.48629273710668
 30
0.0
 40
1.75
  0
CIRCLE
  5
8F4
330
2
100
AcDbEntity
  8
画層1
 62
     3
100
AcDbCircle
 10
133.3049625650314
 20
-57.48629273710667
 30
0.0
 40
1.75
  0
CIRCLE
  5
8F5
330
2
100
AcDbEntity
  8
画層1
 62
     3
100
AcDbCircle
 10
133.4149625650314
 20
-67.48629273710668
 30
0.0
 40
1.75
  0
CIRCLE
  5
8F6
330
2
100
AcDbEntity
  8
画層1
 62
     3
100
AcDbCircle
 10
133.4149625650314
 20
-47.48629273710679
 30
0.0
 40
1.75
  0
CIRCLE
  5
8F7
330
2
100
AcDbEntity
  8
画層1
 62
     3
100
AcDbCircle
 10
153.4149625650313
 20
-92.48629273710667
 30
0.0
 40
2.5
  0
CIRCLE
  5
8F8
330
2
100
AcDbEntity
  8
画層1
 62
     3
100
AcDbCircle
 10
153.4149625650313
 20
-77.48629273710668
 30
0.0
 40
2.5
  0
CIRCLE
  5
8F9
330
2
100
AcDbEntity
  8
画層1
 62
     3
100
AcDbCircle
 10
153.4149625650313
 20
-62.48629273710667
 30
0.0
 40
2.5
  0
CIRCLE
  5
8FA
330
2
100
AcDbEntity
  8
画層1
 62
     3
100
AcDbCircle
 10
153.4149625650313
 20
-47.48629273710679
 30
0.0
 40
2.5
  0
ARC
  5
8FB
330
2
100
AcDbEntity
  8
画層1
 62
     3
100
AcDbCircle
 10
128.4149625650313
 20
-29.98629273710668
 30
0.0
 40
2.5
100
AcDbArc
 50
90.0
 51
180.0
  0
LINE
  5
8FC
330
2
100
AcDbEntity
  8
画層1
 62
     3
100
AcDbLine
 10
160.4149625650314
 20
-237.4862927371065
 30
0.0
 11
128.4149625650313
 21
-237.4862927371065
 31
0.0
  0
ARC
  5
8FD
330
2
100
AcDbEntity
  8
画層1
 62
     3
100
AcDbCircle
 10
128.4149625650313
 20
-234.9862927371066
 30
0.0
 40
2.5
100
AcDbArc
 50
180.0
 51
270.0
  0
ARC
  5
8FE
330
2
100
AcDbEntity
  8
画層1
 62
     3
100
AcDbCircle
 10
162.4149625650314
 20
-237.9862927371065
 30
0.0
 40
3.5
100
AcDbArc
 50
270.0
 51
0.0
  0
ARC
  5
8FF
330
2
100
AcDbEntity
  8
画層1
 62
     3
100
AcDbCircle
 10
160.4149625650314
 20
-234.9862927371066
 30
0.0
 40
2.5
100
AcDbArc
 50
270.0
 51
0.0
  0
LINE
  5
900
330
2
100
AcDbEntity
  8
画層1
 62
     3
100
AcDbLine
 10
125.9149625650314
 20
-234.9862927371066
 30
0.0
 11
125.9149625650314
 21
-29.98629273710668
 31
0.0
  0
LINE
  5
901
330
2
100
AcDbEntity
  8
画層1
 62
     3
100
AcDbLine
 10
162.4149625650314
 20
-241.4862927371066
 30
0.0
 11
95.41496256503142
 21
-241.4862927371066
 31
0.0
  0
ARC
  5
902
330
2
100
AcDbEntity
  8
画層1
 62
     3
100
AcDbCircle
 10
95.41496256503142
 20
-237.9862927371065
 30
0.0
 40
3.5
100
AcDbArc
 50
180.0
 51
270.0
  0
LINE
  5
903
330
2
100
AcDbEntity
  8
画層1
 62
     3
100
AcDbLine
 10
111.4149625650314
 20
-92.98629273710668
 30
0.0
 11
111.4149625650314
 21
-99.98629273710669
 31
0.0
  0
LINE
  5
904
330
2
100
AcDbEntity
  8
画層1
 62
     3
100
AcDbLine
 10
104.4149625650314
 20
-99.98629273710669
 30
0.0
 11
104.4149625650314
 21
-92.98629273710668
 31
0.0
  0
CIRCLE
  5
905
330
2
100
AcDbEntity
  8
画層1
 62
     3
100
AcDbCircle
 10
98.51496256503141
 20
-102.2862927371068
 30
0.0
 40
3.0
  0
LINE
  5
906
330
2
100
AcDbEntity
  8
画層1
 62
     3
100
AcDbLine
 10
95.01496256503138
 20
-105.7862927371066
 30
0.0
 11
95.01496256503138
 21
-98.78629273710672
 31
0.0
  0
LINE
  5
907
330
2
100
AcDbEntity
  8
画層1
 62
     3
100
AcDbLine
 10
102.0149625650314
 20
-98.78629273710672
 30
0.0
 11
102.0149625650314
 21
-105.7862927371066
 31
0.0
  0
LINE
  5
908
330
2
100
AcDbEntity
  8
画層1
 62
     3
100
AcDbLine
 10
93.11496256503149
 20
-106.2862927371068
 30
0.0
 11
102.5149625650314
 21
-106.2862927371068
 31
0.0
  0
LINE
  5
909
330
2
100
AcDbEntity
  8
画層1
 62
     3
100
AcDbLine
 10
93.11496256503149
 20
-107.6862927371065
 30
0.0
 11
102.5149625650314
 21
-107.6862927371065
 31
0.0
  0
LINE
  5
90A
330
2
100
AcDbEntity
  8
画層1
 62
     3
100
AcDbLine
 10
93.11496256503149
 20
-115.6862927371065
 30
0.0
 11
102.5149625650314
 21
-115.6862927371065
 31
0.0
  0
LINE
  5
90B
330
2
100
AcDbEntity
  8
画層1
 62
     3
100
AcDbLine
 10
93.11496256503149
 20
-117.0862927371067
 30
0.0
 11
102.5149625650314
 21
-117.0862927371067
 31
0.0
  0
LINE
  5
90C
330
2
100
AcDbEntity
  8
画層1
 62
     3
100
AcDbLine
 10
93.11496256503149
 20
-125.0862927371066
 30
0.0
 11
102.5149625650314
 21
-125.0862927371066
 31
0.0
  0
LINE
  5
90D
330
2
100
AcDbEntity
  8
画層1
 62
     3
100
AcDbLine
 10
93.11496256503149
 20
-126.4862927371067
 30
0.0
 11
102.5149625650314
 21
-126.4862927371067
 31
0.0
  0
LINE
  5
90E
330
2
100
AcDbEntity
  8
画層1
 62
     3
100
AcDbLine
 10
93.11496256503149
 20
-134.4862927371065
 30
0.0
 11
102.5149625650314
 21
-134.4862927371065
 31
0.0
  0
LINE
  5
90F
330
2
100
AcDbEntity
  8
画層1
 62
     3
100
AcDbLine
 10
102.0149625650314
 20
-126.9862927371065
 30
0.0
 11
102.0149625650314
 21
-133.9862927371066
 31
0.0
  0
CIRCLE
  5
910
330
2
100
AcDbEntity
  8
画層1
 62
     3
100
AcDbCircle
 10
98.51496256503141
 20
-130.4862927371065
 30
0.0
 40
3.0
  0
LINE
  5
911
330
2
100
AcDbEntity
  8
画層1
 62
     3
100
AcDbLine
 10
95.01496256503138
 20
-133.9862927371066
 30
0.0
 11
95.01496256503138
 21
-126.9862927371065
 31
0.0
  0
LINE
  5
912
330
2
100
AcDbEntity
  8
画層1
 62
     3
100
AcDbLine
 10
104.4149625650314
 20
-128.1862927371065
 30
0.0
 11
104.4149625650314
 21
-121.1862927371065
 31
0.0
  0
LINE
  5
913
330
2
100
AcDbEntity
  8
画層1
 62
     3
100
AcDbLine
 10
111.4149625650314
 20
-121.1862927371065
 30
0.0
 11
111.4149625650314
 21
-128.1862927371065
 31
0.0
  0
LINE
  5
914
330
2
100
AcDbEntity
  8
画層1
 62
     3
100
AcDbLine
 10
111.4149625650314
 20
-128.1862927371065
 30
0.0
 11
104.4149625650314
 21
-128.1862927371065
 31
0.0
  0
LINE
  5
915
330
2
100
AcDbEntity
  8
画層1
 62
     3
100
AcDbLine
 10
102.5149625650314
 20
-128.6862927371065
 30
0.0
 11
111.9149625650314
 21
-128.6862927371065
 31
0.0
  0
ARC
  5
916
330
2
100
AcDbEntity
  8
画層1
 62
     3
100
AcDbCircle
 10
100.0149625650314
 20
-128.9862927371066
 30
0.0
 40
1.0
100
AcDbArc
 50
180.0
 51
270.0
  0
ARC
  5
917
330
2
100
AcDbEntity
  8
画層1
 62
     3
100
AcDbCircle
 10
100.0149625650314
 20
-131.9862927371066
 30
0.0
 40
1.0
100
AcDbArc
 50
90.0
 51
180.0
  0
LINE
  5
918
330
2
100
AcDbEntity
  8
画層1
 62
     3
100
AcDbLine
 10
102.0149625650314
 20
-133.9862927371066
 30
0.0
 11
95.01496256503138
 21
-133.9862927371066
 31
0.0
  0
LINE
  5
919
330
2
100
AcDbEntity
  8
画層1
 62
     3
100
AcDbLine
 10
99.01496256503151
 20
-128.6862927371065
 30
0.0
 11
99.01496256503151
 21
-128.9862927371066
 31
0.0
  0
LINE
  5
91A
330
2
100
AcDbEntity
  8
画層1
 62
     3
100
AcDbLine
 10
98.01496256503149
 20
-128.9862927371066
 30
0.0
 11
98.01496256503149
 21
-128.6862927371065
 31
0.0
  0
LINE
  5
91B
330
2
100
AcDbEntity
  8
画層1
 62
     3
100
AcDbLine
 10
98.01496256503149
 20
-128.6862927371065
 30
0.0
 11
99.01496256503151
 21
-128.6862927371065
 31
0.0
  0
LINE
  5
91C
330
2
100
AcDbEntity
  8
画層1
 62
     3
100
AcDbLine
 10
95.55496256503149
 20
-129.9862927371066
 30
0.0
 11
97.01496256503141
 21
-129.9862927371066
 31
0.0
  0
ARC
  5
91D
330
2
100
AcDbEntity
  8
画層1
 62
     3
100
AcDbCircle
 10
97.01496256503141
 20
-128.9862927371066
 30
0.0
 40
1.0
100
AcDbArc
 50
270.0
 51
0.0
  0
LINE
  5
91E
330
2
100
AcDbEntity
  8
画層1
 62
     3
100
AcDbLine
 10
98.01496256503149
 20
-132.2862927371067
 30
0.0
 11
98.01496256503149
 21
-131.9862927371066
 31
0.0
  0
LINE
  5
91F
330
2
100
AcDbEntity
  8
画層1
 62
     3
100
AcDbLine
 10
99.01496256503151
 20
-131.9862927371066
 30
0.0
 11
99.01496256503151
 21
-132.2862927371067
 31
0.0
  0
LINE
  5
920
330
2
100
AcDbEntity
  8
画層1
 62
     3
100
AcDbLine
 10
98.01496256503149
 20
-132.2862927371067
 30
0.0
 11
99.01496256503151
 21
-132.2862927371067
 31
0.0
  0
LINE
  5
921
330
2
100
AcDbEntity
  8
画層1
 62
     3
100
AcDbLine
 10
97.01496256503141
 20
-130.9862927371066
 30
0.0
 11
95.55496256503149
 21
-130.9862927371066
 31
0.0
  0
ARC
  5
922
330
2
100
AcDbEntity
  8
画層1
 62
     3
100
AcDbCircle
 10
97.01496256503141
 20
-131.9862927371066
 30
0.0
 40
1.0
100
AcDbArc
 50
0.0
 51
90.0
  0
LINE
  5
923
330
2
100
AcDbEntity
  8
画層1
 62
     3
100
AcDbLine
 10
100.0149625650314
 20
-129.9862927371066
 30
0.0
 11
101.4649625650313
 21
-129.9862927371066
 31
0.0
  0
LINE
  5
924
330
2
100
AcDbEntity
  8
画層1
 62
     3
100
AcDbLine
 10
101.4649625650313
 20
-130.9862927371066
 30
0.0
 11
100.0149625650314
 21
-130.9862927371066
 31
0.0
  0
LINE
  5
925
330
2
100
AcDbEntity
  8
画層1
 62
     3
100
AcDbLine
 10
111.4149625650314
 20
-99.98629273710669
 30
0.0
 11
104.4149625650314
 21
-99.98629273710669
 31
0.0
  0
LINE
  5
926
330
2
100
AcDbEntity
  8
画層1
 62
     3
100
AcDbLine
 10
102.5149625650314
 20
-100.4862927371065
 30
0.0
 11
111.9149625650314
 21
-100.4862927371065
 31
0.0
  0
LINE
  5
927
330
2
100
AcDbEntity
  8
画層1
 62
     3
100
AcDbLine
 10
104.4149625650314
 20
-102.3862927371067
 30
0.0
 11
111.4149625650314
 21
-102.3862927371067
 31
0.0
  0
LINE
  5
928
330
2
100
AcDbEntity
  8
画層1
 62
     3
100
AcDbLine
 10
102.5149625650314
 20
-101.8862927371066
 30
0.0
 11
111.9149625650314
 21
-101.8862927371066
 31
0.0
  0
LINE
  5
929
330
2
100
AcDbEntity
  8
画層1
 62
     3
100
AcDbLine
 10
104.4149625650314
 20
-111.7862927371065
 30
0.0
 11
111.4149625650314
 21
-111.7862927371065
 31
0.0
  0
LINE
  5
92A
330
2
100
AcDbEntity
  8
画層1
 62
     3
100
AcDbLine
 10
102.5149625650314
 20
-111.2862927371065
 30
0.0
 11
111.9149625650314
 21
-111.2862927371065
 31
0.0
  0
LINE
  5
92B
330
2
100
AcDbEntity
  8
画層1
 62
     3
100
AcDbLine
 10
102.5149625650314
 20
-109.8862927371067
 30
0.0
 11
111.9149625650314
 21
-109.8862927371067
 31
0.0
  0
LINE
  5
92C
330
2
100
AcDbEntity
  8
画層1
 62
     3
100
AcDbLine
 10
111.4149625650314
 20
-109.3862927371066
 30
0.0
 11
104.4149625650314
 21
-109.3862927371066
 31
0.0
  0
LINE
  5
92D
330
2
100
AcDbEntity
  8
画層1
 62
     3
100
AcDbLine
 10
104.4149625650314
 20
-121.1862927371065
 30
0.0
 11
111.4149625650314
 21
-121.1862927371065
 31
0.0
  0
LINE
  5
92E
330
2
100
AcDbEntity
  8
画層1
 62
     3
100
AcDbLine
 10
102.5149625650314
 20
-120.6862927371065
 30
0.0
 11
111.9149625650314
 21
-120.6862927371065
 31
0.0
  0
LINE
  5
92F
330
2
100
AcDbEntity
  8
画層1
 62
     3
100
AcDbLine
 10
111.4149625650314
 20
-118.7862927371067
 30
0.0
 11
104.4149625650314
 21
-118.7862927371067
 31
0.0
  0
LINE
  5
930
330
2
100
AcDbEntity
  8
画層1
 62
     3
100
AcDbLine
 10
102.5149625650314
 20
-119.2862927371066
 30
0.0
 11
111.9149625650314
 21
-119.2862927371066
 31
0.0
  0
LINE
  5
931
330
2
100
AcDbEntity
  8
画層1
 62
     3
100
AcDbLine
 10
104.4149625650314
 20
-118.7862927371067
 30
0.0
 11
104.4149625650314
 21
-111.7862927371065
 31
0.0
  0
LINE
  5
932
330
2
100
AcDbEntity
  8
画層1
 62
     3
100
AcDbLine
 10
102.0149625650314
 20
-108.1862927371065
 30
0.0
 11
102.0149625650314
 21
-115.1862927371065
 31
0.0
  0
CIRCLE
  5
933
330
2
100
AcDbEntity
  8
画層1
 62
     3
100
AcDbCircle
 10
98.51496256503141
 20
-111.6862927371065
 30
0.0
 40
3.0
  0
LINE
  5
934
330
2
100
AcDbEntity
  8
画層1
 62
     3
100
AcDbLine
 10
95.01496256503138
 20
-115.1862927371065
 30
0.0
 11
95.01496256503138
 21
-108.1862927371065
 31
0.0
  0
ARC
  5
935
330
2
100
AcDbEntity
  8
画層1
 62
     3
100
AcDbCircle
 10
100.0149625650314
 20
-119.5862927371067
 30
0.0
 40
1.0
100
AcDbArc
 50
180.0
 51
270.0
  0
LINE
  5
936
330
2
100
AcDbEntity
  8
画層1
 62
     3
100
AcDbLine
 10
102.0149625650314
 20
-115.1862927371065
 30
0.0
 11
95.01496256503138
 21
-115.1862927371065
 31
0.0
  0
LINE
  5
937
330
2
100
AcDbEntity
  8
画層1
 62
     3
100
AcDbLine
 10
95.01496256503138
 20
-117.5862927371067
 30
0.0
 11
102.0149625650314
 21
-117.5862927371067
 31
0.0
  0
LINE
  5
938
330
2
100
AcDbEntity
  8
画層1
 62
     3
100
AcDbLine
 10
102.0149625650314
 20
-124.5862927371067
 30
0.0
 11
95.01496256503138
 21
-124.5862927371067
 31
0.0
  0
LINE
  5
939
330
2
100
AcDbEntity
  8
画層1
 62
     3
100
AcDbLine
 10
95.01496256503138
 20
-126.9862927371065
 30
0.0
 11
102.0149625650314
 21
-126.9862927371065
 31
0.0
  0
ARC
  5
93A
330
2
100
AcDbEntity
  8
画層1
 62
     3
100
AcDbCircle
 10
100.0149625650314
 20
-122.5862927371067
 30
0.0
 40
1.0
100
AcDbArc
 50
90.0
 51
180.0
  0
CIRCLE
  5
93B
330
2
100
AcDbEntity
  8
画層1
 62
     3
100
AcDbCircle
 10
98.51496256503141
 20
-121.0862927371067
 30
0.0
 40
3.0
  0
LINE
  5
93C
330
2
100
AcDbEntity
  8
画層1
 62
     3
100
AcDbLine
 10
99.01496256503151
 20
-119.2862927371066
 30
0.0
 11
99.01496256503151
 21
-119.5862927371067
 31
0.0
  0
LINE
  5
93D
330
2
100
AcDbEntity
  8
画層1
 62
     3
100
AcDbLine
 10
98.01496256503149
 20
-119.5862927371067
 30
0.0
 11
98.01496256503149
 21
-119.2862927371066
 31
0.0
  0
LINE
  5
93E
330
2
100
AcDbEntity
  8
画層1
 62
     3
100
AcDbLine
 10
98.01496256503149
 20
-119.2862927371066
 30
0.0
 11
99.01496256503151
 21
-119.2862927371066
 31
0.0
  0
LINE
  5
93F
330
2
100
AcDbEntity
  8
画層1
 62
     3
100
AcDbLine
 10
97.01496256503141
 20
-121.5862927371067
 30
0.0
 11
95.55496256503149
 21
-121.5862927371067
 31
0.0
  0
LINE
  5
940
330
2
100
AcDbEntity
  8
画層1
 62
     3
100
AcDbLine
 10
95.55496256503149
 20
-120.5862927371067
 30
0.0
 11
97.01496256503141
 21
-120.5862927371067
 31
0.0
  0
ARC
  5
941
330
2
100
AcDbEntity
  8
画層1
 62
     3
100
AcDbCircle
 10
97.01496256503141
 20
-119.5862927371067
 30
0.0
 40
1.0
100
AcDbArc
 50
270.0
 51
0.0
  0
LINE
  5
942
330
2
100
AcDbEntity
  8
画層1
 62
     3
100
AcDbLine
 10
98.01496256503149
 20
-122.8862927371066
 30
0.0
 11
98.01496256503149
 21
-122.5862927371067
 31
0.0
  0
LINE
  5
943
330
2
100
AcDbEntity
  8
画層1
 62
     3
100
AcDbLine
 10
99.01496256503151
 20
-122.5862927371067
 30
0.0
 11
99.01496256503151
 21
-122.8862927371066
 31
0.0
  0
LINE
  5
944
330
2
100
AcDbEntity
  8
画層1
 62
     3
100
AcDbLine
 10
98.01496256503149
 20
-122.8862927371066
 30
0.0
 11
99.01496256503151
 21
-122.8862927371066
 31
0.0
  0
ARC
  5
945
330
2
100
AcDbEntity
  8
画層1
 62
     3
100
AcDbCircle
 10
97.01496256503141
 20
-122.5862927371067
 30
0.0
 40
1.0
100
AcDbArc
 50
0.0
 51
90.0
  0
LINE
  5
946
330
2
100
AcDbEntity
  8
画層1
 62
     3
100
AcDbLine
 10
95.01496256503138
 20
-124.5862927371067
 30
0.0
 11
95.01496256503138
 21
-117.5862927371067
 31
0.0
  0
LINE
  5
947
330
2
100
AcDbEntity
  8
画層1
 62
     3
100
AcDbLine
 10
101.4649625650313
 20
-121.5862927371067
 30
0.0
 11
100.0149625650314
 21
-121.5862927371067
 31
0.0
  0
LINE
  5
948
330
2
100
AcDbEntity
  8
画層1
 62
     3
100
AcDbLine
 10
100.0149625650314
 20
-120.5862927371067
 30
0.0
 11
101.4649625650313
 21
-120.5862927371067
 31
0.0
  0
LINE
  5
949
330
2
100
AcDbEntity
  8
画層1
 62
     3
100
AcDbLine
 10
102.0149625650314
 20
-117.5862927371067
 30
0.0
 11
102.0149625650314
 21
-124.5862927371067
 31
0.0
  0
ARC
  5
94A
330
2
100
AcDbEntity
  8
画層1
 62
     3
100
AcDbCircle
 10
100.0149625650314
 20
-103.7862927371068
 30
0.0
 40
1.0
100
AcDbArc
 50
90.0
 51
180.0
  0
ARC
  5
94B
330
2
100
AcDbEntity
  8
画層1
 62
     3
100
AcDbCircle
 10
100.0149625650314
 20
-100.7862927371067
 30
0.0
 40
1.0
100
AcDbArc
 50
180.0
 51
270.0
  0
ARC
  5
94C
330
2
100
AcDbEntity
  8
画層1
 62
     3
100
AcDbCircle
 10
100.0149625650314
 20
-110.1862927371065
 30
0.0
 40
1.0
100
AcDbArc
 50
180.0
 51
270.0
  0
ARC
  5
94D
330
2
100
AcDbEntity
  8
画層1
 62
     3
100
AcDbCircle
 10
100.0149625650314
 20
-113.1862927371065
 30
0.0
 40
1.0
100
AcDbArc
 50
90.0
 51
180.0
  0
LINE
  5
94E
330
2
100
AcDbEntity
  8
画層1
 62
     3
100
AcDbLine
 10
102.0149625650314
 20
-105.7862927371066
 30
0.0
 11
95.01496256503138
 21
-105.7862927371066
 31
0.0
  0
LINE
  5
94F
330
2
100
AcDbEntity
  8
画層1
 62
     3
100
AcDbLine
 10
95.01496256503138
 20
-108.1862927371065
 30
0.0
 11
102.0149625650314
 21
-108.1862927371065
 31
0.0
  0
LINE
  5
950
330
2
100
AcDbEntity
  8
画層1
 62
     3
100
AcDbLine
 10
98.01496256503149
 20
-100.4862927371065
 30
0.0
 11
99.01496256503151
 21
-100.4862927371065
 31
0.0
  0
LINE
  5
951
330
2
100
AcDbEntity
  8
画層1
 62
     3
100
AcDbLine
 10
98.01496256503149
 20
-104.0862927371068
 30
0.0
 11
98.01496256503149
 21
-103.7862927371068
 31
0.0
  0
LINE
  5
952
330
2
100
AcDbEntity
  8
画層1
 62
     3
100
AcDbLine
 10
99.01496256503151
 20
-103.7862927371068
 30
0.0
 11
99.01496256503151
 21
-104.0862927371068
 31
0.0
  0
LINE
  5
953
330
2
100
AcDbEntity
  8
画層1
 62
     3
100
AcDbLine
 10
98.01496256503149
 20
-104.0862927371068
 30
0.0
 11
99.01496256503151
 21
-104.0862927371068
 31
0.0
  0
LINE
  5
954
330
2
100
AcDbEntity
  8
画層1
 62
     3
100
AcDbLine
 10
99.01496256503151
 20
-100.4862927371065
 30
0.0
 11
99.01496256503151
 21
-100.7862927371067
 31
0.0
  0
LINE
  5
955
330
2
100
AcDbEntity
  8
画層1
 62
     3
100
AcDbLine
 10
98.01496256503149
 20
-100.7862927371067
 30
0.0
 11
98.01496256503149
 21
-100.4862927371065
 31
0.0
  0
LINE
  5
956
330
2
100
AcDbEntity
  8
画層1
 62
     3
100
AcDbLine
 10
97.01496256503141
 20
-102.7862927371065
 30
0.0
 11
95.55496256503149
 21
-102.7862927371065
 31
0.0
  0
LINE
  5
957
330
2
100
AcDbEntity
  8
画層1
 62
     3
100
AcDbLine
 10
95.55496256503149
 20
-101.7862927371067
 30
0.0
 11
97.01496256503141
 21
-101.7862927371067
 31
0.0
  0
ARC
  5
958
330
2
100
AcDbEntity
  8
画層1
 62
     3
100
AcDbCircle
 10
97.01496256503141
 20
-103.7862927371068
 30
0.0
 40
1.0
100
AcDbArc
 50
0.0
 51
90.0
  0
ARC
  5
959
330
2
100
AcDbEntity
  8
画層1
 62
     3
100
AcDbCircle
 10
97.01496256503141
 20
-100.7862927371067
 30
0.0
 40
1.0
100
AcDbArc
 50
270.0
 51
0.0
  0
LINE
  5
95A
330
2
100
AcDbEntity
  8
画層1
 62
     3
100
AcDbLine
 10
99.01496256503151
 20
-109.8862927371067
 30
0.0
 11
99.01496256503151
 21
-110.1862927371065
 31
0.0
  0
LINE
  5
95B
330
2
100
AcDbEntity
  8
画層1
 62
     3
100
AcDbLine
 10
98.01496256503149
 20
-110.1862927371065
 30
0.0
 11
98.01496256503149
 21
-109.8862927371067
 31
0.0
  0
LINE
  5
95C
330
2
100
AcDbEntity
  8
画層1
 62
     3
100
AcDbLine
 10
98.01496256503149
 20
-109.8862927371067
 30
0.0
 11
99.01496256503151
 21
-109.8862927371067
 31
0.0
  0
LINE
  5
95D
330
2
100
AcDbEntity
  8
画層1
 62
     3
100
AcDbLine
 10
98.01496256503149
 20
-113.4862927371065
 30
0.0
 11
98.01496256503149
 21
-113.1862927371065
 31
0.0
  0
LINE
  5
95E
330
2
100
AcDbEntity
  8
画層1
 62
     3
100
AcDbLine
 10
99.01496256503151
 20
-113.1862927371065
 30
0.0
 11
99.01496256503151
 21
-113.4862927371065
 31
0.0
  0
LINE
  5
95F
330
2
100
AcDbEntity
  8
画層1
 62
     3
100
AcDbLine
 10
98.01496256503149
 20
-113.4862927371065
 30
0.0
 11
99.01496256503151
 21
-113.4862927371065
 31
0.0
  0
LINE
  5
960
330
2
100
AcDbEntity
  8
画層1
 62
     3
100
AcDbLine
 10
95.55496256503149
 20
-111.1862927371065
 30
0.0
 11
97.01496256503141
 21
-111.1862927371065
 31
0.0
  0
LINE
  5
961
330
2
100
AcDbEntity
  8
画層1
 62
     3
100
AcDbLine
 10
97.01496256503141
 20
-112.1862927371065
 30
0.0
 11
95.55496256503149
 21
-112.1862927371065
 31
0.0
  0
ARC
  5
962
330
2
100
AcDbEntity
  8
画層1
 62
     3
100
AcDbCircle
 10
97.01496256503141
 20
-110.1862927371065
 30
0.0
 40
1.0
100
AcDbArc
 50
270.0
 51
0.0
  0
ARC
  5
963
330
2
100
AcDbEntity
  8
画層1
 62
     3
100
AcDbCircle
 10
97.01496256503141
 20
-113.1862927371065
 30
0.0
 40
1.0
100
AcDbArc
 50
0.0
 51
90.0
  0
LINE
  5
964
330
2
100
AcDbEntity
  8
画層1
 62
     3
100
AcDbLine
 10
101.4649625650313
 20
-102.7862927371065
 30
0.0
 11
100.0149625650314
 21
-102.7862927371065
 31
0.0
  0
LINE
  5
965
330
2
100
AcDbEntity
  8
画層1
 62
     3
100
AcDbLine
 10
100.0149625650314
 20
-101.7862927371067
 30
0.0
 11
101.4649625650313
 21
-101.7862927371067
 31
0.0
  0
LINE
  5
966
330
2
100
AcDbEntity
  8
画層1
 62
     3
100
AcDbLine
 10
100.0149625650314
 20
-111.1862927371065
 30
0.0
 11
101.4649625650313
 21
-111.1862927371065
 31
0.0
  0
LINE
  5
967
330
2
100
AcDbEntity
  8
画層1
 62
     3
100
AcDbLine
 10
101.4649625650313
 20
-112.1862927371065
 30
0.0
 11
100.0149625650314
 21
-112.1862927371065
 31
0.0
  0
LINE
  5
968
330
2
100
AcDbEntity
  8
画層1
 62
     3
100
AcDbLine
 10
104.4149625650314
 20
-109.3862927371066
 30
0.0
 11
104.4149625650314
 21
-102.3862927371067
 31
0.0
  0
ARC
  5
969
330
2
100
AcDbEntity
  8
画層1
 62
     3
100
AcDbCircle
 10
109.4149625650314
 20
-113.7862927371065
 30
0.0
 40
1.0
100
AcDbArc
 50
180.0
 51
270.0
  0
ARC
  5
96A
330
2
100
AcDbEntity
  8
画層1
 62
     3
100
AcDbCircle
 10
106.4149625650314
 20
-113.7862927371065
 30
0.0
 40
1.0
100
AcDbArc
 50
270.0
 51
0.0
  0
CIRCLE
  5
96B
330
2
100
AcDbEntity
  8
画層1
 62
     3
100
AcDbCircle
 10
107.9149625650314
 20
-115.2862927371065
 30
0.0
 40
3.0
  0
LINE
  5
96C
330
2
100
AcDbEntity
  8
画層1
 62
     3
100
AcDbLine
 10
111.4149625650314
 20
-111.7862927371065
 30
0.0
 11
111.4149625650314
 21
-118.7862927371067
 31
0.0
  0
LINE
  5
96D
330
2
100
AcDbEntity
  8
画層1
 62
     3
100
AcDbLine
 10
109.4149625650314
 20
-114.7862927371066
 30
0.0
 11
110.8649625650313
 21
-114.7862927371066
 31
0.0
  0
LINE
  5
96E
330
2
100
AcDbEntity
  8
画層1
 62
     3
100
AcDbLine
 10
110.8649625650313
 20
-115.7862927371065
 30
0.0
 11
109.4149625650314
 21
-115.7862927371065
 31
0.0
  0
LINE
  5
96F
330
2
100
AcDbEntity
  8
画層1
 62
     3
100
AcDbLine
 10
109.4149625650314
 20
-124.1862927371065
 30
0.0
 11
110.8649625650313
 21
-124.1862927371065
 31
0.0
  0
LINE
  5
970
330
2
100
AcDbEntity
  8
画層1
 62
     3
100
AcDbLine
 10
110.8649625650313
 20
-125.1862927371065
 30
0.0
 11
109.4149625650314
 21
-125.1862927371065
 31
0.0
  0
CIRCLE
  5
971
330
2
100
AcDbEntity
  8
画層1
 62
     3
100
AcDbCircle
 10
107.9149625650314
 20
-124.6862927371065
 30
0.0
 40
3.0
  0
LINE
  5
972
330
2
100
AcDbEntity
  8
画層1
 62
     3
100
AcDbLine
 10
107.4149625650314
 20
-117.0862927371067
 30
0.0
 11
108.4149625650314
 21
-117.0862927371067
 31
0.0
  0
LINE
  5
973
330
2
100
AcDbEntity
  8
画層1
 62
     3
100
AcDbLine
 10
107.4149625650314
 20
-117.0862927371067
 30
0.0
 11
107.4149625650314
 21
-116.7862927371067
 31
0.0
  0
ARC
  5
974
330
2
100
AcDbEntity
  8
画層1
 62
     3
100
AcDbCircle
 10
109.4149625650314
 20
-116.7862927371067
 30
0.0
 40
1.0
100
AcDbArc
 50
90.0
 51
180.0
  0
LINE
  5
975
330
2
100
AcDbEntity
  8
画層1
 62
     3
100
AcDbLine
 10
108.4149625650314
 20
-116.7862927371067
 30
0.0
 11
108.4149625650314
 21
-117.0862927371067
 31
0.0
  0
LINE
  5
976
330
2
100
AcDbEntity
  8
画層1
 62
     3
100
AcDbLine
 10
104.9549625650314
 20
-114.7862927371066
 30
0.0
 11
106.4149625650314
 21
-114.7862927371066
 31
0.0
  0
LINE
  5
977
330
2
100
AcDbEntity
  8
画層1
 62
     3
100
AcDbLine
 10
106.4149625650314
 20
-115.7862927371065
 30
0.0
 11
104.9549625650314
 21
-115.7862927371065
 31
0.0
  0
ARC
  5
978
330
2
100
AcDbEntity
  8
画層1
 62
     3
100
AcDbCircle
 10
106.4149625650314
 20
-116.7862927371067
 30
0.0
 40
1.0
100
AcDbArc
 50
0.0
 51
90.0
  0
LINE
  5
979
330
2
100
AcDbEntity
  8
画層1
 62
     3
100
AcDbLine
 10
107.4149625650314
 20
-122.8862927371066
 30
0.0
 11
108.4149625650314
 21
-122.8862927371066
 31
0.0
  0
LINE
  5
97A
330
2
100
AcDbEntity
  8
画層1
 62
     3
100
AcDbLine
 10
107.4149625650314
 20
-126.4862927371067
 30
0.0
 11
108.4149625650314
 21
-126.4862927371067
 31
0.0
  0
LINE
  5
97B
330
2
100
AcDbEntity
  8
画層1
 62
     3
100
AcDbLine
 10
107.4149625650314
 20
-123.1862927371065
 30
0.0
 11
107.4149625650314
 21
-122.8862927371066
 31
0.0
  0
LINE
  5
97C
330
2
100
AcDbEntity
  8
画層1
 62
     3
100
AcDbLine
 10
107.4149625650314
 20
-126.4862927371067
 30
0.0
 11
107.4149625650314
 21
-126.1862927371065
 31
0.0
  0
LINE
  5
97D
330
2
100
AcDbEntity
  8
画層1
 62
     3
100
AcDbLine
 10
108.4149625650314
 20
-122.8862927371066
 30
0.0
 11
108.4149625650314
 21
-123.1862927371065
 31
0.0
  0
ARC
  5
97E
330
2
100
AcDbEntity
  8
画層1
 62
     3
100
AcDbCircle
 10
109.4149625650314
 20
-126.1862927371065
 30
0.0
 40
1.0
100
AcDbArc
 50
90.0
 51
180.0
  0
LINE
  5
97F
330
2
100
AcDbEntity
  8
画層1
 62
     3
100
AcDbLine
 10
108.4149625650314
 20
-126.1862927371065
 30
0.0
 11
108.4149625650314
 21
-126.4862927371067
 31
0.0
  0
ARC
  5
980
330
2
100
AcDbEntity
  8
画層1
 62
     3
100
AcDbCircle
 10
109.4149625650314
 20
-123.1862927371065
 30
0.0
 40
1.0
100
AcDbArc
 50
180.0
 51
270.0
  0
LINE
  5
981
330
2
100
AcDbEntity
  8
画層1
 62
     3
100
AcDbLine
 10
104.9549625650314
 20
-124.1862927371065
 30
0.0
 11
106.4149625650314
 21
-124.1862927371065
 31
0.0
  0
LINE
  5
982
330
2
100
AcDbEntity
  8
画層1
 62
     3
100
AcDbLine
 10
106.4149625650314
 20
-125.1862927371065
 30
0.0
 11
104.9549625650314
 21
-125.1862927371065
 31
0.0
  0
ARC
  5
983
330
2
100
AcDbEntity
  8
画層1
 62
     3
100
AcDbCircle
 10
106.4149625650314
 20
-126.1862927371065
 30
0.0
 40
1.0
100
AcDbArc
 50
0.0
 51
90.0
  0
ARC
  5
984
330
2
100
AcDbEntity
  8
画層1
 62
     3
100
AcDbCircle
 10
106.4149625650314
 20
-123.1862927371065
 30
0.0
 40
1.0
100
AcDbArc
 50
270.0
 51
0.0
  0
LINE
  5
985
330
2
100
AcDbEntity
  8
画層1
 62
     3
100
AcDbLine
 10
109.4149625650314
 20
-105.3862927371068
 30
0.0
 11
110.8649625650313
 21
-105.3862927371068
 31
0.0
  0
LINE
  5
986
330
2
100
AcDbEntity
  8
画層1
 62
     3
100
AcDbLine
 10
110.8649625650313
 20
-106.3862927371066
 30
0.0
 11
109.4149625650314
 21
-106.3862927371066
 31
0.0
  0
CIRCLE
  5
987
330
2
100
AcDbEntity
  8
画層1
 62
     3
100
AcDbCircle
 10
107.9149625650314
 20
-105.8862927371067
 30
0.0
 40
3.0
  0
LINE
  5
988
330
2
100
AcDbEntity
  8
画層1
 62
     3
100
AcDbLine
 10
107.4149625650314
 20
-104.0862927371068
 30
0.0
 11
108.4149625650314
 21
-104.0862927371068
 31
0.0
  0
LINE
  5
989
330
2
100
AcDbEntity
  8
画層1
 62
     3
100
AcDbLine
 10
107.4149625650314
 20
-104.3862927371068
 30
0.0
 11
107.4149625650314
 21
-104.0862927371068
 31
0.0
  0
LINE
  5
98A
330
2
100
AcDbEntity
  8
画層1
 62
     3
100
AcDbLine
 10
108.4149625650314
 20
-104.0862927371068
 30
0.0
 11
108.4149625650314
 21
-104.3862927371068
 31
0.0
  0
LINE
  5
98B
330
2
100
AcDbEntity
  8
画層1
 62
     3
100
AcDbLine
 10
107.4149625650314
 20
-107.6862927371065
 30
0.0
 11
108.4149625650314
 21
-107.6862927371065
 31
0.0
  0
LINE
  5
98C
330
2
100
AcDbEntity
  8
画層1
 62
     3
100
AcDbLine
 10
107.4149625650314
 20
-113.4862927371065
 30
0.0
 11
108.4149625650314
 21
-113.4862927371065
 31
0.0
  0
LINE
  5
98D
330
2
100
AcDbEntity
  8
画層1
 62
     3
100
AcDbLine
 10
107.4149625650314
 20
-107.6862927371065
 30
0.0
 11
107.4149625650314
 21
-107.3862927371066
 31
0.0
  0
LINE
  5
98E
330
2
100
AcDbEntity
  8
画層1
 62
     3
100
AcDbLine
 10
108.4149625650314
 20
-107.3862927371066
 30
0.0
 11
108.4149625650314
 21
-107.6862927371065
 31
0.0
  0
ARC
  5
98F
330
2
100
AcDbEntity
  8
画層1
 62
     3
100
AcDbCircle
 10
109.4149625650314
 20
-107.3862927371066
 30
0.0
 40
1.0
100
AcDbArc
 50
90.0
 51
180.0
  0
LINE
  5
990
330
2
100
AcDbEntity
  8
画層1
 62
     3
100
AcDbLine
 10
104.9549625650314
 20
-105.3862927371068
 30
0.0
 11
106.4149625650314
 21
-105.3862927371068
 31
0.0
  0
LINE
  5
991
330
2
100
AcDbEntity
  8
画層1
 62
     3
100
AcDbLine
 10
106.4149625650314
 20
-106.3862927371066
 30
0.0
 11
104.9549625650314
 21
-106.3862927371066
 31
0.0
  0
ARC
  5
992
330
2
100
AcDbEntity
  8
画層1
 62
     3
100
AcDbCircle
 10
106.4149625650314
 20
-107.3862927371066
 30
0.0
 40
1.0
100
AcDbArc
 50
0.0
 51
90.0
  0
LINE
  5
993
330
2
100
AcDbEntity
  8
画層1
 62
     3
100
AcDbLine
 10
107.4149625650314
 20
-113.7862927371065
 30
0.0
 11
107.4149625650314
 21
-113.4862927371065
 31
0.0
  0
LINE
  5
994
330
2
100
AcDbEntity
  8
画層1
 62
     3
100
AcDbLine
 10
108.4149625650314
 20
-113.4862927371065
 30
0.0
 11
108.4149625650314
 21
-113.7862927371065
 31
0.0
  0
ARC
  5
995
330
2
100
AcDbEntity
  8
画層1
 62
     3
100
AcDbCircle
 10
106.4149625650314
 20
-104.3862927371068
 30
0.0
 40
1.0
100
AcDbArc
 50
270.0
 51
0.0
  0
ARC
  5
996
330
2
100
AcDbEntity
  8
画層1
 62
     3
100
AcDbCircle
 10
109.4149625650314
 20
-104.3862927371068
 30
0.0
 40
1.0
100
AcDbArc
 50
180.0
 51
270.0
  0
LINE
  5
997
330
2
100
AcDbEntity
  8
画層1
 62
     3
100
AcDbLine
 10
111.4149625650314
 20
-102.3862927371067
 30
0.0
 11
111.4149625650314
 21
-109.3862927371066
 31
0.0
  0
LINE
  5
998
330
2
100
AcDbEntity
  8
画層1
 62
     3
100
AcDbLine
 10
93.11496256503149
 20
-59.28629273710669
 30
0.0
 11
102.5149625650314
 21
-59.28629273710669
 31
0.0
  0
LINE
  5
999
330
2
100
AcDbEntity
  8
画層1
 62
     3
100
AcDbLine
 10
93.11496256503149
 20
-60.68629273710667
 30
0.0
 11
102.5149625650314
 21
-60.68629273710667
 31
0.0
  0
LINE
  5
99A
330
2
100
AcDbEntity
  8
画層1
 62
     3
100
AcDbLine
 10
93.11496256503149
 20
-68.68629273710666
 30
0.0
 11
102.5149625650314
 21
-68.68629273710666
 31
0.0
  0
LINE
  5
99B
330
2
100
AcDbEntity
  8
画層1
 62
     3
100
AcDbLine
 10
93.11496256503149
 20
-70.08629273710671
 30
0.0
 11
102.5149625650314
 21
-70.08629273710671
 31
0.0
  0
LINE
  5
99C
330
2
100
AcDbEntity
  8
画層1
 62
     3
100
AcDbLine
 10
93.11496256503149
 20
-78.0862927371068
 30
0.0
 11
102.5149625650314
 21
-78.0862927371068
 31
0.0
  0
LINE
  5
99D
330
2
100
AcDbEntity
  8
画層1
 62
     3
100
AcDbLine
 10
93.11496256503149
 20
-79.48629273710668
 30
0.0
 11
102.5149625650314
 21
-79.48629273710668
 31
0.0
  0
LINE
  5
99E
330
2
100
AcDbEntity
  8
画層1
 62
     3
100
AcDbLine
 10
93.11496256503149
 20
-87.48629273710667
 30
0.0
 11
102.5149625650314
 21
-87.48629273710667
 31
0.0
  0
LINE
  5
99F
330
2
100
AcDbEntity
  8
画層1
 62
     3
100
AcDbLine
 10
93.11496256503149
 20
-98.28629273710681
 30
0.0
 11
102.5149625650314
 21
-98.28629273710681
 31
0.0
  0
LINE
  5
9A0
330
2
100
AcDbEntity
  8
画層1
 62
     3
100
AcDbLine
 10
93.11496256503149
 20
-88.88629273710682
 30
0.0
 11
102.5149625650314
 21
-88.88629273710682
 31
0.0
  0
LINE
  5
9A1
330
2
100
AcDbEntity
  8
画層1
 62
     3
100
AcDbLine
 10
93.11496256503149
 20
-96.88629273710684
 30
0.0
 11
102.5149625650314
 21
-96.88629273710684
 31
0.0
  0
CIRCLE
  5
9A2
330
2
100
AcDbEntity
  8
画層1
 62
     3
100
AcDbCircle
 10
107.9149625650314
 20
-68.28629273710669
 30
0.0
 40
3.0
  0
LINE
  5
9A3
330
2
100
AcDbEntity
  8
画層1
 62
     3
100
AcDbLine
 10
104.4149625650314
 20
-71.78629273710669
 30
0.0
 11
104.4149625650314
 21
-64.7862927371068
 31
0.0
  0
LINE
  5
9A4
330
2
100
AcDbEntity
  8
画層1
 62
     3
100
AcDbLine
 10
111.4149625650314
 20
-64.7862927371068
 30
0.0
 11
111.4149625650314
 21
-71.78629273710669
 31
0.0
  0
CIRCLE
  5
9A5
330
2
100
AcDbEntity
  8
画層1
 62
     3
100
AcDbCircle
 10
98.51496256503141
 20
-74.0862927371068
 30
0.0
 40
3.0
  0
LINE
  5
9A6
330
2
100
AcDbEntity
  8
画層1
 62
     3
100
AcDbLine
 10
95.01496256503138
 20
-77.5862927371068
 30
0.0
 11
95.01496256503138
 21
-70.5862927371067
 31
0.0
  0
LINE
  5
9A7
330
2
100
AcDbEntity
  8
画層1
 62
     3
100
AcDbLine
 10
102.0149625650314
 20
-70.5862927371067
 30
0.0
 11
102.0149625650314
 21
-77.5862927371068
 31
0.0
  0
LINE
  5
9A8
330
2
100
AcDbEntity
  8
画層1
 62
     3
100
AcDbLine
 10
104.4149625650314
 20
-74.18629273710668
 30
0.0
 11
111.4149625650314
 21
-74.18629273710668
 31
0.0
  0
LINE
  5
9A9
330
2
100
AcDbEntity
  8
画層1
 62
     3
100
AcDbLine
 10
102.5149625650314
 20
-73.68629273710666
 30
0.0
 11
111.9149625650314
 21
-73.68629273710666
 31
0.0
  0
LINE
  5
9AA
330
2
100
AcDbEntity
  8
画層1
 62
     3
100
AcDbLine
 10
111.4149625650314
 20
-71.78629273710669
 30
0.0
 11
104.4149625650314
 21
-71.78629273710669
 31
0.0
  0
LINE
  5
9AB
330
2
100
AcDbEntity
  8
画層1
 62
     3
100
AcDbLine
 10
102.5149625650314
 20
-72.28629273710669
 30
0.0
 11
111.9149625650314
 21
-72.28629273710669
 31
0.0
  0
LINE
  5
9AC
330
2
100
AcDbEntity
  8
画層1
 62
     3
100
AcDbLine
 10
104.4149625650314
 20
-83.58629273710681
 30
0.0
 11
111.4149625650314
 21
-83.58629273710681
 31
0.0
  0
LINE
  5
9AD
330
2
100
AcDbEntity
  8
画層1
 62
     3
100
AcDbLine
 10
102.5149625650314
 20
-83.08629273710669
 30
0.0
 11
111.9149625650314
 21
-83.08629273710669
 31
0.0
  0
LINE
  5
9AE
330
2
100
AcDbEntity
  8
画層1
 62
     3
100
AcDbLine
 10
111.4149625650314
 20
-81.18629273710665
 30
0.0
 11
104.4149625650314
 21
-81.18629273710665
 31
0.0
  0
LINE
  5
9AF
330
2
100
AcDbEntity
  8
画層1
 62
     3
100
AcDbLine
 10
102.5149625650314
 20
-81.68629273710669
 30
0.0
 11
111.9149625650314
 21
-81.68629273710669
 31
0.0
  0
LINE
  5
9B0
330
2
100
AcDbEntity
  8
画層1
 62
     3
100
AcDbLine
 10
104.4149625650314
 20
-92.98629273710668
 30
0.0
 11
111.4149625650314
 21
-92.98629273710668
 31
0.0
  0
LINE
  5
9B1
330
2
100
AcDbEntity
  8
画層1
 62
     3
100
AcDbLine
 10
102.5149625650314
 20
-92.48629273710667
 30
0.0
 11
111.9149625650314
 21
-92.48629273710667
 31
0.0
  0
LINE
  5
9B2
330
2
100
AcDbEntity
  8
画層1
 62
     3
100
AcDbLine
 10
111.4149625650314
 20
-90.58629273710682
 30
0.0
 11
104.4149625650314
 21
-90.58629273710682
 31
0.0
  0
LINE
  5
9B3
330
2
100
AcDbEntity
  8
画層1
 62
     3
100
AcDbLine
 10
102.5149625650314
 20
-91.0862927371067
 30
0.0
 11
111.9149625650314
 21
-91.0862927371067
 31
0.0
  0
LINE
  5
9B4
330
2
100
AcDbEntity
  8
画層1
 62
     3
100
AcDbLine
 10
102.0149625650314
 20
-79.98629273710668
 30
0.0
 11
102.0149625650314
 21
-86.98629273710679
 31
0.0
  0
LINE
  5
9B5
330
2
100
AcDbEntity
  8
画層1
 62
     3
100
AcDbLine
 10
95.01496256503138
 20
-86.98629273710679
 30
0.0
 11
95.01496256503138
 21
-79.98629273710668
 31
0.0
  0
CIRCLE
  5
9B6
330
2
100
AcDbEntity
  8
画層1
 62
     3
100
AcDbCircle
 10
98.51496256503141
 20
-83.48629273710669
 30
0.0
 40
3.0
  0
LINE
  5
9B7
330
2
100
AcDbEntity
  8
画層1
 62
     3
100
AcDbLine
 10
104.4149625650314
 20
-90.58629273710682
 30
0.0
 11
104.4149625650314
 21
-83.58629273710681
 31
0.0
  0
LINE
  5
9B8
330
2
100
AcDbEntity
  8
画層1
 62
     3
100
AcDbLine
 10
102.0149625650314
 20
-86.98629273710679
 30
0.0
 11
95.01496256503138
 21
-86.98629273710679
 31
0.0
  0
ARC
  5
9B9
330
2
100
AcDbEntity
  8
画層1
 62
     3
100
AcDbCircle
 10
100.0149625650314
 20
-94.38629273710684
 30
0.0
 40
1.0
100
AcDbArc
 50
90.0
 51
180.0
  0
ARC
  5
9BA
330
2
100
AcDbEntity
  8
画層1
 62
     3
100
AcDbCircle
 10
100.0149625650314
 20
-91.38629273710682
 30
0.0
 40
1.0
100
AcDbArc
 50
180.0
 51
270.0
  0
CIRCLE
  5
9BB
330
2
100
AcDbEntity
  8
画層1
 62
     3
100
AcDbCircle
 10
98.51496256503141
 20
-92.88629273710681
 30
0.0
 40
3.0
  0
LINE
  5
9BC
330
2
100
AcDbEntity
  8
画層1
 62
     3
100
AcDbLine
 10
102.0149625650314
 20
-96.38629273710684
 30
0.0
 11
95.01496256503138
 21
-96.38629273710684
 31
0.0
  0
LINE
  5
9BD
330
2
100
AcDbEntity
  8
画層1
 62
     3
100
AcDbLine
 10
95.01496256503138
 20
-89.38629273710672
 30
0.0
 11
102.0149625650314
 21
-89.38629273710672
 31
0.0
  0
LINE
  5
9BE
330
2
100
AcDbEntity
  8
画層1
 62
     3
100
AcDbLine
 10
95.01496256503138
 20
-98.78629273710672
 30
0.0
 11
102.0149625650314
 21
-98.78629273710672
 31
0.0
  0
LINE
  5
9BF
330
2
100
AcDbEntity
  8
画層1
 62
     3
100
AcDbLine
 10
98.01496256503149
 20
-94.68629273710664
 30
0.0
 11
98.01496256503149
 21
-94.38629273710684
 31
0.0
  0
LINE
  5
9C0
330
2
100
AcDbEntity
  8
画層1
 62
     3
100
AcDbLine
 10
99.01496256503151
 20
-94.38629273710684
 30
0.0
 11
99.01496256503151
 21
-94.68629273710664
 31
0.0
  0
LINE
  5
9C1
330
2
100
AcDbEntity
  8
画層1
 62
     3
100
AcDbLine
 10
99.01496256503151
 20
-91.0862927371067
 30
0.0
 11
99.01496256503151
 21
-91.38629273710682
 31
0.0
  0
LINE
  5
9C2
330
2
100
AcDbEntity
  8
画層1
 62
     3
100
AcDbLine
 10
98.01496256503149
 20
-91.38629273710682
 30
0.0
 11
98.01496256503149
 21
-91.0862927371067
 31
0.0
  0
LINE
  5
9C3
330
2
100
AcDbEntity
  8
画層1
 62
     3
100
AcDbLine
 10
98.01496256503149
 20
-94.68629273710664
 30
0.0
 11
99.01496256503151
 21
-94.68629273710664
 31
0.0
  0
LINE
  5
9C4
330
2
100
AcDbEntity
  8
画層1
 62
     3
100
AcDbLine
 10
98.01496256503149
 20
-91.0862927371067
 30
0.0
 11
99.01496256503151
 21
-91.0862927371067
 31
0.0
  0
LINE
  5
9C5
330
2
100
AcDbEntity
  8
画層1
 62
     3
100
AcDbLine
 10
97.01496256503141
 20
-93.38629273710685
 30
0.0
 11
95.55496256503149
 21
-93.38629273710685
 31
0.0
  0
LINE
  5
9C6
330
2
100
AcDbEntity
  8
画層1
 62
     3
100
AcDbLine
 10
95.55496256503149
 20
-92.38629273710683
 30
0.0
 11
97.01496256503141
 21
-92.38629273710683
 31
0.0
  0
LINE
  5
9C7
330
2
100
AcDbEntity
  8
画層1
 62
     3
100
AcDbLine
 10
95.01496256503138
 20
-96.38629273710684
 30
0.0
 11
95.01496256503138
 21
-89.38629273710672
 31
0.0
  0
ARC
  5
9C8
330
2
100
AcDbEntity
  8
画層1
 62
     3
100
AcDbCircle
 10
97.01496256503141
 20
-94.38629273710684
 30
0.0
 40
1.0
100
AcDbArc
 50
0.0
 51
90.0
  0
ARC
  5
9C9
330
2
100
AcDbEntity
  8
画層1
 62
     3
100
AcDbCircle
 10
97.01496256503141
 20
-91.38629273710682
 30
0.0
 40
1.0
100
AcDbArc
 50
270.0
 51
0.0
  0
LINE
  5
9CA
330
2
100
AcDbEntity
  8
画層1
 62
     3
100
AcDbLine
 10
102.0149625650314
 20
-89.38629273710672
 30
0.0
 11
102.0149625650314
 21
-96.38629273710684
 31
0.0
  0
LINE
  5
9CB
330
2
100
AcDbEntity
  8
画層1
 62
     3
100
AcDbLine
 10
101.4649625650313
 20
-93.38629273710685
 30
0.0
 11
100.0149625650314
 21
-93.38629273710685
 31
0.0
  0
LINE
  5
9CC
330
2
100
AcDbEntity
  8
画層1
 62
     3
100
AcDbLine
 10
100.0149625650314
 20
-92.38629273710683
 30
0.0
 11
101.4649625650313
 21
-92.38629273710683
 31
0.0
  0
ARC
  5
9CD
330
2
100
AcDbEntity
  8
画層1
 62
     3
100
AcDbCircle
 10
100.0149625650314
 20
-75.5862927371068
 30
0.0
 40
1.0
100
AcDbArc
 50
90.0
 51
180.0
  0
ARC
  5
9CE
330
2
100
AcDbEntity
  8
画層1
 62
     3
100
AcDbCircle
 10
100.0149625650314
 20
-72.58629273710671
 30
0.0
 40
1.0
100
AcDbArc
 50
180.0
 51
270.0
  0
LINE
  5
9CF
330
2
100
AcDbEntity
  8
画層1
 62
     3
100
AcDbLine
 10
102.0149625650314
 20
-77.5862927371068
 30
0.0
 11
95.01496256503138
 21
-77.5862927371068
 31
0.0
  0
ARC
  5
9D0
330
2
100
AcDbEntity
  8
画層1
 62
     3
100
AcDbCircle
 10
100.0149625650314
 20
-84.9862927371068
 30
0.0
 40
1.0
100
AcDbArc
 50
90.0
 51
180.0
  0
ARC
  5
9D1
330
2
100
AcDbEntity
  8
画層1
 62
     3
100
AcDbCircle
 10
100.0149625650314
 20
-81.98629273710668
 30
0.0
 40
1.0
100
AcDbArc
 50
180.0
 51
270.0
  0
LINE
  5
9D2
330
2
100
AcDbEntity
  8
画層1
 62
     3
100
AcDbLine
 10
95.01496256503138
 20
-79.98629273710668
 30
0.0
 11
102.0149625650314
 21
-79.98629273710668
 31
0.0
  0
LINE
  5
9D3
330
2
100
AcDbEntity
  8
画層1
 62
     3
100
AcDbLine
 10
98.01496256503149
 20
-75.88629273710683
 30
0.0
 11
98.01496256503149
 21
-75.5862927371068
 31
0.0
  0
LINE
  5
9D4
330
2
100
AcDbEntity
  8
画層1
 62
     3
100
AcDbLine
 10
99.01496256503151
 20
-75.5862927371068
 30
0.0
 11
99.01496256503151
 21
-75.88629273710683
 31
0.0
  0
LINE
  5
9D5
330
2
100
AcDbEntity
  8
画層1
 62
     3
100
AcDbLine
 10
98.01496256503149
 20
-75.88629273710683
 30
0.0
 11
99.01496256503151
 21
-75.88629273710683
 31
0.0
  0
LINE
  5
9D6
330
2
100
AcDbEntity
  8
画層1
 62
     3
100
AcDbLine
 10
99.01496256503151
 20
-72.28629273710669
 30
0.0
 11
99.01496256503151
 21
-72.58629273710671
 31
0.0
  0
LINE
  5
9D7
330
2
100
AcDbEntity
  8
画層1
 62
     3
100
AcDbLine
 10
98.01496256503149
 20
-72.58629273710671
 30
0.0
 11
98.01496256503149
 21
-72.28629273710669
 31
0.0
  0
LINE
  5
9D8
330
2
100
AcDbEntity
  8
画層1
 62
     3
100
AcDbLine
 10
98.01496256503149
 20
-72.28629273710669
 30
0.0
 11
99.01496256503151
 21
-72.28629273710669
 31
0.0
  0
LINE
  5
9D9
330
2
100
AcDbEntity
  8
画層1
 62
     3
100
AcDbLine
 10
97.01496256503141
 20
-74.5862927371067
 30
0.0
 11
95.55496256503149
 21
-74.5862927371067
 31
0.0
  0
LINE
  5
9DA
330
2
100
AcDbEntity
  8
画層1
 62
     3
100
AcDbLine
 10
95.55496256503149
 20
-73.5862927371068
 30
0.0
 11
97.01496256503141
 21
-73.5862927371068
 31
0.0
  0
ARC
  5
9DB
330
2
100
AcDbEntity
  8
画層1
 62
     3
100
AcDbCircle
 10
97.01496256503141
 20
-75.5862927371068
 30
0.0
 40
1.0
100
AcDbArc
 50
0.0
 51
90.0
  0
ARC
  5
9DC
330
2
100
AcDbEntity
  8
画層1
 62
     3
100
AcDbCircle
 10
97.01496256503141
 20
-72.58629273710671
 30
0.0
 40
1.0
100
AcDbArc
 50
270.0
 51
0.0
  0
LINE
  5
9DD
330
2
100
AcDbEntity
  8
画層1
 62
     3
100
AcDbLine
 10
99.01496256503151
 20
-81.68629273710669
 30
0.0
 11
99.01496256503151
 21
-81.98629273710668
 31
0.0
  0
LINE
  5
9DE
330
2
100
AcDbEntity
  8
画層1
 62
     3
100
AcDbLine
 10
98.01496256503149
 20
-81.98629273710668
 30
0.0
 11
98.01496256503149
 21
-81.68629273710669
 31
0.0
  0
LINE
  5
9DF
330
2
100
AcDbEntity
  8
画層1
 62
     3
100
AcDbLine
 10
98.01496256503149
 20
-81.68629273710669
 30
0.0
 11
99.01496256503151
 21
-81.68629273710669
 31
0.0
  0
LINE
  5
9E0
330
2
100
AcDbEntity
  8
画層1
 62
     3
100
AcDbLine
 10
98.01496256503149
 20
-85.28629273710681
 30
0.0
 11
99.01496256503151
 21
-85.28629273710681
 31
0.0
  0
LINE
  5
9E1
330
2
100
AcDbEntity
  8
画層1
 62
     3
100
AcDbLine
 10
98.01496256503149
 20
-85.28629273710681
 30
0.0
 11
98.01496256503149
 21
-84.9862927371068
 31
0.0
  0
LINE
  5
9E2
330
2
100
AcDbEntity
  8
画層1
 62
     3
100
AcDbLine
 10
99.01496256503151
 20
-84.9862927371068
 30
0.0
 11
99.01496256503151
 21
-85.28629273710681
 31
0.0
  0
LINE
  5
9E3
330
2
100
AcDbEntity
  8
画層1
 62
     3
100
AcDbLine
 10
95.55496256503149
 20
-82.98629273710668
 30
0.0
 11
97.01496256503141
 21
-82.98629273710668
 31
0.0
  0
LINE
  5
9E4
330
2
100
AcDbEntity
  8
画層1
 62
     3
100
AcDbLine
 10
97.01496256503141
 20
-83.98629273710668
 30
0.0
 11
95.55496256503149
 21
-83.98629273710668
 31
0.0
  0
ARC
  5
9E5
330
2
100
AcDbEntity
  8
画層1
 62
     3
100
AcDbCircle
 10
97.01496256503141
 20
-84.9862927371068
 30
0.0
 40
1.0
100
AcDbArc
 50
0.0
 51
90.0
  0
ARC
  5
9E6
330
2
100
AcDbEntity
  8
画層1
 62
     3
100
AcDbCircle
 10
97.01496256503141
 20
-81.98629273710668
 30
0.0
 40
1.0
100
AcDbArc
 50
270.0
 51
0.0
  0
LINE
  5
9E7
330
2
100
AcDbEntity
  8
画層1
 62
     3
100
AcDbLine
 10
104.4149625650314
 20
-81.18629273710665
 30
0.0
 11
104.4149625650314
 21
-74.18629273710668
 31
0.0
  0
LINE
  5
9E8
330
2
100
AcDbEntity
  8
画層1
 62
     3
100
AcDbLine
 10
101.4649625650313
 20
-74.5862927371067
 30
0.0
 11
100.0149625650314
 21
-74.5862927371067
 31
0.0
  0
LINE
  5
9E9
330
2
100
AcDbEntity
  8
画層1
 62
     3
100
AcDbLine
 10
100.0149625650314
 20
-73.5862927371068
 30
0.0
 11
101.4649625650313
 21
-73.5862927371068
 31
0.0
  0
LINE
  5
9EA
330
2
100
AcDbEntity
  8
画層1
 62
     3
100
AcDbLine
 10
100.0149625650314
 20
-82.98629273710668
 30
0.0
 11
101.4649625650313
 21
-82.98629273710668
 31
0.0
  0
LINE
  5
9EB
330
2
100
AcDbEntity
  8
画層1
 62
     3
100
AcDbLine
 10
101.4649625650313
 20
-83.98629273710668
 30
0.0
 11
100.0149625650314
 21
-83.98629273710668
 31
0.0
  0
LINE
  5
9EC
330
2
100
AcDbEntity
  8
画層1
 62
     3
100
AcDbLine
 10
107.4149625650314
 20
-85.5862927371068
 30
0.0
 11
107.4149625650314
 21
-85.28629273710681
 31
0.0
  0
LINE
  5
9ED
330
2
100
AcDbEntity
  8
画層1
 62
     3
100
AcDbLine
 10
108.4149625650314
 20
-85.28629273710681
 30
0.0
 11
108.4149625650314
 21
-85.5862927371068
 31
0.0
  0
LINE
  5
9EE
330
2
100
AcDbEntity
  8
画層1
 62
     3
100
AcDbLine
 10
111.4149625650314
 20
-83.58629273710681
 30
0.0
 11
111.4149625650314
 21
-90.58629273710682
 31
0.0
  0
CIRCLE
  5
9EF
330
2
100
AcDbEntity
  8
画層1
 62
     3
100
AcDbCircle
 10
107.9149625650314
 20
-87.0862927371067
 30
0.0
 40
3.0
  0
LINE
  5
9F0
330
2
100
AcDbEntity
  8
画層1
 62
     3
100
AcDbLine
 10
109.4149625650314
 20
-86.58629273710682
 30
0.0
 11
110.8649625650313
 21
-86.58629273710682
 31
0.0
  0
LINE
  5
9F1
330
2
100
AcDbEntity
  8
画層1
 62
     3
100
AcDbLine
 10
110.8649625650313
 20
-87.58629273710681
 30
0.0
 11
109.4149625650314
 21
-87.58629273710681
 31
0.0
  0
LINE
  5
9F2
330
2
100
AcDbEntity
  8
画層1
 62
     3
100
AcDbLine
 10
109.4149625650314
 20
-95.98629273710669
 30
0.0
 11
110.8649625650313
 21
-95.98629273710669
 31
0.0
  0
LINE
  5
9F3
330
2
100
AcDbEntity
  8
画層1
 62
     3
100
AcDbLine
 10
110.8649625650313
 20
-96.98629273710668
 30
0.0
 11
109.4149625650314
 21
-96.98629273710668
 31
0.0
  0
CIRCLE
  5
9F4
330
2
100
AcDbEntity
  8
画層1
 62
     3
100
AcDbCircle
 10
107.9149625650314
 20
-96.48629273710668
 30
0.0
 40
3.0
  0
ARC
  5
9F5
330
2
100
AcDbEntity
  8
画層1
 62
     3
100
AcDbCircle
 10
109.4149625650314
 20
-85.5862927371068
 30
0.0
 40
1.0
100
AcDbArc
 50
180.0
 51
270.0
  0
LINE
  5
9F6
330
2
100
AcDbEntity
  8
画層1
 62
     3
100
AcDbLine
 10
104.9549625650314
 20
-86.58629273710682
 30
0.0
 11
106.4149625650314
 21
-86.58629273710682
 31
0.0
  0
LINE
  5
9F7
330
2
100
AcDbEntity
  8
画層1
 62
     3
100
AcDbLine
 10
106.4149625650314
 20
-87.58629273710681
 30
0.0
 11
104.9549625650314
 21
-87.58629273710681
 31
0.0
  0
ARC
  5
9F8
330
2
100
AcDbEntity
  8
画層1
 62
     3
100
AcDbCircle
 10
106.4149625650314
 20
-85.5862927371068
 30
0.0
 40
1.0
100
AcDbArc
 50
270.0
 51
0.0
  0
LINE
  5
9F9
330
2
100
AcDbEntity
  8
画層1
 62
     3
100
AcDbLine
 10
107.4149625650314
 20
-88.88629273710682
 30
0.0
 11
108.4149625650314
 21
-88.88629273710682
 31
0.0
  0
LINE
  5
9FA
330
2
100
AcDbEntity
  8
画層1
 62
     3
100
AcDbLine
 10
107.4149625650314
 20
-94.68629273710664
 30
0.0
 11
108.4149625650314
 21
-94.68629273710664
 31
0.0
  0
LINE
  5
9FB
330
2
100
AcDbEntity
  8
画層1
 62
     3
100
AcDbLine
 10
107.4149625650314
 20
-88.88629273710682
 30
0.0
 11
107.4149625650314
 21
-88.58629273710681
 31
0.0
  0
LINE
  5
9FC
330
2
100
AcDbEntity
  8
画層1
 62
     3
100
AcDbLine
 10
107.4149625650314
 20
-94.98629273710667
 30
0.0
 11
107.4149625650314
 21
-94.68629273710664
 31
0.0
  0
LINE
  5
9FD
330
2
100
AcDbEntity
  8
画層1
 62
     3
100
AcDbLine
 10
108.4149625650314
 20
-88.58629273710681
 30
0.0
 11
108.4149625650314
 21
-88.88629273710682
 31
0.0
  0
ARC
  5
9FE
330
2
100
AcDbEntity
  8
画層1
 62
     3
100
AcDbCircle
 10
109.4149625650314
 20
-94.98629273710667
 30
0.0
 40
1.0
100
AcDbArc
 50
180.0
 51
270.0
  0
LINE
  5
9FF
330
2
100
AcDbEntity
  8
画層1
 62
     3
100
AcDbLine
 10
108.4149625650314
 20
-94.68629273710664
 30
0.0
 11
108.4149625650314
 21
-94.98629273710667
 31
0.0
  0
LINE
  5
A00
330
2
100
AcDbEntity
  8
画層1
 62
     3
100
AcDbLine
 10
104.9549625650314
 20
-95.98629273710669
 30
0.0
 11
106.4149625650314
 21
-95.98629273710669
 31
0.0
  0
ARC
  5
A01
330
2
100
AcDbEntity
  8
画層1
 62
     3
100
AcDbCircle
 10
106.4149625650314
 20
-94.98629273710667
 30
0.0
 40
1.0
100
AcDbArc
 50
270.0
 51
0.0
  0
LINE
  5
A02
330
2
100
AcDbEntity
  8
画層1
 62
     3
100
AcDbLine
 10
107.4149625650314
 20
-98.28629273710681
 30
0.0
 11
108.4149625650314
 21
-98.28629273710681
 31
0.0
  0
LINE
  5
A03
330
2
100
AcDbEntity
  8
画層1
 62
     3
100
AcDbLine
 10
107.4149625650314
 20
-98.28629273710681
 30
0.0
 11
107.4149625650314
 21
-97.98629273710668
 31
0.0
  0
ARC
  5
A04
330
2
100
AcDbEntity
  8
画層1
 62
     3
100
AcDbCircle
 10
109.4149625650314
 20
-97.98629273710668
 30
0.0
 40
1.0
100
AcDbArc
 50
90.0
 51
180.0
  0
LINE
  5
A05
330
2
100
AcDbEntity
  8
画層1
 62
     3
100
AcDbLine
 10
108.4149625650314
 20
-97.98629273710668
 30
0.0
 11
108.4149625650314
 21
-98.28629273710681
 31
0.0
  0
LINE
  5
A06
330
2
100
AcDbEntity
  8
画層1
 62
     3
100
AcDbLine
 10
106.4149625650314
 20
-96.98629273710668
 30
0.0
 11
104.9549625650314
 21
-96.98629273710668
 31
0.0
  0
ARC
  5
A07
330
2
100
AcDbEntity
  8
画層1
 62
     3
100
AcDbCircle
 10
106.4149625650314
 20
-97.98629273710668
 30
0.0
 40
1.0
100
AcDbArc
 50
0.0
 51
90.0
  0
ARC
  5
A08
330
2
100
AcDbEntity
  8
画層1
 62
     3
100
AcDbCircle
 10
109.4149625650314
 20
-88.58629273710681
 30
0.0
 40
1.0
100
AcDbArc
 50
90.0
 51
180.0
  0
ARC
  5
A09
330
2
100
AcDbEntity
  8
画層1
 62
     3
100
AcDbCircle
 10
106.4149625650314
 20
-88.58629273710681
 30
0.0
 40
1.0
100
AcDbArc
 50
0.0
 51
90.0
  0
LINE
  5
A0A
330
2
100
AcDbEntity
  8
画層1
 62
     3
100
AcDbLine
 10
109.4149625650314
 20
-77.18629273710668
 30
0.0
 11
110.8649625650313
 21
-77.18629273710668
 31
0.0
  0
LINE
  5
A0B
330
2
100
AcDbEntity
  8
画層1
 62
     3
100
AcDbLine
 10
110.8649625650313
 20
-78.18629273710668
 30
0.0
 11
109.4149625650314
 21
-78.18629273710668
 31
0.0
  0
CIRCLE
  5
A0C
330
2
100
AcDbEntity
  8
画層1
 62
     3
100
AcDbCircle
 10
107.9149625650314
 20
-77.68629273710669
 30
0.0
 40
3.0
  0
LINE
  5
A0D
330
2
100
AcDbEntity
  8
画層1
 62
     3
100
AcDbLine
 10
107.4149625650314
 20
-75.88629273710683
 30
0.0
 11
108.4149625650314
 21
-75.88629273710683
 31
0.0
  0
LINE
  5
A0E
330
2
100
AcDbEntity
  8
画層1
 62
     3
100
AcDbLine
 10
107.4149625650314
 20
-79.48629273710668
 30
0.0
 11
108.4149625650314
 21
-79.48629273710668
 31
0.0
  0
LINE
  5
A0F
330
2
100
AcDbEntity
  8
画層1
 62
     3
100
AcDbLine
 10
107.4149625650314
 20
-76.18629273710666
 30
0.0
 11
107.4149625650314
 21
-75.88629273710683
 31
0.0
  0
LINE
  5
A10
330
2
100
AcDbEntity
  8
画層1
 62
     3
100
AcDbLine
 10
107.4149625650314
 20
-79.48629273710668
 30
0.0
 11
107.4149625650314
 21
-79.18629273710668
 31
0.0
  0
LINE
  5
A11
330
2
100
AcDbEntity
  8
画層1
 62
     3
100
AcDbLine
 10
108.4149625650314
 20
-75.88629273710683
 30
0.0
 11
108.4149625650314
 21
-76.18629273710666
 31
0.0
  0
ARC
  5
A12
330
2
100
AcDbEntity
  8
画層1
 62
     3
100
AcDbCircle
 10
109.4149625650314
 20
-79.18629273710668
 30
0.0
 40
1.0
100
AcDbArc
 50
90.0
 51
180.0
  0
LINE
  5
A13
330
2
100
AcDbEntity
  8
画層1
 62
     3
100
AcDbLine
 10
108.4149625650314
 20
-79.18629273710668
 30
0.0
 11
108.4149625650314
 21
-79.48629273710668
 31
0.0
  0
ARC
  5
A14
330
2
100
AcDbEntity
  8
画層1
 62
     3
100
AcDbCircle
 10
109.4149625650314
 20
-76.18629273710666
 30
0.0
 40
1.0
100
AcDbArc
 50
180.0
 51
270.0
  0
LINE
  5
A15
330
2
100
AcDbEntity
  8
画層1
 62
     3
100
AcDbLine
 10
104.9549625650314
 20
-77.18629273710668
 30
0.0
 11
106.4149625650314
 21
-77.18629273710668
 31
0.0
  0
LINE
  5
A16
330
2
100
AcDbEntity
  8
画層1
 62
     3
100
AcDbLine
 10
106.4149625650314
 20
-78.18629273710668
 30
0.0
 11
104.9549625650314
 21
-78.18629273710668
 31
0.0
  0
ARC
  5
A17
330
2
100
AcDbEntity
  8
画層1
 62
     3
100
AcDbCircle
 10
106.4149625650314
 20
-79.18629273710668
 30
0.0
 40
1.0
100
AcDbArc
 50
0.0
 51
90.0
  0
ARC
  5
A18
330
2
100
AcDbEntity
  8
画層1
 62
     3
100
AcDbCircle
 10
106.4149625650314
 20
-76.18629273710666
 30
0.0
 40
1.0
100
AcDbArc
 50
270.0
 51
0.0
  0
LINE
  5
A19
330
2
100
AcDbEntity
  8
画層1
 62
     3
100
AcDbLine
 10
107.4149625650314
 20
-85.28629273710681
 30
0.0
 11
108.4149625650314
 21
-85.28629273710681
 31
0.0
  0
LINE
  5
A1A
330
2
100
AcDbEntity
  8
画層1
 62
     3
100
AcDbLine
 10
111.4149625650314
 20
-74.18629273710668
 30
0.0
 11
111.4149625650314
 21
-81.18629273710665
 31
0.0
  0
LINE
  5
A1B
330
2
100
AcDbEntity
  8
画層1
 62
     3
100
AcDbLine
 10
111.4149625650314
 20
-62.38629273710682
 30
0.0
 11
104.4149625650314
 21
-62.38629273710682
 31
0.0
  0
LINE
  5
A1C
330
2
100
AcDbEntity
  8
画層1
 62
     3
100
AcDbLine
 10
102.5149625650314
 20
-62.88629273710682
 30
0.0
 11
111.9149625650314
 21
-62.88629273710682
 31
0.0
  0
LINE
  5
A1D
330
2
100
AcDbEntity
  8
画層1
 62
     3
100
AcDbLine
 10
104.4149625650314
 20
-64.7862927371068
 30
0.0
 11
111.4149625650314
 21
-64.7862927371068
 31
0.0
  0
LINE
  5
A1E
330
2
100
AcDbEntity
  8
画層1
 62
     3
100
AcDbLine
 10
102.5149625650314
 20
-64.2862927371068
 30
0.0
 11
111.9149625650314
 21
-64.2862927371068
 31
0.0
  0
LINE
  5
A1F
330
2
100
AcDbEntity
  8
画層1
 62
     3
100
AcDbLine
 10
104.4149625650314
 20
-62.38629273710682
 30
0.0
 11
104.4149625650314
 21
-55.38629273710682
 31
0.0
  0
CIRCLE
  5
A20
330
2
100
AcDbEntity
  8
画層1
 62
     3
100
AcDbCircle
 10
98.51496256503141
 20
-55.28629273710668
 30
0.0
 40
3.0
  0
LINE
  5
A21
330
2
100
AcDbEntity
  8
画層1
 62
     3
100
AcDbLine
 10
95.01496256503138
 20
-58.7862927371068
 30
0.0
 11
95.01496256503138
 21
-51.78629273710679
 31
0.0
  0
LINE
  5
A22
330
2
100
AcDbEntity
  8
画層1
 62
     3
100
AcDbLine
 10
102.0149625650314
 20
-51.78629273710679
 30
0.0
 11
102.0149625650314
 21
-58.7862927371068
 31
0.0
  0
LINE
  5
A23
330
2
100
AcDbEntity
  8
画層1
 62
     3
100
AcDbLine
 10
102.0149625650314
 20
-58.7862927371068
 30
0.0
 11
95.01496256503138
 21
-58.7862927371068
 31
0.0
  0
LINE
  5
A24
330
2
100
AcDbEntity
  8
画層1
 62
     3
100
AcDbLine
 10
95.01496256503138
 20
-61.18629273710666
 30
0.0
 11
102.0149625650314
 21
-61.18629273710666
 31
0.0
  0
ARC
  5
A25
330
2
100
AcDbEntity
  8
画層1
 62
     3
100
AcDbCircle
 10
100.0149625650314
 20
-63.18629273710667
 30
0.0
 40
1.0
100
AcDbArc
 50
180.0
 51
270.0
  0
ARC
  5
A26
330
2
100
AcDbEntity
  8
画層1
 62
     3
100
AcDbCircle
 10
100.0149625650314
 20
-66.18629273710666
 30
0.0
 40
1.0
100
AcDbArc
 50
90.0
 51
180.0
  0
LINE
  5
A27
330
2
100
AcDbEntity
  8
画層1
 62
     3
100
AcDbLine
 10
102.0149625650314
 20
-68.18629273710668
 30
0.0
 11
95.01496256503138
 21
-68.18629273710668
 31
0.0
  0
LINE
  5
A28
330
2
100
AcDbEntity
  8
画層1
 62
     3
100
AcDbLine
 10
95.01496256503138
 20
-70.5862927371067
 30
0.0
 11
102.0149625650314
 21
-70.5862927371067
 31
0.0
  0
CIRCLE
  5
A29
330
2
100
AcDbEntity
  8
画層1
 62
     3
100
AcDbCircle
 10
98.51496256503141
 20
-64.68629273710668
 30
0.0
 40
3.0
  0
LINE
  5
A2A
330
2
100
AcDbEntity
  8
画層1
 62
     3
100
AcDbLine
 10
98.01496256503149
 20
-62.88629273710682
 30
0.0
 11
99.01496256503151
 21
-62.88629273710682
 31
0.0
  0
LINE
  5
A2B
330
2
100
AcDbEntity
  8
画層1
 62
     3
100
AcDbLine
 10
98.01496256503149
 20
-66.48629273710668
 30
0.0
 11
98.01496256503149
 21
-66.18629273710666
 31
0.0
  0
LINE
  5
A2C
330
2
100
AcDbEntity
  8
画層1
 62
     3
100
AcDbLine
 10
99.01496256503151
 20
-66.18629273710666
 30
0.0
 11
99.01496256503151
 21
-66.48629273710668
 31
0.0
  0
LINE
  5
A2D
330
2
100
AcDbEntity
  8
画層1
 62
     3
100
AcDbLine
 10
98.01496256503149
 20
-66.48629273710668
 30
0.0
 11
99.01496256503151
 21
-66.48629273710668
 31
0.0
  0
LINE
  5
A2E
330
2
100
AcDbEntity
  8
画層1
 62
     3
100
AcDbLine
 10
97.01496256503141
 20
-65.18629273710669
 30
0.0
 11
95.55496256503149
 21
-65.18629273710669
 31
0.0
  0
LINE
  5
A2F
330
2
100
AcDbEntity
  8
画層1
 62
     3
100
AcDbLine
 10
95.55496256503149
 20
-64.18629273710668
 30
0.0
 11
97.01496256503141
 21
-64.18629273710668
 31
0.0
  0
ARC
  5
A30
330
2
100
AcDbEntity
  8
画層1
 62
     3
100
AcDbCircle
 10
97.01496256503141
 20
-63.18629273710667
 30
0.0
 40
1.0
100
AcDbArc
 50
270.0
 51
0.0
  0
ARC
  5
A31
330
2
100
AcDbEntity
  8
画層1
 62
     3
100
AcDbCircle
 10
97.01496256503141
 20
-66.18629273710666
 30
0.0
 40
1.0
100
AcDbArc
 50
0.0
 51
90.0
  0
LINE
  5
A32
330
2
100
AcDbEntity
  8
画層1
 62
     3
100
AcDbLine
 10
99.01496256503151
 20
-62.88629273710682
 30
0.0
 11
99.01496256503151
 21
-63.18629273710667
 31
0.0
  0
LINE
  5
A33
330
2
100
AcDbEntity
  8
画層1
 62
     3
100
AcDbLine
 10
98.01496256503149
 20
-63.18629273710667
 30
0.0
 11
98.01496256503149
 21
-62.88629273710682
 31
0.0
  0
LINE
  5
A34
330
2
100
AcDbEntity
  8
画層1
 62
     3
100
AcDbLine
 10
95.01496256503138
 20
-68.18629273710668
 30
0.0
 11
95.01496256503138
 21
-61.18629273710666
 31
0.0
  0
LINE
  5
A35
330
2
100
AcDbEntity
  8
画層1
 62
     3
100
AcDbLine
 10
101.4649625650313
 20
-65.18629273710669
 30
0.0
 11
100.0149625650314
 21
-65.18629273710669
 31
0.0
  0
LINE
  5
A36
330
2
100
AcDbEntity
  8
画層1
 62
     3
100
AcDbLine
 10
100.0149625650314
 20
-64.18629273710668
 30
0.0
 11
101.4649625650313
 21
-64.18629273710668
 31
0.0
  0
LINE
  5
A37
330
2
100
AcDbEntity
  8
画層1
 62
     3
100
AcDbLine
 10
102.0149625650314
 20
-61.18629273710666
 30
0.0
 11
102.0149625650314
 21
-68.18629273710668
 31
0.0
  0
LINE
  5
A38
330
2
100
AcDbEntity
  8
画層1
 62
     3
100
AcDbLine
 10
111.4149625650314
 20
-55.38629273710682
 30
0.0
 11
111.4149625650314
 21
-62.38629273710682
 31
0.0
  0
CIRCLE
  5
A39
330
2
100
AcDbEntity
  8
画層1
 62
     3
100
AcDbCircle
 10
107.9149625650314
 20
-58.88629273710683
 30
0.0
 40
3.0
  0
LINE
  5
A3A
330
2
100
AcDbEntity
  8
画層1
 62
     3
100
AcDbLine
 10
109.4149625650314
 20
-58.38629273710683
 30
0.0
 11
110.8649625650313
 21
-58.38629273710683
 31
0.0
  0
LINE
  5
A3B
330
2
100
AcDbEntity
  8
画層1
 62
     3
100
AcDbLine
 10
110.8649625650313
 20
-59.38629273710683
 30
0.0
 11
109.4149625650314
 21
-59.38629273710683
 31
0.0
  0
LINE
  5
A3C
330
2
100
AcDbEntity
  8
画層1
 62
     3
100
AcDbLine
 10
109.4149625650314
 20
-67.78629273710669
 30
0.0
 11
110.8649625650313
 21
-67.78629273710669
 31
0.0
  0
LINE
  5
A3D
330
2
100
AcDbEntity
  8
画層1
 62
     3
100
AcDbLine
 10
110.8649625650313
 20
-68.7862927371068
 30
0.0
 11
109.4149625650314
 21
-68.7862927371068
 31
0.0
  0
LINE
  5
A3E
330
2
100
AcDbEntity
  8
画層1
 62
     3
100
AcDbLine
 10
107.4149625650314
 20
-60.68629273710667
 30
0.0
 11
108.4149625650314
 21
-60.68629273710667
 31
0.0
  0
LINE
  5
A3F
330
2
100
AcDbEntity
  8
画層1
 62
     3
100
AcDbLine
 10
107.4149625650314
 20
-60.68629273710667
 30
0.0
 11
107.4149625650314
 21
-60.38629273710682
 31
0.0
  0
ARC
  5
A40
330
2
100
AcDbEntity
  8
画層1
 62
     3
100
AcDbCircle
 10
109.4149625650314
 20
-57.38629273710682
 30
0.0
 40
1.0
100
AcDbArc
 50
180.0
 51
270.0
  0
LINE
  5
A41
330
2
100
AcDbEntity
  8
画層1
 62
     3
100
AcDbLine
 10
108.4149625650314
 20
-60.38629273710682
 30
0.0
 11
108.4149625650314
 21
-60.68629273710667
 31
0.0
  0
ARC
  5
A42
330
2
100
AcDbEntity
  8
画層1
 62
     3
100
AcDbCircle
 10
109.4149625650314
 20
-60.38629273710682
 30
0.0
 40
1.0
100
AcDbArc
 50
90.0
 51
180.0
  0
LINE
  5
A43
330
2
100
AcDbEntity
  8
画層1
 62
     3
100
AcDbLine
 10
104.9549625650314
 20
-58.38629273710683
 30
0.0
 11
106.4149625650314
 21
-58.38629273710683
 31
0.0
  0
LINE
  5
A44
330
2
100
AcDbEntity
  8
画層1
 62
     3
100
AcDbLine
 10
106.4149625650314
 20
-59.38629273710683
 30
0.0
 11
104.9549625650314
 21
-59.38629273710683
 31
0.0
  0
ARC
  5
A45
330
2
100
AcDbEntity
  8
画層1
 62
     3
100
AcDbCircle
 10
106.4149625650314
 20
-57.38629273710682
 30
0.0
 40
1.0
100
AcDbArc
 50
270.0
 51
0.0
  0
ARC
  5
A46
330
2
100
AcDbEntity
  8
画層1
 62
     3
100
AcDbCircle
 10
106.4149625650314
 20
-60.38629273710682
 30
0.0
 40
1.0
100
AcDbArc
 50
0.0
 51
90.0
  0
LINE
  5
A47
330
2
100
AcDbEntity
  8
画層1
 62
     3
100
AcDbLine
 10
107.4149625650314
 20
-66.48629273710668
 30
0.0
 11
108.4149625650314
 21
-66.48629273710668
 31
0.0
  0
LINE
  5
A48
330
2
100
AcDbEntity
  8
画層1
 62
     3
100
AcDbLine
 10
107.4149625650314
 20
-70.08629273710671
 30
0.0
 11
108.4149625650314
 21
-70.08629273710671
 31
0.0
  0
LINE
  5
A49
330
2
100
AcDbEntity
  8
画層1
 62
     3
100
AcDbLine
 10
107.4149625650314
 20
-66.7862927371068
 30
0.0
 11
107.4149625650314
 21
-66.48629273710668
 31
0.0
  0
LINE
  5
A4A
330
2
100
AcDbEntity
  8
画層1
 62
     3
100
AcDbLine
 10
107.4149625650314
 20
-70.08629273710671
 30
0.0
 11
107.4149625650314
 21
-69.78629273710669
 31
0.0
  0
ARC
  5
A4B
330
2
100
AcDbEntity
  8
画層1
 62
     3
100
AcDbCircle
 10
109.4149625650314
 20
-66.7862927371068
 30
0.0
 40
1.0
100
AcDbArc
 50
180.0
 51
270.0
  0
LINE
  5
A4C
330
2
100
AcDbEntity
  8
画層1
 62
     3
100
AcDbLine
 10
108.4149625650314
 20
-66.48629273710668
 30
0.0
 11
108.4149625650314
 21
-66.7862927371068
 31
0.0
  0
ARC
  5
A4D
330
2
100
AcDbEntity
  8
画層1
 62
     3
100
AcDbCircle
 10
109.4149625650314
 20
-69.78629273710669
 30
0.0
 40
1.0
100
AcDbArc
 50
90.0
 51
180.0
  0
LINE
  5
A4E
330
2
100
AcDbEntity
  8
画層1
 62
     3
100
AcDbLine
 10
108.4149625650314
 20
-69.78629273710669
 30
0.0
 11
108.4149625650314
 21
-70.08629273710671
 31
0.0
  0
LINE
  5
A4F
330
2
100
AcDbEntity
  8
画層1
 62
     3
100
AcDbLine
 10
104.9549625650314
 20
-67.78629273710669
 30
0.0
 11
106.4149625650314
 21
-67.78629273710669
 31
0.0
  0
LINE
  5
A50
330
2
100
AcDbEntity
  8
画層1
 62
     3
100
AcDbLine
 10
106.4149625650314
 20
-68.7862927371068
 30
0.0
 11
104.9549625650314
 21
-68.7862927371068
 31
0.0
  0
ARC
  5
A51
330
2
100
AcDbEntity
  8
画層1
 62
     3
100
AcDbCircle
 10
106.4149625650314
 20
-66.7862927371068
 30
0.0
 40
1.0
100
AcDbArc
 50
270.0
 51
0.0
  0
ARC
  5
A52
330
2
100
AcDbEntity
  8
画層1
 62
     3
100
AcDbCircle
 10
106.4149625650314
 20
-69.78629273710669
 30
0.0
 40
1.0
100
AcDbArc
 50
0.0
 51
90.0
  0
LINE
  5
A53
330
2
100
AcDbEntity
  8
画層1
 62
     3
100
AcDbLine
 10
102.5149625650314
 20
-43.48629273710667
 30
0.0
 11
102.5149625650314
 21
-136.4862927371065
 31
0.0
  0
LINE
  5
A54
330
2
100
AcDbEntity
  8
画層1
 62
     3
100
AcDbLine
 10
93.11496256503149
 20
-43.48629273710667
 30
0.0
 11
93.11496256503149
 21
-136.4862927371065
 31
0.0
  0
LINE
  5
A55
330
2
100
AcDbEntity
  8
画層1
 62
     3
100
AcDbLine
 10
102.5149625650314
 20
-45.48629273710667
 30
0.0
 11
111.9149625650314
 21
-45.48629273710667
 31
0.0
  0
LINE
  5
A56
330
2
100
AcDbEntity
  8
画層1
 62
     3
100
AcDbLine
 10
104.4149625650314
 20
-45.98629273710667
 30
0.0
 11
111.4149625650314
 21
-45.98629273710667
 31
0.0
  0
LINE
  5
A57
330
2
100
AcDbEntity
  8
画層1
 62
     3
100
AcDbLine
 10
102.5149625650314
 20
-53.48629273710667
 30
0.0
 11
111.9149625650314
 21
-53.48629273710667
 31
0.0
  0
LINE
  5
A58
330
2
100
AcDbEntity
  8
画層1
 62
     3
100
AcDbLine
 10
111.4149625650314
 20
-52.98629273710667
 30
0.0
 11
104.4149625650314
 21
-52.98629273710667
 31
0.0
  0
LINE
  5
A59
330
2
100
AcDbEntity
  8
画層1
 62
     3
100
AcDbLine
 10
104.4149625650314
 20
-55.38629273710682
 30
0.0
 11
111.4149625650314
 21
-55.38629273710682
 31
0.0
  0
LINE
  5
A5A
330
2
100
AcDbEntity
  8
画層1
 62
     3
100
AcDbLine
 10
102.5149625650314
 20
-54.88629273710682
 30
0.0
 11
111.9149625650314
 21
-54.88629273710682
 31
0.0
  0
LINE
  5
A5B
330
2
100
AcDbEntity
  8
画層1
 62
     3
100
AcDbLine
 10
104.4149625650314
 20
-52.98629273710667
 30
0.0
 11
104.4149625650314
 21
-45.98629273710667
 31
0.0
  0
LINE
  5
A5C
330
2
100
AcDbEntity
  8
画層1
 62
     3
100
AcDbLine
 10
107.4149625650314
 20
-57.0862927371068
 30
0.0
 11
108.4149625650314
 21
-57.0862927371068
 31
0.0
  0
LINE
  5
A5D
330
2
100
AcDbEntity
  8
画層1
 62
     3
100
AcDbLine
 10
107.4149625650314
 20
-57.38629273710682
 30
0.0
 11
107.4149625650314
 21
-57.0862927371068
 31
0.0
  0
LINE
  5
A5E
330
2
100
AcDbEntity
  8
画層1
 62
     3
100
AcDbLine
 10
108.4149625650314
 20
-57.0862927371068
 30
0.0
 11
108.4149625650314
 21
-57.38629273710682
 31
0.0
  0
LINE
  5
A5F
330
2
100
AcDbEntity
  8
画層1
 62
     3
100
AcDbLine
 10
110.8649625650313
 20
-49.98629273710667
 30
0.0
 11
109.4149625650314
 21
-49.98629273710667
 31
0.0
  0
LINE
  5
A60
330
2
100
AcDbEntity
  8
画層1
 62
     3
100
AcDbLine
 10
109.4149625650314
 20
-48.98629273710668
 30
0.0
 11
110.8649625650313
 21
-48.98629273710668
 31
0.0
  0
CIRCLE
  5
A61
330
2
100
AcDbEntity
  8
画層1
 62
     3
100
AcDbCircle
 10
107.9149625650314
 20
-49.48629273710679
 30
0.0
 40
3.0
  0
LINE
  5
A62
330
2
100
AcDbEntity
  8
画層1
 62
     3
100
AcDbLine
 10
107.4149625650314
 20
-47.68629273710668
 30
0.0
 11
108.4149625650314
 21
-47.68629273710668
 31
0.0
  0
LINE
  5
A63
330
2
100
AcDbEntity
  8
画層1
 62
     3
100
AcDbLine
 10
107.4149625650314
 20
-51.28629273710668
 30
0.0
 11
108.4149625650314
 21
-51.28629273710668
 31
0.0
  0
LINE
  5
A64
330
2
100
AcDbEntity
  8
画層1
 62
     3
100
AcDbLine
 10
107.4149625650314
 20
-47.98629273710667
 30
0.0
 11
107.4149625650314
 21
-47.68629273710668
 31
0.0
  0
LINE
  5
A65
330
2
100
AcDbEntity
  8
画層1
 62
     3
100
AcDbLine
 10
107.4149625650314
 20
-51.28629273710668
 30
0.0
 11
107.4149625650314
 21
-50.98629273710667
 31
0.0
  0
LINE
  5
A66
330
2
100
AcDbEntity
  8
画層1
 62
     3
100
AcDbLine
 10
108.4149625650314
 20
-47.68629273710668
 30
0.0
 11
108.4149625650314
 21
-47.98629273710667
 31
0.0
  0
ARC
  5
A67
330
2
100
AcDbEntity
  8
画層1
 62
     3
100
AcDbCircle
 10
109.4149625650314
 20
-50.98629273710667
 30
0.0
 40
1.0
100
AcDbArc
 50
90.0
 51
180.0
  0
LINE
  5
A68
330
2
100
AcDbEntity
  8
画層1
 62
     3
100
AcDbLine
 10
108.4149625650314
 20
-50.98629273710667
 30
0.0
 11
108.4149625650314
 21
-51.28629273710668
 31
0.0
  0
ARC
  5
A69
330
2
100
AcDbEntity
  8
画層1
 62
     3
100
AcDbCircle
 10
109.4149625650314
 20
-47.98629273710667
 30
0.0
 40
1.0
100
AcDbArc
 50
180.0
 51
270.0
  0
LINE
  5
A6A
330
2
100
AcDbEntity
  8
画層1
 62
     3
100
AcDbLine
 10
106.4149625650314
 20
-49.98629273710667
 30
0.0
 11
104.9549625650314
 21
-49.98629273710667
 31
0.0
  0
LINE
  5
A6B
330
2
100
AcDbEntity
  8
画層1
 62
     3
100
AcDbLine
 10
104.9549625650314
 20
-48.98629273710668
 30
0.0
 11
106.4149625650314
 21
-48.98629273710668
 31
0.0
  0
ARC
  5
A6C
330
2
100
AcDbEntity
  8
画層1
 62
     3
100
AcDbCircle
 10
106.4149625650314
 20
-50.98629273710667
 30
0.0
 40
1.0
100
AcDbArc
 50
0.0
 51
90.0
  0
ARC
  5
A6D
330
2
100
AcDbEntity
  8
画層1
 62
     3
100
AcDbCircle
 10
106.4149625650314
 20
-47.98629273710667
 30
0.0
 40
1.0
100
AcDbArc
 50
270.0
 51
0.0
  0
LINE
  5
A6E
330
2
100
AcDbEntity
  8
画層1
 62
     3
100
AcDbLine
 10
111.4149625650314
 20
-45.98629273710667
 30
0.0
 11
111.4149625650314
 21
-52.98629273710667
 31
0.0
  0
LINE
  5
A6F
330
2
100
AcDbEntity
  8
画層1
 62
     3
100
AcDbLine
 10
93.11496256503149
 20
-51.28629273710668
 30
0.0
 11
102.5149625650314
 21
-51.28629273710668
 31
0.0
  0
LINE
  5
A70
330
2
100
AcDbEntity
  8
画層1
 62
     3
100
AcDbLine
 10
99.01496256503151
 20
-56.78629273710669
 30
0.0
 11
99.01496256503151
 21
-57.0862927371068
 31
0.0
  0
LINE
  5
A71
330
2
100
AcDbEntity
  8
画層1
 62
     3
100
AcDbLine
 10
98.01496256503149
 20
-57.0862927371068
 30
0.0
 11
98.01496256503149
 21
-56.78629273710669
 31
0.0
  0
LINE
  5
A72
330
2
100
AcDbEntity
  8
画層1
 62
     3
100
AcDbLine
 10
98.01496256503149
 20
-57.0862927371068
 30
0.0
 11
99.01496256503151
 21
-57.0862927371068
 31
0.0
  0
LINE
  5
A73
330
2
100
AcDbEntity
  8
画層1
 62
     3
100
AcDbLine
 10
95.01496256503138
 20
-51.78629273710679
 30
0.0
 11
102.0149625650314
 21
-51.78629273710679
 31
0.0
  0
ARC
  5
A74
330
2
100
AcDbEntity
  8
画層1
 62
     3
100
AcDbCircle
 10
100.0149625650314
 20
-56.78629273710669
 30
0.0
 40
1.0
100
AcDbArc
 50
90.0
 51
180.0
  0
ARC
  5
A75
330
2
100
AcDbEntity
  8
画層1
 62
     3
100
AcDbCircle
 10
100.0149625650314
 20
-53.78629273710668
 30
0.0
 40
1.0
100
AcDbArc
 50
180.0
 51
270.0
  0
LINE
  5
A76
330
2
100
AcDbEntity
  8
画層1
 62
     3
100
AcDbLine
 10
98.01496256503149
 20
-53.48629273710667
 30
0.0
 11
99.01496256503151
 21
-53.48629273710667
 31
0.0
  0
LINE
  5
A77
330
2
100
AcDbEntity
  8
画層1
 62
     3
100
AcDbLine
 10
98.01496256503149
 20
-53.78629273710668
 30
0.0
 11
98.01496256503149
 21
-53.48629273710667
 31
0.0
  0
LINE
  5
A78
330
2
100
AcDbEntity
  8
画層1
 62
     3
100
AcDbLine
 10
99.01496256503151
 20
-53.48629273710667
 30
0.0
 11
99.01496256503151
 21
-53.78629273710668
 31
0.0
  0
LINE
  5
A79
330
2
100
AcDbEntity
  8
画層1
 62
     3
100
AcDbLine
 10
95.55496256503149
 20
-54.78629273710668
 30
0.0
 11
97.01496256503141
 21
-54.78629273710668
 31
0.0
  0
LINE
  5
A7A
330
2
100
AcDbEntity
  8
画層1
 62
     3
100
AcDbLine
 10
97.01496256503141
 20
-55.78629273710668
 30
0.0
 11
95.55496256503149
 21
-55.78629273710668
 31
0.0
  0
ARC
  5
A7B
330
2
100
AcDbEntity
  8
画層1
 62
     3
100
AcDbCircle
 10
97.01496256503141
 20
-56.78629273710669
 30
0.0
 40
1.0
100
AcDbArc
 50
0.0
 51
90.0
  0
ARC
  5
A7C
330
2
100
AcDbEntity
  8
画層1
 62
     3
100
AcDbCircle
 10
97.01496256503141
 20
-53.78629273710668
 30
0.0
 40
1.0
100
AcDbArc
 50
270.0
 51
0.0
  0
LINE
  5
A7D
330
2
100
AcDbEntity
  8
画層1
 62
     3
100
AcDbLine
 10
100.0149625650314
 20
-54.78629273710668
 30
0.0
 11
101.4649625650313
 21
-54.78629273710668
 31
0.0
  0
LINE
  5
A7E
330
2
100
AcDbEntity
  8
画層1
 62
     3
100
AcDbLine
 10
101.4649625650313
 20
-55.78629273710668
 30
0.0
 11
100.0149625650314
 21
-55.78629273710668
 31
0.0
  0
DIMENSION
  5
A7F
330
2
100
AcDbEntity
  8
画層1
 62
     1
100
AcDbDimension
  2
*D3
 10
73.91496256503143
 20
-51.28629273710668
 30
0.0
 11
72.03496256503145
 21
-55.28629273710667
 31
0.0
 70
    32
 71
     5
 42
8.0
  3
STANDARD_WS
100
AcDbAlignedDimension
 13
93.11496256503149
 23
-59.28629273710669
 33
0.0
 14
93.11496256503149
 24
-51.28629273710668
 34
0.0
 50
90.0
100
AcDbRotatedDimension
1001
ACAD
1000
DSTYLE
1002
{
1070
    47
1040
0.6
1070
   144
1040
1.0
1070
   146
1040
0.5
1070
   173
1070
     0
1070
   284
1070
     8
1070
   340
1005
27
1070
   341
1005
28
1070
     5
1000
OPEN30
1070
     6
1000
OPEN30
1002
}
  0
LEADER
  5
A80
330
2
100
AcDbEntity
  8
画層1
 62
     1
100
AcDbLeader
  3
STANDARD_WS
 73
     0
 75
     1
 40
2.5
 41
10.86294416243654
 76
     3
 10
96.83850022331901
 20
-53.94674958206678
 30
0.0
 10
70.10446958710126
 20
-2.486292737106906
 30
0.0
 10
68.60446958710126
 20
-2.486292737106906
 30
0.0
340
A81
213
-1.0
223
0.4207616165015227
233
0.0
1001
ACAD
1000
DSTYLE
1002
{
1070
     6
1000
DOTSMALL
1070
    47
1040
0.6
1070
    77
1070
     2
1070
   144
1040
2.0
1070
   146
1040
0.5
1070
   147
1040
0.63
1070
   284
1070
     8
1070
   340
1005
27
1070
   341
1005
121
1070
   343
1005
121
1002
}
  0
MTEXT
  5
A81
102
{ACAD_REACTORS
330
A80
102
}
330
2
100
AcDbEntity
  8
画層1
 62
     1
100
AcDbMText
 10
68.97446958710128
 20
-2.27705435360843
 30
0.0
 40
2.5
 41
0.0
 71
     9
 72
     1
  1
18-M3.5
  7
STYLE1
 73
     1
 44
1.0
  0
LINE
  5
A97
330
2
100
AcDbEntity
  8
画層1
 62
     3
100
AcDbLine
 10
88.11496256503145
 20
-136.4862927371067
 30
0.0
 11
88.11496256503145
 21
-43.48629273710679
 31
0.0
  0
LINE
  5
A99
330
2
100
AcDbEntity
  8
画層1
 62
     3
100
AcDbLine
 10
87.31496256503147
 20
-136.4862927371067
 30
0.0
 11
87.31496256503147
 21
-43.48629273710679
 31
0.0
  0
LINE
  5
AA7
330
2
100
AcDbEntity
  8
画層1
 62
     3
100
AcDbLine
 10
214.5149625650314
 20
-12.9862927371069
 30
0.0
 11
214.5149625650314
 21
-2.486292737106906
 31
0.0
  0
LINE
  5
AA8
330
2
100
AcDbEntity
  8
画層1
 62
     3
100
AcDbLine
 10
214.9149625650315
 20
-12.9862927371069
 30
0.0
 11
214.9149625650315
 21
-290.9862927371067
 31
0.0
  0
LINE
  5
AA9
330
2
100
AcDbEntity
  8
画層1
 62
     3
100
AcDbLine
 10
214.5149625650314
 20
-290.9862927371067
 30
0.0
 11
214.5149625650314
 21
-302.4862927371068
 31
0.0
  0
LINE
  5
AD4
330
2
100
AcDbEntity
  8
画層1
 62
     3
100
AcDbLine
 10
388.9149625650316
 20
-2.486292737106906
 30
0.0
 11
388.9149625650314
 21
-302.4862927371068
 31
0.0
  0
LINE
  5
AD5
330
2
100
AcDbEntity
  8
画層1
 62
     3
100
AcDbLine
 10
366.9149625650313
 20
-302.4862927371068
 30
0.0
 11
609.9149625650317
 21
-302.4862927371068
 31
0.0
  0
LINE
  5
AD6
330
2
100
AcDbEntity
  8
画層1
 62
     3
100
AcDbLine
 10
609.9149625650317
 20
-302.4862927371068
 30
0.0
 11
609.9149625650317
 21
-2.486292737106906
 31
0.0
  0
LINE
  5
AD7
330
2
100
AcDbEntity
  8
画層1
 62
     3
100
AcDbLine
 10
609.9149625650317
 20
-2.486292737106906
 30
0.0
 11
366.9149625650315
 21
-2.486292737106904
 31
0.0
  0
LINE
  5
AD8
330
2
100
AcDbEntity
  8
画層1
  6
DASHED2
 62
     2
100
AcDbLine
 10
359.4149625650316
 20
-92.98629273710691
 30
0.0
 11
359.4149625650316
 21
-99.9862927371069
 31
0.0
  0
LINE
  5
AD9
330
2
100
AcDbEntity
  8
画層1
  6
DASHED2
 62
     2
100
AcDbLine
 10
361.4149625650316
 20
-92.4862927371069
 30
0.0
 11
361.4149625650316
 21
-100.4862927371069
 31
0.0
  0
ARC
  5
ADA
330
2
100
AcDbEntity
  8
画層1
  6
DASHED2
 62
     2
100
AcDbCircle
 10
357.0149625650313
 20
-97.88629273710704
 30
0.0
 40
1.6
100
AcDbArc
 50
180.0
 51
270.0
  0
ARC
  5
ADB
330
2
100
AcDbEntity
  8
画層1
  6
DASHED2
 62
     2
100
AcDbCircle
 10
368.0149625650313
 20
-100.8862927371069
 30
0.0
 40
1.6
100
AcDbArc
 50
90.0
 51
180.0
  0
LINE
  5
ADC
330
2
100
AcDbEntity
  8
画層1
  6
DASHED2
 62
     2
100
AcDbLine
 10
369.6149625650316
 20
-99.28629273710692
 30
0.0
 11
369.6149625650316
 21
-105.2862927371069
 31
0.0
  0
LINE
  5
ADD
330
2
100
AcDbEntity
  8
画層1
  6
DASHED2
 62
     2
100
AcDbLine
 10
372.4149625650313
 20
-98.28629273710705
 30
0.0
 11
372.4149625650313
 21
-106.2862927371069
 31
0.0
  0
LINE
  5
ADE
330
2
100
AcDbEntity
  8
画層1
  6
DASHED2
 62
     2
100
AcDbLine
 10
370.4149625650313
 20
-98.78629273710693
 30
0.0
 11
370.4149625650313
 21
-105.7862927371069
 31
0.0
  0
LINE
  5
ADF
330
2
100
AcDbEntity
  8
画層1
  6
DASHED2
 62
     2
100
AcDbLine
 10
378.4149625650313
 20
-43.48629273710691
 30
0.0
 11
378.4149625650313
 21
-136.4862927371069
 31
0.0
  0
LINE
  5
AE2
330
2
100
AcDbEntity
  8
画層1
  6
DASHED2
 62
     2
100
AcDbLine
 10
378.4149625650313
 20
-136.4862927371069
 30
0.0
 11
352.4149625650315
 21
-136.4862927371069
 31
0.0
  0
LINE
  5
AE3
330
2
100
AcDbEntity
  8
画層1
  6
DASHED2
 62
     2
100
AcDbLine
 10
361.4149625650316
 20
-100.4862927371069
 30
0.0
 11
352.4149625650315
 21
-100.4862927371069
 31
0.0
  0
LINE
  5
AE4
330
2
100
AcDbEntity
  8
画層1
  6
DASHED2
 62
     2
100
AcDbLine
 10
352.4149625650315
 20
-101.8862927371069
 30
0.0
 11
361.4149625650316
 21
-101.8862927371069
 31
0.0
  0
LINE
  5
AE5
330
2
100
AcDbEntity
  8
画層1
  6
DASHED2
 62
     2
100
AcDbLine
 10
352.4149625650315
 20
-111.2862927371069
 30
0.0
 11
361.4149625650316
 21
-111.2862927371069
 31
0.0
  0
LINE
  5
AE6
330
2
100
AcDbEntity
  8
画層1
  6
DASHED2
 62
     2
100
AcDbLine
 10
361.4149625650316
 20
-109.8862927371069
 30
0.0
 11
352.4149625650315
 21
-109.8862927371069
 31
0.0
  0
LINE
  5
AE7
330
2
100
AcDbEntity
  8
画層1
  6
DASHED2
 62
     2
100
AcDbLine
 10
361.4149625650316
 20
-119.2862927371069
 30
0.0
 11
352.4149625650315
 21
-119.2862927371069
 31
0.0
  0
LINE
  5
AE8
330
2
100
AcDbEntity
  8
画層1
  6
DASHED2
 62
     2
100
AcDbLine
 10
352.4149625650315
 20
-120.6862927371068
 30
0.0
 11
361.4149625650316
 21
-120.6862927371068
 31
0.0
  0
LINE
  5
AE9
330
2
100
AcDbEntity
  8
画層1
  6
DASHED2
 62
     2
100
AcDbLine
 10
361.4149625650316
 20
-128.6862927371068
 30
0.0
 11
352.4149625650315
 21
-128.6862927371068
 31
0.0
  0
LINE
  5
AEA
330
2
100
AcDbEntity
  8
画層1
  6
DASHED2
 62
     2
100
AcDbLine
 10
352.4149625650315
 20
-134.4862927371069
 30
0.0
 11
372.4149625650313
 21
-134.4862927371069
 31
0.0
  0
LINE
  5
AEB
330
2
100
AcDbEntity
  8
画層1
  6
DASHED2
 62
     2
100
AcDbLine
 10
352.4149625650315
 20
-136.4862927371069
 30
0.0
 11
352.4149625650315
 21
-128.6862927371068
 31
0.0
  0
LINE
  5
AEC
330
2
100
AcDbEntity
  8
画層1
  6
DASHED2
 62
     2
100
AcDbLine
 10
352.4149625650315
 20
-119.2862927371069
 30
0.0
 11
352.4149625650315
 21
-120.6862927371068
 31
0.0
  0
LINE
  5
AED
330
2
100
AcDbEntity
  8
画層1
  6
DASHED2
 62
     2
100
AcDbLine
 10
352.4149625650315
 20
-100.4862927371069
 30
0.0
 11
352.4149625650315
 21
-101.8862927371069
 31
0.0
  0
LINE
  5
AEE
330
2
100
AcDbEntity
  8
画層1
  6
DASHED2
 62
     2
100
AcDbLine
 10
352.4149625650315
 20
-109.8862927371069
 30
0.0
 11
352.4149625650315
 21
-111.2862927371069
 31
0.0
  0
LINE
  5
AEF
330
2
100
AcDbEntity
  8
画層1
  6
DASHED2
 62
     2
100
AcDbLine
 10
369.6149625650316
 20
-127.4862927371069
 30
0.0
 11
369.6149625650316
 21
-133.4862927371069
 31
0.0
  0
LINE
  5
AF0
330
2
100
AcDbEntity
  8
画層1
  6
DASHED2
 62
     2
100
AcDbLine
 10
372.4149625650313
 20
-126.4862927371069
 30
0.0
 11
372.4149625650313
 21
-134.4862927371069
 31
0.0
  0
LINE
  5
AF1
330
2
100
AcDbEntity
  8
画層1
  6
DASHED2
 62
     2
100
AcDbLine
 10
370.4149625650313
 20
-126.9862927371069
 30
0.0
 11
370.4149625650313
 21
-133.9862927371069
 31
0.0
  0
LINE
  5
AF2
330
2
100
AcDbEntity
  8
画層1
  6
DASHED2
 62
     2
100
AcDbLine
 10
361.4149625650316
 20
-120.6862927371068
 30
0.0
 11
361.4149625650316
 21
-128.6862927371068
 31
0.0
  0
LINE
  5
AF3
330
2
100
AcDbEntity
  8
画層1
  6
DASHED2
 62
     2
100
AcDbLine
 10
359.4149625650316
 20
-121.1862927371069
 30
0.0
 11
359.4149625650316
 21
-128.1862927371068
 31
0.0
  0
ARC
  5
AF4
330
2
100
AcDbEntity
  8
画層1
  6
DASHED2
 62
     2
100
AcDbCircle
 10
368.0149625650313
 20
-129.0862927371069
 30
0.0
 40
1.6
100
AcDbArc
 50
90.0
 51
180.0
  0
LINE
  5
AF5
330
2
100
AcDbEntity
  8
画層1
  6
DASHED2
 62
     2
100
AcDbLine
 10
359.4149625650316
 20
-128.1862927371068
 30
0.0
 11
361.4149625650316
 21
-128.1862927371068
 31
0.0
  0
LINE
  5
AF6
330
2
100
AcDbEntity
  8
画層1
  6
DASHED2
 62
     2
100
AcDbLine
 10
368.0149625650313
 20
-133.4862927371069
 30
0.0
 11
370.4149625650313
 21
-133.4862927371069
 31
0.0
  0
LINE
  5
AF7
330
2
100
AcDbEntity
  8
画層1
  6
DASHED2
 62
     2
100
AcDbLine
 10
366.4149625650313
 20
-129.0862927371069
 30
0.0
 11
366.4149625650313
 21
-131.8862927371069
 31
0.0
  0
ARC
  5
AF8
330
2
100
AcDbEntity
  8
画層1
  6
DASHED2
 62
     2
100
AcDbCircle
 10
368.0149625650313
 20
-131.8862927371069
 30
0.0
 40
1.6
100
AcDbArc
 50
180.0
 51
270.0
  0
LINE
  5
AF9
330
2
100
AcDbEntity
  8
画層1
  6
DASHED2
 62
     2
100
AcDbLine
 10
370.4149625650313
 20
-133.9862927371069
 30
0.0
 11
372.4149625650313
 21
-133.9862927371069
 31
0.0
  0
LINE
  5
AFA
330
2
100
AcDbEntity
  8
画層1
  6
DASHED2
 62
     2
100
AcDbLine
 10
372.4149625650313
 20
-106.2862927371069
 30
0.0
 11
363.4149625650313
 21
-106.2862927371069
 31
0.0
  0
LINE
  5
AFB
330
2
100
AcDbEntity
  8
画層1
  6
DASHED2
 62
     2
100
AcDbLine
 10
363.4149625650313
 20
-107.6862927371069
 30
0.0
 11
372.4149625650313
 21
-107.6862927371069
 31
0.0
  0
LINE
  5
AFC
330
2
100
AcDbEntity
  8
画層1
  6
DASHED2
 62
     2
100
AcDbLine
 10
372.4149625650313
 20
-115.6862927371067
 30
0.0
 11
363.4149625650313
 21
-115.6862927371067
 31
0.0
  0
LINE
  5
AFD
330
2
100
AcDbEntity
  8
画層1
  6
DASHED2
 62
     2
100
AcDbLine
 10
363.4149625650313
 20
-117.086292737107
 30
0.0
 11
372.4149625650313
 21
-117.086292737107
 31
0.0
  0
LINE
  5
AFE
330
2
100
AcDbEntity
  8
画層1
  6
DASHED2
 62
     2
100
AcDbLine
 10
363.4149625650313
 20
-126.4862927371069
 30
0.0
 11
372.4149625650313
 21
-126.4862927371069
 31
0.0
  0
LINE
  5
AFF
330
2
100
AcDbEntity
  8
画層1
  6
DASHED2
 62
     2
100
AcDbLine
 10
372.4149625650313
 20
-125.0862927371069
 30
0.0
 11
363.4149625650313
 21
-125.0862927371069
 31
0.0
  0
LINE
  5
B00
330
2
100
AcDbEntity
  8
画層1
  6
DASHED2
 62
     2
100
AcDbLine
 10
358.6149625650316
 20
-112.2862927371069
 30
0.0
 11
358.6149625650316
 21
-118.2862927371069
 31
0.0
  0
LINE
  5
B01
330
2
100
AcDbEntity
  8
画層1
  6
DASHED2
 62
     2
100
AcDbLine
 10
359.4149625650316
 20
-111.7862927371069
 30
0.0
 11
359.4149625650316
 21
-118.7862927371069
 31
0.0
  0
LINE
  5
B02
330
2
100
AcDbEntity
  8
画層1
  6
DASHED2
 62
     2
100
AcDbLine
 10
361.4149625650316
 20
-111.2862927371069
 30
0.0
 11
361.4149625650316
 21
-119.2862927371069
 31
0.0
  0
ARC
  5
B03
330
2
100
AcDbEntity
  8
画層1
  6
DASHED2
 62
     2
100
AcDbCircle
 10
357.0149625650313
 20
-113.8862927371069
 30
0.0
 40
1.6
100
AcDbArc
 50
90.0
 51
180.0
  0
LINE
  5
B04
330
2
100
AcDbEntity
  8
画層1
  6
DASHED2
 62
     2
100
AcDbLine
 10
359.4149625650316
 20
-121.6862927371068
 30
0.0
 11
357.0149625650313
 21
-121.6862927371068
 31
0.0
  0
LINE
  5
B05
330
2
100
AcDbEntity
  8
画層1
  6
DASHED2
 62
     2
100
AcDbLine
 10
357.0149625650313
 20
-118.2862927371069
 30
0.0
 11
359.4149625650316
 21
-118.2862927371069
 31
0.0
  0
LINE
  5
B06
330
2
100
AcDbEntity
  8
画層1
  6
DASHED2
 62
     2
100
AcDbLine
 10
357.0149625650313
 20
-127.6862927371068
 30
0.0
 11
359.4149625650316
 21
-127.6862927371068
 31
0.0
  0
LINE
  5
B07
330
2
100
AcDbEntity
  8
画層1
  6
DASHED2
 62
     2
100
AcDbLine
 10
355.4149625650314
 20
-113.8862927371069
 30
0.0
 11
355.4149625650314
 21
-116.6862927371068
 31
0.0
  0
ARC
  5
B08
330
2
100
AcDbEntity
  8
画層1
  6
DASHED2
 62
     2
100
AcDbCircle
 10
357.0149625650313
 20
-116.6862927371068
 30
0.0
 40
1.6
100
AcDbArc
 50
180.0
 51
270.0
  0
ARC
  5
B09
330
2
100
AcDbEntity
  8
画層1
  6
DASHED2
 62
     2
100
AcDbCircle
 10
357.0149625650313
 20
-126.0862927371069
 30
0.0
 40
1.6
100
AcDbArc
 50
180.0
 51
270.0
  0
LINE
  5
B0A
330
2
100
AcDbEntity
  8
画層1
  6
DASHED2
 62
     2
100
AcDbLine
 10
355.4149625650314
 20
-123.2862927371069
 30
0.0
 11
355.4149625650314
 21
-126.0862927371069
 31
0.0
  0
LINE
  5
B0B
330
2
100
AcDbEntity
  8
画層1
  6
DASHED2
 62
     2
100
AcDbLine
 10
358.6149625650316
 20
-121.6862927371068
 30
0.0
 11
358.6149625650316
 21
-127.6862927371068
 31
0.0
  0
ARC
  5
B0C
330
2
100
AcDbEntity
  8
画層1
  6
DASHED2
 62
     2
100
AcDbCircle
 10
357.0149625650313
 20
-123.2862927371069
 30
0.0
 40
1.6
100
AcDbArc
 50
90.0
 51
180.0
  0
LINE
  5
B0D
330
2
100
AcDbEntity
  8
画層1
  6
DASHED2
 62
     2
100
AcDbLine
 10
363.4149625650313
 20
-115.6862927371067
 30
0.0
 11
363.4149625650313
 21
-117.086292737107
 31
0.0
  0
LINE
  5
B0E
330
2
100
AcDbEntity
  8
画層1
  6
DASHED2
 62
     2
100
AcDbLine
 10
361.4149625650316
 20
-121.1862927371069
 30
0.0
 11
359.4149625650316
 21
-121.1862927371069
 31
0.0
  0
LINE
  5
B0F
330
2
100
AcDbEntity
  8
画層1
  6
DASHED2
 62
     2
100
AcDbLine
 10
359.4149625650316
 20
-118.7862927371069
 30
0.0
 11
361.4149625650316
 21
-118.7862927371069
 31
0.0
  0
LINE
  5
B10
330
2
100
AcDbEntity
  8
画層1
  6
DASHED2
 62
     2
100
AcDbLine
 10
363.4149625650313
 20
-125.0862927371069
 30
0.0
 11
363.4149625650313
 21
-126.4862927371069
 31
0.0
  0
LINE
  5
B11
330
2
100
AcDbEntity
  8
画層1
  6
DASHED2
 62
     2
100
AcDbLine
 10
359.4149625650316
 20
-102.8862927371069
 30
0.0
 11
357.0149625650313
 21
-102.8862927371069
 31
0.0
  0
LINE
  5
B12
330
2
100
AcDbEntity
  8
画層1
  6
DASHED2
 62
     2
100
AcDbLine
 10
359.4149625650316
 20
-112.2862927371069
 30
0.0
 11
357.0149625650313
 21
-112.2862927371069
 31
0.0
  0
LINE
  5
B13
330
2
100
AcDbEntity
  8
画層1
  6
DASHED2
 62
     2
100
AcDbLine
 10
357.0149625650313
 20
-108.8862927371069
 30
0.0
 11
359.4149625650316
 21
-108.8862927371069
 31
0.0
  0
ARC
  5
B14
330
2
100
AcDbEntity
  8
画層1
  6
DASHED2
 62
     2
100
AcDbCircle
 10
357.0149625650313
 20
-104.4862927371069
 30
0.0
 40
1.6
100
AcDbArc
 50
90.0
 51
180.0
  0
ARC
  5
B15
330
2
100
AcDbEntity
  8
画層1
  6
DASHED2
 62
     2
100
AcDbCircle
 10
357.0149625650313
 20
-107.2862927371069
 30
0.0
 40
1.6
100
AcDbArc
 50
180.0
 51
270.0
  0
LINE
  5
B16
330
2
100
AcDbEntity
  8
画層1
  6
DASHED2
 62
     2
100
AcDbLine
 10
358.6149625650316
 20
-102.8862927371069
 30
0.0
 11
358.6149625650316
 21
-108.8862927371069
 31
0.0
  0
LINE
  5
B17
330
2
100
AcDbEntity
  8
画層1
  6
DASHED2
 62
     2
100
AcDbLine
 10
355.4149625650314
 20
-104.4862927371069
 30
0.0
 11
355.4149625650314
 21
-107.2862927371069
 31
0.0
  0
LINE
  5
B18
330
2
100
AcDbEntity
  8
画層1
  6
DASHED2
 62
     2
100
AcDbLine
 10
359.4149625650316
 20
-99.9862927371069
 30
0.0
 11
361.4149625650316
 21
-99.9862927371069
 31
0.0
  0
LINE
  5
B19
330
2
100
AcDbEntity
  8
画層1
  6
DASHED2
 62
     2
100
AcDbLine
 10
361.4149625650316
 20
-102.3862927371069
 30
0.0
 11
359.4149625650316
 21
-102.3862927371069
 31
0.0
  0
LINE
  5
B1A
330
2
100
AcDbEntity
  8
画層1
  6
DASHED2
 62
     2
100
AcDbLine
 10
363.4149625650313
 20
-106.2862927371069
 30
0.0
 11
363.4149625650313
 21
-107.6862927371069
 31
0.0
  0
LINE
  5
B1B
330
2
100
AcDbEntity
  8
画層1
  6
DASHED2
 62
     2
100
AcDbLine
 10
361.4149625650316
 20
-111.7862927371069
 30
0.0
 11
359.4149625650316
 21
-111.7862927371069
 31
0.0
  0
LINE
  5
B1C
330
2
100
AcDbEntity
  8
画層1
  6
DASHED2
 62
     2
100
AcDbLine
 10
359.4149625650316
 20
-109.3862927371069
 30
0.0
 11
361.4149625650316
 21
-109.3862927371069
 31
0.0
  0
LINE
  5
B1D
330
2
100
AcDbEntity
  8
画層1
  6
DASHED2
 62
     2
100
AcDbLine
 10
361.4149625650316
 20
-101.8862927371069
 30
0.0
 11
361.4149625650316
 21
-109.8862927371069
 31
0.0
  0
LINE
  5
B1E
330
2
100
AcDbEntity
  8
画層1
  6
DASHED2
 62
     2
100
AcDbLine
 10
359.4149625650316
 20
-102.3862927371069
 30
0.0
 11
359.4149625650316
 21
-109.3862927371069
 31
0.0
  0
LINE
  5
B1F
330
2
100
AcDbEntity
  8
画層1
  6
DASHED2
 62
     2
100
AcDbLine
 10
369.6149625650316
 20
-108.6862927371069
 30
0.0
 11
369.6149625650316
 21
-114.6862927371069
 31
0.0
  0
LINE
  5
B20
330
2
100
AcDbEntity
  8
画層1
  6
DASHED2
 62
     2
100
AcDbLine
 10
370.4149625650313
 20
-108.1862927371068
 30
0.0
 11
370.4149625650313
 21
-115.1862927371068
 31
0.0
  0
LINE
  5
B21
330
2
100
AcDbEntity
  8
画層1
  6
DASHED2
 62
     2
100
AcDbLine
 10
372.4149625650313
 20
-107.6862927371069
 30
0.0
 11
372.4149625650313
 21
-115.6862927371067
 31
0.0
  0
ARC
  5
B22
330
2
100
AcDbEntity
  8
画層1
  6
DASHED2
 62
     2
100
AcDbCircle
 10
368.0149625650313
 20
-113.0862927371069
 30
0.0
 40
1.6
100
AcDbArc
 50
180.0
 51
270.0
  0
LINE
  5
B23
330
2
100
AcDbEntity
  8
画層1
  6
DASHED2
 62
     2
100
AcDbLine
 10
368.0149625650313
 20
-114.6862927371069
 30
0.0
 11
370.4149625650313
 21
-114.6862927371069
 31
0.0
  0
LINE
  5
B24
330
2
100
AcDbEntity
  8
画層1
  6
DASHED2
 62
     2
100
AcDbLine
 10
370.4149625650313
 20
-118.0862927371069
 30
0.0
 11
368.0149625650313
 21
-118.0862927371069
 31
0.0
  0
LINE
  5
B25
330
2
100
AcDbEntity
  8
画層1
  6
DASHED2
 62
     2
100
AcDbLine
 10
368.0149625650313
 20
-124.0862927371069
 30
0.0
 11
370.4149625650313
 21
-124.0862927371069
 31
0.0
  0
LINE
  5
B26
330
2
100
AcDbEntity
  8
画層1
  6
DASHED2
 62
     2
100
AcDbLine
 10
370.4149625650313
 20
-127.4862927371069
 30
0.0
 11
368.0149625650313
 21
-127.4862927371069
 31
0.0
  0
LINE
  5
B27
330
2
100
AcDbEntity
  8
画層1
  6
DASHED2
 62
     2
100
AcDbLine
 10
366.4149625650313
 20
-119.6862927371068
 30
0.0
 11
366.4149625650313
 21
-122.486292737107
 31
0.0
  0
ARC
  5
B28
330
2
100
AcDbEntity
  8
画層1
  6
DASHED2
 62
     2
100
AcDbCircle
 10
368.0149625650313
 20
-119.6862927371068
 30
0.0
 40
1.6
100
AcDbArc
 50
90.0
 51
180.0
  0
ARC
  5
B29
330
2
100
AcDbEntity
  8
画層1
  6
DASHED2
 62
     2
100
AcDbCircle
 10
368.0149625650313
 20
-122.486292737107
 30
0.0
 40
1.6
100
AcDbArc
 50
180.0
 51
270.0
  0
LINE
  5
B2A
330
2
100
AcDbEntity
  8
画層1
  6
DASHED2
 62
     2
100
AcDbLine
 10
370.4149625650313
 20
-115.1862927371068
 30
0.0
 11
372.4149625650313
 21
-115.1862927371068
 31
0.0
  0
LINE
  5
B2B
330
2
100
AcDbEntity
  8
画層1
  6
DASHED2
 62
     2
100
AcDbLine
 10
372.4149625650313
 20
-117.5862927371069
 30
0.0
 11
370.4149625650313
 21
-117.5862927371069
 31
0.0
  0
LINE
  5
B2C
330
2
100
AcDbEntity
  8
画層1
  6
DASHED2
 62
     2
100
AcDbLine
 10
370.4149625650313
 20
-124.5862927371069
 30
0.0
 11
372.4149625650313
 21
-124.5862927371069
 31
0.0
  0
LINE
  5
B2D
330
2
100
AcDbEntity
  8
画層1
  6
DASHED2
 62
     2
100
AcDbLine
 10
372.4149625650313
 20
-126.9862927371069
 30
0.0
 11
370.4149625650313
 21
-126.9862927371069
 31
0.0
  0
LINE
  5
B2E
330
2
100
AcDbEntity
  8
画層1
  6
DASHED2
 62
     2
100
AcDbLine
 10
372.4149625650313
 20
-117.086292737107
 30
0.0
 11
372.4149625650313
 21
-125.0862927371069
 31
0.0
  0
LINE
  5
B2F
330
2
100
AcDbEntity
  8
画層1
  6
DASHED2
 62
     2
100
AcDbLine
 10
370.4149625650313
 20
-117.5862927371069
 30
0.0
 11
370.4149625650313
 21
-124.5862927371069
 31
0.0
  0
LINE
  5
B30
330
2
100
AcDbEntity
  8
画層1
  6
DASHED2
 62
     2
100
AcDbLine
 10
369.6149625650316
 20
-118.0862927371069
 30
0.0
 11
369.6149625650316
 21
-124.0862927371069
 31
0.0
  0
LINE
  5
B31
330
2
100
AcDbEntity
  8
画層1
  6
DASHED2
 62
     2
100
AcDbLine
 10
368.0149625650313
 20
-105.2862927371069
 30
0.0
 11
370.4149625650313
 21
-105.2862927371069
 31
0.0
  0
LINE
  5
B32
330
2
100
AcDbEntity
  8
画層1
  6
DASHED2
 62
     2
100
AcDbLine
 10
370.4149625650313
 20
-108.6862927371069
 30
0.0
 11
368.0149625650313
 21
-108.6862927371069
 31
0.0
  0
LINE
  5
B33
330
2
100
AcDbEntity
  8
画層1
  6
DASHED2
 62
     2
100
AcDbLine
 10
366.4149625650313
 20
-100.8862927371069
 30
0.0
 11
366.4149625650313
 21
-103.6862927371067
 31
0.0
  0
LINE
  5
B34
330
2
100
AcDbEntity
  8
画層1
  6
DASHED2
 62
     2
100
AcDbLine
 10
366.4149625650313
 20
-110.2862927371069
 30
0.0
 11
366.4149625650313
 21
-113.0862927371069
 31
0.0
  0
ARC
  5
B35
330
2
100
AcDbEntity
  8
画層1
  6
DASHED2
 62
     2
100
AcDbCircle
 10
368.0149625650313
 20
-110.2862927371069
 30
0.0
 40
1.6
100
AcDbArc
 50
90.0
 51
180.0
  0
ARC
  5
B36
330
2
100
AcDbEntity
  8
画層1
  6
DASHED2
 62
     2
100
AcDbCircle
 10
368.0149625650313
 20
-103.6862927371067
 30
0.0
 40
1.6
100
AcDbArc
 50
180.0
 51
270.0
  0
LINE
  5
B37
330
2
100
AcDbEntity
  8
画層1
  6
DASHED2
 62
     2
100
AcDbLine
 10
370.4149625650313
 20
-105.7862927371069
 30
0.0
 11
372.4149625650313
 21
-105.7862927371069
 31
0.0
  0
LINE
  5
B38
330
2
100
AcDbEntity
  8
画層1
  6
DASHED2
 62
     2
100
AcDbLine
 10
372.4149625650313
 20
-108.1862927371068
 30
0.0
 11
370.4149625650313
 21
-108.1862927371068
 31
0.0
  0
LINE
  5
B3B
330
2
100
AcDbEntity
  8
画層1
 62
     3
100
AcDbLine
 10
338.9149625650313
 20
-12.98629273710707
 30
0.0
 11
388.9149625650316
 21
-12.98629273710707
 31
0.0
  0
LINE
  5
B3C
330
2
100
AcDbEntity
  8
画層1
  6
DASHED2
 62
     2
100
AcDbLine
 10
352.4149625650315
 20
-43.48629273710691
 30
0.0
 11
378.4149625650313
 21
-43.48629273710691
 31
0.0
  0
LINE
  5
B3D
330
2
100
AcDbEntity
  8
画層1
  6
DASHED2
 62
     2
100
AcDbLine
 10
361.4149625650316
 20
-53.48629273710691
 30
0.0
 11
352.4149625650315
 21
-53.48629273710691
 31
0.0
  0
LINE
  5
B3E
330
2
100
AcDbEntity
  8
画層1
  6
DASHED2
 62
     2
100
AcDbLine
 10
352.4149625650315
 20
-45.48629273710689
 30
0.0
 11
364.9149625650315
 21
-45.48629273710689
 31
0.0
  0
LINE
  5
B3F
330
2
100
AcDbEntity
  8
画層1
  6
DASHED2
 62
     2
100
AcDbLine
 10
361.4149625650316
 20
-62.88629273710705
 30
0.0
 11
352.4149625650315
 21
-62.88629273710705
 31
0.0
  0
LINE
  5
B40
330
2
100
AcDbEntity
  8
画層1
  6
DASHED2
 62
     2
100
AcDbLine
 10
352.4149625650315
 20
-64.28629273710703
 30
0.0
 11
361.4149625650316
 21
-64.28629273710703
 31
0.0
  0
LINE
  5
B41
330
2
100
AcDbEntity
  8
画層1
  6
DASHED2
 62
     2
100
AcDbLine
 10
352.4149625650315
 20
-54.88629273710706
 30
0.0
 11
361.4149625650316
 21
-54.88629273710706
 31
0.0
  0
LINE
  5
B42
330
2
100
AcDbEntity
  8
画層1
  6
DASHED2
 62
     2
100
AcDbLine
 10
352.4149625650315
 20
-83.08629273710693
 30
0.0
 11
361.4149625650316
 21
-83.08629273710693
 31
0.0
  0
LINE
  5
B43
330
2
100
AcDbEntity
  8
画層1
  6
DASHED2
 62
     2
100
AcDbLine
 10
361.4149625650316
 20
-81.6862927371069
 30
0.0
 11
352.4149625650315
 21
-81.6862927371069
 31
0.0
  0
LINE
  5
B44
330
2
100
AcDbEntity
  8
画層1
  6
DASHED2
 62
     2
100
AcDbLine
 10
361.4149625650316
 20
-72.28629273710692
 30
0.0
 11
352.4149625650315
 21
-72.28629273710692
 31
0.0
  0
LINE
  5
B45
330
2
100
AcDbEntity
  8
画層1
  6
DASHED2
 62
     2
100
AcDbLine
 10
352.4149625650315
 20
-73.68629273710688
 30
0.0
 11
361.4149625650316
 21
-73.68629273710688
 31
0.0
  0
LINE
  5
B46
330
2
100
AcDbEntity
  8
画層1
  6
DASHED2
 62
     2
100
AcDbLine
 10
361.4149625650316
 20
-91.08629273710691
 30
0.0
 11
352.4149625650315
 21
-91.08629273710691
 31
0.0
  0
LINE
  5
B47
330
2
100
AcDbEntity
  8
画層1
  6
DASHED2
 62
     2
100
AcDbLine
 10
352.4149625650315
 20
-92.4862927371069
 30
0.0
 11
361.4149625650316
 21
-92.4862927371069
 31
0.0
  0
LINE
  5
B48
330
2
100
AcDbEntity
  8
画層1
  6
DASHED2
 62
     2
100
AcDbLine
 10
352.4149625650315
 20
-91.08629273710691
 30
0.0
 11
352.4149625650315
 21
-92.4862927371069
 31
0.0
  0
LINE
  5
B49
330
2
100
AcDbEntity
  8
画層1
  6
DASHED2
 62
     2
100
AcDbLine
 10
352.4149625650315
 20
-72.28629273710692
 30
0.0
 11
352.4149625650315
 21
-73.68629273710688
 31
0.0
  0
LINE
  5
B4A
330
2
100
AcDbEntity
  8
画層1
  6
DASHED2
 62
     2
100
AcDbLine
 10
352.4149625650315
 20
-81.6862927371069
 30
0.0
 11
352.4149625650315
 21
-83.08629273710693
 31
0.0
  0
LINE
  5
B4B
330
2
100
AcDbEntity
  8
画層1
  6
DASHED2
 62
     2
100
AcDbLine
 10
352.4149625650315
 20
-62.88629273710705
 30
0.0
 11
352.4149625650315
 21
-64.28629273710703
 31
0.0
  0
LINE
  5
B4C
330
2
100
AcDbEntity
  8
画層1
  6
DASHED2
 62
     2
100
AcDbLine
 10
352.4149625650315
 20
-43.48629273710691
 30
0.0
 11
352.4149625650315
 21
-45.48629273710689
 31
0.0
  0
LINE
  5
B4D
330
2
100
AcDbEntity
  8
画層1
  6
DASHED2
 62
     2
100
AcDbLine
 10
352.4149625650315
 20
-53.48629273710691
 30
0.0
 11
352.4149625650315
 21
-54.88629273710706
 31
0.0
  0
LINE
  5
B4E
330
2
100
AcDbEntity
  8
画層1
  6
DASHED2
 62
     2
100
AcDbLine
 10
369.6149625650316
 20
-71.08629273710704
 30
0.0
 11
369.6149625650316
 21
-77.08629273710704
 31
0.0
  0
LINE
  5
B4F
330
2
100
AcDbEntity
  8
画層1
  6
DASHED2
 62
     2
100
AcDbLine
 10
370.4149625650313
 20
-70.58629273710693
 30
0.0
 11
370.4149625650313
 21
-77.58629273710704
 31
0.0
  0
LINE
  5
B50
330
2
100
AcDbEntity
  8
画層1
  6
DASHED2
 62
     2
100
AcDbLine
 10
372.4149625650313
 20
-70.08629273710693
 30
0.0
 11
372.4149625650313
 21
-78.08629273710704
 31
0.0
  0
LINE
  5
B51
330
2
100
AcDbEntity
  8
画層1
  6
DASHED2
 62
     2
100
AcDbLine
 10
358.6149625650316
 20
-65.28629273710691
 30
0.0
 11
358.6149625650316
 21
-71.28629273710703
 31
0.0
  0
LINE
  5
B52
330
2
100
AcDbEntity
  8
画層1
  6
DASHED2
 62
     2
100
AcDbLine
 10
361.4149625650316
 20
-64.28629273710703
 30
0.0
 11
361.4149625650316
 21
-72.28629273710692
 31
0.0
  0
LINE
  5
B53
330
2
100
AcDbEntity
  8
画層1
  6
DASHED2
 62
     2
100
AcDbLine
 10
359.4149625650316
 20
-64.78629273710703
 30
0.0
 11
359.4149625650316
 21
-71.78629273710692
 31
0.0
  0
ARC
  5
B54
330
2
100
AcDbEntity
  8
画層1
  6
DASHED2
 62
     2
100
AcDbCircle
 10
357.0149625650313
 20
-69.68629273710688
 30
0.0
 40
1.6
100
AcDbArc
 50
180.0
 51
270.0
  0
ARC
  5
B55
330
2
100
AcDbEntity
  8
画層1
  6
DASHED2
 62
     2
100
AcDbCircle
 10
368.0149625650313
 20
-72.68629273710691
 30
0.0
 40
1.6
100
AcDbArc
 50
90.0
 51
180.0
  0
LINE
  5
B56
330
2
100
AcDbEntity
  8
画層1
  6
DASHED2
 62
     2
100
AcDbLine
 10
363.4149625650313
 20
-79.4862927371069
 30
0.0
 11
372.4149625650313
 21
-79.4862927371069
 31
0.0
  0
LINE
  5
B57
330
2
100
AcDbEntity
  8
画層1
  6
DASHED2
 62
     2
100
AcDbLine
 10
372.4149625650313
 20
-78.08629273710704
 30
0.0
 11
363.4149625650313
 21
-78.08629273710704
 31
0.0
  0
LINE
  5
B58
330
2
100
AcDbEntity
  8
画層1
  6
DASHED2
 62
     2
100
AcDbLine
 10
372.4149625650313
 20
-87.4862927371069
 30
0.0
 11
363.4149625650313
 21
-87.4862927371069
 31
0.0
  0
LINE
  5
B59
330
2
100
AcDbEntity
  8
画層1
  6
DASHED2
 62
     2
100
AcDbLine
 10
363.4149625650313
 20
-88.88629273710703
 30
0.0
 11
372.4149625650313
 21
-88.88629273710703
 31
0.0
  0
LINE
  5
B5A
330
2
100
AcDbEntity
  8
画層1
  6
DASHED2
 62
     2
100
AcDbLine
 10
363.4149625650313
 20
-98.28629273710705
 30
0.0
 11
372.4149625650313
 21
-98.28629273710705
 31
0.0
  0
LINE
  5
B5B
330
2
100
AcDbEntity
  8
画層1
  6
DASHED2
 62
     2
100
AcDbLine
 10
372.4149625650313
 20
-96.88629273710708
 30
0.0
 11
363.4149625650313
 21
-96.88629273710708
 31
0.0
  0
ARC
  5
B5C
330
2
100
AcDbEntity
  8
画層1
  6
DASHED2
 62
     2
100
AcDbCircle
 10
357.0149625650313
 20
-85.68629273710689
 30
0.0
 40
1.6
100
AcDbArc
 50
90.0
 51
180.0
  0
LINE
  5
B5D
330
2
100
AcDbEntity
  8
画層1
  6
DASHED2
 62
     2
100
AcDbLine
 10
361.4149625650316
 20
-83.08629273710693
 30
0.0
 11
361.4149625650316
 21
-91.08629273710691
 31
0.0
  0
LINE
  5
B5E
330
2
100
AcDbEntity
  8
画層1
  6
DASHED2
 62
     2
100
AcDbLine
 10
359.4149625650316
 20
-83.58629273710704
 30
0.0
 11
359.4149625650316
 21
-90.58629273710705
 31
0.0
  0
LINE
  5
B5F
330
2
100
AcDbEntity
  8
画層1
  6
DASHED2
 62
     2
100
AcDbLine
 10
358.6149625650316
 20
-84.08629273710705
 30
0.0
 11
358.6149625650316
 21
-90.08629273710704
 31
0.0
  0
LINE
  5
B60
330
2
100
AcDbEntity
  8
画層1
  6
DASHED2
 62
     2
100
AcDbLine
 10
357.0149625650313
 20
-99.486292737107
 30
0.0
 11
359.4149625650316
 21
-99.486292737107
 31
0.0
  0
LINE
  5
B61
330
2
100
AcDbEntity
  8
画層1
  6
DASHED2
 62
     2
100
AcDbLine
 10
357.0149625650313
 20
-90.08629273710704
 30
0.0
 11
359.4149625650316
 21
-90.08629273710704
 31
0.0
  0
LINE
  5
B62
330
2
100
AcDbEntity
  8
画層1
  6
DASHED2
 62
     2
100
AcDbLine
 10
359.4149625650316
 20
-93.4862927371069
 30
0.0
 11
357.0149625650313
 21
-93.4862927371069
 31
0.0
  0
LINE
  5
B63
330
2
100
AcDbEntity
  8
画層1
  6
DASHED2
 62
     2
100
AcDbLine
 10
358.6149625650316
 20
-93.4862927371069
 30
0.0
 11
358.6149625650316
 21
-99.486292737107
 31
0.0
  0
ARC
  5
B64
330
2
100
AcDbEntity
  8
画層1
  6
DASHED2
 62
     2
100
AcDbCircle
 10
357.0149625650313
 20
-95.08629273710694
 30
0.0
 40
1.6
100
AcDbArc
 50
90.0
 51
180.0
  0
ARC
  5
B65
330
2
100
AcDbEntity
  8
画層1
  6
DASHED2
 62
     2
100
AcDbCircle
 10
357.0149625650313
 20
-88.4862927371069
 30
0.0
 40
1.6
100
AcDbArc
 50
180.0
 51
270.0
  0
LINE
  5
B66
330
2
100
AcDbEntity
  8
画層1
  6
DASHED2
 62
     2
100
AcDbLine
 10
355.4149625650314
 20
-95.08629273710694
 30
0.0
 11
355.4149625650314
 21
-97.88629273710704
 31
0.0
  0
LINE
  5
B67
330
2
100
AcDbEntity
  8
画層1
  6
DASHED2
 62
     2
100
AcDbLine
 10
355.4149625650314
 20
-85.68629273710689
 30
0.0
 11
355.4149625650314
 21
-88.4862927371069
 31
0.0
  0
LINE
  5
B68
330
2
100
AcDbEntity
  8
画層1
  6
DASHED2
 62
     2
100
AcDbLine
 10
359.4149625650316
 20
-90.58629273710705
 30
0.0
 11
361.4149625650316
 21
-90.58629273710705
 31
0.0
  0
LINE
  5
B69
330
2
100
AcDbEntity
  8
画層1
  6
DASHED2
 62
     2
100
AcDbLine
 10
361.4149625650316
 20
-92.98629273710691
 30
0.0
 11
359.4149625650316
 21
-92.98629273710691
 31
0.0
  0
LINE
  5
B6A
330
2
100
AcDbEntity
  8
画層1
  6
DASHED2
 62
     2
100
AcDbLine
 10
363.4149625650313
 20
-96.88629273710708
 30
0.0
 11
363.4149625650313
 21
-98.28629273710705
 31
0.0
  0
LINE
  5
B6B
330
2
100
AcDbEntity
  8
画層1
  6
DASHED2
 62
     2
100
AcDbLine
 10
363.4149625650313
 20
-87.4862927371069
 30
0.0
 11
363.4149625650313
 21
-88.88629273710703
 31
0.0
  0
LINE
  5
B6C
330
2
100
AcDbEntity
  8
画層1
  6
DASHED2
 62
     2
100
AcDbLine
 10
357.0149625650313
 20
-71.28629273710703
 30
0.0
 11
359.4149625650316
 21
-71.28629273710703
 31
0.0
  0
LINE
  5
B6D
330
2
100
AcDbEntity
  8
画層1
  6
DASHED2
 62
     2
100
AcDbLine
 10
359.4149625650316
 20
-84.08629273710705
 30
0.0
 11
357.0149625650313
 21
-84.08629273710705
 31
0.0
  0
LINE
  5
B6E
330
2
100
AcDbEntity
  8
画層1
  6
DASHED2
 62
     2
100
AcDbLine
 10
357.0149625650313
 20
-80.68629273710689
 30
0.0
 11
359.4149625650316
 21
-80.68629273710689
 31
0.0
  0
LINE
  5
B6F
330
2
100
AcDbEntity
  8
画層1
  6
DASHED2
 62
     2
100
AcDbLine
 10
359.4149625650316
 20
-74.68629273710688
 30
0.0
 11
357.0149625650313
 21
-74.68629273710688
 31
0.0
  0
LINE
  5
B70
330
2
100
AcDbEntity
  8
画層1
  6
DASHED2
 62
     2
100
AcDbLine
 10
358.6149625650316
 20
-74.68629273710688
 30
0.0
 11
358.6149625650316
 21
-80.68629273710689
 31
0.0
  0
ARC
  5
B71
330
2
100
AcDbEntity
  8
画層1
  6
DASHED2
 62
     2
100
AcDbCircle
 10
357.0149625650313
 20
-76.28629273710692
 30
0.0
 40
1.6
100
AcDbArc
 50
90.0
 51
180.0
  0
LINE
  5
B72
330
2
100
AcDbEntity
  8
画層1
  6
DASHED2
 62
     2
100
AcDbLine
 10
355.4149625650314
 20
-76.28629273710692
 30
0.0
 11
355.4149625650314
 21
-79.08629273710693
 31
0.0
  0
ARC
  5
B73
330
2
100
AcDbEntity
  8
画層1
  6
DASHED2
 62
     2
100
AcDbCircle
 10
357.0149625650313
 20
-79.08629273710693
 30
0.0
 40
1.6
100
AcDbArc
 50
180.0
 51
270.0
  0
LINE
  5
B74
330
2
100
AcDbEntity
  8
画層1
  6
DASHED2
 62
     2
100
AcDbLine
 10
363.4149625650313
 20
-78.08629273710704
 30
0.0
 11
363.4149625650313
 21
-79.4862927371069
 31
0.0
  0
LINE
  5
B75
330
2
100
AcDbEntity
  8
画層1
  6
DASHED2
 62
     2
100
AcDbLine
 10
359.4149625650316
 20
-71.78629273710692
 30
0.0
 11
361.4149625650316
 21
-71.78629273710692
 31
0.0
  0
LINE
  5
B76
330
2
100
AcDbEntity
  8
画層1
  6
DASHED2
 62
     2
100
AcDbLine
 10
361.4149625650316
 20
-74.18629273710688
 30
0.0
 11
359.4149625650316
 21
-74.18629273710688
 31
0.0
  0
LINE
  5
B77
330
2
100
AcDbEntity
  8
画層1
  6
DASHED2
 62
     2
100
AcDbLine
 10
359.4149625650316
 20
-81.18629273710688
 30
0.0
 11
361.4149625650316
 21
-81.18629273710688
 31
0.0
  0
LINE
  5
B78
330
2
100
AcDbEntity
  8
画層1
  6
DASHED2
 62
     2
100
AcDbLine
 10
361.4149625650316
 20
-83.58629273710704
 30
0.0
 11
359.4149625650316
 21
-83.58629273710704
 31
0.0
  0
LINE
  5
B79
330
2
100
AcDbEntity
  8
画層1
  6
DASHED2
 62
     2
100
AcDbLine
 10
361.4149625650316
 20
-73.68629273710688
 30
0.0
 11
361.4149625650316
 21
-81.6862927371069
 31
0.0
  0
LINE
  5
B7A
330
2
100
AcDbEntity
  8
画層1
  6
DASHED2
 62
     2
100
AcDbLine
 10
359.4149625650316
 20
-74.18629273710688
 30
0.0
 11
359.4149625650316
 21
-81.18629273710688
 31
0.0
  0
LINE
  5
B7B
330
2
100
AcDbEntity
  8
画層1
  6
DASHED2
 62
     2
100
AcDbLine
 10
369.6149625650316
 20
-80.48629273710691
 30
0.0
 11
369.6149625650316
 21
-86.48629273710691
 31
0.0
  0
LINE
  5
B7C
330
2
100
AcDbEntity
  8
画層1
  6
DASHED2
 62
     2
100
AcDbLine
 10
370.4149625650313
 20
-79.9862927371069
 30
0.0
 11
370.4149625650313
 21
-86.986292737107
 31
0.0
  0
LINE
  5
B7D
330
2
100
AcDbEntity
  8
画層1
  6
DASHED2
 62
     2
100
AcDbLine
 10
372.4149625650313
 20
-79.4862927371069
 30
0.0
 11
372.4149625650313
 21
-87.4862927371069
 31
0.0
  0
ARC
  5
B7E
330
2
100
AcDbEntity
  8
画層1
  6
DASHED2
 62
     2
100
AcDbCircle
 10
368.0149625650313
 20
-84.88629273710705
 30
0.0
 40
1.6
100
AcDbArc
 50
180.0
 51
270.0
  0
LINE
  5
B7F
330
2
100
AcDbEntity
  8
画層1
  6
DASHED2
 62
     2
100
AcDbLine
 10
368.0149625650313
 20
-86.48629273710691
 30
0.0
 11
370.4149625650313
 21
-86.48629273710691
 31
0.0
  0
LINE
  5
B80
330
2
100
AcDbEntity
  8
画層1
  6
DASHED2
 62
     2
100
AcDbLine
 10
370.4149625650313
 20
-89.88629273710705
 30
0.0
 11
368.0149625650313
 21
-89.88629273710705
 31
0.0
  0
LINE
  5
B81
330
2
100
AcDbEntity
  8
画層1
  6
DASHED2
 62
     2
100
AcDbLine
 10
368.0149625650313
 20
-95.88629273710706
 30
0.0
 11
370.4149625650313
 21
-95.88629273710706
 31
0.0
  0
LINE
  5
B82
330
2
100
AcDbEntity
  8
画層1
  6
DASHED2
 62
     2
100
AcDbLine
 10
370.4149625650313
 20
-99.28629273710692
 30
0.0
 11
368.0149625650313
 21
-99.28629273710692
 31
0.0
  0
LINE
  5
B83
330
2
100
AcDbEntity
  8
画層1
  6
DASHED2
 62
     2
100
AcDbLine
 10
366.4149625650313
 20
-91.486292737107
 30
0.0
 11
366.4149625650313
 21
-94.28629273710692
 31
0.0
  0
ARC
  5
B84
330
2
100
AcDbEntity
  8
画層1
  6
DASHED2
 62
     2
100
AcDbCircle
 10
368.0149625650313
 20
-91.486292737107
 30
0.0
 40
1.6
100
AcDbArc
 50
90.0
 51
180.0
  0
ARC
  5
B85
330
2
100
AcDbEntity
  8
画層1
  6
DASHED2
 62
     2
100
AcDbCircle
 10
368.0149625650313
 20
-94.28629273710692
 30
0.0
 40
1.6
100
AcDbArc
 50
180.0
 51
270.0
  0
LINE
  5
B86
330
2
100
AcDbEntity
  8
画層1
  6
DASHED2
 62
     2
100
AcDbLine
 10
370.4149625650313
 20
-86.986292737107
 30
0.0
 11
372.4149625650313
 21
-86.986292737107
 31
0.0
  0
LINE
  5
B87
330
2
100
AcDbEntity
  8
画層1
  6
DASHED2
 62
     2
100
AcDbLine
 10
369.6149625650316
 20
-89.88629273710705
 30
0.0
 11
369.6149625650316
 21
-95.88629273710706
 31
0.0
  0
LINE
  5
B88
330
2
100
AcDbEntity
  8
画層1
  6
DASHED2
 62
     2
100
AcDbLine
 10
370.4149625650313
 20
-89.38629273710693
 30
0.0
 11
370.4149625650313
 21
-96.38629273710705
 31
0.0
  0
LINE
  5
B89
330
2
100
AcDbEntity
  8
画層1
  6
DASHED2
 62
     2
100
AcDbLine
 10
372.4149625650313
 20
-89.38629273710693
 30
0.0
 11
370.4149625650313
 21
-89.38629273710693
 31
0.0
  0
LINE
  5
B8A
330
2
100
AcDbEntity
  8
画層1
  6
DASHED2
 62
     2
100
AcDbLine
 10
370.4149625650313
 20
-96.38629273710705
 30
0.0
 11
372.4149625650313
 21
-96.38629273710705
 31
0.0
  0
LINE
  5
B8B
330
2
100
AcDbEntity
  8
画層1
  6
DASHED2
 62
     2
100
AcDbLine
 10
372.4149625650313
 20
-98.78629273710693
 30
0.0
 11
370.4149625650313
 21
-98.78629273710693
 31
0.0
  0
LINE
  5
B8C
330
2
100
AcDbEntity
  8
画層1
  6
DASHED2
 62
     2
100
AcDbLine
 10
372.4149625650313
 20
-88.88629273710703
 30
0.0
 11
372.4149625650313
 21
-96.88629273710708
 31
0.0
  0
LINE
  5
B8D
330
2
100
AcDbEntity
  8
画層1
  6
DASHED2
 62
     2
100
AcDbLine
 10
368.0149625650313
 20
-77.08629273710704
 30
0.0
 11
370.4149625650313
 21
-77.08629273710704
 31
0.0
  0
LINE
  5
B8E
330
2
100
AcDbEntity
  8
画層1
  6
DASHED2
 62
     2
100
AcDbLine
 10
370.4149625650313
 20
-80.48629273710691
 30
0.0
 11
368.0149625650313
 21
-80.48629273710691
 31
0.0
  0
LINE
  5
B8F
330
2
100
AcDbEntity
  8
画層1
  6
DASHED2
 62
     2
100
AcDbLine
 10
366.4149625650313
 20
-72.68629273710691
 30
0.0
 11
366.4149625650313
 21
-75.48629273710691
 31
0.0
  0
LINE
  5
B90
330
2
100
AcDbEntity
  8
画層1
  6
DASHED2
 62
     2
100
AcDbLine
 10
366.4149625650313
 20
-82.08629273710704
 30
0.0
 11
366.4149625650313
 21
-84.88629273710705
 31
0.0
  0
ARC
  5
B91
330
2
100
AcDbEntity
  8
画層1
  6
DASHED2
 62
     2
100
AcDbCircle
 10
368.0149625650313
 20
-82.08629273710704
 30
0.0
 40
1.6
100
AcDbArc
 50
90.0
 51
180.0
  0
ARC
  5
B92
330
2
100
AcDbEntity
  8
画層1
  6
DASHED2
 62
     2
100
AcDbCircle
 10
368.0149625650313
 20
-75.48629273710691
 30
0.0
 40
1.6
100
AcDbArc
 50
180.0
 51
270.0
  0
LINE
  5
B93
330
2
100
AcDbEntity
  8
画層1
  6
DASHED2
 62
     2
100
AcDbLine
 10
370.4149625650313
 20
-77.58629273710704
 30
0.0
 11
372.4149625650313
 21
-77.58629273710704
 31
0.0
  0
LINE
  5
B94
330
2
100
AcDbEntity
  8
画層1
  6
DASHED2
 62
     2
100
AcDbLine
 10
372.4149625650313
 20
-79.9862927371069
 30
0.0
 11
370.4149625650313
 21
-79.9862927371069
 31
0.0
  0
LINE
  5
B95
330
2
100
AcDbEntity
  8
画層1
  6
DASHED2
 62
     2
100
AcDbLine
 10
372.4149625650313
 20
-59.28629273710693
 30
0.0
 11
363.4149625650313
 21
-59.28629273710693
 31
0.0
  0
LINE
  5
B96
330
2
100
AcDbEntity
  8
画層1
  6
DASHED2
 62
     2
100
AcDbLine
 10
363.4149625650313
 20
-60.6862927371069
 30
0.0
 11
372.4149625650313
 21
-60.6862927371069
 31
0.0
  0
LINE
  5
B97
330
2
100
AcDbEntity
  8
画層1
  6
DASHED2
 62
     2
100
AcDbLine
 10
363.4149625650313
 20
-70.08629273710693
 30
0.0
 11
372.4149625650313
 21
-70.08629273710693
 31
0.0
  0
LINE
  5
B98
330
2
100
AcDbEntity
  8
画層1
  6
DASHED2
 62
     2
100
AcDbLine
 10
372.4149625650313
 20
-68.68629273710688
 30
0.0
 11
363.4149625650313
 21
-68.68629273710688
 31
0.0
  0
LINE
  5
B99
330
2
100
AcDbEntity
  8
画層1
  6
DASHED2
 62
     2
100
AcDbLine
 10
361.4149625650316
 20
-54.88629273710706
 30
0.0
 11
361.4149625650316
 21
-62.88629273710705
 31
0.0
  0
LINE
  5
B9A
330
2
100
AcDbEntity
  8
画層1
  6
DASHED2
 62
     2
100
AcDbLine
 10
359.4149625650316
 20
-55.38629273710705
 30
0.0
 11
359.4149625650316
 21
-62.38629273710706
 31
0.0
  0
LINE
  5
B9B
330
2
100
AcDbEntity
  8
画層1
  6
DASHED2
 62
     2
100
AcDbLine
 10
358.6149625650316
 20
-55.88629273710704
 30
0.0
 11
358.6149625650316
 21
-61.88629273710707
 31
0.0
  0
ARC
  5
B9C
330
2
100
AcDbEntity
  8
画層1
  6
DASHED2
 62
     2
100
AcDbCircle
 10
357.0149625650313
 20
-57.48629273710689
 30
0.0
 40
1.6
100
AcDbArc
 50
90.0
 51
180.0
  0
LINE
  5
B9D
330
2
100
AcDbEntity
  8
画層1
  6
DASHED2
 62
     2
100
AcDbLine
 10
359.4149625650316
 20
-65.28629273710691
 30
0.0
 11
357.0149625650313
 21
-65.28629273710691
 31
0.0
  0
LINE
  5
B9E
330
2
100
AcDbEntity
  8
画層1
  6
DASHED2
 62
     2
100
AcDbLine
 10
357.0149625650313
 20
-61.88629273710707
 30
0.0
 11
359.4149625650316
 21
-61.88629273710707
 31
0.0
  0
ARC
  5
B9F
330
2
100
AcDbEntity
  8
画層1
  6
DASHED2
 62
     2
100
AcDbCircle
 10
357.0149625650313
 20
-60.28629273710702
 30
0.0
 40
1.6
100
AcDbArc
 50
180.0
 51
270.0
  0
LINE
  5
BA0
330
2
100
AcDbEntity
  8
画層1
  6
DASHED2
 62
     2
100
AcDbLine
 10
355.4149625650314
 20
-57.48629273710689
 30
0.0
 11
355.4149625650314
 21
-60.28629273710702
 31
0.0
  0
LINE
  5
BA1
330
2
100
AcDbEntity
  8
画層1
  6
DASHED2
 62
     2
100
AcDbLine
 10
355.4149625650314
 20
-66.88629273710692
 30
0.0
 11
355.4149625650314
 21
-69.68629273710688
 31
0.0
  0
ARC
  5
BA2
330
2
100
AcDbEntity
  8
画層1
  6
DASHED2
 62
     2
100
AcDbCircle
 10
357.0149625650313
 20
-66.88629273710692
 30
0.0
 40
1.6
100
AcDbArc
 50
90.0
 51
180.0
  0
LINE
  5
BA3
330
2
100
AcDbEntity
  8
画層1
  6
DASHED2
 62
     2
100
AcDbLine
 10
363.4149625650313
 20
-59.28629273710693
 30
0.0
 11
363.4149625650313
 21
-60.6862927371069
 31
0.0
  0
LINE
  5
BA4
330
2
100
AcDbEntity
  8
画層1
  6
DASHED2
 62
     2
100
AcDbLine
 10
359.4149625650316
 20
-62.38629273710706
 30
0.0
 11
361.4149625650316
 21
-62.38629273710706
 31
0.0
  0
LINE
  5
BA5
330
2
100
AcDbEntity
  8
画層1
  6
DASHED2
 62
     2
100
AcDbLine
 10
363.4149625650313
 20
-68.68629273710688
 30
0.0
 11
363.4149625650313
 21
-70.08629273710693
 31
0.0
  0
LINE
  5
BA6
330
2
100
AcDbEntity
  8
画層1
  6
DASHED2
 62
     2
100
AcDbLine
 10
361.4149625650316
 20
-64.78629273710703
 30
0.0
 11
359.4149625650316
 21
-64.78629273710703
 31
0.0
  0
LINE
  5
BA7
330
2
100
AcDbEntity
  8
画層1
  6
DASHED2
 62
     2
100
AcDbLine
 10
357.0149625650313
 20
-52.48629273710689
 30
0.0
 11
359.4149625650316
 21
-52.48629273710689
 31
0.0
  0
LINE
  5
BA8
330
2
100
AcDbEntity
  8
画層1
  6
DASHED2
 62
     2
100
AcDbLine
 10
359.4149625650316
 20
-46.48629273710691
 30
0.0
 11
357.0149625650313
 21
-46.48629273710691
 31
0.0
  0
LINE
  5
BA9
330
2
100
AcDbEntity
  8
画層1
  6
DASHED2
 62
     2
100
AcDbLine
 10
359.4149625650316
 20
-55.88629273710704
 30
0.0
 11
357.0149625650313
 21
-55.88629273710704
 31
0.0
  0
LINE
  5
BAA
330
2
100
AcDbEntity
  8
画層1
  6
DASHED2
 62
     2
100
AcDbLine
 10
358.6149625650316
 20
-46.48629273710691
 30
0.0
 11
358.6149625650316
 21
-52.48629273710689
 31
0.0
  0
ARC
  5
BAB
330
2
100
AcDbEntity
  8
画層1
  6
DASHED2
 62
     2
100
AcDbCircle
 10
357.0149625650313
 20
-48.08629273710703
 30
0.0
 40
1.6
100
AcDbArc
 50
90.0
 51
180.0
  0
ARC
  5
BAC
330
2
100
AcDbEntity
  8
画層1
  6
DASHED2
 62
     2
100
AcDbCircle
 10
357.0149625650313
 20
-50.88629273710704
 30
0.0
 40
1.6
100
AcDbArc
 50
180.0
 51
270.0
  0
LINE
  5
BAD
330
2
100
AcDbEntity
  8
画層1
  6
DASHED2
 62
     2
100
AcDbLine
 10
355.4149625650314
 20
-48.08629273710703
 30
0.0
 11
355.4149625650314
 21
-50.88629273710704
 31
0.0
  0
LINE
  5
BAE
330
2
100
AcDbEntity
  8
画層1
  6
DASHED2
 62
     2
100
AcDbLine
 10
361.4149625650316
 20
-45.98629273710691
 30
0.0
 11
359.4149625650316
 21
-45.98629273710691
 31
0.0
  0
LINE
  5
BAF
330
2
100
AcDbEntity
  8
画層1
  6
DASHED2
 62
     2
100
AcDbLine
 10
359.4149625650316
 20
-52.98629273710691
 30
0.0
 11
361.4149625650316
 21
-52.98629273710691
 31
0.0
  0
LINE
  5
BB0
330
2
100
AcDbEntity
  8
画層1
  6
DASHED2
 62
     2
100
AcDbLine
 10
359.4149625650316
 20
-45.98629273710691
 30
0.0
 11
359.4149625650316
 21
-52.98629273710691
 31
0.0
  0
LINE
  5
BB1
330
2
100
AcDbEntity
  8
画層1
  6
DASHED2
 62
     2
100
AcDbLine
 10
361.4149625650316
 20
-45.48629273710689
 30
0.0
 11
361.4149625650316
 21
-53.48629273710691
 31
0.0
  0
LINE
  5
BB2
330
2
100
AcDbEntity
  8
画層1
  6
DASHED2
 62
     2
100
AcDbLine
 10
361.4149625650316
 20
-55.38629273710705
 30
0.0
 11
359.4149625650316
 21
-55.38629273710705
 31
0.0
  0
LINE
  5
BB3
330
2
100
AcDbEntity
  8
画層1
  6
DASHED2
 62
     2
100
AcDbLine
 10
372.4149625650313
 20
-51.28629273710693
 30
0.0
 11
372.4149625650313
 21
-59.28629273710693
 31
0.0
  0
LINE
  5
BB4
330
2
100
AcDbEntity
  8
画層1
  6
DASHED2
 62
     2
100
AcDbLine
 10
369.6149625650316
 20
-52.28629273710702
 30
0.0
 11
369.6149625650316
 21
-58.28629273710703
 31
0.0
  0
LINE
  5
BB5
330
2
100
AcDbEntity
  8
画層1
  6
DASHED2
 62
     2
100
AcDbLine
 10
370.4149625650313
 20
-51.78629273710702
 30
0.0
 11
370.4149625650313
 21
-58.78629273710703
 31
0.0
  0
ARC
  5
BB6
330
2
100
AcDbEntity
  8
画層1
  6
DASHED2
 62
     2
100
AcDbCircle
 10
368.0149625650313
 20
-56.68629273710688
 30
0.0
 40
1.6
100
AcDbArc
 50
180.0
 51
270.0
  0
LINE
  5
BB7
330
2
100
AcDbEntity
  8
画層1
  6
DASHED2
 62
     2
100
AcDbLine
 10
368.0149625650313
 20
-58.28629273710703
 30
0.0
 11
370.4149625650313
 21
-58.28629273710703
 31
0.0
  0
LINE
  5
BB8
330
2
100
AcDbEntity
  8
画層1
  6
DASHED2
 62
     2
100
AcDbLine
 10
370.4149625650313
 20
-61.68629273710688
 30
0.0
 11
368.0149625650313
 21
-61.68629273710688
 31
0.0
  0
LINE
  5
BB9
330
2
100
AcDbEntity
  8
画層1
  6
DASHED2
 62
     2
100
AcDbLine
 10
368.0149625650313
 20
-67.6862927371069
 30
0.0
 11
370.4149625650313
 21
-67.6862927371069
 31
0.0
  0
LINE
  5
BBA
330
2
100
AcDbEntity
  8
画層1
  6
DASHED2
 62
     2
100
AcDbLine
 10
370.4149625650313
 20
-71.08629273710704
 30
0.0
 11
368.0149625650313
 21
-71.08629273710704
 31
0.0
  0
LINE
  5
BBB
330
2
100
AcDbEntity
  8
画層1
  6
DASHED2
 62
     2
100
AcDbLine
 10
366.4149625650313
 20
-63.28629273710692
 30
0.0
 11
366.4149625650313
 21
-66.08629273710693
 31
0.0
  0
ARC
  5
BBC
330
2
100
AcDbEntity
  8
画層1
  6
DASHED2
 62
     2
100
AcDbCircle
 10
368.0149625650313
 20
-63.28629273710692
 30
0.0
 40
1.6
100
AcDbArc
 50
90.0
 51
180.0
  0
ARC
  5
BBD
330
2
100
AcDbEntity
  8
画層1
  6
DASHED2
 62
     2
100
AcDbCircle
 10
368.0149625650313
 20
-66.08629273710693
 30
0.0
 40
1.6
100
AcDbArc
 50
180.0
 51
270.0
  0
LINE
  5
BBE
330
2
100
AcDbEntity
  8
画層1
  6
DASHED2
 62
     2
100
AcDbLine
 10
370.4149625650313
 20
-58.78629273710703
 30
0.0
 11
372.4149625650313
 21
-58.78629273710703
 31
0.0
  0
LINE
  5
BBF
330
2
100
AcDbEntity
  8
画層1
  6
DASHED2
 62
     2
100
AcDbLine
 10
372.4149625650313
 20
-61.18629273710689
 30
0.0
 11
370.4149625650313
 21
-61.18629273710689
 31
0.0
  0
LINE
  5
BC0
330
2
100
AcDbEntity
  8
画層1
  6
DASHED2
 62
     2
100
AcDbLine
 10
370.4149625650313
 20
-68.1862927371069
 30
0.0
 11
372.4149625650313
 21
-68.1862927371069
 31
0.0
  0
LINE
  5
BC1
330
2
100
AcDbEntity
  8
画層1
  6
DASHED2
 62
     2
100
AcDbLine
 10
372.4149625650313
 20
-70.58629273710693
 30
0.0
 11
370.4149625650313
 21
-70.58629273710693
 31
0.0
  0
LINE
  5
BC2
330
2
100
AcDbEntity
  8
画層1
  6
DASHED2
 62
     2
100
AcDbLine
 10
369.6149625650316
 20
-61.68629273710688
 30
0.0
 11
369.6149625650316
 21
-67.6862927371069
 31
0.0
  0
LINE
  5
BC3
330
2
100
AcDbEntity
  8
画層1
  6
DASHED2
 62
     2
100
AcDbLine
 10
370.4149625650313
 20
-61.18629273710689
 30
0.0
 11
370.4149625650313
 21
-68.1862927371069
 31
0.0
  0
LINE
  5
BC4
330
2
100
AcDbEntity
  8
画層1
  6
DASHED2
 62
     2
100
AcDbLine
 10
372.4149625650313
 20
-60.6862927371069
 30
0.0
 11
372.4149625650313
 21
-68.68629273710688
 31
0.0
  0
LINE
  5
BC5
330
2
100
AcDbEntity
  8
画層1
  6
DASHED2
 62
     2
100
AcDbLine
 10
370.4149625650313
 20
-52.28629273710702
 30
0.0
 11
368.0149625650313
 21
-52.28629273710702
 31
0.0
  0
LINE
  5
BC6
330
2
100
AcDbEntity
  8
画層1
  6
DASHED2
 62
     2
100
AcDbLine
 10
372.4149625650313
 20
-51.28629273710693
 30
0.0
 11
364.9149625650315
 21
-51.28629273710693
 31
0.0
  0
LINE
  5
BC7
330
2
100
AcDbEntity
  8
画層1
  6
DASHED2
 62
     2
100
AcDbLine
 10
364.9149625650315
 20
-51.28629273710693
 30
0.0
 11
364.9149625650315
 21
-45.48629273710689
 31
0.0
  0
LINE
  5
BC8
330
2
100
AcDbEntity
  8
画層1
  6
DASHED2
 62
     2
100
AcDbLine
 10
366.4149625650313
 20
-53.88629273710705
 30
0.0
 11
366.4149625650313
 21
-56.68629273710688
 31
0.0
  0
ARC
  5
BC9
330
2
100
AcDbEntity
  8
画層1
  6
DASHED2
 62
     2
100
AcDbCircle
 10
368.0149625650313
 20
-53.88629273710705
 30
0.0
 40
1.6
100
AcDbArc
 50
90.0
 51
180.0
  0
LINE
  5
BCA
330
2
100
AcDbEntity
  8
画層1
  6
DASHED2
 62
     2
100
AcDbLine
 10
372.4149625650313
 20
-51.78629273710702
 30
0.0
 11
370.4149625650313
 21
-51.78629273710702
 31
0.0
  0
LINE
  5
BCB
330
2
100
AcDbEntity
  8
画層1
 62
     3
100
AcDbLine
 10
338.9149625650313
 20
-2.486292737106906
 30
0.0
 11
364.9149625650315
 21
-2.486292737106906
 31
0.0
  0
LINE
  5
BCC
330
2
100
AcDbEntity
  8
画層1
 62
     3
100
AcDbLine
 10
341.1149625650316
 20
-5.986292737106907
 30
0.0
 11
344.1149625650316
 21
-5.986292737106907
 31
0.0
  0
LINE
  5
BCD
330
2
100
AcDbEntity
  8
画層1
 62
     3
100
AcDbLine
 10
341.1149625650316
 20
-6.786292737106919
 30
0.0
 11
344.9149625650314
 21
-6.786292737106919
 31
0.0
  0
LINE
  5
BCE
330
2
100
AcDbEntity
  8
画層1
 62
     3
100
AcDbLine
 10
344.1149625650316
 20
-8.986292737106907
 30
0.0
 11
341.1149625650316
 21
-8.986292737106907
 31
0.0
  0
LINE
  5
BCF
330
2
100
AcDbEntity
  8
画層1
 62
     3
100
AcDbLine
 10
344.9149625650314
 20
-8.186292737106896
 30
0.0
 11
341.1149625650316
 21
-8.186292737106896
 31
0.0
  0
LINE
  5
BD0
330
2
100
AcDbEntity
  8
画層1
 62
     3
100
AcDbLine
 10
337.7149625650313
 20
-4.886292737107054
 30
0.0
 11
336.9149625650313
 21
-4.886292737107054
 31
0.0
  0
LINE
  5
BD1
330
2
100
AcDbEntity
  8
画層1
 62
     3
100
AcDbLine
 10
336.9149625650313
 20
-10.08629273710692
 30
0.0
 11
337.7149625650313
 21
-10.08629273710692
 31
0.0
  0
LINE
  5
BD2
330
2
100
AcDbEntity
  8
画層1
 62
     3
100
AcDbLine
 10
336.5149625650313
 20
-7.086292737107044
 30
0.0
 11
335.9149625650315
 21
-7.086292737107044
 31
0.0
  0
LINE
  5
BD3
330
2
100
AcDbEntity
  8
画層1
 62
     3
100
AcDbLine
 10
335.9149625650315
 20
-7.886292737107055
 30
0.0
 11
336.5149625650313
 21
-7.886292737107055
 31
0.0
  0
LINE
  5
BD4
330
2
100
AcDbEntity
  8
画層1
 62
     3
100
AcDbLine
 10
336.5149625650313
 20
-7.886292737107055
 30
0.0
 11
336.5149625650313
 21
-7.086292737107044
 31
0.0
  0
LINE
  5
BD5
330
2
100
AcDbEntity
  8
画層1
 62
     3
100
AcDbLine
 10
335.9149625650315
 20
-5.886292737107055
 30
0.0
 11
335.9149625650315
 21
-9.086292737107044
 31
0.0
  0
ARC
  5
BD6
330
2
100
AcDbEntity
  8
画層1
 62
     3
100
AcDbCircle
 10
336.9149625650313
 20
-5.886292737107055
 30
0.0
 40
1.0
100
AcDbArc
 50
90.0
 51
180.0
  0
ARC
  5
BD7
330
2
100
AcDbEntity
  8
画層1
 62
     3
100
AcDbCircle
 10
336.9149625650313
 20
-9.086292737107044
 30
0.0
 40
1.0
100
AcDbArc
 50
180.0
 51
270.0
  0
LINE
  5
BD8
330
2
100
AcDbEntity
  8
画層1
 62
     3
100
AcDbLine
 10
338.9149625650313
 20
-3.686292737106896
 30
0.0
 11
338.3149625650313
 21
-3.686292737106896
 31
0.0
  0
LINE
  5
BD9
330
2
100
AcDbEntity
  8
画層1
 62
     3
100
AcDbLine
 10
338.3149625650313
 20
-11.28629273710691
 30
0.0
 11
338.9149625650313
 21
-11.28629273710691
 31
0.0
  0
LINE
  5
BDA
330
2
100
AcDbEntity
  8
画層1
 62
     3
100
AcDbLine
 10
337.7149625650313
 20
-10.08629273710692
 30
0.0
 11
338.3149625650313
 21
-11.28629273710691
 31
0.0
  0
LINE
  5
BDB
330
2
100
AcDbEntity
  8
画層1
 62
     3
100
AcDbLine
 10
337.7149625650313
 20
-4.886292737107054
 30
0.0
 11
337.7149625650313
 21
-10.08629273710692
 31
0.0
  0
LINE
  5
BDC
330
2
100
AcDbEntity
  8
画層1
 62
     3
100
AcDbLine
 10
338.3149625650313
 20
-3.686292737106896
 30
0.0
 11
337.7149625650313
 21
-4.886292737107054
 31
0.0
  0
LINE
  5
BDD
330
2
100
AcDbEntity
  8
画層1
 62
     3
100
AcDbLine
 10
341.1149625650316
 20
-2.486292737106906
 30
0.0
 11
341.1149625650316
 21
-12.98629273710707
 31
0.0
  0
LINE
  5
BDE
330
2
100
AcDbEntity
  8
画層1
 62
     3
100
AcDbLine
 10
339.9149625650315
 20
-2.486292737106906
 30
0.0
 11
339.9149625650315
 21
-12.98629273710707
 31
0.0
  0
LINE
  5
BDF
330
2
100
AcDbEntity
  8
画層1
 62
     3
100
AcDbLine
 10
344.1149625650316
 20
-5.986292737106907
 30
0.0
 11
344.9149625650314
 21
-6.786292737106919
 31
0.0
  0
LINE
  5
BE0
330
2
100
AcDbEntity
  8
画層1
 62
     3
100
AcDbLine
 10
344.9149625650314
 20
-8.186292737106896
 30
0.0
 11
344.1149625650316
 21
-8.986292737106907
 31
0.0
  0
LINE
  5
BE1
330
2
100
AcDbEntity
  8
画層1
 62
     3
100
AcDbLine
 10
344.1149625650316
 20
-5.986292737106907
 30
0.0
 11
344.1149625650316
 21
-8.986292737106907
 31
0.0
  0
LINE
  5
BE2
330
2
100
AcDbEntity
  8
画層1
 62
     3
100
AcDbLine
 10
344.9149625650314
 20
-6.786292737106919
 30
0.0
 11
344.9149625650314
 21
-8.186292737106896
 31
0.0
  0
LINE
  5
BE3
330
2
100
AcDbEntity
  8
画層1
 62
     3
100
AcDbLine
 10
364.9149625650315
 20
-2.486292737106906
 30
0.0
 11
364.9149625650315
 21
-13.4862927371069
 31
0.0
  0
LINE
  5
BE4
330
2
100
AcDbEntity
  8
画層1
 62
     3
100
AcDbLine
 10
364.9149625650315
 20
-2.486292737106906
 30
0.0
 11
364.9149625650315
 21
-13.98629273710707
 31
0.0
  0
LINE
  5
BE5
330
2
100
AcDbEntity
  8
画層1
 62
     3
100
AcDbLine
 10
366.9149625650315
 20
-2.486292737106904
 30
0.0
 11
366.9149625650315
 21
-12.98629273710707
 31
0.0
  0
LINE
  5
BFB
330
2
100
AcDbEntity
  8
画層1
 62
     3
100
AcDbLine
 10
387.9149625650315
 20
-3.686292737106896
 30
0.0
 11
387.3149625650316
 21
-3.686292737106896
 31
0.0
  0
LINE
  5
BFC
330
2
100
AcDbEntity
  8
画層1
 62
     3
100
AcDbLine
 10
386.7149625650315
 20
-10.08629273710692
 30
0.0
 11
387.3149625650316
 21
-11.28629273710691
 31
0.0
  0
LINE
  5
BFD
330
2
100
AcDbEntity
  8
画層1
 62
     3
100
AcDbLine
 10
387.3149625650316
 20
-11.28629273710691
 30
0.0
 11
387.9149625650315
 21
-11.28629273710691
 31
0.0
  0
LINE
  5
BFE
330
2
100
AcDbEntity
  8
画層1
 62
     3
100
AcDbLine
 10
386.7149625650315
 20
-4.886292737107054
 30
0.0
 11
386.7149625650315
 21
-10.08629273710692
 31
0.0
  0
LINE
  5
C02
330
2
100
AcDbEntity
  8
画層1
 62
     3
100
AcDbLine
 10
387.3149625650316
 20
-3.686292737106896
 30
0.0
 11
386.7149625650315
 21
-4.886292737107054
 31
0.0
  0
LINE
  5
C03
330
2
100
AcDbEntity
  8
画層1
 62
     3
100
AcDbLine
 10
387.9149625650315
 20
-2.486292737106906
 30
0.0
 11
387.9149625650315
 21
-12.98629273710707
 31
0.0
  0
LINE
  5
C04
330
2
100
AcDbEntity
  8
画層1
 62
     3
100
AcDbLine
 10
338.9149625650313
 20
-2.486292737106906
 30
0.0
 11
338.9149625650313
 21
-302.4862927371068
 31
0.0
  0
LINE
  5
C09
330
2
100
AcDbEntity
  8
画層1
 62
     3
100
AcDbLine
 10
338.9149625650313
 20
-291.9862927371068
 30
0.0
 11
388.9149625650314
 21
-291.9862927371068
 31
0.0
  0
LINE
  5
C0A
330
2
100
AcDbEntity
  8
画層1
 62
     3
100
AcDbLine
 10
338.9149625650313
 20
-302.4862927371068
 30
0.0
 11
364.9149625650313
 21
-302.4862927371068
 31
0.0
  0
LINE
  5
C0B
330
2
100
AcDbEntity
  8
画層1
 62
     3
100
AcDbLine
 10
341.1149625650315
 20
-302.4862927371068
 30
0.0
 11
341.1149625650315
 21
-291.9862927371068
 31
0.0
  0
LINE
  5
C0C
330
2
100
AcDbEntity
  8
画層1
 62
     3
100
AcDbLine
 10
339.9149625650313
 20
-302.4862927371068
 30
0.0
 11
339.9149625650313
 21
-291.9862927371068
 31
0.0
  0
LINE
  5
C0D
330
2
100
AcDbEntity
  8
画層1
 62
     3
100
AcDbLine
 10
341.1149625650315
 20
-295.9862927371068
 30
0.0
 11
344.1149625650315
 21
-295.9862927371068
 31
0.0
  0
LINE
  5
C0E
330
2
100
AcDbEntity
  8
画層1
 62
     3
100
AcDbLine
 10
344.9149625650314
 20
-298.1862927371068
 30
0.0
 11
341.1149625650315
 21
-298.1862927371068
 31
0.0
  0
LINE
  5
C0F
330
2
100
AcDbEntity
  8
画層1
 62
     3
100
AcDbLine
 10
341.1149625650315
 20
-296.7862927371068
 30
0.0
 11
344.9149625650314
 21
-296.7862927371068
 31
0.0
  0
LINE
  5
C10
330
2
100
AcDbEntity
  8
画層1
 62
     3
100
AcDbLine
 10
344.1149625650315
 20
-298.9862927371067
 30
0.0
 11
341.1149625650315
 21
-298.9862927371067
 31
0.0
  0
LINE
  5
C19
330
2
100
AcDbEntity
  8
画層1
 62
     3
100
AcDbLine
 10
337.7149625650313
 20
-294.8862927371068
 30
0.0
 11
338.3149625650313
 21
-293.6862927371068
 31
0.0
  0
LINE
  5
C1A
330
2
100
AcDbEntity
  8
画層1
 62
     3
100
AcDbLine
 10
338.3149625650313
 20
-293.6862927371068
 30
0.0
 11
338.9149625650313
 21
-293.6862927371068
 31
0.0
  0
LINE
  5
C1B
330
2
100
AcDbEntity
  8
画層1
 62
     3
100
AcDbLine
 10
338.9149625650313
 20
-301.2862927371068
 30
0.0
 11
338.3149625650313
 21
-301.2862927371068
 31
0.0
  0
LINE
  5
C1C
330
2
100
AcDbEntity
  8
画層1
 62
     3
100
AcDbLine
 10
338.3149625650313
 20
-301.2862927371068
 30
0.0
 11
337.7149625650313
 21
-300.0862927371068
 31
0.0
  0
LINE
  5
C1D
330
2
100
AcDbEntity
  8
画層1
 62
     3
100
AcDbLine
 10
337.7149625650313
 20
-300.0862927371068
 30
0.0
 11
337.7149625650313
 21
-294.8862927371068
 31
0.0
  0
LINE
  5
C1E
330
2
100
AcDbEntity
  8
画層1
 62
     3
100
AcDbLine
 10
344.9149625650314
 20
-296.7862927371068
 30
0.0
 11
344.9149625650314
 21
-298.1862927371068
 31
0.0
  0
LINE
  5
C1F
330
2
100
AcDbEntity
  8
画層1
 62
     3
100
AcDbLine
 10
344.1149625650315
 20
-295.9862927371068
 30
0.0
 11
344.9149625650314
 21
-296.7862927371068
 31
0.0
  0
LINE
  5
C20
330
2
100
AcDbEntity
  8
画層1
 62
     3
100
AcDbLine
 10
344.1149625650315
 20
-295.9862927371068
 30
0.0
 11
344.1149625650315
 21
-298.9862927371067
 31
0.0
  0
LINE
  5
C21
330
2
100
AcDbEntity
  8
画層1
 62
     3
100
AcDbLine
 10
344.9149625650314
 20
-298.1862927371068
 30
0.0
 11
344.1149625650315
 21
-298.9862927371067
 31
0.0
  0
LINE
  5
C22
330
2
100
AcDbEntity
  8
画層1
 62
     3
100
AcDbLine
 10
366.9149625650313
 20
-302.4862927371068
 30
0.0
 11
366.9149625650313
 21
-291.9862927371068
 31
0.0
  0
LINE
  5
C23
330
2
100
AcDbEntity
  8
画層1
 62
     3
100
AcDbLine
 10
364.9149625650313
 20
-291.9862927371068
 30
0.0
 11
364.9149625650313
 21
-302.4862927371068
 31
0.0
  0
LINE
  5
C24
330
2
100
AcDbEntity
  8
画層1
 62
     3
100
AcDbLine
 10
364.9149625650313
 20
-302.4862927371068
 30
0.0
 11
364.9149625650313
 21
-291.9862927371068
 31
0.0
  0
LINE
  5
C25
330
2
100
AcDbEntity
  8
画層1
 62
     3
100
AcDbLine
 10
387.9149625650313
 20
-302.4862927371068
 30
0.0
 11
387.9149625650313
 21
-291.9862927371068
 31
0.0
  0
LINE
  5
C3B
330
2
100
AcDbEntity
  8
画層1
 62
     3
100
AcDbLine
 10
387.3149625650315
 20
-293.6862927371068
 30
0.0
 11
387.9149625650313
 21
-293.6862927371068
 31
0.0
  0
LINE
  5
C3C
330
2
100
AcDbEntity
  8
画層1
 62
     3
100
AcDbLine
 10
386.7149625650313
 20
-294.8862927371068
 30
0.0
 11
387.3149625650315
 21
-293.6862927371068
 31
0.0
  0
LINE
  5
C3D
330
2
100
AcDbEntity
  8
画層1
 62
     3
100
AcDbLine
 10
387.3149625650315
 20
-301.2862927371068
 30
0.0
 11
386.7149625650313
 21
-300.0862927371068
 31
0.0
  0
LINE
  5
C3E
330
2
100
AcDbEntity
  8
画層1
 62
     3
100
AcDbLine
 10
387.9149625650313
 20
-301.2862927371068
 30
0.0
 11
387.3149625650315
 21
-301.2862927371068
 31
0.0
  0
LINE
  5
C3F
330
2
100
AcDbEntity
  8
画層1
 62
     3
100
AcDbLine
 10
386.7149625650313
 20
-300.0862927371068
 30
0.0
 11
386.7149625650313
 21
-294.8862927371068
 31
0.0
  0
CIRCLE
  5
C4B
330
2
100
AcDbEntity
  8
画層1
 62
     3
100
AcDbCircle
 10
428.9149625650316
 20
-114.4862927371069
 30
0.0
 40
9.0
  0
CIRCLE
  5
C4C
330
2
100
AcDbEntity
  8
画層1
 62
     3
100
AcDbCircle
 10
428.9149625650316
 20
-140.4862927371069
 30
0.0
 40
9.0
  0
CIRCLE
  5
C4D
330
2
100
AcDbEntity
  8
画層1
 62
     3
100
AcDbCircle
 10
493.9149625650316
 20
-72.4862927371069
 30
0.0
 40
5.0
  0
CIRCLE
  5
C4E
330
2
100
AcDbEntity
  8
画層1
 62
     3
100
AcDbCircle
 10
493.9149625650316
 20
-172.4862927371069
 30
0.0
 40
5.0
  0
CIRCLE
  5
C4F
330
2
100
AcDbEntity
  8
画層1
 62
     3
100
AcDbCircle
 10
493.9149625650316
 20
-72.4862927371069
 30
0.0
 40
6.0
  0
CIRCLE
  5
C50
330
2
100
AcDbEntity
  8
画層1
 62
     3
100
AcDbCircle
 10
493.9149625650316
 20
-172.4862927371069
 30
0.0
 40
6.0
  0
CIRCLE
  5
C51
330
2
100
AcDbEntity
  8
画層1
 62
     3
100
AcDbCircle
 10
493.9149625650316
 20
-172.4862927371069
 30
0.0
 40
7.0
  0
CIRCLE
  5
C52
330
2
100
AcDbEntity
  8
画層1
 62
     3
100
AcDbCircle
 10
493.9149625650316
 20
-72.4862927371069
 30
0.0
 40
7.0
  0
LINE
  5
C53
330
2
100
AcDbEntity
  8
画層1
 62
     3
100
AcDbLine
 10
493.4149625650317
 20
-70.98629273710691
 30
0.0
 11
493.4149625650317
 21
-70.48629273710691
 31
0.0
  0
LINE
  5
C54
330
2
100
AcDbEntity
  8
画層1
 62
     3
100
AcDbLine
 10
494.4149625650316
 20
-70.48629273710691
 30
0.0
 11
494.4149625650316
 21
-70.98629273710691
 31
0.0
  0
LINE
  5
C55
330
2
100
AcDbEntity
  8
画層1
 62
     3
100
AcDbLine
 10
492.4149625650316
 20
-72.98629273710691
 30
0.0
 11
491.9149625650316
 21
-72.98629273710691
 31
0.0
  0
LINE
  5
C56
330
2
100
AcDbEntity
  8
画層1
 62
     3
100
AcDbLine
 10
491.9149625650316
 20
-71.9862927371069
 30
0.0
 11
492.4149625650316
 21
-71.9862927371069
 31
0.0
  0
LINE
  5
C57
330
2
100
AcDbEntity
  8
画層1
 62
     3
100
AcDbLine
 10
491.9149625650316
 20
-72.98629273710691
 30
0.0
 11
491.9149625650316
 21
-71.9862927371069
 31
0.0
  0
LINE
  5
C58
330
2
100
AcDbEntity
  8
画層1
 62
     3
100
AcDbLine
 10
495.9149625650316
 20
-71.9862927371069
 30
0.0
 11
495.9149625650316
 21
-72.98629273710691
 31
0.0
  0
ARC
  5
C59
330
2
100
AcDbEntity
  8
画層1
 62
     3
100
AcDbCircle
 10
495.4149625650316
 20
-73.98629273710691
 30
0.0
 40
1.0
100
AcDbArc
 50
90.0
 51
180.0
  0
LINE
  5
C5A
330
2
100
AcDbEntity
  8
画層1
 62
     3
100
AcDbLine
 10
494.4149625650316
 20
-74.4862927371069
 30
0.0
 11
493.4149625650317
 21
-74.4862927371069
 31
0.0
  0
LINE
  5
C5B
330
2
100
AcDbEntity
  8
画層1
 62
     3
100
AcDbLine
 10
493.4149625650317
 20
-74.4862927371069
 30
0.0
 11
493.4149625650317
 21
-73.98629273710691
 31
0.0
  0
LINE
  5
C5C
330
2
100
AcDbEntity
  8
画層1
 62
     3
100
AcDbLine
 10
494.4149625650316
 20
-73.98629273710691
 30
0.0
 11
494.4149625650316
 21
-74.4862927371069
 31
0.0
  0
ARC
  5
C5D
330
2
100
AcDbEntity
  8
画層1
 62
     3
100
AcDbCircle
 10
492.4149625650316
 20
-73.98629273710691
 30
0.0
 40
1.0
100
AcDbArc
 50
0.0
 51
90.0
  0
LINE
  5
C5E
330
2
100
AcDbEntity
  8
画層1
 62
     3
100
AcDbLine
 10
495.4149625650316
 20
-71.9862927371069
 30
0.0
 11
495.9149625650316
 21
-71.9862927371069
 31
0.0
  0
LINE
  5
C5F
330
2
100
AcDbEntity
  8
画層1
 62
     3
100
AcDbLine
 10
495.9149625650316
 20
-72.98629273710691
 30
0.0
 11
495.4149625650316
 21
-72.98629273710691
 31
0.0
  0
ARC
  5
C60
330
2
100
AcDbEntity
  8
画層1
 62
     3
100
AcDbCircle
 10
495.4149625650316
 20
-70.98629273710691
 30
0.0
 40
1.0
100
AcDbArc
 50
180.0
 51
270.0
  0
ARC
  5
C61
330
2
100
AcDbEntity
  8
画層1
 62
     3
100
AcDbCircle
 10
492.4149625650316
 20
-70.98629273710691
 30
0.0
 40
1.0
100
AcDbArc
 50
270.0
 51
0.0
  0
LINE
  5
C62
330
2
100
AcDbEntity
  8
画層1
 62
     3
100
AcDbLine
 10
493.4149625650317
 20
-70.48629273710691
 30
0.0
 11
494.4149625650316
 21
-70.48629273710691
 31
0.0
  0
LINE
  5
C63
330
2
100
AcDbEntity
  8
画層1
 62
     3
100
AcDbLine
 10
493.4149625650317
 20
-170.4862927371069
 30
0.0
 11
494.4149625650316
 21
-170.4862927371069
 31
0.0
  0
ARC
  5
C64
330
2
100
AcDbEntity
  8
画層1
 62
     3
100
AcDbCircle
 10
492.4149625650316
 20
-170.9862927371069
 30
0.0
 40
1.0
100
AcDbArc
 50
270.0
 51
0.0
  0
ARC
  5
C65
330
2
100
AcDbEntity
  8
画層1
 62
     3
100
AcDbCircle
 10
495.4149625650316
 20
-170.9862927371069
 30
0.0
 40
1.0
100
AcDbArc
 50
180.0
 51
270.0
  0
LINE
  5
C66
330
2
100
AcDbEntity
  8
画層1
 62
     3
100
AcDbLine
 10
495.9149625650316
 20
-172.9862927371069
 30
0.0
 11
495.4149625650316
 21
-172.9862927371069
 31
0.0
  0
LINE
  5
C67
330
2
100
AcDbEntity
  8
画層1
 62
     3
100
AcDbLine
 10
495.4149625650316
 20
-171.9862927371069
 30
0.0
 11
495.9149625650316
 21
-171.9862927371069
 31
0.0
  0
ARC
  5
C68
330
2
100
AcDbEntity
  8
画層1
 62
     3
100
AcDbCircle
 10
492.4149625650316
 20
-173.9862927371069
 30
0.0
 40
1.0
100
AcDbArc
 50
0.0
 51
90.0
  0
LINE
  5
C69
330
2
100
AcDbEntity
  8
画層1
 62
     3
100
AcDbLine
 10
494.4149625650316
 20
-173.9862927371069
 30
0.0
 11
494.4149625650316
 21
-174.4862927371069
 31
0.0
  0
LINE
  5
C6A
330
2
100
AcDbEntity
  8
画層1
 62
     3
100
AcDbLine
 10
493.4149625650317
 20
-174.4862927371069
 30
0.0
 11
493.4149625650317
 21
-173.9862927371069
 31
0.0
  0
LINE
  5
C6B
330
2
100
AcDbEntity
  8
画層1
 62
     3
100
AcDbLine
 10
494.4149625650316
 20
-174.4862927371069
 30
0.0
 11
493.4149625650317
 21
-174.4862927371069
 31
0.0
  0
ARC
  5
C6C
330
2
100
AcDbEntity
  8
画層1
 62
     3
100
AcDbCircle
 10
495.4149625650316
 20
-173.9862927371069
 30
0.0
 40
1.0
100
AcDbArc
 50
90.0
 51
180.0
  0
LINE
  5
C6D
330
2
100
AcDbEntity
  8
画層1
 62
     3
100
AcDbLine
 10
495.9149625650316
 20
-171.9862927371069
 30
0.0
 11
495.9149625650316
 21
-172.9862927371069
 31
0.0
  0
LINE
  5
C6E
330
2
100
AcDbEntity
  8
画層1
 62
     3
100
AcDbLine
 10
491.9149625650316
 20
-172.9862927371069
 30
0.0
 11
491.9149625650316
 21
-171.9862927371069
 31
0.0
  0
LINE
  5
C6F
330
2
100
AcDbEntity
  8
画層1
 62
     3
100
AcDbLine
 10
491.9149625650316
 20
-171.9862927371069
 30
0.0
 11
492.4149625650316
 21
-171.9862927371069
 31
0.0
  0
LINE
  5
C70
330
2
100
AcDbEntity
  8
画層1
 62
     3
100
AcDbLine
 10
492.4149625650316
 20
-172.9862927371069
 30
0.0
 11
491.9149625650316
 21
-172.9862927371069
 31
0.0
  0
LINE
  5
C71
330
2
100
AcDbEntity
  8
画層1
 62
     3
100
AcDbLine
 10
494.4149625650316
 20
-170.4862927371069
 30
0.0
 11
494.4149625650316
 21
-170.9862927371069
 31
0.0
  0
LINE
  5
C72
330
2
100
AcDbEntity
  8
画層1
 62
     3
100
AcDbLine
 10
493.4149625650317
 20
-170.9862927371069
 30
0.0
 11
493.4149625650317
 21
-170.4862927371069
 31
0.0
  0
CIRCLE
  5
C9F
330
2
100
AcDbEntity
  8
画層1
 62
     3
100
AcDbCircle
 10
453.9149625650316
 20
-237.4862927371068
 30
0.0
 40
3.5
  0
CIRCLE
  5
CA0
330
2
100
AcDbEntity
  8
画層1
 62
     3
100
AcDbCircle
 10
453.9149625650316
 20
-257.4862927371067
 30
0.0
 40
3.5
  0
CIRCLE
  5
CA1
330
2
100
AcDbEntity
  8
画層1
 62
     3
100
AcDbCircle
 10
453.9149625650316
 20
-257.4862927371067
 30
0.0
 40
5.0
  0
CIRCLE
  5
CA2
330
2
100
AcDbEntity
  8
画層1
 62
     3
100
AcDbCircle
 10
453.9149625650316
 20
-237.4862927371068
 30
0.0
 40
5.0
  0
LINE
  5
CA3
330
2
100
AcDbEntity
  8
画層1
 62
     3
100
AcDbLine
 10
452.1149625650316
 20
-237.9862927371068
 30
0.0
 11
452.1149625650316
 21
-236.9862927371066
 31
0.0
  0
LINE
  5
CA4
330
2
100
AcDbEntity
  8
画層1
 62
     3
100
AcDbLine
 10
455.7149625650315
 20
-237.9862927371068
 30
0.0
 11
455.7149625650315
 21
-236.9862927371066
 31
0.0
  0
ARC
  5
CA5
330
2
100
AcDbEntity
  8
画層1
 62
     3
100
AcDbCircle
 10
452.4149625650315
 20
-238.9862927371066
 30
0.0
 40
1.0
100
AcDbArc
 50
0.0
 51
90.0
  0
ARC
  5
CA6
330
2
100
AcDbEntity
  8
画層1
 62
     3
100
AcDbCircle
 10
455.4149625650315
 20
-238.9862927371066
 30
0.0
 40
1.0
100
AcDbArc
 50
90.0
 51
180.0
  0
LINE
  5
CA7
330
2
100
AcDbEntity
  8
画層1
 62
     3
100
AcDbLine
 10
453.4149625650316
 20
-239.2862927371067
 30
0.0
 11
454.4149625650314
 21
-239.2862927371067
 31
0.0
  0
LINE
  5
CA8
330
2
100
AcDbEntity
  8
画層1
 62
     3
100
AcDbLine
 10
453.4149625650316
 20
-239.2862927371067
 30
0.0
 11
453.4149625650316
 21
-238.9862927371066
 31
0.0
  0
LINE
  5
CA9
330
2
100
AcDbEntity
  8
画層1
 62
     3
100
AcDbLine
 10
452.4149625650315
 20
-237.9862927371068
 30
0.0
 11
452.1149625650316
 21
-237.9862927371068
 31
0.0
  0
LINE
  5
CAA
330
2
100
AcDbEntity
  8
画層1
 62
     3
100
AcDbLine
 10
454.4149625650314
 20
-238.9862927371066
 30
0.0
 11
454.4149625650314
 21
-239.2862927371067
 31
0.0
  0
LINE
  5
CAB
330
2
100
AcDbEntity
  8
画層1
 62
     3
100
AcDbLine
 10
455.7149625650315
 20
-237.9862927371068
 30
0.0
 11
455.4149625650315
 21
-237.9862927371068
 31
0.0
  0
ARC
  5
CAC
330
2
100
AcDbEntity
  8
画層1
 62
     3
100
AcDbCircle
 10
455.4149625650315
 20
-235.9862927371068
 30
0.0
 40
1.0
100
AcDbArc
 50
180.0
 51
270.0
  0
ARC
  5
CAD
330
2
100
AcDbEntity
  8
画層1
 62
     3
100
AcDbCircle
 10
452.4149625650315
 20
-235.9862927371068
 30
0.0
 40
1.0
100
AcDbArc
 50
270.0
 51
0.0
  0
LINE
  5
CAE
330
2
100
AcDbEntity
  8
画層1
 62
     3
100
AcDbLine
 10
453.4149625650316
 20
-235.6862927371067
 30
0.0
 11
454.4149625650314
 21
-235.6862927371067
 31
0.0
  0
LINE
  5
CAF
330
2
100
AcDbEntity
  8
画層1
 62
     3
100
AcDbLine
 10
452.1149625650316
 20
-236.9862927371066
 30
0.0
 11
452.4149625650315
 21
-236.9862927371066
 31
0.0
  0
LINE
  5
CB0
330
2
100
AcDbEntity
  8
画層1
 62
     3
100
AcDbLine
 10
453.4149625650316
 20
-235.9862927371068
 30
0.0
 11
453.4149625650316
 21
-235.6862927371067
 31
0.0
  0
LINE
  5
CB1
330
2
100
AcDbEntity
  8
画層1
 62
     3
100
AcDbLine
 10
454.4149625650314
 20
-235.6862927371067
 30
0.0
 11
454.4149625650314
 21
-235.9862927371068
 31
0.0
  0
LINE
  5
CB2
330
2
100
AcDbEntity
  8
画層1
 62
     3
100
AcDbLine
 10
455.4149625650315
 20
-236.9862927371066
 30
0.0
 11
455.7149625650315
 21
-236.9862927371066
 31
0.0
  0
LINE
  5
CB3
330
2
100
AcDbEntity
  8
画層1
 62
     3
100
AcDbLine
 10
452.1149625650316
 20
-257.9862927371066
 30
0.0
 11
452.1149625650316
 21
-256.9862927371068
 31
0.0
  0
LINE
  5
CB4
330
2
100
AcDbEntity
  8
画層1
 62
     3
100
AcDbLine
 10
455.7149625650315
 20
-257.9862927371066
 30
0.0
 11
455.7149625650315
 21
-256.9862927371068
 31
0.0
  0
ARC
  5
CB5
330
2
100
AcDbEntity
  8
画層1
 62
     3
100
AcDbCircle
 10
452.4149625650315
 20
-258.9862927371068
 30
0.0
 40
1.0
100
AcDbArc
 50
0.0
 51
90.0
  0
ARC
  5
CB6
330
2
100
AcDbEntity
  8
画層1
 62
     3
100
AcDbCircle
 10
455.4149625650315
 20
-258.9862927371068
 30
0.0
 40
1.0
100
AcDbArc
 50
90.0
 51
180.0
  0
LINE
  5
CB7
330
2
100
AcDbEntity
  8
画層1
 62
     3
100
AcDbLine
 10
453.4149625650316
 20
-259.2862927371069
 30
0.0
 11
454.4149625650314
 21
-259.2862927371069
 31
0.0
  0
LINE
  5
CB8
330
2
100
AcDbEntity
  8
画層1
 62
     3
100
AcDbLine
 10
453.4149625650316
 20
-259.2862927371069
 30
0.0
 11
453.4149625650316
 21
-258.9862927371068
 31
0.0
  0
LINE
  5
CB9
330
2
100
AcDbEntity
  8
画層1
 62
     3
100
AcDbLine
 10
452.4149625650315
 20
-257.9862927371066
 30
0.0
 11
452.1149625650316
 21
-257.9862927371066
 31
0.0
  0
LINE
  5
CBA
330
2
100
AcDbEntity
  8
画層1
 62
     3
100
AcDbLine
 10
454.4149625650314
 20
-258.9862927371068
 30
0.0
 11
454.4149625650314
 21
-259.2862927371069
 31
0.0
  0
LINE
  5
CBB
330
2
100
AcDbEntity
  8
画層1
 62
     3
100
AcDbLine
 10
455.7149625650315
 20
-257.9862927371066
 30
0.0
 11
455.4149625650315
 21
-257.9862927371066
 31
0.0
  0
ARC
  5
CBC
330
2
100
AcDbEntity
  8
画層1
 62
     3
100
AcDbCircle
 10
455.4149625650315
 20
-255.9862927371067
 30
0.0
 40
1.0
100
AcDbArc
 50
180.0
 51
270.0
  0
ARC
  5
CBD
330
2
100
AcDbEntity
  8
画層1
 62
     3
100
AcDbCircle
 10
452.4149625650315
 20
-255.9862927371067
 30
0.0
 40
1.0
100
AcDbArc
 50
270.0
 51
0.0
  0
LINE
  5
CBE
330
2
100
AcDbEntity
  8
画層1
 62
     3
100
AcDbLine
 10
453.4149625650316
 20
-255.6862927371069
 30
0.0
 11
454.4149625650314
 21
-255.6862927371069
 31
0.0
  0
LINE
  5
CBF
330
2
100
AcDbEntity
  8
画層1
 62
     3
100
AcDbLine
 10
452.1149625650316
 20
-256.9862927371068
 30
0.0
 11
452.4149625650315
 21
-256.9862927371068
 31
0.0
  0
LINE
  5
CC0
330
2
100
AcDbEntity
  8
画層1
 62
     3
100
AcDbLine
 10
453.4149625650316
 20
-255.9862927371067
 30
0.0
 11
453.4149625650316
 21
-255.6862927371069
 31
0.0
  0
LINE
  5
CC1
330
2
100
AcDbEntity
  8
画層1
 62
     3
100
AcDbLine
 10
454.4149625650314
 20
-255.6862927371069
 30
0.0
 11
454.4149625650314
 21
-255.9862927371067
 31
0.0
  0
LINE
  5
CC2
330
2
100
AcDbEntity
  8
画層1
 62
     3
100
AcDbLine
 10
455.4149625650315
 20
-256.9862927371068
 30
0.0
 11
455.7149625650315
 21
-256.9862927371068
 31
0.0
  0
LINE
  5
CCB
330
2
100
AcDbEntity
  8
画層1
 62
     3
100
AcDbLine
 10
214.9149625650315
 20
-65.48629273710691
 30
0.0
 11
216.0149625650313
 21
-65.48629273710691
 31
0.0
  0
LINE
  5
CCC
330
2
100
AcDbEntity
  8
画層1
 62
     3
100
AcDbLine
 10
216.0149625650313
 20
-65.48629273710691
 30
0.0
 11
216.0149625650313
 21
-79.4862927371069
 31
0.0
  0
LINE
  5
CCD
330
2
100
AcDbEntity
  8
画層1
 62
     3
100
AcDbLine
 10
216.0149625650313
 20
-79.4862927371069
 30
0.0
 11
214.9149625650315
 21
-79.4862927371069
 31
0.0
  0
LINE
  5
CCE
330
2
100
AcDbEntity
  8
画層1
 62
     3
100
AcDbLine
 10
216.0149625650313
 20
-78.48629273710691
 30
0.0
 11
217.5149625650314
 21
-78.48629273710691
 31
0.0
  0
LINE
  5
CCF
330
2
100
AcDbEntity
  8
画層1
 62
     3
100
AcDbLine
 10
217.5149625650314
 20
-78.48629273710691
 30
0.0
 11
217.5149625650314
 21
-66.48629273710691
 31
0.0
  0
LINE
  5
CD0
330
2
100
AcDbEntity
  8
画層1
 62
     3
100
AcDbLine
 10
217.5149625650314
 20
-66.48629273710691
 30
0.0
 11
216.0149625650313
 21
-66.48629273710691
 31
0.0
  0
LINE
  5
CD1
330
2
100
AcDbEntity
  8
画層1
 62
     3
100
AcDbLine
 10
217.5149625650314
 20
-67.48629273710689
 30
0.0
 11
218.9149625650315
 21
-67.48629273710689
 31
0.0
  0
LINE
  5
CD2
330
2
100
AcDbEntity
  8
画層1
 62
     3
100
AcDbLine
 10
220.9149625650315
 20
-69.4862927371069
 30
0.0
 11
220.9149625650315
 21
-75.48629273710694
 31
0.0
  0
LINE
  5
CD3
330
2
100
AcDbEntity
  8
画層1
 62
     3
100
AcDbLine
 10
218.9149625650315
 20
-77.48629273710692
 30
0.0
 11
217.5149625650314
 21
-77.4862927371069
 31
0.0
  0
ARC
  5
CD4
330
2
100
AcDbEntity
  8
画層1
 62
     3
100
AcDbCircle
 10
218.9149625650315
 20
-69.4862927371069
 30
0.0
 40
2.0
100
AcDbArc
 50
0.0
 51
90.0
  0
ARC
  5
CD5
330
2
100
AcDbEntity
  8
画層1
 62
     3
100
AcDbCircle
 10
218.9149625650315
 20
-75.48629273710692
 30
0.0
 40
2.0
100
AcDbArc
 50
270.0
 51
359.9999999999997
  0
LINE
  5
CE4
330
2
100
AcDbEntity
  8
画層1
 62
     3
100
AcDbLine
 10
84.31496256503145
 20
-78.48629273710691
 30
0.0
 11
84.31496256503145
 21
-66.48629273710691
 31
0.0
  0
LINE
  5
CE5
330
2
100
AcDbEntity
  8
画層1
 62
     3
100
AcDbLine
 10
85.81496256503147
 20
-65.48629273710691
 30
0.0
 11
85.81496256503147
 21
-79.4862927371069
 31
0.0
  0
LINE
  5
CE6
330
2
100
AcDbEntity
  8
画層1
 62
     3
100
AcDbLine
 10
85.81496256503147
 20
-79.4862927371069
 30
0.0
 11
87.31496256503147
 21
-79.4862927371069
 31
0.0
  0
LINE
  5
CE7
330
2
100
AcDbEntity
  8
画層1
 62
     3
100
AcDbLine
 10
85.81496256503147
 20
-78.48629273710691
 30
0.0
 11
84.31496256503145
 21
-78.48629273710691
 31
0.0
  0
LINE
  5
CE8
330
2
100
AcDbEntity
  8
画層1
 62
     3
100
AcDbLine
 10
87.31496256503147
 20
-65.48629273710691
 30
0.0
 11
85.81496256503147
 21
-65.48629273710691
 31
0.0
  0
LINE
  5
CE9
330
2
100
AcDbEntity
  8
画層1
 62
     3
100
AcDbLine
 10
84.31496256503145
 20
-66.48629273710691
 30
0.0
 11
85.81496256503147
 21
-66.48629273710691
 31
0.0
  0
LINE
  5
CEF
330
2
100
AcDbEntity
  8
画層1
 62
     3
100
AcDbLine
 10
217.5149625650314
 20
-178.4862927371069
 30
0.0
 11
217.5149625650314
 21
-166.4862927371069
 31
0.0
  0
LINE
  5
CF0
330
2
100
AcDbEntity
  8
画層1
 62
     3
100
AcDbLine
 10
216.0149625650313
 20
-165.4862927371069
 30
0.0
 11
216.0149625650313
 21
-179.4862927371069
 31
0.0
  0
LINE
  5
CF1
330
2
100
AcDbEntity
  8
画層1
 62
     3
100
AcDbLine
 10
216.0149625650313
 20
-179.4862927371069
 30
0.0
 11
214.9149625650315
 21
-179.4862927371069
 31
0.0
  0
LINE
  5
CF2
330
2
100
AcDbEntity
  8
画層1
 62
     3
100
AcDbLine
 10
216.0149625650313
 20
-178.4862927371069
 30
0.0
 11
217.5149625650314
 21
-178.4862927371069
 31
0.0
  0
LINE
  5
CF3
330
2
100
AcDbEntity
  8
画層1
 62
     3
100
AcDbLine
 10
214.9149625650315
 20
-165.4862927371069
 30
0.0
 11
216.0149625650313
 21
-165.4862927371069
 31
0.0
  0
LINE
  5
CF4
330
2
100
AcDbEntity
  8
画層1
 62
     3
100
AcDbLine
 10
217.5149625650314
 20
-166.4862927371069
 30
0.0
 11
216.0149625650313
 21
-166.4862927371069
 31
0.0
  0
LINE
  5
CF8
330
2
100
AcDbEntity
  8
画層1
 62
     3
100
AcDbLine
 10
85.81496256503147
 20
-165.4862927371069
 30
0.0
 11
85.81496256503147
 21
-179.4862927371069
 31
0.0
  0
LINE
  5
CFB
330
2
100
AcDbEntity
  8
画層1
 62
     3
100
AcDbLine
 10
84.31496256503145
 20
-166.4862927371069
 30
0.0
 11
85.81496256503147
 21
-166.4862927371069
 31
0.0
  0
LINE
  5
CFC
330
2
100
AcDbEntity
  8
画層1
 62
     3
100
AcDbLine
 10
85.81496256503147
 20
-178.4862927371069
 30
0.0
 11
84.31496256503145
 21
-178.4862927371069
 31
0.0
  0
LINE
  5
CFD
330
2
100
AcDbEntity
  8
画層1
 62
     3
100
AcDbLine
 10
85.81496256503147
 20
-179.4862927371069
 30
0.0
 11
86.91496256503143
 21
-179.4862927371069
 31
0.0
  0
LINE
  5
CFE
330
2
100
AcDbEntity
  8
画層1
 62
     3
100
AcDbLine
 10
84.31496256503145
 20
-178.4862927371069
 30
0.0
 11
84.31496256503145
 21
-166.4862927371069
 31
0.0
  0
LINE
  5
D02
330
2
100
AcDbEntity
  8
画層1
 62
     3
100
AcDbLine
 10
86.91496256503143
 20
-165.4862927371069
 30
0.0
 11
85.81496256503147
 21
-165.4862927371069
 31
0.0
  0
LINE
  5
D08
330
2
100
AcDbEntity
  8
画層1
 62
     3
100
AcDbLine
 10
214.9149625650315
 20
-232.4862927371067
 30
0.0
 11
215.5149625650313
 21
-232.4862927371067
 31
0.0
  0
LINE
  5
D09
330
2
100
AcDbEntity
  8
画層1
 62
     3
100
AcDbLine
 10
215.5149625650313
 20
-232.4862927371067
 30
0.0
 11
215.5149625650313
 21
-242.4862927371068
 31
0.0
  0
LINE
  5
D0A
330
2
100
AcDbEntity
  8
画層1
 62
     3
100
AcDbLine
 10
214.9149625650315
 20
-242.4862927371068
 30
0.0
 11
215.5149625650313
 21
-242.4862927371068
 31
0.0
  0
LINE
  5
D0B
330
2
100
AcDbEntity
  8
画層1
 62
     3
100
AcDbLine
 10
215.5149625650313
 20
-233.9862927371068
 30
0.0
 11
217.5149625650314
 21
-233.9862927371068
 31
0.0
  0
LINE
  5
D0C
330
2
100
AcDbEntity
  8
画層1
 62
     3
100
AcDbLine
 10
219.0149625650314
 20
-235.4862927371068
 30
0.0
 11
219.0149625650314
 21
-239.4862927371068
 31
0.0
  0
LINE
  5
D0D
330
2
100
AcDbEntity
  8
画層1
 62
     3
100
AcDbLine
 10
217.5149625650314
 20
-240.9862927371066
 30
0.0
 11
215.5149625650313
 21
-240.9862927371066
 31
0.0
  0
LINE
  5
D0E
330
2
100
AcDbEntity
  8
画層1
 62
     3
100
AcDbLine
 10
216.5149625650314
 20
-233.9862927371068
 30
0.0
 11
216.5149625650314
 21
-240.9862927371066
 31
0.0
  0
ARC
  5
D11
330
2
100
AcDbEntity
  8
画層1
 62
     3
100
AcDbCircle
 10
217.5149625650314
 20
-235.4862927371068
 30
0.0
 40
1.5
100
AcDbArc
 50
0.0
 51
90.00000000000067
  0
ARC
  5
D12
330
2
100
AcDbEntity
  8
画層1
 62
     3
100
AcDbCircle
 10
217.5149625650314
 20
-239.4862927371068
 30
0.0
 40
1.5
100
AcDbArc
 50
270.0
 51
0.0
  0
ARC
  5
D13
330
2
100
AcDbEntity
  8
画層1
 62
     3
100
AcDbCircle
 10
217.5149625650314
 20
-259.4862927371067
 30
0.0
 40
1.5
100
AcDbArc
 50
270.0
 51
0.0
  0
ARC
  5
D14
330
2
100
AcDbEntity
  8
画層1
 62
     3
100
AcDbCircle
 10
217.5149625650314
 20
-255.4862927371068
 30
0.0
 40
1.5
100
AcDbArc
 50
0.0
 51
90.00000000000067
  0
LINE
  5
D15
330
2
100
AcDbEntity
  8
画層1
 62
     3
100
AcDbLine
 10
216.5149625650314
 20
-253.9862927371067
 30
0.0
 11
216.5149625650314
 21
-260.9862927371068
 31
0.0
  0
LINE
  5
D16
330
2
100
AcDbEntity
  8
画層1
 62
     3
100
AcDbLine
 10
215.5149625650313
 20
-252.4862927371068
 30
0.0
 11
215.5149625650313
 21
-262.4862927371068
 31
0.0
  0
LINE
  5
D17
330
2
100
AcDbEntity
  8
画層1
 62
     3
100
AcDbLine
 10
217.5149625650314
 20
-260.9862927371068
 30
0.0
 11
215.5149625650313
 21
-260.9862927371068
 31
0.0
  0
LINE
  5
D18
330
2
100
AcDbEntity
  8
画層1
 62
     3
100
AcDbLine
 10
214.9149625650315
 20
-262.4862927371068
 30
0.0
 11
215.5149625650313
 21
-262.4862927371068
 31
0.0
  0
LINE
  5
D19
330
2
100
AcDbEntity
  8
画層1
 62
     3
100
AcDbLine
 10
215.5149625650313
 20
-253.9862927371067
 30
0.0
 11
217.5149625650314
 21
-253.9862927371068
 31
0.0
  0
LINE
  5
D1A
330
2
100
AcDbEntity
  8
画層1
 62
     3
100
AcDbLine
 10
214.9149625650315
 20
-252.4862927371068
 30
0.0
 11
215.5149625650313
 21
-252.4862927371068
 31
0.0
  0
LINE
  5
D1B
330
2
100
AcDbEntity
  8
画層1
 62
     3
100
AcDbLine
 10
219.0149625650314
 20
-255.4862927371068
 30
0.0
 11
219.0149625650314
 21
-259.4862927371067
 31
0.0
  0
ARC
  5
D1C
330
2
100
AcDbEntity
  8
画層1
 62
     3
100
AcDbCircle
 10
84.31496256503145
 20
-255.4862927371068
 30
0.0
 40
1.5
100
AcDbArc
 50
89.99999999999934
 51
180.0
  0
ARC
  5
D1D
330
2
100
AcDbEntity
  8
画層1
 62
     3
100
AcDbCircle
 10
84.31496256503145
 20
-259.4862927371067
 30
0.0
 40
1.5
100
AcDbArc
 50
180.0
 51
270.0
  0
LINE
  5
D1E
330
2
100
AcDbEntity
  8
画層1
 62
     3
100
AcDbLine
 10
86.91496256503143
 20
-252.4862927371068
 30
0.0
 11
86.31496256503149
 21
-252.4862927371068
 31
0.0
  0
LINE
  5
D1F
330
2
100
AcDbEntity
  8
画層1
 62
     3
100
AcDbLine
 10
86.31496256503146
 20
-253.9862927371067
 30
0.0
 11
84.3149625650315
 21
-253.9862927371068
 31
0.0
  0
LINE
  5
D20
330
2
100
AcDbEntity
  8
画層1
 62
     3
100
AcDbLine
 10
86.91496256503143
 20
-262.4862927371068
 30
0.0
 11
86.31496256503146
 21
-262.4862927371068
 31
0.0
  0
LINE
  5
D21
330
2
100
AcDbEntity
  8
画層1
 62
     3
100
AcDbLine
 10
84.31496256503145
 20
-260.9862927371068
 30
0.0
 11
86.31496256503146
 21
-260.9862927371068
 31
0.0
  0
LINE
  5
D22
330
2
100
AcDbEntity
  8
画層1
 62
     3
100
AcDbLine
 10
86.31496256503149
 20
-252.4862927371068
 30
0.0
 11
86.31496256503146
 21
-262.4862927371068
 31
0.0
  0
LINE
  5
D23
330
2
100
AcDbEntity
  8
画層1
 62
     3
100
AcDbLine
 10
85.31496256503144
 20
-253.9862927371067
 30
0.0
 11
85.31496256503144
 21
-260.9862927371068
 31
0.0
  0
LINE
  5
D24
330
2
100
AcDbEntity
  8
画層1
 62
     3
100
AcDbLine
 10
82.81496256503144
 20
-255.4862927371068
 30
0.0
 11
82.81496256503144
 21
-259.4862927371067
 31
0.0
  0
ARC
  5
D25
330
2
100
AcDbEntity
  8
画層1
 62
     3
100
AcDbCircle
 10
84.31496256503145
 20
-239.4862927371068
 30
0.0
 40
1.5
100
AcDbArc
 50
180.0
 51
270.0
  0
ARC
  5
D26
330
2
100
AcDbEntity
  8
画層1
 62
     3
100
AcDbCircle
 10
84.31496256503145
 20
-235.4862927371068
 30
0.0
 40
1.5
100
AcDbArc
 50
89.99999999999934
 51
180.0
  0
LINE
  5
D27
330
2
100
AcDbEntity
  8
画層1
 62
     3
100
AcDbLine
 10
85.31496256503144
 20
-233.9862927371068
 30
0.0
 11
85.31496256503144
 21
-240.9862927371066
 31
0.0
  0
LINE
  5
D28
330
2
100
AcDbEntity
  8
画層1
 62
     3
100
AcDbLine
 10
86.31496256503149
 20
-232.4862927371067
 30
0.0
 11
86.31496256503146
 21
-242.4862927371068
 31
0.0
  0
LINE
  5
D29
330
2
100
AcDbEntity
  8
画層1
 62
     3
100
AcDbLine
 10
84.31496256503145
 20
-240.9862927371066
 30
0.0
 11
86.31496256503146
 21
-240.9862927371066
 31
0.0
  0
LINE
  5
D2A
330
2
100
AcDbEntity
  8
画層1
 62
     3
100
AcDbLine
 10
86.91496256503143
 20
-242.4862927371068
 30
0.0
 11
86.31496256503146
 21
-242.4862927371068
 31
0.0
  0
LINE
  5
D2B
330
2
100
AcDbEntity
  8
画層1
 62
     3
100
AcDbLine
 10
86.31496256503146
 20
-233.9862927371068
 30
0.0
 11
84.3149625650315
 21
-233.9862927371068
 31
0.0
  0
LINE
  5
D2C
330
2
100
AcDbEntity
  8
画層1
 62
     3
100
AcDbLine
 10
86.91496256503143
 20
-232.4862927371067
 30
0.0
 11
86.31496256503149
 21
-232.4862927371067
 31
0.0
  0
LINE
  5
D2D
330
2
100
AcDbEntity
  8
画層1
 62
     3
100
AcDbLine
 10
82.81496256503144
 20
-235.4862927371068
 30
0.0
 11
82.81496256503144
 21
-239.4862927371068
 31
0.0
  0
CIRCLE
  5
D2F
330
2
100
AcDbEntity
  8
画層1
 62
     3
100
AcDbCircle
 10
150.9149625650314
 20
-7.486292737106907
 30
0.0
 40
3.799999999999998
  0
CIRCLE
  5
D30
330
2
100
AcDbEntity
  8
画層1
 62
     3
100
AcDbCircle
 10
150.9149625650314
 20
-7.486292737106907
 30
0.0
 40
2.6
  0
LINE
  5
D31
330
2
100
AcDbEntity
  8
画層1
 62
     3
100
AcDbLine
 10
151.4149625650313
 20
-9.286292737106805
 30
0.0
 11
151.4149625650313
 21
-8.986292737106907
 31
0.0
  0
ARC
  5
D32
330
2
100
AcDbEntity
  8
画層1
 62
     3
100
AcDbCircle
 10
152.4149625650313
 20
-8.986292737106907
 30
0.0
 40
1.0
100
AcDbArc
 50
90.00000000000005
 51
180.0
  0
LINE
  5
D33
330
2
100
AcDbEntity
  8
画層1
 62
     3
100
AcDbLine
 10
152.4149625650313
 20
-7.986292737106907
 30
0.0
 11
152.7149625650313
 21
-7.986292737106907
 31
0.0
  0
LINE
  5
D34
330
2
100
AcDbEntity
  8
画層1
 62
     3
100
AcDbLine
 10
152.7149625650313
 20
-6.986292737106907
 30
0.0
 11
152.7149625650313
 21
-7.986292737106907
 31
0.0
  0
LINE
  5
D35
330
2
100
AcDbEntity
  8
画層1
 62
     3
100
AcDbLine
 10
152.7149625650313
 20
-6.986292737106907
 30
0.0
 11
152.4149625650313
 21
-6.986292737106907
 31
0.0
  0
LINE
  5
D36
330
2
100
AcDbEntity
  8
画層1
 62
     3
100
AcDbLine
 10
151.4149625650313
 20
-5.986292737106907
 30
0.0
 11
151.4149625650313
 21
-5.686292737106839
 31
0.0
  0
ARC
  5
D37
330
2
100
AcDbEntity
  8
画層1
 62
     3
100
AcDbCircle
 10
152.4149625650313
 20
-5.986292737106907
 30
0.0
 40
1.0
100
AcDbArc
 50
180.0
 51
270.0
  0
LINE
  5
D38
330
2
100
AcDbEntity
  8
画層1
 62
     3
100
AcDbLine
 10
150.4149625650313
 20
-8.986292737106907
 30
0.0
 11
150.4149625650313
 21
-9.286292737106805
 31
0.0
  0
LINE
  5
D39
330
2
100
AcDbEntity
  8
画層1
 62
     3
100
AcDbLine
 10
150.4149625650313
 20
-5.686292737106839
 30
0.0
 11
150.4149625650313
 21
-5.986292737106907
 31
0.0
  0
LINE
  5
D3A
330
2
100
AcDbEntity
  8
画層1
 62
     3
100
AcDbLine
 10
150.4149625650313
 20
-5.686292737106839
 30
0.0
 11
151.4149625650313
 21
-5.686292737106839
 31
0.0
  0
LINE
  5
D3B
330
2
100
AcDbEntity
  8
画層1
 62
     3
100
AcDbLine
 10
150.4149625650313
 20
-9.286292737106805
 30
0.0
 11
151.4149625650313
 21
-9.286292737106805
 31
0.0
  0
LINE
  5
D3C
330
2
100
AcDbEntity
  8
画層1
 62
     3
100
AcDbLine
 10
149.1149625650313
 20
-7.986292737106907
 30
0.0
 11
149.4149625650313
 21
-7.986292737106907
 31
0.0
  0
LINE
  5
D3D
330
2
100
AcDbEntity
  8
画層1
 62
     3
100
AcDbLine
 10
149.1149625650313
 20
-6.986292737106907
 30
0.0
 11
149.1149625650313
 21
-7.986292737106907
 31
0.0
  0
LINE
  5
D3E
330
2
100
AcDbEntity
  8
画層1
 62
     3
100
AcDbLine
 10
149.4149625650313
 20
-6.986292737106907
 30
0.0
 11
149.1149625650313
 21
-6.986292737106907
 31
0.0
  0
ARC
  5
D3F
330
2
100
AcDbEntity
  8
画層1
 62
     3
100
AcDbCircle
 10
149.4149625650313
 20
-8.986292737106907
 30
0.0
 40
1.0
100
AcDbArc
 50
0.0
 51
90.00000000000005
  0
ARC
  5
D40
330
2
100
AcDbEntity
  8
画層1
 62
     3
100
AcDbCircle
 10
149.4149625650313
 20
-5.986292737106907
 30
0.0
 40
1.0
100
AcDbArc
 50
270.0
 51
0.0
  0
CIRCLE
  5
D41
330
2
100
AcDbEntity
  8
画層1
 62
     3
100
AcDbCircle
 10
150.9149625650314
 20
-297.4862927371066
 30
0.0
 40
3.799999999999998
  0
CIRCLE
  5
D42
330
2
100
AcDbEntity
  8
画層1
 62
     3
100
AcDbCircle
 10
150.9149625650314
 20
-297.4862927371066
 30
0.0
 40
2.6
  0
ARC
  5
D43
330
2
100
AcDbEntity
  8
画層1
 62
     3
100
AcDbCircle
 10
149.4149625650313
 20
-298.9862927371067
 30
0.0
 40
1.0
100
AcDbArc
 50
0.0
 51
90.00000000000005
  0
ARC
  5
D44
330
2
100
AcDbEntity
  8
画層1
 62
     3
100
AcDbCircle
 10
149.4149625650313
 20
-295.9862927371068
 30
0.0
 40
1.0
100
AcDbArc
 50
270.0
 51
0.0
  0
LINE
  5
D45
330
2
100
AcDbEntity
  8
画層1
 62
     3
100
AcDbLine
 10
149.4149625650313
 20
-297.9862927371068
 30
0.0
 11
149.1149625650313
 21
-297.9862927371068
 31
0.0
  0
LINE
  5
D46
330
2
100
AcDbEntity
  8
画層1
 62
     3
100
AcDbLine
 10
149.1149625650313
 20
-297.9862927371068
 30
0.0
 11
149.1149625650313
 21
-296.9862927371067
 31
0.0
  0
LINE
  5
D47
330
2
100
AcDbEntity
  8
画層1
 62
     3
100
AcDbLine
 10
149.1149625650313
 20
-296.9862927371067
 30
0.0
 11
149.4149625650313
 21
-296.9862927371067
 31
0.0
  0
LINE
  5
D48
330
2
100
AcDbEntity
  8
画層1
 62
     3
100
AcDbLine
 10
150.4149625650313
 20
-295.6862927371068
 30
0.0
 11
151.4149625650313
 21
-295.6862927371068
 31
0.0
  0
LINE
  5
D49
330
2
100
AcDbEntity
  8
画層1
 62
     3
100
AcDbLine
 10
150.4149625650313
 20
-299.2862927371067
 30
0.0
 11
151.4149625650313
 21
-299.2862927371067
 31
0.0
  0
LINE
  5
D4A
330
2
100
AcDbEntity
  8
画層1
 62
     3
100
AcDbLine
 10
150.4149625650313
 20
-299.2862927371067
 30
0.0
 11
150.4149625650313
 21
-298.9862927371067
 31
0.0
  0
LINE
  5
D4B
330
2
100
AcDbEntity
  8
画層1
 62
     3
100
AcDbLine
 10
150.4149625650313
 20
-295.9862927371068
 30
0.0
 11
150.4149625650313
 21
-295.6862927371068
 31
0.0
  0
ARC
  5
D4C
330
2
100
AcDbEntity
  8
画層1
 62
     3
100
AcDbCircle
 10
152.4149625650313
 20
-298.9862927371067
 30
0.0
 40
1.0
100
AcDbArc
 50
90.00000000000005
 51
180.0
  0
LINE
  5
D4D
330
2
100
AcDbEntity
  8
画層1
 62
     3
100
AcDbLine
 10
151.4149625650313
 20
-298.9862927371067
 30
0.0
 11
151.4149625650313
 21
-299.2862927371067
 31
0.0
  0
LINE
  5
D4E
330
2
100
AcDbEntity
  8
画層1
 62
     3
100
AcDbLine
 10
152.7149625650313
 20
-297.9862927371068
 30
0.0
 11
152.4149625650313
 21
-297.9862927371068
 31
0.0
  0
LINE
  5
D4F
330
2
100
AcDbEntity
  8
画層1
 62
     3
100
AcDbLine
 10
152.7149625650313
 20
-297.9862927371068
 30
0.0
 11
152.7149625650313
 21
-296.9862927371067
 31
0.0
  0
LINE
  5
D50
330
2
100
AcDbEntity
  8
画層1
 62
     3
100
AcDbLine
 10
152.4149625650313
 20
-296.9862927371067
 30
0.0
 11
152.7149625650313
 21
-296.9862927371067
 31
0.0
  0
ARC
  5
D51
330
2
100
AcDbEntity
  8
画層1
 62
     3
100
AcDbCircle
 10
152.4149625650313
 20
-295.9862927371068
 30
0.0
 40
1.0
100
AcDbArc
 50
180.0
 51
270.0
  0
LINE
  5
D52
330
2
100
AcDbEntity
  8
画層1
 62
     3
100
AcDbLine
 10
151.4149625650313
 20
-295.6862927371068
 30
0.0
 11
151.4149625650313
 21
-295.9862927371068
 31
0.0
  0
LINE
  5
D53
330
2
100
AcDbEntity
  8
画層1
  6
DASHED2
 62
     2
100
AcDbLine
 10
458.9149625650316
 20
-232.4862927371067
 30
0.0
 11
458.9149625650316
 21
-262.4862927371068
 31
0.0
  0
LINE
  5
D54
330
2
100
AcDbEntity
  8
画層1
  6
DASHED2
 62
     2
100
AcDbLine
 10
448.9149625650316
 20
-222.4862927371066
 30
0.0
 11
448.9149625650316
 21
-302.4862927371068
 31
0.0
  0
LINE
  5
D55
330
2
100
AcDbEntity
  8
画層1
  6
DASHED2
 62
     2
100
AcDbLine
 10
458.9149625650316
 20
-232.4862927371067
 30
0.0
 11
448.9149625650316
 21
-232.4862927371067
 31
0.0
  0
LINE
  5
D56
330
2
100
AcDbEntity
  8
画層1
  6
DASHED2
 62
     2
100
AcDbLine
 10
448.9149625650316
 20
-262.4862927371068
 30
0.0
 11
458.9149625650316
 21
-262.4862927371068
 31
0.0
  0
LINE
  5
D57
330
2
100
AcDbEntity
  8
画層1
  6
DASHED2
 62
     2
100
AcDbLine
 10
444.9149625650316
 20
-222.4862927371066
 30
0.0
 11
444.9149625650316
 21
-302.4862927371068
 31
0.0
  0
LINE
  5
DC6
330
2
100
AcDbEntity
  8
画層1
  6
DASHED2
 62
     2
100
AcDbLine
 10
432.9149625650316
 20
-260.4862927371068
 30
0.0
 11
444.9149625650316
 21
-260.4862927371068
 31
0.0
  0
LINE
  5
DC7
330
2
100
AcDbEntity
  8
画層1
  6
DASHED2
 62
     2
100
AcDbLine
 10
444.9149625650316
 20
-236.4862927371067
 30
0.0
 11
432.9149625650316
 21
-236.4862927371067
 31
0.0
  0
LINE
  5
DC8
330
2
100
AcDbEntity
  8
画層1
  6
DASHED2
 62
     2
100
AcDbLine
 10
432.9149625650316
 20
-236.4862927371067
 30
0.0
 11
432.9149625650316
 21
-260.4862927371068
 31
0.0
  0
LINE
  5
DC9
330
2
100
AcDbEntity
  8
画層1
  6
DASHED2
 62
     2
100
AcDbLine
 10
439.4149625650316
 20
-258.4862927371068
 30
0.0
 11
439.4149625650316
 21
-238.4862927371067
 31
0.0
  0
LINE
  5
DCA
330
2
100
AcDbEntity
  8
画層1
  6
DASHED2
 62
     2
100
AcDbLine
 10
439.9149625650316
 20
-258.4862927371068
 30
0.0
 11
439.9149625650316
 21
-238.4862927371067
 31
0.0
  0
ARC
  5
DCB
330
2
100
AcDbEntity
  8
画層1
  6
DASHED2
 62
     2
100
AcDbCircle
 10
449.9030239427338
 20
-243.4862927371067
 30
0.0
 40
12.48853936998062
100
AcDbArc
 50
163.7244588984995
 51
196.275541101502
  0
LINE
  5
DCC
330
2
100
AcDbEntity
  8
画層1
  6
DASHED2
 62
     2
100
AcDbLine
 10
444.9149625650316
 20
-258.4862927371068
 30
0.0
 11
439.4149625650316
 21
-258.4862927371068
 31
0.0
  0
LINE
  5
DCD
330
2
100
AcDbEntity
  8
画層1
  6
DASHED2
 62
     2
100
AcDbLine
 10
439.4149625650316
 20
-246.9862927371067
 30
0.0
 11
437.9149625650316
 21
-246.9862927371067
 31
0.0
  0
LINE
  5
DCE
330
2
100
AcDbEntity
  8
画層1
  6
DASHED2
 62
     2
100
AcDbLine
 10
439.4149625650316
 20
-249.9862927371068
 30
0.0
 11
437.9149625650316
 21
-249.9862927371068
 31
0.0
  0
LINE
  5
DCF
330
2
100
AcDbEntity
  8
画層1
  6
DASHED2
 62
     2
100
AcDbLine
 10
439.4149625650316
 20
-256.9862927371068
 30
0.0
 11
437.9149625650316
 21
-256.9862927371068
 31
0.0
  0
ARC
  5
DD0
330
2
100
AcDbEntity
  8
画層1
  6
DASHED2
 62
     2
100
AcDbCircle
 10
449.9030239427338
 20
-253.4862927371066
 30
0.0
 40
12.48853936998062
100
AcDbArc
 50
163.7244588984995
 51
196.275541101502
  0
LINE
  5
DD1
330
2
100
AcDbEntity
  8
画層1
  6
DASHED2
 62
     2
100
AcDbLine
 10
439.4149625650316
 20
-238.4862927371067
 30
0.0
 11
444.9149625650316
 21
-238.4862927371067
 31
0.0
  0
LINE
  5
DD2
330
2
100
AcDbEntity
  8
画層1
  6
DASHED2
 62
     2
100
AcDbLine
 10
439.4149625650316
 20
-239.9862927371068
 30
0.0
 11
437.9149625650316
 21
-239.9862927371068
 31
0.0
  0
LINE
  5
F0F
330
2
100
AcDbEntity
  8
画層1
  6
CENTER
 62
     1
100
AcDbLine
 10
119.9149625650314
 20
-237.4862927371068
 30
0.0
 11
125.9149625650314
 21
-237.4862927371068
 31
0.0
  0
LINE
  5
F10
330
2
100
AcDbEntity
  8
画層1
  6
CENTER
 62
     1
100
AcDbLine
 10
119.9149625650314
 20
-257.4862927371067
 30
0.0
 11
125.9149625650314
 21
-257.4862927371067
 31
0.0
  0
LINE
  5
F11
330
2
100
AcDbEntity
  8
画層1
  6
CENTER
 62
     1
100
AcDbLine
 10
122.9149625650314
 20
-234.4862927371067
 30
0.0
 11
122.9149625650314
 21
-240.4862927371067
 31
0.0
  0
LINE
  5
F12
330
2
100
AcDbEntity
  8
画層1
  6
CENTER
 62
     1
100
AcDbLine
 10
122.9149625650314
 20
-254.4862927371068
 30
0.0
 11
122.9149625650314
 21
-260.4862927371068
 31
0.0
  0
ARC
  5
F13
330
2
100
AcDbEntity
  8
画層1
  6
DASHED2
 62
     2
100
AcDbCircle
 10
150.4149625650313
 20
-246.9862927371067
 30
0.0
 40
1.0
100
AcDbArc
 50
0.0
 51
90.0
  0
ARC
  5
F14
330
2
100
AcDbEntity
  8
画層1
  6
DASHED2
 62
     2
100
AcDbCircle
 10
150.4149625650313
 20
-243.9862927371068
 30
0.0
 40
1.0
100
AcDbArc
 50
270.0
 51
0.0
  0
CIRCLE
  5
F15
330
2
100
AcDbEntity
  8
画層1
  6
DASHED2
 62
     2
100
AcDbCircle
 10
151.9149625650314
 20
-245.4862927371066
 30
0.0
 40
3.5
  0
LINE
  5
F16
330
2
100
AcDbEntity
  8
画層1
  6
DASHED2
 62
     2
100
AcDbLine
 10
156.0649625650313
 20
-240.4862927371067
 30
0.0
 11
147.7649625650315
 21
-240.4862927371067
 31
0.0
  0
ARC
  5
F17
330
2
100
AcDbEntity
  8
画層1
  6
DASHED2
 62
     2
100
AcDbCircle
 10
150.4149625650313
 20
-253.9862927371067
 30
0.0
 40
1.0
100
AcDbArc
 50
270.0
 51
0.0
  0
ARC
  5
F18
330
2
100
AcDbEntity
  8
画層1
  6
DASHED2
 62
     2
100
AcDbCircle
 10
150.4149625650313
 20
-256.9862927371068
 30
0.0
 40
1.0
100
AcDbArc
 50
0.0
 51
90.0
  0
CIRCLE
  5
F19
330
2
100
AcDbEntity
  8
画層1
  6
DASHED2
 62
     2
100
AcDbCircle
 10
151.9149625650314
 20
-255.4862927371067
 30
0.0
 40
3.5
  0
LINE
  5
F1A
330
2
100
AcDbEntity
  8
画層1
  6
DASHED2
 62
     2
100
AcDbLine
 10
147.7649625650315
 20
-260.4862927371068
 30
0.0
 11
156.0649625650313
 21
-260.4862927371068
 31
0.0
  0
LINE
  5
F1B
330
2
100
AcDbEntity
  8
画層1
  6
DASHED2
 62
     2
100
AcDbLine
 10
147.7649625650315
 20
-239.7362927371068
 30
0.0
 11
147.7649625650315
 21
-261.2362927371068
 31
0.0
  0
LINE
  5
F1C
330
2
100
AcDbEntity
  8
画層1
  6
DASHED2
 62
     2
100
AcDbLine
 10
145.2649625650316
 20
-239.7362927371068
 30
0.0
 11
145.2649625650316
 21
-261.2362927371068
 31
0.0
  0
LINE
  5
F1D
330
2
100
AcDbEntity
  8
画層1
  6
DASHED2
 62
     2
100
AcDbLine
 10
136.9149625650313
 20
-240.4862927371067
 30
0.0
 11
136.9149625650313
 21
-260.4862927371068
 31
0.0
  0
LINE
  5
F1E
330
2
100
AcDbEntity
  8
画層1
  6
CENTER
 62
     1
100
AcDbLine
 10
137.9149625650313
 20
-255.4862927371067
 30
0.0
 11
143.9149625650314
 21
-255.4862927371067
 31
0.0
  0
LINE
  5
F1F
330
2
100
AcDbEntity
  8
画層1
  6
DASHED2
 62
     2
100
AcDbLine
 10
136.9149625650313
 20
-260.4862927371068
 30
0.0
 11
145.2649625650316
 21
-260.4862927371068
 31
0.0
  0
LINE
  5
F20
330
2
100
AcDbEntity
  8
画層1
  6
CENTER
 62
     1
100
AcDbLine
 10
140.9149625650313
 20
-252.4862927371068
 30
0.0
 11
140.9149625650313
 21
-258.4862927371068
 31
0.0
  0
ARC
  5
F21
330
2
100
AcDbEntity
  8
画層1
  6
DASHED2
 62
     2
100
AcDbCircle
 10
146.5149625650315
 20
-261.2362927371068
 30
0.0
 40
1.25
100
AcDbArc
 50
180.0
 51
0.0
  0
LINE
  5
F22
330
2
100
AcDbEntity
  8
画層1
  6
DASHED2
 62
     2
100
AcDbLine
 10
150.1149625650315
 20
-245.9862927371068
 30
0.0
 11
150.1149625650315
 21
-244.9862927371067
 31
0.0
  0
LINE
  5
F23
330
2
100
AcDbEntity
  8
画層1
  6
DASHED2
 62
     2
100
AcDbLine
 10
150.4149625650315
 20
-245.9862927371068
 30
0.0
 11
150.1149625650315
 21
-245.9862927371068
 31
0.0
  0
LINE
  5
F24
330
2
100
AcDbEntity
  8
画層1
  6
DASHED2
 62
     2
100
AcDbLine
 10
150.1149625650315
 20
-244.9862927371067
 30
0.0
 11
150.4149625650315
 21
-244.9862927371067
 31
0.0
  0
LINE
  5
F25
330
2
100
AcDbEntity
  8
画層1
  6
DASHED2
 62
     2
100
AcDbLine
 10
150.1149625650315
 20
-254.9862927371068
 30
0.0
 11
150.4149625650315
 21
-254.9862927371068
 31
0.0
  0
LINE
  5
F26
330
2
100
AcDbEntity
  8
画層1
  6
DASHED2
 62
     2
100
AcDbLine
 10
150.4149625650315
 20
-255.9862927371067
 30
0.0
 11
150.1149625650315
 21
-255.9862927371067
 31
0.0
  0
LINE
  5
F27
330
2
100
AcDbEntity
  8
画層1
  6
DASHED2
 62
     2
100
AcDbLine
 10
150.1149625650315
 20
-255.9862927371067
 30
0.0
 11
150.1149625650315
 21
-254.9862927371068
 31
0.0
  0
LINE
  5
F28
330
2
100
AcDbEntity
  8
画層1
  6
DASHED2
 62
     2
100
AcDbLine
 10
145.2649625650316
 20
-240.4862927371067
 30
0.0
 11
136.9149625650313
 21
-240.4862927371067
 31
0.0
  0
ARC
  5
F29
330
2
100
AcDbEntity
  8
画層1
  6
DASHED2
 62
     2
100
AcDbCircle
 10
146.5149625650315
 20
-239.7362927371068
 30
0.0
 40
1.25
100
AcDbArc
 50
0.0
 51
180.0
  0
LINE
  5
F2A
330
2
100
AcDbEntity
  8
画層1
  6
DASHED2
 62
     2
100
AcDbLine
 10
166.9149625650313
 20
-260.4862927371068
 30
0.0
 11
166.9149625650313
 21
-240.4862927371067
 31
0.0
  0
LINE
  5
F2B
330
2
100
AcDbEntity
  8
画層1
  6
DASHED2
 62
     2
100
AcDbLine
 10
158.5649625650313
 20
-239.7362927371068
 30
0.0
 11
158.5649625650313
 21
-261.2362927371068
 31
0.0
  0
LINE
  5
F2C
330
2
100
AcDbEntity
  8
画層1
  6
DASHED2
 62
     2
100
AcDbLine
 10
156.0649625650313
 20
-239.7362927371068
 30
0.0
 11
156.0649625650313
 21
-261.2362927371068
 31
0.0
  0
LINE
  5
F2D
330
2
100
AcDbEntity
  8
画層1
  6
CENTER
 62
     1
100
AcDbLine
 10
159.9149625650314
 20
-255.4862927371067
 30
0.0
 11
165.9149625650313
 21
-255.4862927371067
 31
0.0
  0
LINE
  5
F2E
330
2
100
AcDbEntity
  8
画層1
  6
DASHED2
 62
     2
100
AcDbLine
 10
158.5649625650313
 20
-260.4862927371068
 30
0.0
 11
166.9149625650313
 21
-260.4862927371068
 31
0.0
  0
LINE
  5
F2F
330
2
100
AcDbEntity
  8
画層1
  6
CENTER
 62
     1
100
AcDbLine
 10
162.9149625650313
 20
-252.4862927371068
 30
0.0
 11
162.9149625650313
 21
-258.4862927371068
 31
0.0
  0
ARC
  5
F30
330
2
100
AcDbEntity
  8
画層1
  6
DASHED2
 62
     2
100
AcDbCircle
 10
157.3149625650313
 20
-261.2362927371068
 30
0.0
 40
1.25
100
AcDbArc
 50
180.0
 51
0.0
  0
ARC
  5
F31
330
2
100
AcDbEntity
  8
画層1
  6
DASHED2
 62
     2
100
AcDbCircle
 10
153.4149625650313
 20
-246.9862927371067
 30
0.0
 40
1.0
100
AcDbArc
 50
90.0
 51
180.0
  0
LINE
  5
F32
330
2
100
AcDbEntity
  8
画層1
  6
DASHED2
 62
     2
100
AcDbLine
 10
153.7149625650314
 20
-245.9862927371068
 30
0.0
 11
153.7149625650314
 21
-244.9862927371067
 31
0.0
  0
LINE
  5
F33
330
2
100
AcDbEntity
  8
画層1
  6
DASHED2
 62
     2
100
AcDbLine
 10
151.4149625650313
 20
-247.2862927371067
 30
0.0
 11
152.4149625650314
 21
-247.2862927371067
 31
0.0
  0
LINE
  5
F34
330
2
100
AcDbEntity
  8
画層1
  6
DASHED2
 62
     2
100
AcDbLine
 10
151.4149625650313
 20
-247.2862927371067
 30
0.0
 11
151.4149625650313
 21
-246.9862927371067
 31
0.0
  0
LINE
  5
F35
330
2
100
AcDbEntity
  8
画層1
  6
DASHED2
 62
     2
100
AcDbLine
 10
152.4149625650314
 20
-246.9862927371067
 30
0.0
 11
152.4149625650314
 21
-247.2862927371067
 31
0.0
  0
LINE
  5
F36
330
2
100
AcDbEntity
  8
画層1
  6
DASHED2
 62
     2
100
AcDbLine
 10
153.7149625650314
 20
-245.9862927371068
 30
0.0
 11
153.4149625650313
 21
-245.9862927371068
 31
0.0
  0
LINE
  5
F37
330
2
100
AcDbEntity
  8
画層1
  6
DASHED2
 62
     2
100
AcDbLine
 10
151.4149625650313
 20
-243.6862927371068
 30
0.0
 11
152.4149625650314
 21
-243.6862927371068
 31
0.0
  0
LINE
  5
F38
330
2
100
AcDbEntity
  8
画層1
  6
DASHED2
 62
     2
100
AcDbLine
 10
151.4149625650313
 20
-243.9862927371068
 30
0.0
 11
151.4149625650313
 21
-243.6862927371068
 31
0.0
  0
LINE
  5
F39
330
2
100
AcDbEntity
  8
画層1
  6
DASHED2
 62
     2
100
AcDbLine
 10
153.4149625650313
 20
-244.9862927371067
 30
0.0
 11
153.7149625650314
 21
-244.9862927371067
 31
0.0
  0
LINE
  5
F3A
330
2
100
AcDbEntity
  8
画層1
  6
DASHED2
 62
     2
100
AcDbLine
 10
152.4149625650314
 20
-243.6862927371068
 30
0.0
 11
152.4149625650314
 21
-243.9862927371068
 31
0.0
  0
ARC
  5
F3B
330
2
100
AcDbEntity
  8
画層1
  6
DASHED2
 62
     2
100
AcDbCircle
 10
153.4149625650313
 20
-243.9862927371068
 30
0.0
 40
1.0
100
AcDbArc
 50
180.0
 51
270.0
  0
LINE
  5
F3C
330
2
100
AcDbEntity
  8
画層1
  6
DASHED2
 62
     2
100
AcDbLine
 10
151.4149625650313
 20
-253.6862927371068
 30
0.0
 11
152.4149625650314
 21
-253.6862927371068
 31
0.0
  0
LINE
  5
F3D
330
2
100
AcDbEntity
  8
画層1
  6
DASHED2
 62
     2
100
AcDbLine
 10
151.4149625650313
 20
-257.2862927371066
 30
0.0
 11
152.4149625650314
 21
-257.2862927371066
 31
0.0
  0
LINE
  5
F3E
330
2
100
AcDbEntity
  8
画層1
  6
DASHED2
 62
     2
100
AcDbLine
 10
151.4149625650313
 20
-253.9862927371067
 30
0.0
 11
151.4149625650313
 21
-253.6862927371068
 31
0.0
  0
LINE
  5
F3F
330
2
100
AcDbEntity
  8
画層1
  6
DASHED2
 62
     2
100
AcDbLine
 10
151.4149625650313
 20
-257.2862927371066
 30
0.0
 11
151.4149625650313
 21
-256.9862927371068
 31
0.0
  0
ARC
  5
F40
330
2
100
AcDbEntity
  8
画層1
  6
DASHED2
 62
     2
100
AcDbCircle
 10
153.4149625650313
 20
-253.9862927371067
 30
0.0
 40
1.0
100
AcDbArc
 50
180.0
 51
270.0
  0
LINE
  5
F41
330
2
100
AcDbEntity
  8
画層1
  6
DASHED2
 62
     2
100
AcDbLine
 10
152.4149625650314
 20
-253.6862927371068
 30
0.0
 11
152.4149625650314
 21
-253.9862927371067
 31
0.0
  0
LINE
  5
F42
330
2
100
AcDbEntity
  8
画層1
  6
DASHED2
 62
     2
100
AcDbLine
 10
153.4149625650313
 20
-254.9862927371068
 30
0.0
 11
153.7149625650314
 21
-254.9862927371068
 31
0.0
  0
LINE
  5
F43
330
2
100
AcDbEntity
  8
画層1
  6
DASHED2
 62
     2
100
AcDbLine
 10
153.7149625650314
 20
-255.9862927371067
 30
0.0
 11
153.4149625650313
 21
-255.9862927371067
 31
0.0
  0
LINE
  5
F44
330
2
100
AcDbEntity
  8
画層1
  6
DASHED2
 62
     2
100
AcDbLine
 10
153.7149625650314
 20
-255.9862927371067
 30
0.0
 11
153.7149625650314
 21
-254.9862927371068
 31
0.0
  0
LINE
  5
F45
330
2
100
AcDbEntity
  8
画層1
  6
DASHED2
 62
     2
100
AcDbLine
 10
152.4149625650314
 20
-256.9862927371068
 30
0.0
 11
152.4149625650314
 21
-257.2862927371066
 31
0.0
  0
ARC
  5
F46
330
2
100
AcDbEntity
  8
画層1
  6
DASHED2
 62
     2
100
AcDbCircle
 10
153.4149625650313
 20
-256.9862927371068
 30
0.0
 40
1.0
100
AcDbArc
 50
90.0
 51
180.0
  0
LINE
  5
F47
330
2
100
AcDbEntity
  8
画層1
  6
DASHED2
 62
     2
100
AcDbLine
 10
166.9149625650313
 20
-240.4862927371067
 30
0.0
 11
158.5649625650313
 21
-240.4862927371067
 31
0.0
  0
ARC
  5
F48
330
2
100
AcDbEntity
  8
画層1
  6
DASHED2
 62
     2
100
AcDbCircle
 10
157.3149625650313
 20
-239.7362927371068
 30
0.0
 40
1.25
100
AcDbArc
 50
0.0
 51
180.0
  0
LINE
  5
F49
330
2
100
AcDbEntity
  8
画層1
  6
CENTER
 62
     1
100
AcDbLine
 10
180.9149625650314
 20
-234.4862927371067
 30
0.0
 11
180.9149625650314
 21
-240.4862927371067
 31
0.0
  0
LINE
  5
F4A
330
2
100
AcDbEntity
  8
画層1
  6
CENTER
 62
     1
100
AcDbLine
 10
180.9149625650314
 20
-254.4862927371068
 30
0.0
 11
180.9149625650314
 21
-260.4862927371068
 31
0.0
  0
LINE
  5
F4B
330
2
100
AcDbEntity
  8
画層1
  6
CENTER
 62
     1
100
AcDbLine
 10
177.9149625650314
 20
-257.4862927371067
 30
0.0
 11
183.9149625650314
 21
-257.4862927371067
 31
0.0
  0
LINE
  5
F4C
330
2
100
AcDbEntity
  8
画層1
  6
CENTER
 62
     1
100
AcDbLine
 10
177.9149625650314
 20
-237.4862927371068
 30
0.0
 11
183.9149625650314
 21
-237.4862927371068
 31
0.0
  0
LINE
  5
F4F
330
2
100
AcDbEntity
  8
画層1
  6
CENTER
 62
     1
100
AcDbLine
 10
202.9149625650314
 20
-252.4862927371068
 30
0.0
 11
208.9149625650314
 21
-252.4862927371068
 31
0.0
  0
LINE
  5
F50
330
2
100
AcDbEntity
  8
画層1
  6
CENTER
 62
     1
100
AcDbLine
 10
205.9149625650313
 20
-249.4862927371066
 30
0.0
 11
205.9149625650313
 21
-255.4862927371067
 31
0.0
  0
LINE
  5
F51
330
2
100
AcDbEntity
  8
画層1
  6
CENTER
 62
     1
100
AcDbLine
 10
92.91496256503142
 20
-252.4862927371068
 30
0.0
 11
98.91496256503144
 21
-252.4862927371068
 31
0.0
  0
LINE
  5
F52
330
2
100
AcDbEntity
  8
画層1
  6
CENTER
 62
     1
100
AcDbLine
 10
95.91496256503143
 20
-249.4862927371066
 30
0.0
 11
95.91496256503143
 21
-255.4862927371067
 31
0.0
  0
LINE
  5
F53
330
2
100
AcDbEntity
  8
画層1
  6
DASHED2
 62
     2
100
AcDbLine
 10
110.4149625650314
 20
-222.4862927371066
 30
0.0
 11
110.4149625650314
 21
-302.4862927371068
 31
0.0
  0
LINE
  5
F54
330
2
100
AcDbEntity
  8
画層1
  6
DASHED2
 62
     2
100
AcDbLine
 10
135.4149625650314
 20
-222.4862927371066
 30
0.0
 11
135.4149625650314
 21
-302.4862927371068
 31
0.0
  0
CIRCLE
  5
F55
330
2
100
AcDbEntity
  8
画層1
  6
DASHED2
 62
     2
100
AcDbCircle
 10
122.9149625650314
 20
-288.4862927371066
 30
0.0
 40
5.5
  0
LINE
  5
F56
330
2
100
AcDbEntity
  8
画層1
  6
CENTER
 62
     1
100
AcDbLine
 10
114.4149625650314
 20
-288.4862927371066
 30
0.0
 11
131.4149625650314
 21
-288.4862927371066
 31
0.0
  0
LINE
  5
F57
330
2
100
AcDbEntity
  8
画層1
  6
CENTER
 62
     1
100
AcDbLine
 10
122.9149625650314
 20
-279.9862927371068
 30
0.0
 11
122.9149625650314
 21
-296.9862927371067
 31
0.0
  0
LINE
  5
F58
330
2
100
AcDbEntity
  8
画層1
  6
DASHED2
 62
     2
100
AcDbLine
 10
168.4149625650314
 20
-222.4862927371066
 30
0.0
 11
168.4149625650314
 21
-302.4862927371068
 31
0.0
  0
LINE
  5
F59
330
2
100
AcDbEntity
  8
画層1
  6
DASHED2
 62
     2
100
AcDbLine
 10
193.4149625650314
 20
-222.4862927371066
 30
0.0
 11
193.4149625650314
 21
-302.4862927371068
 31
0.0
  0
CIRCLE
  5
F5A
330
2
100
AcDbEntity
  8
画層1
  6
DASHED2
 62
     2
100
AcDbCircle
 10
180.9149625650314
 20
-288.4862927371066
 30
0.0
 40
5.5
  0
LINE
  5
F5B
330
2
100
AcDbEntity
  8
画層1
  6
CENTER
 62
     1
100
AcDbLine
 10
172.4149625650314
 20
-288.4862927371066
 30
0.0
 11
189.4149625650314
 21
-288.4862927371066
 31
0.0
  0
LINE
  5
F5C
330
2
100
AcDbEntity
  8
画層1
  6
CENTER
 62
     1
100
AcDbLine
 10
180.9149625650314
 20
-279.9862927371068
 30
0.0
 11
180.9149625650314
 21
-296.9862927371067
 31
0.0
  0
LINE
  5
F5D
330
2
100
AcDbEntity
  8
画層1
  6
DASHED2
 62
     2
100
AcDbLine
 10
212.9149625650314
 20
-262.4862927371068
 30
0.0
 11
88.91496256503145
 21
-262.4862927371068
 31
0.0
  0
LINE
  5
F5E
330
2
100
AcDbEntity
  8
画層1
  6
DASHED2
 62
     2
100
AcDbLine
 10
88.91496256503145
 20
-232.4862927371067
 30
0.0
 11
212.9149625650314
 21
-232.4862927371067
 31
0.0
  0
LINE
  5
F5F
330
2
100
AcDbEntity
  8
画層1
  6
DASHED2
 62
     2
100
AcDbLine
 10
212.9149625650314
 20
-232.4862927371067
 30
0.0
 11
212.9149625650314
 21
-262.4862927371068
 31
0.0
  0
LINE
  5
F60
330
2
100
AcDbEntity
  8
画層1
  6
DASHED2
 62
     2
100
AcDbLine
 10
88.91496256503145
 20
-262.4862927371068
 30
0.0
 11
88.91496256503145
 21
-232.4862927371067
 31
0.0
  0
LINE
  5
F61
330
2
100
AcDbEntity
  8
画層1
  6
DIVIDE
 62
     1
100
AcDbLine
 10
210.9149625650314
 20
-247.4862927371066
 30
0.0
 11
90.91496256503146
 21
-247.4862927371066
 31
0.0
  0
LINE
  5
F62
330
2
100
AcDbEntity
  8
画層1
  6
DIVIDE
 62
     1
100
AcDbLine
 10
93.91496256503144
 20
-332.4862927371067
 30
0.0
 11
207.9149625650313
 21
-332.4862927371067
 31
0.0
  0
LINE
  5
F63
330
2
100
AcDbEntity
  8
画層1
  6
DIVIDE
 62
     1
100
AcDbLine
 10
90.91496256503146
 20
-329.4862927371068
 30
0.0
 11
90.91496256503146
 21
-247.4862927371066
 31
0.0
  0
LINE
  5
F64
330
2
100
AcDbEntity
  8
画層1
  6
DIVIDE
 62
     1
100
AcDbLine
 10
210.9149625650314
 20
-329.4862927371068
 30
0.0
 11
210.9149625650314
 21
-247.4862927371066
 31
0.0
  0
ARC
  5
F65
330
2
100
AcDbEntity
  8
画層1
  6
DIVIDE
 62
     1
100
AcDbCircle
 10
93.91496256503144
 20
-329.4862927371068
 30
0.0
 40
3.0
100
AcDbArc
 50
179.9999999999988
 51
270.0
  0
ARC
  5
F66
330
2
100
AcDbEntity
  8
画層1
  6
DIVIDE
 62
     1
100
AcDbCircle
 10
207.9149625650313
 20
-329.4862927371068
 30
0.0
 40
3.0
100
AcDbArc
 50
269.9999999999993
 51
0.0000000000010856
  0
LINE
  5
F68
330
2
100
AcDbEntity
  8
画層1
  6
DIVIDE
 62
     1
100
AcDbLine
 10
418.9149625650316
 20
-332.4862927371067
 30
0.0
 11
418.9149625650316
 21
-247.4862927371066
 31
0.0
  0
LINE
  5
F69
330
2
100
AcDbEntity
  8
画層1
  6
DIVIDE
 62
     1
100
AcDbLine
 10
416.9149625650316
 20
-332.4862927371067
 30
0.0
 11
416.9149625650316
 21
-247.4862927371066
 31
0.0
  0
LINE
  5
F6A
330
2
100
AcDbEntity
  8
画層1
  6
DIVIDE
 62
     1
100
AcDbLine
 10
416.9149625650316
 20
-247.4862927371066
 30
0.0
 11
418.9149625650316
 21
-247.4862927371066
 31
0.0
  0
LINE
  5
F6B
330
2
100
AcDbEntity
  8
画層1
  6
DIVIDE
 62
     1
100
AcDbLine
 10
416.9149625650316
 20
-332.4862927371067
 30
0.0
 11
418.9149625650316
 21
-332.4862927371067
 31
0.0
  0
CIRCLE
  5
F73
330
2
100
AcDbEntity
  8
画層1
  6
DASHED2
 62
     2
100
AcDbCircle
 10
100.9149625650314
 20
-9.486292737106907
 30
0.0
 40
3.5
  0
CIRCLE
  5
F74
330
2
100
AcDbEntity
  8
画層1
  6
DASHED2
 62
     2
100
AcDbCircle
 10
200.9149625650314
 20
-9.486292737106907
 30
0.0
 40
3.5
  0
ARC
  5
F75
330
2
100
AcDbEntity
  8
画層1
  6
DASHED2
 62
     2
100
AcDbCircle
 10
200.9149625650314
 20
-295.4862927371067
 30
0.0
 40
3.5
100
AcDbArc
 50
0.0
 51
180.0
  0
ARC
  5
F76
330
2
100
AcDbEntity
  8
画層1
  6
DASHED2
 62
     2
100
AcDbCircle
 10
100.9149625650314
 20
-295.4862927371067
 30
0.0
 40
3.5
100
AcDbArc
 50
0.0
 51
180.0
  0
LINE
  5
F77
330
2
100
AcDbEntity
  8
画層1
  6
DASHED2
 62
     2
100
AcDbLine
 10
97.41496256503149
 20
-295.4862927371067
 30
0.0
 11
97.41496256503149
 21
-302.4862927371068
 31
0.0
  0
LINE
  5
F78
330
2
100
AcDbEntity
  8
画層1
  6
DASHED2
 62
     2
100
AcDbLine
 10
104.4149625650314
 20
-295.4862927371067
 30
0.0
 11
104.4149625650314
 21
-302.4862927371068
 31
0.0
  0
LINE
  5
F79
330
2
100
AcDbEntity
  8
画層1
  6
DASHED2
 62
     2
100
AcDbLine
 10
197.4149625650314
 20
-295.4862927371067
 30
0.0
 11
197.4149625650314
 21
-302.4862927371068
 31
0.0
  0
LINE
  5
F7A
330
2
100
AcDbEntity
  8
画層1
  6
DASHED2
 62
     2
100
AcDbLine
 10
204.4149625650314
 20
-295.4862927371067
 30
0.0
 11
204.4149625650314
 21
-302.4862927371068
 31
0.0
  0
DIMENSION
  5
F7B
330
2
100
AcDbEntity
  8
画層1
 62
     1
100
AcDbDimension
  2
*D4
 10
200.9149625650314
 20
4.513707262893092
 30
0.0
 11
150.9149625650314
 21
6.393707262893092
 31
0.0
 70
    32
 71
     5
 42
100.0
  3
STANDARD_WS
100
AcDbAlignedDimension
 13
100.9149625650314
 23
-9.486292737106907
 33
0.0
 14
200.9149625650314
 24
-9.486292737106907
 34
0.0
100
AcDbRotatedDimension
1001
ACAD
1000
DSTYLE
1002
{
1070
    47
1040
0.6
1070
   146
1040
0.5
1070
   173
1070
     0
1070
   284
1070
     8
1070
   340
1005
27
1070
   341
1005
28
1070
   342
1005
28
1070
   343
1005
0
1070
   344
1005
0
1002
}
  0
LINE
  5
1000
330
2
100
AcDbEntity
  8
画層1
  6
CENTER
 62
     1
100
AcDbLine
 10
150.9149625650314
 20
-304.4862927371068
 30
0.0
 11
150.9149625650314
 21
-0.4862927371069077
 31
0.0
  0
LINE
  5
1001
330
2
100
AcDbEntity
  8
画層1
  6
CENTER
 62
     1
100
AcDbLine
 10
92.41496256503143
 20
-295.4862927371067
 30
0.0
 11
109.4149625650314
 21
-295.4862927371067
 31
0.0
  0
LINE
  5
1002
330
2
100
AcDbEntity
  8
画層1
  6
CENTER
 62
     1
100
AcDbLine
 10
100.9149625650314
 20
-286.9862927371066
 30
0.0
 11
100.9149625650314
 21
-303.9862927371068
 31
0.0
  0
LINE
  5
1003
330
2
100
AcDbEntity
  8
画層1
  6
CENTER
 62
     1
100
AcDbLine
 10
192.4149625650314
 20
-295.4862927371067
 30
0.0
 11
209.4149625650314
 21
-295.4862927371067
 31
0.0
  0
LINE
  5
1004
330
2
100
AcDbEntity
  8
画層1
  6
CENTER
 62
     1
100
AcDbLine
 10
200.9149625650314
 20
-286.9862927371066
 30
0.0
 11
200.9149625650314
 21
-303.9862927371068
 31
0.0
  0
LINE
  5
1005
330
2
100
AcDbEntity
  8
画層1
  6
CENTER
 62
     1
100
AcDbLine
 10
92.41496256503143
 20
-9.486292737106907
 30
0.0
 11
109.4149625650314
 21
-9.486292737106907
 31
0.0
  0
LINE
  5
1006
330
2
100
AcDbEntity
  8
画層1
  6
CENTER
 62
     1
100
AcDbLine
 10
100.9149625650314
 20
-0.9862927371069075
 30
0.0
 11
100.9149625650314
 21
-17.98629273710689
 31
0.0
  0
LINE
  5
1007
330
2
100
AcDbEntity
  8
画層1
  6
CENTER
 62
     1
100
AcDbLine
 10
192.4149625650314
 20
-9.486292737106907
 30
0.0
 11
209.4149625650314
 21
-9.486292737106907
 31
0.0
  0
LINE
  5
1008
330
2
100
AcDbEntity
  8
画層1
  6
CENTER
 62
     1
100
AcDbLine
 10
200.9149625650314
 20
-0.9862927371069075
 30
0.0
 11
200.9149625650314
 21
-17.98629273710689
 31
0.0
  0
DIMENSION
  5
1009
330
2
100
AcDbEntity
  8
画層1
 62
     1
100
AcDbDimension
  2
*D7
 10
214.9149625650315
 20
4.513707262893092
 30
0.0
 11
207.9149625650313
 21
6.603098125837253
 31
0.0
 70
    32
 71
     5
 42
14.00000000000003
  3
STANDARD_WS
100
AcDbAlignedDimension
 13
200.9149625650314
 23
-9.486292737106907
 33
0.0
 14
214.9149625650315
 24
-13.9862927371069
 34
0.0
100
AcDbRotatedDimension
1001
ACAD
1000
DSTYLE
1002
{
1070
     3
1000
(<>)
1070
   279
1070
     1
1070
    47
1040
0.6
1070
   146
1040
0.5
1070
   173
1070
     0
1070
   284
1070
     8
1070
   340
1005
27
1070
   341
1005
28
1070
   342
1005
28
1070
   343
1005
0
1070
   344
1005
0
1002
}
  0
DIMENSION
  5
101F
330
2
100
AcDbEntity
  8
画層1
 62
     1
100
AcDbDimension
  2
*D8
 10
214.9149625650315
 20
11.51370726289309
 30
0.0
 11
150.9149625650314
 21
13.39370726289309
 31
0.0
 70
    32
 71
     5
 42
128.0
  3
STANDARD_WS
100
AcDbAlignedDimension
 13
86.91496256503148
 23
-2.486292737106793
 33
0.0
 14
214.9149625650315
 24
-13.9862927371069
 34
0.0
100
AcDbRotatedDimension
1001
ACAD
1000
DSTYLE
1002
{
1070
    47
1040
0.6
1070
   146
1040
0.5
1070
   173
1070
     0
1070
   284
1070
     8
1070
   340
1005
27
1070
   341
1005
28
1070
   342
1005
28
1070
   343
1005
0
1070
   344
1005
0
1002
}
  0
DIMENSION
  5
1035
330
2
100
AcDbEntity
  8
画層1
 62
     1
100
AcDbDimension
  2
*D9
 10
220.9149625650315
 20
11.51370726289309
 30
0.0
 11
217.9149625650314
 21
13.39370726289309
 31
0.0
 70
    32
 71
     5
 42
6.0
  3
STANDARD_WS
100
AcDbAlignedDimension
 13
214.9149625650315
 23
-12.9862927371069
 33
0.0
 14
220.9149625650315
 24
-69.4862927371069
 34
0.0
100
AcDbRotatedDimension
1001
ACAD
1000
DSTYLE
1002
{
1070
   279
1070
     1
1070
    47
1040
0.6
1070
   146
1040
0.5
1070
   173
1070
     0
1070
   284
1070
     8
1070
   340
1005
27
1070
   341
1005
28
1070
   342
1005
28
1070
   343
1005
0
1070
   344
1005
0
1002
}
  0
LINE
  5
104B
330
2
100
AcDbEntity
  8
画層1
 62
     3
100
AcDbLine
 10
218.9149625650315
 20
-177.4862927371069
 30
0.0
 11
217.5149625650314
 21
-177.4862927371069
 31
0.0
  0
LINE
  5
104C
330
2
100
AcDbEntity
  8
画層1
 62
     3
100
AcDbLine
 10
217.5149625650314
 20
-167.4862927371069
 30
0.0
 11
218.9149625650315
 21
-167.4862927371069
 31
0.0
  0
ARC
  5
104D
330
2
100
AcDbEntity
  8
画層1
 62
     3
100
AcDbCircle
 10
218.9149625650315
 20
-169.4862927371069
 30
0.0
 40
2.0
100
AcDbArc
 50
0.0
 51
90.0
  0
ARC
  5
104E
330
2
100
AcDbEntity
  8
画層1
 62
     3
100
AcDbCircle
 10
218.9149625650315
 20
-175.4862927371069
 30
0.0
 40
2.0
100
AcDbArc
 50
270.0
 51
359.9999999999997
  0
LINE
  5
104F
330
2
100
AcDbEntity
  8
画層1
 62
     3
100
AcDbLine
 10
220.9149625650315
 20
-169.4862927371069
 30
0.0
 11
220.9149625650315
 21
-175.4862927371069
 31
0.0
  0
LINE
  5
1050
330
2
100
AcDbEntity
  8
画層1
 62
     3
100
AcDbLine
 10
82.91496256503142
 20
-77.48629273710692
 30
0.0
 11
84.31496256503145
 21
-77.4862927371069
 31
0.0
  0
LINE
  5
1051
330
2
100
AcDbEntity
  8
画層1
 62
     3
100
AcDbLine
 10
84.31496256503145
 20
-67.48629273710689
 30
0.0
 11
82.91496256503142
 21
-67.48629273710689
 31
0.0
  0
ARC
  5
1052
330
2
100
AcDbEntity
  8
画層1
 62
     3
100
AcDbCircle
 10
82.91496256503142
 20
-69.4862927371069
 30
0.0
 40
2.0
100
AcDbArc
 50
90.0
 51
180.0
  0
ARC
  5
1053
330
2
100
AcDbEntity
  8
画層1
 62
     3
100
AcDbCircle
 10
82.91496256503142
 20
-75.48629273710692
 30
0.0
 40
2.0
100
AcDbArc
 50
180.0000000000002
 51
270.0
  0
LINE
  5
1054
330
2
100
AcDbEntity
  8
画層1
 62
     3
100
AcDbLine
 10
80.91496256503143
 20
-69.4862927371069
 30
0.0
 11
80.91496256503143
 21
-75.48629273710694
 31
0.0
  0
LINE
  5
1055
330
2
100
AcDbEntity
  8
画層1
 62
     3
100
AcDbLine
 10
84.31496256503145
 20
-167.4862927371069
 30
0.0
 11
82.91496256503142
 21
-167.4862927371069
 31
0.0
  0
LINE
  5
1056
330
2
100
AcDbEntity
  8
画層1
 62
     3
100
AcDbLine
 10
82.91496256503142
 20
-177.4862927371069
 30
0.0
 11
84.31496256503145
 21
-177.4862927371069
 31
0.0
  0
LINE
  5
1057
330
2
100
AcDbEntity
  8
画層1
 62
     3
100
AcDbLine
 10
80.91496256503143
 20
-169.4862927371069
 30
0.0
 11
80.91496256503143
 21
-175.4862927371069
 31
0.0
  0
ARC
  5
1058
330
2
100
AcDbEntity
  8
画層1
 62
     3
100
AcDbCircle
 10
82.91496256503142
 20
-175.4862927371069
 30
0.0
 40
2.0
100
AcDbArc
 50
180.0000000000002
 51
270.0
  0
ARC
  5
1059
330
2
100
AcDbEntity
  8
画層1
 62
     3
100
AcDbCircle
 10
82.91496256503142
 20
-169.4862927371069
 30
0.0
 40
2.0
100
AcDbArc
 50
90.0
 51
180.0
  0
DIMENSION
  5
105B
330
2
100
AcDbEntity
  8
画層1
 62
     1
100
AcDbDimension
  2
*D10
 10
220.9149625650315
 20
18.51370726289308
 30
0.0
 11
150.9149625650314
 21
20.39370726289309
 31
0.0
 70
    32
 71
     5
 42
140.0
  3
STANDARD_WS
100
AcDbAlignedDimension
 13
80.91496256503143
 23
-69.4862927371069
 33
0.0
 14
220.9149625650315
 24
-69.4862927371069
 34
0.0
100
AcDbRotatedDimension
1001
ACAD
1000
DSTYLE
1002
{
1070
    47
1040
0.6
1070
   146
1040
0.5
1070
   173
1070
     0
1070
   284
1070
     8
1070
   340
1005
27
1070
   341
1005
28
1070
   342
1005
28
1070
   343
1005
0
1070
   344
1005
0
1002
}
  0
DIMENSION
  5
1095
330
2
100
AcDbEntity
  8
画層1
 62
     1
100
AcDbDimension
  2
*D11
 10
66.91496256503135
 20
-295.4862927371067
 30
0.0
 11
65.03496256503144
 21
-152.4862927371068
 31
0.0
 70
    32
 71
     5
 42
285.9999999999999
  3
STANDARD_WS
100
AcDbAlignedDimension
 13
100.9149625650314
 23
-9.486292737106907
 33
0.0
 14
100.9149625650314
 24
-295.4862927371067
 34
0.0
 50
90.0
100
AcDbRotatedDimension
1001
ACAD
1000
DSTYLE
1002
{
1070
    47
1040
0.6
1070
   146
1040
0.5
1070
   173
1070
     0
1070
   284
1070
     8
1070
   340
1005
27
1070
   341
1005
28
1070
   342
1005
28
1070
   343
1005
0
1070
   344
1005
0
1002
}
  0
LEADER
  5
10AB
330
2
100
AcDbEntity
  8
画層1
 62
     1
100
AcDbLeader
  3
STANDARD_WS
 73
     0
 75
     1
 40
2.906091370558375
 41
7.753807106598983
 76
     3
 10
97.89856987445631
 20
-7.71108144369851
 30
0.0
 10
77.12652801368753
 20
4.513707262893094
 30
0.0
 10
75.62652801368753
 20
4.513707262893094
 30
0.0
340
10AC
213
-1.0
223
0.4207616165015227
233
0.0
1001
ACAD
1000
DSTYLE
1002
{
1070
    47
1040
0.6
1070
    77
1070
     2
1070
   144
1040
2.0
1070
   146
1040
0.5
1070
   147
1040
0.63
1070
   284
1070
     8
1070
   340
1005
27
1070
   341
1005
28
1070
   343
1005
121
1002
}
  0
MTEXT
  5
10AC
102
{ACAD_REACTORS
330
10AB
102
}
330
2
100
AcDbEntity
  8
画層1
 62
     1
100
AcDbMText
 10
75.99652801368754
 20
4.722945646391572
 30
0.0
 40
2.5
 41
0.0
 71
     9
 72
     1
  1
2-φ7
  7
STYLE1
 73
     1
 44
1.0
  0
DIMENSION
  5
10AD
330
2
100
AcDbEntity
  8
画層1
 62
     1
100
AcDbDimension
  2
*D12
 10
234.9149625650313
 20
-302.4862927371068
 30
0.0
 11
233.0349625650315
 21
-152.4862927371068
 31
0.0
 70
    32
 71
     5
 42
299.9999999999999
  3
STANDARD_WS
100
AcDbAlignedDimension
 13
214.5149625650314
 23
-2.486292737106906
 33
0.0
 14
214.5149625650314
 24
-302.4862927371068
 34
0.0
 50
90.0
100
AcDbRotatedDimension
1001
ACAD
1000
DSTYLE
1002
{
1070
    47
1040
0.6
1070
   146
1040
0.5
1070
   173
1070
     0
1070
   284
1070
     8
1070
   340
1005
27
1070
   341
1005
28
1070
   342
1005
28
1070
   343
1005
0
1070
   344
1005
0
1002
}
  0
DIMENSION
  5
10C3
330
2
100
AcDbEntity
  8
画層1
 62
     1
100
AcDbDimension
  2
*D13
 10
227.9149625650314
 20
-288.4862927371066
 30
0.0
 11
226.0349625650313
 21
-295.4862927371067
 31
0.0
 70
    32
 71
     5
 42
14.0
  3
STANDARD_WS
100
AcDbAlignedDimension
 13
214.5149625650314
 23
-302.4862927371068
 33
0.0
 14
179.9149625650314
 24
-288.4862927371066
 34
0.0
 50
90.0
100
AcDbRotatedDimension
1001
ACAD
1000
DSTYLE
1002
{
1070
    47
1040
0.6
1070
   146
1040
0.5
1070
   173
1070
     0
1070
   284
1070
     8
1070
   340
1005
27
1070
   341
1005
28
1070
   342
1005
28
1070
   343
1005
0
1070
   344
1005
0
1002
}
  0
DIMENSION
  5
10D9
330
2
100
AcDbEntity
  8
画層1
 62
     1
100
AcDbDimension
  2
*D14
 10
97.41496256503149
 20
-339.4862927371068
 30
0.0
 11
84.06034327569136
 21
-337.3651759858376
 31
0.0
 70
    32
 71
     5
 42
7.0
  3
STANDARD_WS
100
AcDbAlignedDimension
 13
104.4149625650314
 23
-302.4862927371068
 33
0.0
 14
97.41496256503149
 24
-302.4862927371068
 34
0.0
100
AcDbRotatedDimension
1001
ACAD
1000
DSTYLE
1002
{
1070
     3
1000
2-φ<> キリカキ
1070
    47
1040
0.6
1070
   146
1040
0.5
1070
   173
1070
     0
1070
   284
1070
     8
1070
   340
1005
27
1070
   341
1005
28
1070
   342
1005
28
1070
   343
1005
0
1070
   344
1005
0
1002
}
  0
DIMENSION
  5
10EF
330
2
100
AcDbEntity
  8
画層1
 62
     1
100
AcDbDimension
  2
*D15
 10
193.4149625650314
 20
-339.4862927371068
 30
0.0
 11
180.9149625650314
 21
-337.6062927371068
 31
0.0
 70
    32
 71
     5
 42
25.0
  3
STANDARD_WS
100
AcDbAlignedDimension
 13
168.4149625650314
 23
-302.4862927371068
 33
0.0
 14
193.4149625650314
 24
-302.4862927371068
 34
0.0
100
AcDbRotatedDimension
1001
ACAD
1000
DSTYLE
1002
{
1070
    47
1040
0.6
1070
   146
1040
0.5
1070
   173
1070
     0
1070
   284
1070
     8
1070
   340
1005
27
1070
   341
1005
28
1070
   342
1005
28
1070
   343
1005
0
1070
   344
1005
0
1002
}
  0
DIMENSION
  5
110E
330
2
100
AcDbEntity
  8
画層1
 62
     1
100
AcDbDimension
  2
*D16
 10
180.9149625650314
 20
-346.4862927371068
 30
0.0
 11
151.9149625650314
 21
-344.6062927371067
 31
0.0
 70
    32
 71
     5
 42
58.0
  3
STANDARD_WS
100
AcDbAlignedDimension
 13
122.9149625650314
 23
-288.4862927371066
 33
0.0
 14
180.9149625650314
 24
-288.4862927371066
 34
0.0
100
AcDbRotatedDimension
1001
ACAD
1000
DSTYLE
1002
{
1070
    47
1040
0.6
1070
   146
1040
0.5
1070
   173
1070
     0
1070
   284
1070
     8
1070
   340
1005
27
1070
   341
1005
28
1070
   342
1005
28
1070
   343
1005
0
1070
   344
1005
0
1002
}
  0
DIMENSION
  5
1136
330
2
100
AcDbEntity
  8
画層1
 62
     1
100
AcDbDimension
  2
*D17
 10
214.9149625650315
 20
-346.4862927371068
 30
0.0
 11
197.9149625650314
 21
-344.3969018741626
 31
0.0
 70
    32
 71
     5
 42
34.00000000000003
  3
STANDARD_WS
100
AcDbAlignedDimension
 13
180.9149625650314
 23
-288.4862927371066
 33
0.0
 14
214.9149625650315
 24
-290.9862927371067
 34
0.0
100
AcDbRotatedDimension
1001
ACAD
1000
DSTYLE
1002
{
1070
     3
1000
(<>)
1070
   279
1070
     1
1070
    47
1040
0.6
1070
   146
1040
0.5
1070
   173
1070
     0
1070
   284
1070
     8
1070
   340
1005
27
1070
   341
1005
28
1070
   342
1005
28
1070
   343
1005
0
1070
   344
1005
0
1002
}
  0
DIMENSION
  5
1179
330
2
100
AcDbEntity
  8
画層1
 62
     1
100
AcDbDimension
  2
*D18
 10
156.0649625650313
 20
-276.4862927371066
 30
0.0
 11
151.9149625650314
 21
-274.6062927371068
 31
0.0
 70
    32
 71
     5
 42
8.299999999999727
  3
STANDARD_WS
100
AcDbAlignedDimension
 13
147.7649625650315
 23
-261.2362927371068
 33
0.0
 14
156.0649625650313
 24
-261.2362927371068
 34
0.0
100
AcDbRotatedDimension
1001
ACAD
1000
DSTYLE
1002
{
1070
    47
1040
0.6
1070
   146
1040
0.5
1070
   173
1070
     0
1070
   284
1070
     8
1070
   340
1005
27
1070
   341
1005
28
1070
   342
1005
28
1070
   343
1005
0
1070
   344
1005
0
1002
}
  0
LEADER
  5
11BA
330
2
100
AcDbEntity
  8
画層1
 62
     1
100
AcDbLeader
  3
STANDARD_WS
 73
     0
 75
     1
 40
2.5
 41
6.180203045685278
 76
     3
 10
150.4149625650313
 20
-256.9862927371068
 30
0.0
 10
112.6370392475581
 20
-353.4862927371066
 30
0.0
 10
111.137039247558
 20
-353.4862927371066
 30
0.0
340
11BB
213
-1.0
223
0.4207616165015227
233
0.0
1001
ACAD
1000
DSTYLE
1002
{
1070
     6
1000
DOTSMALL
1070
    47
1040
0.6
1070
    77
1070
     2
1070
   144
1040
2.0
1070
   146
1040
0.5
1070
   147
1040
0.63
1070
   284
1070
     8
1070
   340
1005
27
1070
   341
1005
121
1070
   343
1005
121
1002
}
  0
MTEXT
  5
11BB
102
{ACAD_REACTORS
330
11BA
102
}
330
2
100
AcDbEntity
  8
画層1
 62
     1
100
AcDbMText
 10
111.507039247558
 20
-353.2770543536083
 30
0.0
 40
2.5
 41
0.0
 71
     9
 72
     1
  1
M3.5
  7
STYLE1
 73
     1
 44
1.0
  0
LEADER
  5
11BC
330
2
100
AcDbEntity
  8
画層1
 62
     1
100
AcDbLeader
  3
STANDARD_WS
 73
     0
 75
     1
 40
2.906091370558375
 41
8.959390862944161
 76
     3
 10
121.5328142586409
 20
-293.8097940341048
 30
0.0
 10
107.8563390580068
 20
-346.4862927371068
 30
0.0
 10
106.3563390580068
 20
-346.4862927371068
 30
0.0
340
11BD
213
-1.0
223
0.4207616165015227
233
0.0
1001
ACAD
1000
DSTYLE
1002
{
1070
    47
1040
0.6
1070
    77
1070
     2
1070
   144
1040
2.0
1070
   146
1040
0.5
1070
   147
1040
0.63
1070
   284
1070
     8
1070
   340
1005
27
1070
   341
1005
28
1070
   343
1005
121
1002
}
  0
MTEXT
  5
11BD
102
{ACAD_REACTORS
330
11BC
102
}
330
2
100
AcDbEntity
  8
画層1
 62
     1
100
AcDbMText
 10
106.7263390580069
 20
-346.2770543536083
 30
0.0
 40
2.5
 41
0.0
 71
     9
 72
     1
  1
2-φ11
  7
STYLE1
 73
     1
 44
1.0
  0
LINE
  5
11BF
330
2
100
AcDbEntity
  8
画層1
  6
CENTER
 62
     1
100
AcDbLine
 10
413.9149625650317
 20
-252.4862927371068
 30
0.0
 11
461.9149625650316
 21
-252.4862927371068
 31
0.0
  0
DIMENSION
  5
11C0
330
2
100
AcDbEntity
  8
画層1
 62
     1
100
AcDbDimension
  2
*D19
 10
364.9149625650315
 20
4.513707262893092
 30
0.0
 11
487.4149625650314
 21
6.603098125837253
 31
0.0
 70
    32
 71
     5
 42
245.0000000000001
  3
STANDARD_WS
100
AcDbAlignedDimension
 13
609.9149625650317
 23
-2.486292737106906
 33
0.0
 14
364.9149625650315
 24
-45.48629273710689
 34
0.0
100
AcDbRotatedDimension
1001
ACAD
1000
DSTYLE
1002
{
1070
     3
1000
(<>)
1070
    47
1040
0.6
1070
   146
1040
0.5
1070
   173
1070
     0
1070
   284
1070
     8
1070
   340
1005
27
1070
   341
1005
28
1070
   342
1005
28
1070
   343
1005
0
1070
   344
1005
0
1002
}
  0
DIMENSION
  5
11CD
330
2
100
AcDbEntity
  8
画層1
 62
     1
100
AcDbDimension
  2
*D20
 10
352.4149625650315
 20
4.513707262893092
 30
0.0
 11
358.6649625650315
 21
6.393707262893092
 31
0.0
 70
    32
 71
     5
 42
12.5
  3
STANDARD_WS
100
AcDbAlignedDimension
 13
364.9149625650315
 23
-45.48629273710689
 33
0.0
 14
352.4149625650315
 24
-43.48629273710691
 34
0.0
100
AcDbRotatedDimension
1001
ACAD
1000
DSTYLE
1002
{
1070
   279
1070
     1
1070
    47
1040
0.6
1070
   146
1040
0.5
1070
   173
1070
     0
1070
   284
1070
     8
1070
   340
1005
27
1070
   341
1005
28
1070
   342
1005
28
1070
   343
1005
0
1070
   344
1005
0
1002
}
  0
DIMENSION
  5
11F5
330
2
100
AcDbEntity
  8
画層1
 62
     1
100
AcDbDimension
  2
*D21
 10
335.9149625650315
 20
11.51370726289309
 30
0.0
 11
472.9149625650315
 21
13.39370726289309
 31
0.0
 70
    32
 71
     5
 42
274.0
  3
STANDARD_WS
100
AcDbAlignedDimension
 13
609.9149625650317
 23
-2.486292737106906
 33
0.0
 14
335.9149625650315
 24
-5.886292737107055
 34
0.0
100
AcDbRotatedDimension
1001
ACAD
1000
DSTYLE
1002
{
1070
    47
1040
0.6
1070
   146
1040
0.5
1070
   173
1070
     0
1070
   284
1070
     8
1070
   340
1005
27
1070
   341
1005
28
1070
   342
1005
28
1070
   343
1005
0
1070
   344
1005
0
1002
}
  0
ARC
  5
1202
330
2
100
AcDbEntity
  8
画層1
 62
     3
100
AcDbCircle
 10
385.9149625650315
 20
-9.086292737107044
 30
0.0
 40
1.0
100
AcDbArc
 50
180.0
 51
270.0
  0
ARC
  5
1203
330
2
100
AcDbEntity
  8
画層1
 62
     3
100
AcDbCircle
 10
385.9149625650315
 20
-5.886292737107055
 30
0.0
 40
1.0
100
AcDbArc
 50
90.0
 51
180.0
  0
LINE
  5
1204
330
2
100
AcDbEntity
  8
画層1
 62
     3
100
AcDbLine
 10
385.9149625650315
 20
-10.08629273710692
 30
0.0
 11
386.7149625650315
 21
-10.08629273710692
 31
0.0
  0
LINE
  5
1205
330
2
100
AcDbEntity
  8
画層1
 62
     3
100
AcDbLine
 10
386.7149625650315
 20
-4.886292737107054
 30
0.0
 11
385.9149625650315
 21
-4.886292737107054
 31
0.0
  0
LINE
  5
1206
330
2
100
AcDbEntity
  8
画層1
 62
     3
100
AcDbLine
 10
384.9149625650314
 20
-5.886292737107055
 30
0.0
 11
384.9149625650314
 21
-9.086292737107044
 31
0.0
  0
LINE
  5
1207
330
2
100
AcDbEntity
  8
画層1
 62
     3
100
AcDbLine
 10
385.5149625650313
 20
-7.886292737107055
 30
0.0
 11
385.5149625650313
 21
-7.086292737107044
 31
0.0
  0
LINE
  5
1208
330
2
100
AcDbEntity
  8
画層1
 62
     3
100
AcDbLine
 10
384.9149625650314
 20
-7.886292737107055
 30
0.0
 11
385.5149625650313
 21
-7.886292737107055
 31
0.0
  0
LINE
  5
1209
330
2
100
AcDbEntity
  8
画層1
 62
     3
100
AcDbLine
 10
385.5149625650313
 20
-7.086292737107044
 30
0.0
 11
384.9149625650314
 21
-7.086292737107044
 31
0.0
  0
ARC
  5
120A
330
2
100
AcDbEntity
  8
画層1
 62
     3
100
AcDbCircle
 10
385.9149625650315
 20
-295.8862927371067
 30
0.0
 40
1.0
100
AcDbArc
 50
90.00000000000005
 51
180.0
  0
LINE
  5
120B
330
2
100
AcDbEntity
  8
画層1
 62
     3
100
AcDbLine
 10
385.9149625650315
 20
-294.8862927371068
 30
0.0
 11
386.7149625650315
 21
-294.8862927371068
 31
0.0
  0
LINE
  5
120C
330
2
100
AcDbEntity
  8
画層1
 62
     3
100
AcDbLine
 10
385.5149625650313
 20
-297.8862927371067
 30
0.0
 11
384.9149625650314
 21
-297.8862927371067
 31
0.0
  0
LINE
  5
120D
330
2
100
AcDbEntity
  8
画層1
 62
     3
100
AcDbLine
 10
384.9149625650314
 20
-297.0862927371067
 30
0.0
 11
385.5149625650313
 21
-297.0862927371067
 31
0.0
  0
LINE
  5
120E
330
2
100
AcDbEntity
  8
画層1
 62
     3
100
AcDbLine
 10
385.5149625650313
 20
-297.0862927371067
 30
0.0
 11
385.5149625650313
 21
-297.8862927371067
 31
0.0
  0
LINE
  5
120F
330
2
100
AcDbEntity
  8
画層1
 62
     3
100
AcDbLine
 10
384.9149625650314
 20
-299.0862927371066
 30
0.0
 11
384.9149625650314
 21
-295.8862927371067
 31
0.0
  0
LINE
  5
1210
330
2
100
AcDbEntity
  8
画層1
 62
     3
100
AcDbLine
 10
386.7149625650315
 20
-300.0862927371067
 30
0.0
 11
385.9149625650315
 21
-300.0862927371067
 31
0.0
  0
ARC
  5
1211
330
2
100
AcDbEntity
  8
画層1
 62
     3
100
AcDbCircle
 10
385.9149625650315
 20
-299.0862927371066
 30
0.0
 40
1.0
100
AcDbArc
 50
180.0
 51
270.0
  0
ARC
  5
1212
330
2
100
AcDbEntity
  8
画層1
 62
     3
100
AcDbCircle
 10
336.9149625650313
 20
-295.8862927371067
 30
0.0
 40
1.0
100
AcDbArc
 50
90.00000000000005
 51
180.0
  0
ARC
  5
1213
330
2
100
AcDbEntity
  8
画層1
 62
     3
100
AcDbCircle
 10
336.9149625650313
 20
-299.0862927371066
 30
0.0
 40
1.0
100
AcDbArc
 50
180.0
 51
270.0
  0
LINE
  5
1214
330
2
100
AcDbEntity
  8
画層1
 62
     3
100
AcDbLine
 10
336.9149625650313
 20
-294.8862927371068
 30
0.0
 11
337.7149625650313
 21
-294.8862927371068
 31
0.0
  0
LINE
  5
1215
330
2
100
AcDbEntity
  8
画層1
 62
     3
100
AcDbLine
 10
337.7149625650313
 20
-300.0862927371067
 30
0.0
 11
336.9149625650313
 21
-300.0862927371067
 31
0.0
  0
LINE
  5
1216
330
2
100
AcDbEntity
  8
画層1
 62
     3
100
AcDbLine
 10
335.9149625650315
 20
-299.0862927371066
 30
0.0
 11
335.9149625650315
 21
-295.8862927371067
 31
0.0
  0
LINE
  5
1217
330
2
100
AcDbEntity
  8
画層1
 62
     3
100
AcDbLine
 10
336.5149625650313
 20
-297.0862927371067
 30
0.0
 11
336.5149625650313
 21
-297.8862927371067
 31
0.0
  0
LINE
  5
1218
330
2
100
AcDbEntity
  8
画層1
 62
     3
100
AcDbLine
 10
335.9149625650315
 20
-297.0862927371067
 30
0.0
 11
336.5149625650313
 21
-297.0862927371067
 31
0.0
  0
LINE
  5
1219
330
2
100
AcDbEntity
  8
画層1
 62
     3
100
AcDbLine
 10
336.5149625650313
 20
-297.8862927371067
 30
0.0
 11
335.9149625650315
 21
-297.8862927371067
 31
0.0
  0
DIMENSION
  5
1223
330
2
100
AcDbEntity
  8
画層1
 62
     1
100
AcDbDimension
  2
*D22
 10
448.9149625650316
 20
-339.4862927371068
 30
0.0
 11
446.9149625650316
 21
-337.6062927371068
 31
0.0
 70
    32
 71
     5
 42
4.0
  3
STANDARD_WS
100
AcDbAlignedDimension
 13
444.9149625650316
 23
-302.4862927371068
 33
0.0
 14
448.9149625650316
 24
-302.4862927371068
 34
0.0
100
AcDbRotatedDimension
1001
ACAD
1000
DSTYLE
1002
{
1070
    47
1040
0.6
1070
   146
1040
0.5
1070
   173
1070
     0
1070
   284
1070
     8
1070
   340
1005
27
1070
   341
1005
28
1070
   342
1005
28
1070
   343
1005
0
1070
   344
1005
0
1002
}
  0
DIMENSION
  5
1232
330
2
100
AcDbEntity
  8
画層1
 62
     1
100
AcDbDimension
  2
*D23
 10
609.9149625650317
 20
-346.4862927371068
 30
0.0
 11
527.4149625650315
 21
-344.6062927371067
 31
0.0
 70
    32
 71
     5
 42
164.9999999999999
  3
STANDARD_WS
100
AcDbAlignedDimension
 13
444.9149625650316
 23
-302.4862927371068
 33
0.0
 14
609.9149625650317
 24
-302.4862927371068
 34
0.0
100
AcDbRotatedDimension
1001
ACAD
1000
DSTYLE
1002
{
1070
    47
1040
0.6
1070
   146
1040
0.5
1070
   173
1070
     0
1070
   284
1070
     8
1070
   340
1005
27
1070
   341
1005
28
1070
   342
1005
28
1070
   343
1005
0
1070
   344
1005
0
1002
}
  0
DIMENSION
  5
123F
330
2
100
AcDbEntity
  8
画層1
 62
     1
100
AcDbDimension
  2
*D24
 10
439.9149625650316
 20
-353.4862927371066
 30
0.0
 11
524.9149625650317
 21
-351.3969018741626
 31
0.0
 70
    32
 71
     5
 42
169.9999999999999
  3
STANDARD_WS
100
AcDbAlignedDimension
 13
609.9149625650317
 23
-303.1162927371068
 33
0.0
 14
439.9149625650316
 24
-260.4862927371068
 34
0.0
100
AcDbRotatedDimension
1001
ACAD
1000
DSTYLE
1002
{
1070
     3
1000
(<>)
1070
    47
1040
0.6
1070
   146
1040
0.5
1070
   173
1070
     0
1070
   284
1070
     8
1070
   340
1005
27
1070
   341
1005
28
1070
   342
1005
28
1070
   343
1005
0
1070
   344
1005
0
1002
}
  0
LINE
  5
12C0
330
2
100
AcDbEntity
  8
画層1
  6
CENTER
 62
     1
100
AcDbLine
 10
441.9149625650316
 20
-288.4862927371066
 30
0.0
 11
451.9149625650316
 21
-288.4862927371066
 31
0.0
  0
LINE
  5
12C3
330
2
100
AcDbEntity
  8
画層1
  6
CENTER
 62
     1
100
AcDbLine
 10
602.9149625650315
 20
-295.4862927371067
 30
0.0
 11
612.9149625650317
 21
-295.4862927371067
 31
0.0
  0
LINE
  5
12C4
330
2
100
AcDbEntity
  8
画層1
  6
CENTER
 62
     1
100
AcDbLine
 10
602.9149625650315
 20
-9.486292737106907
 30
0.0
 11
612.9149625650317
 21
-9.486292737106907
 31
0.0
  0
ENDSEC
  0
SECTION
  2
OBJECTS
  0
DICTIONARY
  5
9
330
0
100
AcDbDictionary
281
     1
  3
ACAD_GROUP
350
23
  3
ACAD_LAYOUT
350
D
  3
ACAD_MLINESTYLE
350
24
  3
ACAD_PLOTSETTINGS
350
25
  3
ACAD_PLOTSTYLENAME
350
8
  3
ACDBHEADERROUNDTRIPXREC
350
12C7
  3
AcDbVariableDictionary
350
8A3
  3
DWGPROPS
350
618
  0
DICTIONARY
  5
3
330
2
100
AcDbDictionary
280
     1
281
     1
  3
ACAD_LAYOUTSELFREF
360
54F
  0
DICTIONARY
  5
F
330
E
100
AcDbDictionary
280
     1
281
     1
  3
ACAD_LAYOUTSELFREF
360
550
  0
DICTIONARY
  5
23
102
{ACAD_REACTORS
330
9
102
}
330
9
100
AcDbDictionary
281
     1
  0
DICTIONARY
  5
D
102
{ACAD_REACTORS
330
9
102
}
330
9
100
AcDbDictionary
281
     1
  3
Model
350
560
  3
ﾚｲｱｳﾄ1
350
561
  0
DICTIONARY
  5
24
102
{ACAD_REACTORS
330
9
102
}
330
9
100
AcDbDictionary
281
     1
  3
STANDARD
350
34
  0
DICTIONARY
  5
25
102
{ACAD_REACTORS
330
9
102
}
330
9
100
AcDbDictionary
281
     1
  0
ACDBDICTIONARYWDFLT
  5
8
102
{ACAD_REACTORS
330
9
102
}
330
9
100
AcDbDictionary
281
     1
  3
Normal
350
7
100
AcDbDictionaryWithDefault
340
7
  0
DICTIONARY
  5
12C7
102
{ACAD_REACTORS
330
9
102
}
330
9
100
AcDbDictionary
281
     1
  3
CEPSNTYPE
350
12D1
  3
DIMSTYLEDATA
350
12D5
  3
FINGERPRINTGUID
350
12D2
  3
HYPERLINKBASE
350
12CA
  3
INSUNITS
350
12D0
  3
LAYOUTDICT
350
12CC
  3
LWETCUNION
350
12CF
  3
PLOTSETDICT
350
12CD
  3
PLOTSTYLNAMDICT
350
12CE
  3
PSVPSCALE
350
12D4
  3
PUCSBASE
350
12D8
  3
PUCSORGBACK
350
12DE
  3
PUCSORGBOTTOM
350
12DA
  3
PUCSORGFRONT
350
12DD
  3
PUCSORGLEFT
350
12DB
  3
PUCSORGRIGHT
350
12DC
  3
PUCSORGTOP
350
12D9
  3
PUCSORTHOREF
350
12D6
  3
PUCSORTHOVIEW
350
12D7
  3
STYLESHEET
350
12CB
  3
TSTACKALIGN
350
12C8
  3
TSTACKSIZE
350
12C9
  3
UCSBASE
350
12E1
  3
UCSORGBACK
350
12E7
  3
UCSORGBOTTOM
350
12E3
  3
UCSORGFRONT
350
12E6
  3
UCSORGLEFT
350
12E4
  3
UCSORGRIGHT
350
12E5
  3
UCSORGTOP
350
12E2
  3
UCSORTHOREF
350
12DF
  3
UCSORTHOVIEW
350
12E0
  3
VERSIONGUID
350
12D3
  0
DICTIONARY
  5
8A3
102
{ACAD_REACTORS
330
9
102
}
330
9
100
AcDbDictionary
281
     1
  3
DIMASSOC
350
8A4
  0
XRECORD
  5
618
102
{ACAD_REACTORS
330
9
102
}
330
9
100
AcDbXrecord
280
     1
  1
DWGPROPS COOKIE
  2

  3

  4

  6

  7

  8

  9

300
=
301
=
302
=
303
=
304
=
305
=
306
=
307
=
308
=
309
=
 40
3.523243749999998
 41
2450995.462150231
 42
2451964.71968472
  1

 90
        0
  0
XRECORD
  5
54F
102
{ACAD_REACTORS
330
3
102
}
330
3
100
AcDbXrecord
280
     1
340
2
  0
XRECORD
  5
550
102
{ACAD_REACTORS
330
F
102
}
330
F
100
AcDbXrecord
280
     1
340
E
  0
LAYOUT
  5
560
102
{ACAD_REACTORS
330
D
102
}
330
D
100
AcDbPlotSettings
  1

  2
EPSON MJ-6000C
  4

  6

 40
0.0
 41
0.0
 42
0.0
 43
0.0
 44
0.0
 45
0.0
 46
0.0
 47
0.0
 48
0.0
 49
0.0
140
0.0
141
0.0
142
1.0
143
1.0
 70
  1712
 72
     0
 73
     0
 74
     0
  7

 75
     0
147
1.0
148
0.0
149
0.0
100
AcDbLayout
  1
Model
 70
     1
 71
     0
 10
0.0
 20
0.0
 11
12.0
 21
9.0
 12
0.0
 22
0.0
 32
0.0
 14
0.0
 24
0.0
 34
0.0
 15
0.0
 25
0.0
 35
0.0
146
0.0
 13
0.0
 23
0.0
 33
0.0
 16
1.0
 26
0.0
 36
0.0
 17
0.0
 27
1.0
 37
0.0
 76
     0
330
2
  0
LAYOUT
  5
561
102
{ACAD_REACTORS
330
D
102
}
330
D
100
AcDbPlotSettings
  1

  2
EPSON MJ-6000C
  4

  6

 40
0.0
 41
0.0
 42
0.0
 43
0.0
 44
0.0
 45
0.0
 46
0.0
 47
0.0
 48
0.0
 49
0.0
140
0.0
141
0.0
142
1.0
143
1.0
 70
   688
 72
     0
 73
     0
 74
     5
  7

 75
    16
147
1.0
148
0.0
149
0.0
100
AcDbLayout
  1
ﾚｲｱｳﾄ1
 70
     1
 71
     1
 10
0.0
 20
0.0
 11
420.0
 21
297.0
 12
0.0
 22
0.0
 32
0.0
 14
1.000000000000000E+20
 24
1.000000000000000E+20
 34
1.000000000000000E+20
 15
-1.000000000000000E+20
 25
-1.000000000000000E+20
 35
-1.000000000000000E+20
146
0.0
 13
0.0
 23
0.0
 33
0.0
 16
1.0
 26
0.0
 36
0.0
 17
0.0
 27
1.0
 37
0.0
 76
     0
330
E
  0
MLINESTYLE
  5
34
102
{ACAD_REACTORS
330
24
102
}
330
24
100
AcDbMlineStyle
  2
STANDARD
 70
     0
  3

 62
   256
 51
90.0
 52
90.0
 71
     2
 49
0.5
 62
   256
  6
BYLAYER
 49
-0.5
 62
   256
  6
BYLAYER
  0
ACDBPLACEHOLDER
  5
7
102
{ACAD_REACTORS
330
8
102
}
330
8
  0
XRECORD
  5
12D1
102
{ACAD_REACTORS
330
12C7
102
}
330
12C7
100
AcDbXrecord
280
     1
 90
        0
  0
XRECORD
  5
12D5
102
{ACAD_REACTORS
330
12C7
102
}
330
12C7
100
AcDbXrecord
280
     1
1000
DSTYLE
1002
{
1070
   341
340
28
1070
   342
340
28
1002
}
  0
XRECORD
  5
12D2
102
{ACAD_REACTORS
330
12C7
102
}
330
12C7
100
AcDbXrecord
280
     1
  1
{12426522-B208-11D3-A790-004026173390}
  0
XRECORD
  5
12CA
102
{ACAD_REACTORS
330
12C7
102
}
330
12C7
100
AcDbXrecord
280
     1
  1

  0
XRECORD
  5
12D0
102
{ACAD_REACTORS
330
12C7
102
}
330
12C7
100
AcDbXrecord
280
     1
 90
        0
  0
XRECORD
  5
12CC
102
{ACAD_REACTORS
330
12C7
102
}
330
12C7
100
AcDbXrecord
280
     1
340
D
  0
XRECORD
  5
12CF
102
{ACAD_REACTORS
330
12C7
102
}
330
12C7
100
AcDbXrecord
280
     1
 90
    10781
  0
XRECORD
  5
12CD
102
{ACAD_REACTORS
330
12C7
102
}
330
12C7
100
AcDbXrecord
280
     1
340
25
  0
XRECORD
  5
12CE
102
{ACAD_REACTORS
330
12C7
102
}
330
12C7
100
AcDbXrecord
280
     1
340
8
  0
XRECORD
  5
12D4
102
{ACAD_REACTORS
330
12C7
102
}
330
12C7
100
AcDbXrecord
280
     1
 40
0.0
  0
XRECORD
  5
12D8
102
{ACAD_REACTORS
330
12C7
102
}
330
12C7
100
AcDbXrecord
280
     1
340
0
  0
XRECORD
  5
12DE
102
{ACAD_REACTORS
330
12C7
102
}
330
12C7
100
AcDbXrecord
280
     1
 10
0.0
 20
0.0
 30
0.0
  0
XRECORD
  5
12DA
102
{ACAD_REACTORS
330
12C7
102
}
330
12C7
100
AcDbXrecord
280
     1
 10
0.0
 20
0.0
 30
0.0
  0
XRECORD
  5
12DD
102
{ACAD_REACTORS
330
12C7
102
}
330
12C7
100
AcDbXrecord
280
     1
 10
0.0
 20
0.0
 30
0.0
  0
XRECORD
  5
12DB
102
{ACAD_REACTORS
330
12C7
102
}
330
12C7
100
AcDbXrecord
280
     1
 10
0.0
 20
0.0
 30
0.0
  0
XRECORD
  5
12DC
102
{ACAD_REACTORS
330
12C7
102
}
330
12C7
100
AcDbXrecord
280
     1
 10
0.0
 20
0.0
 30
0.0
  0
XRECORD
  5
12D9
102
{ACAD_REACTORS
330
12C7
102
}
330
12C7
100
AcDbXrecord
280
     1
 10
0.0
 20
0.0
 30
0.0
  0
XRECORD
  5
12D6
102
{ACAD_REACTORS
330
12C7
102
}
330
12C7
100
AcDbXrecord
280
     1
340
0
  0
XRECORD
  5
12D7
102
{ACAD_REACTORS
330
12C7
102
}
330
12C7
100
AcDbXrecord
280
     1
 70
     0
  0
XRECORD
  5
12CB
102
{ACAD_REACTORS
330
12C7
102
}
330
12C7
100
AcDbXrecord
280
     1
  1

  0
XRECORD
  5
12C8
102
{ACAD_REACTORS
330
12C7
102
}
330
12C7
100
AcDbXrecord
280
     1
 90
        1
  0
XRECORD
  5
12C9
102
{ACAD_REACTORS
330
12C7
102
}
330
12C7
100
AcDbXrecord
280
     1
 90
       70
  0
XRECORD
  5
12E1
102
{ACAD_REACTORS
330
12C7
102
}
330
12C7
100
AcDbXrecord
280
     1
340
0
  0
XRECORD
  5
12E7
102
{ACAD_REACTORS
330
12C7
102
}
330
12C7
100
AcDbXrecord
280
     1
 10
0.0
 20
0.0
 30
0.0
  0
XRECORD
  5
12E3
102
{ACAD_REACTORS
330
12C7
102
}
330
12C7
100
AcDbXrecord
280
     1
 10
0.0
 20
0.0
 30
0.0
  0
XRECORD
  5
12E6
102
{ACAD_REACTORS
330
12C7
102
}
330
12C7
100
AcDbXrecord
280
     1
 10
0.0
 20
0.0
 30
0.0
  0
XRECORD
  5
12E4
102
{ACAD_REACTORS
330
12C7
102
}
330
12C7
100
AcDbXrecord
280
     1
 10
0.0
 20
0.0
 30
0.0
  0
XRECORD
  5
12E5
102
{ACAD_REACTORS
330
12C7
102
}
330
12C7
100
AcDbXrecord
280
     1
 10
0.0
 20
0.0
 30
0.0
  0
XRECORD
  5
12E2
102
{ACAD_REACTORS
330
12C7
102
}
330
12C7
100
AcDbXrecord
280
     1
 10
0.0
 20
0.0
 30
0.0
  0
XRECORD
  5
12DF
102
{ACAD_REACTORS
330
12C7
102
}
330
12C7
100
AcDbXrecord
280
     1
340
0
  0
XRECORD
  5
12E0
102
{ACAD_REACTORS
330
12C7
102
}
330
12C7
100
AcDbXrecord
280
     1
 70
     0
  0
XRECORD
  5
12D3
102
{ACAD_REACTORS
330
12C7
102
}
330
12C7
100
AcDbXrecord
280
     1
  1
{3024908E-37B2-4A3C-89D1-BFCD46DFC13E}
  0
DICTIONARYVAR
  5
8A4
102
{ACAD_REACTORS
330
8A3
102
}
330
8A3
100
DictionaryVariables
280
     0
  1
1
  0
ENDSEC
  0
EOF
