  0
SECTION
  2
HEADER
  9
$ACADVER
  1
AC1015
  9
$ACADMAINTVER
 70
     6
  9
$DWGCODEPAGE
  3
ANSI_932
  9
$INSBASE
 10
0.0
 20
0.0
 30
0.0
  9
$EXTMIN
 10
432.6512404554189
 20
239.170142982966
 30
0.0
  9
$EXTMAX
 10
677.5255352853072
 20
613.8089845614188
 30
0.0
  9
$LIMMIN
 10
0.0
 20
0.0
  9
$LIMMAX
 10
420.0
 20
297.0
  9
$ORTHOMODE
 70
     0
  9
$REGENMODE
 70
     1
  9
$FILLMODE
 70
     1
  9
$QTEXTMODE
 70
     0
  9
$MIRRTEXT
 70
     1
  9
$LTSCALE
 40
1.0
  9
$ATTMODE
 70
     1
  9
$TEXTSIZE
 40
2.5
  9
$TRACEWID
 40
1.0
  9
$TEXTSTYLE
  7
STYLE1
  9
$CLAYER
  8
画層1
  9
$CELTYPE
  6
ByLayer
  9
$CECOLOR
 62
     1
  9
$CELTSCALE
 40
1.0
  9
$DISPSILH
 70
     0
  9
$DIMSCALE
 40
1.0
  9
$DIMASZ
 40
2.5
  9
$DIMEXO
 40
0.625
  9
$DIMDLI
 40
3.75
  9
$DIMRND
 40
0.0
  9
$DIMDLE
 40
0.0
  9
$DIMEXE
 40
1.25
  9
$DIMTP
 40
0.0
  9
$DIMTM
 40
0.0
  9
$DIMTXT
 40
2.5
  9
$DIMCEN
 40
2.5
  9
$DIMTSZ
 40
0.0
  9
$DIMTOL
 70
     0
  9
$DIMLIM
 70
     0
  9
$DIMTIH
 70
     0
  9
$DIMTOH
 70
     0
  9
$DIMSE1
 70
     0
  9
$DIMSE2
 70
     0
  9
$DIMTAD
 70
     1
  9
$DIMZIN
 70
     8
  9
$DIMBLK
  1

  9
$DIMASO
 70
     1
  9
$DIMSHO
 70
     1
  9
$DIMPOST
  1

  9
$DIMAPOST
  1

  9
$DIMALT
 70
     0
  9
$DIMALTD
 70
     3
  9
$DIMALTF
 40
0.03937007874016
  9
$DIMLFAC
 40
1.0
  9
$DIMTOFL
 70
     1
  9
$DIMTVP
 40
0.0
  9
$DIMTIX
 70
     0
  9
$DIMSOXD
 70
     0
  9
$DIMSAH
 70
     0
  9
$DIMBLK1
  1

  9
$DIMBLK2
  1

  9
$DIMSTYLE
  2
ISO-25
  9
$DIMCLRD
 70
     0
  9
$DIMCLRE
 70
     0
  9
$DIMCLRT
 70
     0
  9
$DIMTFAC
 40
1.0
  9
$DIMGAP
 40
0.625
  9
$DIMJUST
 70
     0
  9
$DIMSD1
 70
     0
  9
$DIMSD2
 70
     0
  9
$DIMTOLJ
 70
     0
  9
$DIMTZIN
 70
     8
  9
$DIMALTZ
 70
     0
  9
$DIMALTTZ
 70
     0
  9
$DIMUPT
 70
     0
  9
$DIMDEC
 70
     2
  9
$DIMTDEC
 70
     2
  9
$DIMALTU
 70
     2
  9
$DIMALTTD
 70
     3
  9
$DIMTXSTY
  7
Standard
  9
$DIMAUNIT
 70
     0
  9
$DIMADEC
 70
     0
  9
$DIMALTRND
 40
0.0
  9
$DIMAZIN
 70
     0
  9
$DIMDSEP
 70
    44
  9
$DIMATFIT
 70
     3
  9
$DIMFRAC
 70
     0
  9
$DIMLDRBLK
  1

  9
$DIMLUNIT
 70
     2
  9
$DIMLWD
 70
    -2
  9
$DIMLWE
 70
    -2
  9
$DIMTMOVE
 70
     0
  9
$LUNITS
 70
     2
  9
$LUPREC
 70
     4
  9
$SKETCHINC
 40
1.0
  9
$FILLETRAD
 40
1.5
  9
$AUNITS
 70
     0
  9
$AUPREC
 70
     0
  9
$MENU
  1
.
  9
$ELEVATION
 40
0.0
  9
$PELEVATION
 40
0.0
  9
$THICKNESS
 40
0.0
  9
$LIMCHECK
 70
     0
  9
$CHAMFERA
 40
1.0
  9
$CHAMFERB
 40
1.0
  9
$CHAMFERC
 40
20.0
  9
$CHAMFERD
 40
0.0
  9
$SKPOLY
 70
     0
  9
$TDCREATE
 40
2453921.428927037
  9
$TDUCREATE
 40
2453921.053927037
  9
$TDUPDATE
 40
2457007.727933147
  9
$TDUUPDATE
 40
2457007.352933147
  9
$TDINDWG
 40
4.0203103935
  9
$TDUSRTIMER
 40
4.0203103935
  9
$USRTIMER
 70
     1
  9
$ANGBASE
 50
0.0
  9
$ANGDIR
 70
     0
  9
$PDMODE
 70
     0
  9
$PDSIZE
 40
0.0
  9
$PLINEWID
 40
0.0
  9
$SPLFRAME
 70
     0
  9
$SPLINETYPE
 70
     6
  9
$SPLINESEGS
 70
     8
  9
$HANDSEED
  5
2456
  9
$SURFTAB1
 70
     6
  9
$SURFTAB2
 70
     6
  9
$SURFTYPE
 70
     6
  9
$SURFU
 70
     6
  9
$SURFV
 70
     6
  9
$UCSBASE
  2

  9
$UCSNAME
  2

  9
$UCSORG
 10
0.0
 20
0.0
 30
0.0
  9
$UCSXDIR
 10
1.0
 20
0.0
 30
0.0
  9
$UCSYDIR
 10
0.0
 20
1.0
 30
0.0
  9
$UCSORTHOREF
  2

  9
$UCSORTHOVIEW
 70
     0
  9
$UCSORGTOP
 10
0.0
 20
0.0
 30
0.0
  9
$UCSORGBOTTOM
 10
0.0
 20
0.0
 30
0.0
  9
$UCSORGLEFT
 10
0.0
 20
0.0
 30
0.0
  9
$UCSORGRIGHT
 10
0.0
 20
0.0
 30
0.0
  9
$UCSORGFRONT
 10
0.0
 20
0.0
 30
0.0
  9
$UCSORGBACK
 10
0.0
 20
0.0
 30
0.0
  9
$PUCSBASE
  2

  9
$PUCSNAME
  2

  9
$PUCSORG
 10
0.0
 20
0.0
 30
0.0
  9
$PUCSXDIR
 10
1.0
 20
0.0
 30
0.0
  9
$PUCSYDIR
 10
0.0
 20
1.0
 30
0.0
  9
$PUCSORTHOREF
  2

  9
$PUCSORTHOVIEW
 70
     0
  9
$PUCSORGTOP
 10
0.0
 20
0.0
 30
0.0
  9
$PUCSORGBOTTOM
 10
0.0
 20
0.0
 30
0.0
  9
$PUCSORGLEFT
 10
0.0
 20
0.0
 30
0.0
  9
$PUCSORGRIGHT
 10
0.0
 20
0.0
 30
0.0
  9
$PUCSORGFRONT
 10
0.0
 20
0.0
 30
0.0
  9
$PUCSORGBACK
 10
0.0
 20
0.0
 30
0.0
  9
$USERI1
 70
     0
  9
$USERI2
 70
     0
  9
$USERI3
 70
     0
  9
$USERI4
 70
     0
  9
$USERI5
 70
     0
  9
$USERR1
 40
0.0
  9
$USERR2
 40
0.0
  9
$USERR3
 40
0.0
  9
$USERR4
 40
0.0
  9
$USERR5
 40
0.0
  9
$WORLDVIEW
 70
     1
  9
$SHADEDGE
 70
     3
  9
$SHADEDIF
 70
    70
  9
$TILEMODE
 70
     1
  9
$MAXACTVP
 70
    48
  9
$PINSBASE
 10
0.0
 20
0.0
 30
0.0
  9
$PLIMCHECK
 70
     0
  9
$PEXTMIN
 10
1.000000000000000E+20
 20
1.000000000000000E+20
 30
1.000000000000000E+20
  9
$PEXTMAX
 10
-1.000000000000000E+20
 20
-1.000000000000000E+20
 30
-1.000000000000000E+20
  9
$PLIMMIN
 10
0.0
 20
0.0
  9
$PLIMMAX
 10
420.0
 20
297.0
  9
$UNITMODE
 70
     0
  9
$VISRETAIN
 70
     1
  9
$PLINEGEN
 70
     0
  9
$PSLTSCALE
 70
     1
  9
$TREEDEPTH
 70
  3020
  9
$CMLSTYLE
  2
Standard
  9
$CMLJUST
 70
     0
  9
$CMLSCALE
 40
20.0
  9
$PROXYGRAPHICS
 70
     1
  9
$MEASUREMENT
 70
     1
  9
$CELWEIGHT
370
    -1
  9
$ENDCAPS
280
     0
  9
$JOINSTYLE
280
     0
  9
$LWDISPLAY
290
     0
  9
$INSUNITS
 70
     4
  9
$HYPERLINKBASE
  1

  9
$STYLESHEET
  1
ryu.ctb
  9
$XEDIT
290
     1
  9
$CEPSNTYPE
380
     0
  9
$PSTYLEMODE
290
     1
  9
$FINGERPRINTGUID
  2
{FDEAD578-A652-11D2-9A35-0060089B3A3F}
  9
$VERSIONGUID
  2
{BFFA200B-C652-42C5-9333-557A7F032A9A}
  9
$EXTNAMES
290
     1
  9
$PSVPSCALE
 40
0.0
  9
$OLESTARTUP
290
     0
  0
ENDSEC
  0
SECTION
  2
CLASSES
  0
CLASS
  1
ACDBDICTIONARYWDFLT
  2
AcDbDictionaryWithDefault
  3
AutoCAD 2000
 90
        0
280
     0
281
     0
  0
CLASS
  1
ACDBPLACEHOLDER
  2
AcDbPlaceHolder
  3
AutoCAD 2000
 90
        0
280
     0
281
     0
  0
CLASS
  1
LAYOUT
  2
AcDbLayout
  3
AutoCAD 2000
 90
        0
280
     0
281
     0
  0
CLASS
  1
DICTIONARYVAR
  2
AcDbDictionaryVar
  3
AutoCAD 2000
 90
        0
280
     0
281
     0
  0
CLASS
  1
LONG_TRANSACTION
  2
AcDbLongTransaction
  3
AutoCAD 2000
 90
    32768
280
     0
281
     0
  0
CLASS
  1
LWPOLYLINE
  2
AcDbPolyline
  3
AutoCAD 2000
 90
    32768
280
     0
281
     1
  0
CLASS
  1
HATCH
  2
AcDbHatch
  3
AutoCAD 2000
 90
    32768
280
     0
281
     1
  0
CLASS
  1
XRECORD
  2
AcDbXrecord
  3
AutoCAD 2000
 90
    32768
280
     0
281
     0
  0
CLASS
  1
LONG_TRANSACTION
  2
AcDbLongTransaction
  3
AutoCAD 2000
 90
    32768
280
     0
281
     0
  0
CLASS
  1
LWPOLYLINE
  2
AcDbPolyline
  3
AutoCAD 2000
 90
    32768
280
     0
281
     1
  0
CLASS
  1
HATCH
  2
AcDbHatch
  3
AutoCAD 2000
 90
    32768
280
     0
281
     1
  0
CLASS
  1
XRECORD
  2
AcDbXrecord
  3
AutoCAD 2000
 90
    32768
280
     0
281
     0
  0
CLASS
  1
LONG_TRANSACTION
  2
AcDbLongTransaction
  3
AutoCAD 2000
 90
    32768
280
     0
281
     0
  0
CLASS
  1
LWPOLYLINE
  2
AcDbPolyline
  3
AutoCAD 2000
 90
    32768
280
     0
281
     1
  0
CLASS
  1
HATCH
  2
AcDbHatch
  3
AutoCAD 2000
 90
    32768
280
     0
281
     1
  0
CLASS
  1
XRECORD
  2
AcDbXrecord
  3
AutoCAD 2000
 90
    32768
280
     0
281
     0
  0
CLASS
  1
LONG_TRANSACTION
  2
AcDbLongTransaction
  3
AutoCAD 2000
 90
    32768
280
     0
281
     0
  0
CLASS
  1
LWPOLYLINE
  2
AcDbPolyline
  3
AutoCAD 2000
 90
    32768
280
     0
281
     1
  0
CLASS
  1
HATCH
  2
AcDbHatch
  3
AutoCAD 2000
 90
    32768
280
     0
281
     1
  0
CLASS
  1
XRECORD
  2
AcDbXrecord
  3
AutoCAD 2000
 90
    32768
280
     0
281
     0
  0
CLASS
  1
LONG_TRANSACTION
  2
AcDbLongTransaction
  3
AutoCAD 2000
 90
    32768
280
     0
281
     0
  0
CLASS
  1
LWPOLYLINE
  2
AcDbPolyline
  3
AutoCAD 2000
 90
    32768
280
     0
281
     1
  0
CLASS
  1
HATCH
  2
AcDbHatch
  3
AutoCAD 2000
 90
    32768
280
     0
281
     1
  0
CLASS
  1
XRECORD
  2
AcDbXrecord
  3
AutoCAD 2000
 90
    32768
280
     0
281
     0
  0
CLASS
  1
LONG_TRANSACTION
  2
AcDbLongTransaction
  3
AutoCAD 2000
 90
    32768
280
     0
281
     0
  0
CLASS
  1
LWPOLYLINE
  2
AcDbPolyline
  3
AutoCAD 2000
 90
    32768
280
     0
281
     1
  0
CLASS
  1
HATCH
  2
AcDbHatch
  3
AutoCAD 2000
 90
    32768
280
     0
281
     1
  0
CLASS
  1
XRECORD
  2
AcDbXrecord
  3
AutoCAD 2000
 90
    32768
280
     0
281
     0
  0
CLASS
  1
LONG_TRANSACTION
  2
AcDbLongTransaction
  3
AutoCAD 2000
 90
    32768
280
     0
281
     0
  0
CLASS
  1
LWPOLYLINE
  2
AcDbPolyline
  3
AutoCAD 2000
 90
    32768
280
     0
281
     1
  0
CLASS
  1
HATCH
  2
AcDbHatch
  3
AutoCAD 2000
 90
    32768
280
     0
281
     1
  0
CLASS
  1
XRECORD
  2
AcDbXrecord
  3
AutoCAD 2000
 90
    32768
280
     0
281
     0
  0
CLASS
  1
LONG_TRANSACTION
  2
AcDbLongTransaction
  3
AutoCAD 2000
 90
    32768
280
     0
281
     0
  0
CLASS
  1
LWPOLYLINE
  2
AcDbPolyline
  3
AutoCAD 2000
 90
    32768
280
     0
281
     1
  0
CLASS
  1
HATCH
  2
AcDbHatch
  3
AutoCAD 2000
 90
    32768
280
     0
281
     1
  0
CLASS
  1
XRECORD
  2
AcDbXrecord
  3
AutoCAD 2000
 90
    32768
280
     0
281
     0
  0
CLASS
  1
LONG_TRANSACTION
  2
AcDbLongTransaction
  3
AutoCAD 2000
 90
    32768
280
     0
281
     0
  0
CLASS
  1
LWPOLYLINE
  2
AcDbPolyline
  3
AutoCAD 2000
 90
    32768
280
     0
281
     1
  0
CLASS
  1
HATCH
  2
AcDbHatch
  3
AutoCAD 2000
 90
    32768
280
     0
281
     1
  0
CLASS
  1
XRECORD
  2
AcDbXrecord
  3
AutoCAD 2000
 90
    32768
280
     0
281
     0
  0
CLASS
  1
LONG_TRANSACTION
  2
AcDbLongTransaction
  3
AutoCAD 2000
 90
    32768
280
     0
281
     0
  0
CLASS
  1
LWPOLYLINE
  2
AcDbPolyline
  3
AutoCAD 2000
 90
    32768
280
     0
281
     1
  0
CLASS
  1
HATCH
  2
AcDbHatch
  3
AutoCAD 2000
 90
    32768
280
     0
281
     1
  0
CLASS
  1
XRECORD
  2
AcDbXrecord
  3
AutoCAD 2000
 90
    32768
280
     0
281
     0
  0
CLASS
  1
LONG_TRANSACTION
  2
AcDbLongTransaction
  3
AutoCAD 2000
 90
    32768
280
     0
281
     0
  0
CLASS
  1
LWPOLYLINE
  2
AcDbPolyline
  3
AutoCAD 2000
 90
    32768
280
     0
281
     1
  0
CLASS
  1
HATCH
  2
AcDbHatch
  3
AutoCAD 2000
 90
    32768
280
     0
281
     1
  0
CLASS
  1
XRECORD
  2
AcDbXrecord
  3
AutoCAD 2000
 90
    32768
280
     0
281
     0
  0
CLASS
  1
LONG_TRANSACTION
  2
AcDbLongTransaction
  3
AutoCAD 2000
 90
    32768
280
     0
281
     0
  0
CLASS
  1
LWPOLYLINE
  2
AcDbPolyline
  3
AutoCAD 2000
 90
    32768
280
     0
281
     1
  0
CLASS
  1
HATCH
  2
AcDbHatch
  3
AutoCAD 2000
 90
    32768
280
     0
281
     1
  0
CLASS
  1
XRECORD
  2
AcDbXrecord
  3
AutoCAD 2000
 90
    32768
280
     0
281
     0
  0
CLASS
  1
LONG_TRANSACTION
  2
AcDbLongTransaction
  3
AutoCAD 2000
 90
    32768
280
     0
281
     0
  0
CLASS
  1
LWPOLYLINE
  2
AcDbPolyline
  3
AutoCAD 2000
 90
    32768
280
     0
281
     1
  0
CLASS
  1
HATCH
  2
AcDbHatch
  3
AutoCAD 2000
 90
    32768
280
     0
281
     1
  0
CLASS
  1
XRECORD
  2
AcDbXrecord
  3
AutoCAD 2000
 90
    32768
280
     0
281
     0
  0
CLASS
  1
LONG_TRANSACTION
  2
AcDbLongTransaction
  3
AutoCAD 2000
 90
    32768
280
     0
281
     0
  0
CLASS
  1
LWPOLYLINE
  2
AcDbPolyline
  3
AutoCAD 2000
 90
    32768
280
     0
281
     1
  0
CLASS
  1
HATCH
  2
AcDbHatch
  3
AutoCAD 2000
 90
    32768
280
     0
281
     1
  0
CLASS
  1
XRECORD
  2
AcDbXrecord
  3
AutoCAD 2000
 90
    32768
280
     0
281
     0
  0
CLASS
  1
LONG_TRANSACTION
  2
AcDbLongTransaction
  3
AutoCAD 2000
 90
    32768
280
     0
281
     0
  0
CLASS
  1
LWPOLYLINE
  2
AcDbPolyline
  3
AutoCAD 2000
 90
    32768
280
     0
281
     1
  0
CLASS
  1
HATCH
  2
AcDbHatch
  3
AutoCAD 2000
 90
    32768
280
     0
281
     1
  0
CLASS
  1
XRECORD
  2
AcDbXrecord
  3
AutoCAD 2000
 90
    32768
280
     0
281
     0
  0
CLASS
  1
LONG_TRANSACTION
  2
AcDbLongTransaction
  3
AutoCAD 2000
 90
    32768
280
     0
281
     0
  0
CLASS
  1
LWPOLYLINE
  2
AcDbPolyline
  3
AutoCAD 2000
 90
    32768
280
     0
281
     1
  0
CLASS
  1
HATCH
  2
AcDbHatch
  3
AutoCAD 2000
 90
    32768
280
     0
281
     1
  0
CLASS
  1
XRECORD
  2
AcDbXrecord
  3
AutoCAD 2000
 90
    32768
280
     0
281
     0
  0
CLASS
  1
LONG_TRANSACTION
  2
AcDbLongTransaction
  3
AutoCAD 2000
 90
    32768
280
     0
281
     0
  0
CLASS
  1
LWPOLYLINE
  2
AcDbPolyline
  3
AutoCAD 2000
 90
    32768
280
     0
281
     1
  0
CLASS
  1
HATCH
  2
AcDbHatch
  3
AutoCAD 2000
 90
    32768
280
     0
281
     1
  0
CLASS
  1
XRECORD
  2
AcDbXrecord
  3
AutoCAD 2000
 90
    32768
280
     0
281
     0
  0
CLASS
  1
LONG_TRANSACTION
  2
AcDbLongTransaction
  3
AutoCAD 2000
 90
    32768
280
     0
281
     0
  0
CLASS
  1
LWPOLYLINE
  2
AcDbPolyline
  3
AutoCAD 2000
 90
    32768
280
     0
281
     1
  0
CLASS
  1
HATCH
  2
AcDbHatch
  3
AutoCAD 2000
 90
    32768
280
     0
281
     1
  0
CLASS
  1
XRECORD
  2
AcDbXrecord
  3
AutoCAD 2000
 90
    32768
280
     0
281
     0
  0
ENDSEC
  0
SECTION
  2
TABLES
  0
TABLE
  2
VPORT
  5
8
330
0
100
AcDbSymbolTable
 70
     4
  0
VPORT
  5
2455
330
8
100
AcDbSymbolTableRecord
100
AcDbViewportTableRecord
  2
*Active
 70
     0
 10
0.0
 20
0.0
 11
1.0
 21
1.0
 12
756.5888241225195
 22
410.4089434548521
 13
0.0
 23
0.0
 14
10.0
 24
10.0
 15
10.0
 25
10.0
 16
0.0
 26
0.0
 36
1.0
 17
0.0
 27
0.0
 37
0.0
 40
460.1921458569504
 41
1.791666666666666
 42
50.0
 43
0.0
 44
0.0
 50
0.0
 51
0.0
 71
     0
 72
   100
 73
     1
 74
     3
 75
     0
 76
     0
 77
     0
 78
     0
281
     0
 65
     1
110
0.0
120
0.0
130
0.0
111
1.0
121
0.0
131
0.0
112
0.0
122
1.0
132
0.0
 79
     0
146
0.0
  0
ENDTAB
  0
TABLE
  2
LTYPE
  5
5
330
0
100
AcDbSymbolTable
 70
     6
  0
LTYPE
  5
14
330
5
100
AcDbSymbolTableRecord
100
AcDbLinetypeTableRecord
  2
ByBlock
 70
     0
  3

 72
    65
 73
     0
 40
0.0
  0
LTYPE
  5
15
330
5
100
AcDbSymbolTableRecord
100
AcDbLinetypeTableRecord
  2
ByLayer
 70
     0
  3

 72
    65
 73
     0
 40
0.0
  0
LTYPE
  5
16
330
5
100
AcDbSymbolTableRecord
100
AcDbLinetypeTableRecord
  2
Continuous
 70
     0
  3
Solid line
 72
    65
 73
     0
 40
0.0
  0
LTYPE
  5
CD1
330
5
100
AcDbSymbolTableRecord
100
AcDbLinetypeTableRecord
  2
ACAD_ISO02W100
 70
     0
  3
ISO dash __ __ __ __ __ __ __ __ __ __ __ __ __
 72
    65
 73
     2
 40
15.0
 49
12.0
 74
     0
 49
-3.0
 74
     0
  0
LTYPE
  5
D43
330
5
100
AcDbSymbolTableRecord
100
AcDbLinetypeTableRecord
  2
DASHED2
 70
     0
  3
Dashed (.5x) _ _ _ _ _ _ _ _ _ _ _ _ _ _ _ _ _
 72
    65
 73
     2
 40
9.524999999999998
 49
6.349999999999999
 74
     0
 49
-3.174999999999999
 74
     0
  0
LTYPE
  5
1570
330
5
100
AcDbSymbolTableRecord
100
AcDbLinetypeTableRecord
  2
CENTER
 70
     0
  3
Center ____ _ ____ _ ____ _ ____ _ ____ _ ____
 72
    65
 73
     4
 40
50.8
 49
31.75
 74
     0
 49
-6.349999999999999
 74
     0
 49
6.349999999999999
 74
     0
 49
-6.349999999999999
 74
     0
  0
LTYPE
  5
201D
330
5
100
AcDbSymbolTableRecord
100
AcDbLinetypeTableRecord
  2
ACAD_ISO07W100
 70
     0
  3
ISO dot . . . . . . . . . . . . . . . . . . . .
 72
    65
 73
     2
 40
3.0
 49
0.0
 74
     0
 49
-3.0
 74
     0
  0
LTYPE
  5
201E
330
5
100
AcDbSymbolTableRecord
100
AcDbLinetypeTableRecord
  2
DASHED
 70
     0
  3
Dashed __ __ __ __ __ __ __ __ __ __ __ __ __ _
 72
    65
 73
     2
 40
19.04999999999999
 49
12.7
 74
     0
 49
-6.349999999999999
 74
     0
  0
ENDTAB
  0
TABLE
  2
LAYER
  5
2
330
0
100
AcDbSymbolTable
 70
     4
  0
LAYER
  5
10
330
2
100
AcDbSymbolTableRecord
100
AcDbLayerTableRecord
  2
0
 70
     0
 62
     7
  6
Continuous
370
    -3
390
F
  0
LAYER
  5
4A
330
2
100
AcDbSymbolTableRecord
100
AcDbLayerTableRecord
  2
画層1
 70
     0
 62
     7
  6
Continuous
370
    -3
390
F
  0
LAYER
  5
B02
330
2
100
AcDbSymbolTableRecord
100
AcDbLayerTableRecord
  2
Defpoints
 70
     0
 62
     7
  6
Continuous
290
     0
370
    -3
390
F
  0
LAYER
  5
1571
330
2
100
AcDbSymbolTableRecord
100
AcDbLayerTableRecord
  2
LY_1
 70
     0
 62
     7
  6
Continuous
370
    -3
390
F
  0
ENDTAB
  0
TABLE
  2
STYLE
  5
3
330
0
100
AcDbSymbolTable
 70
     7
  0
STYLE
  5
11
330
3
100
AcDbSymbolTableRecord
100
AcDbTextStyleTableRecord
  2
Standard
 70
     0
 40
0.0
 41
1.0
 50
0.0
 71
     0
 42
2.5
  3
txt
  4

  0
STYLE
  5
4B
330
3
100
AcDbSymbolTableRecord
100
AcDbTextStyleTableRecord
  2
STYLE1
 70
     0
 40
2.5
 41
1.0
 50
0.0
 71
     0
 42
2.5
  3
MS Gothic.ttf
  4

1001
ACAD
1000
MS Gothic
1071
    32817
  0
STYLE
  5
CD0
330
3
100
AcDbSymbolTableRecord
100
AcDbTextStyleTableRecord
  2

 70
     1
 40
0.0
 41
1.0
 50
0.0
 71
     0
 42
2.5
  3
ltypeshp.shx
  4

  0
STYLE
  5
1572
330
3
100
AcDbSymbolTableRecord
100
AcDbTextStyleTableRecord
  2
MX_NOTE_STANDARD
 70
     0
 40
0.0
 41
1.0
 50
0.0
 71
     0
 42
4.16718
  3
txt.shx
  4
extfont.shx
  0
STYLE
  5
1573
330
3
100
AcDbSymbolTableRecord
100
AcDbTextStyleTableRecord
  2
MX_DIMTXSTY_2
 70
     0
 40
0.0
 41
1.35
 50
0.0
 71
     0
 42
4.16718
  3
txt.shx
  4
extfont.shx
  0
STYLE
  5
1574
330
3
100
AcDbSymbolTableRecord
100
AcDbTextStyleTableRecord
  2
MX_DIMTXSTY_3
 70
     0
 40
0.0
 41
1.5
 50
0.0
 71
     0
 42
4.16718
  3
txt.shx
  4
extfont.shx
  0
STYLE
  5
1575
330
3
100
AcDbSymbolTableRecord
100
AcDbTextStyleTableRecord
  2
MX_DIMTXSTY_4
 70
     0
 40
0.0
 41
1.25
 50
0.0
 71
     0
 42
4.16718
  3
txt.shx
  4
extfont.shx
  0
ENDTAB
  0
TABLE
  2
VIEW
  5
6
330
0
100
AcDbSymbolTable
 70
     0
  0
ENDTAB
  0
TABLE
  2
UCS
  5
7
330
0
100
AcDbSymbolTable
 70
     0
  0
ENDTAB
  0
TABLE
  2
APPID
  5
9
330
0
100
AcDbSymbolTable
 70
     1
  0
APPID
  5
12
330
9
100
AcDbSymbolTableRecord
100
AcDbRegAppTableRecord
  2
ACAD
 70
     0
  0
ENDTAB
  0
TABLE
  2
DIMSTYLE
  5
A
330
0
100
AcDbSymbolTable
 70
     3
100
AcDbDimStyleTable
 71
     1
340
27
  0
DIMSTYLE
105
27
102
{ACAD_REACTORS
330
1A4B
330
1A58
330
1A65
330
1A74
330
1A83
330
1AA8
330
1AB5
330
1B0A
330
1BF8
330
1C05
330
1CA5
330
1CB2
330
1D86
330
1E82
330
1E8F
330
1E9C
330
1EAB
330
1EBA
330
23A7
330
239A
330
2384
330
235D
330
2350
330
2318
330
230B
330
2377
330
236A
330
2343
330
2336
330
2327
330
22E4
330
22D7
330
22FE
330
22F1
102
}
330
A
100
AcDbSymbolTableRecord
100
AcDbDimStyleTableRecord
  2
ISO-25
 70
     0
 41
2.5
 42
0.625
 43
3.75
 44
1.25
 73
     0
 74
     0
 77
     1
 78
     8
140
2.5
141
2.5
143
0.03937007874016
147
0.625
171
     3
172
     1
271
     2
272
     2
274
     3
278
    44
283
     0
284
     8
340
11
  0
DIMSTYLE
105
4C
330
A
100
AcDbSymbolTableRecord
100
AcDbDimStyleTableRecord
  2
STANDARD_WS
 70
     0
 41
2.5
 42
0.625
 43
3.75
 44
1.25
 73
     0
 74
     0
 77
     1
 78
     8
140
2.5
141
2.5
143
0.0394
147
0.625
171
     4
172
     1
273
     8
274
     4
340
11
  0
DIMSTYLE
105
1576
330
A
100
AcDbSymbolTableRecord
100
AcDbDimStyleTableRecord
  2
MXDIMSTYLE
 70
     0
 41
2.5
 42
0.0
 43
3.75
 44
2.54
 73
     0
 74
     0
 77
     1
 78
     8
140
2.54
141
2.5
143
0.03937
147
0.6400000000000001
171
     4
172
     1
173
     1
271
     2
272
     2
274
     4
283
     0
340
1572
341
44
343
44
344
44
  0
ENDTAB
  0
TABLE
  2
BLOCK_RECORD
  5
1
330
0
100
AcDbSymbolTable
 70
    37
  0
BLOCK_RECORD
  5
1F
102
{ACAD_XDICTIONARY
360
BC3
102
}
330
1
100
AcDbSymbolTableRecord
100
AcDbBlockTableRecord
  2
*Model_Space
340
22
  0
BLOCK_RECORD
  5
1B
102
{ACAD_XDICTIONARY
360
BC5
102
}
330
1
100
AcDbSymbolTableRecord
100
AcDbBlockTableRecord
  2
*Paper_Space
340
1E
  0
BLOCK_RECORD
  5
23
102
{ACAD_XDICTIONARY
360
BC7
102
}
330
1
100
AcDbSymbolTableRecord
100
AcDbBlockTableRecord
  2
*Paper_Space0
340
26
  0
BLOCK_RECORD
  5
44
330
1
100
AcDbSymbolTableRecord
100
AcDbBlockTableRecord
  2
_OPEN30
340
0
  0
BLOCK_RECORD
  5
1522
330
1
100
AcDbSymbolTableRecord
100
AcDbBlockTableRecord
  2
_OPEN
340
0
  0
BLOCK_RECORD
  5
1A4C
330
1
100
AcDbSymbolTableRecord
100
AcDbBlockTableRecord
  2
*D3
340
0
  0
BLOCK_RECORD
  5
1A59
330
1
100
AcDbSymbolTableRecord
100
AcDbBlockTableRecord
  2
*D4
340
0
  0
BLOCK_RECORD
  5
1A66
330
1
100
AcDbSymbolTableRecord
100
AcDbBlockTableRecord
  2
*D5
340
0
  0
BLOCK_RECORD
  5
1A75
330
1
100
AcDbSymbolTableRecord
100
AcDbBlockTableRecord
  2
*D6
340
0
  0
BLOCK_RECORD
  5
1A84
330
1
100
AcDbSymbolTableRecord
100
AcDbBlockTableRecord
  2
*D7
340
0
  0
BLOCK_RECORD
  5
1AA9
330
1
100
AcDbSymbolTableRecord
100
AcDbBlockTableRecord
  2
*D8
340
0
  0
BLOCK_RECORD
  5
1AB6
330
1
100
AcDbSymbolTableRecord
100
AcDbBlockTableRecord
  2
*D9
340
0
  0
BLOCK_RECORD
  5
1B0B
330
1
100
AcDbSymbolTableRecord
100
AcDbBlockTableRecord
  2
*D10
340
0
  0
BLOCK_RECORD
  5
1BF9
330
1
100
AcDbSymbolTableRecord
100
AcDbBlockTableRecord
  2
*D11
340
0
  0
BLOCK_RECORD
  5
1C06
330
1
100
AcDbSymbolTableRecord
100
AcDbBlockTableRecord
  2
*D12
340
0
  0
BLOCK_RECORD
  5
1CA6
330
1
100
AcDbSymbolTableRecord
100
AcDbBlockTableRecord
  2
*D13
340
0
  0
BLOCK_RECORD
  5
1CB3
330
1
100
AcDbSymbolTableRecord
100
AcDbBlockTableRecord
  2
*D14
340
0
  0
BLOCK_RECORD
  5
1D87
330
1
100
AcDbSymbolTableRecord
100
AcDbBlockTableRecord
  2
*D15
340
0
  0
BLOCK_RECORD
  5
1E83
330
1
100
AcDbSymbolTableRecord
100
AcDbBlockTableRecord
  2
*D16
340
0
  0
BLOCK_RECORD
  5
1E90
330
1
100
AcDbSymbolTableRecord
100
AcDbBlockTableRecord
  2
*D17
340
0
  0
BLOCK_RECORD
  5
1E9D
330
1
100
AcDbSymbolTableRecord
100
AcDbBlockTableRecord
  2
*D18
340
0
  0
BLOCK_RECORD
  5
1EAC
330
1
100
AcDbSymbolTableRecord
100
AcDbBlockTableRecord
  2
*D19
340
0
  0
BLOCK_RECORD
  5
1EBB
330
1
100
AcDbSymbolTableRecord
100
AcDbBlockTableRecord
  2
*D20
340
0
  0
BLOCK_RECORD
  5
22D8
330
1
100
AcDbSymbolTableRecord
100
AcDbBlockTableRecord
  2
*D21
340
0
  0
BLOCK_RECORD
  5
22E5
330
1
100
AcDbSymbolTableRecord
100
AcDbBlockTableRecord
  2
*D22
340
0
  0
BLOCK_RECORD
  5
22F2
330
1
100
AcDbSymbolTableRecord
100
AcDbBlockTableRecord
  2
*D23
340
0
  0
BLOCK_RECORD
  5
22FF
330
1
100
AcDbSymbolTableRecord
100
AcDbBlockTableRecord
  2
*D24
340
0
  0
BLOCK_RECORD
  5
230C
330
1
100
AcDbSymbolTableRecord
100
AcDbBlockTableRecord
  2
*D25
340
0
  0
BLOCK_RECORD
  5
2319
330
1
100
AcDbSymbolTableRecord
100
AcDbBlockTableRecord
  2
*D26
340
0
  0
BLOCK_RECORD
  5
2328
330
1
100
AcDbSymbolTableRecord
100
AcDbBlockTableRecord
  2
*D27
340
0
  0
BLOCK_RECORD
  5
2337
330
1
100
AcDbSymbolTableRecord
100
AcDbBlockTableRecord
  2
*D28
340
0
  0
BLOCK_RECORD
  5
2344
330
1
100
AcDbSymbolTableRecord
100
AcDbBlockTableRecord
  2
*D29
340
0
  0
BLOCK_RECORD
  5
2351
330
1
100
AcDbSymbolTableRecord
100
AcDbBlockTableRecord
  2
*D30
340
0
  0
BLOCK_RECORD
  5
235E
330
1
100
AcDbSymbolTableRecord
100
AcDbBlockTableRecord
  2
*D31
340
0
  0
BLOCK_RECORD
  5
236B
330
1
100
AcDbSymbolTableRecord
100
AcDbBlockTableRecord
  2
*D32
340
0
  0
BLOCK_RECORD
  5
2378
330
1
100
AcDbSymbolTableRecord
100
AcDbBlockTableRecord
  2
*D33
340
0
  0
BLOCK_RECORD
  5
2385
330
1
100
AcDbSymbolTableRecord
100
AcDbBlockTableRecord
  2
*D34
340
0
  0
BLOCK_RECORD
  5
239B
330
1
100
AcDbSymbolTableRecord
100
AcDbBlockTableRecord
  2
*D35
340
0
  0
BLOCK_RECORD
  5
23A8
330
1
100
AcDbSymbolTableRecord
100
AcDbBlockTableRecord
  2
*D36
340
0
  0
ENDTAB
  0
ENDSEC
  0
SECTION
  2
BLOCKS
  0
BLOCK
  5
20
330
1F
100
AcDbEntity
  8
0
100
AcDbBlockBegin
  2
*Model_Space
 70
     0
 10
0.0
 20
0.0
 30
0.0
  3
*Model_Space
  1

  0
ENDBLK
  5
21
330
1F
100
AcDbEntity
  8
0
100
AcDbBlockEnd
  0
BLOCK
  5
1C
330
1B
100
AcDbEntity
 67
     1
  8
0
100
AcDbBlockBegin
  2
*Paper_Space
 70
     0
 10
0.0
 20
0.0
 30
0.0
  3
*Paper_Space
  1

  0
ENDBLK
  5
1D
330
1B
100
AcDbEntity
 67
     1
  8
0
100
AcDbBlockEnd
  0
BLOCK
  5
24
330
23
100
AcDbEntity
  8
0
100
AcDbBlockBegin
  2
*Paper_Space0
 70
     0
 10
0.0
 20
0.0
 30
0.0
  3
*Paper_Space0
  1

  0
ENDBLK
  5
25
330
23
100
AcDbEntity
  8
0
100
AcDbBlockEnd
  0
BLOCK
  5
48
330
44
100
AcDbEntity
  8
0
100
AcDbBlockBegin
  2
_OPEN30
 70
     0
 10
0.0
 20
0.0
 30
0.0
  3
_OPEN30
  1

  0
LINE
  5
45
330
44
100
AcDbEntity
  8
0
  6
ByBlock
 62
     0
100
AcDbLine
 10
-1.0
 20
0.26794919
 30
0.0
 11
0.0
 21
0.0
 31
0.0
  0
LINE
  5
46
330
44
100
AcDbEntity
  8
0
  6
ByBlock
 62
     0
100
AcDbLine
 10
0.0
 20
0.0
 30
0.0
 11
-1.0
 21
-0.26794919
 31
0.0
  0
LINE
  5
47
330
44
100
AcDbEntity
  8
0
  6
ByBlock
 62
     0
100
AcDbLine
 10
0.0
 20
0.0
 30
0.0
 11
-1.0
 21
0.0
 31
0.0
  0
ENDBLK
  5
49
330
44
100
AcDbEntity
  8
0
100
AcDbBlockEnd
  0
BLOCK
  5
1526
330
1522
100
AcDbEntity
  8
0
  6
ByBlock
 62
     0
370
    -2
100
AcDbBlockBegin
  2
_OPEN
 70
     2
 10
0.0
 20
0.0
 30
0.0
  3
_OPEN
  1

  0
LINE
  5
1523
330
1522
100
AcDbEntity
  8
0
  6
ByBlock
 62
     0
370
    -2
100
AcDbLine
 10
-1.0
 20
0.166667
 30
0.0
 11
0.0
 21
0.0
 31
0.0
  0
LINE
  5
1524
330
1522
100
AcDbEntity
  8
0
  6
ByBlock
 62
     0
370
    -2
100
AcDbLine
 10
0.0
 20
0.0
 30
0.0
 11
-1.0
 21
-0.166667
 31
0.0
  0
LINE
  5
1525
330
1522
100
AcDbEntity
  8
0
  6
ByBlock
 62
     0
370
    -2
100
AcDbLine
 10
0.0
 20
0.0
 30
0.0
 11
-1.0
 21
0.0
 31
0.0
  0
ENDBLK
  5
1527
330
1522
100
AcDbEntity
  8
0
  6
ByBlock
 62
     0
370
    -2
100
AcDbBlockEnd
  0
BLOCK
  5
1A56
330
1A4C
100
AcDbEntity
  8
0
 62
     3
100
AcDbBlockBegin
  2
*D3
 70
     1
 10
0.0
 20
0.0
 30
0.0
  3
*D3
  1

  0
LINE
  5
2173
330
1A4C
100
AcDbEntity
  8
画層1
 62
     0
370
    -2
100
AcDbLine
 10
514.6512404554189
 20
496.6342431354276
 30
0.0
 11
514.6512404554189
 21
512.3907580321196
 31
0.0
  0
LINE
  5
2174
330
1A4C
100
AcDbEntity
  8
画層1
 62
     0
370
    -2
100
AcDbLine
 10
492.6512404554189
 20
496.6342431354276
 30
0.0
 11
492.6512404554189
 21
512.3907580321196
 31
0.0
  0
LINE
  5
2175
330
1A4C
100
AcDbEntity
  8
画層1
 62
     0
370
    -2
100
AcDbLine
 10
512.1512404554189
 20
511.1407580321196
 30
0.0
 11
495.1512404554189
 21
511.1407580321196
 31
0.0
  0
SOLID
  5
2176
330
1A4C
100
AcDbEntity
  8
画層1
 62
     0
100
AcDbTrace
 10
512.1512404554189
 20
511.5574246987862
 30
0.0
 11
512.1512404554189
 21
510.7240913654528
 31
0.0
 12
514.6512404554189
 22
511.1407580321196
 32
0.0
 13
514.6512404554189
 23
511.1407580321196
 33
0.0
  0
SOLID
  5
2177
330
1A4C
100
AcDbEntity
  8
画層1
 62
     0
100
AcDbTrace
 10
495.1512404554189
 20
511.5574246987862
 30
0.0
 11
495.1512404554189
 21
510.7240913654528
 31
0.0
 12
492.6512404554189
 22
511.1407580321196
 32
0.0
 13
492.6512404554189
 23
511.1407580321196
 33
0.0
  0
MTEXT
  5
2178
330
1A4C
100
AcDbEntity
  8
画層1
 62
     0
100
AcDbMText
 10
503.6512404554189
 20
513.0157580321196
 30
0.0
 40
2.5
 41
0.0
 71
     5
 72
     1
  1
22
 73
     1
 44
1.0
1001
ACAD
1000
MTEXTBEGIN
1070
    73
1070
     1
1070
    44
1040
1.0
1070
    74
1070
     0
1000
MTEXTEND
1000
MTEXTBEGIN
1070
    73
1070
     1
1070
    44
1040
1.0
1070
    74
1070
     0
1000
MTEXTEND
  0
POINT
  5
2179
330
1A4C
100
AcDbEntity
  8
Defpoints
 62
     0
100
AcDbPoint
 10
514.6512404554189
 20
496.0092431354277
 30
0.0
  0
POINT
  5
217A
330
1A4C
100
AcDbEntity
  8
Defpoints
 62
     0
100
AcDbPoint
 10
492.6512404554189
 20
496.0092431354277
 30
0.0
  0
POINT
  5
217B
330
1A4C
100
AcDbEntity
  8
Defpoints
 62
     0
100
AcDbPoint
 10
492.6512404554189
 20
511.1407580321196
 30
0.0
  0
ENDBLK
  5
1A57
330
1A4C
100
AcDbEntity
  8
0
 62
     3
100
AcDbBlockEnd
  0
BLOCK
  5
1A63
330
1A59
100
AcDbEntity
  8
0
 62
     3
100
AcDbBlockBegin
  2
*D4
 70
     1
 10
0.0
 20
0.0
 30
0.0
  3
*D4
  1

  0
LINE
  5
217C
330
1A59
100
AcDbEntity
  8
画層1
 62
     0
370
    -2
100
AcDbLine
 10
486.1512404554189
 20
485.5342431354277
 30
0.0
 11
486.1512404554189
 21
475.751490869393
 31
0.0
  0
LINE
  5
217D
330
1A59
100
AcDbEntity
  8
画層1
 62
     0
370
    -2
100
AcDbLine
 10
521.1512404554189
 20
485.5342431354277
 30
0.0
 11
521.1512404554189
 21
475.751490869393
 31
0.0
  0
LINE
  5
217E
330
1A59
100
AcDbEntity
  8
画層1
 62
     0
370
    -2
100
AcDbLine
 10
488.6512404554189
 20
477.001490869393
 30
0.0
 11
518.6512404554189
 21
477.001490869393
 31
0.0
  0
SOLID
  5
217F
330
1A59
100
AcDbEntity
  8
画層1
 62
     0
100
AcDbTrace
 10
488.6512404554189
 20
477.4181575360596
 30
0.0
 11
488.6512404554189
 21
476.5848242027263
 31
0.0
 12
486.1512404554189
 22
477.001490869393
 32
0.0
 13
486.1512404554189
 23
477.001490869393
 33
0.0
  0
SOLID
  5
2180
330
1A59
100
AcDbEntity
  8
画層1
 62
     0
100
AcDbTrace
 10
518.6512404554189
 20
477.4181575360596
 30
0.0
 11
518.6512404554189
 21
476.5848242027263
 31
0.0
 12
521.1512404554189
 22
477.001490869393
 32
0.0
 13
521.1512404554189
 23
477.001490869393
 33
0.0
  0
MTEXT
  5
2181
330
1A59
100
AcDbEntity
  8
画層1
 62
     0
100
AcDbMText
 10
495.5990952005866
 20
478.876490869393
 30
0.0
 40
2.5
 41
0.0
 71
     5
 72
     1
  1
35
 73
     1
 44
1.0
1001
ACAD
1000
MTEXTBEGIN
1070
    73
1070
     1
1070
    44
1040
1.0
1070
    74
1070
     0
1000
MTEXTEND
1000
MTEXTBEGIN
1070
    73
1070
     1
1070
    44
1040
1.0
1070
    74
1070
     0
1000
MTEXTEND
  0
POINT
  5
2182
330
1A59
100
AcDbEntity
  8
Defpoints
 62
     0
100
AcDbPoint
 10
486.1512404554189
 20
486.1592431354276
 30
0.0
  0
POINT
  5
2183
330
1A59
100
AcDbEntity
  8
Defpoints
 62
     0
100
AcDbPoint
 10
521.1512404554189
 20
486.1592431354276
 30
0.0
  0
POINT
  5
2184
330
1A59
100
AcDbEntity
  8
Defpoints
 62
     0
100
AcDbPoint
 10
521.1512404554189
 20
477.001490869393
 30
0.0
  0
ENDBLK
  5
1A64
330
1A59
100
AcDbEntity
  8
0
 62
     3
100
AcDbBlockEnd
  0
BLOCK
  5
1A72
330
1A66
100
AcDbEntity
  8
0
 62
     3
100
AcDbBlockBegin
  2
*D5
 70
     1
 10
0.0
 20
0.0
 30
0.0
  3
*D5
  1

  0
LINE
  5
2168
330
1A66
100
AcDbEntity
  8
画層1
 62
     0
370
    -2
100
AcDbLine
 10
470.5262404554189
 20
483.7592431354277
 30
0.0
 11
461.5398342698938
 21
483.7592431354277
 31
0.0
  0
LINE
  5
2169
330
1A66
100
AcDbEntity
  8
画層1
 62
     0
370
    -2
100
AcDbLine
 10
485.5262404554189
 20
487.1592431354277
 30
0.0
 11
461.5398342698938
 21
487.1592431354277
 31
0.0
  0
LINE
  5
216A
330
1A66
100
AcDbEntity
  8
画層1
 62
     0
370
    -2
100
AcDbLine
 10
462.7898342698938
 20
481.2592431354277
 30
0.0
 11
462.7898342698938
 21
478.7592431354276
 31
0.0
  0
LINE
  5
216B
330
1A66
100
AcDbEntity
  8
画層1
 62
     0
370
    -2
100
AcDbLine
 10
462.7898342698938
 20
489.6592431354276
 30
0.0
 11
462.7898342698938
 21
498.8259098020943
 31
0.0
  0
LINE
  5
216C
330
1A66
100
AcDbEntity
  8
画層1
 62
     0
370
    -2
100
AcDbLine
 10
462.7898342698938
 20
483.7592431354277
 30
0.0
 11
462.7898342698938
 21
487.1592431354277
 31
0.0
  0
SOLID
  5
216D
330
1A66
100
AcDbEntity
  8
画層1
 62
     0
100
AcDbTrace
 10
462.3731676032271
 20
481.2592431354277
 30
0.0
 11
463.2065009365605
 21
481.2592431354277
 31
0.0
 12
462.7898342698938
 22
483.7592431354277
 32
0.0
 13
462.7898342698938
 23
483.7592431354277
 33
0.0
  0
SOLID
  5
216E
330
1A66
100
AcDbEntity
  8
画層1
 62
     0
100
AcDbTrace
 10
462.3731676032271
 20
489.6592431354276
 30
0.0
 11
463.2065009365605
 21
489.6592431354276
 31
0.0
 12
462.7898342698938
 22
487.1592431354277
 32
0.0
 13
462.7898342698938
 23
487.1592431354277
 33
0.0
  0
MTEXT
  5
216F
330
1A66
100
AcDbEntity
  8
画層1
 62
     0
100
AcDbMText
 10
460.7065009365604
 20
495.4925764687611
 30
0.0
 40
2.5
 41
0.0
 71
     5
 72
     1
  1
3,4
 11
0.0000000000000001
 21
1.0
 31
0.0
 73
     1
 44
1.0
1001
ACAD
1000
MTEXTBEGIN
1070
    73
1070
     1
1070
    44
1040
1.0
1070
    74
1070
     0
1000
MTEXTEND
1000
MTEXTBEGIN
1070
    73
1070
     1
1070
    44
1040
1.0
1070
    74
1070
     0
1000
MTEXTEND
  0
POINT
  5
2170
330
1A66
100
AcDbEntity
  8
Defpoints
 62
     0
100
AcDbPoint
 10
471.1512404554189
 20
483.7592431354277
 30
0.0
  0
POINT
  5
2171
330
1A66
100
AcDbEntity
  8
Defpoints
 62
     0
100
AcDbPoint
 10
486.1512404554189
 20
487.1592431354277
 30
0.0
  0
POINT
  5
2172
330
1A66
100
AcDbEntity
  8
Defpoints
 62
     0
100
AcDbPoint
 10
462.7898342698938
 20
487.1592431354277
 30
0.0
  0
ENDBLK
  5
1A73
330
1A66
100
AcDbEntity
  8
0
 62
     3
100
AcDbBlockEnd
  0
BLOCK
  5
1A81
330
1A75
100
AcDbEntity
  8
0
 62
     3
100
AcDbBlockBegin
  2
*D6
 70
     1
 10
0.0
 20
0.0
 30
0.0
  3
*D6
  1

  0
LINE
  5
218E
330
1A75
100
AcDbEntity
  8
画層1
 62
     0
370
    -2
100
AcDbLine
 10
528.5012404554189
 20
481.6342431354277
 30
0.0
 11
528.5012404554189
 21
475.751490869393
 31
0.0
  0
LINE
  5
218F
330
1A75
100
AcDbEntity
  8
画層1
 62
     0
370
    -2
100
AcDbLine
 10
532.8012404554189
 20
481.6342431354277
 30
0.0
 11
532.8012404554189
 21
475.751490869393
 31
0.0
  0
LINE
  5
2190
330
1A75
100
AcDbEntity
  8
画層1
 62
     0
370
    -2
100
AcDbLine
 10
526.0012404554189
 20
477.001490869393
 30
0.0
 11
523.5012404554189
 21
477.001490869393
 31
0.0
  0
LINE
  5
2191
330
1A75
100
AcDbEntity
  8
画層1
 62
     0
370
    -2
100
AcDbLine
 10
535.3012404554188
 20
477.001490869393
 30
0.0
 11
544.4679071220855
 21
477.001490869393
 31
0.0
  0
LINE
  5
2192
330
1A75
100
AcDbEntity
  8
画層1
 62
     0
370
    -2
100
AcDbLine
 10
528.5012404554189
 20
477.001490869393
 30
0.0
 11
532.8012404554189
 21
477.001490869393
 31
0.0
  0
SOLID
  5
2193
330
1A75
100
AcDbEntity
  8
画層1
 62
     0
100
AcDbTrace
 10
526.0012404554189
 20
477.4181575360596
 30
0.0
 11
526.0012404554189
 21
476.5848242027263
 31
0.0
 12
528.5012404554189
 22
477.001490869393
 32
0.0
 13
528.5012404554189
 23
477.001490869393
 33
0.0
  0
SOLID
  5
2194
330
1A75
100
AcDbEntity
  8
画層1
 62
     0
100
AcDbTrace
 10
535.3012404554188
 20
477.4181575360596
 30
0.0
 11
535.3012404554188
 21
476.5848242027263
 31
0.0
 12
532.8012404554189
 22
477.001490869393
 32
0.0
 13
532.8012404554189
 23
477.001490869393
 33
0.0
  0
MTEXT
  5
2195
330
1A75
100
AcDbEntity
  8
画層1
 62
     0
100
AcDbMText
 10
541.1345737887522
 20
479.0848242027263
 30
0.0
 40
2.5
 41
0.0
 71
     5
 72
     1
  1
4,3
 73
     1
 44
1.0
1001
ACAD
1000
MTEXTBEGIN
1070
    73
1070
     1
1070
    44
1040
1.0
1070
    74
1070
     0
1000
MTEXTEND
1000
MTEXTBEGIN
1070
    73
1070
     1
1070
    44
1040
1.0
1070
    74
1070
     0
1000
MTEXTEND
  0
POINT
  5
2196
330
1A75
100
AcDbEntity
  8
Defpoints
 62
     0
100
AcDbPoint
 10
528.5012404554189
 20
482.2592431354276
 30
0.0
  0
POINT
  5
2197
330
1A75
100
AcDbEntity
  8
Defpoints
 62
     0
100
AcDbPoint
 10
532.8012404554189
 20
482.2592431354276
 30
0.0
  0
POINT
  5
2198
330
1A75
100
AcDbEntity
  8
Defpoints
 62
     0
100
AcDbPoint
 10
532.8012404554189
 20
477.001490869393
 30
0.0
  0
ENDBLK
  5
1A82
330
1A75
100
AcDbEntity
  8
0
 62
     3
100
AcDbBlockEnd
  0
BLOCK
  5
1A90
330
1A84
100
AcDbEntity
  8
0
 62
     3
100
AcDbBlockBegin
  2
*D7
 70
     1
 10
0.0
 20
0.0
 30
0.0
  3
*D7
  1

  0
LINE
  5
215D
330
1A84
100
AcDbEntity
  8
画層1
 62
     0
370
    -2
100
AcDbLine
 10
533.4262404554189
 20
482.2592431354276
 30
0.0
 11
550.7911616627004
 21
482.2592431354276
 31
0.0
  0
LINE
  5
215E
330
1A84
100
AcDbEntity
  8
画層1
 62
     0
370
    -2
100
AcDbLine
 10
536.7762404554189
 20
483.7592431354277
 30
0.0
 11
550.7911616627004
 21
483.7592431354277
 31
0.0
  0
LINE
  5
215F
330
1A84
100
AcDbEntity
  8
画層1
 62
     0
370
    -2
100
AcDbLine
 10
549.5411616627004
 20
486.2592431354276
 30
0.0
 11
549.5411616627004
 21
488.7592431354277
 31
0.0
  0
LINE
  5
2160
330
1A84
100
AcDbEntity
  8
画層1
 62
     0
370
    -2
100
AcDbLine
 10
549.5411616627004
 20
479.7592431354277
 30
0.0
 11
549.5411616627004
 21
471.4259098020944
 31
0.0
  0
LINE
  5
2161
330
1A84
100
AcDbEntity
  8
画層1
 62
     0
370
    -2
100
AcDbLine
 10
549.5411616627004
 20
483.7592431354277
 30
0.0
 11
549.5411616627004
 21
482.2592431354276
 31
0.0
  0
SOLID
  5
2162
330
1A84
100
AcDbEntity
  8
画層1
 62
     0
100
AcDbTrace
 10
549.1244949960338
 20
486.2592431354276
 30
0.0
 11
549.957828329367
 21
486.2592431354276
 31
0.0
 12
549.5411616627004
 22
483.7592431354277
 32
0.0
 13
549.5411616627004
 23
483.7592431354277
 33
0.0
  0
SOLID
  5
2163
330
1A84
100
AcDbEntity
  8
画層1
 62
     0
100
AcDbTrace
 10
549.1244949960338
 20
479.7592431354277
 30
0.0
 11
549.957828329367
 21
479.7592431354277
 31
0.0
 12
549.5411616627004
 22
482.2592431354276
 32
0.0
 13
549.5411616627004
 23
482.2592431354276
 33
0.0
  0
MTEXT
  5
2164
330
1A84
100
AcDbEntity
  8
画層1
 62
     0
100
AcDbMText
 10
547.4578283293669
 20
474.3425764687611
 30
0.0
 40
2.5
 41
0.0
 71
     5
 72
     1
  1
1,5
 11
0.0000000000000001
 21
1.0
 31
0.0
 73
     1
 44
1.0
1001
ACAD
1000
MTEXTBEGIN
1070
    73
1070
     1
1070
    44
1040
1.0
1070
    74
1070
     0
1000
MTEXTEND
1000
MTEXTBEGIN
1070
    73
1070
     1
1070
    44
1040
1.0
1070
    74
1070
     0
1000
MTEXTEND
  0
POINT
  5
2165
330
1A84
100
AcDbEntity
  8
Defpoints
 62
     0
100
AcDbPoint
 10
532.8012404554189
 20
482.2592431354276
 30
0.0
  0
POINT
  5
2166
330
1A84
100
AcDbEntity
  8
Defpoints
 62
     0
100
AcDbPoint
 10
536.1512404554189
 20
483.7592431354277
 30
0.0
  0
POINT
  5
2167
330
1A84
100
AcDbEntity
  8
Defpoints
 62
     0
100
AcDbPoint
 10
549.5411616627004
 20
483.7592431354277
 30
0.0
  0
ENDBLK
  5
1A91
330
1A84
100
AcDbEntity
  8
0
 62
     3
100
AcDbBlockEnd
  0
BLOCK
  5
1AB3
330
1AA9
100
AcDbEntity
  8
0
 62
     3
100
AcDbBlockBegin
  2
*D8
 70
     1
 10
0.0
 20
0.0
 30
0.0
  3
*D8
  1

  0
LINE
  5
2154
330
1AA9
100
AcDbEntity
  8
画層1
 62
     0
370
    -2
100
AcDbLine
 10
536.7762404554189
 20
483.7592431354277
 30
0.0
 11
550.7911616627004
 21
483.7592431354277
 31
0.0
  0
LINE
  5
2155
330
1AA9
100
AcDbEntity
  8
画層1
 62
     0
370
    -2
100
AcDbLine
 10
519.5262404554189
 20
491.7592431354277
 30
0.0
 11
550.7911616627004
 21
491.7592431354277
 31
0.0
  0
LINE
  5
2156
330
1AA9
100
AcDbEntity
  8
画層1
 62
     0
370
    -2
100
AcDbLine
 10
549.5411616627004
 20
486.2592431354276
 30
0.0
 11
549.5411616627004
 21
489.2592431354277
 31
0.0
  0
SOLID
  5
2157
330
1AA9
100
AcDbEntity
  8
画層1
 62
     0
100
AcDbTrace
 10
549.1244949960338
 20
486.2592431354276
 30
0.0
 11
549.957828329367
 21
486.2592431354276
 31
0.0
 12
549.5411616627004
 22
483.7592431354277
 32
0.0
 13
549.5411616627004
 23
483.7592431354277
 33
0.0
  0
SOLID
  5
2158
330
1AA9
100
AcDbEntity
  8
画層1
 62
     0
100
AcDbTrace
 10
549.1244949960338
 20
489.2592431354277
 30
0.0
 11
549.957828329367
 21
489.2592431354277
 31
0.0
 12
549.5411616627004
 22
491.7592431354277
 32
0.0
 13
549.5411616627004
 23
491.7592431354277
 33
0.0
  0
MTEXT
  5
2159
330
1AA9
100
AcDbEntity
  8
画層1
 62
     0
100
AcDbMText
 10
547.6661616627003
 20
487.7592431354277
 30
0.0
 40
2.5
 41
0.0
 71
     5
 72
     1
  1
8
 11
0.0000000000000001
 21
1.0
 31
0.0
 73
     1
 44
1.0
1001
ACAD
1000
MTEXTBEGIN
1070
    73
1070
     1
1070
    44
1040
1.0
1070
    74
1070
     0
1000
MTEXTEND
1000
MTEXTBEGIN
1070
    73
1070
     1
1070
    44
1040
1.0
1070
    74
1070
     0
1000
MTEXTEND
  0
POINT
  5
215A
330
1AA9
100
AcDbEntity
  8
Defpoints
 62
     0
100
AcDbPoint
 10
536.1512404554189
 20
483.7592431354277
 30
0.0
  0
POINT
  5
215B
330
1AA9
100
AcDbEntity
  8
Defpoints
 62
     0
100
AcDbPoint
 10
518.9012404554189
 20
491.7592431354277
 30
0.0
  0
POINT
  5
215C
330
1AA9
100
AcDbEntity
  8
Defpoints
 62
     0
100
AcDbPoint
 10
549.5411616627004
 20
491.7592431354277
 30
0.0
  0
ENDBLK
  5
1AB4
330
1AA9
100
AcDbEntity
  8
0
 62
     3
100
AcDbBlockEnd
  0
BLOCK
  5
1AC0
330
1AB6
100
AcDbEntity
  8
0
 62
     3
100
AcDbBlockBegin
  2
*D9
 70
     1
 10
0.0
 20
0.0
 30
0.0
  3
*D9
  1

  0
LINE
  5
214B
330
1AB6
100
AcDbEntity
  8
画層1
 62
     0
370
    -2
100
AcDbLine
 10
551.4161616627005
 20
483.7592431354277
 30
0.0
 11
557.8643596475942
 21
483.7592431354277
 31
0.0
  0
LINE
  5
214C
330
1AB6
100
AcDbEntity
  8
画層1
 62
     0
370
    -2
100
AcDbLine
 10
534.776240455419
 20
501.5592431354277
 30
0.0
 11
557.8643596475942
 21
501.5592431354277
 31
0.0
  0
LINE
  5
214D
330
1AB6
100
AcDbEntity
  8
画層1
 62
     0
370
    -2
100
AcDbLine
 10
556.6143596475942
 20
486.2592431354276
 30
0.0
 11
556.6143596475942
 21
499.0592431354277
 31
0.0
  0
SOLID
  5
214E
330
1AB6
100
AcDbEntity
  8
画層1
 62
     0
100
AcDbTrace
 10
556.1976929809276
 20
486.2592431354276
 30
0.0
 11
557.0310263142609
 21
486.2592431354276
 31
0.0
 12
556.6143596475942
 22
483.7592431354277
 32
0.0
 13
556.6143596475942
 23
483.7592431354277
 33
0.0
  0
SOLID
  5
214F
330
1AB6
100
AcDbEntity
  8
画層1
 62
     0
100
AcDbTrace
 10
556.1976929809276
 20
499.0592431354277
 30
0.0
 11
557.0310263142609
 21
499.0592431354277
 31
0.0
 12
556.6143596475942
 22
501.5592431354277
 32
0.0
 13
556.6143596475942
 23
501.5592431354277
 33
0.0
  0
MTEXT
  5
2150
330
1AB6
100
AcDbEntity
  8
画層1
 62
     0
100
AcDbMText
 10
554.5310263142607
 20
492.6592431354277
 30
0.0
 40
2.5
 41
0.0
 71
     5
 72
     1
  1
17,8
 11
0.0000000000000001
 21
1.0
 31
0.0
 73
     1
 44
1.0
1001
ACAD
1000
MTEXTBEGIN
1070
    73
1070
     1
1070
    44
1040
1.0
1070
    74
1070
     0
1000
MTEXTEND
1000
MTEXTBEGIN
1070
    73
1070
     1
1070
    44
1040
1.0
1070
    74
1070
     0
1000
MTEXTEND
  0
POINT
  5
2151
330
1AB6
100
AcDbEntity
  8
Defpoints
 62
     0
100
AcDbPoint
 10
550.7911616627004
 20
483.7592431354277
 30
0.0
  0
POINT
  5
2152
330
1AB6
100
AcDbEntity
  8
Defpoints
 62
     0
100
AcDbPoint
 10
534.151240455419
 20
501.5592431354277
 30
0.0
  0
POINT
  5
2153
330
1AB6
100
AcDbEntity
  8
Defpoints
 62
     0
100
AcDbPoint
 10
556.6143596475942
 20
501.5592431354277
 30
0.0
  0
ENDBLK
  5
1AC1
330
1AB6
100
AcDbEntity
  8
0
 62
     3
100
AcDbBlockEnd
  0
BLOCK
  5
1B15
330
1B0B
100
AcDbEntity
  8
0
 62
     3
100
AcDbBlockBegin
  2
*D10
 70
     1
 10
0.0
 20
0.0
 30
0.0
  3
*D10
  1

  0
LINE
  5
2185
330
1B0B
100
AcDbEntity
  8
画層1
 62
     0
370
    -2
100
AcDbLine
 10
503.6512404554189
 20
478.1342431354277
 30
0.0
 11
503.6512404554189
 21
467.9477993278658
 31
0.0
  0
LINE
  5
2186
330
1B0B
100
AcDbEntity
  8
画層1
 62
     0
370
    -2
100
AcDbLine
 10
530.6512404554189
 20
481.6342431354277
 30
0.0
 11
530.6512404554189
 21
467.9477993278658
 31
0.0
  0
LINE
  5
2187
330
1B0B
100
AcDbEntity
  8
画層1
 62
     0
370
    -2
100
AcDbLine
 10
506.1512404554189
 20
469.1977993278658
 30
0.0
 11
528.1512404554189
 21
469.1977993278658
 31
0.0
  0
SOLID
  5
2188
330
1B0B
100
AcDbEntity
  8
画層1
 62
     0
100
AcDbTrace
 10
506.1512404554189
 20
469.6144659945325
 30
0.0
 11
506.1512404554189
 21
468.7811326611991
 31
0.0
 12
503.6512404554189
 22
469.1977993278658
 32
0.0
 13
503.6512404554189
 23
469.1977993278658
 33
0.0
  0
SOLID
  5
2189
330
1B0B
100
AcDbEntity
  8
画層1
 62
     0
100
AcDbTrace
 10
528.1512404554189
 20
469.6144659945325
 30
0.0
 11
528.1512404554189
 21
468.7811326611991
 31
0.0
 12
530.6512404554189
 22
469.1977993278658
 32
0.0
 13
530.6512404554189
 23
469.1977993278658
 33
0.0
  0
MTEXT
  5
218A
330
1B0B
100
AcDbEntity
  8
画層1
 62
     0
100
AcDbMText
 10
517.1512404554189
 20
471.0727993278658
 30
0.0
 40
2.5
 41
0.0
 71
     5
 72
     1
  1
27
 73
     1
 44
1.0
1001
ACAD
1000
MTEXTBEGIN
1070
    73
1070
     1
1070
    44
1040
1.0
1070
    74
1070
     0
1000
MTEXTEND
1000
MTEXTBEGIN
1070
    73
1070
     1
1070
    44
1040
1.0
1070
    74
1070
     0
1000
MTEXTEND
  0
POINT
  5
218B
330
1B0B
100
AcDbEntity
  8
Defpoints
 62
     0
100
AcDbPoint
 10
503.6512404554189
 20
478.7592431354276
 30
0.0
  0
POINT
  5
218C
330
1B0B
100
AcDbEntity
  8
Defpoints
 62
     0
100
AcDbPoint
 10
530.6512404554189
 20
482.2592431354276
 30
0.0
  0
POINT
  5
218D
330
1B0B
100
AcDbEntity
  8
Defpoints
 62
     0
100
AcDbPoint
 10
530.6512404554189
 20
469.1977993278658
 30
0.0
  0
ENDBLK
  5
1B16
330
1B0B
100
AcDbEntity
  8
0
 62
     3
100
AcDbBlockEnd
  0
BLOCK
  5
1C03
330
1BF9
100
AcDbEntity
  8
0
 62
     3
100
AcDbBlockBegin
  2
*D11
 70
     1
 10
0.0
 20
0.0
 30
0.0
  3
*D11
  1

  0
LINE
  5
21AB
330
1BF9
100
AcDbEntity
  8
画層1
 62
     0
370
    -2
100
AcDbLine
 10
606.5019166466811
 20
483.1342431354276
 30
0.0
 11
606.5019166466811
 21
475.751490869393
 31
0.0
  0
LINE
  5
21AC
330
1BF9
100
AcDbEntity
  8
画層1
 62
     0
370
    -2
100
AcDbLine
 10
580.5019166466811
 20
483.1342431354276
 30
0.0
 11
580.5019166466811
 21
475.751490869393
 31
0.0
  0
LINE
  5
21AD
330
1BF9
100
AcDbEntity
  8
画層1
 62
     0
370
    -2
100
AcDbLine
 10
604.0019166466811
 20
477.001490869393
 30
0.0
 11
583.0019166466811
 21
477.001490869393
 31
0.0
  0
SOLID
  5
21AE
330
1BF9
100
AcDbEntity
  8
画層1
 62
     0
100
AcDbTrace
 10
604.0019166466811
 20
477.4181575360596
 30
0.0
 11
604.0019166466811
 21
476.5848242027263
 31
0.0
 12
606.5019166466811
 22
477.001490869393
 32
0.0
 13
606.5019166466811
 23
477.001490869393
 33
0.0
  0
SOLID
  5
21AF
330
1BF9
100
AcDbEntity
  8
画層1
 62
     0
100
AcDbTrace
 10
583.0019166466811
 20
477.4181575360596
 30
0.0
 11
583.0019166466811
 21
476.5848242027263
 31
0.0
 12
580.5019166466811
 22
477.001490869393
 32
0.0
 13
580.5019166466811
 23
477.001490869393
 33
0.0
  0
MTEXT
  5
21B0
330
1BF9
100
AcDbEntity
  8
画層1
 62
     0
100
AcDbMText
 10
593.5019166466811
 20
478.876490869393
 30
0.0
 40
2.5
 41
0.0
 71
     5
 72
     1
  1
26
 73
     1
 44
1.0
1001
ACAD
1000
MTEXTBEGIN
1070
    73
1070
     1
1070
    44
1040
1.0
1070
    74
1070
     0
1000
MTEXTEND
1000
MTEXTBEGIN
1070
    73
1070
     1
1070
    44
1040
1.0
1070
    74
1070
     0
1000
MTEXTEND
  0
POINT
  5
21B1
330
1BF9
100
AcDbEntity
  8
Defpoints
 62
     0
100
AcDbPoint
 10
606.5019166466811
 20
483.7592431354277
 30
0.0
  0
POINT
  5
21B2
330
1BF9
100
AcDbEntity
  8
Defpoints
 62
     0
100
AcDbPoint
 10
580.5019166466811
 20
483.7592431354277
 30
0.0
  0
POINT
  5
21B3
330
1BF9
100
AcDbEntity
  8
Defpoints
 62
     0
100
AcDbPoint
 10
580.5019166466811
 20
477.001490869393
 30
0.0
  0
ENDBLK
  5
1C04
330
1BF9
100
AcDbEntity
  8
0
 62
     3
100
AcDbBlockEnd
  0
BLOCK
  5
1C12
330
1C06
100
AcDbEntity
  8
0
 62
     3
100
AcDbBlockBegin
  2
*D12
 70
     1
 10
0.0
 20
0.0
 30
0.0
  3
*D12
  1

  0
LINE
  5
21B4
330
1C06
100
AcDbEntity
  8
画層1
 62
     0
370
    -2
100
AcDbLine
 10
579.5019166466811
 20
483.6342431354276
 30
0.0
 11
579.5019166466811
 21
475.751490869393
 31
0.0
  0
LINE
  5
21B5
330
1C06
100
AcDbEntity
  8
画層1
 62
     0
370
    -2
100
AcDbLine
 10
580.5019166466811
 20
477.626490869393
 30
0.0
 11
580.5019166466811
 21
478.251490869393
 31
0.0
  0
LINE
  5
21B6
330
1C06
100
AcDbEntity
  8
画層1
 62
     0
370
    -2
100
AcDbLine
 10
583.0019166466811
 20
477.001490869393
 30
0.0
 11
585.5019166466811
 21
477.001490869393
 31
0.0
  0
LINE
  5
21B7
330
1C06
100
AcDbEntity
  8
画層1
 62
     0
370
    -2
100
AcDbLine
 10
577.0019166466811
 20
477.001490869393
 30
0.0
 11
572.4185833133478
 21
477.001490869393
 31
0.0
  0
LINE
  5
21B8
330
1C06
100
AcDbEntity
  8
画層1
 62
     0
370
    -2
100
AcDbLine
 10
580.5019166466811
 20
477.001490869393
 30
0.0
 11
579.5019166466811
 21
477.001490869393
 31
0.0
  0
SOLID
  5
21B9
330
1C06
100
AcDbEntity
  8
画層1
 62
     0
100
AcDbTrace
 10
583.0019166466811
 20
477.4181575360596
 30
0.0
 11
583.0019166466811
 21
476.5848242027263
 31
0.0
 12
580.5019166466811
 22
477.001490869393
 32
0.0
 13
580.5019166466811
 23
477.001490869393
 33
0.0
  0
SOLID
  5
21BA
330
1C06
100
AcDbEntity
  8
画層1
 62
     0
100
AcDbTrace
 10
577.0019166466811
 20
477.4181575360596
 30
0.0
 11
577.0019166466811
 21
476.5848242027263
 31
0.0
 12
579.5019166466811
 22
477.001490869393
 32
0.0
 13
579.5019166466811
 23
477.001490869393
 33
0.0
  0
MTEXT
  5
21BB
330
1C06
100
AcDbEntity
  8
画層1
 62
     0
100
AcDbMText
 10
573.4602499800145
 20
478.876490869393
 30
0.0
 40
2.5
 41
0.0
 71
     5
 72
     1
  1
1
 73
     1
 44
1.0
1001
ACAD
1000
MTEXTBEGIN
1070
    73
1070
     1
1070
    44
1040
1.0
1070
    74
1070
     0
1000
MTEXTEND
1000
MTEXTBEGIN
1070
    73
1070
     1
1070
    44
1040
1.0
1070
    74
1070
     0
1000
MTEXTEND
  0
POINT
  5
21BC
330
1C06
100
AcDbEntity
  8
Defpoints
 62
     0
100
AcDbPoint
 10
579.5019166466811
 20
484.2592431354277
 30
0.0
  0
POINT
  5
21BD
330
1C06
100
AcDbEntity
  8
Defpoints
 62
     0
100
AcDbPoint
 10
580.5019166466811
 20
477.001490869393
 30
0.0
  0
POINT
  5
21BE
330
1C06
100
AcDbEntity
  8
Defpoints
 62
     0
100
AcDbPoint
 10
580.5019166466811
 20
477.001490869393
 30
0.0
  0
ENDBLK
  5
1C13
330
1C06
100
AcDbEntity
  8
0
 62
     3
100
AcDbBlockEnd
  0
BLOCK
  5
1CB0
330
1CA6
100
AcDbEntity
  8
0
 62
     3
100
AcDbBlockBegin
  2
*D13
 70
     1
 10
0.0
 20
0.0
 30
0.0
  3
*D13
  1

  0
LINE
  5
2142
330
1CA6
100
AcDbEntity
  8
画層1
 62
     0
370
    -2
100
AcDbLine
 10
536.7762404554189
 20
540.7497838232785
 30
0.0
 11
551.0607339590321
 21
540.7497838232785
 31
0.0
  0
LINE
  5
2143
330
1CA6
100
AcDbEntity
  8
画層1
 62
     0
370
    -2
100
AcDbLine
 10
536.7762404554189
 20
566.7497838232785
 30
0.0
 11
551.0607339590321
 21
566.7497838232785
 31
0.0
  0
LINE
  5
2144
330
1CA6
100
AcDbEntity
  8
画層1
 62
     0
370
    -2
100
AcDbLine
 10
549.8107339590322
 20
543.2497838232785
 30
0.0
 11
549.8107339590322
 21
564.2497838232785
 31
0.0
  0
SOLID
  5
2145
330
1CA6
100
AcDbEntity
  8
画層1
 62
     0
100
AcDbTrace
 10
549.3940672923655
 20
543.2497838232785
 30
0.0
 11
550.2274006256988
 21
543.2497838232785
 31
0.0
 12
549.8107339590322
 22
540.7497838232785
 32
0.0
 13
549.8107339590322
 23
540.7497838232785
 33
0.0
  0
SOLID
  5
2146
330
1CA6
100
AcDbEntity
  8
画層1
 62
     0
100
AcDbTrace
 10
549.3940672923655
 20
564.2497838232785
 30
0.0
 11
550.2274006256988
 21
564.2497838232785
 31
0.0
 12
549.8107339590322
 22
566.7497838232785
 32
0.0
 13
549.8107339590322
 23
566.7497838232785
 33
0.0
  0
MTEXT
  5
2147
330
1CA6
100
AcDbEntity
  8
画層1
 62
     0
100
AcDbMText
 10
547.935733959032
 20
553.7497838232787
 30
0.0
 40
2.5
 41
0.0
 71
     5
 72
     1
  1
26
 11
0.0000000000000001
 21
1.0
 31
0.0
 73
     1
 44
1.0
1001
ACAD
1000
MTEXTBEGIN
1070
    73
1070
     1
1070
    44
1040
1.0
1070
    74
1070
     0
1000
MTEXTEND
1000
MTEXTBEGIN
1070
    73
1070
     1
1070
    44
1040
1.0
1070
    74
1070
     0
1000
MTEXTEND
  0
POINT
  5
2148
330
1CA6
100
AcDbEntity
  8
Defpoints
 62
     0
100
AcDbPoint
 10
536.1512404554189
 20
540.7497838232785
 30
0.0
  0
POINT
  5
2149
330
1CA6
100
AcDbEntity
  8
Defpoints
 62
     0
100
AcDbPoint
 10
536.1512404554189
 20
566.7497838232785
 30
0.0
  0
POINT
  5
214A
330
1CA6
100
AcDbEntity
  8
Defpoints
 62
     0
100
AcDbPoint
 10
549.8107339590322
 20
566.7497838232785
 30
0.0
  0
ENDBLK
  5
1CB1
330
1CA6
100
AcDbEntity
  8
0
 62
     3
100
AcDbBlockEnd
  0
BLOCK
  5
1CBD
330
1CB3
100
AcDbEntity
  8
0
 62
     3
100
AcDbBlockBegin
  2
*D14
 70
     1
 10
0.0
 20
0.0
 30
0.0
  3
*D14
  1

  0
LINE
  5
21A2
330
1CB3
100
AcDbEntity
  8
画層1
 62
     0
370
    -2
100
AcDbLine
 10
471.1512404554189
 20
567.3747838232785
 30
0.0
 11
471.1512404554189
 21
577.7823031360994
 31
0.0
  0
LINE
  5
21A3
330
1CB3
100
AcDbEntity
  8
画層1
 62
     0
370
    -2
100
AcDbLine
 10
536.1512404554189
 20
567.3747838232785
 30
0.0
 11
536.1512404554189
 21
577.7823031360994
 31
0.0
  0
LINE
  5
21A4
330
1CB3
100
AcDbEntity
  8
画層1
 62
     0
370
    -2
100
AcDbLine
 10
473.6512404554189
 20
576.5323031360995
 30
0.0
 11
533.6512404554189
 21
576.5323031360995
 31
0.0
  0
SOLID
  5
21A5
330
1CB3
100
AcDbEntity
  8
画層1
 62
     0
100
AcDbTrace
 10
473.6512404554189
 20
576.9489698027661
 30
0.0
 11
473.6512404554189
 21
576.1156364694328
 31
0.0
 12
471.1512404554189
 22
576.5323031360995
 32
0.0
 13
471.1512404554189
 23
576.5323031360995
 33
0.0
  0
SOLID
  5
21A6
330
1CB3
100
AcDbEntity
  8
画層1
 62
     0
100
AcDbTrace
 10
533.6512404554189
 20
576.9489698027661
 30
0.0
 11
533.6512404554189
 21
576.1156364694328
 31
0.0
 12
536.1512404554189
 22
576.5323031360995
 32
0.0
 13
536.1512404554189
 23
576.5323031360995
 33
0.0
  0
MTEXT
  5
21A7
330
1CB3
100
AcDbEntity
  8
画層1
 62
     0
100
AcDbMText
 10
503.6512404554189
 20
578.4073031360994
 30
0.0
 40
2.5
 41
0.0
 71
     5
 72
     1
  1
65
 73
     1
 44
1.0
1001
ACAD
1000
MTEXTBEGIN
1070
    73
1070
     1
1070
    44
1040
1.0
1070
    74
1070
     0
1000
MTEXTEND
1000
MTEXTBEGIN
1070
    73
1070
     1
1070
    44
1040
1.0
1070
    74
1070
     0
1000
MTEXTEND
  0
POINT
  5
21A8
330
1CB3
100
AcDbEntity
  8
Defpoints
 62
     0
100
AcDbPoint
 10
471.1512404554189
 20
566.7497838232785
 30
0.0
  0
POINT
  5
21A9
330
1CB3
100
AcDbEntity
  8
Defpoints
 62
     0
100
AcDbPoint
 10
536.1512404554189
 20
566.7497838232785
 30
0.0
  0
POINT
  5
21AA
330
1CB3
100
AcDbEntity
  8
Defpoints
 62
     0
100
AcDbPoint
 10
536.1512404554189
 20
576.5323031360995
 30
0.0
  0
ENDBLK
  5
1CBE
330
1CB3
100
AcDbEntity
  8
0
 62
     3
100
AcDbBlockEnd
  0
BLOCK
  5
1D91
330
1D87
100
AcDbEntity
  8
0
 62
     3
100
AcDbBlockBegin
  2
*D15
 70
     1
 10
0.0
 20
0.0
 30
0.0
  3
*D15
  1

  0
LINE
  5
2199
330
1D87
100
AcDbEntity
  8
画層1
 62
     0
370
    -2
100
AcDbLine
 10
483.1512404554189
 20
546.6247838232785
 30
0.0
 11
483.1512404554189
 21
528.9700038570128
 31
0.0
  0
LINE
  5
219A
330
1D87
100
AcDbEntity
  8
画層1
 62
     0
370
    -2
100
AcDbLine
 10
524.1512404554189
 20
546.6247838232785
 30
0.0
 11
524.1512404554189
 21
528.9700038570128
 31
0.0
  0
LINE
  5
219B
330
1D87
100
AcDbEntity
  8
画層1
 62
     0
370
    -2
100
AcDbLine
 10
485.6512404554189
 20
530.2200038570127
 30
0.0
 11
521.6512404554189
 21
530.2200038570127
 31
0.0
  0
SOLID
  5
219C
330
1D87
100
AcDbEntity
  8
画層1
 62
     0
100
AcDbTrace
 10
485.6512404554189
 20
530.6366705236793
 30
0.0
 11
485.6512404554189
 21
529.8033371903462
 31
0.0
 12
483.1512404554189
 22
530.2200038570127
 32
0.0
 13
483.1512404554189
 23
530.2200038570127
 33
0.0
  0
SOLID
  5
219D
330
1D87
100
AcDbEntity
  8
画層1
 62
     0
100
AcDbTrace
 10
521.6512404554189
 20
530.6366705236793
 30
0.0
 11
521.6512404554189
 21
529.8033371903462
 31
0.0
 12
524.1512404554189
 22
530.2200038570127
 32
0.0
 13
524.1512404554189
 23
530.2200038570127
 33
0.0
  0
MTEXT
  5
219E
330
1D87
100
AcDbEntity
  8
画層1
 62
     0
100
AcDbMText
 10
503.6512404554189
 20
532.0950038570128
 30
0.0
 40
2.5
 41
0.0
 71
     5
 72
     1
  1
41
 73
     1
 44
1.0
1001
ACAD
1000
MTEXTBEGIN
1070
    73
1070
     1
1070
    44
1040
1.0
1070
    74
1070
     0
1000
MTEXTEND
1000
MTEXTBEGIN
1070
    73
1070
     1
1070
    44
1040
1.0
1070
    74
1070
     0
1000
MTEXTEND
  0
POINT
  5
219F
330
1D87
100
AcDbEntity
  8
Defpoints
 62
     0
100
AcDbPoint
 10
483.1512404554189
 20
547.2497838232786
 30
0.0
  0
POINT
  5
21A0
330
1D87
100
AcDbEntity
  8
Defpoints
 62
     0
100
AcDbPoint
 10
524.1512404554189
 20
547.2497838232786
 30
0.0
  0
POINT
  5
21A1
330
1D87
100
AcDbEntity
  8
Defpoints
 62
     0
100
AcDbPoint
 10
524.1512404554189
 20
530.2200038570127
 30
0.0
  0
ENDBLK
  5
1D92
330
1D87
100
AcDbEntity
  8
0
 62
     3
100
AcDbBlockEnd
  0
BLOCK
  5
1E8D
330
1E83
100
AcDbEntity
  8
0
 62
     3
100
AcDbBlockBegin
  2
*D16
 70
     1
 10
0.0
 20
0.0
 30
0.0
  3
*D16
  1

  0
LINE
  5
21D5
330
1E83
100
AcDbEntity
  8
画層1
 62
     0
370
    -2
100
AcDbLine
 10
640.3807788644678
 20
569.3747838232785
 30
0.0
 11
640.3807788644678
 21
577.7823031360994
 31
0.0
  0
LINE
  5
21D6
330
1E83
100
AcDbEntity
  8
画層1
 62
     0
370
    -2
100
AcDbLine
 10
575.3807788644678
 20
569.3747838232785
 30
0.0
 11
575.3807788644678
 21
577.7823031360994
 31
0.0
  0
LINE
  5
21D7
330
1E83
100
AcDbEntity
  8
画層1
 62
     0
370
    -2
100
AcDbLine
 10
637.8807788644678
 20
576.5323031360995
 30
0.0
 11
577.8807788644678
 21
576.5323031360995
 31
0.0
  0
SOLID
  5
21D8
330
1E83
100
AcDbEntity
  8
画層1
 62
     0
100
AcDbTrace
 10
637.8807788644678
 20
576.9489698027661
 30
0.0
 11
637.8807788644678
 21
576.1156364694328
 31
0.0
 12
640.3807788644678
 22
576.5323031360995
 32
0.0
 13
640.3807788644678
 23
576.5323031360995
 33
0.0
  0
SOLID
  5
21D9
330
1E83
100
AcDbEntity
  8
画層1
 62
     0
100
AcDbTrace
 10
577.8807788644678
 20
576.9489698027661
 30
0.0
 11
577.8807788644678
 21
576.1156364694328
 31
0.0
 12
575.3807788644678
 22
576.5323031360995
 32
0.0
 13
575.3807788644678
 23
576.5323031360995
 33
0.0
  0
MTEXT
  5
21DA
330
1E83
100
AcDbEntity
  8
画層1
 62
     0
100
AcDbMText
 10
607.8807788644678
 20
578.4073031360994
 30
0.0
 40
2.5
 41
0.0
 71
     5
 72
     1
  1
65
 73
     1
 44
1.0
1001
ACAD
1000
MTEXTBEGIN
1070
    73
1070
     1
1070
    44
1040
1.0
1070
    74
1070
     0
1000
MTEXTEND
1000
MTEXTBEGIN
1070
    73
1070
     1
1070
    44
1040
1.0
1070
    74
1070
     0
1000
MTEXTEND
  0
POINT
  5
21DB
330
1E83
100
AcDbEntity
  8
Defpoints
 62
     0
100
AcDbPoint
 10
640.3807788644678
 20
568.7497838232785
 30
0.0
  0
POINT
  5
21DC
330
1E83
100
AcDbEntity
  8
Defpoints
 62
     0
100
AcDbPoint
 10
575.3807788644678
 20
568.7497838232785
 30
0.0
  0
POINT
  5
21DD
330
1E83
100
AcDbEntity
  8
Defpoints
 62
     0
100
AcDbPoint
 10
575.3807788644678
 20
576.5323031360995
 30
0.0
  0
ENDBLK
  5
1E8E
330
1E83
100
AcDbEntity
  8
0
 62
     3
100
AcDbBlockEnd
  0
BLOCK
  5
1E9A
330
1E90
100
AcDbEntity
  8
0
 62
     3
100
AcDbBlockBegin
  2
*D17
 70
     1
 10
0.0
 20
0.0
 30
0.0
  3
*D17
  1

  0
LINE
  5
21DE
330
1E90
100
AcDbEntity
  8
画層1
 62
     0
370
    -2
100
AcDbLine
 10
640.0057788644678
 20
569.7497838232785
 30
0.0
 11
650.0240429912014
 21
569.7497838232785
 31
0.0
  0
LINE
  5
21DF
330
1E90
100
AcDbEntity
  8
画層1
 62
     0
370
    -2
100
AcDbLine
 10
640.0057788644678
 20
551.5497838232785
 30
0.0
 11
650.0240429912014
 21
551.5497838232785
 31
0.0
  0
LINE
  5
21E0
330
1E90
100
AcDbEntity
  8
画層1
 62
     0
370
    -2
100
AcDbLine
 10
648.7740429912014
 20
567.2497838232785
 30
0.0
 11
648.7740429912014
 21
554.0497838232785
 31
0.0
  0
SOLID
  5
21E1
330
1E90
100
AcDbEntity
  8
画層1
 62
     0
100
AcDbTrace
 10
648.3573763245348
 20
567.2497838232785
 30
0.0
 11
649.190709657868
 21
567.2497838232785
 31
0.0
 12
648.7740429912014
 22
569.7497838232785
 32
0.0
 13
648.7740429912014
 23
569.7497838232785
 33
0.0
  0
SOLID
  5
21E2
330
1E90
100
AcDbEntity
  8
画層1
 62
     0
100
AcDbTrace
 10
648.3573763245348
 20
554.0497838232785
 30
0.0
 11
649.190709657868
 21
554.0497838232785
 31
0.0
 12
648.7740429912014
 22
551.5497838232785
 32
0.0
 13
648.7740429912014
 23
551.5497838232785
 33
0.0
  0
MTEXT
  5
21E3
330
1E90
100
AcDbEntity
  8
画層1
 62
     0
100
AcDbMText
 10
646.690709657868
 20
560.6497838232786
 30
0.0
 40
2.5
 41
0.0
 71
     5
 72
     1
  1
18,2
 11
0.0000000000000001
 21
1.0
 31
0.0
 73
     1
 44
1.0
1001
ACAD
1000
MTEXTBEGIN
1070
    73
1070
     1
1070
    44
1040
1.0
1070
    74
1070
     0
1000
MTEXTEND
1000
MTEXTBEGIN
1070
    73
1070
     1
1070
    44
1040
1.0
1070
    74
1070
     0
1000
MTEXTEND
  0
POINT
  5
21E4
330
1E90
100
AcDbEntity
  8
Defpoints
 62
     0
100
AcDbPoint
 10
639.3807788644679
 20
569.7497838232785
 30
0.0
  0
POINT
  5
21E5
330
1E90
100
AcDbEntity
  8
Defpoints
 62
     0
100
AcDbPoint
 10
639.3807788644679
 20
551.5497838232785
 30
0.0
  0
POINT
  5
21E6
330
1E90
100
AcDbEntity
  8
Defpoints
 62
     0
100
AcDbPoint
 10
648.7740429912014
 20
551.5497838232785
 30
0.0
  0
ENDBLK
  5
1E9B
330
1E90
100
AcDbEntity
  8
0
 62
     3
100
AcDbBlockEnd
  0
BLOCK
  5
1EA9
330
1E9D
100
AcDbEntity
  8
0
 62
     3
100
AcDbBlockBegin
  2
*D18
 70
     1
 10
0.0
 20
0.0
 30
0.0
  3
*D18
  1

  0
LINE
  5
21E7
330
1E9D
100
AcDbEntity
  8
画層1
 62
     0
370
    -2
100
AcDbLine
 10
665.1922019519738
 20
570.3747838232785
 30
0.0
 11
665.1922019519738
 21
577.7823031360994
 31
0.0
  0
LINE
  5
21E8
330
1E9D
100
AcDbEntity
  8
画層1
 62
     0
370
    -2
100
AcDbLine
 10
666.6922019519738
 20
570.3747838232785
 30
0.0
 11
666.6922019519738
 21
577.7823031360994
 31
0.0
  0
LINE
  5
21E9
330
1E9D
100
AcDbEntity
  8
画層1
 62
     0
370
    -2
100
AcDbLine
 10
662.6922019519739
 20
576.5323031360995
 30
0.0
 11
660.1922019519738
 21
576.5323031360995
 31
0.0
  0
LINE
  5
21EA
330
1E9D
100
AcDbEntity
  8
画層1
 62
     0
370
    -2
100
AcDbLine
 10
669.1922019519738
 20
576.5323031360995
 30
0.0
 11
677.5255352853072
 21
576.5323031360995
 31
0.0
  0
LINE
  5
21EB
330
1E9D
100
AcDbEntity
  8
画層1
 62
     0
370
    -2
100
AcDbLine
 10
665.1922019519738
 20
576.5323031360995
 30
0.0
 11
666.6922019519738
 21
576.5323031360995
 31
0.0
  0
SOLID
  5
21EC
330
1E9D
100
AcDbEntity
  8
画層1
 62
     0
100
AcDbTrace
 10
662.6922019519739
 20
576.9489698027661
 30
0.0
 11
662.6922019519739
 21
576.1156364694328
 31
0.0
 12
665.1922019519738
 22
576.5323031360995
 32
0.0
 13
665.1922019519738
 23
576.5323031360995
 33
0.0
  0
SOLID
  5
21ED
330
1E9D
100
AcDbEntity
  8
画層1
 62
     0
100
AcDbTrace
 10
669.1922019519738
 20
576.9489698027661
 30
0.0
 11
669.1922019519738
 21
576.1156364694328
 31
0.0
 12
666.6922019519738
 22
576.5323031360995
 32
0.0
 13
666.6922019519738
 23
576.5323031360995
 33
0.0
  0
MTEXT
  5
21EE
330
1E9D
100
AcDbEntity
  8
画層1
 62
     0
100
AcDbMText
 10
674.6088686186404
 20
578.6156364694328
 30
0.0
 40
2.5
 41
0.0
 71
     5
 72
     1
  1
1,5
 73
     1
 44
1.0
1001
ACAD
1000
MTEXTBEGIN
1070
    73
1070
     1
1070
    44
1040
1.0
1070
    74
1070
     0
1000
MTEXTEND
1000
MTEXTBEGIN
1070
    73
1070
     1
1070
    44
1040
1.0
1070
    74
1070
     0
1000
MTEXTEND
  0
POINT
  5
21EF
330
1E9D
100
AcDbEntity
  8
Defpoints
 62
     0
100
AcDbPoint
 10
665.1922019519738
 20
569.7497838232785
 30
0.0
  0
POINT
  5
21F0
330
1E9D
100
AcDbEntity
  8
Defpoints
 62
     0
100
AcDbPoint
 10
666.6922019519738
 20
569.7497838232785
 30
0.0
  0
POINT
  5
21F1
330
1E9D
100
AcDbEntity
  8
Defpoints
 62
     0
100
AcDbPoint
 10
666.6922019519738
 20
576.5323031360995
 30
0.0
  0
ENDBLK
  5
1EAA
330
1E9D
100
AcDbEntity
  8
0
 62
     3
100
AcDbBlockEnd
  0
BLOCK
  5
1EB8
330
1EAC
100
AcDbEntity
  8
0
 62
     3
100
AcDbBlockBegin
  2
*D19
 70
     1
 10
0.0
 20
0.0
 30
0.0
  3
*D19
  1

  0
LINE
  5
21CA
330
1EAC
100
AcDbEntity
  8
画層1
 62
     0
370
    -2
100
AcDbLine
 10
666.2922019519738
 20
540.1247838232785
 30
0.0
 11
666.2922019519738
 21
537.6846910615422
 31
0.0
  0
LINE
  5
21CB
330
1EAC
100
AcDbEntity
  8
画層1
 62
     0
370
    -2
100
AcDbLine
 10
665.1922019519738
 20
550.9247838232783
 30
0.0
 11
665.1922019519738
 21
537.6846910615422
 31
0.0
  0
LINE
  5
21CC
330
1EAC
100
AcDbEntity
  8
画層1
 62
     0
370
    -2
100
AcDbLine
 10
668.7922019519739
 20
538.9346910615422
 30
0.0
 11
671.2922019519738
 21
538.9346910615422
 31
0.0
  0
LINE
  5
21CD
330
1EAC
100
AcDbEntity
  8
画層1
 62
     0
370
    -2
100
AcDbLine
 10
662.6922019519739
 20
538.9346910615422
 30
0.0
 11
655.1922019519738
 21
538.9346910615422
 31
0.0
  0
LINE
  5
21CE
330
1EAC
100
AcDbEntity
  8
画層1
 62
     0
370
    -2
100
AcDbLine
 10
666.2922019519738
 20
538.9346910615422
 30
0.0
 11
665.1922019519738
 21
538.9346910615422
 31
0.0
  0
SOLID
  5
21CF
330
1EAC
100
AcDbEntity
  8
画層1
 62
     0
100
AcDbTrace
 10
668.7922019519739
 20
539.3513577282089
 30
0.0
 11
668.7922019519739
 21
538.5180243948756
 31
0.0
 12
666.2922019519738
 22
538.9346910615422
 32
0.0
 13
666.2922019519738
 23
538.9346910615422
 33
0.0
  0
SOLID
  5
21D0
330
1EAC
100
AcDbEntity
  8
画層1
 62
     0
100
AcDbTrace
 10
662.6922019519739
 20
539.3513577282089
 30
0.0
 11
662.6922019519739
 21
538.5180243948756
 31
0.0
 12
665.1922019519738
 22
538.9346910615422
 32
0.0
 13
665.1922019519738
 23
538.9346910615422
 33
0.0
  0
MTEXT
  5
21D1
330
1EAC
100
AcDbEntity
  8
画層1
 62
     0
100
AcDbMText
 10
657.6922019519738
 20
541.0180243948756
 30
0.0
 40
2.5
 41
0.0
 71
     5
 72
     1
  1
1,1
 73
     1
 44
1.0
1001
ACAD
1000
MTEXTBEGIN
1070
    73
1070
     1
1070
    44
1040
1.0
1070
    74
1070
     0
1000
MTEXTEND
1000
MTEXTBEGIN
1070
    73
1070
     1
1070
    44
1040
1.0
1070
    74
1070
     0
1000
MTEXTEND
  0
POINT
  5
21D2
330
1EAC
100
AcDbEntity
  8
Defpoints
 62
     0
100
AcDbPoint
 10
666.2922019519738
 20
540.7497838232785
 30
0.0
  0
POINT
  5
21D3
330
1EAC
100
AcDbEntity
  8
Defpoints
 62
     0
100
AcDbPoint
 10
665.1922019519738
 20
551.5497838232784
 30
0.0
  0
POINT
  5
21D4
330
1EAC
100
AcDbEntity
  8
Defpoints
 62
     0
100
AcDbPoint
 10
665.1922019519738
 20
538.9346910615422
 30
0.0
  0
ENDBLK
  5
1EB9
330
1EAC
100
AcDbEntity
  8
0
 62
     3
100
AcDbBlockEnd
  0
BLOCK
  5
1EC7
330
1EBB
100
AcDbEntity
  8
0
 62
     3
100
AcDbBlockBegin
  2
*D20
 70
     1
 10
0.0
 20
0.0
 30
0.0
  3
*D20
  1

  0
LINE
  5
21BF
330
1EBB
100
AcDbEntity
  8
画層1
 62
     0
370
    -2
100
AcDbLine
 10
667.5922019519738
 20
540.1247838232785
 30
0.0
 11
667.5922019519738
 21
532.9943776747223
 31
0.0
  0
LINE
  5
21C0
330
1EBB
100
AcDbEntity
  8
画層1
 62
     0
370
    -2
100
AcDbLine
 10
665.1922019519738
 20
537.0596910615422
 30
0.0
 11
665.1922019519738
 21
532.9943776747223
 31
0.0
  0
LINE
  5
21C1
330
1EBB
100
AcDbEntity
  8
画層1
 62
     0
370
    -2
100
AcDbLine
 10
670.0922019519738
 20
534.2443776747223
 30
0.0
 11
672.5922019519738
 21
534.2443776747223
 31
0.0
  0
LINE
  5
21C2
330
1EBB
100
AcDbEntity
  8
画層1
 62
     0
370
    -2
100
AcDbLine
 10
662.6922019519739
 20
534.2443776747223
 30
0.0
 11
653.5255352853072
 21
534.2443776747223
 31
0.0
  0
LINE
  5
21C3
330
1EBB
100
AcDbEntity
  8
画層1
 62
     0
370
    -2
100
AcDbLine
 10
667.5922019519738
 20
534.2443776747223
 30
0.0
 11
665.1922019519738
 21
534.2443776747223
 31
0.0
  0
SOLID
  5
21C4
330
1EBB
100
AcDbEntity
  8
画層1
 62
     0
100
AcDbTrace
 10
670.0922019519738
 20
534.6610443413888
 30
0.0
 11
670.0922019519738
 21
533.8277110080556
 31
0.0
 12
667.5922019519738
 22
534.2443776747223
 32
0.0
 13
667.5922019519738
 23
534.2443776747223
 33
0.0
  0
SOLID
  5
21C5
330
1EBB
100
AcDbEntity
  8
画層1
 62
     0
100
AcDbTrace
 10
662.6922019519739
 20
534.6610443413888
 30
0.0
 11
662.6922019519739
 21
533.8277110080556
 31
0.0
 12
665.1922019519738
 22
534.2443776747223
 32
0.0
 13
665.1922019519738
 23
534.2443776747223
 33
0.0
  0
MTEXT
  5
21C6
330
1EBB
100
AcDbEntity
  8
画層1
 62
     0
100
AcDbMText
 10
656.8588686186404
 20
536.3277110080556
 30
0.0
 40
2.5
 41
0.0
 71
     5
 72
     1
  1
2,4
 73
     1
 44
1.0
1001
ACAD
1000
MTEXTBEGIN
1070
    73
1070
     1
1070
    44
1040
1.0
1070
    74
1070
     0
1000
MTEXTEND
1000
MTEXTBEGIN
1070
    73
1070
     1
1070
    44
1040
1.0
1070
    74
1070
     0
1000
MTEXTEND
  0
POINT
  5
21C7
330
1EBB
100
AcDbEntity
  8
Defpoints
 62
     0
100
AcDbPoint
 10
667.5922019519738
 20
540.7497838232785
 30
0.0
  0
POINT
  5
21C8
330
1EBB
100
AcDbEntity
  8
Defpoints
 62
     0
100
AcDbPoint
 10
665.1922019519738
 20
537.6846910615422
 30
0.0
  0
POINT
  5
21C9
330
1EBB
100
AcDbEntity
  8
Defpoints
 62
     0
100
AcDbPoint
 10
665.1922019519738
 20
534.2443776747223
 30
0.0
  0
ENDBLK
  5
1EC8
330
1EBB
100
AcDbEntity
  8
0
 62
     3
100
AcDbBlockEnd
  0
BLOCK
  5
22E2
330
22D8
100
AcDbEntity
  8
0
 62
     1
100
AcDbBlockBegin
  2
*D21
 70
     1
 10
0.0
 20
0.0
 30
0.0
  3
*D21
  1

  0
LINE
  5
242D
330
22D8
100
AcDbEntity
  8
画層1
 62
     0
370
    -2
100
AcDbLine
 10
452.6512404554189
 20
398.3747838232785
 30
0.0
 11
452.6512404554189
 21
409.1996320302512
 31
0.0
  0
LINE
  5
242E
330
22D8
100
AcDbEntity
  8
画層1
 62
     0
370
    -2
100
AcDbLine
 10
554.6512404554189
 20
398.3747838232785
 30
0.0
 11
554.6512404554189
 21
409.1996320302512
 31
0.0
  0
LINE
  5
242F
330
22D8
100
AcDbEntity
  8
画層1
 62
     0
370
    -2
100
AcDbLine
 10
455.1512404554189
 20
407.9496320302512
 30
0.0
 11
552.1512404554189
 21
407.9496320302512
 31
0.0
  0
SOLID
  5
2430
330
22D8
100
AcDbEntity
  8
画層1
 62
     0
100
AcDbTrace
 10
455.1512404554189
 20
408.3662986969178
 30
0.0
 11
455.1512404554189
 21
407.5329653635845
 31
0.0
 12
452.6512404554189
 22
407.9496320302512
 32
0.0
 13
452.6512404554189
 23
407.9496320302512
 33
0.0
  0
SOLID
  5
2431
330
22D8
100
AcDbEntity
  8
画層1
 62
     0
100
AcDbTrace
 10
552.1512404554189
 20
408.3662986969178
 30
0.0
 11
552.1512404554189
 21
407.5329653635845
 31
0.0
 12
554.6512404554189
 22
407.9496320302512
 32
0.0
 13
554.6512404554189
 23
407.9496320302512
 33
0.0
  0
MTEXT
  5
2432
330
22D8
100
AcDbEntity
  8
画層1
 62
     0
100
AcDbMText
 10
503.6512404554189
 20
409.8246320302512
 30
0.0
 40
2.5
 41
0.0
 71
     5
 72
     1
  1
102
 73
     1
 44
1.0
  0
POINT
  5
2433
330
22D8
100
AcDbEntity
  8
Defpoints
 62
     0
100
AcDbPoint
 10
452.6512404554189
 20
397.7497838232785
 30
0.0
  0
POINT
  5
2434
330
22D8
100
AcDbEntity
  8
Defpoints
 62
     0
100
AcDbPoint
 10
554.6512404554189
 20
397.7497838232785
 30
0.0
  0
POINT
  5
2435
330
22D8
100
AcDbEntity
  8
Defpoints
 62
     0
100
AcDbPoint
 10
554.6512404554189
 20
407.9496320302512
 30
0.0
  0
ENDBLK
  5
22E3
330
22D8
100
AcDbEntity
  8
0
 62
     1
100
AcDbBlockEnd
  0
BLOCK
  5
22EF
330
22E5
100
AcDbEntity
  8
0
 62
     1
100
AcDbBlockBegin
  2
*D22
 70
     1
 10
0.0
 20
0.0
 30
0.0
  3
*D22
  1

  0
LINE
  5
2424
330
22E5
100
AcDbEntity
  8
画層1
 62
     0
370
    -2
100
AcDbLine
 10
445.6512404554189
 20
374.3747838232785
 30
0.0
 11
445.6512404554189
 21
415.883891801865
 31
0.0
  0
LINE
  5
2425
330
22E5
100
AcDbEntity
  8
画層1
 62
     0
370
    -2
100
AcDbLine
 10
561.6512404554189
 20
374.3747838232785
 30
0.0
 11
561.6512404554189
 21
415.883891801865
 31
0.0
  0
LINE
  5
2426
330
22E5
100
AcDbEntity
  8
画層1
 62
     0
370
    -2
100
AcDbLine
 10
448.1512404554189
 20
414.633891801865
 30
0.0
 11
559.1512404554189
 21
414.633891801865
 31
0.0
  0
SOLID
  5
2427
330
22E5
100
AcDbEntity
  8
画層1
 62
     0
100
AcDbTrace
 10
448.1512404554189
 20
415.0505584685317
 30
0.0
 11
448.1512404554189
 21
414.2172251351984
 31
0.0
 12
445.6512404554189
 22
414.633891801865
 32
0.0
 13
445.6512404554189
 23
414.633891801865
 33
0.0
  0
SOLID
  5
2428
330
22E5
100
AcDbEntity
  8
画層1
 62
     0
100
AcDbTrace
 10
559.1512404554189
 20
415.0505584685317
 30
0.0
 11
559.1512404554189
 21
414.2172251351984
 31
0.0
 12
561.6512404554189
 22
414.633891801865
 32
0.0
 13
561.6512404554189
 23
414.633891801865
 33
0.0
  0
MTEXT
  5
2429
330
22E5
100
AcDbEntity
  8
画層1
 62
     0
100
AcDbMText
 10
503.6512404554189
 20
416.508891801865
 30
0.0
 40
2.5
 41
0.0
 71
     5
 72
     1
  1
116
 73
     1
 44
1.0
  0
POINT
  5
242A
330
22E5
100
AcDbEntity
  8
Defpoints
 62
     0
100
AcDbPoint
 10
445.6512404554189
 20
373.7497838232785
 30
0.0
  0
POINT
  5
242B
330
22E5
100
AcDbEntity
  8
Defpoints
 62
     0
100
AcDbPoint
 10
561.6512404554189
 20
373.7497838232785
 30
0.0
  0
POINT
  5
242C
330
22E5
100
AcDbEntity
  8
Defpoints
 62
     0
100
AcDbPoint
 10
561.6512404554189
 20
414.633891801865
 30
0.0
  0
ENDBLK
  5
22F0
330
22E5
100
AcDbEntity
  8
0
 62
     1
100
AcDbBlockEnd
  0
BLOCK
  5
22FC
330
22F2
100
AcDbEntity
  8
0
 62
     1
100
AcDbBlockBegin
  2
*D23
 70
     1
 10
0.0
 20
0.0
 30
0.0
  3
*D23
  1

  0
LINE
  5
243F
330
22F2
100
AcDbEntity
  8
画層1
 62
     0
370
    -2
100
AcDbLine
 10
562.2762404554189
 20
381.7497838232785
 30
0.0
 11
584.0720306856123
 21
381.7497838232785
 31
0.0
  0
LINE
  5
2440
330
22F2
100
AcDbEntity
  8
画層1
 62
     0
370
    -2
100
AcDbLine
 10
562.2762404554189
 20
365.7497838232785
 30
0.0
 11
584.0720306856123
 21
365.7497838232785
 31
0.0
  0
LINE
  5
2441
330
22F2
100
AcDbEntity
  8
画層1
 62
     0
370
    -2
100
AcDbLine
 10
582.8220306856123
 20
379.2497838232785
 30
0.0
 11
582.8220306856123
 21
368.2497838232785
 31
0.0
  0
SOLID
  5
2442
330
22F2
100
AcDbEntity
  8
画層1
 62
     0
100
AcDbTrace
 10
582.4053640189458
 20
379.2497838232785
 30
0.0
 11
583.238697352279
 21
379.2497838232785
 31
0.0
 12
582.8220306856123
 22
381.7497838232785
 32
0.0
 13
582.8220306856123
 23
381.7497838232785
 33
0.0
  0
SOLID
  5
2443
330
22F2
100
AcDbEntity
  8
画層1
 62
     0
100
AcDbTrace
 10
582.4053640189458
 20
368.2497838232785
 30
0.0
 11
583.238697352279
 21
368.2497838232785
 31
0.0
 12
582.8220306856123
 22
365.7497838232785
 32
0.0
 13
582.8220306856123
 23
365.7497838232785
 33
0.0
  0
MTEXT
  5
2444
330
22F2
100
AcDbEntity
  8
画層1
 62
     0
100
AcDbMText
 10
580.9470306856122
 20
373.7497838232786
 30
0.0
 40
2.5
 41
0.0
 71
     5
 72
     1
  1
16
 11
0.0000000000000001
 21
1.0
 31
0.0
 73
     1
 44
1.0
  0
POINT
  5
2445
330
22F2
100
AcDbEntity
  8
Defpoints
 62
     0
100
AcDbPoint
 10
561.6512404554189
 20
381.7497838232785
 30
0.0
  0
POINT
  5
2446
330
22F2
100
AcDbEntity
  8
Defpoints
 62
     0
100
AcDbPoint
 10
561.6512404554189
 20
365.7497838232785
 30
0.0
  0
POINT
  5
2447
330
22F2
100
AcDbEntity
  8
Defpoints
 62
     0
100
AcDbPoint
 10
582.8220306856123
 20
365.7497838232785
 30
0.0
  0
ENDBLK
  5
22FD
330
22F2
100
AcDbEntity
  8
0
 62
     1
100
AcDbBlockEnd
  0
BLOCK
  5
2309
330
22FF
100
AcDbEntity
  8
0
 62
     1
100
AcDbBlockBegin
  2
*D24
 70
     1
 10
0.0
 20
0.0
 30
0.0
  3
*D24
  1

  0
LINE
  5
2436
330
22FF
100
AcDbEntity
  8
画層1
 62
     0
370
    -2
100
AcDbLine
 10
555.2762404554189
 20
397.7497838232785
 30
0.0
 11
592.6332419274274
 21
397.7497838232785
 31
0.0
  0
LINE
  5
2437
330
22FF
100
AcDbEntity
  8
画層1
 62
     0
370
    -2
100
AcDbLine
 10
555.2762404554189
 20
349.7497838232785
 30
0.0
 11
592.6332419274274
 21
349.7497838232785
 31
0.0
  0
LINE
  5
2438
330
22FF
100
AcDbEntity
  8
画層1
 62
     0
370
    -2
100
AcDbLine
 10
591.3832419274274
 20
395.2497838232785
 30
0.0
 11
591.3832419274274
 21
352.2497838232785
 31
0.0
  0
SOLID
  5
2439
330
22FF
100
AcDbEntity
  8
画層1
 62
     0
100
AcDbTrace
 10
590.9665752607607
 20
395.2497838232785
 30
0.0
 11
591.799908594094
 21
395.2497838232785
 31
0.0
 12
591.3832419274274
 22
397.7497838232785
 32
0.0
 13
591.3832419274274
 23
397.7497838232785
 33
0.0
  0
SOLID
  5
243A
330
22FF
100
AcDbEntity
  8
画層1
 62
     0
100
AcDbTrace
 10
590.9665752607607
 20
352.2497838232785
 30
0.0
 11
591.799908594094
 21
352.2497838232785
 31
0.0
 12
591.3832419274274
 22
349.7497838232785
 32
0.0
 13
591.3832419274274
 23
349.7497838232785
 33
0.0
  0
MTEXT
  5
243B
330
22FF
100
AcDbEntity
  8
画層1
 62
     0
100
AcDbMText
 10
589.5082419274273
 20
373.7497838232786
 30
0.0
 40
2.5
 41
0.0
 71
     5
 72
     1
  1
48
 11
0.0000000000000001
 21
1.0
 31
0.0
 73
     1
 44
1.0
  0
POINT
  5
243C
330
22FF
100
AcDbEntity
  8
Defpoints
 62
     0
100
AcDbPoint
 10
554.6512404554189
 20
397.7497838232785
 30
0.0
  0
POINT
  5
243D
330
22FF
100
AcDbEntity
  8
Defpoints
 62
     0
100
AcDbPoint
 10
554.6512404554189
 20
349.7497838232785
 30
0.0
  0
POINT
  5
243E
330
22FF
100
AcDbEntity
  8
Defpoints
 62
     0
100
AcDbPoint
 10
591.3832419274274
 20
349.7497838232785
 30
0.0
  0
ENDBLK
  5
230A
330
22FF
100
AcDbEntity
  8
0
 62
     1
100
AcDbBlockEnd
  0
BLOCK
  5
2316
330
230C
100
AcDbEntity
  8
0
 62
     1
100
AcDbBlockBegin
  2
*D25
 70
     1
 10
0.0
 20
0.0
 30
0.0
  3
*D25
  1

  0
LINE
  5
23EC
330
230C
100
AcDbEntity
  8
画層1
 62
     0
370
    -2
100
AcDbLine
 10
451.1512404554189
 20
263.3747838232785
 30
0.0
 11
451.1512404554189
 21
272.5808455923048
 31
0.0
  0
LINE
  5
23ED
330
230C
100
AcDbEntity
  8
画層1
 62
     0
370
    -2
100
AcDbLine
 10
440.1512404554189
 20
263.3747838232785
 30
0.0
 11
440.1512404554189
 21
272.5808455923048
 31
0.0
  0
LINE
  5
23EE
330
230C
100
AcDbEntity
  8
画層1
 62
     0
370
    -2
100
AcDbLine
 10
448.6512404554189
 20
271.3308455923048
 30
0.0
 11
442.6512404554189
 21
271.3308455923048
 31
0.0
  0
SOLID
  5
23EF
330
230C
100
AcDbEntity
  8
画層1
 62
     0
100
AcDbTrace
 10
448.6512404554189
 20
271.7475122589715
 30
0.0
 11
448.6512404554189
 21
270.9141789256381
 31
0.0
 12
451.1512404554189
 22
271.3308455923048
 32
0.0
 13
451.1512404554189
 23
271.3308455923048
 33
0.0
  0
SOLID
  5
23F0
330
230C
100
AcDbEntity
  8
画層1
 62
     0
100
AcDbTrace
 10
442.6512404554189
 20
271.7475122589715
 30
0.0
 11
442.6512404554189
 21
270.9141789256381
 31
0.0
 12
440.1512404554189
 22
271.3308455923048
 32
0.0
 13
440.1512404554189
 23
271.3308455923048
 33
0.0
  0
MTEXT
  5
23F1
330
230C
100
AcDbEntity
  8
画層1
 62
     0
100
AcDbMText
 10
445.6512404554189
 20
273.2058455923048
 30
0.0
 40
2.5
 41
0.0
 71
     5
 72
     1
  1
11
 73
     1
 44
1.0
  0
POINT
  5
23F2
330
230C
100
AcDbEntity
  8
Defpoints
 62
     0
100
AcDbPoint
 10
451.1512404554189
 20
262.7497838232785
 30
0.0
  0
POINT
  5
23F3
330
230C
100
AcDbEntity
  8
Defpoints
 62
     0
100
AcDbPoint
 10
440.1512404554189
 20
262.7497838232785
 30
0.0
  0
POINT
  5
23F4
330
230C
100
AcDbEntity
  8
Defpoints
 62
     0
100
AcDbPoint
 10
440.1512404554189
 20
271.3308455923048
 30
0.0
  0
ENDBLK
  5
2317
330
230C
100
AcDbEntity
  8
0
 62
     1
100
AcDbBlockEnd
  0
BLOCK
  5
2325
330
2319
100
AcDbEntity
  8
0
 62
     1
100
AcDbBlockBegin
  2
*D26
 70
     1
 10
0.0
 20
0.0
 30
0.0
  3
*D26
  1

  0
LINE
  5
23E1
330
2319
100
AcDbEntity
  8
画層1
 62
     0
370
    -2
100
AcDbLine
 10
442.6512404554189
 20
249.1247838232785
 30
0.0
 11
442.6512404554189
 21
239.170142982966
 31
0.0
  0
LINE
  5
23E2
330
2319
100
AcDbEntity
  8
画層1
 62
     0
370
    -2
100
AcDbLine
 10
448.6512404554189
 20
249.1247838232785
 30
0.0
 11
448.6512404554189
 21
239.170142982966
 31
0.0
  0
LINE
  5
23E3
330
2319
100
AcDbEntity
  8
画層1
 62
     0
370
    -2
100
AcDbLine
 10
440.1512404554189
 20
240.420142982966
 30
0.0
 11
437.6512404554189
 21
240.420142982966
 31
0.0
  0
LINE
  5
23E4
330
2319
100
AcDbEntity
  8
画層1
 62
     0
370
    -2
100
AcDbLine
 10
451.1512404554189
 20
240.420142982966
 30
0.0
 11
453.6512404554189
 21
240.420142982966
 31
0.0
  0
LINE
  5
23E5
330
2319
100
AcDbEntity
  8
画層1
 62
     0
370
    -2
100
AcDbLine
 10
442.6512404554189
 20
240.420142982966
 30
0.0
 11
448.6512404554189
 21
240.420142982966
 31
0.0
  0
SOLID
  5
23E6
330
2319
100
AcDbEntity
  8
画層1
 62
     0
100
AcDbTrace
 10
440.1512404554189
 20
240.8368096496326
 30
0.0
 11
440.1512404554189
 21
240.0034763162993
 31
0.0
 12
442.6512404554189
 22
240.420142982966
 32
0.0
 13
442.6512404554189
 23
240.420142982966
 33
0.0
  0
SOLID
  5
23E7
330
2319
100
AcDbEntity
  8
画層1
 62
     0
100
AcDbTrace
 10
451.1512404554189
 20
240.8368096496326
 30
0.0
 11
451.1512404554189
 21
240.0034763162993
 31
0.0
 12
448.6512404554189
 22
240.420142982966
 32
0.0
 13
448.6512404554189
 23
240.420142982966
 33
0.0
  0
MTEXT
  5
23E8
330
2319
100
AcDbEntity
  8
画層1
 62
     0
100
AcDbMText
 10
445.6512404554189
 20
242.295142982966
 30
0.0
 40
2.5
 41
0.0
 71
     5
 72
     1
  1
6
 73
     1
 44
1.0
  0
POINT
  5
23E9
330
2319
100
AcDbEntity
  8
Defpoints
 62
     0
100
AcDbPoint
 10
442.6512404554189
 20
249.7497838232785
 30
0.0
  0
POINT
  5
23EA
330
2319
100
AcDbEntity
  8
Defpoints
 62
     0
100
AcDbPoint
 10
448.6512404554189
 20
249.7497838232785
 30
0.0
  0
POINT
  5
23EB
330
2319
100
AcDbEntity
  8
Defpoints
 62
     0
100
AcDbPoint
 10
448.6512404554189
 20
240.420142982966
 30
0.0
  0
ENDBLK
  5
2326
330
2319
100
AcDbEntity
  8
0
 62
     1
100
AcDbBlockEnd
  0
BLOCK
  5
2334
330
2328
100
AcDbEntity
  8
0
 62
     1
100
AcDbBlockBegin
  2
*D27
 70
     1
 10
0.0
 20
0.0
 30
0.0
  3
*D27
  1

  0
LINE
  5
2419
330
2328
100
AcDbEntity
  8
画層1
 62
     0
370
    -2
100
AcDbLine
 10
570.2762404554189
 20
249.7497838232785
 30
0.0
 11
576.6322860406374
 21
249.7497838232785
 31
0.0
  0
LINE
  5
241A
330
2328
100
AcDbEntity
  8
画層1
 62
     0
370
    -2
100
AcDbLine
 10
567.7762404554189
 20
255.7497838232785
 30
0.0
 11
576.6322860406374
 21
255.7497838232785
 31
0.0
  0
LINE
  5
241B
330
2328
100
AcDbEntity
  8
画層1
 62
     0
370
    -2
100
AcDbLine
 10
575.3822860406374
 20
247.2497838232785
 30
0.0
 11
575.3822860406374
 21
244.7497838232785
 31
0.0
  0
LINE
  5
241C
330
2328
100
AcDbEntity
  8
画層1
 62
     0
370
    -2
100
AcDbLine
 10
575.3822860406375
 20
258.2497838232785
 30
0.0
 11
575.3822860406375
 21
260.7497838232785
 31
0.0
  0
LINE
  5
241D
330
2328
100
AcDbEntity
  8
画層1
 62
     0
370
    -2
100
AcDbLine
 10
575.3822860406374
 20
249.7497838232785
 30
0.0
 11
575.3822860406374
 21
255.7497838232785
 31
0.0
  0
SOLID
  5
241E
330
2328
100
AcDbEntity
  8
画層1
 62
     0
100
AcDbTrace
 10
574.9656193739707
 20
247.2497838232785
 30
0.0
 11
575.798952707304
 21
247.2497838232785
 31
0.0
 12
575.3822860406374
 22
249.7497838232785
 32
0.0
 13
575.3822860406374
 23
249.7497838232785
 33
0.0
  0
SOLID
  5
241F
330
2328
100
AcDbEntity
  8
画層1
 62
     0
100
AcDbTrace
 10
574.9656193739708
 20
258.2497838232785
 30
0.0
 11
575.7989527073041
 21
258.2497838232785
 31
0.0
 12
575.3822860406374
 22
255.7497838232785
 32
0.0
 13
575.3822860406374
 23
255.7497838232785
 33
0.0
  0
MTEXT
  5
2420
330
2328
100
AcDbEntity
  8
画層1
 62
     0
100
AcDbMText
 10
573.5072860406374
 20
252.7497838232786
 30
0.0
 40
2.5
 41
0.0
 71
     5
 72
     1
  1
6
 11
0.0000000000000001
 21
1.0
 31
0.0
 73
     1
 44
1.0
  0
POINT
  5
2421
330
2328
100
AcDbEntity
  8
Defpoints
 62
     0
100
AcDbPoint
 10
569.6512404554189
 20
249.7497838232785
 30
0.0
  0
POINT
  5
2422
330
2328
100
AcDbEntity
  8
Defpoints
 62
     0
100
AcDbPoint
 10
567.1512404554189
 20
255.7497838232785
 30
0.0
  0
POINT
  5
2423
330
2328
100
AcDbEntity
  8
Defpoints
 62
     0
100
AcDbPoint
 10
575.3822860406374
 20
255.7497838232785
 30
0.0
  0
ENDBLK
  5
2335
330
2328
100
AcDbEntity
  8
0
 62
     1
100
AcDbBlockEnd
  0
BLOCK
  5
2341
330
2337
100
AcDbEntity
  8
0
 62
     1
100
AcDbBlockBegin
  2
*D28
 70
     1
 10
0.0
 20
0.0
 30
0.0
  3
*D28
  1

  0
LINE
  5
2410
330
2337
100
AcDbEntity
  8
画層1
 62
     0
370
    -2
100
AcDbLine
 10
577.2572860406373
 20
249.7497838232785
 30
0.0
 11
583.6049344706408
 21
249.7497838232785
 31
0.0
  0
LINE
  5
2411
330
2337
100
AcDbEntity
  8
画層1
 62
     0
370
    -2
100
AcDbLine
 10
570.2762404554189
 20
262.7497838232785
 30
0.0
 11
583.6049344706409
 21
262.7497838232785
 31
0.0
  0
LINE
  5
2412
330
2337
100
AcDbEntity
  8
画層1
 62
     0
370
    -2
100
AcDbLine
 10
582.3549344706408
 20
252.2497838232785
 30
0.0
 11
582.3549344706409
 21
260.2497838232785
 31
0.0
  0
SOLID
  5
2413
330
2337
100
AcDbEntity
  8
画層1
 62
     0
100
AcDbTrace
 10
581.9382678039742
 20
252.2497838232785
 30
0.0
 11
582.7716011373074
 21
252.2497838232785
 31
0.0
 12
582.3549344706408
 22
249.7497838232785
 32
0.0
 13
582.3549344706408
 23
249.7497838232785
 33
0.0
  0
SOLID
  5
2414
330
2337
100
AcDbEntity
  8
画層1
 62
     0
100
AcDbTrace
 10
581.9382678039743
 20
260.2497838232785
 30
0.0
 11
582.7716011373076
 21
260.2497838232785
 31
0.0
 12
582.3549344706409
 22
262.7497838232785
 32
0.0
 13
582.3549344706409
 23
262.7497838232785
 33
0.0
  0
MTEXT
  5
2415
330
2337
100
AcDbEntity
  8
画層1
 62
     0
100
AcDbMText
 10
580.4799344706408
 20
256.2497838232786
 30
0.0
 40
2.5
 41
0.0
 71
     5
 72
     1
  1
13
 11
0.0000000000000001
 21
1.0
 31
0.0
 73
     1
 44
1.0
  0
POINT
  5
2416
330
2337
100
AcDbEntity
  8
Defpoints
 62
     0
100
AcDbPoint
 10
576.6322860406374
 20
249.7497838232785
 30
0.0
  0
POINT
  5
2417
330
2337
100
AcDbEntity
  8
Defpoints
 62
     0
100
AcDbPoint
 10
569.6512404554189
 20
262.7497838232785
 30
0.0
  0
POINT
  5
2418
330
2337
100
AcDbEntity
  8
Defpoints
 62
     0
100
AcDbPoint
 10
582.3549344706409
 20
262.7497838232785
 30
0.0
  0
ENDBLK
  5
2342
330
2337
100
AcDbEntity
  8
0
 62
     1
100
AcDbBlockEnd
  0
BLOCK
  5
234E
330
2344
100
AcDbEntity
  8
0
 62
     1
100
AcDbBlockBegin
  2
*D29
 70
     1
 10
0.0
 20
0.0
 30
0.0
  3
*D29
  1

  0
LINE
  5
2407
330
2344
100
AcDbEntity
  8
画層1
 62
     0
370
    -2
100
AcDbLine
 10
584.2299344706408
 20
249.7497838232785
 30
0.0
 11
590.5775829006444
 21
249.7497838232785
 31
0.0
  0
LINE
  5
2408
330
2344
100
AcDbEntity
  8
画層1
 62
     0
370
    -2
100
AcDbLine
 10
570.2762404554189
 20
284.7497838232785
 30
0.0
 11
590.5775829006445
 21
284.7497838232785
 31
0.0
  0
LINE
  5
2409
330
2344
100
AcDbEntity
  8
画層1
 62
     0
370
    -2
100
AcDbLine
 10
589.3275829006443
 20
252.2497838232785
 30
0.0
 11
589.3275829006445
 21
282.2497838232785
 31
0.0
  0
SOLID
  5
240A
330
2344
100
AcDbEntity
  8
画層1
 62
     0
100
AcDbTrace
 10
588.9109162339777
 20
252.2497838232785
 30
0.0
 11
589.744249567311
 21
252.2497838232785
 31
0.0
 12
589.3275829006443
 22
249.7497838232785
 32
0.0
 13
589.3275829006443
 23
249.7497838232785
 33
0.0
  0
SOLID
  5
240B
330
2344
100
AcDbEntity
  8
画層1
 62
     0
100
AcDbTrace
 10
588.9109162339779
 20
282.2497838232785
 30
0.0
 11
589.7442495673111
 21
282.2497838232785
 31
0.0
 12
589.3275829006445
 22
284.7497838232785
 32
0.0
 13
589.3275829006445
 23
284.7497838232785
 33
0.0
  0
MTEXT
  5
240C
330
2344
100
AcDbEntity
  8
画層1
 62
     0
100
AcDbMText
 10
587.4525829006444
 20
267.2497838232786
 30
0.0
 40
2.5
 41
0.0
 71
     5
 72
     1
  1
35
 11
0.0000000000000001
 21
1.0
 31
0.0
 73
     1
 44
1.0
  0
POINT
  5
240D
330
2344
100
AcDbEntity
  8
Defpoints
 62
     0
100
AcDbPoint
 10
583.6049344706408
 20
249.7497838232785
 30
0.0
  0
POINT
  5
240E
330
2344
100
AcDbEntity
  8
Defpoints
 62
     0
100
AcDbPoint
 10
569.6512404554189
 20
284.7497838232785
 30
0.0
  0
POINT
  5
240F
330
2344
100
AcDbEntity
  8
Defpoints
 62
     0
100
AcDbPoint
 10
589.3275829006445
 20
284.7497838232785
 30
0.0
  0
ENDBLK
  5
234F
330
2344
100
AcDbEntity
  8
0
 62
     1
100
AcDbBlockEnd
  0
BLOCK
  5
235B
330
2351
100
AcDbEntity
  8
0
 62
     1
100
AcDbBlockBegin
  2
*D30
 70
     1
 10
0.0
 20
0.0
 30
0.0
  3
*D30
  1

  0
LINE
  5
23D8
330
2351
100
AcDbEntity
  8
画層1
 62
     0
370
    -2
100
AcDbLine
 10
591.2025829006444
 20
249.7497838232785
 30
0.0
 11
599.3810008095378
 21
249.7497838232785
 31
0.0
  0
LINE
  5
23D9
330
2351
100
AcDbEntity
  8
画層1
 62
     0
370
    -2
100
AcDbLine
 10
570.2762404554189
 20
321.7497838232785
 30
0.0
 11
599.3810008095379
 21
321.7497838232785
 31
0.0
  0
LINE
  5
23DA
330
2351
100
AcDbEntity
  8
画層1
 62
     0
370
    -2
100
AcDbLine
 10
598.1310008095378
 20
252.2497838232785
 30
0.0
 11
598.1310008095379
 21
319.2497838232785
 31
0.0
  0
SOLID
  5
23DB
330
2351
100
AcDbEntity
  8
画層1
 62
     0
100
AcDbTrace
 10
597.7143341428711
 20
252.2497838232785
 30
0.0
 11
598.5476674762044
 21
252.2497838232785
 31
0.0
 12
598.1310008095378
 22
249.7497838232785
 32
0.0
 13
598.1310008095378
 23
249.7497838232785
 33
0.0
  0
SOLID
  5
23DC
330
2351
100
AcDbEntity
  8
画層1
 62
     0
100
AcDbTrace
 10
597.7143341428712
 20
319.2497838232785
 30
0.0
 11
598.5476674762045
 21
319.2497838232785
 31
0.0
 12
598.1310008095379
 22
321.7497838232785
 32
0.0
 13
598.1310008095379
 23
321.7497838232785
 33
0.0
  0
MTEXT
  5
23DD
330
2351
100
AcDbEntity
  8
画層1
 62
     0
100
AcDbMText
 10
596.2560008095378
 20
285.7497838232786
 30
0.0
 40
2.5
 41
0.0
 71
     5
 72
     1
  1
72
 11
0.0000000000000001
 21
1.0
 31
0.0
 73
     1
 44
1.0
  0
POINT
  5
23DE
330
2351
100
AcDbEntity
  8
Defpoints
 62
     0
100
AcDbPoint
 10
590.5775829006444
 20
249.7497838232785
 30
0.0
  0
POINT
  5
23DF
330
2351
100
AcDbEntity
  8
Defpoints
 62
     0
100
AcDbPoint
 10
569.6512404554189
 20
321.7497838232785
 30
0.0
  0
POINT
  5
23E0
330
2351
100
AcDbEntity
  8
Defpoints
 62
     0
100
AcDbPoint
 10
598.1310008095379
 20
321.7497838232785
 30
0.0
  0
ENDBLK
  5
235C
330
2351
100
AcDbEntity
  8
0
 62
     1
100
AcDbBlockEnd
  0
BLOCK
  5
2368
330
235E
100
AcDbEntity
  8
0
 62
     1
100
AcDbBlockBegin
  2
*D31
 70
     1
 10
0.0
 20
0.0
 30
0.0
  3
*D31
  1

  0
LINE
  5
23CF
330
235E
100
AcDbEntity
  8
画層1
 62
     0
370
    -2
100
AcDbLine
 10
588.7025829006445
 20
284.7497838232785
 30
0.0
 11
588.0775829006445
 21
284.7497838232785
 31
0.0
  0
LINE
  5
23D0
330
235E
100
AcDbEntity
  8
画層1
 62
     0
370
    -2
100
AcDbLine
 10
543.2762404554189
 20
307.7497838232785
 30
0.0
 11
590.5775829006445
 21
307.7497838232785
 31
0.0
  0
LINE
  5
23D1
330
235E
100
AcDbEntity
  8
画層1
 62
     0
370
    -2
100
AcDbLine
 10
589.3275829006445
 20
287.2497838232785
 30
0.0
 11
589.3275829006445
 21
305.2497838232785
 31
0.0
  0
SOLID
  5
23D2
330
235E
100
AcDbEntity
  8
画層1
 62
     0
100
AcDbTrace
 10
588.9109162339779
 20
287.2497838232785
 30
0.0
 11
589.7442495673111
 21
287.2497838232785
 31
0.0
 12
589.3275829006445
 22
284.7497838232785
 32
0.0
 13
589.3275829006445
 23
284.7497838232785
 33
0.0
  0
SOLID
  5
23D3
330
235E
100
AcDbEntity
  8
画層1
 62
     0
100
AcDbTrace
 10
588.9109162339779
 20
305.2497838232785
 30
0.0
 11
589.7442495673111
 21
305.2497838232785
 31
0.0
 12
589.3275829006445
 22
307.7497838232785
 32
0.0
 13
589.3275829006445
 23
307.7497838232785
 33
0.0
  0
MTEXT
  5
23D4
330
235E
100
AcDbEntity
  8
画層1
 62
     0
100
AcDbMText
 10
587.4525829006444
 20
296.2497838232786
 30
0.0
 40
2.5
 41
0.0
 71
     5
 72
     1
  1
23
 11
0.0000000000000001
 21
1.0
 31
0.0
 73
     1
 44
1.0
  0
POINT
  5
23D5
330
235E
100
AcDbEntity
  8
Defpoints
 62
     0
100
AcDbPoint
 10
589.3275829006445
 20
284.7497838232785
 30
0.0
  0
POINT
  5
23D6
330
235E
100
AcDbEntity
  8
Defpoints
 62
     0
100
AcDbPoint
 10
542.6512404554189
 20
307.7497838232785
 30
0.0
  0
POINT
  5
23D7
330
235E
100
AcDbEntity
  8
Defpoints
 62
     0
100
AcDbPoint
 10
589.3275829006445
 20
307.7497838232785
 30
0.0
  0
ENDBLK
  5
2369
330
235E
100
AcDbEntity
  8
0
 62
     1
100
AcDbBlockEnd
  0
BLOCK
  5
2375
330
236B
100
AcDbEntity
  8
0
 62
     1
100
AcDbBlockBegin
  2
*D32
 70
     1
 10
0.0
 20
0.0
 30
0.0
  3
*D32
  1

  0
LINE
  5
23FE
330
236B
100
AcDbEntity
  8
画層1
 62
     0
370
    -2
100
AcDbLine
 10
656.5057788644678
 20
249.7497838232785
 30
0.0
 11
664.2107444952411
 21
249.7497838232785
 31
0.0
  0
LINE
  5
23FF
330
236B
100
AcDbEntity
  8
画層1
 62
     0
370
    -2
100
AcDbLine
 10
642.0057788644678
 20
262.7497838232785
 30
0.0
 11
664.2107444952412
 21
262.7497838232785
 31
0.0
  0
LINE
  5
2400
330
236B
100
AcDbEntity
  8
画層1
 62
     0
370
    -2
100
AcDbLine
 10
662.960744495241
 20
252.2497838232785
 30
0.0
 11
662.9607444952412
 21
260.2497838232785
 31
0.0
  0
SOLID
  5
2401
330
236B
100
AcDbEntity
  8
画層1
 62
     0
100
AcDbTrace
 10
662.5440778285744
 20
252.2497838232785
 30
0.0
 11
663.3774111619077
 21
252.2497838232785
 31
0.0
 12
662.960744495241
 22
249.7497838232785
 32
0.0
 13
662.960744495241
 23
249.7497838232785
 33
0.0
  0
SOLID
  5
2402
330
236B
100
AcDbEntity
  8
画層1
 62
     0
100
AcDbTrace
 10
662.5440778285746
 20
260.2497838232785
 30
0.0
 11
663.3774111619078
 21
260.2497838232785
 31
0.0
 12
662.9607444952412
 22
262.7497838232785
 32
0.0
 13
662.9607444952412
 23
262.7497838232785
 33
0.0
  0
MTEXT
  5
2403
330
236B
100
AcDbEntity
  8
画層1
 62
     0
100
AcDbMText
 10
661.0857444952411
 20
256.2497838232786
 30
0.0
 40
2.5
 41
0.0
 71
     5
 72
     1
  1
13
 11
0.0000000000000001
 21
1.0
 31
0.0
 73
     1
 44
1.0
  0
POINT
  5
2404
330
236B
100
AcDbEntity
  8
Defpoints
 62
     0
100
AcDbPoint
 10
655.8807788644678
 20
249.7497838232785
 30
0.0
  0
POINT
  5
2405
330
236B
100
AcDbEntity
  8
Defpoints
 62
     0
100
AcDbPoint
 10
641.3807788644678
 20
262.7497838232785
 30
0.0
  0
POINT
  5
2406
330
236B
100
AcDbEntity
  8
Defpoints
 62
     0
100
AcDbPoint
 10
662.9607444952412
 20
262.7497838232785
 30
0.0
  0
ENDBLK
  5
2376
330
236B
100
AcDbEntity
  8
0
 62
     1
100
AcDbBlockEnd
  0
BLOCK
  5
2382
330
2378
100
AcDbEntity
  8
0
 62
     1
100
AcDbBlockBegin
  2
*D33
 70
     1
 10
0.0
 20
0.0
 30
0.0
  3
*D33
  1

  0
LINE
  5
23F5
330
2378
100
AcDbEntity
  8
画層1
 62
     0
370
    -2
100
AcDbLine
 10
664.835744495241
 20
249.7497838232785
 30
0.0
 11
671.9709508012337
 21
249.7497838232785
 31
0.0
  0
LINE
  5
23F6
330
2378
100
AcDbEntity
  8
画層1
 62
     0
370
    -2
100
AcDbLine
 10
656.5057788644678
 20
284.7497838232785
 30
0.0
 11
671.9709508012337
 21
284.7497838232785
 31
0.0
  0
LINE
  5
23F7
330
2378
100
AcDbEntity
  8
画層1
 62
     0
370
    -2
100
AcDbLine
 10
670.7209508012336
 20
252.2497838232785
 30
0.0
 11
670.7209508012338
 21
282.2497838232785
 31
0.0
  0
SOLID
  5
23F8
330
2378
100
AcDbEntity
  8
画層1
 62
     0
100
AcDbTrace
 10
670.304284134567
 20
252.2497838232785
 30
0.0
 11
671.1376174679003
 21
252.2497838232785
 31
0.0
 12
670.7209508012336
 22
249.7497838232785
 32
0.0
 13
670.7209508012336
 23
249.7497838232785
 33
0.0
  0
SOLID
  5
23F9
330
2378
100
AcDbEntity
  8
画層1
 62
     0
100
AcDbTrace
 10
670.3042841345672
 20
282.2497838232785
 30
0.0
 11
671.1376174679004
 21
282.2497838232785
 31
0.0
 12
670.7209508012338
 22
284.7497838232785
 32
0.0
 13
670.7209508012338
 23
284.7497838232785
 33
0.0
  0
MTEXT
  5
23FA
330
2378
100
AcDbEntity
  8
画層1
 62
     0
100
AcDbMText
 10
668.8459508012337
 20
267.2497838232786
 30
0.0
 40
2.5
 41
0.0
 71
     5
 72
     1
  1
35
 11
0.0000000000000001
 21
1.0
 31
0.0
 73
     1
 44
1.0
  0
POINT
  5
23FB
330
2378
100
AcDbEntity
  8
Defpoints
 62
     0
100
AcDbPoint
 10
664.2107444952411
 20
249.7497838232785
 30
0.0
  0
POINT
  5
23FC
330
2378
100
AcDbEntity
  8
Defpoints
 62
     0
100
AcDbPoint
 10
655.8807788644678
 20
284.7497838232785
 30
0.0
  0
POINT
  5
23FD
330
2378
100
AcDbEntity
  8
Defpoints
 62
     0
100
AcDbPoint
 10
670.7209508012338
 20
284.7497838232785
 30
0.0
  0
ENDBLK
  5
2383
330
2378
100
AcDbEntity
  8
0
 62
     1
100
AcDbBlockEnd
  0
BLOCK
  5
238F
330
2385
100
AcDbEntity
  8
0
 62
     1
100
AcDbBlockBegin
  2
*D34
 70
     1
 10
0.0
 20
0.0
 30
0.0
  3
*D34
  1

  0
LINE
  5
23C6
330
2385
100
AcDbEntity
  8
画層1
 62
     0
370
    -2
100
AcDbLine
 10
670.0959508012338
 20
284.7497838232785
 30
0.0
 11
669.4709508012338
 21
284.7497838232785
 31
0.0
  0
LINE
  5
23C7
330
2385
100
AcDbEntity
  8
画層1
 62
     0
370
    -2
100
AcDbLine
 10
636.5057788644678
 20
307.7497838232785
 30
0.0
 11
671.9709508012337
 21
307.7497838232785
 31
0.0
  0
LINE
  5
23C8
330
2385
100
AcDbEntity
  8
画層1
 62
     0
370
    -2
100
AcDbLine
 10
670.7209508012338
 20
287.2497838232785
 30
0.0
 11
670.7209508012338
 21
305.2497838232785
 31
0.0
  0
SOLID
  5
23C9
330
2385
100
AcDbEntity
  8
画層1
 62
     0
100
AcDbTrace
 10
670.3042841345672
 20
287.2497838232785
 30
0.0
 11
671.1376174679004
 21
287.2497838232785
 31
0.0
 12
670.7209508012338
 22
284.7497838232785
 32
0.0
 13
670.7209508012338
 23
284.7497838232785
 33
0.0
  0
SOLID
  5
23CA
330
2385
100
AcDbEntity
  8
画層1
 62
     0
100
AcDbTrace
 10
670.3042841345672
 20
305.2497838232785
 30
0.0
 11
671.1376174679004
 21
305.2497838232785
 31
0.0
 12
670.7209508012338
 22
307.7497838232785
 32
0.0
 13
670.7209508012338
 23
307.7497838232785
 33
0.0
  0
MTEXT
  5
23CB
330
2385
100
AcDbEntity
  8
画層1
 62
     0
100
AcDbMText
 10
668.8459508012337
 20
296.2497838232786
 30
0.0
 40
2.5
 41
0.0
 71
     5
 72
     1
  1
23
 11
0.0000000000000001
 21
1.0
 31
0.0
 73
     1
 44
1.0
  0
POINT
  5
23CC
330
2385
100
AcDbEntity
  8
Defpoints
 62
     0
100
AcDbPoint
 10
670.7209508012338
 20
284.7497838232785
 30
0.0
  0
POINT
  5
23CD
330
2385
100
AcDbEntity
  8
Defpoints
 62
     0
100
AcDbPoint
 10
635.8807788644678
 20
307.7497838232785
 30
0.0
  0
POINT
  5
23CE
330
2385
100
AcDbEntity
  8
Defpoints
 62
     0
100
AcDbPoint
 10
670.7209508012338
 20
307.7497838232785
 30
0.0
  0
ENDBLK
  5
2390
330
2385
100
AcDbEntity
  8
0
 62
     1
100
AcDbBlockEnd
  0
BLOCK
  5
23A5
330
239B
100
AcDbEntity
  8
0
 62
     1
100
AcDbBlockBegin
  2
*D35
 70
     1
 10
0.0
 20
0.0
 30
0.0
  3
*D35
  1

  0
LINE
  5
23BD
330
239B
100
AcDbEntity
  8
画層1
 62
     0
370
    -2
100
AcDbLine
 10
468.6512404554189
 20
285.3747838232785
 30
0.0
 11
468.6512404554189
 21
334.1169762460289
 31
0.0
  0
LINE
  5
23BE
330
239B
100
AcDbEntity
  8
画層1
 62
     0
370
    -2
100
AcDbLine
 10
538.6512404554189
 20
285.3747838232785
 30
0.0
 11
538.6512404554189
 21
334.1169762460289
 31
0.0
  0
LINE
  5
23BF
330
239B
100
AcDbEntity
  8
画層1
 62
     0
370
    -2
100
AcDbLine
 10
471.1512404554189
 20
332.8669762460289
 30
0.0
 11
536.1512404554189
 21
332.8669762460289
 31
0.0
  0
SOLID
  5
23C0
330
239B
100
AcDbEntity
  8
画層1
 62
     0
100
AcDbTrace
 10
471.1512404554189
 20
333.2836429126956
 30
0.0
 11
471.1512404554189
 21
332.4503095793622
 31
0.0
 12
468.6512404554189
 22
332.8669762460289
 32
0.0
 13
468.6512404554189
 23
332.8669762460289
 33
0.0
  0
SOLID
  5
23C1
330
239B
100
AcDbEntity
  8
画層1
 62
     0
100
AcDbTrace
 10
536.1512404554189
 20
333.2836429126956
 30
0.0
 11
536.1512404554189
 21
332.4503095793622
 31
0.0
 12
538.6512404554189
 22
332.8669762460289
 32
0.0
 13
538.6512404554189
 23
332.8669762460289
 33
0.0
  0
MTEXT
  5
23C2
330
239B
100
AcDbEntity
  8
画層1
 62
     0
100
AcDbMText
 10
503.6512404554189
 20
334.7419762460289
 30
0.0
 40
2.5
 41
0.0
 71
     5
 72
     1
  1
70
 73
     1
 44
1.0
  0
POINT
  5
23C3
330
239B
100
AcDbEntity
  8
Defpoints
 62
     0
100
AcDbPoint
 10
468.6512404554189
 20
284.7497838232785
 30
0.0
  0
POINT
  5
23C4
330
239B
100
AcDbEntity
  8
Defpoints
 62
     0
100
AcDbPoint
 10
538.6512404554189
 20
284.7497838232785
 30
0.0
  0
POINT
  5
23C5
330
239B
100
AcDbEntity
  8
Defpoints
 62
     0
100
AcDbPoint
 10
538.6512404554189
 20
332.8669762460289
 30
0.0
  0
ENDBLK
  5
23A6
330
239B
100
AcDbEntity
  8
0
 62
     1
100
AcDbBlockEnd
  0
BLOCK
  5
23B2
330
23A8
100
AcDbEntity
  8
0
 62
     1
100
AcDbBlockBegin
  2
*D36
 70
     1
 10
0.0
 20
0.0
 30
0.0
  3
*D36
  1

  0
LINE
  5
23B4
330
23A8
100
AcDbEntity
  8
画層1
 62
     0
370
    -2
100
AcDbLine
 10
607.8807788644678
 20
285.3747838232785
 30
0.0
 11
607.8807788644678
 21
327.2136169436202
 31
0.0
  0
LINE
  5
23B5
330
23A8
100
AcDbEntity
  8
画層1
 62
     0
370
    -2
100
AcDbLine
 10
655.8807788644678
 20
285.3747838232785
 30
0.0
 11
655.8807788644678
 21
327.2136169436202
 31
0.0
  0
LINE
  5
23B6
330
23A8
100
AcDbEntity
  8
画層1
 62
     0
370
    -2
100
AcDbLine
 10
610.3807788644679
 20
325.9636169436201
 30
0.0
 11
653.3807788644678
 21
325.9636169436201
 31
0.0
  0
SOLID
  5
23B7
330
23A8
100
AcDbEntity
  8
画層1
 62
     0
100
AcDbTrace
 10
610.3807788644679
 20
326.3802836102868
 30
0.0
 11
610.3807788644679
 21
325.5469502769535
 31
0.0
 12
607.8807788644678
 22
325.9636169436201
 32
0.0
 13
607.8807788644678
 23
325.9636169436201
 33
0.0
  0
SOLID
  5
23B8
330
23A8
100
AcDbEntity
  8
画層1
 62
     0
100
AcDbTrace
 10
653.3807788644678
 20
326.3802836102868
 30
0.0
 11
653.3807788644678
 21
325.5469502769535
 31
0.0
 12
655.8807788644678
 22
325.9636169436201
 32
0.0
 13
655.8807788644678
 23
325.9636169436201
 33
0.0
  0
MTEXT
  5
23B9
330
23A8
100
AcDbEntity
  8
画層1
 62
     0
100
AcDbMText
 10
631.8807788644678
 20
327.8386169436202
 30
0.0
 40
2.5
 41
0.0
 71
     5
 72
     1
  1
48
 73
     1
 44
1.0
  0
POINT
  5
23BA
330
23A8
100
AcDbEntity
  8
Defpoints
 62
     0
100
AcDbPoint
 10
607.8807788644678
 20
284.7497838232785
 30
0.0
  0
POINT
  5
23BB
330
23A8
100
AcDbEntity
  8
Defpoints
 62
     0
100
AcDbPoint
 10
655.8807788644678
 20
284.7497838232785
 30
0.0
  0
POINT
  5
23BC
330
23A8
100
AcDbEntity
  8
Defpoints
 62
     0
100
AcDbPoint
 10
655.8807788644678
 20
325.9636169436201
 30
0.0
  0
ENDBLK
  5
23B3
330
23A8
100
AcDbEntity
  8
0
 62
     1
100
AcDbBlockEnd
  0
ENDSEC
  0
SECTION
  2
ENTITIES
  0
XLINE
  5
CD8
330
1F
100
AcDbEntity
  8
0
 62
     1
100
AcDbXline
 10
356.217670706203
 20
2015.830258785447
 30
0.0
 11
1.0
 21
0.0
 31
0.0
  0
LINE
  5
1A0B
330
1F
100
AcDbEntity
  8
画層1
100
AcDbLine
 10
471.1512404554189
 20
483.7592431354277
 30
0.0
 11
471.151240455419
 21
499.5592431354276
 31
0.0
  0
LINE
  5
1A0C
330
1F
100
AcDbEntity
  8
画層1
100
AcDbLine
 10
473.1512404554189
 20
501.5592431354277
 30
0.0
 11
534.151240455419
 21
501.5592431354277
 31
0.0
  0
LINE
  5
1A0D
330
1F
100
AcDbEntity
  8
画層1
100
AcDbLine
 10
536.151240455419
 20
499.5592431354277
 30
0.0
 11
536.1512404554189
 21
483.7592431354277
 31
0.0
  0
LINE
  5
1A0F
330
1F
100
AcDbEntity
  8
画層1
100
AcDbLine
 10
471.1512404554189
 20
483.7592431354277
 30
0.0
 11
487.8512404554188
 21
483.7592431354277
 31
0.0
  0
LINE
  5
1A15
330
1F
100
AcDbEntity
  8
画層1
100
AcDbLine
 10
494.9012404554189
 20
483.7592431354277
 30
0.0
 11
512.4012404554189
 21
483.7592431354277
 31
0.0
  0
LINE
  5
1A16
330
1F
100
AcDbEntity
  8
画層1
100
AcDbLine
 10
519.4512404554188
 20
483.7592431354277
 30
0.0
 11
536.1512404554189
 21
483.7592431354277
 31
0.0
  0
LINE
  5
1A17
330
1F
100
AcDbEntity
  8
画層1
100
AcDbLine
 10
494.9012404554189
 20
483.7592431354277
 30
0.0
 11
494.9012404554189
 21
487.1592431354277
 31
0.0
  0
LINE
  5
1A18
330
1F
100
AcDbEntity
  8
画層1
100
AcDbLine
 10
512.4012404554189
 20
483.7592431354277
 30
0.0
 11
512.4012404554189
 21
487.1592431354277
 31
0.0
  0
LINE
  5
1A19
330
1F
100
AcDbEntity
  8
画層1
100
AcDbLine
 10
494.9012404554189
 20
487.1592431354277
 30
0.0
 11
486.1512404554189
 21
487.1592431354277
 31
0.0
  0
LINE
  5
1A1A
330
1F
100
AcDbEntity
  8
画層1
100
AcDbLine
 10
512.4012404554189
 20
487.1592431354277
 30
0.0
 11
521.1512404554189
 21
487.1592431354277
 31
0.0
  0
LINE
  5
1A1C
330
1F
100
AcDbEntity
  8
画層1
100
AcDbLine
 10
486.1512404554189
 20
487.1592431354277
 30
0.0
 11
486.1512404554189
 21
486.1592431354276
 31
0.0
  0
LINE
  5
1A1D
330
1F
100
AcDbEntity
  8
画層1
100
AcDbLine
 10
521.1512404554189
 20
487.1592431354277
 30
0.0
 11
521.1512404554189
 21
486.1592431354276
 31
0.0
  0
LINE
  5
1A1F
330
1F
100
AcDbEntity
  8
画層1
100
AcDbLine
 10
486.1512404554189
 20
486.1592431354276
 30
0.0
 11
487.8512404554188
 21
486.1592431354276
 31
0.0
  0
LINE
  5
1A20
330
1F
100
AcDbEntity
  8
画層1
100
AcDbLine
 10
487.8512404554188
 20
486.1592431354276
 30
0.0
 11
487.8512404554188
 21
483.7592431354277
 31
0.0
  0
LINE
  5
1A22
330
1F
100
AcDbEntity
  8
画層1
100
AcDbLine
 10
521.1512404554189
 20
486.1592431354276
 30
0.0
 11
519.4512404554188
 21
486.1592431354276
 31
0.0
  0
LINE
  5
1A23
330
1F
100
AcDbEntity
  8
画層1
100
AcDbLine
 10
519.4512404554188
 20
486.1592431354276
 30
0.0
 11
519.4512404554188
 21
483.7592431354277
 31
0.0
  0
ARC
  5
1A24
330
1F
100
AcDbEntity
  8
画層1
100
AcDbCircle
 10
473.1512404554189
 20
499.5592431354276
 30
0.0
 40
2.0
100
AcDbArc
 50
90.0
 51
180.0
  0
ARC
  5
1A25
330
1F
100
AcDbEntity
  8
画層1
100
AcDbCircle
 10
534.151240455419
 20
499.5592431354277
 30
0.0
 40
2.0
100
AcDbArc
 50
0.0
 51
90.0
  0
CIRCLE
  5
1A29
330
1F
100
AcDbEntity
  8
画層1
100
AcDbCircle
 10
492.6512404554189
 20
491.7592431354277
 30
0.0
 40
3.25
  0
CIRCLE
  5
1A2A
330
1F
100
AcDbEntity
  8
画層1
100
AcDbCircle
 10
514.6512404554189
 20
491.7592431354277
 30
0.0
 40
3.25
  0
CIRCLE
  5
1A2B
330
1F
100
AcDbEntity
  8
画層1
100
AcDbCircle
 10
492.6512404554189
 20
491.7592431354277
 30
0.0
 40
1.75
  0
CIRCLE
  5
1A2C
330
1F
100
AcDbEntity
  8
画層1
100
AcDbCircle
 10
514.6512404554189
 20
491.7592431354277
 30
0.0
 40
1.75
  0
LINE
  5
1A2F
330
1F
100
AcDbEntity
  8
画層1
100
AcDbLine
 10
532.8012404554189
 20
483.7592431354277
 30
0.0
 11
532.8012404554189
 21
482.2592431354276
 31
0.0
  0
LINE
  5
1A30
330
1F
100
AcDbEntity
  8
画層1
100
AcDbLine
 10
528.5012404554189
 20
483.7592431354277
 30
0.0
 11
528.5012404554189
 21
482.2592431354276
 31
0.0
  0
LINE
  5
1A31
330
1F
100
AcDbEntity
  8
画層1
100
AcDbLine
 10
528.5012404554189
 20
482.2592431354276
 30
0.0
 11
532.8012404554189
 21
482.2592431354276
 31
0.0
  0
LINE
  5
1A32
330
1F
100
AcDbEntity
  8
画層1
100
AcDbLine
 10
503.6512404554189
 20
506.5592431354278
 30
0.0
 11
503.6512404554189
 21
478.7592431354276
 31
0.0
  0
LINE
  5
1A36
330
1F
100
AcDbEntity
  8
画層1
100
AcDbLine
 10
527.1512404554189
 20
506.5592431354278
 30
0.0
 11
521.1512404554189
 21
506.5592431354278
 31
0.0
  0
LINE
  5
1A37
330
1F
100
AcDbEntity
  8
画層1
100
AcDbLine
 10
519.1512404554189
 20
504.5592431354278
 30
0.0
 11
519.1512404554189
 21
502.5592431354278
 31
0.0
  0
LINE
  5
1A39
330
1F
100
AcDbEntity
  8
画層1
100
AcDbLine
 10
529.1512404554189
 20
504.5592431354277
 30
0.0
 11
529.1512404554189
 21
502.5592431354278
 31
0.0
  0
LINE
  5
1A3A
330
1F
100
AcDbEntity
  8
画層1
100
AcDbLine
 10
519.1512404554189
 20
502.5592431354278
 30
0.0
 11
529.1512404554189
 21
502.5592431354278
 31
0.0
  0
ARC
  5
1A3B
330
1F
100
AcDbEntity
  8
画層1
100
AcDbCircle
 10
521.1512404554189
 20
504.5592431354278
 30
0.0
 40
2.0
100
AcDbArc
 50
90.0
 51
180.0
  0
ARC
  5
1A3C
330
1F
100
AcDbEntity
  8
画層1
100
AcDbCircle
 10
527.1512404554189
 20
504.5592431354277
 30
0.0
 40
2.0
100
AcDbArc
 50
0.0
 51
89.99999999999959
  0
LINE
  5
1A3D
330
1F
100
AcDbEntity
  8
画層1
100
AcDbLine
 10
529.1512404554189
 20
502.5592431354278
 30
0.0
 11
529.1861399521215
 21
501.5598523084086
 31
0.0
  0
LINE
  5
1A3E
330
1F
100
AcDbEntity
  8
画層1
100
AcDbLine
 10
529.1512404554189
 20
502.5592431354278
 30
0.0
 11
519.1573321852279
 21
502.2102481684028
 31
0.0
  0
LINE
  5
1A3F
330
1F
100
AcDbEntity
  8
画層1
100
AcDbLine
 10
519.1573321852279
 20
502.2102481684028
 30
0.0
 11
519.1800657819223
 21
501.5592431354277
 31
0.0
  0
ARC
  5
1A40
330
1F
100
AcDbEntity
  8
画層1
100
AcDbCircle
 10
486.1512404554189
 20
504.5592431354277
 30
0.0
 40
2.0
100
AcDbArc
 50
0.0
 51
89.99999999999959
  0
ARC
  5
1A41
330
1F
100
AcDbEntity
  8
画層1
100
AcDbCircle
 10
480.1512404554189
 20
504.5592431354277
 30
0.0
 40
2.0
100
AcDbArc
 50
90.0
 51
180.0
  0
LINE
  5
1A42
330
1F
100
AcDbEntity
  8
画層1
100
AcDbLine
 10
488.1512404554189
 20
502.5592431354277
 30
0.0
 11
478.1573321852278
 21
502.2102481684028
 31
0.0
  0
LINE
  5
1A43
330
1F
100
AcDbEntity
  8
画層1
100
AcDbLine
 10
478.1512404554189
 20
502.5592431354277
 30
0.0
 11
488.1512404554189
 21
502.5592431354277
 31
0.0
  0
LINE
  5
1A44
330
1F
100
AcDbEntity
  8
画層1
100
AcDbLine
 10
486.1512404554189
 20
506.5592431354277
 30
0.0
 11
480.1512404554189
 21
506.5592431354278
 31
0.0
  0
LINE
  5
1A45
330
1F
100
AcDbEntity
  8
画層1
100
AcDbLine
 10
478.1573321852278
 20
502.2102481684028
 30
0.0
 11
478.1800657819224
 21
501.5592431354277
 31
0.0
  0
LINE
  5
1A46
330
1F
100
AcDbEntity
  8
画層1
100
AcDbLine
 10
478.1512404554189
 20
504.5592431354277
 30
0.0
 11
478.1512404554189
 21
502.5592431354277
 31
0.0
  0
LINE
  5
1A47
330
1F
100
AcDbEntity
  8
画層1
100
AcDbLine
 10
488.1512404554189
 20
502.5592431354277
 30
0.0
 11
488.1861399521215
 21
501.5598523084086
 31
0.0
  0
LINE
  5
1A48
330
1F
100
AcDbEntity
  8
画層1
100
AcDbLine
 10
488.1512404554189
 20
504.5592431354277
 30
0.0
 11
488.1512404554189
 21
502.5592431354277
 31
0.0
  0
LINE
  5
1A49
330
1F
100
AcDbEntity
  8
画層1
100
AcDbLine
 10
483.1512404554189
 20
507.5592431354277
 30
0.0
 11
483.1512404554189
 21
500.5592431354277
 31
0.0
  0
LINE
  5
1A4A
330
1F
100
AcDbEntity
  8
画層1
100
AcDbLine
 10
524.1512404554189
 20
507.5592431354277
 30
0.0
 11
524.1512404554189
 21
500.5592431354277
 31
0.0
  0
DIMENSION
  5
1A4B
330
1F
100
AcDbEntity
  8
画層1
100
AcDbDimension
  2
*D3
 10
492.6512404554189
 20
511.1407580321196
 30
0.0
 11
503.6512404554189
 21
511.1407580321196
 31
0.0
 70
   160
 71
     5
 42
-1.0
  3
ISO-25
100
AcDbAlignedDimension
 13
514.6512404554189
 23
496.0092431354277
 33
0.0
 14
492.6512404554189
 24
496.0092431354277
 34
0.0
100
AcDbRotatedDimension
  0
DIMENSION
  5
1A58
330
1F
100
AcDbEntity
  8
画層1
100
AcDbDimension
  2
*D4
 10
521.1512404554189
 20
477.001490869393
 30
0.0
 11
495.5990952005866
 21
477.001490869393
 31
0.0
 70
   160
 71
     5
 42
-1.0
  3
ISO-25
100
AcDbAlignedDimension
 13
486.1512404554189
 23
486.1592431354276
 33
0.0
 14
521.1512404554189
 24
486.1592431354276
 34
0.0
100
AcDbRotatedDimension
  0
DIMENSION
  5
1A65
330
1F
100
AcDbEntity
  8
画層1
100
AcDbDimension
  2
*D5
 10
462.7898342698938
 20
487.1592431354277
 30
0.0
 11
460.7065009365604
 21
495.4925764687611
 31
0.0
 70
    32
 71
     5
 42
-1.0
  3
ISO-25
100
AcDbAlignedDimension
 13
471.1512404554189
 23
483.7592431354277
 33
0.0
 14
486.1512404554189
 24
487.1592431354277
 34
0.0
 50
90.0
100
AcDbRotatedDimension
  0
DIMENSION
  5
1A74
330
1F
100
AcDbEntity
  8
画層1
100
AcDbDimension
  2
*D6
 10
532.8012404554189
 20
477.001490869393
 30
0.0
 11
541.1345737887522
 21
479.0848242027263
 31
0.0
 70
    32
 71
     5
 42
-1.0
  3
ISO-25
100
AcDbAlignedDimension
 13
528.5012404554189
 23
482.2592431354276
 33
0.0
 14
532.8012404554189
 24
482.2592431354276
 34
0.0
100
AcDbRotatedDimension
  0
DIMENSION
  5
1A83
330
1F
100
AcDbEntity
  8
画層1
100
AcDbDimension
  2
*D7
 10
549.5411616627004
 20
483.7592431354277
 30
0.0
 11
549.5411616627003
 21
474.3425764687611
 31
0.0
 70
   160
 71
     5
 42
-1.0
  3
ISO-25
100
AcDbAlignedDimension
 13
532.8012404554189
 23
482.2592431354276
 33
0.0
 14
536.1512404554189
 24
483.7592431354277
 34
0.0
 50
90.0
100
AcDbRotatedDimension
  0
DIMENSION
  5
1AA8
330
1F
100
AcDbEntity
  8
画層1
100
AcDbDimension
  2
*D8
 10
549.5411616627004
 20
491.7592431354277
 30
0.0
 11
547.6661616627003
 21
487.7592431354277
 31
0.0
 70
    32
 71
     5
 42
-1.0
  3
ISO-25
100
AcDbAlignedDimension
 13
536.1512404554189
 23
483.7592431354277
 33
0.0
 14
518.9012404554189
 24
491.7592431354277
 34
0.0
 50
90.0
100
AcDbRotatedDimension
  0
DIMENSION
  5
1AB5
330
1F
100
AcDbEntity
  8
画層1
100
AcDbDimension
  2
*D9
 10
556.6143596475942
 20
501.5592431354277
 30
0.0
 11
554.5310263142607
 21
492.6592431354277
 31
0.0
 70
    32
 71
     5
 42
-1.0
  3
ISO-25
100
AcDbAlignedDimension
 13
550.7911616627004
 23
483.7592431354277
 33
0.0
 14
534.151240455419
 24
501.5592431354277
 34
0.0
 50
90.0
100
AcDbRotatedDimension
  0
LINE
  5
1B09
330
1F
100
AcDbEntity
  8
画層1
100
AcDbLine
 10
530.6512404554189
 20
483.7592431354277
 30
0.0
 11
530.6512404554189
 21
482.2592431354276
 31
0.0
  0
DIMENSION
  5
1B0A
330
1F
100
AcDbEntity
  8
画層1
100
AcDbDimension
  2
*D10
 10
530.6512404554189
 20
469.1977993278658
 30
0.0
 11
517.1512404554189
 21
471.0727993278658
 31
0.0
 70
    32
 71
     5
 42
-1.0
  3
ISO-25
100
AcDbAlignedDimension
 13
503.6512404554189
 23
478.7592431354276
 33
0.0
 14
530.6512404554189
 24
482.2592431354276
 34
0.0
100
AcDbRotatedDimension
  0
LINE
  5
1B89
330
1F
100
AcDbEntity
  8
画層1
100
AcDbLine
 10
488.4012404554189
 20
491.7592431354277
 30
0.0
 11
496.9012404554189
 21
491.7592431354277
 31
0.0
  0
LINE
  5
1B8A
330
1F
100
AcDbEntity
  8
画層1
100
AcDbLine
 10
510.4012404554189
 20
491.7592431354277
 30
0.0
 11
518.9012404554189
 21
491.7592431354277
 31
0.0
  0
LINE
  5
1B95
330
1F
100
AcDbEntity
  8
画層1
100
AcDbLine
 10
492.6512404554189
 20
496.0092431354277
 30
0.0
 11
492.6512404554189
 21
487.5092431354277
 31
0.0
  0
LINE
  5
1B9F
330
1F
100
AcDbEntity
  8
画層1
100
AcDbLine
 10
514.6512404554189
 20
496.0092431354277
 30
0.0
 11
514.6512404554189
 21
487.5092431354277
 31
0.0
  0
LEADER
  5
1BA9
330
1F
100
AcDbEntity
  8
画層1
100
AcDbLeader
  3
ISO-25
 76
     3
 10
514.6512404554189
 20
495.0092431354277
 30
0.0
 10
519.4904940804201
 20
515.9832858887272
 30
0.0
 10
530.9768309267008
 20
515.9832858887272
 30
0.0
1001
ACAD
1000
DSTYLE
1002
{
1070
     5
1000

1070
    77
1070
     0
1070
   147
1040
0.625
1070
   342
1005
0
1002
}
  0
MTEXT
  5
1BAA
330
1F
100
AcDbEntity
  8
画層1
100
AcDbMText
 10
519.0874655177196
 20
519.8092050844656
 30
0.0
 40
2.5
 41
12.79618215433037
 71
     1
 72
     5
  1
2-φ3.5
  7
STYLE1
 73
     1
 44
1.0
1001
ACAD
1000
MTEXTBEGIN
1070
    73
1070
     1
1070
    44
1040
1.0
1070
    74
1070
     0
1000
MTEXTEND
1000
MTEXTBEGIN
1070
    73
1070
     1
1070
    44
1040
1.0
1070
    74
1070
     0
1000
MTEXTEND
1000
MTEXTBEGIN
1070
    73
1070
     1
1070
    44
1040
1.0
1070
    74
1070
     0
1000
MTEXTEND
1000
MTEXTBEGIN
1070
    73
1070
     1
1070
    44
1040
1.0
1070
    74
1070
     0
1000
MTEXTEND
1000
MTEXTBEGIN
1070
    73
1070
     1
1070
    44
1040
1.0
1070
    74
1070
     0
1000
MTEXTEND
  0
LEADER
  5
1BAC
330
1F
100
AcDbEntity
  8
画層1
100
AcDbLeader
  3
ISO-25
 76
     3
 10
527.1512404554189
 20
506.5592431354278
 30
0.0
 10
529.3705122234157
 20
510.2224508925216
 30
0.0
 10
537.4910977405445
 20
510.2224508925216
 30
0.0
1001
ACAD
1000
DSTYLE
1002
{
1070
     5
1000

1070
    77
1070
     0
1070
   147
1040
0.625
1070
   342
1005
0
1002
}
  0
MTEXT
  5
1BAD
330
1F
100
AcDbEntity
  8
画層1
100
AcDbMText
 10
529.6222773925681
 20
513.3625016318026
 30
0.0
 40
2.5
 41
7.100870633414162
 71
     1
 72
     5
  1
2-M6
  7
STYLE1
 73
     1
 44
1.0
1001
ACAD
1000
MTEXTBEGIN
1070
    73
1070
     1
1070
    44
1040
1.0
1070
    74
1070
     0
1000
MTEXTEND
1000
MTEXTBEGIN
1070
    73
1070
     1
1070
    44
1040
1.0
1070
    74
1070
     0
1000
MTEXTEND
1000
MTEXTBEGIN
1070
    73
1070
     1
1070
    44
1040
1.0
1070
    74
1070
     0
1000
MTEXTEND
1000
MTEXTBEGIN
1070
    73
1070
     1
1070
    44
1040
1.0
1070
    74
1070
     0
1000
MTEXTEND
1000
MTEXTBEGIN
1070
    73
1070
     1
1070
    44
1040
1.0
1070
    74
1070
     0
1000
MTEXTEND
  0
LINE
  5
1BB0
330
1F
100
AcDbEntity
  8
画層1
100
AcDbLine
 10
580.5019166466811
 20
483.7592431354277
 30
0.0
 11
606.5019166466811
 21
483.7592431354277
 31
0.0
  0
LINE
  5
1BB1
330
1F
100
AcDbEntity
  8
画層1
100
AcDbLine
 10
580.5019166466811
 20
483.7592431354277
 30
0.0
 11
580.5019166466811
 21
501.5592431354277
 31
0.0
  0
LINE
  5
1BB2
330
1F
100
AcDbEntity
  8
画層1
100
AcDbLine
 10
606.5019166466811
 20
483.7592431354277
 30
0.0
 11
606.5019166466811
 21
501.5592431354277
 31
0.0
  0
LINE
  5
1BB3
330
1F
100
AcDbEntity
  8
画層1
100
AcDbLine
 10
584.2019166466811
 20
485.7592431354277
 30
0.0
 11
602.8019166466811
 21
485.7592431354277
 31
0.0
  0
LINE
  5
1BB4
330
1F
100
AcDbEntity
  8
画層1
100
AcDbLine
 10
584.2019166466811
 20
485.7592431354277
 30
0.0
 11
584.2019166466811
 21
501.5592431354277
 31
0.0
  0
LINE
  5
1BB5
330
1F
100
AcDbEntity
  8
画層1
100
AcDbLine
 10
602.8019166466811
 20
485.7592431354277
 30
0.0
 11
602.8019166466811
 21
501.5592431354277
 31
0.0
  0
LINE
  5
1BB6
330
1F
100
AcDbEntity
  8
画層1
100
AcDbLine
 10
581.5019166466811
 20
490.7592431354276
 30
0.0
 11
581.5019166466811
 21
501.5592431354277
 31
0.0
  0
LINE
  5
1BB7
330
1F
100
AcDbEntity
  8
画層1
100
AcDbLine
 10
583.2019166466811
 20
490.7592431354276
 30
0.0
 11
583.2019166466811
 21
501.5592431354277
 31
0.0
  0
LINE
  5
1BB8
330
1F
100
AcDbEntity
  8
画層1
100
AcDbLine
 10
580.5019166466811
 20
501.5592431354277
 30
0.0
 11
581.5019166466811
 21
501.5592431354277
 31
0.0
  0
LINE
  5
1BB9
330
1F
100
AcDbEntity
  8
画層1
100
AcDbLine
 10
583.2019166466811
 20
501.5592431354277
 30
0.0
 11
586.2019166466811
 21
501.5592431354277
 31
0.0
  0
LINE
  5
1BBA
330
1F
100
AcDbEntity
  8
画層1
100
AcDbLine
 10
581.5019166466811
 20
483.7592431354277
 30
0.0
 11
580.5019166466811
 21
483.7592431354277
 31
0.0
  0
LINE
  5
1BBB
330
1F
100
AcDbEntity
  8
画層1
100
AcDbLine
 10
583.2019166466811
 20
490.7592431354276
 30
0.0
 11
581.5019166466811
 21
490.7592431354276
 31
0.0
  0
LINE
  5
1BBC
330
1F
100
AcDbEntity
  8
画層1
100
AcDbLine
 10
605.5019166466811
 20
490.7592431354276
 30
0.0
 11
603.8019166466811
 21
490.7592431354276
 31
0.0
  0
LINE
  5
1BBD
330
1F
100
AcDbEntity
  8
画層1
100
AcDbLine
 10
603.8019166466811
 20
490.7592431354276
 30
0.0
 11
603.8019166466811
 21
501.5592431354277
 31
0.0
  0
LINE
  5
1BBE
330
1F
100
AcDbEntity
  8
画層1
100
AcDbLine
 10
605.5019166466811
 20
490.7592431354276
 30
0.0
 11
605.5019166466811
 21
501.5592431354277
 31
0.0
  0
LINE
  5
1BBF
330
1F
100
AcDbEntity
  8
画層1
100
AcDbLine
 10
605.5019166466811
 20
501.5592431354277
 30
0.0
 11
606.5019166466811
 21
501.5592431354277
 31
0.0
  0
LINE
  5
1BC0
330
1F
100
AcDbEntity
  8
画層1
100
AcDbLine
 10
600.8019166466811
 20
501.5592431354277
 30
0.0
 11
603.8019166466811
 21
501.5592431354277
 31
0.0
  0
LINE
  5
1BC1
330
1F
100
AcDbEntity
  8
画層1
100
AcDbLine
 10
584.2019166466811
 20
486.7592431354276
 30
0.0
 11
602.8019166466811
 21
486.7592431354276
 31
0.0
  0
LINE
  5
1BC2
330
1F
100
AcDbEntity
  8
画層1
100
AcDbLine
 10
586.2019166466811
 20
490.2592431354277
 30
0.0
 11
600.8019166466811
 21
490.2592431354277
 31
0.0
  0
LINE
  5
1BC3
330
1F
100
AcDbEntity
  8
画層1
100
AcDbLine
 10
586.2019166466811
 20
486.7592431354276
 30
0.0
 11
586.2019166466811
 21
495.7592431354277
 31
0.0
  0
LINE
  5
1BC4
330
1F
100
AcDbEntity
  8
画層1
100
AcDbLine
 10
600.8019166466811
 20
486.7592431354276
 30
0.0
 11
600.8019166466811
 21
495.7592431354277
 31
0.0
  0
LINE
  5
1BC5
330
1F
100
AcDbEntity
  8
画層1
100
AcDbLine
 10
584.2019166466811
 20
497.7592431354277
 30
0.0
 11
602.8019166466811
 21
497.7592431354276
 31
0.0
  0
LINE
  5
1BC7
330
1F
100
AcDbEntity
  8
画層1
100
AcDbLine
 10
584.2019166466811
 20
499.7592431354276
 30
0.0
 11
602.8019166466811
 21
499.7592431354276
 31
0.0
  0
LINE
  5
1BC8
330
1F
100
AcDbEntity
  8
画層1
100
AcDbLine
 10
585.2019166466812
 20
497.7592431354277
 30
0.0
 11
585.2019166466812
 21
499.7592431354276
 31
0.0
  0
LINE
  5
1BC9
330
1F
100
AcDbEntity
  8
画層1
100
AcDbLine
 10
601.801916646681
 20
497.7592431354277
 30
0.0
 11
601.801916646681
 21
499.7592431354276
 31
0.0
  0
LINE
  5
1BCA
330
1F
100
AcDbEntity
  8
画層1
100
AcDbLine
 10
586.2019166466811
 20
501.5592431354277
 30
0.0
 11
586.2019166466811
 21
499.7592431354276
 31
0.0
  0
LINE
  5
1BCC
330
1F
100
AcDbEntity
  8
画層1
100
AcDbLine
 10
600.8019166466811
 20
501.5592431354277
 30
0.0
 11
600.8019166466811
 21
499.7592431354276
 31
0.0
  0
LINE
  5
1BCF
330
1F
100
AcDbEntity
  8
画層1
100
AcDbLine
 10
584.2019166466811
 20
495.7592431354277
 30
0.0
 11
586.2019166466811
 21
495.7592431354277
 31
0.0
  0
LINE
  5
1BD0
330
1F
100
AcDbEntity
  8
画層1
100
AcDbLine
 10
600.8019166466811
 20
495.7592431354277
 30
0.0
 11
602.8019166466811
 21
495.7592431354277
 31
0.0
  0
LINE
  5
1BD5
330
1F
100
AcDbEntity
  8
画層1
100
AcDbLine
 10
591.3519166466811
 20
482.2592431354276
 30
0.0
 11
595.6519166466811
 21
482.2592431354276
 31
0.0
  0
LINE
  5
1BD6
330
1F
100
AcDbEntity
  8
画層1
100
AcDbLine
 10
595.6519166466811
 20
483.7592431354277
 30
0.0
 11
595.6519166466811
 21
482.2592431354276
 31
0.0
  0
LINE
  5
1BD7
330
1F
100
AcDbEntity
  8
画層1
100
AcDbLine
 10
591.3519166466811
 20
483.7592431354277
 30
0.0
 11
591.3519166466811
 21
482.2592431354276
 31
0.0
  0
ARC
  5
1BD9
330
1F
100
AcDbEntity
  8
画層1
100
AcDbCircle
 10
590.5019166466811
 20
504.5592431354278
 30
0.0
 40
2.0
100
AcDbArc
 50
90.0
 51
180.0
  0
LINE
  5
1BDA
330
1F
100
AcDbEntity
  8
画層1
100
AcDbLine
 10
588.5019166466811
 20
504.5592431354278
 30
0.0
 11
588.5019166466811
 21
502.5592431354278
 31
0.0
  0
ARC
  5
1BDC
330
1F
100
AcDbEntity
  8
画層1
100
AcDbCircle
 10
596.5019166466811
 20
504.5592431354277
 30
0.0
 40
2.0
100
AcDbArc
 50
0.0
 51
89.99999999999959
  0
LINE
  5
1BDE
330
1F
100
AcDbEntity
  8
画層1
100
AcDbLine
 10
588.5019166466811
 20
502.5592431354278
 30
0.0
 11
598.5019166466811
 21
502.5592431354278
 31
0.0
  0
LINE
  5
1BDF
330
1F
100
AcDbEntity
  8
画層1
100
AcDbLine
 10
596.5019166466811
 20
506.5592431354278
 30
0.0
 11
590.5019166466811
 21
506.5592431354278
 31
0.0
  0
LINE
  5
1BE2
330
1F
100
AcDbEntity
  8
画層1
100
AcDbLine
 10
598.5019166466811
 20
504.5592431354277
 30
0.0
 11
598.5019166466811
 21
502.5592431354278
 31
0.0
  0
LINE
  5
1BE3
330
1F
100
AcDbEntity
  8
画層1
100
AcDbLine
 10
599.0019166466811
 20
499.7592431354276
 30
0.0
 11
599.0019166466811
 21
500.5592431354277
 31
0.0
  0
LINE
  5
1BE4
330
1F
100
AcDbEntity
  8
画層1
100
AcDbLine
 10
588.0019166466811
 20
499.7592431354276
 30
0.0
 11
588.0019166466811
 21
500.5592431354277
 31
0.0
  0
LINE
  5
1BE5
330
1F
100
AcDbEntity
  8
画層1
100
AcDbLine
 10
588.0019166466811
 20
500.5592431354277
 30
0.0
 11
599.0019166466811
 21
500.5592431354277
 31
0.0
  0
LINE
  5
1BE6
330
1F
100
AcDbEntity
  8
画層1
100
AcDbLine
 10
588.0163065317581
 20
502.0097155948768
 30
0.0
 11
599.0012314140583
 21
502.5854111135491
 31
0.0
  0
LINE
  5
1BE7
330
1F
100
AcDbEntity
  8
画層1
100
AcDbLine
 10
588.0163065317581
 20
502.0097155948768
 30
0.0
 11
588.092322572269
 21
500.5592431354277
 31
0.0
  0
LINE
  5
1BE8
330
1F
100
AcDbEntity
  8
画層1
100
AcDbLine
 10
599.0012314140583
 20
502.5854111135491
 30
0.0
 11
599.0797353484228
 21
501.0874668114174
 31
0.0
  0
LINE
  5
1BE9
330
1F
100
AcDbEntity
  8
画層1
100
AcDbLine
 10
588.092322572269
 20
500.5592431354277
 30
0.0
 11
599.0797353484228
 21
501.0874668114174
 31
0.0
  0
LINE
  5
1BEA
330
1F
100
AcDbEntity
  8
画層1
100
AcDbLine
 10
593.5019166466811
 20
502.5592431354278
 30
0.0
 11
593.5019166466811
 21
499.7592431354276
 31
0.0
  0
LINE
  5
1BEB
330
1F
100
AcDbEntity
  8
画層1
100
AcDbLine
 10
590.5019166466811
 20
502.5592431354278
 30
0.0
 11
590.5019166466811
 21
502.1399809011635
 31
0.0
  0
LINE
  5
1BEC
330
1F
100
AcDbEntity
  8
画層1
100
AcDbLine
 10
596.5019166466811
 20
502.5592431354278
 30
0.0
 11
596.5019166466811
 21
502.4544275768617
 31
0.0
  0
LINE
  5
1BED
330
1F
100
AcDbEntity
  8
画層1
100
AcDbLine
 10
590.5019166466811
 20
500.6750852054
 30
0.0
 11
590.5019166466811
 21
500.5592431354277
 31
0.0
  0
LINE
  5
1BEE
330
1F
100
AcDbEntity
  8
画層1
100
AcDbLine
 10
596.5019166466811
 20
500.963537284202
 30
0.0
 11
596.5019166466811
 21
500.5592431354277
 31
0.0
  0
LINE
  5
1BEF
330
1F
100
AcDbEntity
  8
画層1
100
AcDbLine
 10
605.5019166466811
 20
494.7592431354276
 30
0.0
 11
603.8019166466811
 21
494.7592431354276
 31
0.0
  0
LINE
  5
1BF0
330
1F
100
AcDbEntity
  8
画層1
100
AcDbLine
 10
605.5019166466811
 20
499.5592431354276
 30
0.0
 11
603.8019166466811
 21
499.5592431354276
 31
0.0
  0
LINE
  5
1BF1
330
1F
100
AcDbEntity
  8
画層1
100
AcDbLine
 10
583.2019166466811
 20
494.7592431354276
 30
0.0
 11
581.5019166466811
 21
494.7592431354276
 31
0.0
  0
LINE
  5
1BF2
330
1F
100
AcDbEntity
  8
画層1
100
AcDbLine
 10
583.2019166466811
 20
499.5592431354276
 30
0.0
 11
581.5019166466811
 21
499.5592431354276
 31
0.0
  0
LINE
  5
1BF5
330
1F
100
AcDbEntity
  8
画層1
100
AcDbLine
 10
579.5019166466811
 20
486.2592431354276
 30
0.0
 11
580.5019166466811
 21
486.2592431354276
 31
0.0
  0
LINE
  5
1BF6
330
1F
100
AcDbEntity
  8
画層1
100
AcDbLine
 10
579.5019166466811
 20
484.2592431354277
 30
0.0
 11
580.5019166466811
 21
484.2592431354277
 31
0.0
  0
LINE
  5
1BF7
330
1F
100
AcDbEntity
  8
画層1
100
AcDbLine
 10
579.5019166466811
 20
484.2592431354277
 30
0.0
 11
579.5019166466811
 21
486.2592431354276
 31
0.0
  0
DIMENSION
  5
1BF8
330
1F
100
AcDbEntity
  8
画層1
100
AcDbDimension
  2
*D11
 10
580.5019166466811
 20
477.001490869393
 30
0.0
 11
593.5019166466811
 21
478.876490869393
 31
0.0
 70
    32
 71
     5
 42
-1.0
  3
ISO-25
100
AcDbAlignedDimension
 13
606.5019166466811
 23
483.7592431354277
 33
0.0
 14
580.5019166466811
 24
483.7592431354277
 34
0.0
100
AcDbRotatedDimension
  0
DIMENSION
  5
1C05
330
1F
100
AcDbEntity
  8
画層1
100
AcDbDimension
  2
*D12
 10
580.5019166466811
 20
477.001490869393
 30
0.0
 11
573.4602499800145
 21
477.001490869393
 31
0.0
 70
   160
 71
     5
 42
-1.0
  3
ISO-25
100
AcDbAlignedDimension
 13
579.5019166466811
 23
484.2592431354277
 33
0.0
 14
580.5019166466811
 24
477.001490869393
 34
0.0
100
AcDbRotatedDimension
  0
LINE
  5
1C2A
330
1F
100
AcDbEntity
  8
画層1
100
AcDbLine
 10
593.5019166466811
 20
481.2592431354277
 30
0.0
 11
593.5019166466811
 21
507.5592431354277
 31
0.0
  0
CIRCLE
  5
1C30
330
1F
100
AcDbEntity
  8
画層1
100
AcDbCircle
 10
531.851240455419
 20
485.2592431354277
 30
0.0
 40
1.299999999999954
  0
CIRCLE
  5
1C31
330
1F
100
AcDbEntity
  8
画層1
100
AcDbCircle
 10
475.4512404554189
 20
485.2592431354277
 30
0.0
 40
1.299999999999954
  0
LINE
  5
1C72
330
1F
100
AcDbEntity
  8
画層1
100
AcDbLine
 10
471.1512404554189
 20
540.7497838232785
 30
0.0
 11
536.1512404554189
 21
540.7497838232785
 31
0.0
  0
LINE
  5
1C73
330
1F
100
AcDbEntity
  8
画層1
100
AcDbLine
 10
536.1512404554189
 20
540.7497838232785
 30
0.0
 11
536.1512404554189
 21
566.7497838232785
 31
0.0
  0
LINE
  5
1C74
330
1F
100
AcDbEntity
  8
画層1
100
AcDbLine
 10
536.1512404554189
 20
566.7497838232785
 30
0.0
 11
471.1512404554189
 21
566.7497838232785
 31
0.0
  0
LINE
  5
1C75
330
1F
100
AcDbEntity
  8
画層1
100
AcDbLine
 10
471.1512404554189
 20
566.7497838232785
 30
0.0
 11
471.1512404554189
 21
540.7497838232785
 31
0.0
  0
LINE
  5
1C76
330
1F
100
AcDbEntity
  8
画層1
100
AcDbLine
 10
536.1512404554189
 20
565.7497838232785
 30
0.0
 11
471.1512404554189
 21
565.7497838232785
 31
0.0
  0
LINE
  5
1C77
330
1F
100
AcDbEntity
  8
画層1
100
AcDbLine
 10
536.1512404554189
 20
563.1497838232785
 30
0.0
 11
531.6512404554189
 21
563.1497838232785
 31
0.0
  0
LINE
  5
1C78
330
1F
100
AcDbEntity
  8
画層1
100
AcDbLine
 10
536.1512404554189
 20
564.1497838232785
 30
0.0
 11
471.1512404554189
 21
564.1497838232785
 31
0.0
  0
LINE
  5
1C79
330
1F
100
AcDbEntity
  8
画層1
100
AcDbLine
 10
471.1512404554189
 20
544.3497838232786
 30
0.0
 11
475.6512404554189
 21
544.3497838232786
 31
0.0
  0
LINE
  5
1C7A
330
1F
100
AcDbEntity
  8
画層1
100
AcDbLine
 10
471.1512404554189
 20
541.7497838232785
 30
0.0
 11
536.1512404554189
 21
541.7497838232785
 31
0.0
  0
LINE
  5
1C7B
330
1F
100
AcDbEntity
  8
画層1
100
AcDbLine
 10
471.1512404554189
 20
543.3497838232786
 30
0.0
 11
536.1512404554189
 21
543.3497838232786
 31
0.0
  0
LINE
  5
1C7D
330
1F
100
AcDbEntity
  8
画層1
100
AcDbLine
 10
503.6512404554189
 20
571.7497838232786
 30
0.0
 11
503.6512404554189
 21
535.7497838232785
 31
0.0
  0
LINE
  5
1C7E
330
1F
100
AcDbEntity
  8
画層1
100
AcDbLine
 10
466.1512404554189
 20
553.7497838232785
 30
0.0
 11
541.1512404554189
 21
553.7497838232785
 31
0.0
  0
CIRCLE
  5
1C7F
330
1F
100
AcDbEntity
  8
画層1
100
AcDbCircle
 10
503.6512404554189
 20
553.7497838232785
 30
0.0
 40
2.25
  0
LINE
  5
1C84
330
1F
100
AcDbEntity
  8
画層1
100
AcDbLine
 10
514.6512404554189
 20
563.1497838232785
 30
0.0
 11
492.6512404554189
 21
563.1497838232785
 31
0.0
  0
LINE
  5
1C86
330
1F
100
AcDbEntity
  8
画層1
100
AcDbLine
 10
475.6512404554189
 20
563.1497838232785
 30
0.0
 11
471.1512404554189
 21
563.1497838232785
 31
0.0
  0
LINE
  5
1C87
330
1F
100
AcDbEntity
  8
画層1
100
AcDbLine
 10
531.6512404554189
 20
544.3497838232786
 30
0.0
 11
536.1512404554189
 21
544.3497838232786
 31
0.0
  0
LINE
  5
1C88
330
1F
100
AcDbEntity
  8
画層1
100
AcDbLine
 10
492.6512404554189
 20
544.3497838232786
 30
0.0
 11
514.6512404554189
 21
544.3497838232786
 31
0.0
  0
LINE
  5
1C89
330
1F
100
AcDbEntity
  8
画層1
100
AcDbLine
 10
495.4012404554189
 20
560.7497838232785
 30
0.0
 11
475.6512404554189
 21
560.7497838232785
 31
0.0
  0
LINE
  5
1C8A
330
1F
100
AcDbEntity
  8
画層1
100
AcDbLine
 10
531.6512404554189
 20
560.7497838232785
 30
0.0
 11
511.9012404554189
 21
560.7497838232785
 31
0.0
  0
LINE
  5
1C8C
330
1F
100
AcDbEntity
  8
画層1
100
AcDbLine
 10
495.4012404554189
 20
546.7497838232786
 30
0.0
 11
475.6512404554189
 21
546.7497838232786
 31
0.0
  0
LINE
  5
1C8D
330
1F
100
AcDbEntity
  8
画層1
100
AcDbLine
 10
531.6512404554189
 20
546.7497838232786
 30
0.0
 11
511.9012404554189
 21
546.7497838232786
 31
0.0
  0
LINE
  5
1C8E
330
1F
100
AcDbEntity
  8
画層1
100
AcDbLine
 10
475.6512404554189
 20
563.1497838232785
 30
0.0
 11
475.6512404554189
 21
560.7497838232785
 31
0.0
  0
LINE
  5
1C8F
330
1F
100
AcDbEntity
  8
画層1
100
AcDbLine
 10
492.6512404554189
 20
563.1497838232785
 30
0.0
 11
492.6512404554189
 21
560.7497838232785
 31
0.0
  0
LINE
  5
1C90
330
1F
100
AcDbEntity
  8
画層1
100
AcDbLine
 10
514.6512404554189
 20
563.1497838232785
 30
0.0
 11
514.6512404554189
 21
560.7497838232785
 31
0.0
  0
LINE
  5
1C91
330
1F
100
AcDbEntity
  8
画層1
100
AcDbLine
 10
531.6512404554189
 20
563.1497838232785
 30
0.0
 11
531.6512404554189
 21
560.7497838232785
 31
0.0
  0
LINE
  5
1C92
330
1F
100
AcDbEntity
  8
画層1
100
AcDbLine
 10
475.6512404554189
 20
546.7497838232786
 30
0.0
 11
475.6512404554189
 21
544.3497838232786
 31
0.0
  0
LINE
  5
1C93
330
1F
100
AcDbEntity
  8
画層1
100
AcDbLine
 10
492.6512404554189
 20
546.7497838232786
 30
0.0
 11
492.6512404554189
 21
544.3497838232786
 31
0.0
  0
LINE
  5
1C94
330
1F
100
AcDbEntity
  8
画層1
100
AcDbLine
 10
514.6512404554189
 20
546.7497838232786
 30
0.0
 11
514.6512404554189
 21
544.3497838232786
 31
0.0
  0
LINE
  5
1C95
330
1F
100
AcDbEntity
  8
画層1
100
AcDbLine
 10
531.6512404554189
 20
546.7497838232786
 30
0.0
 11
531.6512404554189
 21
544.3497838232786
 31
0.0
  0
LINE
  5
1C96
330
1F
100
AcDbEntity
  8
画層1
100
AcDbLine
 10
496.9012404554189
 20
563.1497838232785
 30
0.0
 11
496.9012404554189
 21
544.3497838232786
 31
0.0
  0
LINE
  5
1C97
330
1F
100
AcDbEntity
  8
画層1
100
AcDbLine
 10
510.4012404554189
 20
563.1497838232785
 30
0.0
 11
510.4012404554189
 21
544.3497838232786
 31
0.0
  0
LINE
  5
1C98
330
1F
100
AcDbEntity
  8
画層1
100
AcDbLine
 10
495.4012404554189
 20
563.1497838232785
 30
0.0
 11
495.4012404554189
 21
544.3497838232786
 31
0.0
  0
LINE
  5
1C99
330
1F
100
AcDbEntity
  8
画層1
100
AcDbLine
 10
511.9012404554189
 20
563.1497838232785
 30
0.0
 11
511.9012404554189
 21
544.3497838232786
 31
0.0
  0
LINE
  5
1C9A
330
1F
100
AcDbEntity
  8
画層1
100
AcDbLine
 10
491.4012404554188
 20
560.7497838232785
 30
0.0
 11
491.4012404554189
 21
546.7497838232787
 31
0.0
  0
LINE
  5
1C9C
330
1F
100
AcDbEntity
  8
画層1
100
AcDbLine
 10
475.4012404554189
 20
561.4997838232786
 30
0.0
 11
475.4012404554189
 21
545.9997838232785
 31
0.0
  0
LINE
  5
1C9F
330
1F
100
AcDbEntity
  8
画層1
100
AcDbLine
 10
515.9012404554188
 20
560.7497838232785
 30
0.0
 11
515.901240455419
 21
546.7497838232787
 31
0.0
  0
LINE
  5
1CA0
330
1F
100
AcDbEntity
  8
画層1
100
AcDbLine
 10
531.9012404554189
 20
561.4997838232786
 30
0.0
 11
531.9012404554189
 21
545.9997838232785
 31
0.0
  0
LINE
  5
1CA1
330
1F
100
AcDbEntity
  8
画層1
100
AcDbLine
 10
531.9012404554189
 20
561.4997838232786
 30
0.0
 11
531.6512404554189
 21
561.4997838232786
 31
0.0
  0
LINE
  5
1CA2
330
1F
100
AcDbEntity
  8
画層1
100
AcDbLine
 10
531.9012404554189
 20
545.9997838232785
 30
0.0
 11
531.6512404554189
 21
545.9997838232785
 31
0.0
  0
LINE
  5
1CA3
330
1F
100
AcDbEntity
  8
画層1
100
AcDbLine
 10
475.4012404554189
 20
545.9997838232785
 30
0.0
 11
475.6512404554189
 21
545.9997838232785
 31
0.0
  0
LINE
  5
1CA4
330
1F
100
AcDbEntity
  8
画層1
100
AcDbLine
 10
475.4012404554189
 20
561.4997838232786
 30
0.0
 11
475.6512404554189
 21
561.4997838232786
 31
0.0
  0
DIMENSION
  5
1CA5
330
1F
100
AcDbEntity
  8
画層1
100
AcDbDimension
  2
*D13
 10
549.8107339590322
 20
566.7497838232785
 30
0.0
 11
547.935733959032
 21
553.7497838232787
 31
0.0
 70
    32
 71
     5
 42
-1.0
  3
ISO-25
100
AcDbAlignedDimension
 13
536.1512404554189
 23
540.7497838232785
 33
0.0
 14
536.1512404554189
 24
566.7497838232785
 34
0.0
 50
90.0
100
AcDbRotatedDimension
  0
DIMENSION
  5
1CB2
330
1F
100
AcDbEntity
  8
画層1
100
AcDbDimension
  2
*D14
 10
536.1512404554189
 20
576.5323031360995
 30
0.0
 11
503.6512404554189
 21
578.4073031360994
 31
0.0
 70
    32
 71
     5
 42
-1.0
  3
ISO-25
100
AcDbAlignedDimension
 13
471.1512404554189
 23
566.7497838232785
 33
0.0
 14
536.1512404554189
 24
566.7497838232785
 34
0.0
100
AcDbRotatedDimension
  0
LINE
  5
1CC8
330
1F
100
AcDbEntity
  8
画層1
100
AcDbLine
 10
531.1512404554189
 20
565.7497838232785
 30
0.0
 11
531.1512404554189
 21
564.1497838232785
 31
0.0
  0
LINE
  5
1CC9
330
1F
100
AcDbEntity
  8
画層1
100
AcDbLine
 10
531.1512404554189
 20
543.3497838232786
 30
0.0
 11
531.1512404554189
 21
541.7497838232785
 31
0.0
  0
LINE
  5
1CCA
330
1F
100
AcDbEntity
  8
画層1
100
AcDbLine
 10
476.1512404554189
 20
543.3497838232786
 30
0.0
 11
476.1512404554189
 21
541.7497838232785
 31
0.0
  0
LINE
  5
1CCB
330
1F
100
AcDbEntity
  8
画層1
100
AcDbLine
 10
476.1512404554189
 20
565.7497838232785
 30
0.0
 11
476.1512404554189
 21
564.1497838232785
 31
0.0
  0
LINE
  5
1CCC
330
1F
100
AcDbEntity
  8
画層1
100
AcDbLine
 10
479.1512404554189
 20
565.7497838232785
 30
0.0
 11
479.1512404554189
 21
564.1497838232785
 31
0.0
  0
LINE
  5
1CCD
330
1F
100
AcDbEntity
  8
画層1
100
AcDbLine
 10
482.1512404554189
 20
565.7497838232785
 30
0.0
 11
482.1512404554189
 21
564.1497838232785
 31
0.0
  0
LINE
  5
1CCE
330
1F
100
AcDbEntity
  8
画層1
100
AcDbLine
 10
528.1512404554189
 20
543.3497838232786
 30
0.0
 11
528.1512404554189
 21
541.7497838232785
 31
0.0
  0
LINE
  5
1CCF
330
1F
100
AcDbEntity
  8
画層1
100
AcDbLine
 10
525.1512404554189
 20
543.3497838232786
 30
0.0
 11
525.1512404554189
 21
541.7497838232785
 31
0.0
  0
CIRCLE
  5
1CD2
330
1F
100
AcDbEntity
  8
画層1
100
AcDbCircle
 10
524.1512404554189
 20
553.7497838232785
 30
0.0
 40
5.0
  0
CIRCLE
  5
1CD3
330
1F
100
AcDbEntity
  8
画層1
100
AcDbCircle
 10
524.1512404554189
 20
553.7497838232785
 30
0.0
 40
5.5
  0
LINE
  5
1CD4
330
1F
100
AcDbEntity
  8
画層1
100
AcDbLine
 10
527.1512404554189
 20
554.4997838232785
 30
0.0
 11
525.9012404554189
 21
554.4997838232785
 31
0.0
  0
LINE
  5
1CD5
330
1F
100
AcDbEntity
  8
画層1
100
AcDbLine
 10
527.1512404554189
 20
552.9997838232786
 30
0.0
 11
525.9012404554189
 21
552.9997838232786
 31
0.0
  0
LINE
  5
1CD6
330
1F
100
AcDbEntity
  8
画層1
100
AcDbLine
 10
524.1512404554189
 20
547.2497838232786
 30
0.0
 11
524.1512404554189
 21
560.2497838232785
 31
0.0
  0
LINE
  5
1CD7
330
1F
100
AcDbEntity
  8
画層1
100
AcDbLine
 10
523.4012404554189
 20
550.7497838232786
 30
0.0
 11
523.4012404554189
 21
551.9997838232785
 31
0.0
  0
LINE
  5
1CD8
330
1F
100
AcDbEntity
  8
画層1
100
AcDbLine
 10
524.9012404554189
 20
550.7497838232786
 30
0.0
 11
524.9012404554189
 21
551.9997838232785
 31
0.0
  0
LINE
  5
1CD9
330
1F
100
AcDbEntity
  8
画層1
100
AcDbLine
 10
521.1512404554189
 20
554.4997838232785
 30
0.0
 11
521.1512404554189
 21
552.9997838232786
 31
0.0
  0
LINE
  5
1CDA
330
1F
100
AcDbEntity
  8
画層1
100
AcDbLine
 10
527.1512404554189
 20
554.4997838232785
 30
0.0
 11
527.1512404554189
 21
552.9997838232786
 31
0.0
  0
LINE
  5
1CDB
330
1F
100
AcDbEntity
  8
画層1
100
AcDbLine
 10
523.4012404554189
 20
556.7497838232785
 30
0.0
 11
524.9012404554189
 21
556.7497838232785
 31
0.0
  0
LINE
  5
1CDC
330
1F
100
AcDbEntity
  8
画層1
100
AcDbLine
 10
523.4012404554189
 20
550.7497838232786
 30
0.0
 11
524.9012404554189
 21
550.7497838232786
 31
0.0
  0
LINE
  5
1CDD
330
1F
100
AcDbEntity
  8
画層1
100
AcDbLine
 10
522.4012404554189
 20
552.9997838232786
 30
0.0
 11
521.1512404554189
 21
552.9997838232786
 31
0.0
  0
LINE
  5
1CDE
330
1F
100
AcDbEntity
  8
画層1
100
AcDbLine
 10
524.9012404554189
 20
555.4997838232785
 30
0.0
 11
524.9012404554189
 21
556.7497838232785
 31
0.0
  0
LINE
  5
1CDF
330
1F
100
AcDbEntity
  8
画層1
100
AcDbLine
 10
522.4012404554189
 20
554.4997838232785
 30
0.0
 11
521.1512404554189
 21
554.4997838232785
 31
0.0
  0
LINE
  5
1CE0
330
1F
100
AcDbEntity
  8
画層1
100
AcDbLine
 10
523.4012404554189
 20
555.4997838232785
 30
0.0
 11
523.4012404554189
 21
556.7497838232785
 31
0.0
  0
ARC
  5
1CE2
330
1F
100
AcDbEntity
  8
画層1
100
AcDbCircle
 10
522.4012404554189
 20
551.9997838232785
 30
0.0
 40
1.0
100
AcDbArc
 50
0.0
 51
90.0
  0
ARC
  5
1CE3
330
1F
100
AcDbEntity
  8
画層1
100
AcDbCircle
 10
525.9012404554189
 20
551.9997838232785
 30
0.0
 40
1.0
100
AcDbArc
 50
90.0
 51
180.0
  0
ARC
  5
1CE4
330
1F
100
AcDbEntity
  8
画層1
100
AcDbCircle
 10
522.4012404554189
 20
555.4997838232785
 30
0.0
 40
1.0
100
AcDbArc
 50
270.0
 51
0.0
  0
ARC
  5
1CE5
330
1F
100
AcDbEntity
  8
画層1
100
AcDbCircle
 10
525.9012404554189
 20
555.4997838232785
 30
0.0
 40
1.0
100
AcDbArc
 50
180.0
 51
270.0
  0
CIRCLE
  5
1CE6
330
1F
100
AcDbEntity
  8
画層1
100
AcDbCircle
 10
483.1512404554189
 20
553.7497838232785
 30
0.0
 40
5.5
  0
CIRCLE
  5
1CE7
330
1F
100
AcDbEntity
  8
画層1
100
AcDbCircle
 10
483.1512404554189
 20
553.7497838232785
 30
0.0
 40
5.0
  0
LINE
  5
1CE8
330
1F
100
AcDbEntity
  8
画層1
100
AcDbLine
 10
481.4012404554189
 20
554.4997838232785
 30
0.0
 11
480.1512404554189
 21
554.4997838232785
 31
0.0
  0
LINE
  5
1CE9
330
1F
100
AcDbEntity
  8
画層1
100
AcDbLine
 10
481.4012404554189
 20
552.9997838232786
 30
0.0
 11
480.1512404554189
 21
552.9997838232786
 31
0.0
  0
LINE
  5
1CEA
330
1F
100
AcDbEntity
  8
画層1
100
AcDbLine
 10
480.1512404554189
 20
554.4997838232785
 30
0.0
 11
480.1512404554189
 21
552.9997838232786
 31
0.0
  0
LINE
  5
1CEB
330
1F
100
AcDbEntity
  8
画層1
100
AcDbLine
 10
483.9012404554189
 20
555.4997838232785
 30
0.0
 11
483.9012404554189
 21
556.7497838232785
 31
0.0
  0
LINE
  5
1CEC
330
1F
100
AcDbEntity
  8
画層1
100
AcDbLine
 10
486.1512404554189
 20
554.4997838232785
 30
0.0
 11
484.9012404554189
 21
554.4997838232785
 31
0.0
  0
ARC
  5
1CED
330
1F
100
AcDbEntity
  8
画層1
100
AcDbCircle
 10
484.9012404554189
 20
555.4997838232785
 30
0.0
 40
1.0
100
AcDbArc
 50
180.0
 51
270.0
  0
LINE
  5
1CEE
330
1F
100
AcDbEntity
  8
画層1
100
AcDbLine
 10
482.4012404554189
 20
555.4997838232785
 30
0.0
 11
482.4012404554189
 21
556.7497838232785
 31
0.0
  0
ARC
  5
1CEF
330
1F
100
AcDbEntity
  8
画層1
100
AcDbCircle
 10
481.4012404554189
 20
555.4997838232785
 30
0.0
 40
1.0
100
AcDbArc
 50
270.0
 51
0.0
  0
LINE
  5
1CF0
330
1F
100
AcDbEntity
  8
画層1
100
AcDbLine
 10
483.9012404554189
 20
550.7497838232786
 30
0.0
 11
483.9012404554189
 21
551.9997838232785
 31
0.0
  0
LINE
  5
1CF1
330
1F
100
AcDbEntity
  8
画層1
100
AcDbLine
 10
486.1512404554189
 20
552.9997838232786
 30
0.0
 11
484.9012404554189
 21
552.9997838232786
 31
0.0
  0
ARC
  5
1CF2
330
1F
100
AcDbEntity
  8
画層1
100
AcDbCircle
 10
484.9012404554189
 20
551.9997838232785
 30
0.0
 40
1.0
100
AcDbArc
 50
90.0
 51
180.0
  0
LINE
  5
1CF3
330
1F
100
AcDbEntity
  8
画層1
100
AcDbLine
 10
482.4012404554189
 20
550.7497838232786
 30
0.0
 11
482.4012404554189
 21
551.9997838232785
 31
0.0
  0
ARC
  5
1CF4
330
1F
100
AcDbEntity
  8
画層1
100
AcDbCircle
 10
481.4012404554189
 20
551.9997838232785
 30
0.0
 40
1.0
100
AcDbArc
 50
0.0
 51
90.0
  0
LINE
  5
1CF5
330
1F
100
AcDbEntity
  8
画層1
100
AcDbLine
 10
482.4012404554189
 20
550.7497838232786
 30
0.0
 11
483.9012404554189
 21
550.7497838232786
 31
0.0
  0
LINE
  5
1CF6
330
1F
100
AcDbEntity
  8
画層1
100
AcDbLine
 10
482.4012404554189
 20
556.7497838232785
 30
0.0
 11
483.9012404554189
 21
556.7497838232785
 31
0.0
  0
LINE
  5
1CF7
330
1F
100
AcDbEntity
  8
画層1
100
AcDbLine
 10
486.1512404554189
 20
554.4997838232785
 30
0.0
 11
486.1512404554189
 21
552.9997838232786
 31
0.0
  0
LINE
  5
1CF8
330
1F
100
AcDbEntity
  8
画層1
100
AcDbLine
 10
483.1512404554189
 20
547.2497838232786
 30
0.0
 11
483.1512404554189
 21
560.2497838232785
 31
0.0
  0
LINE
  5
1CFF
330
1F
100
AcDbEntity
  8
画層1
100
AcDbLine
 10
474.1512404554189
 20
540.7497838232785
 30
0.0
 11
474.1512404554189
 21
540.7497838232785
 31
0.0
  0
LINE
  5
1D00
330
1F
100
AcDbEntity
  8
画層1
100
AcDbLine
 10
475.1512404554189
 20
539.7497838232785
 30
0.0
 11
475.7512404554188
 21
539.7497838232785
 31
0.0
  0
LINE
  5
1D01
330
1F
100
AcDbEntity
  8
画層1
100
AcDbLine
 10
476.7512404554188
 20
540.7497838232785
 30
0.0
 11
476.7512404554188
 21
540.7497838232785
 31
0.0
  0
ARC
  5
1D02
330
1F
100
AcDbEntity
  8
画層1
100
AcDbCircle
 10
475.1512404554189
 20
540.7497838232785
 30
0.0
 40
1.0
100
AcDbArc
 50
180.0
 51
270.0
  0
ARC
  5
1D03
330
1F
100
AcDbEntity
  8
画層1
100
AcDbCircle
 10
475.7512404554188
 20
540.7497838232785
 30
0.0
 40
1.0
100
AcDbArc
 50
270.0
 51
0.0
  0
LINE
  5
1D05
330
1F
100
AcDbEntity
  8
画層1
100
AcDbLine
 10
533.1512404554189
 20
540.7497838232785
 30
0.0
 11
533.1512404554189
 21
540.7497838232785
 31
0.0
  0
LINE
  5
1D06
330
1F
100
AcDbEntity
  8
画層1
100
AcDbLine
 10
531.551240455419
 20
539.7497838232785
 30
0.0
 11
532.1512404554189
 21
539.7497838232785
 31
0.0
  0
ARC
  5
1D07
330
1F
100
AcDbEntity
  8
画層1
100
AcDbCircle
 10
532.1512404554189
 20
540.7497838232785
 30
0.0
 40
1.0
100
AcDbArc
 50
270.0
 51
0.0
  0
LINE
  5
1D08
330
1F
100
AcDbEntity
  8
画層1
100
AcDbLine
 10
530.551240455419
 20
540.7497838232785
 30
0.0
 11
530.551240455419
 21
540.7497838232785
 31
0.0
  0
ARC
  5
1D09
330
1F
100
AcDbEntity
  8
画層1
100
AcDbCircle
 10
531.551240455419
 20
540.7497838232785
 30
0.0
 40
1.0
100
AcDbArc
 50
180.0
 51
270.0
  0
DIMENSION
  5
1D86
330
1F
100
AcDbEntity
  8
画層1
100
AcDbDimension
  2
*D15
 10
524.1512404554189
 20
530.2200038570127
 30
0.0
 11
503.6512404554189
 21
532.0950038570128
 31
0.0
 70
    32
 71
     5
 42
-1.0
  3
ISO-25
100
AcDbAlignedDimension
 13
483.1512404554189
 23
547.2497838232786
 33
0.0
 14
524.1512404554189
 24
547.2497838232786
 34
0.0
100
AcDbRotatedDimension
  0
LEADER
  5
1DF5
330
1F
100
AcDbEntity
  8
画層1
100
AcDbLeader
  3
ISO-25
 76
     3
 10
503.6512404554189
 20
555.9997838232785
 30
0.0
 10
511.7663878796181
 20
570.7077170294098
 30
0.0
 10
520.3041020783073
 20
570.7077170294098
 30
0.0
1001
ACAD
1000
DSTYLE
1002
{
1070
     5
1000

1070
    77
1070
     0
1070
   147
1040
0.625
1070
   342
1005
0
1002
}
  0
MTEXT
  5
1DF6
330
1F
100
AcDbEntity
  8
画層1
100
AcDbMText
 10
511.8341473901844
 20
574.6348422729961
 30
0.0
 40
2.5
 41
15.9913
 71
     1
 72
     5
  1
φ4.5
  7
STYLE1
 73
     1
 44
1.0
1001
ACAD
1000
MTEXTBEGIN
1070
    73
1070
     1
1070
    44
1040
1.0
1070
    74
1070
     0
1000
MTEXTEND
1000
MTEXTBEGIN
1070
    73
1070
     1
1070
    44
1040
1.0
1070
    74
1070
     0
1000
MTEXTEND
1000
MTEXTBEGIN
1070
    73
1070
     1
1070
    44
1040
1.0
1070
    74
1070
     0
1000
MTEXTEND
1000
MTEXTBEGIN
1070
    73
1070
     1
1070
    44
1040
1.0
1070
    74
1070
     0
1000
MTEXTEND
1000
MTEXTBEGIN
1070
    73
1070
     1
1070
    44
1040
1.0
1070
    74
1070
     0
1000
MTEXTEND
  0
LINE
  5
1DFC
330
1F
100
AcDbEntity
  8
画層1
100
AcDbLine
 10
576.3807788644678
 20
569.7497838232785
 30
0.0
 11
639.3807788644679
 21
569.7497838232785
 31
0.0
  0
LINE
  5
1E01
330
1F
100
AcDbEntity
  8
画層1
100
AcDbLine
 10
580.8807788644678
 20
549.7497838232785
 30
0.0
 11
628.6807788644678
 21
549.7497838232785
 31
0.0
  0
LINE
  5
1E03
330
1F
100
AcDbEntity
  8
画層1
100
AcDbLine
 10
639.3807788644679
 20
540.7497838232785
 30
0.0
 11
636.3807788644678
 21
540.7497838232785
 31
0.0
  0
LINE
  5
1E05
330
1F
100
AcDbEntity
  8
画層1
100
AcDbLine
 10
576.3807788644678
 20
540.7497838232785
 30
0.0
 11
579.3807788644678
 21
540.7497838232785
 31
0.0
  0
LINE
  5
1E07
330
1F
100
AcDbEntity
  8
画層1
100
AcDbLine
 10
579.3807788644678
 20
540.7497838232785
 30
0.0
 11
580.3807788644678
 21
543.2497838232785
 31
0.0
  0
LINE
  5
1E4F
330
1F
100
AcDbEntity
  8
画層1
100
AcDbLine
 10
575.3807788644678
 20
541.7497838232785
 30
0.0
 11
575.3807788644678
 21
568.7497838232785
 31
0.0
  0
LINE
  5
1E50
330
1F
100
AcDbEntity
  8
画層1
100
AcDbLine
 10
636.3807788644678
 20
540.7497838232785
 30
0.0
 11
635.3807788644679
 21
543.2497838232785
 31
0.0
  0
LINE
  5
1E53
330
1F
100
AcDbEntity
  8
画層1
100
AcDbLine
 10
580.3807788644678
 20
543.2497838232785
 30
0.0
 11
579.7807788644678
 21
544.5497838232784
 31
0.0
  0
LINE
  5
1E55
330
1F
100
AcDbEntity
  8
画層1
100
AcDbLine
 10
635.3807788644679
 20
543.2497838232785
 30
0.0
 11
635.9807788644679
 21
544.5497838232784
 31
0.0
  0
LINE
  5
1E5C
330
1F
100
AcDbEntity
  8
画層1
100
AcDbLine
 10
579.7807788644678
 20
544.5497838232784
 30
0.0
 11
580.8807788644678
 21
549.7497838232785
 31
0.0
  0
LINE
  5
1E5D
330
1F
100
AcDbEntity
  8
画層1
100
AcDbLine
 10
635.9807788644679
 20
544.5497838232784
 30
0.0
 11
634.8807788644678
 21
549.7497838232785
 31
0.0
  0
LINE
  5
1E5F
330
1F
100
AcDbEntity
  8
画層1
100
AcDbLine
 10
576.3807788644678
 20
551.5497838232784
 30
0.0
 11
639.3807788644679
 21
551.5497838232785
 31
0.0
  0
ARC
  5
1E60
330
1F
100
AcDbEntity
  8
画層1
100
AcDbCircle
 10
576.3807788644678
 20
568.7497838232785
 30
0.0
 40
1.0
100
AcDbArc
 50
90.0
 51
180.0
  0
ARC
  5
1E61
330
1F
100
AcDbEntity
  8
画層1
100
AcDbCircle
 10
639.3807788644679
 20
568.7497838232785
 30
0.0
 40
1.0
100
AcDbArc
 50
0.0
 51
90.0
  0
ARC
  5
1E62
330
1F
100
AcDbEntity
  8
画層1
100
AcDbCircle
 10
576.3807788644678
 20
550.5497838232783
 30
0.0
 40
1.0
100
AcDbArc
 50
90.0
 51
180.0
  0
ARC
  5
1E63
330
1F
100
AcDbEntity
  8
画層1
100
AcDbCircle
 10
639.3807788644679
 20
550.5497838232785
 30
0.0
 40
1.0
100
AcDbArc
 50
0.0
 51
90.0000000000001
  0
LINE
  5
1E64
330
1F
100
AcDbEntity
  8
画層1
100
AcDbLine
 10
640.3807788644678
 20
541.7497838232785
 30
0.0
 11
640.3807788644678
 21
568.7497838232785
 31
0.0
  0
LINE
  5
1E65
330
1F
100
AcDbEntity
  8
画層1
100
AcDbLine
 10
576.3807788644678
 20
540.7497838232785
 30
0.0
 11
575.3807788644678
 21
541.7497838232785
 31
0.0
  0
LINE
  5
1E66
330
1F
100
AcDbEntity
  8
画層1
100
AcDbLine
 10
639.3807788644679
 20
540.7497838232785
 30
0.0
 11
640.3807788644678
 21
541.7497838232785
 31
0.0
  0
LINE
  5
1E6A
330
1F
100
AcDbEntity
  8
画層1
100
AcDbLine
 10
628.6807788644678
 20
549.7497838232785
 30
0.0
 11
628.6807788644678
 21
548.6497838232785
 31
0.0
  0
LINE
  5
1E6B
330
1F
100
AcDbEntity
  8
画層1
100
AcDbLine
 10
628.6807788644678
 20
548.6497838232785
 30
0.0
 11
630.8807788644678
 21
548.6497838232785
 31
0.0
  0
LINE
  5
1E6C
330
1F
100
AcDbEntity
  8
画層1
100
AcDbLine
 10
630.8807788644678
 20
548.6497838232785
 30
0.0
 11
630.8807788644678
 21
549.7497838232785
 31
0.0
  0
LINE
  5
1E6D
330
1F
100
AcDbEntity
  8
画層1
100
AcDbLine
 10
630.8807788644678
 20
549.7497838232785
 30
0.0
 11
634.8807788644678
 21
549.7497838232785
 31
0.0
  0
LINE
  5
1E70
330
1F
100
AcDbEntity
  8
画層1
  6
DASHED2
100
AcDbLine
 10
607.8807788644678
 20
574.7497838232785
 30
0.0
 11
607.8807788644678
 21
539.7497838232785
 31
0.0
  0
LINE
  5
1E76
330
1F
100
AcDbEntity
  8
画層1
100
AcDbLine
 10
665.1922019519738
 20
569.7497838232785
 30
0.0
 11
666.6922019519738
 21
569.7497838232785
 31
0.0
  0
LINE
  5
1E77
330
1F
100
AcDbEntity
  8
画層1
100
AcDbLine
 10
665.1922019519738
 20
551.5497838232784
 30
0.0
 11
665.1922019519738
 21
569.7497838232785
 31
0.0
  0
LINE
  5
1E78
330
1F
100
AcDbEntity
  8
画層1
100
AcDbLine
 10
665.1922019519738
 20
551.5497838232784
 30
0.0
 11
666.2922019519738
 21
551.5497838232784
 31
0.0
  0
LINE
  5
1E79
330
1F
100
AcDbEntity
  8
画層1
100
AcDbLine
 10
666.2922019519738
 20
551.5497838232784
 30
0.0
 11
666.2922019519738
 21
540.7497838232785
 31
0.0
  0
LINE
  5
1E7E
330
1F
100
AcDbEntity
  8
画層1
100
AcDbLine
 10
666.6922019519738
 20
569.7497838232785
 30
0.0
 11
666.6922019519738
 21
555.7497838232785
 31
0.0
  0
LINE
  5
1E7F
330
1F
100
AcDbEntity
  8
画層1
100
AcDbLine
 10
666.6922019519738
 20
555.7497838232785
 30
0.0
 11
667.5922019519738
 21
552.2497838232785
 31
0.0
  0
LINE
  5
1E80
330
1F
100
AcDbEntity
  8
画層1
100
AcDbLine
 10
667.5922019519738
 20
552.2497838232785
 30
0.0
 11
667.5922019519738
 21
540.7497838232785
 31
0.0
  0
LINE
  5
1E81
330
1F
100
AcDbEntity
  8
画層1
100
AcDbLine
 10
667.5922019519738
 20
540.7497838232785
 30
0.0
 11
666.2922019519738
 21
540.7497838232785
 31
0.0
  0
DIMENSION
  5
1E82
330
1F
100
AcDbEntity
  8
画層1
100
AcDbDimension
  2
*D16
 10
575.3807788644678
 20
576.5323031360995
 30
0.0
 11
607.8807788644678
 21
578.4073031360994
 31
0.0
 70
    32
 71
     5
 42
-1.0
  3
ISO-25
100
AcDbAlignedDimension
 13
640.3807788644678
 23
568.7497838232785
 33
0.0
 14
575.3807788644678
 24
568.7497838232785
 34
0.0
100
AcDbRotatedDimension
  0
DIMENSION
  5
1E8F
330
1F
100
AcDbEntity
  8
画層1
100
AcDbDimension
  2
*D17
 10
648.7740429912014
 20
551.5497838232785
 30
0.0
 11
646.690709657868
 21
560.6497838232786
 31
0.0
 70
    32
 71
     5
 42
-1.0
  3
ISO-25
100
AcDbAlignedDimension
 13
639.3807788644679
 23
569.7497838232785
 33
0.0
 14
639.3807788644679
 24
551.5497838232785
 34
0.0
 50
90.0
100
AcDbRotatedDimension
  0
DIMENSION
  5
1E9C
330
1F
100
AcDbEntity
  8
画層1
100
AcDbDimension
  2
*D18
 10
666.6922019519738
 20
576.5323031360995
 30
0.0
 11
674.6088686186404
 21
578.6156364694328
 31
0.0
 70
    32
 71
     5
 42
-1.0
  3
ISO-25
100
AcDbAlignedDimension
 13
665.1922019519738
 23
569.7497838232785
 33
0.0
 14
666.6922019519738
 24
569.7497838232785
 34
0.0
100
AcDbRotatedDimension
  0
DIMENSION
  5
1EAB
330
1F
100
AcDbEntity
  8
画層1
100
AcDbDimension
  2
*D19
 10
665.1922019519738
 20
538.9346910615422
 30
0.0
 11
657.6922019519738
 21
541.0180243948756
 31
0.0
 70
    32
 71
     5
 42
-1.0
  3
ISO-25
100
AcDbAlignedDimension
 13
666.2922019519738
 23
540.7497838232785
 33
0.0
 14
665.1922019519738
 24
551.5497838232784
 34
0.0
100
AcDbRotatedDimension
  0
DIMENSION
  5
1EBA
330
1F
100
AcDbEntity
  8
画層1
100
AcDbDimension
  2
*D20
 10
665.1922019519738
 20
534.2443776747223
 30
0.0
 11
656.8588686186404
 21
536.3277110080556
 31
0.0
 70
    32
 71
     5
 42
-1.0
  3
ISO-25
100
AcDbAlignedDimension
 13
667.5922019519738
 23
540.7497838232785
 33
0.0
 14
665.1922019519738
 24
537.6846910615422
 34
0.0
100
AcDbRotatedDimension
  0
MTEXT
  5
1EC9
330
1F
100
AcDbEntity
  8
画層1
100
AcDbMText
 10
459.1282492123537
 20
613.4028931908603
 30
0.0
 40
5.0
 41
70.6145
 71
     1
 72
     5
  1
型式：ＱＳＨ００２\P日之出電機製作所\PＨＴ４０１７
  7
STYLE1
 73
     1
 44
1.0
1001
ACAD
1000
MTEXTBEGIN
1070
    73
1070
     1
1070
    44
1040
1.0
1070
    74
1070
     0
1000
MTEXTEND
1000
MTEXTBEGIN
1070
    73
1070
     1
1070
    44
1040
1.0
1070
    74
1070
     0
1000
MTEXTEND
1000
MTEXTBEGIN
1070
    73
1070
     1
1070
    44
1040
1.0
1070
    74
1070
     0
1000
MTEXTEND
1000
MTEXTBEGIN
1070
    73
1070
     1
1070
    44
1040
1.0
1070
    74
1070
     0
1000
MTEXTEND
  0
ENDSEC
  0
SECTION
  2
OBJECTS
  0
DICTIONARY
  5
C
330
0
100
AcDbDictionary
281
     1
  3
ACAD_GROUP
350
D
  3
ACAD_LAYOUT
350
1A
  3
ACAD_MLINESTYLE
350
17
  3
ACAD_PLOTSETTINGS
350
19
  3
ACAD_PLOTSTYLENAME
350
E
  3
AcDbVariableDictionary
350
AF4
  0
DICTIONARY
  5
BC3
330
1F
100
AcDbDictionary
280
     1
281
     1
  3
ACAD_LAYOUTSELFREF
360
22C4
  0
DICTIONARY
  5
BC5
330
1B
100
AcDbDictionary
280
     1
281
     1
  3
ACAD_LAYOUTSELFREF
360
22C3
  0
DICTIONARY
  5
BC7
330
23
100
AcDbDictionary
280
     1
281
     1
  3
ACAD_LAYOUTSELFREF
360
22C5
  0
DICTIONARY
  5
D
102
{ACAD_REACTORS
330
C
102
}
330
C
100
AcDbDictionary
281
     1
  3
*A1
350
D4D
  3
*A2
350
EE0
  3
*A3
350
F92
  3
*A4
350
FAB
  3
*A5
350
E6A
  3
*A6
350
E6B
  3
*A7
350
EA5
  3
*A8
350
EA6
  3
*A9
350
EDF
  3
*A10
350
10EC
  3
*A11
350
10F0
  0
DICTIONARY
  5
1A
102
{ACAD_REACTORS
330
C
102
}
330
C
100
AcDbDictionary
281
     1
  3
Layout1
350
1E
  3
Layout2
350
26
  3
Model
350
22
  0
DICTIONARY
  5
17
102
{ACAD_REACTORS
330
C
102
}
330
C
100
AcDbDictionary
281
     1
  3
Standard
350
18
  0
DICTIONARY
  5
19
102
{ACAD_REACTORS
330
C
102
}
330
C
100
AcDbDictionary
281
     1
  0
ACDBDICTIONARYWDFLT
  5
E
102
{ACAD_REACTORS
330
C
102
}
330
C
100
AcDbDictionary
281
     1
  3
Normal
350
F
100
AcDbDictionaryWithDefault
340
F
  0
DICTIONARY
  5
AF4
102
{ACAD_REACTORS
330
C
102
}
330
C
100
AcDbDictionary
281
     1
  3
DIMASSOC
350
AF5
  3
SORTENTS
350
12E3
  0
XRECORD
  5
22C4
102
{ACAD_REACTORS
330
BC3
102
}
330
BC3
100
AcDbXrecord
280
     1
340
1F
  0
XRECORD
  5
22C3
102
{ACAD_REACTORS
330
BC5
102
}
330
BC5
100
AcDbXrecord
280
     1
340
1B
  0
XRECORD
  5
22C5
102
{ACAD_REACTORS
330
BC7
102
}
330
BC7
100
AcDbXrecord
280
     1
340
23
  0
GROUP
  5
D4D
102
{ACAD_REACTORS
330
D
102
}
330
D
100
AcDbGroup
300

 70
     1
 71
     1
  0
GROUP
  5
EE0
102
{ACAD_REACTORS
330
D
102
}
330
D
100
AcDbGroup
300

 70
     1
 71
     1
  0
GROUP
  5
F92
102
{ACAD_REACTORS
330
D
102
}
330
D
100
AcDbGroup
300

 70
     1
 71
     1
  0
GROUP
  5
FAB
102
{ACAD_REACTORS
330
D
102
}
330
D
100
AcDbGroup
300

 70
     1
 71
     1
  0
GROUP
  5
E6A
102
{ACAD_REACTORS
330
D
102
}
330
D
100
AcDbGroup
300

 70
     1
 71
     1
  0
GROUP
  5
E6B
102
{ACAD_REACTORS
330
D
102
}
330
D
100
AcDbGroup
300

 70
     1
 71
     1
  0
GROUP
  5
EA5
102
{ACAD_REACTORS
330
D
102
}
330
D
100
AcDbGroup
300

 70
     1
 71
     1
  0
GROUP
  5
EA6
102
{ACAD_REACTORS
330
D
102
}
330
D
100
AcDbGroup
300

 70
     1
 71
     1
  0
GROUP
  5
EDF
102
{ACAD_REACTORS
330
D
102
}
330
D
100
AcDbGroup
300

 70
     1
 71
     1
  0
GROUP
  5
10EC
102
{ACAD_REACTORS
330
D
102
}
330
D
100
AcDbGroup
300

 70
     1
 71
     1
  0
GROUP
  5
10F0
102
{ACAD_REACTORS
330
D
102
}
330
D
100
AcDbGroup
300

 70
     1
 71
     1
  0
LAYOUT
  5
1E
102
{ACAD_REACTORS
330
1A
102
}
330
1A
100
AcDbPlotSettings
  1

  2

  4

  6

 40
0.0
 41
0.0
 42
0.0
 43
0.0
 44
0.0
 45
0.0
 46
0.0
 47
0.0
 48
0.0
 49
0.0
140
0.0
141
0.0
142
1.0
143
1.0
 70
   688
 72
     0
 73
     0
 74
     5
  7
ryu.ctb
 75
    16
147
1.0
148
0.0
149
0.0
100
AcDbLayout
  1
Layout1
 70
     1
 71
     1
 10
0.0
 20
0.0
 11
420.0
 21
297.0
 12
0.0
 22
0.0
 32
0.0
 14
1.000000000000000E+20
 24
1.000000000000000E+20
 34
1.000000000000000E+20
 15
-1.000000000000000E+20
 25
-1.000000000000000E+20
 35
-1.000000000000000E+20
146
0.0
 13
0.0
 23
0.0
 33
0.0
 16
1.0
 26
0.0
 36
0.0
 17
0.0
 27
1.0
 37
0.0
 76
     0
330
1B
  0
LAYOUT
  5
26
102
{ACAD_REACTORS
330
1A
102
}
330
1A
100
AcDbPlotSettings
  1

  2

  4

  6

 40
0.0
 41
0.0
 42
0.0
 43
0.0
 44
0.0
 45
0.0
 46
0.0
 47
0.0
 48
0.0
 49
0.0
140
0.0
141
0.0
142
1.0
143
1.0
 70
   688
 72
     0
 73
     0
 74
     5
  7
ryu.ctb
 75
    16
147
1.0
148
0.0
149
0.0
100
AcDbLayout
  1
Layout2
 70
     1
 71
     2
 10
0.0
 20
0.0
 11
12.0
 21
9.0
 12
0.0
 22
0.0
 32
0.0
 14
0.0
 24
0.0
 34
0.0
 15
0.0
 25
0.0
 35
0.0
146
0.0
 13
0.0
 23
0.0
 33
0.0
 16
1.0
 26
0.0
 36
0.0
 17
0.0
 27
1.0
 37
0.0
 76
     0
330
23
  0
LAYOUT
  5
22
102
{ACAD_REACTORS
330
1A
102
}
330
1A
100
AcDbPlotSettings
  1

  2
Acrobat Distiller
  4
A3
  6

 40
3.174999952316284
 41
3.174999952316284
 42
3.17498779296875
 43
3.17498779296875
 44
297.0530090332031
 45
420.1583251953125
 46
0.0
 47
0.0
 48
0.0
 49
0.0
140
0.0
141
0.0
142
1.0
143
1.0
 70
 11952
 72
     1
 73
     1
 74
     1
  7
ryu.ctb
 75
    16
147
1.0
148
-265.0827039232044
149
-184.4376534941113
100
AcDbLayout
  1
Model
 70
     1
 71
     0
 10
0.0
 20
0.0
 11
12.0
 21
9.0
 12
0.0
 22
0.0
 32
0.0
 14
0.0
 24
0.0
 34
0.0
 15
0.0
 25
0.0
 35
0.0
146
0.0
 13
0.0
 23
0.0
 33
0.0
 16
1.0
 26
0.0
 36
0.0
 17
0.0
 27
1.0
 37
0.0
 76
     0
330
1F
  0
MLINESTYLE
  5
18
102
{ACAD_REACTORS
330
17
102
}
330
17
100
AcDbMlineStyle
  2
STANDARD
 70
     0
  3

 62
   256
 51
90.0
 52
90.0
 71
     2
 49
0.5
 62
   256
  6
BYLAYER
 49
-0.5
 62
   256
  6
BYLAYER
  0
ACDBPLACEHOLDER
  5
F
102
{ACAD_REACTORS
330
E
102
}
330
E
  0
DICTIONARYVAR
  5
AF5
102
{ACAD_REACTORS
330
AF4
102
}
330
AF4
100
DictionaryVariables
280
     0
  1
1
  0
DICTIONARYVAR
  5
12E3
102
{ACAD_REACTORS
330
AF4
102
}
330
AF4
100
DictionaryVariables
280
     0
  1
96
  0
ENDSEC
  0
EOF
