  0
SECTION
  2
HEADER
  9
$ACADVER
  1
AC1015
  9
$ACADMAINTVER
 70
     6
  9
$DWGCODEPAGE
  3
ANSI_932
  9
$INSBASE
 10
0.0
 20
0.0
 30
0.0
  9
$EXTMIN
 10
50.67312525243177
 20
175.9300661138872
 30
0.0
  9
$EXTMAX
 10
475.8254211400576
 20
496.5726974348657
 30
0.0
  9
$LIMMIN
 10
0.0
 20
0.0
  9
$LIMMAX
 10
420.0
 20
297.0
  9
$ORTHOMODE
 70
     1
  9
$REGENMODE
 70
     1
  9
$FILLMODE
 70
     1
  9
$QTEXTMODE
 70
     0
  9
$MIRRTEXT
 70
     1
  9
$LTSCALE
 40
0.2
  9
$ATTMODE
 70
     1
  9
$TEXTSIZE
 40
2.5
  9
$TRACEWID
 40
1.0
  9
$TEXTSTYLE
  7
STYLE1
  9
$CLAYER
  8
画層1
  9
$CELTYPE
  6
BYLAYER
  9
$CECOLOR
 62
     1
  9
$CELTSCALE
 40
1.0
  9
$DISPSILH
 70
     0
  9
$DIMSCALE
 40
1.0
  9
$DIMASZ
 40
1.5
  9
$DIMEXO
 40
0.63
  9
$DIMDLI
 40
3.75
  9
$DIMRND
 40
0.0
  9
$DIMDLE
 40
0.0
  9
$DIMEXE
 40
1.25
  9
$DIMTP
 40
0.6
  9
$DIMTM
 40
0.0
  9
$DIMTXT
 40
2.5
  9
$DIMCEN
 40
2.5
  9
$DIMTSZ
 40
0.0
  9
$DIMTOL
 70
     0
  9
$DIMLIM
 70
     0
  9
$DIMTIH
 70
     0
  9
$DIMTOH
 70
     0
  9
$DIMSE1
 70
     0
  9
$DIMSE2
 70
     0
  9
$DIMTAD
 70
     1
  9
$DIMZIN
 70
     8
  9
$DIMBLK
  1
OPEN30
  9
$DIMASO
 70
     1
  9
$DIMSHO
 70
     1
  9
$DIMPOST
  1

  9
$DIMAPOST
  1

  9
$DIMALT
 70
     0
  9
$DIMALTD
 70
     4
  9
$DIMALTF
 40
0.04
  9
$DIMLFAC
 40
1.0
  9
$DIMTOFL
 70
     1
  9
$DIMTVP
 40
0.0
  9
$DIMTIX
 70
     0
  9
$DIMSOXD
 70
     0
  9
$DIMSAH
 70
     0
  9
$DIMBLK1
  1

  9
$DIMBLK2
  1

  9
$DIMSTYLE
  2
STANDARD_WS
  9
$DIMCLRD
 70
     0
  9
$DIMCLRE
 70
     0
  9
$DIMCLRT
 70
     0
  9
$DIMTFAC
 40
0.5
  9
$DIMGAP
 40
0.63
  9
$DIMJUST
 70
     0
  9
$DIMSD1
 70
     0
  9
$DIMSD2
 70
     0
  9
$DIMTOLJ
 70
     1
  9
$DIMTZIN
 70
     8
  9
$DIMALTZ
 70
     0
  9
$DIMALTTZ
 70
     0
  9
$DIMUPT
 70
     0
  9
$DIMDEC
 70
     1
  9
$DIMTDEC
 70
     1
  9
$DIMALTU
 70
     8
  9
$DIMALTTD
 70
     4
  9
$DIMTXSTY
  7
STYLE1
  9
$DIMAUNIT
 70
     0
  9
$DIMADEC
 70
     0
  9
$DIMALTRND
 40
0.0
  9
$DIMAZIN
 70
     0
  9
$DIMDSEP
 70
    46
  9
$DIMATFIT
 70
     3
  9
$DIMFRAC
 70
     0
  9
$DIMLDRBLK
  1
OPEN30
  9
$DIMLUNIT
 70
     2
  9
$DIMLWD
 70
    -2
  9
$DIMLWE
 70
    -2
  9
$DIMTMOVE
 70
     0
  9
$LUNITS
 70
     2
  9
$LUPREC
 70
     4
  9
$SKETCHINC
 40
1.0
  9
$FILLETRAD
 40
2.0
  9
$AUNITS
 70
     0
  9
$AUPREC
 70
     0
  9
$MENU
  1
acad
  9
$ELEVATION
 40
0.0
  9
$PELEVATION
 40
0.0
  9
$THICKNESS
 40
0.0
  9
$LIMCHECK
 70
     0
  9
$CHAMFERA
 40
1.0
  9
$CHAMFERB
 40
1.0
  9
$CHAMFERC
 40
20.0
  9
$CHAMFERD
 40
0.0
  9
$SKPOLY
 70
     0
  9
$TDCREATE
 40
2450995.462150231
  9
$TDUCREATE
 40
2450995.087150231
  9
$TDUPDATE
 40
2454594.726313287
  9
$TDUUPDATE
 40
2454594.351313287
  9
$TDINDWG
 40
4.5159401157
  9
$TDUSRTIMER
 40
4.5159346644
  9
$USRTIMER
 70
     1
  9
$ANGBASE
 50
0.0
  9
$ANGDIR
 70
     0
  9
$PDMODE
 70
     0
  9
$PDSIZE
 40
0.0
  9
$PLINEWID
 40
10.0
  9
$SPLFRAME
 70
     0
  9
$SPLINETYPE
 70
     6
  9
$SPLINESEGS
 70
     8
  9
$HANDSEED
  5
11B1
  9
$SURFTAB1
 70
     6
  9
$SURFTAB2
 70
     6
  9
$SURFTYPE
 70
     6
  9
$SURFU
 70
     6
  9
$SURFV
 70
     6
  9
$UCSBASE
  2

  9
$UCSNAME
  2

  9
$UCSORG
 10
0.0
 20
0.0
 30
0.0
  9
$UCSXDIR
 10
1.0
 20
0.0
 30
0.0
  9
$UCSYDIR
 10
0.0
 20
1.0
 30
0.0
  9
$UCSORTHOREF
  2

  9
$UCSORTHOVIEW
 70
     0
  9
$UCSORGTOP
 10
0.0
 20
0.0
 30
0.0
  9
$UCSORGBOTTOM
 10
0.0
 20
0.0
 30
0.0
  9
$UCSORGLEFT
 10
0.0
 20
0.0
 30
0.0
  9
$UCSORGRIGHT
 10
0.0
 20
0.0
 30
0.0
  9
$UCSORGFRONT
 10
0.0
 20
0.0
 30
0.0
  9
$UCSORGBACK
 10
0.0
 20
0.0
 30
0.0
  9
$PUCSBASE
  2

  9
$PUCSNAME
  2

  9
$PUCSORG
 10
0.0
 20
0.0
 30
0.0
  9
$PUCSXDIR
 10
1.0
 20
0.0
 30
0.0
  9
$PUCSYDIR
 10
0.0
 20
1.0
 30
0.0
  9
$PUCSORTHOREF
  2

  9
$PUCSORTHOVIEW
 70
     0
  9
$PUCSORGTOP
 10
0.0
 20
0.0
 30
0.0
  9
$PUCSORGBOTTOM
 10
0.0
 20
0.0
 30
0.0
  9
$PUCSORGLEFT
 10
0.0
 20
0.0
 30
0.0
  9
$PUCSORGRIGHT
 10
0.0
 20
0.0
 30
0.0
  9
$PUCSORGFRONT
 10
0.0
 20
0.0
 30
0.0
  9
$PUCSORGBACK
 10
0.0
 20
0.0
 30
0.0
  9
$USERI1
 70
     0
  9
$USERI2
 70
     0
  9
$USERI3
 70
     0
  9
$USERI4
 70
     0
  9
$USERI5
 70
     0
  9
$USERR1
 40
0.0
  9
$USERR2
 40
0.0
  9
$USERR3
 40
0.0
  9
$USERR4
 40
0.0
  9
$USERR5
 40
0.0
  9
$WORLDVIEW
 70
     1
  9
$SHADEDGE
 70
     3
  9
$SHADEDIF
 70
    70
  9
$TILEMODE
 70
     1
  9
$MAXACTVP
 70
    48
  9
$PINSBASE
 10
0.0
 20
0.0
 30
0.0
  9
$PLIMCHECK
 70
     0
  9
$PEXTMIN
 10
1.000000000000000E+20
 20
1.000000000000000E+20
 30
1.000000000000000E+20
  9
$PEXTMAX
 10
-1.000000000000000E+20
 20
-1.000000000000000E+20
 30
-1.000000000000000E+20
  9
$PLIMMIN
 10
0.0
 20
0.0
  9
$PLIMMAX
 10
420.0
 20
297.0
  9
$UNITMODE
 70
     0
  9
$VISRETAIN
 70
     1
  9
$PLINEGEN
 70
     0
  9
$PSLTSCALE
 70
     1
  9
$TREEDEPTH
 70
  3020
  9
$CMLSTYLE
  2
STANDARD
  9
$CMLJUST
 70
     0
  9
$CMLSCALE
 40
20.0
  9
$PROXYGRAPHICS
 70
     1
  9
$MEASUREMENT
 70
     1
  9
$CELWEIGHT
370
    -1
  9
$ENDCAPS
280
     0
  9
$JOINSTYLE
280
     0
  9
$LWDISPLAY
290
     0
  9
$INSUNITS
 70
     0
  9
$HYPERLINKBASE
  1

  9
$STYLESHEET
  1

  9
$XEDIT
290
     1
  9
$CEPSNTYPE
380
     0
  9
$PSTYLEMODE
290
     1
  9
$FINGERPRINTGUID
  2
{12426522-B208-11D3-A790-004026173390}
  9
$VERSIONGUID
  2
{66A12076-C7E6-4A49-944D-94FCD2852E73}
  9
$EXTNAMES
290
     1
  9
$PSVPSCALE
 40
0.0
  9
$OLESTARTUP
290
     0
  0
ENDSEC
  0
SECTION
  2
CLASSES
  0
CLASS
  1
DICTIONARYVAR
  2
AcDbDictionaryVar
  3
AutoCAD 2000
 90
    32768
280
     0
281
     0
  0
CLASS
  1
LWPOLYLINE
  2
AcDbPolyline
  3
AutoCAD 2000
 90
    32768
280
     0
281
     1
  0
CLASS
  1
OLE2FRAME
  2
AcDbOle2Frame
  3
AutoCAD 2000
 90
    32768
280
     0
281
     1
  0
CLASS
  1
HATCH
  2
AcDbHatch
  3
AutoCAD 2000
 90
    32768
280
     0
281
     1
  0
CLASS
  1
ACDBDICTIONARYWDFLT
  2
AcDbDictionaryWithDefault
  3
AutoCAD 2000
 90
        0
280
     0
281
     0
  0
CLASS
  1
ACDBPLACEHOLDER
  2
AcDbPlaceHolder
  3
AutoCAD 2000
 90
        0
280
     0
281
     0
  0
CLASS
  1
LAYOUT
  2
AcDbLayout
  3
AutoCAD 2000
 90
        0
280
     0
281
     0
  0
CLASS
  1
LONG_TRANSACTION
  2
AcDbLongTransaction
  3
AutoCAD 2000
 90
    32768
280
     0
281
     0
  0
CLASS
  1
LWPOLYLINE
  2
AcDbPolyline
  3
AutoCAD 2000
 90
    32768
280
     0
281
     1
  0
CLASS
  1
HATCH
  2
AcDbHatch
  3
AutoCAD 2000
 90
    32768
280
     0
281
     1
  0
CLASS
  1
XRECORD
  2
AcDbXrecord
  3
AutoCAD 2000
 90
    32768
280
     0
281
     0
  0
CLASS
  1
LONG_TRANSACTION
  2
AcDbLongTransaction
  3
AutoCAD 2000
 90
    32768
280
     0
281
     0
  0
CLASS
  1
LWPOLYLINE
  2
AcDbPolyline
  3
AutoCAD 2000
 90
    32768
280
     0
281
     1
  0
CLASS
  1
HATCH
  2
AcDbHatch
  3
AutoCAD 2000
 90
    32768
280
     0
281
     1
  0
CLASS
  1
XRECORD
  2
AcDbXrecord
  3
AutoCAD 2000
 90
    32768
280
     0
281
     0
  0
CLASS
  1
LONG_TRANSACTION
  2
AcDbLongTransaction
  3
AutoCAD 2000
 90
    32768
280
     0
281
     0
  0
CLASS
  1
LWPOLYLINE
  2
AcDbPolyline
  3
AutoCAD 2000
 90
    32768
280
     0
281
     1
  0
CLASS
  1
HATCH
  2
AcDbHatch
  3
AutoCAD 2000
 90
    32768
280
     0
281
     1
  0
CLASS
  1
XRECORD
  2
AcDbXrecord
  3
AutoCAD 2000
 90
    32768
280
     0
281
     0
  0
CLASS
  1
LONG_TRANSACTION
  2
AcDbLongTransaction
  3
AutoCAD 2000
 90
    32768
280
     0
281
     0
  0
CLASS
  1
LWPOLYLINE
  2
AcDbPolyline
  3
AutoCAD 2000
 90
    32768
280
     0
281
     1
  0
CLASS
  1
HATCH
  2
AcDbHatch
  3
AutoCAD 2000
 90
    32768
280
     0
281
     1
  0
CLASS
  1
XRECORD
  2
AcDbXrecord
  3
AutoCAD 2000
 90
    32768
280
     0
281
     0
  0
CLASS
  1
LONG_TRANSACTION
  2
AcDbLongTransaction
  3
AutoCAD 2000
 90
    32768
280
     0
281
     0
  0
CLASS
  1
LWPOLYLINE
  2
AcDbPolyline
  3
AutoCAD 2000
 90
    32768
280
     0
281
     1
  0
CLASS
  1
HATCH
  2
AcDbHatch
  3
AutoCAD 2000
 90
    32768
280
     0
281
     1
  0
CLASS
  1
XRECORD
  2
AcDbXrecord
  3
AutoCAD 2000
 90
    32768
280
     0
281
     0
  0
CLASS
  1
LONG_TRANSACTION
  2
AcDbLongTransaction
  3
AutoCAD 2000
 90
    32768
280
     0
281
     0
  0
CLASS
  1
LWPOLYLINE
  2
AcDbPolyline
  3
AutoCAD 2000
 90
    32768
280
     0
281
     1
  0
CLASS
  1
HATCH
  2
AcDbHatch
  3
AutoCAD 2000
 90
    32768
280
     0
281
     1
  0
CLASS
  1
XRECORD
  2
AcDbXrecord
  3
AutoCAD 2000
 90
    32768
280
     0
281
     0
  0
CLASS
  1
LONG_TRANSACTION
  2
AcDbLongTransaction
  3
AutoCAD 2000
 90
    32768
280
     0
281
     0
  0
CLASS
  1
LWPOLYLINE
  2
AcDbPolyline
  3
AutoCAD 2000
 90
    32768
280
     0
281
     1
  0
CLASS
  1
HATCH
  2
AcDbHatch
  3
AutoCAD 2000
 90
    32768
280
     0
281
     1
  0
CLASS
  1
XRECORD
  2
AcDbXrecord
  3
AutoCAD 2000
 90
    32768
280
     0
281
     0
  0
CLASS
  1
LONG_TRANSACTION
  2
AcDbLongTransaction
  3
AutoCAD 2000
 90
    32768
280
     0
281
     0
  0
CLASS
  1
LWPOLYLINE
  2
AcDbPolyline
  3
AutoCAD 2000
 90
    32768
280
     0
281
     1
  0
CLASS
  1
HATCH
  2
AcDbHatch
  3
AutoCAD 2000
 90
    32768
280
     0
281
     1
  0
CLASS
  1
XRECORD
  2
AcDbXrecord
  3
AutoCAD 2000
 90
    32768
280
     0
281
     0
  0
CLASS
  1
LONG_TRANSACTION
  2
AcDbLongTransaction
  3
AutoCAD 2000
 90
    32768
280
     0
281
     0
  0
CLASS
  1
LWPOLYLINE
  2
AcDbPolyline
  3
AutoCAD 2000
 90
    32768
280
     0
281
     1
  0
CLASS
  1
HATCH
  2
AcDbHatch
  3
AutoCAD 2000
 90
    32768
280
     0
281
     1
  0
CLASS
  1
XRECORD
  2
AcDbXrecord
  3
AutoCAD 2000
 90
    32768
280
     0
281
     0
  0
ENDSEC
  0
SECTION
  2
TABLES
  0
TABLE
  2
VPORT
  5
1E
330
0
100
AcDbSymbolTable
 70
     6
  0
VPORT
  5
11B0
330
1E
100
AcDbSymbolTableRecord
100
AcDbViewportTableRecord
  2
*Active
 70
     0
 10
0.0
 20
0.0
 11
1.0
 21
1.0
 12
245.494388303171
 22
288.1867804672901
 13
0.0
 23
0.0
 14
1.0
 24
1.0
 15
2.0
 25
2.0
 16
0.0
 26
0.0
 36
1.0
 17
0.0
 27
0.0
 37
0.0
 40
420.8183132086603
 41
1.709909909909909
 42
50.0
 43
0.0
 44
0.0
 50
0.0
 51
0.0
 71
     0
 72
   100
 73
     1
 74
     1
 75
     0
 76
     0
 77
     0
 78
     0
281
     0
 65
     1
110
0.0
120
0.0
130
0.0
111
1.0
121
0.0
131
0.0
112
0.0
122
1.0
132
0.0
 79
     0
146
0.0
  0
ENDTAB
  0
TABLE
  2
LTYPE
  5
19
330
0
100
AcDbSymbolTable
 70
     3
  0
LTYPE
  5
1A
330
19
100
AcDbSymbolTableRecord
100
AcDbLinetypeTableRecord
  2
BYBLOCK
 70
     0
  3

 72
    65
 73
     0
 40
0.0
  0
LTYPE
  5
1B
330
19
100
AcDbSymbolTableRecord
100
AcDbLinetypeTableRecord
  2
BYLAYER
 70
     0
  3

 72
    65
 73
     0
 40
0.0
  0
LTYPE
  5
A
330
19
100
AcDbSymbolTableRecord
100
AcDbLinetypeTableRecord
  2
CONTINUOUS
 70
     0
  3
Solid line
 72
    65
 73
     0
 40
0.0
  0
LTYPE
  5
68
330
19
100
AcDbSymbolTableRecord
100
AcDbLinetypeTableRecord
  2
DASHED2
 70
     0
  3
Dashed (.5x) _ _ _ _ _ _ _ _ _ _ _ _ _ _ _ _ _
 72
    65
 73
     2
 40
9.529999999999999
 49
6.349999999999998
 74
     0
 49
-3.18
 74
     0
  0
LTYPE
  5
76
330
19
100
AcDbSymbolTableRecord
100
AcDbLinetypeTableRecord
  2
CENTER
 70
     0
  3
Center ____ _ ____ _ ____ _ ____ _ ____ _ ____
 72
    65
 73
     4
 40
50.8
 49
31.75
 74
     0
 49
-6.349999999999998
 74
     0
 49
6.349999999999998
 74
     0
 49
-6.349999999999998
 74
     0
  0
ENDTAB
  0
TABLE
  2
LAYER
  5
14
330
0
100
AcDbSymbolTable
 70
     3
  0
LAYER
  5
6
330
14
100
AcDbSymbolTableRecord
100
AcDbLayerTableRecord
  2
0
 70
     0
 62
     7
  6
CONTINUOUS
370
    -3
390
7
  0
LAYER
  5
3F
330
14
100
AcDbSymbolTableRecord
100
AcDbLayerTableRecord
  2
DEFPOINTS
 70
     0
 62
     7
  6
CONTINUOUS
290
     0
370
    -3
390
7
  0
LAYER
  5
26
330
14
100
AcDbSymbolTableRecord
100
AcDbLayerTableRecord
  2
画層1
 70
     0
 62
     7
  6
CONTINUOUS
370
    -3
390
7
  0
ENDTAB
  0
TABLE
  2
STYLE
  5
15
330
0
100
AcDbSymbolTable
 70
     2
  0
STYLE
  5
16
330
15
100
AcDbSymbolTableRecord
100
AcDbTextStyleTableRecord
  2
STANDARD
 70
     0
 40
2.5
 41
1.0
 50
0.0
 71
     0
 42
1.5
  3
MS PMincho.ttf
  4

1001
ACAD
1000
MS PMincho
1071
    32786
  0
STYLE
  5
27
330
15
100
AcDbSymbolTableRecord
100
AcDbTextStyleTableRecord
  2
STYLE1
 70
     0
 40
2.5
 41
1.0
 50
0.0
 71
     0
 42
2.5
  3
MS Gothic.ttf
  4

1001
ACAD
1000
MS Gothic
1071
    32817
  0
ENDTAB
  0
TABLE
  2
VIEW
  5
1C
330
0
100
AcDbSymbolTable
 70
     0
  0
ENDTAB
  0
TABLE
  2
UCS
  5
1D
330
0
100
AcDbSymbolTable
 70
     0
  0
ENDTAB
  0
TABLE
  2
APPID
  5
20
330
0
100
AcDbSymbolTable
 70
     1
  0
APPID
  5
17
330
20
100
AcDbSymbolTableRecord
100
AcDbRegAppTableRecord
  2
ACAD
 70
     0
  0
ENDTAB
  0
TABLE
  2
DIMSTYLE
  5
21
330
0
100
AcDbSymbolTable
 70
     1
100
AcDbDimStyleTable
 71
     1
340
35
  0
DIMSTYLE
105
35
102
{ACAD_REACTORS
330
F39
330
F46
330
F53
330
F8D
330
F9A
330
FA7
330
FBD
330
FCB
330
FD9
330
FE6
330
FFC
102
}
330
21
100
AcDbSymbolTableRecord
100
AcDbDimStyleTableRecord
  2
STANDARD_WS
 70
     0
 41
1.5
 42
0.63
 43
3.75
 44
1.25
 73
     0
 74
     0
 77
     1
 78
     8
140
2.5
141
2.5
143
0.04
147
0.63
171
     4
172
     1
173
     1
273
     8
274
     4
340
16
341
2E
343
2E
344
2E
  0
ENDTAB
  0
TABLE
  2
BLOCK_RECORD
  5
1
330
0
100
AcDbSymbolTable
 70
    22
  0
BLOCK_RECORD
  5
2
102
{ACAD_XDICTIONARY
360
3
102
}
330
1
100
AcDbSymbolTableRecord
100
AcDbBlockTableRecord
  2
*MODEL_SPACE
340
560
  0
BLOCK_RECORD
  5
E
102
{ACAD_XDICTIONARY
360
F
102
}
330
1
100
AcDbSymbolTableRecord
100
AcDbBlockTableRecord
  2
*PAPER_SPACE
340
561
  0
BLOCK_RECORD
  5
2E
330
1
100
AcDbSymbolTableRecord
100
AcDbBlockTableRecord
  2
_OPEN
340
0
  0
BLOCK_RECORD
  5
28
330
1
100
AcDbSymbolTableRecord
100
AcDbBlockTableRecord
  2
_OPEN30
340
0
102
{BLKREFS
331
CAA
331
CAB
331
C98
331
C99
331
C8F
331
C90
331
CA1
331
CA2
331
C86
331
C87
331
C7D
331
C7E
331
C74
331
C75
331
C6B
331
C6C
331
F3E
331
F3F
331
F4B
331
F4C
331
F58
331
F59
331
F63
331
F64
331
F6C
331
F6D
331
F75
331
F76
331
F7E
331
F7F
331
F87
331
F88
331
F92
331
F93
331
F9F
331
FA0
331
FAC
331
FAD
331
FB7
331
FB8
331
FC3
331
FC4
331
FD1
331
FD2
331
FDE
331
FDF
331
FEB
331
FEC
331
FF6
331
FF7
331
1001
331
1002
331
100E
331
100F
331
1017
331
1018
331
1020
331
1021
331
102A
331
102B
331
1033
331
1034
331
103C
331
103D
331
1045
331
1046
331
104F
331
1050
331
10E9
331
10EA
331
10F2
331
10F3
331
10FB
331
10FC
331
1104
331
1105
331
110D
331
110E
331
1116
331
1117
331
1120
331
1121
331
112A
331
112B
331
1133
331
1134
331
113C
331
113D
331
1145
331
1146
331
114E
331
114F
331
1157
331
1158
331
1161
331
1162
331
116A
331
116B
331
1173
331
1174
331
117C
331
117D
331
1185
331
1186
331
118F
331
1190
331
1198
331
1199
331
11A1
331
11A2
331
11AA
331
11AB
102
}
  0
BLOCK_RECORD
  5
121
330
1
100
AcDbSymbolTableRecord
100
AcDbBlockTableRecord
  2
_DOTSMALL
340
0
  0
BLOCK_RECORD
  5
F3A
330
1
100
AcDbSymbolTableRecord
100
AcDbBlockTableRecord
  2
*D11
340
0
  0
BLOCK_RECORD
  5
F47
330
1
100
AcDbSymbolTableRecord
100
AcDbBlockTableRecord
  2
*D12
340
0
  0
BLOCK_RECORD
  5
F54
330
1
100
AcDbSymbolTableRecord
100
AcDbBlockTableRecord
  2
*D13
340
0
  0
BLOCK_RECORD
  5
F8E
330
1
100
AcDbSymbolTableRecord
100
AcDbBlockTableRecord
  2
*D14
340
0
  0
BLOCK_RECORD
  5
F9B
330
1
100
AcDbSymbolTableRecord
100
AcDbBlockTableRecord
  2
*D15
340
0
  0
BLOCK_RECORD
  5
FA8
330
1
100
AcDbSymbolTableRecord
100
AcDbBlockTableRecord
  2
*D16
340
0
  0
BLOCK_RECORD
  5
FBE
330
1
100
AcDbSymbolTableRecord
100
AcDbBlockTableRecord
  2
*D17
340
0
  0
BLOCK_RECORD
  5
FCC
330
1
100
AcDbSymbolTableRecord
100
AcDbBlockTableRecord
  2
*D18
340
0
  0
BLOCK_RECORD
  5
FDA
330
1
100
AcDbSymbolTableRecord
100
AcDbBlockTableRecord
  2
*D19
340
0
  0
BLOCK_RECORD
  5
FE7
330
1
100
AcDbSymbolTableRecord
100
AcDbBlockTableRecord
  2
*D20
340
0
  0
BLOCK_RECORD
  5
FFD
330
1
100
AcDbSymbolTableRecord
100
AcDbBlockTableRecord
  2
*D21
340
0
  0
ENDTAB
  0
ENDSEC
  0
SECTION
  2
BLOCKS
  0
BLOCK
  5
5
330
2
100
AcDbEntity
  8
0
100
AcDbBlockBegin
  2
*MODEL_SPACE
 70
     0
 10
0.0
 20
0.0
 30
0.0
  3
*MODEL_SPACE
  1

  0
ENDBLK
  5
B
330
2
100
AcDbEntity
  8
0
100
AcDbBlockEnd
  0
BLOCK
  5
11
330
E
100
AcDbEntity
 67
     1
  8
0
100
AcDbBlockBegin
  2
*PAPER_SPACE
 70
     0
 10
0.0
 20
0.0
 30
0.0
  3
*PAPER_SPACE
  1

  0
ENDBLK
  5
12
330
E
100
AcDbEntity
 67
     1
  8
0
100
AcDbBlockEnd
  0
BLOCK
  5
32
330
2E
100
AcDbEntity
  8
0
100
AcDbBlockBegin
  2
_OPEN
 70
     0
 10
0.0
 20
0.0
 30
0.0
  3
_OPEN
  1

  0
LINE
  5
2F
330
2E
100
AcDbEntity
  8
0
  6
ByBlock
 62
     0
100
AcDbLine
 10
-1.0
 20
0.17
 30
0.0
 11
0.0
 21
0.0
 31
0.0
  0
LINE
  5
30
330
2E
100
AcDbEntity
  8
0
  6
ByBlock
 62
     0
100
AcDbLine
 10
0.0
 20
0.0
 30
0.0
 11
-1.0
 21
-0.17
 31
0.0
  0
LINE
  5
31
330
2E
100
AcDbEntity
  8
0
  6
ByBlock
 62
     0
100
AcDbLine
 10
0.0
 20
0.0
 30
0.0
 11
-1.0
 21
0.0
 31
0.0
  0
ENDBLK
  5
33
330
2E
100
AcDbEntity
  8
0
100
AcDbBlockEnd
  0
BLOCK
  5
2C
330
28
100
AcDbEntity
  8
0
100
AcDbBlockBegin
  2
_OPEN30
 70
     0
 10
0.0
 20
0.0
 30
0.0
  3
_OPEN30
  1

  0
LINE
  5
29
330
28
100
AcDbEntity
  8
0
  6
ByBlock
 62
     0
100
AcDbLine
 10
-1.0
 20
0.27
 30
0.0
 11
0.0
 21
0.0
 31
0.0
  0
LINE
  5
2A
330
28
100
AcDbEntity
  8
0
  6
ByBlock
 62
     0
100
AcDbLine
 10
0.0
 20
0.0
 30
0.0
 11
-1.0
 21
-0.27
 31
0.0
  0
LINE
  5
2B
330
28
100
AcDbEntity
  8
0
  6
ByBlock
 62
     0
100
AcDbLine
 10
0.0
 20
0.0
 30
0.0
 11
-1.0
 21
0.0
 31
0.0
  0
ENDBLK
  5
2D
330
28
100
AcDbEntity
  8
0
100
AcDbBlockEnd
  0
BLOCK
  5
123
330
121
100
AcDbEntity
  8
0
 62
     1
100
AcDbBlockBegin
  2
_DOTSMALL
 70
     0
 10
0.0
 20
0.0
 30
0.0
  3
_DOTSMALL
  1

  0
LWPOLYLINE
  5
122
330
121
100
AcDbEntity
  8
画層1
 62
     0
100
AcDbPolyline
 90
        2
 70
     1
 43
0.5
 10
-0.06
 20
0.0
 42
1.0
 10
0.06
 20
0.0
 42
1.0
  0
ENDBLK
  5
124
330
121
100
AcDbEntity
  8
0
 62
     1
100
AcDbBlockEnd
  0
BLOCK
  5
F44
330
F3A
100
AcDbEntity
  8
0
 62
     1
100
AcDbBlockBegin
  2
*D11
 70
     1
 10
0.0
 20
0.0
 30
0.0
  3
*D11
  1

  0
LINE
  5
11A7
330
F3A
100
AcDbEntity
  8
画層1
 62
     0
370
    -2
100
AcDbLine
 10
452.3111048156881
 20
396.4250267653982
 30
0.0
 11
452.3111048156881
 21
409.9430815881058
 31
0.0
  0
LINE
  5
11A8
330
F3A
100
AcDbEntity
  8
画層1
 62
     0
370
    -2
100
AcDbLine
 10
290.3111048156881
 20
380.9250267653982
 30
0.0
 11
290.3111048156881
 21
409.9430815881058
 31
0.0
  0
LINE
  5
11A9
330
F3A
100
AcDbEntity
  8
画層1
 62
     0
370
    -2
100
AcDbLine
 10
450.8111048156881
 20
408.6930815881059
 30
0.0
 11
291.8111048156881
 21
408.6930815881059
 31
0.0
  0
INSERT
  5
11AA
330
F3A
100
AcDbEntity
  8
画層1
 62
     0
370
    -2
100
AcDbBlockReference
  2
_OPEN30
 10
452.3111048156881
 20
408.6930815881059
 30
0.0
 41
1.5
 42
1.5
 43
1.5
  0
INSERT
  5
11AB
330
F3A
100
AcDbEntity
  8
画層1
 62
     0
370
    -2
100
AcDbBlockReference
  2
_OPEN30
 10
290.3111048156881
 20
408.6930815881059
 30
0.0
 41
1.5
 42
1.5
 43
1.5
 50
180.0
  0
MTEXT
  5
11AC
330
F3A
100
AcDbEntity
  8
画層1
 62
     0
370
    30
100
AcDbMText
 10
371.3111048156881
 20
410.5730815881059
 30
0.0
 40
2.5
 41
0.0
 71
     5
 72
     1
  1
\A1;162
  7
STYLE1
 73
     1
 44
1.0
  0
POINT
  5
11AD
330
F3A
100
AcDbEntity
  8
DEFPOINTS
 62
     0
100
AcDbPoint
 10
452.3111048156881
 20
395.7950267653982
 30
0.0
  0
POINT
  5
11AE
330
F3A
100
AcDbEntity
  8
DEFPOINTS
 62
     0
100
AcDbPoint
 10
290.3111048156881
 20
380.2950267653982
 30
0.0
  0
POINT
  5
11AF
330
F3A
100
AcDbEntity
  8
DEFPOINTS
 62
     0
100
AcDbPoint
 10
290.3111048156881
 20
408.6930815881059
 30
0.0
  0
ENDBLK
  5
F45
330
F3A
100
AcDbEntity
  8
0
 62
     1
100
AcDbBlockEnd
  0
BLOCK
  5
F51
330
F47
100
AcDbEntity
  8
0
 62
     1
100
AcDbBlockBegin
  2
*D12
 70
     1
 10
0.0
 20
0.0
 30
0.0
  3
*D12
  1

  0
LINE
  5
1195
330
F47
100
AcDbEntity
  8
画層1
 62
     0
370
    -2
100
AcDbLine
 10
185.6111048156881
 20
362.4250218861476
 30
0.0
 11
185.6111048156881
 21
409.9430815881058
 31
0.0
  0
LINE
  5
1196
330
F47
100
AcDbEntity
  8
画層1
 62
     0
370
    -2
100
AcDbLine
 10
62.6111048156881
 20
362.4250218861476
 30
0.0
 11
62.6111048156881
 21
409.9430815881058
 31
0.0
  0
LINE
  5
1197
330
F47
100
AcDbEntity
  8
画層1
 62
     0
370
    -2
100
AcDbLine
 10
184.1111048156881
 20
408.6930815881059
 30
0.0
 11
64.11110481568809
 21
408.6930815881059
 31
0.0
  0
INSERT
  5
1198
330
F47
100
AcDbEntity
  8
画層1
 62
     0
370
    -2
100
AcDbBlockReference
  2
_OPEN30
 10
185.6111048156881
 20
408.6930815881059
 30
0.0
 41
1.5
 42
1.5
 43
1.5
  0
INSERT
  5
1199
330
F47
100
AcDbEntity
  8
画層1
 62
     0
370
    -2
100
AcDbBlockReference
  2
_OPEN30
 10
62.6111048156881
 20
408.6930815881059
 30
0.0
 41
1.5
 42
1.5
 43
1.5
 50
180.0
  0
MTEXT
  5
119A
330
F47
100
AcDbEntity
  8
画層1
 62
     0
370
    30
100
AcDbMText
 10
124.1111048156881
 20
410.5730815881059
 30
0.0
 40
2.5
 41
0.0
 71
     5
 72
     1
  1
\A1;123
  7
STYLE1
 73
     1
 44
1.0
  0
POINT
  5
119B
330
F47
100
AcDbEntity
  8
DEFPOINTS
 62
     0
100
AcDbPoint
 10
185.6111048156881
 20
361.7950218861476
 30
0.0
  0
POINT
  5
119C
330
F47
100
AcDbEntity
  8
DEFPOINTS
 62
     0
100
AcDbPoint
 10
62.6111048156881
 20
361.7950218861476
 30
0.0
  0
POINT
  5
119D
330
F47
100
AcDbEntity
  8
DEFPOINTS
 62
     0
100
AcDbPoint
 10
62.6111048156881
 20
408.6930815881059
 30
0.0
  0
ENDBLK
  5
F52
330
F47
100
AcDbEntity
  8
0
 62
     1
100
AcDbBlockEnd
  0
BLOCK
  5
F5E
330
F54
100
AcDbEntity
  8
0
 62
     1
100
AcDbBlockBegin
  2
*D13
 70
     1
 10
0.0
 20
0.0
 30
0.0
  3
*D13
  1

  0
LINE
  5
119E
330
F54
100
AcDbEntity
  8
画層1
 62
     0
370
    -2
100
AcDbLine
 10
84.11110481568812
 20
391.4250267653982
 30
0.0
 11
84.11110481568812
 21
402.036382662386
 31
0.0
  0
LINE
  5
119F
330
F54
100
AcDbEntity
  8
画層1
 62
     0
370
    -2
100
AcDbLine
 10
164.1111048156881
 20
391.4250267653982
 30
0.0
 11
164.1111048156881
 21
402.036382662386
 31
0.0
  0
LINE
  5
11A0
330
F54
100
AcDbEntity
  8
画層1
 62
     0
370
    -2
100
AcDbLine
 10
85.61110481568812
 20
400.786382662386
 30
0.0
 11
162.6111048156881
 21
400.786382662386
 31
0.0
  0
INSERT
  5
11A1
330
F54
100
AcDbEntity
  8
画層1
 62
     0
370
    -2
100
AcDbBlockReference
  2
_OPEN30
 10
84.11110481568812
 20
400.786382662386
 30
0.0
 41
1.5
 42
1.5
 43
1.5
 50
180.0
  0
INSERT
  5
11A2
330
F54
100
AcDbEntity
  8
画層1
 62
     0
370
    -2
100
AcDbBlockReference
  2
_OPEN30
 10
164.1111048156881
 20
400.786382662386
 30
0.0
 41
1.5
 42
1.5
 43
1.5
  0
MTEXT
  5
11A3
330
F54
100
AcDbEntity
  8
画層1
 62
     0
370
    30
100
AcDbMText
 10
124.1111048156881
 20
402.666382662386
 30
0.0
 40
2.5
 41
0.0
 71
     5
 72
     1
  1
\A1;80
  7
STYLE1
 73
     1
 44
1.0
  0
POINT
  5
11A4
330
F54
100
AcDbEntity
  8
DEFPOINTS
 62
     0
100
AcDbPoint
 10
84.11110481568812
 20
390.7950267653982
 30
0.0
  0
POINT
  5
11A5
330
F54
100
AcDbEntity
  8
DEFPOINTS
 62
     0
100
AcDbPoint
 10
164.1111048156881
 20
390.7950267653982
 30
0.0
  0
POINT
  5
11A6
330
F54
100
AcDbEntity
  8
DEFPOINTS
 62
     0
100
AcDbPoint
 10
164.1111048156881
 20
400.786382662386
 30
0.0
  0
ENDBLK
  5
F5F
330
F54
100
AcDbEntity
  8
0
 62
     1
100
AcDbBlockEnd
  0
BLOCK
  5
F98
330
F8E
100
AcDbEntity
  8
0
 62
     1
100
AcDbBlockBegin
  2
*D14
 70
     1
 10
0.0
 20
0.0
 30
0.0
  3
*D14
  1

  0
LINE
  5
1170
330
F8E
100
AcDbEntity
  8
画層1
 62
     0
370
    -2
100
AcDbLine
 10
164.7411048156881
 20
196.7950267653982
 30
0.0
 11
194.4206623141049
 21
196.7950267653982
 31
0.0
  0
LINE
  5
1171
330
F8E
100
AcDbEntity
  8
画層1
 62
     0
370
    -2
100
AcDbLine
 10
144.7411048156881
 20
213.7950267653982
 30
0.0
 11
194.4206623141049
 21
213.7950267653982
 31
0.0
  0
LINE
  5
1172
330
F8E
100
AcDbEntity
  8
画層1
 62
     0
370
    -2
100
AcDbLine
 10
193.1706623141049
 20
198.2950267653982
 30
0.0
 11
193.1706623141049
 21
212.2950267653981
 31
0.0
  0
INSERT
  5
1173
330
F8E
100
AcDbEntity
  8
画層1
 62
     0
370
    -2
100
AcDbBlockReference
  2
_OPEN30
 10
193.1706623141049
 20
196.7950267653982
 30
0.0
 41
1.5
 42
1.5
 43
1.5
 50
270.0
  0
INSERT
  5
1174
330
F8E
100
AcDbEntity
  8
画層1
 62
     0
370
    -2
100
AcDbBlockReference
  2
_OPEN30
 10
193.1706623141049
 20
213.7950267653982
 30
0.0
 41
1.5
 42
1.5
 43
1.5
 50
90.0
  0
MTEXT
  5
1175
330
F8E
100
AcDbEntity
  8
画層1
 62
     0
370
    30
100
AcDbMText
 10
191.2906623141048
 20
205.2950267653982
 30
0.0
 40
2.5
 41
0.0
 71
     5
 72
     1
  1
\A1;17
  7
STYLE1
 11
0.0000000000000001
 21
1.0
 31
0.0
 73
     1
 44
1.0
  0
POINT
  5
1176
330
F8E
100
AcDbEntity
  8
DEFPOINTS
 62
     0
100
AcDbPoint
 10
164.1111048156881
 20
196.7950267653982
 30
0.0
  0
POINT
  5
1177
330
F8E
100
AcDbEntity
  8
DEFPOINTS
 62
     0
100
AcDbPoint
 10
144.1111048156881
 20
213.7950267653982
 30
0.0
  0
POINT
  5
1178
330
F8E
100
AcDbEntity
  8
DEFPOINTS
 62
     0
100
AcDbPoint
 10
193.1706623141049
 20
213.7950267653982
 30
0.0
  0
ENDBLK
  5
F99
330
F8E
100
AcDbEntity
  8
0
 62
     1
100
AcDbBlockEnd
  0
BLOCK
  5
FA5
330
F9B
100
AcDbEntity
  8
0
 62
     1
100
AcDbBlockBegin
  2
*D15
 70
     1
 10
0.0
 20
0.0
 30
0.0
  3
*D15
  1

  0
LINE
  5
1154
330
F9B
100
AcDbEntity
  8
画層1
 62
     0
370
    -2
100
AcDbLine
 10
195.0506623141049
 20
196.7950267653982
 30
0.0
 11
206.131813011639
 21
196.7950267653982
 31
0.0
  0
LINE
  5
1155
330
F9B
100
AcDbEntity
  8
画層1
 62
     0
370
    -2
100
AcDbLine
 10
164.7411048156881
 20
390.7950267653982
 30
0.0
 11
206.131813011639
 21
390.7950267653982
 31
0.0
  0
LINE
  5
1156
330
F9B
100
AcDbEntity
  8
画層1
 62
     0
370
    -2
100
AcDbLine
 10
204.8818130116389
 20
198.2950267653982
 30
0.0
 11
204.881813011639
 21
389.2950267653982
 31
0.0
  0
INSERT
  5
1157
330
F9B
100
AcDbEntity
  8
画層1
 62
     0
370
    -2
100
AcDbBlockReference
  2
_OPEN30
 10
204.8818130116389
 20
196.7950267653982
 30
0.0
 41
1.5
 42
1.5
 43
1.5
 50
270.0
  0
INSERT
  5
1158
330
F9B
100
AcDbEntity
  8
画層1
 62
     0
370
    -2
100
AcDbBlockReference
  2
_OPEN30
 10
204.881813011639
 20
390.7950267653982
 30
0.0
 41
1.5
 42
1.5
 43
1.5
 50
90.0
  0
MTEXT
  5
1159
330
F9B
100
AcDbEntity
  8
画層1
 62
     0
370
    30
100
AcDbMText
 10
203.0018130116389
 20
293.7950267653982
 30
0.0
 40
2.5
 41
0.0
 71
     5
 72
     1
  1
\A1;194
  7
STYLE1
 11
0.0000000000000001
 21
1.0
 31
0.0
 73
     1
 44
1.0
  0
POINT
  5
115A
330
F9B
100
AcDbEntity
  8
DEFPOINTS
 62
     0
100
AcDbPoint
 10
194.4206623141049
 20
196.7950267653982
 30
0.0
  0
POINT
  5
115B
330
F9B
100
AcDbEntity
  8
DEFPOINTS
 62
     0
100
AcDbPoint
 10
164.1111048156881
 20
390.7950267653982
 30
0.0
  0
POINT
  5
115C
330
F9B
100
AcDbEntity
  8
DEFPOINTS
 62
     0
100
AcDbPoint
 10
204.881813011639
 20
390.7950267653982
 30
0.0
  0
ENDBLK
  5
FA6
330
F9B
100
AcDbEntity
  8
0
 62
     1
100
AcDbBlockEnd
  0
BLOCK
  5
FB2
330
FA8
100
AcDbEntity
  8
0
 62
     1
100
AcDbBlockBegin
  2
*D16
 70
     1
 10
0.0
 20
0.0
 30
0.0
  3
*D16
  1

  0
LINE
  5
114B
330
FA8
100
AcDbEntity
  8
画層1
 62
     0
370
    -2
100
AcDbLine
 10
177.7411048156881
 20
395.7950267653982
 30
0.0
 11
212.8006620143569
 21
395.7950267653982
 31
0.0
  0
LINE
  5
114C
330
FA8
100
AcDbEntity
  8
画層1
 62
     0
370
    -2
100
AcDbLine
 10
177.7411048156881
 20
191.7950267653982
 30
0.0
 11
212.8006620143569
 21
191.7950267653982
 31
0.0
  0
LINE
  5
114D
330
FA8
100
AcDbEntity
  8
画層1
 62
     0
370
    -2
100
AcDbLine
 10
211.5506620143569
 20
394.2950267653982
 30
0.0
 11
211.5506620143569
 21
193.2950267653982
 31
0.0
  0
INSERT
  5
114E
330
FA8
100
AcDbEntity
  8
画層1
 62
     0
370
    -2
100
AcDbBlockReference
  2
_OPEN30
 10
211.5506620143569
 20
395.7950267653982
 30
0.0
 41
1.5
 42
1.5
 43
1.5
 50
90.0
  0
INSERT
  5
114F
330
FA8
100
AcDbEntity
  8
画層1
 62
     0
370
    -2
100
AcDbBlockReference
  2
_OPEN30
 10
211.5506620143569
 20
191.7950267653982
 30
0.0
 41
1.5
 42
1.5
 43
1.5
 50
270.0
  0
MTEXT
  5
1150
330
FA8
100
AcDbEntity
  8
画層1
 62
     0
370
    30
100
AcDbMText
 10
209.6706620143569
 20
293.7950267653982
 30
0.0
 40
2.5
 41
0.0
 71
     5
 72
     1
  1
\A1;204
  7
STYLE1
 11
0.0000000000000001
 21
1.0
 31
0.0
 73
     1
 44
1.0
  0
POINT
  5
1151
330
FA8
100
AcDbEntity
  8
DEFPOINTS
 62
     0
100
AcDbPoint
 10
177.1111048156881
 20
395.7950267653982
 30
0.0
  0
POINT
  5
1152
330
FA8
100
AcDbEntity
  8
DEFPOINTS
 62
     0
100
AcDbPoint
 10
177.1111048156881
 20
191.7950267653982
 30
0.0
  0
POINT
  5
1153
330
FA8
100
AcDbEntity
  8
DEFPOINTS
 62
     0
100
AcDbPoint
 10
211.5506620143569
 20
191.7950267653982
 30
0.0
  0
ENDBLK
  5
FB3
330
FA8
100
AcDbEntity
  8
0
 62
     1
100
AcDbBlockEnd
  0
BLOCK
  5
FC9
330
FBE
100
AcDbEntity
  8
0
 62
     1
100
AcDbBlockBegin
  2
*D17
 70
     1
 10
0.0
 20
0.0
 30
0.0
  3
*D17
  1

  0
LINE
  5
118B
330
FBE
100
AcDbEntity
  8
画層1
 62
     0
370
    -2
100
AcDbLine
 10
161.3611048156881
 20
191.1650267653982
 30
0.0
 11
161.3611048156881
 21
179.1229747766394
 31
0.0
  0
LINE
  5
118C
330
FBE
100
AcDbEntity
  8
画層1
 62
     0
370
    -2
100
AcDbLine
 10
166.8611048156881
 20
191.1650267653982
 30
0.0
 11
166.8611048156881
 21
179.1229747766394
 31
0.0
  0
LINE
  5
118D
330
FBE
100
AcDbEntity
  8
画層1
 62
     0
370
    -2
100
AcDbLine
 10
162.8611048156881
 20
180.3729747766394
 30
0.0
 11
165.3611048156881
 21
180.3729747766394
 31
0.0
  0
LINE
  5
118E
330
FBE
100
AcDbEntity
  8
画層1
 62
     0
370
    -2
100
AcDbLine
 10
166.8611048156881
 20
180.3729747766394
 30
0.0
 11
174.1642520238099
 21
180.3729747766394
 31
0.0
  0
INSERT
  5
118F
330
FBE
100
AcDbEntity
  8
画層1
 62
     0
370
    -2
100
AcDbBlockReference
  2
_OPEN30
 10
161.3611048156881
 20
180.3729747766394
 30
0.0
 41
1.5
 42
1.5
 43
1.5
 50
180.0
  0
INSERT
  5
1190
330
FBE
100
AcDbEntity
  8
画層1
 62
     0
370
    -2
100
AcDbBlockReference
  2
_OPEN30
 10
166.8611048156881
 20
180.3729747766394
 30
0.0
 41
1.5
 42
1.5
 43
1.5
  0
MTEXT
  5
1191
330
FBE
100
AcDbEntity
  8
画層1
 62
     0
370
    30
100
AcDbMText
 10
171.262678419749
 20
182.2529747766394
 30
0.0
 40
2.5
 41
0.0
 71
     5
 72
     1
  1
\A1;5.5
  7
STYLE1
 73
     1
 44
1.0
  0
POINT
  5
1192
330
FBE
100
AcDbEntity
  8
DEFPOINTS
 62
     0
100
AcDbPoint
 10
161.3611048156881
 20
191.7950267653982
 30
0.0
  0
POINT
  5
1193
330
FBE
100
AcDbEntity
  8
DEFPOINTS
 62
     0
100
AcDbPoint
 10
166.8611048156881
 20
191.7950267653982
 30
0.0
  0
POINT
  5
1194
330
FBE
100
AcDbEntity
  8
DEFPOINTS
 62
     0
100
AcDbPoint
 10
166.8611048156881
 20
180.3729747766394
 30
0.0
  0
ENDBLK
  5
FCA
330
FBE
100
AcDbEntity
  8
0
 62
     1
100
AcDbBlockEnd
  0
BLOCK
  5
FD7
330
FCC
100
AcDbEntity
  8
0
 62
     1
100
AcDbBlockBegin
  2
*D18
 70
     1
 10
0.0
 20
0.0
 30
0.0
  3
*D18
  1

  0
LINE
  5
115D
330
FCC
100
AcDbEntity
  8
画層1
 62
     0
370
    -2
100
AcDbLine
 10
81.36110481568811
 20
191.1650267653982
 30
0.0
 11
81.36110481568811
 21
179.1229747766394
 31
0.0
  0
LINE
  5
115E
330
FCC
100
AcDbEntity
  8
画層1
 62
     0
370
    -2
100
AcDbLine
 10
86.86110481568812
 20
191.1650267653982
 30
0.0
 11
86.86110481568812
 21
179.1229747766394
 31
0.0
  0
LINE
  5
115F
330
FCC
100
AcDbEntity
  8
画層1
 62
     0
370
    -2
100
AcDbLine
 10
82.86110481568812
 20
180.3729747766394
 30
0.0
 11
85.36110481568812
 21
180.3729747766394
 31
0.0
  0
LINE
  5
1160
330
FCC
100
AcDbEntity
  8
画層1
 62
     0
370
    -2
100
AcDbLine
 10
86.86110481568812
 20
180.3729747766394
 30
0.0
 11
94.16425202380995
 21
180.3729747766394
 31
0.0
  0
INSERT
  5
1161
330
FCC
100
AcDbEntity
  8
画層1
 62
     0
370
    -2
100
AcDbBlockReference
  2
_OPEN30
 10
81.36110481568811
 20
180.3729747766394
 30
0.0
 41
1.5
 42
1.5
 43
1.5
 50
180.0
  0
INSERT
  5
1162
330
FCC
100
AcDbEntity
  8
画層1
 62
     0
370
    -2
100
AcDbBlockReference
  2
_OPEN30
 10
86.86110481568812
 20
180.3729747766394
 30
0.0
 41
1.5
 42
1.5
 43
1.5
  0
MTEXT
  5
1163
330
FCC
100
AcDbEntity
  8
画層1
 62
     0
370
    30
100
AcDbMText
 10
91.26267841974904
 20
182.2529747766394
 30
0.0
 40
2.5
 41
0.0
 71
     5
 72
     1
  1
\A1;5.5
  7
STYLE1
 73
     1
 44
1.0
  0
POINT
  5
1164
330
FCC
100
AcDbEntity
  8
DEFPOINTS
 62
     0
100
AcDbPoint
 10
81.36110481568811
 20
191.7950267653982
 30
0.0
  0
POINT
  5
1165
330
FCC
100
AcDbEntity
  8
DEFPOINTS
 62
     0
100
AcDbPoint
 10
86.86110481568812
 20
191.7950267653982
 30
0.0
  0
POINT
  5
1166
330
FCC
100
AcDbEntity
  8
DEFPOINTS
 62
     0
100
AcDbPoint
 10
86.86110481568812
 20
180.3729747766394
 30
0.0
  0
ENDBLK
  5
FD8
330
FCC
100
AcDbEntity
  8
0
 62
     1
100
AcDbBlockEnd
  0
BLOCK
  5
FE4
330
FDA
100
AcDbEntity
  8
0
 62
     1
100
AcDbBlockBegin
  2
*D19
 70
     1
 10
0.0
 20
0.0
 30
0.0
  3
*D19
  1

  0
LINE
  5
1179
330
FDA
100
AcDbEntity
  8
画層1
 62
     0
370
    -2
100
AcDbLine
 10
99.11110481568812
 20
213.1650267653982
 30
0.0
 11
99.11110481568812
 21
179.1229747766394
 31
0.0
  0
LINE
  5
117A
330
FDA
100
AcDbEntity
  8
画層1
 62
     0
370
    -2
100
AcDbLine
 10
124.1111048156881
 20
193.1650267653982
 30
0.0
 11
124.1111048156881
 21
179.1229747766394
 31
0.0
  0
LINE
  5
117B
330
FDA
100
AcDbEntity
  8
画層1
 62
     0
370
    -2
100
AcDbLine
 10
100.6111048156881
 20
180.3729747766394
 30
0.0
 11
122.6111048156881
 21
180.3729747766394
 31
0.0
  0
INSERT
  5
117C
330
FDA
100
AcDbEntity
  8
画層1
 62
     0
370
    -2
100
AcDbBlockReference
  2
_OPEN30
 10
99.11110481568812
 20
180.3729747766394
 30
0.0
 41
1.5
 42
1.5
 43
1.5
 50
180.0
  0
INSERT
  5
117D
330
FDA
100
AcDbEntity
  8
画層1
 62
     0
370
    -2
100
AcDbBlockReference
  2
_OPEN30
 10
124.1111048156881
 20
180.3729747766394
 30
0.0
 41
1.5
 42
1.5
 43
1.5
  0
MTEXT
  5
117E
330
FDA
100
AcDbEntity
  8
画層1
 62
     0
370
    30
100
AcDbMText
 10
111.6111048156881
 20
182.2529747766394
 30
0.0
 40
2.5
 41
0.0
 71
     5
 72
     1
  1
\A1;25
  7
STYLE1
 73
     1
 44
1.0
  0
POINT
  5
117F
330
FDA
100
AcDbEntity
  8
DEFPOINTS
 62
     0
100
AcDbPoint
 10
99.11110481568812
 20
213.7950267653982
 30
0.0
  0
POINT
  5
1180
330
FDA
100
AcDbEntity
  8
DEFPOINTS
 62
     0
100
AcDbPoint
 10
124.1111048156881
 20
193.7950267653982
 30
0.0
  0
POINT
  5
1181
330
FDA
100
AcDbEntity
  8
DEFPOINTS
 62
     0
100
AcDbPoint
 10
124.1111048156881
 20
180.3729747766394
 30
0.0
  0
ENDBLK
  5
FE5
330
FDA
100
AcDbEntity
  8
0
 62
     1
100
AcDbBlockEnd
  0
BLOCK
  5
FF1
330
FE7
100
AcDbEntity
  8
0
 62
     1
100
AcDbBlockBegin
  2
*D20
 70
     1
 10
0.0
 20
0.0
 30
0.0
  3
*D20
  1

  0
LINE
  5
1182
330
FE7
100
AcDbEntity
  8
画層1
 62
     0
370
    -2
100
AcDbLine
 10
144.1111048156881
 20
213.1650267653982
 30
0.0
 11
144.1111048156881
 21
179.1229747766394
 31
0.0
  0
LINE
  5
1183
330
FE7
100
AcDbEntity
  8
画層1
 62
     0
370
    -2
100
AcDbLine
 10
124.1111048156881
 20
193.1650267653982
 30
0.0
 11
124.1111048156881
 21
179.1229747766394
 31
0.0
  0
LINE
  5
1184
330
FE7
100
AcDbEntity
  8
画層1
 62
     0
370
    -2
100
AcDbLine
 10
142.6111048156881
 20
180.3729747766394
 30
0.0
 11
125.6111048156881
 21
180.3729747766394
 31
0.0
  0
INSERT
  5
1185
330
FE7
100
AcDbEntity
  8
画層1
 62
     0
370
    -2
100
AcDbBlockReference
  2
_OPEN30
 10
144.1111048156881
 20
180.3729747766394
 30
0.0
 41
1.5
 42
1.5
 43
1.5
  0
INSERT
  5
1186
330
FE7
100
AcDbEntity
  8
画層1
 62
     0
370
    -2
100
AcDbBlockReference
  2
_OPEN30
 10
124.1111048156881
 20
180.3729747766394
 30
0.0
 41
1.5
 42
1.5
 43
1.5
 50
180.0
  0
MTEXT
  5
1187
330
FE7
100
AcDbEntity
  8
画層1
 62
     0
370
    30
100
AcDbMText
 10
134.1111048156881
 20
182.2529747766394
 30
0.0
 40
2.5
 41
0.0
 71
     5
 72
     1
  1
\A1;20
  7
STYLE1
 73
     1
 44
1.0
  0
POINT
  5
1188
330
FE7
100
AcDbEntity
  8
DEFPOINTS
 62
     0
100
AcDbPoint
 10
144.1111048156881
 20
213.7950267653982
 30
0.0
  0
POINT
  5
1189
330
FE7
100
AcDbEntity
  8
DEFPOINTS
 62
     0
100
AcDbPoint
 10
124.1111048156881
 20
193.7950267653982
 30
0.0
  0
POINT
  5
118A
330
FE7
100
AcDbEntity
  8
DEFPOINTS
 62
     0
100
AcDbPoint
 10
124.1111048156881
 20
180.3729747766394
 30
0.0
  0
ENDBLK
  5
FF2
330
FE7
100
AcDbEntity
  8
0
 62
     1
100
AcDbBlockEnd
  0
BLOCK
  5
1007
330
FFD
100
AcDbEntity
  8
0
 62
     1
100
AcDbBlockBegin
  2
*D21
 70
     1
 10
0.0
 20
0.0
 30
0.0
  3
*D21
  1

  0
LINE
  5
1167
330
FFD
100
AcDbEntity
  8
画層1
 62
     0
370
    -2
100
AcDbLine
 10
134.1111048156881
 20
203.1650267653982
 30
0.0
 11
134.1111048156881
 21
185.6461142034665
 31
0.0
  0
LINE
  5
1168
330
FFD
100
AcDbEntity
  8
画層1
 62
     0
370
    -2
100
AcDbLine
 10
154.1111048156881
 20
203.1650267653982
 30
0.0
 11
154.1111048156881
 21
185.6461142034665
 31
0.0
  0
LINE
  5
1169
330
FFD
100
AcDbEntity
  8
画層1
 62
     0
370
    -2
100
AcDbLine
 10
135.6111048156881
 20
186.8961142034665
 30
0.0
 11
152.6111048156881
 21
186.8961142034665
 31
0.0
  0
INSERT
  5
116A
330
FFD
100
AcDbEntity
  8
画層1
 62
     0
370
    -2
100
AcDbBlockReference
  2
_OPEN30
 10
134.1111048156881
 20
186.8961142034665
 30
0.0
 41
1.5
 42
1.5
 43
1.5
 50
180.0
  0
INSERT
  5
116B
330
FFD
100
AcDbEntity
  8
画層1
 62
     0
370
    -2
100
AcDbBlockReference
  2
_OPEN30
 10
154.1111048156881
 20
186.8961142034665
 30
0.0
 41
1.5
 42
1.5
 43
1.5
  0
MTEXT
  5
116C
330
FFD
100
AcDbEntity
  8
画層1
 62
     0
370
    30
100
AcDbMText
 10
144.1111048156881
 20
188.7761142034666
 30
0.0
 40
2.5
 41
0.0
 71
     5
 72
     1
  1
\A1;20
  7
STYLE1
 73
     1
 44
1.0
  0
POINT
  5
116D
330
FFD
100
AcDbEntity
  8
DEFPOINTS
 62
     0
100
AcDbPoint
 10
134.1111048156881
 20
203.7950267653982
 30
0.0
  0
POINT
  5
116E
330
FFD
100
AcDbEntity
  8
DEFPOINTS
 62
     0
100
AcDbPoint
 10
154.1111048156881
 20
203.7950267653982
 30
0.0
  0
POINT
  5
116F
330
FFD
100
AcDbEntity
  8
DEFPOINTS
 62
     0
100
AcDbPoint
 10
154.1111048156881
 20
186.8961142034665
 30
0.0
  0
ENDBLK
  5
1008
330
FFD
100
AcDbEntity
  8
0
 62
     1
100
AcDbBlockEnd
  0
ENDSEC
  0
SECTION
  2
ENTITIES
  0
LINE
  5
657
330
2
100
AcDbEntity
  8
画層1
  6
CENTER
370
    30
100
AcDbLine
 10
62.51110481568812
 20
293.7950267653982
 30
0.0
 11
185.7111048156881
 21
293.7950267653982
 31
0.0
  0
LINE
  5
658
330
2
100
AcDbEntity
  8
画層1
  6
CENTER
370
    30
100
AcDbLine
 10
124.1111048156881
 20
193.7950267653982
 30
0.0
 11
124.1111048156881
 21
393.7950267653982
 31
0.0
  0
LINE
  5
681
330
2
100
AcDbEntity
  8
画層1
  6
DASHED2
370
    30
100
AcDbLine
 10
144.1111048156881
 20
378.7950267653982
 30
0.0
 11
154.1111048156881
 21
378.7950267653982
 31
0.0
  0
LINE
  5
683
330
2
100
AcDbEntity
  8
画層1
  6
DASHED2
370
    30
100
AcDbLine
 10
149.1111048156881
 20
383.7950267653982
 30
0.0
 11
149.1111048156881
 21
373.7950267653982
 31
0.0
  0
LINE
  5
688
330
2
100
AcDbEntity
  8
画層1
370
    30
100
AcDbLine
 10
155.1111048156881
 20
382.7950267653982
 30
0.0
 11
111.1111048156881
 21
382.7950267653982
 31
0.0
  0
LINE
  5
689
330
2
100
AcDbEntity
  8
画層1
370
    30
100
AcDbLine
 10
155.1111048156881
 20
382.7950267653982
 30
0.0
 11
155.1111048156881
 21
254.7950267653982
 31
0.0
  0
LINE
  5
68A
330
2
100
AcDbEntity
  8
画層1
370
    30
100
AcDbLine
 10
155.1111048156881
 20
254.7950267653982
 30
0.0
 11
111.1111048156881
 21
254.7950267653982
 31
0.0
  0
LINE
  5
68B
330
2
100
AcDbEntity
  8
画層1
370
    30
100
AcDbLine
 10
111.1111048156881
 20
254.7950267653982
 30
0.0
 11
111.1111048156881
 21
382.7950267653982
 31
0.0
  0
LINE
  5
68E
330
2
100
AcDbEntity
  8
画層1
370
    30
100
AcDbLine
 10
155.1111048156881
 20
380.7950267653982
 30
0.0
 11
155.1111048156881
 21
254.7950267653982
 31
0.0
  0
LINE
  5
690
330
2
100
AcDbEntity
  8
画層1
370
    30
100
AcDbLine
 10
153.1111048156881
 20
382.7950267653982
 30
0.0
 11
153.1111048156881
 21
263.7950267653982
 31
0.0
  0
LINE
  5
691
330
2
100
AcDbEntity
  8
画層1
370
    30
100
AcDbLine
 10
113.1111048156881
 20
263.7950267653982
 30
0.0
 11
113.1111048156881
 21
382.7950267653982
 31
0.0
  0
LINE
  5
692
330
2
100
AcDbEntity
  8
画層1
370
    30
100
AcDbLine
 10
153.1111048156881
 20
262.7950267653982
 30
0.0
 11
113.1111048156881
 21
262.7950267653982
 31
0.0
  0
LINE
  5
693
330
2
100
AcDbEntity
  8
画層1
370
    30
100
AcDbLine
 10
153.1111048156881
 20
263.7950267653982
 30
0.0
 11
113.1111048156881
 21
263.7950267653982
 31
0.0
  0
LINE
  5
694
330
2
100
AcDbEntity
  8
画層1
370
    30
100
AcDbLine
 10
113.1111048156881
 20
262.7950267653982
 30
0.0
 11
113.1111048156881
 21
254.7950267653982
 31
0.0
  0
LINE
  5
695
330
2
100
AcDbEntity
  8
画層1
370
    30
100
AcDbLine
 10
153.1111048156881
 20
262.7950267653982
 30
0.0
 11
153.1111048156881
 21
254.7950267653982
 31
0.0
  0
CIRCLE
  5
69B
330
2
100
AcDbEntity
  8
画層1
370
    30
100
AcDbCircle
 10
149.1111048156881
 20
378.7950267653982
 30
0.0
 40
4.0
  0
CIRCLE
  5
69C
330
2
100
AcDbEntity
  8
画層1
370
    30
100
AcDbCircle
 10
149.1111048156881
 20
378.7950267653982
 30
0.0
 40
2.5
  0
LINE
  5
6A1
102
{ACAD_REACTORS
330
7F7
102
}
330
2
100
AcDbEntity
  8
画層1
370
    30
100
AcDbLine
 10
148.6111048156881
 20
377.2950267653982
 30
0.0
 11
149.6111048156881
 21
377.2950267653982
 31
0.0
  0
LINE
  5
6A2
102
{ACAD_REACTORS
330
7F7
102
}
330
2
100
AcDbEntity
  8
画層1
370
    30
100
AcDbLine
 10
150.6111048156881
 20
378.2950267653982
 30
0.0
 11
150.6111048156881
 21
379.2950267653982
 31
0.0
  0
LINE
  5
6A3
102
{ACAD_REACTORS
330
7F7
102
}
330
2
100
AcDbEntity
  8
画層1
370
    30
100
AcDbLine
 10
149.6111048156881
 20
380.2950267653982
 30
0.0
 11
148.6111048156881
 21
380.2950267653982
 31
0.0
  0
LINE
  5
6A4
102
{ACAD_REACTORS
330
7F7
102
}
330
2
100
AcDbEntity
  8
画層1
370
    30
100
AcDbLine
 10
147.6111048156881
 20
379.2950267653982
 30
0.0
 11
147.6111048156881
 21
378.2950267653982
 31
0.0
  0
LINE
  5
6A5
102
{ACAD_REACTORS
330
7F7
102
}
330
2
100
AcDbEntity
  8
画層1
370
    30
100
AcDbLine
 10
147.6111048156881
 20
379.2950267653982
 30
0.0
 11
148.1111048156881
 21
379.2950267653982
 31
0.0
  0
LINE
  5
6A6
102
{ACAD_REACTORS
330
7F7
102
}
330
2
100
AcDbEntity
  8
画層1
370
    30
100
AcDbLine
 10
148.6111048156881
 20
379.7950267653982
 30
0.0
 11
148.6111048156881
 21
380.2950267653982
 31
0.0
  0
LINE
  5
6A7
330
2
100
AcDbEntity
  8
画層1
370
    30
100
AcDbLine
 10
149.6111048156881
 20
380.2950267653982
 30
0.0
 11
149.6111048156881
 21
379.7950267653982
 31
0.0
  0
LINE
  5
6A8
102
{ACAD_REACTORS
330
7F7
102
}
330
2
100
AcDbEntity
  8
画層1
370
    30
100
AcDbLine
 10
150.1111048156881
 20
379.2950267653982
 30
0.0
 11
150.6111048156881
 21
379.2950267653982
 31
0.0
  0
LINE
  5
6A9
102
{ACAD_REACTORS
330
7F7
102
}
330
2
100
AcDbEntity
  8
画層1
370
    30
100
AcDbLine
 10
147.6111048156881
 20
378.2950267653982
 30
0.0
 11
148.1111048156881
 21
378.2950267653982
 31
0.0
  0
LINE
  5
6AA
102
{ACAD_REACTORS
330
7F7
102
}
330
2
100
AcDbEntity
  8
画層1
370
    30
100
AcDbLine
 10
148.6111048156881
 20
377.7950267653982
 30
0.0
 11
148.6111048156881
 21
377.2950267653982
 31
0.0
  0
LINE
  5
6AB
102
{ACAD_REACTORS
330
7F7
102
}
330
2
100
AcDbEntity
  8
画層1
370
    30
100
AcDbLine
 10
149.6111048156881
 20
377.2950267653982
 30
0.0
 11
149.6111048156881
 21
377.7950267653982
 31
0.0
  0
LINE
  5
6AC
102
{ACAD_REACTORS
330
7F7
102
}
330
2
100
AcDbEntity
  8
画層1
370
    30
100
AcDbLine
 10
150.1111048156881
 20
378.2950267653982
 30
0.0
 11
150.6111048156881
 21
378.2950267653982
 31
0.0
  0
LINE
  5
6AD
102
{ACAD_REACTORS
330
804
102
}
330
2
100
AcDbEntity
  8
画層1
370
    30
100
AcDbLine
 10
99.61110481568812
 20
380.2950267653982
 30
0.0
 11
99.61110481568812
 21
379.7950267653982
 31
0.0
  0
LINE
  5
6AE
102
{ACAD_REACTORS
330
804
102
}
330
2
100
AcDbEntity
  8
画層1
370
    30
100
AcDbLine
 10
98.61110481568813
 20
379.7950267653982
 30
0.0
 11
98.61110481568813
 21
380.2950267653982
 31
0.0
  0
CIRCLE
  5
6AF
330
2
100
AcDbEntity
  8
画層1
370
    30
100
AcDbCircle
 10
99.11110481568812
 20
378.7950267653982
 30
0.0
 40
2.5
  0
LINE
  5
6B0
102
{ACAD_REACTORS
330
804
102
}
330
2
100
AcDbEntity
  8
画層1
370
    30
100
AcDbLine
 10
98.61110481568813
 20
377.2950267653982
 30
0.0
 11
99.61110481568812
 21
377.2950267653982
 31
0.0
  0
LINE
  5
6B1
330
2
100
AcDbEntity
  8
画層1
  6
DASHED2
370
    30
100
AcDbLine
 10
94.11110481568812
 20
378.7950267653982
 30
0.0
 11
104.1111048156881
 21
378.7950267653982
 31
0.0
  0
LINE
  5
6B2
102
{ACAD_REACTORS
330
804
102
}
330
2
100
AcDbEntity
  8
画層1
370
    30
100
AcDbLine
 10
98.61110481568813
 20
377.7950267653982
 30
0.0
 11
98.61110481568813
 21
377.2950267653982
 31
0.0
  0
LINE
  5
6B3
102
{ACAD_REACTORS
330
804
102
}
330
2
100
AcDbEntity
  8
画層1
370
    30
100
AcDbLine
 10
97.61110481568813
 20
378.2950267653982
 30
0.0
 11
98.11110481568812
 21
378.2950267653982
 31
0.0
  0
LINE
  5
6B4
102
{ACAD_REACTORS
330
804
102
}
330
2
100
AcDbEntity
  8
画層1
370
    30
100
AcDbLine
 10
97.61110481568813
 20
379.2950267653982
 30
0.0
 11
98.11110481568812
 21
379.2950267653982
 31
0.0
  0
LINE
  5
6B5
102
{ACAD_REACTORS
330
804
102
}
330
2
100
AcDbEntity
  8
画層1
370
    30
100
AcDbLine
 10
97.61110481568813
 20
379.2950267653982
 30
0.0
 11
97.61110481568813
 21
378.2950267653982
 31
0.0
  0
LINE
  5
6B6
102
{ACAD_REACTORS
330
804
102
}
330
2
100
AcDbEntity
  8
画層1
370
    30
100
AcDbLine
 10
100.1111048156881
 20
378.2950267653982
 30
0.0
 11
100.6111048156881
 21
378.2950267653982
 31
0.0
  0
LINE
  5
6B7
102
{ACAD_REACTORS
330
804
102
}
330
2
100
AcDbEntity
  8
画層1
370
    30
100
AcDbLine
 10
99.61110481568812
 20
377.2950267653982
 30
0.0
 11
99.61110481568812
 21
377.7950267653982
 31
0.0
  0
LINE
  5
6B8
102
{ACAD_REACTORS
330
804
102
}
330
2
100
AcDbEntity
  8
画層1
370
    30
100
AcDbLine
 10
100.1111048156881
 20
379.2950267653982
 30
0.0
 11
100.6111048156881
 21
379.2950267653982
 31
0.0
  0
LINE
  5
6B9
102
{ACAD_REACTORS
330
804
102
}
330
2
100
AcDbEntity
  8
画層1
370
    30
100
AcDbLine
 10
100.6111048156881
 20
378.2950267653982
 30
0.0
 11
100.6111048156881
 21
379.2950267653982
 31
0.0
  0
LINE
  5
6BA
102
{ACAD_REACTORS
330
804
102
}
330
2
100
AcDbEntity
  8
画層1
370
    30
100
AcDbLine
 10
99.61110481568812
 20
380.2950267653982
 30
0.0
 11
98.61110481568813
 21
380.2950267653982
 31
0.0
  0
CIRCLE
  5
6BB
330
2
100
AcDbEntity
  8
画層1
370
    30
100
AcDbCircle
 10
99.11110481568812
 20
378.7950267653982
 30
0.0
 40
4.0
  0
LINE
  5
6BC
330
2
100
AcDbEntity
  8
画層1
  6
DASHED2
370
    30
100
AcDbLine
 10
99.11110481568812
 20
383.7950267653982
 30
0.0
 11
99.11110481568812
 21
373.7950267653982
 31
0.0
  0
CIRCLE
  5
6BD
330
2
100
AcDbEntity
  8
画層1
370
    30
100
AcDbCircle
 10
99.11110481568812
 20
258.7950267653982
 30
0.0
 40
2.598076211353316
  0
LINE
  5
6BF
330
2
100
AcDbEntity
  8
画層1
370
    30
100
AcDbLine
 10
97.61110481568813
 20
259.2950267653982
 30
0.0
 11
98.11110481568812
 21
259.2950267653982
 31
0.0
  0
LINE
  5
6C0
330
2
100
AcDbEntity
  8
画層1
370
    30
100
AcDbLine
 10
97.61110481568813
 20
258.2950267653982
 30
0.0
 11
98.11110481568812
 21
258.2950267653982
 31
0.0
  0
LINE
  5
6C1
330
2
100
AcDbEntity
  8
画層1
  6
DASHED2
370
    30
100
AcDbLine
 10
94.11110481568812
 20
258.7950267653982
 30
0.0
 11
104.1111048156881
 21
258.7950267653982
 31
0.0
  0
LINE
  5
6C2
330
2
100
AcDbEntity
  8
画層1
370
    30
100
AcDbLine
 10
97.61110481568813
 20
259.2950267653982
 30
0.0
 11
97.61110481568813
 21
258.2950267653982
 31
0.0
  0
LINE
  5
6C3
330
2
100
AcDbEntity
  8
画層1
370
    30
100
AcDbLine
 10
98.61110481568813
 20
259.7950267653982
 30
0.0
 11
98.61110481568813
 21
260.2950267653982
 31
0.0
  0
LINE
  5
6C4
330
2
100
AcDbEntity
  8
画層1
370
    30
100
AcDbLine
 10
99.61110481568812
 20
260.2950267653982
 30
0.0
 11
99.61110481568812
 21
259.7950267653982
 31
0.0
  0
LINE
  5
6C5
330
2
100
AcDbEntity
  8
画層1
  6
DASHED2
370
    30
100
AcDbLine
 10
99.11110481568812
 20
263.7950267653982
 30
0.0
 11
99.11110481568812
 21
253.7950267653982
 31
0.0
  0
LINE
  5
6C6
330
2
100
AcDbEntity
  8
画層1
370
    30
100
AcDbLine
 10
100.6111048156881
 20
258.2950267653982
 30
0.0
 11
100.6111048156881
 21
259.2950267653982
 31
0.0
  0
LINE
  5
6C7
330
2
100
AcDbEntity
  8
画層1
370
    30
100
AcDbLine
 10
100.1111048156881
 20
259.2950267653982
 30
0.0
 11
100.6111048156881
 21
259.2950267653982
 31
0.0
  0
LINE
  5
6C8
330
2
100
AcDbEntity
  8
画層1
370
    30
100
AcDbLine
 10
99.61110481568812
 20
257.2950267653982
 30
0.0
 11
99.61110481568812
 21
257.7950267653982
 31
0.0
  0
LINE
  5
6C9
330
2
100
AcDbEntity
  8
画層1
370
    30
100
AcDbLine
 10
100.1111048156881
 20
258.2950267653982
 30
0.0
 11
100.6111048156881
 21
258.2950267653982
 31
0.0
  0
LINE
  5
6CA
330
2
100
AcDbEntity
  8
画層1
370
    30
100
AcDbLine
 10
98.61110481568813
 20
257.7950267653982
 30
0.0
 11
98.61110481568813
 21
257.2950267653982
 31
0.0
  0
LINE
  5
6CB
330
2
100
AcDbEntity
  8
画層1
370
    30
100
AcDbLine
 10
98.61110481568813
 20
257.2950267653982
 30
0.0
 11
99.61110481568812
 21
257.2950267653982
 31
0.0
  0
LINE
  5
6CC
330
2
100
AcDbEntity
  8
画層1
370
    30
100
AcDbLine
 10
99.61110481568812
 20
260.2950267653982
 30
0.0
 11
98.61110481568813
 21
260.2950267653982
 31
0.0
  0
LINE
  5
6CD
330
2
100
AcDbEntity
  8
画層1
370
    30
100
AcDbLine
 10
147.6111048156881
 20
258.2950267653982
 30
0.0
 11
148.1111048156881
 21
258.2950267653982
 31
0.0
  0
LINE
  5
6CE
330
2
100
AcDbEntity
  8
画層1
370
    30
100
AcDbLine
 10
147.6111048156881
 20
259.2950267653982
 30
0.0
 11
148.1111048156881
 21
259.2950267653982
 31
0.0
  0
CIRCLE
  5
6CF
330
2
100
AcDbEntity
  8
画層1
370
    30
100
AcDbCircle
 10
149.1111048156881
 20
258.7950267653982
 30
0.0
 40
2.5
  0
LINE
  5
6D0
330
2
100
AcDbEntity
  8
画層1
370
    30
100
AcDbLine
 10
147.6111048156881
 20
259.2950267653982
 30
0.0
 11
147.6111048156881
 21
258.2950267653982
 31
0.0
  0
LINE
  5
6D1
330
2
100
AcDbEntity
  8
画層1
370
    30
100
AcDbLine
 10
149.6111048156881
 20
260.2950267653982
 30
0.0
 11
148.6111048156881
 21
260.2950267653982
 31
0.0
  0
LINE
  5
6D2
330
2
100
AcDbEntity
  8
画層1
370
    30
100
AcDbLine
 10
148.6111048156881
 20
257.2950267653982
 30
0.0
 11
149.6111048156881
 21
257.2950267653982
 31
0.0
  0
LINE
  5
6D3
330
2
100
AcDbEntity
  8
画層1
370
    30
100
AcDbLine
 10
148.6111048156881
 20
257.7950267653982
 30
0.0
 11
148.6111048156881
 21
257.2950267653982
 31
0.0
  0
LINE
  5
6D4
330
2
100
AcDbEntity
  8
画層1
370
    30
100
AcDbLine
 10
150.1111048156881
 20
258.2950267653982
 30
0.0
 11
150.6111048156881
 21
258.2950267653982
 31
0.0
  0
LINE
  5
6D5
330
2
100
AcDbEntity
  8
画層1
370
    30
100
AcDbLine
 10
149.6111048156881
 20
257.2950267653982
 30
0.0
 11
149.6111048156881
 21
257.7950267653982
 31
0.0
  0
LINE
  5
6D6
330
2
100
AcDbEntity
  8
画層1
370
    30
100
AcDbLine
 10
150.1111048156881
 20
259.2950267653982
 30
0.0
 11
150.6111048156881
 21
259.2950267653982
 31
0.0
  0
LINE
  5
6D7
330
2
100
AcDbEntity
  8
画層1
370
    30
100
AcDbLine
 10
150.6111048156881
 20
258.2950267653982
 30
0.0
 11
150.6111048156881
 21
259.2950267653982
 31
0.0
  0
LINE
  5
6D8
330
2
100
AcDbEntity
  8
画層1
370
    30
100
AcDbLine
 10
149.6111048156881
 20
260.2950267653982
 30
0.0
 11
149.6111048156881
 21
259.7950267653982
 31
0.0
  0
LINE
  5
6D9
330
2
100
AcDbEntity
  8
画層1
370
    30
100
AcDbLine
 10
148.6111048156881
 20
259.7950267653982
 30
0.0
 11
148.6111048156881
 21
260.2950267653982
 31
0.0
  0
LINE
  5
6DA
330
2
100
AcDbEntity
  8
画層1
  6
DASHED2
370
    30
100
AcDbLine
 10
144.1111048156881
 20
258.7950267653982
 30
0.0
 11
154.1111048156881
 21
258.7950267653982
 31
0.0
  0
CIRCLE
  5
6DB
330
2
100
AcDbEntity
  8
画層1
370
    30
100
AcDbCircle
 10
149.1111048156881
 20
258.7950267653982
 30
0.0
 40
4.0
  0
LINE
  5
6DC
330
2
100
AcDbEntity
  8
画層1
  6
DASHED2
370
    30
100
AcDbLine
 10
149.1111048156881
 20
263.7950267653982
 30
0.0
 11
149.1111048156881
 21
253.7950267653982
 31
0.0
  0
LINE
  5
6DF
330
2
100
AcDbEntity
  8
画層1
370
    30
100
AcDbLine
 10
111.1111048156881
 20
254.7950267653982
 30
0.0
 11
94.11110481568812
 21
254.7950267653982
 31
0.0
  0
LINE
  5
6E1
330
2
100
AcDbEntity
  8
画層1
370
    30
100
AcDbLine
 10
94.11110481568812
 20
254.7950267653982
 30
0.0
 11
94.11110481568812
 21
382.7950267653982
 31
0.0
  0
LINE
  5
6E2
330
2
100
AcDbEntity
  8
画層1
370
    30
100
AcDbLine
 10
94.11110481568812
 20
382.7950267653982
 30
0.0
 11
111.1111048156881
 21
382.7950267653982
 31
0.0
  0
LINE
  5
7D4
102
{ACAD_REACTORS
330
89E
102
}
330
2
100
AcDbEntity
  8
画層1
370
    30
100
AcDbLine
 10
108.6111048156881
 20
354.5450267653982
 30
0.0
 11
93.61110481568813
 21
354.5450267653982
 31
0.0
  0
LINE
  5
7D6
102
{ACAD_REACTORS
330
89E
102
}
330
2
100
AcDbEntity
  8
画層1
370
    30
100
AcDbLine
 10
108.6111048156881
 20
263.0450267653982
 30
0.0
 11
93.61110481568813
 21
263.0450267653982
 31
0.0
  0
LINE
  5
7D7
102
{ACAD_REACTORS
330
89E
102
}
330
2
100
AcDbEntity
  8
画層1
370
    30
100
AcDbLine
 10
93.61110481568813
 20
354.5450267653982
 30
0.0
 11
93.61110481568813
 21
263.0450267653982
 31
0.0
  0
LINE
  5
7D8
102
{ACAD_REACTORS
330
89E
102
}
330
2
100
AcDbEntity
  8
画層1
370
    30
100
AcDbLine
 10
108.6111048156881
 20
354.5450267653982
 30
0.0
 11
108.6111048156881
 21
263.0450267653982
 31
0.0
  0
LINE
  5
7DB
102
{ACAD_REACTORS
330
89E
102
}
330
2
100
AcDbEntity
  8
画層1
370
    30
100
AcDbLine
 10
93.61110481568813
 20
353.0450267653982
 30
0.0
 11
106.1111048156881
 21
353.0450267653982
 31
0.0
  0
LINE
  5
7DC
102
{ACAD_REACTORS
330
89E
102
}
330
2
100
AcDbEntity
  8
画層1
370
    30
100
AcDbLine
 10
93.61110481568813
 20
344.5450267653982
 30
0.0
 11
106.1111048156881
 21
344.5450267653982
 31
0.0
  0
LINE
  5
7DD
102
{ACAD_REACTORS
330
89E
102
}
330
2
100
AcDbEntity
  8
画層1
370
    30
100
AcDbLine
 10
93.61110481568813
 20
343.0450267653982
 30
0.0
 11
106.1111048156881
 21
343.0450267653982
 31
0.0
  0
LINE
  5
7E0
102
{ACAD_REACTORS
330
89E
102
}
330
2
100
AcDbEntity
  8
画層1
370
    30
100
AcDbLine
 10
93.61110481568813
 20
333.0450267653982
 30
0.0
 11
106.1111048156881
 21
333.0450267653982
 31
0.0
  0
LINE
  5
7E1
102
{ACAD_REACTORS
330
89E
102
}
330
2
100
AcDbEntity
  8
画層1
370
    30
100
AcDbLine
 10
93.61110481568813
 20
334.5450267653982
 30
0.0
 11
106.1111048156881
 21
334.5450267653982
 31
0.0
  0
LINE
  5
7E2
102
{ACAD_REACTORS
330
89E
102
}
330
2
100
AcDbEntity
  8
画層1
370
    30
100
AcDbLine
 10
93.61110481568813
 20
314.5450267653982
 30
0.0
 11
106.1111048156881
 21
314.5450267653982
 31
0.0
  0
LINE
  5
7E3
102
{ACAD_REACTORS
330
89E
102
}
330
2
100
AcDbEntity
  8
画層1
370
    30
100
AcDbLine
 10
93.61110481568813
 20
313.0450267653982
 30
0.0
 11
106.1111048156881
 21
313.0450267653982
 31
0.0
  0
LINE
  5
7E4
102
{ACAD_REACTORS
330
89E
102
}
330
2
100
AcDbEntity
  8
画層1
370
    30
100
AcDbLine
 10
93.61110481568813
 20
323.0450267653982
 30
0.0
 11
106.1111048156881
 21
323.0450267653982
 31
0.0
  0
LINE
  5
7E5
102
{ACAD_REACTORS
330
89E
102
}
330
2
100
AcDbEntity
  8
画層1
370
    30
100
AcDbLine
 10
93.61110481568813
 20
324.5450267653982
 30
0.0
 11
106.1111048156881
 21
324.5450267653982
 31
0.0
  0
LINE
  5
7E6
102
{ACAD_REACTORS
330
89E
102
}
330
2
100
AcDbEntity
  8
画層1
370
    30
100
AcDbLine
 10
93.61110481568813
 20
284.5450267653982
 30
0.0
 11
106.1111048156881
 21
284.5450267653982
 31
0.0
  0
LINE
  5
7E7
102
{ACAD_REACTORS
330
89E
102
}
330
2
100
AcDbEntity
  8
画層1
370
    30
100
AcDbLine
 10
93.61110481568813
 20
283.0450267653982
 30
0.0
 11
106.1111048156881
 21
283.0450267653982
 31
0.0
  0
LINE
  5
7E8
102
{ACAD_REACTORS
330
89E
102
}
330
2
100
AcDbEntity
  8
画層1
370
    30
100
AcDbLine
 10
93.61110481568813
 20
273.0450267653982
 30
0.0
 11
106.1111048156881
 21
273.0450267653982
 31
0.0
  0
LINE
  5
7E9
102
{ACAD_REACTORS
330
89E
102
}
330
2
100
AcDbEntity
  8
画層1
370
    30
100
AcDbLine
 10
93.61110481568813
 20
274.5450267653982
 30
0.0
 11
106.1111048156881
 21
274.5450267653982
 31
0.0
  0
LINE
  5
7EA
102
{ACAD_REACTORS
330
89E
102
}
330
2
100
AcDbEntity
  8
画層1
370
    30
100
AcDbLine
 10
93.61110481568813
 20
294.5450267653982
 30
0.0
 11
106.1111048156881
 21
294.5450267653982
 31
0.0
  0
LINE
  5
7EB
102
{ACAD_REACTORS
330
89E
102
}
330
2
100
AcDbEntity
  8
画層1
370
    30
100
AcDbLine
 10
93.61110481568813
 20
293.0450267653982
 30
0.0
 11
106.1111048156881
 21
293.0450267653982
 31
0.0
  0
LINE
  5
7EC
102
{ACAD_REACTORS
330
89E
102
}
330
2
100
AcDbEntity
  8
画層1
370
    30
100
AcDbLine
 10
93.61110481568813
 20
303.0450267653982
 30
0.0
 11
106.1111048156881
 21
303.0450267653982
 31
0.0
  0
LINE
  5
7ED
102
{ACAD_REACTORS
330
89E
102
}
330
2
100
AcDbEntity
  8
画層1
370
    30
100
AcDbLine
 10
93.61110481568813
 20
304.5450267653982
 30
0.0
 11
106.1111048156881
 21
304.5450267653982
 31
0.0
  0
LINE
  5
7EE
102
{ACAD_REACTORS
330
89E
102
}
330
2
100
AcDbEntity
  8
画層1
370
    30
100
AcDbLine
 10
93.61110481568813
 20
264.5450267653982
 30
0.0
 11
106.1111048156881
 21
264.5450267653982
 31
0.0
  0
LINE
  5
7EF
102
{ACAD_REACTORS
330
89E
102
}
330
2
100
AcDbEntity
  8
画層1
370
    30
100
AcDbLine
 10
93.61110481568813
 20
263.0450267653982
 30
0.0
 11
108.6111048156881
 21
263.0450267653982
 31
0.0
  0
LWPOLYLINE
  5
7F4
102
{ACAD_REACTORS
330
89E
102
}
330
2
100
AcDbEntity
  8
画層1
370
    30
100
AcDbPolyline
 90
        4
 70
     1
 43
0.0
 10
96.11110481568813
 20
334.7950267653982
 10
104.1111048156881
 20
334.7950267653982
 10
104.1111048156881
 20
342.7950267653982
 10
96.11110481568813
 20
342.7950267653982
  0
CIRCLE
  5
7F6
102
{ACAD_REACTORS
330
89E
102
}
330
2
100
AcDbEntity
  8
画層1
370
    30
100
AcDbCircle
 10
100.1111048156881
 20
338.7950267653982
 30
0.0
 40
3.0
  0
LINE
  5
7F8
102
{ACAD_REACTORS
330
803
330
806
330
89E
102
}
330
2
100
AcDbEntity
  8
画層1
370
    30
100
AcDbLine
 10
100.6111048156881
 20
338.2950267653982
 30
0.0
 11
101.6111048156881
 21
338.2950267653982
 31
0.0
  0
LINE
  5
7F9
102
{ACAD_REACTORS
330
803
330
806
330
89E
102
}
330
2
100
AcDbEntity
  8
画層1
370
    30
100
AcDbLine
 10
100.6111048156881
 20
337.2950267653982
 30
0.0
 11
100.6111048156881
 21
338.2950267653982
 31
0.0
  0
LINE
  5
7FA
102
{ACAD_REACTORS
330
803
330
806
330
89E
102
}
330
2
100
AcDbEntity
  8
画層1
370
    30
100
AcDbLine
 10
99.61110481568812
 20
338.2950267653982
 30
0.0
 11
99.61110481568812
 21
337.2950267653982
 31
0.0
  0
LINE
  5
7FB
102
{ACAD_REACTORS
330
803
330
806
330
89E
102
}
330
2
100
AcDbEntity
  8
画層1
370
    30
100
AcDbLine
 10
98.61110481568813
 20
338.2950267653982
 30
0.0
 11
99.61110481568812
 21
338.2950267653982
 31
0.0
  0
LINE
  5
7FC
102
{ACAD_REACTORS
330
803
330
806
330
89E
102
}
330
2
100
AcDbEntity
  8
画層1
370
    30
100
AcDbLine
 10
98.61110481568813
 20
339.2950267653982
 30
0.0
 11
99.61110481568812
 21
339.2950267653982
 31
0.0
  0
LINE
  5
7FD
102
{ACAD_REACTORS
330
803
330
806
330
89E
102
}
330
2
100
AcDbEntity
  8
画層1
370
    30
100
AcDbLine
 10
100.6111048156881
 20
339.2950267653982
 30
0.0
 11
101.6111048156881
 21
339.2950267653982
 31
0.0
  0
LINE
  5
7FE
102
{ACAD_REACTORS
330
803
330
806
330
89E
102
}
330
2
100
AcDbEntity
  8
画層1
370
    30
100
AcDbLine
 10
99.61110481568812
 20
339.2950267653982
 30
0.0
 11
99.61110481568812
 21
340.2950267653982
 31
0.0
  0
LINE
  5
7FF
102
{ACAD_REACTORS
330
803
330
806
330
89E
102
}
330
2
100
AcDbEntity
  8
画層1
370
    30
100
AcDbLine
 10
100.6111048156881
 20
340.2950267653982
 30
0.0
 11
99.61110481568812
 21
340.2950267653982
 31
0.0
  0
LINE
  5
800
102
{ACAD_REACTORS
330
803
330
806
330
89E
102
}
330
2
100
AcDbEntity
  8
画層1
370
    30
100
AcDbLine
 10
101.6111048156881
 20
338.2950267653982
 30
0.0
 11
101.6111048156881
 21
339.2950267653982
 31
0.0
  0
LINE
  5
801
102
{ACAD_REACTORS
330
803
330
806
330
89E
102
}
330
2
100
AcDbEntity
  8
画層1
370
    30
100
AcDbLine
 10
99.61110481568812
 20
337.2950267653982
 30
0.0
 11
100.6111048156881
 21
337.2950267653982
 31
0.0
  0
LINE
  5
802
102
{ACAD_REACTORS
330
803
330
806
330
89E
102
}
330
2
100
AcDbEntity
  8
画層1
370
    30
100
AcDbLine
 10
98.61110481568813
 20
339.2950267653982
 30
0.0
 11
98.61110481568813
 21
338.2950267653982
 31
0.0
  0
LINE
  5
805
102
{ACAD_REACTORS
330
806
330
89E
102
}
330
2
100
AcDbEntity
  8
画層1
370
    30
100
AcDbLine
 10
100.6111048156881
 20
339.2950267653982
 30
0.0
 11
100.6111048156881
 21
340.2950267653982
 31
0.0
  0
CIRCLE
  5
807
102
{ACAD_REACTORS
330
89E
102
}
330
2
100
AcDbEntity
  8
画層1
370
    30
100
AcDbCircle
 10
100.1111048156881
 20
348.7950267653982
 30
0.0
 40
3.0
  0
LWPOLYLINE
  5
808
102
{ACAD_REACTORS
330
89E
102
}
330
2
100
AcDbEntity
  8
画層1
370
    30
100
AcDbPolyline
 90
        4
 70
     1
 43
0.0
 10
96.11110481568813
 20
344.7950267653982
 10
104.1111048156881
 20
344.7950267653982
 10
104.1111048156881
 20
352.7950267653982
 10
96.11110481568813
 20
352.7950267653982
  0
LINE
  5
809
102
{ACAD_REACTORS
330
815
330
816
330
89E
102
}
330
2
100
AcDbEntity
  8
画層1
370
    30
100
AcDbLine
 10
100.6111048156881
 20
348.2950267653982
 30
0.0
 11
101.6111048156881
 21
348.2950267653982
 31
0.0
  0
LINE
  5
80A
102
{ACAD_REACTORS
330
815
330
816
330
89E
102
}
330
2
100
AcDbEntity
  8
画層1
370
    30
100
AcDbLine
 10
100.6111048156881
 20
349.2950267653982
 30
0.0
 11
101.6111048156881
 21
349.2950267653982
 31
0.0
  0
LINE
  5
80B
102
{ACAD_REACTORS
330
815
330
816
330
89E
102
}
330
2
100
AcDbEntity
  8
画層1
370
    30
100
AcDbLine
 10
100.6111048156881
 20
350.2950267653982
 30
0.0
 11
99.61110481568812
 21
350.2950267653982
 31
0.0
  0
LINE
  5
80C
102
{ACAD_REACTORS
330
815
330
816
330
89E
102
}
330
2
100
AcDbEntity
  8
画層1
370
    30
100
AcDbLine
 10
100.6111048156881
 20
347.2950267653982
 30
0.0
 11
100.6111048156881
 21
348.2950267653982
 31
0.0
  0
LINE
  5
80D
102
{ACAD_REACTORS
330
815
330
816
330
89E
102
}
330
2
100
AcDbEntity
  8
画層1
370
    30
100
AcDbLine
 10
99.61110481568812
 20
348.2950267653982
 30
0.0
 11
99.61110481568812
 21
347.2950267653982
 31
0.0
  0
LINE
  5
80E
102
{ACAD_REACTORS
330
815
330
816
330
89E
102
}
330
2
100
AcDbEntity
  8
画層1
370
    30
100
AcDbLine
 10
98.61110481568813
 20
348.2950267653982
 30
0.0
 11
99.61110481568812
 21
348.2950267653982
 31
0.0
  0
LINE
  5
80F
102
{ACAD_REACTORS
330
815
330
816
330
89E
102
}
330
2
100
AcDbEntity
  8
画層1
370
    30
100
AcDbLine
 10
98.61110481568813
 20
349.2950267653982
 30
0.0
 11
99.61110481568812
 21
349.2950267653982
 31
0.0
  0
LINE
  5
810
102
{ACAD_REACTORS
330
815
330
816
330
89E
102
}
330
2
100
AcDbEntity
  8
画層1
370
    30
100
AcDbLine
 10
99.61110481568812
 20
347.2950267653982
 30
0.0
 11
100.6111048156881
 21
347.2950267653982
 31
0.0
  0
LINE
  5
811
102
{ACAD_REACTORS
330
815
330
816
330
89E
102
}
330
2
100
AcDbEntity
  8
画層1
370
    30
100
AcDbLine
 10
98.61110481568813
 20
349.2950267653982
 30
0.0
 11
98.61110481568813
 21
348.2950267653982
 31
0.0
  0
LINE
  5
812
102
{ACAD_REACTORS
330
815
330
816
330
89E
102
}
330
2
100
AcDbEntity
  8
画層1
370
    30
100
AcDbLine
 10
99.61110481568812
 20
349.2950267653982
 30
0.0
 11
99.61110481568812
 21
350.2950267653982
 31
0.0
  0
LINE
  5
813
102
{ACAD_REACTORS
330
816
330
89E
102
}
330
2
100
AcDbEntity
  8
画層1
370
    30
100
AcDbLine
 10
100.6111048156881
 20
349.2950267653982
 30
0.0
 11
100.6111048156881
 21
350.2950267653982
 31
0.0
  0
LINE
  5
814
102
{ACAD_REACTORS
330
815
330
816
330
89E
102
}
330
2
100
AcDbEntity
  8
画層1
370
    30
100
AcDbLine
 10
101.6111048156881
 20
348.2950267653982
 30
0.0
 11
101.6111048156881
 21
349.2950267653982
 31
0.0
  0
CIRCLE
  5
817
102
{ACAD_REACTORS
330
89E
102
}
330
2
100
AcDbEntity
  8
画層1
370
    30
100
AcDbCircle
 10
100.1111048156881
 20
318.7950267653982
 30
0.0
 40
3.0
  0
LWPOLYLINE
  5
818
102
{ACAD_REACTORS
330
89E
102
}
330
2
100
AcDbEntity
  8
画層1
370
    30
100
AcDbPolyline
 90
        4
 70
     1
 43
0.0
 10
96.11110481568813
 20
314.7950267653982
 10
104.1111048156881
 20
314.7950267653982
 10
104.1111048156881
 20
322.7950267653982
 10
96.11110481568813
 20
322.7950267653982
  0
LWPOLYLINE
  5
819
102
{ACAD_REACTORS
330
89E
102
}
330
2
100
AcDbEntity
  8
画層1
370
    30
100
AcDbPolyline
 90
        4
 70
     1
 43
0.0
 10
96.11110481568813
 20
324.7950267653982
 10
104.1111048156881
 20
324.7950267653982
 10
104.1111048156881
 20
332.7950267653982
 10
96.11110481568813
 20
332.7950267653982
  0
LINE
  5
81A
102
{ACAD_REACTORS
330
833
330
834
330
89E
102
}
330
2
100
AcDbEntity
  8
画層1
370
    30
100
AcDbLine
 10
100.6111048156881
 20
318.2950267653982
 30
0.0
 11
101.6111048156881
 21
318.2950267653982
 31
0.0
  0
LINE
  5
81B
102
{ACAD_REACTORS
330
833
330
834
330
89E
102
}
330
2
100
AcDbEntity
  8
画層1
370
    30
100
AcDbLine
 10
100.6111048156881
 20
319.2950267653982
 30
0.0
 11
101.6111048156881
 21
319.2950267653982
 31
0.0
  0
LINE
  5
81C
102
{ACAD_REACTORS
330
833
330
834
330
89E
102
}
330
2
100
AcDbEntity
  8
画層1
370
    30
100
AcDbLine
 10
100.6111048156881
 20
320.2950267653982
 30
0.0
 11
99.61110481568812
 21
320.2950267653982
 31
0.0
  0
LINE
  5
81D
102
{ACAD_REACTORS
330
833
330
834
330
89E
102
}
330
2
100
AcDbEntity
  8
画層1
370
    30
100
AcDbLine
 10
100.6111048156881
 20
317.2950267653982
 30
0.0
 11
100.6111048156881
 21
318.2950267653982
 31
0.0
  0
LINE
  5
81E
102
{ACAD_REACTORS
330
833
330
834
330
89E
102
}
330
2
100
AcDbEntity
  8
画層1
370
    30
100
AcDbLine
 10
99.61110481568812
 20
318.2950267653982
 30
0.0
 11
99.61110481568812
 21
317.2950267653982
 31
0.0
  0
LINE
  5
81F
102
{ACAD_REACTORS
330
833
330
834
330
89E
102
}
330
2
100
AcDbEntity
  8
画層1
370
    30
100
AcDbLine
 10
98.61110481568813
 20
318.2950267653982
 30
0.0
 11
99.61110481568812
 21
318.2950267653982
 31
0.0
  0
LINE
  5
820
102
{ACAD_REACTORS
330
833
330
834
330
89E
102
}
330
2
100
AcDbEntity
  8
画層1
370
    30
100
AcDbLine
 10
98.61110481568813
 20
319.2950267653982
 30
0.0
 11
99.61110481568812
 21
319.2950267653982
 31
0.0
  0
LINE
  5
821
102
{ACAD_REACTORS
330
833
330
834
330
89E
102
}
330
2
100
AcDbEntity
  8
画層1
370
    30
100
AcDbLine
 10
99.61110481568812
 20
317.2950267653982
 30
0.0
 11
100.6111048156881
 21
317.2950267653982
 31
0.0
  0
LINE
  5
822
102
{ACAD_REACTORS
330
833
330
834
330
89E
102
}
330
2
100
AcDbEntity
  8
画層1
370
    30
100
AcDbLine
 10
98.61110481568813
 20
319.2950267653982
 30
0.0
 11
98.61110481568813
 21
318.2950267653982
 31
0.0
  0
LINE
  5
823
102
{ACAD_REACTORS
330
833
330
834
330
89E
102
}
330
2
100
AcDbEntity
  8
画層1
370
    30
100
AcDbLine
 10
99.61110481568812
 20
319.2950267653982
 30
0.0
 11
99.61110481568812
 21
320.2950267653982
 31
0.0
  0
LINE
  5
824
102
{ACAD_REACTORS
330
834
330
89E
102
}
330
2
100
AcDbEntity
  8
画層1
370
    30
100
AcDbLine
 10
100.6111048156881
 20
319.2950267653982
 30
0.0
 11
100.6111048156881
 21
320.2950267653982
 31
0.0
  0
LINE
  5
825
102
{ACAD_REACTORS
330
833
330
834
330
89E
102
}
330
2
100
AcDbEntity
  8
画層1
370
    30
100
AcDbLine
 10
101.6111048156881
 20
318.2950267653982
 30
0.0
 11
101.6111048156881
 21
319.2950267653982
 31
0.0
  0
LINE
  5
826
102
{ACAD_REACTORS
330
835
330
836
330
89E
102
}
330
2
100
AcDbEntity
  8
画層1
370
    30
100
AcDbLine
 10
100.6111048156881
 20
329.2950267653982
 30
0.0
 11
101.6111048156881
 21
329.2950267653982
 31
0.0
  0
LINE
  5
827
102
{ACAD_REACTORS
330
835
330
836
330
89E
102
}
330
2
100
AcDbEntity
  8
画層1
370
    30
100
AcDbLine
 10
100.6111048156881
 20
328.2950267653982
 30
0.0
 11
101.6111048156881
 21
328.2950267653982
 31
0.0
  0
CIRCLE
  5
828
102
{ACAD_REACTORS
330
89E
102
}
330
2
100
AcDbEntity
  8
画層1
370
    30
100
AcDbCircle
 10
100.1111048156881
 20
328.7950267653982
 30
0.0
 40
3.0
  0
LINE
  5
829
102
{ACAD_REACTORS
330
836
330
89E
102
}
330
2
100
AcDbEntity
  8
画層1
370
    30
100
AcDbLine
 10
100.6111048156881
 20
329.2950267653982
 30
0.0
 11
100.6111048156881
 21
330.2950267653982
 31
0.0
  0
LINE
  5
82A
102
{ACAD_REACTORS
330
835
330
836
330
89E
102
}
330
2
100
AcDbEntity
  8
画層1
370
    30
100
AcDbLine
 10
99.61110481568812
 20
329.2950267653982
 30
0.0
 11
99.61110481568812
 21
330.2950267653982
 31
0.0
  0
LINE
  5
82B
102
{ACAD_REACTORS
330
835
330
836
330
89E
102
}
330
2
100
AcDbEntity
  8
画層1
370
    30
100
AcDbLine
 10
98.61110481568813
 20
329.2950267653982
 30
0.0
 11
98.61110481568813
 21
328.2950267653982
 31
0.0
  0
LINE
  5
82C
102
{ACAD_REACTORS
330
835
330
836
330
89E
102
}
330
2
100
AcDbEntity
  8
画層1
370
    30
100
AcDbLine
 10
99.61110481568812
 20
327.2950267653982
 30
0.0
 11
100.6111048156881
 21
327.2950267653982
 31
0.0
  0
LINE
  5
82D
102
{ACAD_REACTORS
330
835
330
836
330
89E
102
}
330
2
100
AcDbEntity
  8
画層1
370
    30
100
AcDbLine
 10
98.61110481568813
 20
329.2950267653982
 30
0.0
 11
99.61110481568812
 21
329.2950267653982
 31
0.0
  0
LINE
  5
82E
102
{ACAD_REACTORS
330
835
330
836
330
89E
102
}
330
2
100
AcDbEntity
  8
画層1
370
    30
100
AcDbLine
 10
98.61110481568813
 20
328.2950267653982
 30
0.0
 11
99.61110481568812
 21
328.2950267653982
 31
0.0
  0
LINE
  5
82F
102
{ACAD_REACTORS
330
835
330
836
330
89E
102
}
330
2
100
AcDbEntity
  8
画層1
370
    30
100
AcDbLine
 10
99.61110481568812
 20
328.2950267653982
 30
0.0
 11
99.61110481568812
 21
327.2950267653982
 31
0.0
  0
LINE
  5
830
102
{ACAD_REACTORS
330
835
330
836
330
89E
102
}
330
2
100
AcDbEntity
  8
画層1
370
    30
100
AcDbLine
 10
100.6111048156881
 20
327.2950267653982
 30
0.0
 11
100.6111048156881
 21
328.2950267653982
 31
0.0
  0
LINE
  5
831
102
{ACAD_REACTORS
330
835
330
836
330
89E
102
}
330
2
100
AcDbEntity
  8
画層1
370
    30
100
AcDbLine
 10
100.6111048156881
 20
330.2950267653982
 30
0.0
 11
99.61110481568812
 21
330.2950267653982
 31
0.0
  0
LINE
  5
832
102
{ACAD_REACTORS
330
835
330
836
330
89E
102
}
330
2
100
AcDbEntity
  8
画層1
370
    30
100
AcDbLine
 10
101.6111048156881
 20
328.2950267653982
 30
0.0
 11
101.6111048156881
 21
329.2950267653982
 31
0.0
  0
CIRCLE
  5
837
102
{ACAD_REACTORS
330
89E
102
}
330
2
100
AcDbEntity
  8
画層1
370
    30
100
AcDbCircle
 10
100.1111048156881
 20
298.7950267653982
 30
0.0
 40
3.0
  0
LWPOLYLINE
  5
838
102
{ACAD_REACTORS
330
89E
102
}
330
2
100
AcDbEntity
  8
画層1
370
    30
100
AcDbPolyline
 90
        4
 70
     1
 43
0.0
 10
96.11110481568813
 20
294.7950267653982
 10
104.1111048156881
 20
294.7950267653982
 10
104.1111048156881
 20
302.7950267653982
 10
96.11110481568813
 20
302.7950267653982
  0
LINE
  5
839
102
{ACAD_REACTORS
330
873
330
874
330
89E
102
}
330
2
100
AcDbEntity
  8
画層1
370
    30
100
AcDbLine
 10
101.6111048156881
 20
278.2950267653982
 30
0.0
 11
101.6111048156881
 21
279.2950267653982
 31
0.0
  0
LINE
  5
83A
102
{ACAD_REACTORS
330
873
330
874
330
89E
102
}
330
2
100
AcDbEntity
  8
画層1
370
    30
100
AcDbLine
 10
98.61110481568813
 20
279.2950267653982
 30
0.0
 11
98.61110481568813
 21
278.2950267653982
 31
0.0
  0
LWPOLYLINE
  5
83B
102
{ACAD_REACTORS
330
89E
102
}
330
2
100
AcDbEntity
  8
画層1
370
    30
100
AcDbPolyline
 90
        4
 70
     1
 43
0.0
 10
96.11110481568813
 20
274.7950267653982
 10
104.1111048156881
 20
274.7950267653982
 10
104.1111048156881
 20
282.7950267653982
 10
96.11110481568813
 20
282.7950267653982
  0
CIRCLE
  5
83C
102
{ACAD_REACTORS
330
89E
102
}
330
2
100
AcDbEntity
  8
画層1
370
    30
100
AcDbCircle
 10
100.1111048156881
 20
278.7950267653982
 30
0.0
 40
3.0
  0
LINE
  5
83D
102
{ACAD_REACTORS
330
873
330
874
330
89E
102
}
330
2
100
AcDbEntity
  8
画層1
370
    30
100
AcDbLine
 10
100.6111048156881
 20
278.2950267653982
 30
0.0
 11
101.6111048156881
 21
278.2950267653982
 31
0.0
  0
LINE
  5
83E
102
{ACAD_REACTORS
330
873
330
874
330
89E
102
}
330
2
100
AcDbEntity
  8
画層1
370
    30
100
AcDbLine
 10
99.61110481568812
 20
277.2950267653982
 30
0.0
 11
100.6111048156881
 21
277.2950267653982
 31
0.0
  0
LINE
  5
83F
102
{ACAD_REACTORS
330
873
330
874
330
89E
102
}
330
2
100
AcDbEntity
  8
画層1
370
    30
100
AcDbLine
 10
98.61110481568813
 20
278.2950267653982
 30
0.0
 11
99.61110481568812
 21
278.2950267653982
 31
0.0
  0
LINE
  5
840
102
{ACAD_REACTORS
330
873
330
874
330
89E
102
}
330
2
100
AcDbEntity
  8
画層1
370
    30
100
AcDbLine
 10
99.61110481568812
 20
278.2950267653982
 30
0.0
 11
99.61110481568812
 21
277.2950267653982
 31
0.0
  0
LINE
  5
841
102
{ACAD_REACTORS
330
873
330
874
330
89E
102
}
330
2
100
AcDbEntity
  8
画層1
370
    30
100
AcDbLine
 10
100.6111048156881
 20
277.2950267653982
 30
0.0
 11
100.6111048156881
 21
278.2950267653982
 31
0.0
  0
LINE
  5
842
102
{ACAD_REACTORS
330
875
330
876
330
89E
102
}
330
2
100
AcDbEntity
  8
画層1
370
    30
100
AcDbLine
 10
100.6111048156881
 20
287.2950267653982
 30
0.0
 11
100.6111048156881
 21
288.2950267653982
 31
0.0
  0
LINE
  5
843
102
{ACAD_REACTORS
330
875
330
876
330
89E
102
}
330
2
100
AcDbEntity
  8
画層1
370
    30
100
AcDbLine
 10
99.61110481568812
 20
288.2950267653982
 30
0.0
 11
99.61110481568812
 21
287.2950267653982
 31
0.0
  0
CIRCLE
  5
844
102
{ACAD_REACTORS
330
89E
102
}
330
2
100
AcDbEntity
  8
画層1
370
    30
100
AcDbCircle
 10
100.1111048156881
 20
288.7950267653982
 30
0.0
 40
3.0
  0
LWPOLYLINE
  5
845
102
{ACAD_REACTORS
330
89E
102
}
330
2
100
AcDbEntity
  8
画層1
370
    30
100
AcDbPolyline
 90
        4
 70
     1
 43
0.0
 10
96.11110481568813
 20
284.7950267653982
 10
104.1111048156881
 20
284.7950267653982
 10
104.1111048156881
 20
292.7950267653982
 10
96.11110481568813
 20
292.7950267653982
  0
LINE
  5
846
102
{ACAD_REACTORS
330
873
330
874
330
89E
102
}
330
2
100
AcDbEntity
  8
画層1
370
    30
100
AcDbLine
 10
100.6111048156881
 20
279.2950267653982
 30
0.0
 11
101.6111048156881
 21
279.2950267653982
 31
0.0
  0
LINE
  5
847
102
{ACAD_REACTORS
330
875
330
876
330
89E
102
}
330
2
100
AcDbEntity
  8
画層1
370
    30
100
AcDbLine
 10
99.61110481568812
 20
287.2950267653982
 30
0.0
 11
100.6111048156881
 21
287.2950267653982
 31
0.0
  0
LINE
  5
848
102
{ACAD_REACTORS
330
874
330
89E
102
}
330
2
100
AcDbEntity
  8
画層1
370
    30
100
AcDbLine
 10
100.6111048156881
 20
279.2950267653982
 30
0.0
 11
100.6111048156881
 21
280.2950267653982
 31
0.0
  0
LINE
  5
849
102
{ACAD_REACTORS
330
873
330
874
330
89E
102
}
330
2
100
AcDbEntity
  8
画層1
370
    30
100
AcDbLine
 10
99.61110481568812
 20
279.2950267653982
 30
0.0
 11
99.61110481568812
 21
280.2950267653982
 31
0.0
  0
LINE
  5
84A
102
{ACAD_REACTORS
330
873
330
874
330
89E
102
}
330
2
100
AcDbEntity
  8
画層1
370
    30
100
AcDbLine
 10
98.61110481568813
 20
279.2950267653982
 30
0.0
 11
99.61110481568812
 21
279.2950267653982
 31
0.0
  0
LINE
  5
84B
102
{ACAD_REACTORS
330
873
330
874
330
89E
102
}
330
2
100
AcDbEntity
  8
画層1
370
    30
100
AcDbLine
 10
100.6111048156881
 20
280.2950267653982
 30
0.0
 11
99.61110481568812
 21
280.2950267653982
 31
0.0
  0
LINE
  5
84C
102
{ACAD_REACTORS
330
875
330
876
330
89E
102
}
330
2
100
AcDbEntity
  8
画層1
370
    30
100
AcDbLine
 10
100.6111048156881
 20
288.2950267653982
 30
0.0
 11
101.6111048156881
 21
288.2950267653982
 31
0.0
  0
LINE
  5
84D
102
{ACAD_REACTORS
330
875
330
876
330
89E
102
}
330
2
100
AcDbEntity
  8
画層1
370
    30
100
AcDbLine
 10
100.6111048156881
 20
289.2950267653982
 30
0.0
 11
101.6111048156881
 21
289.2950267653982
 31
0.0
  0
LINE
  5
84E
102
{ACAD_REACTORS
330
875
330
876
330
89E
102
}
330
2
100
AcDbEntity
  8
画層1
370
    30
100
AcDbLine
 10
100.6111048156881
 20
290.2950267653982
 30
0.0
 11
99.61110481568812
 21
290.2950267653982
 31
0.0
  0
LINE
  5
84F
102
{ACAD_REACTORS
330
875
330
876
330
89E
102
}
330
2
100
AcDbEntity
  8
画層1
370
    30
100
AcDbLine
 10
98.61110481568813
 20
288.2950267653982
 30
0.0
 11
99.61110481568812
 21
288.2950267653982
 31
0.0
  0
LINE
  5
850
102
{ACAD_REACTORS
330
875
330
876
330
89E
102
}
330
2
100
AcDbEntity
  8
画層1
370
    30
100
AcDbLine
 10
98.61110481568813
 20
289.2950267653982
 30
0.0
 11
99.61110481568812
 21
289.2950267653982
 31
0.0
  0
LINE
  5
851
102
{ACAD_REACTORS
330
875
330
876
330
89E
102
}
330
2
100
AcDbEntity
  8
画層1
370
    30
100
AcDbLine
 10
98.61110481568813
 20
289.2950267653982
 30
0.0
 11
98.61110481568813
 21
288.2950267653982
 31
0.0
  0
LINE
  5
852
102
{ACAD_REACTORS
330
875
330
876
330
89E
102
}
330
2
100
AcDbEntity
  8
画層1
370
    30
100
AcDbLine
 10
99.61110481568812
 20
289.2950267653982
 30
0.0
 11
99.61110481568812
 21
290.2950267653982
 31
0.0
  0
LINE
  5
853
102
{ACAD_REACTORS
330
876
330
89E
102
}
330
2
100
AcDbEntity
  8
画層1
370
    30
100
AcDbLine
 10
100.6111048156881
 20
289.2950267653982
 30
0.0
 11
100.6111048156881
 21
290.2950267653982
 31
0.0
  0
LINE
  5
854
102
{ACAD_REACTORS
330
875
330
876
330
89E
102
}
330
2
100
AcDbEntity
  8
画層1
370
    30
100
AcDbLine
 10
101.6111048156881
 20
288.2950267653982
 30
0.0
 11
101.6111048156881
 21
289.2950267653982
 31
0.0
  0
LWPOLYLINE
  5
855
102
{ACAD_REACTORS
330
89E
102
}
330
2
100
AcDbEntity
  8
画層1
370
    30
100
AcDbPolyline
 90
        4
 70
     1
 43
0.0
 10
96.11110481568813
 20
304.7950267653982
 10
104.1111048156881
 20
304.7950267653982
 10
104.1111048156881
 20
312.7950267653982
 10
96.11110481568813
 20
312.7950267653982
  0
LINE
  5
856
102
{ACAD_REACTORS
330
86F
330
870
330
89E
102
}
330
2
100
AcDbEntity
  8
画層1
370
    30
100
AcDbLine
 10
100.6111048156881
 20
298.2950267653982
 30
0.0
 11
101.6111048156881
 21
298.2950267653982
 31
0.0
  0
LINE
  5
857
102
{ACAD_REACTORS
330
86F
330
870
330
89E
102
}
330
2
100
AcDbEntity
  8
画層1
370
    30
100
AcDbLine
 10
100.6111048156881
 20
299.2950267653982
 30
0.0
 11
101.6111048156881
 21
299.2950267653982
 31
0.0
  0
LINE
  5
858
102
{ACAD_REACTORS
330
86F
330
870
330
89E
102
}
330
2
100
AcDbEntity
  8
画層1
370
    30
100
AcDbLine
 10
100.6111048156881
 20
300.2950267653982
 30
0.0
 11
99.61110481568812
 21
300.2950267653982
 31
0.0
  0
LINE
  5
859
102
{ACAD_REACTORS
330
86F
330
870
330
89E
102
}
330
2
100
AcDbEntity
  8
画層1
370
    30
100
AcDbLine
 10
100.6111048156881
 20
297.2950267653982
 30
0.0
 11
100.6111048156881
 21
298.2950267653982
 31
0.0
  0
LINE
  5
85A
102
{ACAD_REACTORS
330
86F
330
870
330
89E
102
}
330
2
100
AcDbEntity
  8
画層1
370
    30
100
AcDbLine
 10
99.61110481568812
 20
298.2950267653982
 30
0.0
 11
99.61110481568812
 21
297.2950267653982
 31
0.0
  0
LINE
  5
85B
102
{ACAD_REACTORS
330
86F
330
870
330
89E
102
}
330
2
100
AcDbEntity
  8
画層1
370
    30
100
AcDbLine
 10
98.61110481568813
 20
298.2950267653982
 30
0.0
 11
99.61110481568812
 21
298.2950267653982
 31
0.0
  0
LINE
  5
85C
102
{ACAD_REACTORS
330
86F
330
870
330
89E
102
}
330
2
100
AcDbEntity
  8
画層1
370
    30
100
AcDbLine
 10
98.61110481568813
 20
299.2950267653982
 30
0.0
 11
99.61110481568812
 21
299.2950267653982
 31
0.0
  0
LINE
  5
85D
102
{ACAD_REACTORS
330
86F
330
870
330
89E
102
}
330
2
100
AcDbEntity
  8
画層1
370
    30
100
AcDbLine
 10
99.61110481568812
 20
297.2950267653982
 30
0.0
 11
100.6111048156881
 21
297.2950267653982
 31
0.0
  0
LINE
  5
85E
102
{ACAD_REACTORS
330
86F
330
870
330
89E
102
}
330
2
100
AcDbEntity
  8
画層1
370
    30
100
AcDbLine
 10
98.61110481568813
 20
299.2950267653982
 30
0.0
 11
98.61110481568813
 21
298.2950267653982
 31
0.0
  0
LINE
  5
85F
102
{ACAD_REACTORS
330
86F
330
870
330
89E
102
}
330
2
100
AcDbEntity
  8
画層1
370
    30
100
AcDbLine
 10
99.61110481568812
 20
299.2950267653982
 30
0.0
 11
99.61110481568812
 21
300.2950267653982
 31
0.0
  0
LINE
  5
860
102
{ACAD_REACTORS
330
870
330
89E
102
}
330
2
100
AcDbEntity
  8
画層1
370
    30
100
AcDbLine
 10
100.6111048156881
 20
299.2950267653982
 30
0.0
 11
100.6111048156881
 21
300.2950267653982
 31
0.0
  0
LINE
  5
861
102
{ACAD_REACTORS
330
86F
330
870
330
89E
102
}
330
2
100
AcDbEntity
  8
画層1
370
    30
100
AcDbLine
 10
101.6111048156881
 20
298.2950267653982
 30
0.0
 11
101.6111048156881
 21
299.2950267653982
 31
0.0
  0
LINE
  5
862
102
{ACAD_REACTORS
330
871
330
872
330
89E
102
}
330
2
100
AcDbEntity
  8
画層1
370
    30
100
AcDbLine
 10
100.6111048156881
 20
309.2950267653982
 30
0.0
 11
101.6111048156881
 21
309.2950267653982
 31
0.0
  0
LINE
  5
863
102
{ACAD_REACTORS
330
871
330
872
330
89E
102
}
330
2
100
AcDbEntity
  8
画層1
370
    30
100
AcDbLine
 10
100.6111048156881
 20
308.2950267653982
 30
0.0
 11
101.6111048156881
 21
308.2950267653982
 31
0.0
  0
CIRCLE
  5
864
102
{ACAD_REACTORS
330
89E
102
}
330
2
100
AcDbEntity
  8
画層1
370
    30
100
AcDbCircle
 10
100.1111048156881
 20
308.7950267653982
 30
0.0
 40
3.0
  0
LINE
  5
865
102
{ACAD_REACTORS
330
872
330
89E
102
}
330
2
100
AcDbEntity
  8
画層1
370
    30
100
AcDbLine
 10
100.6111048156881
 20
309.2950267653982
 30
0.0
 11
100.6111048156881
 21
310.2950267653982
 31
0.0
  0
LINE
  5
866
102
{ACAD_REACTORS
330
871
330
872
330
89E
102
}
330
2
100
AcDbEntity
  8
画層1
370
    30
100
AcDbLine
 10
99.61110481568812
 20
309.2950267653982
 30
0.0
 11
99.61110481568812
 21
310.2950267653982
 31
0.0
  0
LINE
  5
867
102
{ACAD_REACTORS
330
871
330
872
330
89E
102
}
330
2
100
AcDbEntity
  8
画層1
370
    30
100
AcDbLine
 10
98.61110481568813
 20
309.2950267653982
 30
0.0
 11
98.61110481568813
 21
308.2950267653982
 31
0.0
  0
LINE
  5
868
102
{ACAD_REACTORS
330
871
330
872
330
89E
102
}
330
2
100
AcDbEntity
  8
画層1
370
    30
100
AcDbLine
 10
99.61110481568812
 20
307.2950267653982
 30
0.0
 11
100.6111048156881
 21
307.2950267653982
 31
0.0
  0
LINE
  5
869
102
{ACAD_REACTORS
330
871
330
872
330
89E
102
}
330
2
100
AcDbEntity
  8
画層1
370
    30
100
AcDbLine
 10
98.61110481568813
 20
309.2950267653982
 30
0.0
 11
99.61110481568812
 21
309.2950267653982
 31
0.0
  0
LINE
  5
86A
102
{ACAD_REACTORS
330
871
330
872
330
89E
102
}
330
2
100
AcDbEntity
  8
画層1
370
    30
100
AcDbLine
 10
98.61110481568813
 20
308.2950267653982
 30
0.0
 11
99.61110481568812
 21
308.2950267653982
 31
0.0
  0
LINE
  5
86B
102
{ACAD_REACTORS
330
871
330
872
330
89E
102
}
330
2
100
AcDbEntity
  8
画層1
370
    30
100
AcDbLine
 10
99.61110481568812
 20
308.2950267653982
 30
0.0
 11
99.61110481568812
 21
307.2950267653982
 31
0.0
  0
LINE
  5
86C
102
{ACAD_REACTORS
330
871
330
872
330
89E
102
}
330
2
100
AcDbEntity
  8
画層1
370
    30
100
AcDbLine
 10
100.6111048156881
 20
307.2950267653982
 30
0.0
 11
100.6111048156881
 21
308.2950267653982
 31
0.0
  0
LINE
  5
86D
102
{ACAD_REACTORS
330
871
330
872
330
89E
102
}
330
2
100
AcDbEntity
  8
画層1
370
    30
100
AcDbLine
 10
100.6111048156881
 20
310.2950267653982
 30
0.0
 11
99.61110481568812
 21
310.2950267653982
 31
0.0
  0
LINE
  5
86E
102
{ACAD_REACTORS
330
871
330
872
330
89E
102
}
330
2
100
AcDbEntity
  8
画層1
370
    30
100
AcDbLine
 10
101.6111048156881
 20
308.2950267653982
 30
0.0
 11
101.6111048156881
 21
309.2950267653982
 31
0.0
  0
CIRCLE
  5
877
102
{ACAD_REACTORS
330
89E
102
}
330
2
100
AcDbEntity
  8
画層1
370
    30
100
AcDbCircle
 10
100.1111048156881
 20
268.7950267653982
 30
0.0
 40
3.0
  0
LWPOLYLINE
  5
878
102
{ACAD_REACTORS
330
89E
102
}
330
2
100
AcDbEntity
  8
画層1
370
    30
100
AcDbPolyline
 90
        4
 70
     1
 43
0.0
 10
96.11110481568813
 20
264.7950267653982
 10
104.1111048156881
 20
264.7950267653982
 10
104.1111048156881
 20
272.7950267653982
 10
96.11110481568813
 20
272.7950267653982
  0
LINE
  5
879
102
{ACAD_REACTORS
330
885
330
886
330
89E
102
}
330
2
100
AcDbEntity
  8
画層1
370
    30
100
AcDbLine
 10
100.6111048156881
 20
269.2950267653982
 30
0.0
 11
101.6111048156881
 21
269.2950267653982
 31
0.0
  0
LINE
  5
87A
102
{ACAD_REACTORS
330
885
330
886
330
89E
102
}
330
2
100
AcDbEntity
  8
画層1
370
    30
100
AcDbLine
 10
100.6111048156881
 20
268.2950267653982
 30
0.0
 11
101.6111048156881
 21
268.2950267653982
 31
0.0
  0
LINE
  5
87B
102
{ACAD_REACTORS
330
885
330
886
330
89E
102
}
330
2
100
AcDbEntity
  8
画層1
370
    30
100
AcDbLine
 10
100.6111048156881
 20
270.2950267653982
 30
0.0
 11
99.61110481568812
 21
270.2950267653982
 31
0.0
  0
LINE
  5
87C
102
{ACAD_REACTORS
330
885
330
886
330
89E
102
}
330
2
100
AcDbEntity
  8
画層1
370
    30
100
AcDbLine
 10
98.61110481568813
 20
269.2950267653982
 30
0.0
 11
99.61110481568812
 21
269.2950267653982
 31
0.0
  0
LINE
  5
87D
102
{ACAD_REACTORS
330
885
330
886
330
89E
102
}
330
2
100
AcDbEntity
  8
画層1
370
    30
100
AcDbLine
 10
99.61110481568812
 20
269.2950267653982
 30
0.0
 11
99.61110481568812
 21
270.2950267653982
 31
0.0
  0
LINE
  5
87E
102
{ACAD_REACTORS
330
886
330
89E
102
}
330
2
100
AcDbEntity
  8
画層1
370
    30
100
AcDbLine
 10
100.6111048156881
 20
269.2950267653982
 30
0.0
 11
100.6111048156881
 21
270.2950267653982
 31
0.0
  0
LINE
  5
87F
102
{ACAD_REACTORS
330
885
330
886
330
89E
102
}
330
2
100
AcDbEntity
  8
画層1
370
    30
100
AcDbLine
 10
100.6111048156881
 20
267.2950267653982
 30
0.0
 11
100.6111048156881
 21
268.2950267653982
 31
0.0
  0
LINE
  5
880
102
{ACAD_REACTORS
330
885
330
886
330
89E
102
}
330
2
100
AcDbEntity
  8
画層1
370
    30
100
AcDbLine
 10
99.61110481568812
 20
268.2950267653982
 30
0.0
 11
99.61110481568812
 21
267.2950267653982
 31
0.0
  0
LINE
  5
881
102
{ACAD_REACTORS
330
885
330
886
330
89E
102
}
330
2
100
AcDbEntity
  8
画層1
370
    30
100
AcDbLine
 10
98.61110481568813
 20
268.2950267653982
 30
0.0
 11
99.61110481568812
 21
268.2950267653982
 31
0.0
  0
LINE
  5
882
102
{ACAD_REACTORS
330
885
330
886
330
89E
102
}
330
2
100
AcDbEntity
  8
画層1
370
    30
100
AcDbLine
 10
99.61110481568812
 20
267.2950267653982
 30
0.0
 11
100.6111048156881
 21
267.2950267653982
 31
0.0
  0
LINE
  5
883
102
{ACAD_REACTORS
330
885
330
886
330
89E
102
}
330
2
100
AcDbEntity
  8
画層1
370
    30
100
AcDbLine
 10
98.61110481568813
 20
269.2950267653982
 30
0.0
 11
98.61110481568813
 21
268.2950267653982
 31
0.0
  0
LINE
  5
884
102
{ACAD_REACTORS
330
885
330
886
330
89E
102
}
330
2
100
AcDbEntity
  8
画層1
370
    30
100
AcDbLine
 10
101.6111048156881
 20
268.2950267653982
 30
0.0
 11
101.6111048156881
 21
269.2950267653982
 31
0.0
  0
LINE
  5
888
102
{ACAD_REACTORS
330
89E
102
}
330
2
100
AcDbEntity
  8
画層1
370
    30
100
AcDbLine
 10
106.1111048156881
 20
264.5450267653982
 30
0.0
 11
106.1111048156881
 21
273.0450267653982
 31
0.0
  0
LINE
  5
889
102
{ACAD_REACTORS
330
89E
102
}
330
2
100
AcDbEntity
  8
画層1
370
    30
100
AcDbLine
 10
106.1111048156881
 20
274.5450267653982
 30
0.0
 11
106.1111048156881
 21
283.0450267653982
 31
0.0
  0
LINE
  5
88A
102
{ACAD_REACTORS
330
89E
102
}
330
2
100
AcDbEntity
  8
画層1
370
    30
100
AcDbLine
 10
106.1111048156881
 20
284.5450267653982
 30
0.0
 11
106.1111048156881
 21
293.0450267653982
 31
0.0
  0
LINE
  5
88B
102
{ACAD_REACTORS
330
89E
102
}
330
2
100
AcDbEntity
  8
画層1
370
    30
100
AcDbLine
 10
106.1111048156881
 20
294.5450267653982
 30
0.0
 11
106.1111048156881
 21
303.0450267653982
 31
0.0
  0
LINE
  5
88C
102
{ACAD_REACTORS
330
89E
102
}
330
2
100
AcDbEntity
  8
画層1
370
    30
100
AcDbLine
 10
106.1111048156881
 20
304.5450267653982
 30
0.0
 11
106.1111048156881
 21
313.0450267653982
 31
0.0
  0
LINE
  5
88D
102
{ACAD_REACTORS
330
89E
102
}
330
2
100
AcDbEntity
  8
画層1
370
    30
100
AcDbLine
 10
106.1111048156881
 20
324.5450267653982
 30
0.0
 11
106.1111048156881
 21
333.0450267653982
 31
0.0
  0
LINE
  5
88E
102
{ACAD_REACTORS
330
89E
102
}
330
2
100
AcDbEntity
  8
画層1
370
    30
100
AcDbLine
 10
106.1111048156881
 20
314.5450267653982
 30
0.0
 11
106.1111048156881
 21
323.0450267653982
 31
0.0
  0
LINE
  5
88F
102
{ACAD_REACTORS
330
89E
102
}
330
2
100
AcDbEntity
  8
画層1
370
    30
100
AcDbLine
 10
106.1111048156881
 20
344.5450267653982
 30
0.0
 11
106.1111048156881
 21
353.0450267653982
 31
0.0
  0
LINE
  5
890
102
{ACAD_REACTORS
330
89E
102
}
330
2
100
AcDbEntity
  8
画層1
370
    30
100
AcDbLine
 10
106.1111048156881
 20
334.5450267653982
 30
0.0
 11
106.1111048156881
 21
343.0450267653982
 31
0.0
  0
LINE
  5
895
330
2
100
AcDbEntity
  8
画層1
370
    30
100
AcDbLine
 10
96.51302860433482
 20
260.2950267653982
 30
0.0
 11
96.5130286043348
 21
257.2950267653982
 31
0.0
  0
LINE
  5
898
330
2
100
AcDbEntity
  8
画層1
370
    30
100
AcDbLine
 10
96.51302860433482
 20
260.2950267653982
 30
0.0
 11
99.11110481568812
 21
261.7950267653982
 31
0.0
  0
LINE
  5
899
330
2
100
AcDbEntity
  8
画層1
370
    30
100
AcDbLine
 10
99.11110481568812
 20
261.7950267653982
 30
0.0
 11
101.7091810270414
 21
260.2950267653982
 31
0.0
  0
LINE
  5
89A
330
2
100
AcDbEntity
  8
画層1
370
    30
100
AcDbLine
 10
101.7091810270414
 20
260.2950267653982
 30
0.0
 11
101.7091810270414
 21
257.2950267653982
 31
0.0
  0
LINE
  5
89B
330
2
100
AcDbEntity
  8
画層1
370
    30
100
AcDbLine
 10
101.7091810270414
 20
257.2950267653982
 30
0.0
 11
99.11110481568812
 21
255.7950267653982
 31
0.0
  0
LINE
  5
89C
330
2
100
AcDbEntity
  8
画層1
370
    30
100
AcDbLine
 10
99.11110481568812
 20
255.7950267653982
 30
0.0
 11
96.5130286043348
 21
257.2950267653982
 31
0.0
  0
CIRCLE
  5
8A2
330
2
100
AcDbEntity
  8
画層1
370
    30
100
AcDbCircle
 10
100.1111048156881
 20
361.7950267653982
 30
0.0
 40
3.5
  0
ARC
  5
8A7
330
2
100
AcDbEntity
  8
画層1
370
    30
100
AcDbCircle
 10
100.1111048156881
 20
361.7950267653982
 30
0.0
 40
2.500000000000015
100
AcDbArc
 50
300.0000000000001
 51
239.9999999999998
  0
CIRCLE
  5
8AA
330
2
100
AcDbEntity
  8
画層1
370
    30
100
AcDbCircle
 10
100.1111048156881
 20
361.7950267653982
 30
0.0
 40
2.0
  0
LINE
  5
8AB
330
2
100
AcDbEntity
  8
画層1
370
    30
100
AcDbLine
 10
99.11110481568814
 20
360.0629759578294
 30
0.0
 11
98.86110481568811
 21
359.6299632559371
 31
0.0
  0
LINE
  5
8AC
330
2
100
AcDbEntity
  8
画層1
370
    30
100
AcDbLine
 10
101.1111048156881
 20
360.0629759578294
 30
0.0
 11
101.3611048156881
 21
359.6299632559371
 31
0.0
  0
LINE
  5
8AE
330
2
100
AcDbEntity
  8
画層1
370
    30
100
AcDbLine
 10
98.77965676013261
 20
363.2874228506776
 30
0.0
 11
101.6046344538347
 21
360.4648503786067
 31
0.0
  0
LINE
  5
8AF
330
2
100
AcDbEntity
  8
画層1
370
    30
100
AcDbLine
 10
98.54196828762059
 20
363.0351116642193
 30
0.0
 11
101.3492057525644
 21
360.2243243524294
 31
0.0
  0
LINE
  5
8B1
330
2
100
AcDbEntity
  8
画層1
370
    30
100
AcDbLine
 10
101.843155623257
 20
360.7950267653982
 30
0.0
 11
102.2761683251492
 21
360.5450267653982
 31
0.0
  0
LINE
  5
8B2
330
2
100
AcDbEntity
  8
画層1
  6
CENTER
370
    30
100
AcDbLine
 10
287.7111048156881
 20
293.7950267653982
 30
0.0
 11
457.3111048156881
 21
293.7950267653982
 31
0.0
  0
LINE
  5
8B8
330
2
100
AcDbEntity
  8
画層1
370
    30
100
AcDbLine
 10
452.3111048156881
 20
395.7950267653982
 30
0.0
 11
450.7111048156881
 21
395.7950267653982
 31
0.0
  0
LINE
  5
8B9
330
2
100
AcDbEntity
  8
画層1
370
    30
100
AcDbLine
 10
450.7111048156881
 20
395.7950267653982
 30
0.0
 11
450.7111048156882
 21
383.7950267653982
 31
0.0
  0
LINE
  5
8BB
330
2
100
AcDbEntity
  8
画層1
370
    30
100
AcDbLine
 10
452.3111048156881
 20
395.7950267653982
 30
0.0
 11
452.3111048156882
 21
191.7950267653982
 31
0.0
  0
LINE
  5
8BC
330
2
100
AcDbEntity
  8
画層1
370
    30
100
AcDbLine
 10
452.3111048156882
 20
191.7950267653982
 30
0.0
 11
450.7111048156882
 21
191.7950267653982
 31
0.0
  0
LINE
  5
8BD
330
2
100
AcDbEntity
  8
画層1
370
    30
100
AcDbLine
 10
450.7111048156882
 20
191.7950267653982
 30
0.0
 11
450.7111048156883
 21
203.7950267653982
 31
0.0
  0
LINE
  5
8C2
330
2
100
AcDbEntity
  8
画層1
370
    30
100
AcDbLine
 10
330.3111048156881
 20
378.7950267653982
 30
0.0
 11
330.3111048156881
 21
364.7950267653982
 31
0.0
  0
LINE
  5
8C6
330
2
100
AcDbEntity
  8
画層1
370
    30
100
AcDbLine
 10
330.3111048156881
 20
252.7950267653982
 30
0.0
 11
330.3111048156881
 21
208.7950267653982
 31
0.0
  0
LINE
  5
8C8
330
2
100
AcDbEntity
  8
画層1
370
    30
100
AcDbLine
 10
330.3111048156881
 20
382.7950267653982
 30
0.0
 11
328.7111048156881
 21
382.7950267653982
 31
0.0
  0
LINE
  5
8C9
330
2
100
AcDbEntity
  8
画層1
  6
DASHED2
370
    30
100
AcDbLine
 10
328.7111048156881
 20
382.7950267653982
 30
0.0
 11
328.7111048156881
 21
254.7950267653982
 31
0.0
  0
LINE
  5
8CA
330
2
100
AcDbEntity
  8
画層1
370
    30
100
AcDbLine
 10
330.3111048156881
 20
382.7950267653982
 30
0.0
 11
330.3111048156881
 21
254.7950267653982
 31
0.0
  0
LINE
  5
8CB
330
2
100
AcDbEntity
  8
画層1
370
    30
100
AcDbLine
 10
328.7111048156881
 20
382.7950267653982
 30
0.0
 11
292.7111048156881
 21
382.7950267653982
 31
0.0
  0
LINE
  5
8CC
330
2
100
AcDbEntity
  8
画層1
370
    30
100
AcDbLine
 10
292.7111048156881
 20
382.7950267653982
 30
0.0
 11
292.7111048156881
 21
254.7950267653982
 31
0.0
  0
LINE
  5
8CD
330
2
100
AcDbEntity
  8
画層1
370
    30
100
AcDbLine
 10
330.2111048156881
 20
382.7950267653982
 30
0.0
 11
330.2111048156881
 21
254.7950267653982
 31
0.0
  0
LINE
  5
8CF
330
2
100
AcDbEntity
  8
画層1
370
    30
100
AcDbLine
 10
330.3111048156881
 20
254.7950267653982
 30
0.0
 11
292.7111048156881
 21
254.7950267653982
 31
0.0
  0
CIRCLE
  5
8D2
330
2
100
AcDbEntity
  8
画層1
370
    30
100
AcDbCircle
 10
397.3159675329925
 20
228.7950267653982
 30
0.0
 40
5.0
  0
LINE
  5
8D5
330
2
100
AcDbEntity
  8
画層1
370
    30
100
AcDbLine
 10
397.8159675329925
 20
229.7950267653982
 30
0.0
 11
397.8159675329925
 21
230.7950267653982
 31
0.0
  0
LINE
  5
8D6
330
2
100
AcDbEntity
  8
画層1
370
    30
100
AcDbLine
 10
397.8159675329925
 20
230.7950267653982
 30
0.0
 11
396.8159675329925
 21
230.7950267653982
 31
0.0
  0
LINE
  5
8D7
330
2
100
AcDbEntity
  8
画層1
370
    30
100
AcDbLine
 10
396.8159675329925
 20
226.7950267653982
 30
0.0
 11
397.8159675329925
 21
226.7950267653982
 31
0.0
  0
LINE
  5
8D8
330
2
100
AcDbEntity
  8
画層1
370
    30
100
AcDbLine
 10
395.3159675329925
 20
229.2950267653982
 30
0.0
 11
395.3159675329925
 21
228.2950267653982
 31
0.0
  0
LINE
  5
8D9
330
2
100
AcDbEntity
  8
画層1
370
    30
100
AcDbLine
 10
396.3159675329925
 20
229.2950267653982
 30
0.0
 11
395.3159675329925
 21
229.2950267653982
 31
0.0
  0
LINE
  5
8DA
330
2
100
AcDbEntity
  8
画層1
370
    30
100
AcDbLine
 10
396.8159675329925
 20
230.7950267653982
 30
0.0
 11
396.8159675329925
 21
229.7950267653982
 31
0.0
  0
LINE
  5
8DB
330
2
100
AcDbEntity
  8
画層1
370
    30
100
AcDbLine
 10
396.8159675329925
 20
227.7950267653982
 30
0.0
 11
396.8159675329925
 21
226.7950267653982
 31
0.0
  0
LINE
  5
8DC
330
2
100
AcDbEntity
  8
画層1
370
    30
100
AcDbLine
 10
395.3159675329925
 20
228.2950267653982
 30
0.0
 11
396.3159675329925
 21
228.2950267653982
 31
0.0
  0
LINE
  5
8DD
330
2
100
AcDbEntity
  8
画層1
370
    30
100
AcDbLine
 10
399.3159675329925
 20
228.2950267653982
 30
0.0
 11
399.3159675329925
 21
229.2950267653982
 31
0.0
  0
LINE
  5
8DE
330
2
100
AcDbEntity
  8
画層1
370
    30
100
AcDbLine
 10
399.3159675329925
 20
229.2950267653982
 30
0.0
 11
398.3159675329925
 21
229.2950267653982
 31
0.0
  0
LINE
  5
8DF
330
2
100
AcDbEntity
  8
画層1
370
    30
100
AcDbLine
 10
398.3159675329925
 20
228.2950267653982
 30
0.0
 11
399.3159675329925
 21
228.2950267653982
 31
0.0
  0
LINE
  5
8E0
330
2
100
AcDbEntity
  8
画層1
370
    30
100
AcDbLine
 10
397.8159675329925
 20
226.7950267653982
 30
0.0
 11
397.8159675329925
 21
227.7950267653982
 31
0.0
  0
LINE
  5
928
330
2
100
AcDbEntity
  8
画層1
370
    30
100
AcDbLine
 10
292.3111048156881
 20
381.2950267653982
 30
0.0
 11
292.3111048156881
 21
376.2950267653982
 31
0.0
  0
LINE
  5
929
330
2
100
AcDbEntity
  8
画層1
370
    30
100
AcDbLine
 10
292.3111048156881
 20
381.2950267653982
 30
0.0
 11
292.7111048156881
 21
382.7950267653982
 31
0.0
  0
LINE
  5
92A
330
2
100
AcDbEntity
  8
画層1
370
    30
100
AcDbLine
 10
292.3111048156881
 20
376.2950267653982
 30
0.0
 11
292.7111048156881
 21
374.7950267653982
 31
0.0
  0
LINE
  5
92C
330
2
100
AcDbEntity
  8
画層1
370
    30
100
AcDbLine
 10
292.3111048156881
 20
376.2950267653982
 30
0.0
 11
291.3111048156881
 21
376.2950267653982
 31
0.0
  0
LINE
  5
92D
330
2
100
AcDbEntity
  8
画層1
370
    30
100
AcDbLine
 10
290.3111048156881
 20
377.2950267653982
 30
0.0
 11
290.3111048156881
 21
377.7950267653982
 31
0.0
  0
LINE
  5
92E
330
2
100
AcDbEntity
  8
画層1
370
    30
100
AcDbLine
 10
291.3111048156881
 20
381.2950267653982
 30
0.0
 11
292.3111048156881
 21
381.2950267653982
 31
0.0
  0
LINE
  5
933
330
2
100
AcDbEntity
  8
画層1
370
    30
100
AcDbLine
 10
290.8111048156881
 20
378.2950267653982
 30
0.0
 11
290.8111048156881
 21
378.2950267653982
 31
0.0
  0
LINE
  5
934
330
2
100
AcDbEntity
  8
画層1
370
    30
100
AcDbLine
 10
290.8111048156881
 20
378.2950267653982
 30
0.0
 11
290.8111048156881
 21
379.2950267653982
 31
0.0
  0
LINE
  5
935
330
2
100
AcDbEntity
  8
画層1
370
    30
100
AcDbLine
 10
290.8111048156881
 20
379.2950267653982
 30
0.0
 11
290.8111048156881
 21
379.2950267653982
 31
0.0
  0
LINE
  5
937
330
2
100
AcDbEntity
  8
画層1
370
    30
100
AcDbLine
 10
290.3111048156881
 20
379.7950267653982
 30
0.0
 11
290.3111048156881
 21
380.2950267653982
 31
0.0
  0
ARC
  5
938
330
2
100
AcDbEntity
  8
画層1
370
    30
100
AcDbCircle
 10
290.8111048156881
 20
377.7950267653982
 30
0.0
 40
0.5
100
AcDbArc
 50
90.0
 51
180.0
  0
ARC
  5
939
330
2
100
AcDbEntity
  8
画層1
370
    30
100
AcDbCircle
 10
290.8111048156881
 20
379.7950267653982
 30
0.0
 40
0.5
100
AcDbArc
 50
180.0
 51
270.0
  0
LINE
  5
93A
330
2
100
AcDbEntity
  8
画層1
370
    30
100
AcDbLine
 10
290.3111048156881
 20
377.7950267653982
 30
0.0
 11
290.3111048156881
 21
379.7950267653982
 31
0.0
  0
ARC
  5
93B
330
2
100
AcDbEntity
  8
画層1
370
    30
100
AcDbCircle
 10
291.3111048156881
 20
377.2950267653982
 30
0.0
 40
1.0
100
AcDbArc
 50
180.0
 51
270.0
  0
ARC
  5
93C
330
2
100
AcDbEntity
  8
画層1
370
    30
100
AcDbCircle
 10
291.3111048156881
 20
380.2950267653982
 30
0.0
 40
1.0
100
AcDbArc
 50
90.0
 51
180.0
  0
LINE
  5
995
330
2
100
AcDbEntity
  8
画層1
370
    30
100
AcDbLine
 10
392.3159675329925
 20
228.7950267653982
 30
0.0
 11
402.3159675329925
 21
228.7950267653982
 31
0.0
  0
LINE
  5
996
330
2
100
AcDbEntity
  8
画層1
370
    30
100
AcDbLine
 10
393.3159675329925
 20
228.7950267653982
 30
0.0
 11
393.3159675329925
 21
228.7950267653982
 31
0.0
  0
LINE
  5
998
330
2
100
AcDbEntity
  8
画層1
370
    30
100
AcDbLine
 10
397.3068599251215
 20
233.7950163968196
 30
0.0
 11
397.3153497150169
 21
223.7950268131106
 31
0.0
  0
MTEXT
  5
9DD
330
2
100
AcDbEntity
  8
画層1
370
    30
100
AcDbMText
 10
145.357907668364
 20
440.3227503020455
 30
0.0
 40
8.028354096439215
 41
91.96507621968052
 71
     1
 72
     5
  1
PAC15 80A,100A
  7
STYLE1
 73
     1
 44
1.0
1001
ACAD
1000
MTEXTBEGIN
1070
    73
1070
     1
1070
    44
1040
1.0
1070
    74
1070
     0
1000
MTEXTEND
1000
MTEXTBEGIN
1070
    73
1070
     1
1070
    44
1040
1.0
1070
    74
1070
     0
1000
MTEXTEND
1000
MTEXTBEGIN
1070
    73
1070
     1
1070
    44
1040
1.0
1070
    74
1070
     0
1000
MTEXTEND
1000
MTEXTBEGIN
1070
    73
1070
     1
1070
    44
1040
1.0
1070
    74
1070
     0
1000
MTEXTEND
1000
MTEXTBEGIN
1070
    73
1070
     1
1070
    44
1040
1.0
1070
    74
1070
     0
1000
MTEXTEND
  0
CIRCLE
  5
A5C
330
2
100
AcDbEntity
  8
画層1
370
    30
100
AcDbCircle
 10
100.1111048156881
 20
371.7950267653982
 30
0.0
 40
2.0
  0
ARC
  5
BA8
330
2
100
AcDbEntity
  8
画層1
370
    30
100
AcDbCircle
 10
291.3111048156881
 20
260.3185542142248
 30
0.0
 40
1.0
100
AcDbArc
 50
90.0
 51
180.0
  0
LINE
  5
BA9
330
2
100
AcDbEntity
  8
画層1
370
    30
100
AcDbLine
 10
292.3111048156881
 20
261.3185542142248
 30
0.0
 11
292.3111048156881
 21
256.3185542142249
 31
0.0
  0
ARC
  5
BAA
330
2
100
AcDbEntity
  8
画層1
370
    30
100
AcDbCircle
 10
291.3111048156881
 20
257.3185542142248
 30
0.0
 40
1.0
100
AcDbArc
 50
180.0
 51
270.0
  0
LINE
  5
BAB
330
2
100
AcDbEntity
  8
画層1
370
    30
100
AcDbLine
 10
290.3111048156881
 20
257.8185542142248
 30
0.0
 11
290.3111048156881
 21
259.8185542142248
 31
0.0
  0
ARC
  5
BAC
330
2
100
AcDbEntity
  8
画層1
370
    30
100
AcDbCircle
 10
290.8111048156881
 20
259.8185542142248
 30
0.0
 40
0.5
100
AcDbArc
 50
180.0
 51
270.0
  0
ARC
  5
BAD
330
2
100
AcDbEntity
  8
画層1
370
    30
100
AcDbCircle
 10
290.8111048156881
 20
257.8185542142248
 30
0.0
 40
0.5
100
AcDbArc
 50
90.0
 51
180.0
  0
LINE
  5
BAE
330
2
100
AcDbEntity
  8
画層1
370
    30
100
AcDbLine
 10
290.3111048156881
 20
259.8185542142248
 30
0.0
 11
290.3111048156881
 21
260.3185542142248
 31
0.0
  0
LINE
  5
BAF
330
2
100
AcDbEntity
  8
画層1
370
    30
100
AcDbLine
 10
290.8111048156881
 20
259.3185542142248
 30
0.0
 11
290.8111048156881
 21
259.3185542142248
 31
0.0
  0
LINE
  5
BB0
330
2
100
AcDbEntity
  8
画層1
370
    30
100
AcDbLine
 10
290.8111048156881
 20
258.3185542142249
 30
0.0
 11
290.8111048156881
 21
259.3185542142248
 31
0.0
  0
LINE
  5
BB1
330
2
100
AcDbEntity
  8
画層1
370
    30
100
AcDbLine
 10
290.8111048156881
 20
258.3185542142249
 30
0.0
 11
290.8111048156881
 21
258.3185542142249
 31
0.0
  0
LINE
  5
BB2
330
2
100
AcDbEntity
  8
画層1
370
    30
100
AcDbLine
 10
290.3111048156881
 20
257.3185542142248
 30
0.0
 11
290.3111048156881
 21
257.8185542142248
 31
0.0
  0
LINE
  5
BB3
330
2
100
AcDbEntity
  8
画層1
370
    30
100
AcDbLine
 10
292.3111048156881
 20
256.3185542142249
 30
0.0
 11
291.3111048156881
 21
256.3185542142249
 31
0.0
  0
LINE
  5
BB4
330
2
100
AcDbEntity
  8
画層1
370
    30
100
AcDbLine
 10
292.3111048156881
 20
256.3185542142249
 30
0.0
 11
292.7111048156881
 21
254.8185542142249
 31
0.0
  0
LINE
  5
BB5
330
2
100
AcDbEntity
  8
画層1
370
    30
100
AcDbLine
 10
291.3111048156881
 20
261.3185542142248
 30
0.0
 11
292.3111048156881
 21
261.3185542142248
 31
0.0
  0
LINE
  5
BB6
330
2
100
AcDbEntity
  8
画層1
370
    30
100
AcDbLine
 10
292.3111048156881
 20
261.3185542142248
 30
0.0
 11
292.7111048156881
 21
262.8185542142249
 31
0.0
  0
CIRCLE
  5
D10
330
2
100
AcDbEntity
  8
画層1
370
    30
100
AcDbCircle
 10
164.1111048156881
 20
390.7950267653982
 30
0.0
 40
2.75
  0
CIRCLE
  5
D11
330
2
100
AcDbEntity
  8
画層1
370
    30
100
AcDbCircle
 10
84.11110481568812
 20
390.7950267653982
 30
0.0
 40
2.75
  0
LINE
  5
D14
330
2
100
AcDbEntity
  8
画層1
370
    30
100
AcDbLine
 10
156.6111048156881
 20
395.7950267653982
 30
0.0
 11
177.1111048156881
 21
395.7950267653982
 31
0.0
  0
LINE
  5
D15
330
2
100
AcDbEntity
  8
画層1
370
    30
100
AcDbLine
 10
179.1111048156881
 20
203.7950267653982
 30
0.0
 11
179.1111048156881
 21
193.7950267653982
 31
0.0
  0
ARC
  5
D19
330
2
100
AcDbEntity
  8
画層1
370
    30
100
AcDbCircle
 10
164.1111048156881
 20
196.7950267653982
 30
0.0
 40
2.75
100
AcDbArc
 50
0.0
 51
180.0
  0
LINE
  5
D1A
330
2
100
AcDbEntity
  8
画層1
370
    30
100
AcDbLine
 10
166.8611048156881
 20
196.7950267653982
 30
0.0
 11
166.8611048156881
 21
191.7950267653982
 31
0.0
  0
LINE
  5
D1B
330
2
100
AcDbEntity
  8
画層1
370
    30
100
AcDbLine
 10
161.3611048156881
 20
196.7950267653982
 30
0.0
 11
161.3611048156881
 21
191.7950267653982
 31
0.0
  0
LINE
  5
D1C
330
2
100
AcDbEntity
  8
画層1
370
    30
100
AcDbLine
 10
166.8611048156881
 20
191.7950267653982
 30
0.0
 11
177.1111048156881
 21
191.7950267653982
 31
0.0
  0
ARC
  5
D1D
330
2
100
AcDbEntity
  8
画層1
370
    30
100
AcDbCircle
 10
177.1111048156881
 20
193.7950267653982
 30
0.0
 40
2.0
100
AcDbArc
 50
270.0
 51
0.0
  0
LINE
  5
D21
330
2
100
AcDbEntity
  8
画層1
370
    30
100
AcDbLine
 10
161.3611048156881
 20
191.7950267653982
 30
0.0
 11
156.611104815688
 21
191.7950267653982
 31
0.0
  0
ARC
  5
D22
330
2
100
AcDbEntity
  8
画層1
370
    30
100
AcDbCircle
 10
177.1111048156881
 20
393.7950267653982
 30
0.0
 40
2.0
100
AcDbArc
 50
0.0
 51
90.0
  0
LINE
  5
D23
330
2
100
AcDbEntity
  8
画層1
370
    30
100
AcDbLine
 10
179.1111048156881
 20
393.7950267653982
 30
0.0
 11
179.1111048156881
 21
383.7950267653982
 31
0.0
  0
LINE
  5
D24
330
2
100
AcDbEntity
  8
画層1
370
    30
100
AcDbLine
 10
180.7111048156881
 20
383.7950267653982
 30
0.0
 11
180.7111048156881
 21
203.7950267653982
 31
0.0
  0
LINE
  5
D26
330
2
100
AcDbEntity
  8
画層1
370
    30
100
AcDbLine
 10
180.7111048156881
 20
203.7950267653982
 30
0.0
 11
173.1111048156881
 21
203.7950267653982
 31
0.0
  0
LINE
  5
D27
330
2
100
AcDbEntity
  8
画層1
370
    30
100
AcDbLine
 10
171.1111048156881
 20
205.7950267653982
 30
0.0
 11
171.1111048156881
 21
254.7950267653982
 31
0.0
  0
LINE
  5
D28
330
2
100
AcDbEntity
  8
画層1
370
    30
100
AcDbLine
 10
154.6111048156881
 20
393.7950267653982
 30
0.0
 11
154.6111048156881
 21
383.7950267653982
 31
0.0
  0
ARC
  5
D29
330
2
100
AcDbEntity
  8
画層1
370
    30
100
AcDbCircle
 10
156.6111048156881
 20
393.7950267653982
 30
0.0
 40
2.0
100
AcDbArc
 50
90.0
 51
180.0
  0
LINE
  5
D30
330
2
100
AcDbEntity
  8
画層1
370
    30
100
AcDbLine
 10
155.1111048156881
 20
254.7950267653982
 30
0.0
 11
171.1111048156881
 21
254.7950267653982
 31
0.0
  0
ARC
  5
D3C
330
2
100
AcDbEntity
  8
画層1
370
    30
100
AcDbCircle
 10
147.1111048156879
 20
381.7950267653985
 30
0.0
 40
1.999999999999658
100
AcDbArc
 50
89.99999999999429
 51
150.0000000000054
  0
CIRCLE
  5
D40
330
2
100
AcDbEntity
  8
画層1
370
    30
100
AcDbCircle
 10
167.7111048156881
 20
348.7950267653982
 30
0.0
 40
5.0
  0
CIRCLE
  5
D41
330
2
100
AcDbEntity
  8
画層1
370
    30
100
AcDbCircle
 10
167.7111048156881
 20
268.7950267653982
 30
0.0
 40
5.0
  0
ARC
  5
D47
330
2
100
AcDbEntity
  8
画層1
370
    30
100
AcDbCircle
 10
84.11110481568812
 20
196.7950267653982
 30
0.0
 40
2.75
100
AcDbArc
 50
0.0
 51
180.0
  0
LINE
  5
D48
330
2
100
AcDbEntity
  8
画層1
370
    30
100
AcDbLine
 10
86.86110481568812
 20
196.7950267653982
 30
0.0
 11
86.86110481568812
 21
191.7950267653982
 31
0.0
  0
LINE
  5
D49
330
2
100
AcDbEntity
  8
画層1
370
    30
100
AcDbLine
 10
81.36110481568811
 20
196.7950267653982
 30
0.0
 11
81.36110481568811
 21
191.7950267653982
 31
0.0
  0
LINE
  5
D4C
330
2
100
AcDbEntity
  8
画層1
370
    30
100
AcDbLine
 10
86.86110481568812
 20
191.7950267653982
 30
0.0
 11
91.61110481568812
 21
191.7950267653982
 31
0.0
  0
LINE
  5
D4D
330
2
100
AcDbEntity
  8
画層1
370
    30
100
AcDbLine
 10
81.36110481568811
 20
191.7950267653982
 30
0.0
 11
71.11110481568812
 21
191.7950267653982
 31
0.0
  0
LINE
  5
D4E
330
2
100
AcDbEntity
  8
画層1
370
    30
100
AcDbLine
 10
69.11110481568812
 20
193.7950267653982
 30
0.0
 11
69.11110481568812
 21
203.7950267653982
 31
0.0
  0
LINE
  5
D4F
330
2
100
AcDbEntity
  8
画層1
370
    30
100
AcDbLine
 10
93.61110481568813
 20
193.7950267653982
 30
0.0
 11
93.61110481568813
 21
203.7950267653982
 31
0.0
  0
LINE
  5
D53
330
2
100
AcDbEntity
  8
画層1
370
    30
100
AcDbLine
 10
67.51110481568812
 20
203.7950267653982
 30
0.0
 11
67.51110481568812
 21
383.7950267653982
 31
0.0
  0
LINE
  5
D54
330
2
100
AcDbEntity
  8
画層1
370
    30
100
AcDbLine
 10
67.51110481568812
 20
383.7950267653982
 30
0.0
 11
180.7111048156881
 21
383.7950267653982
 31
0.0
  0
ARC
  5
D56
330
2
100
AcDbEntity
  8
画層1
370
    30
100
AcDbCircle
 10
101.1111048156881
 20
381.7950267653983
 30
0.0
 40
1.99999999999991
100
AcDbArc
 50
29.99999999999772
 51
90.00000000000204
  0
LINE
  5
D58
330
2
100
AcDbEntity
  8
画層1
370
    30
100
AcDbLine
 10
93.61110481568813
 20
383.7950267653983
 30
0.0
 11
93.61110481568813
 21
393.7950267653982
 31
0.0
  0
LINE
  5
D59
330
2
100
AcDbEntity
  8
画層1
370
    30
100
AcDbLine
 10
91.61110481568812
 20
395.7950267653982
 30
0.0
 11
71.11110481568814
 21
395.7950267653983
 31
0.0
  0
LINE
  5
D5A
330
2
100
AcDbEntity
  8
画層1
370
    30
100
AcDbLine
 10
69.11110481568814
 20
393.7950267653983
 30
0.0
 11
69.11110481568812
 21
383.7950267653982
 31
0.0
  0
ARC
  5
D5B
330
2
100
AcDbEntity
  8
画層1
370
    30
100
AcDbCircle
 10
71.11110481568814
 20
393.7950267653983
 30
0.0
 40
2.0
100
AcDbArc
 50
90.0
 51
180.0
  0
ARC
  5
D5C
330
2
100
AcDbEntity
  8
画層1
370
    30
100
AcDbCircle
 10
91.61110481568812
 20
393.7950267653982
 30
0.0
 40
2.0
100
AcDbArc
 50
0.0
 51
89.99999999999984
  0
LINE
  5
D5F
330
2
100
AcDbEntity
  8
画層1
370
    30
100
AcDbLine
 10
67.51110481568812
 20
203.7950267653982
 30
0.0
 11
75.11110481568813
 21
203.7950267653982
 31
0.0
  0
LINE
  5
D60
330
2
100
AcDbEntity
  8
画層1
370
    30
100
AcDbLine
 10
77.11110481568813
 20
205.7950267653982
 30
0.0
 11
77.11110481568812
 21
254.7950267653982
 31
0.0
  0
ARC
  5
D61
330
2
100
AcDbEntity
  8
画層1
370
    30
100
AcDbCircle
 10
75.11110481568813
 20
205.7950267653982
 30
0.0
 40
2.0
100
AcDbArc
 50
270.0
 51
0.0
  0
ARC
  5
D62
330
2
100
AcDbEntity
  8
画層1
370
    30
100
AcDbCircle
 10
71.11110481568812
 20
193.7950267653982
 30
0.0
 40
2.0
100
AcDbArc
 50
180.0
 51
270.0
  0
ARC
  5
D63
330
2
100
AcDbEntity
  8
画層1
370
    30
100
AcDbCircle
 10
91.61110481568812
 20
193.7950267653982
 30
0.0
 40
2.0
100
AcDbArc
 50
270.0
 51
0.0
  0
LINE
  5
D64
330
2
100
AcDbEntity
  8
画層1
370
    30
100
AcDbLine
 10
154.611104815688
 20
193.7950267653982
 30
0.0
 11
154.6111048156881
 21
254.7950267653982
 31
0.0
  0
ARC
  5
D65
330
2
100
AcDbEntity
  8
画層1
370
    30
100
AcDbCircle
 10
156.611104815688
 20
193.7950267653982
 30
0.0
 40
2.0
100
AcDbArc
 50
180.0
 51
270.0
  0
LINE
  5
D66
330
2
100
AcDbEntity
  8
画層1
370
    30
100
AcDbLine
 10
77.11110481568812
 20
254.7950267653982
 30
0.0
 11
94.11110481568812
 21
254.7950267653982
 31
0.0
  0
ARC
  5
D9A
330
2
100
AcDbEntity
  8
画層1
370
    30
100
AcDbCircle
 10
173.1111048156881
 20
205.7950267653982
 30
0.0
 40
2.0
100
AcDbArc
 50
180.0
 51
270.0
  0
CIRCLE
  5
DC9
330
2
100
AcDbEntity
  8
画層1
370
    30
100
AcDbCircle
 10
99.11110481568812
 20
213.7950267653982
 30
0.0
 40
6.5
  0
LINE
  5
DD8
330
2
100
AcDbEntity
  8
画層1
370
    30
100
AcDbLine
 10
105.6111048156881
 20
217.5478035151308
 30
0.0
 11
99.11110481568819
 21
221.3005802648633
 31
0.0
  0
LINE
  5
DD9
330
2
100
AcDbEntity
  8
画層1
370
    30
100
AcDbLine
 10
92.61110481568811
 20
217.5478035151308
 30
0.0
 11
99.11110481568812
 21
221.3005802648633
 31
0.0
  0
LINE
  5
DDB
330
2
100
AcDbEntity
  8
画層1
370
    30
100
AcDbLine
 10
105.6111048156881
 20
210.0422500156656
 30
0.0
 11
99.11110481568819
 21
206.289473265933
 31
0.0
  0
LINE
  5
DDC
330
2
100
AcDbEntity
  8
画層1
370
    30
100
AcDbLine
 10
92.61110481568811
 20
210.0422500156656
 30
0.0
 11
99.11110481568812
 21
206.289473265933
 31
0.0
  0
LINE
  5
DDD
330
2
100
AcDbEntity
  8
画層1
370
    30
100
AcDbLine
 10
105.6111048156881
 20
217.5478035151308
 30
0.0
 11
105.6111048156881
 21
210.0422500156656
 31
0.0
  0
LINE
  5
DDE
330
2
100
AcDbEntity
  8
画層1
370
    30
100
AcDbLine
 10
92.61110481568813
 20
217.5478035151308
 30
0.0
 11
92.61110481568811
 21
210.0422500156656
 31
0.0
  0
LINE
  5
DDF
330
2
100
AcDbEntity
  8
画層1
370
    30
100
AcDbLine
 10
137.6111048156881
 20
210.0422500156656
 30
0.0
 11
144.1111048156881
 21
206.289473265933
 31
0.0
  0
LINE
  5
DE0
330
2
100
AcDbEntity
  8
画層1
370
    30
100
AcDbLine
 10
150.6111048156881
 20
210.0422500156656
 30
0.0
 11
144.1111048156881
 21
206.289473265933
 31
0.0
  0
CIRCLE
  5
DE1
330
2
100
AcDbEntity
  8
画層1
370
    30
100
AcDbCircle
 10
144.1111048156881
 20
213.7950267653982
 30
0.0
 40
6.5
  0
LINE
  5
DE2
330
2
100
AcDbEntity
  8
画層1
370
    30
100
AcDbLine
 10
150.6111048156881
 20
217.5478035151308
 30
0.0
 11
144.1111048156881
 21
221.3005802648633
 31
0.0
  0
LINE
  5
DE3
330
2
100
AcDbEntity
  8
画層1
370
    30
100
AcDbLine
 10
137.6111048156881
 20
217.5478035151308
 30
0.0
 11
144.1111048156881
 21
221.3005802648633
 31
0.0
  0
LINE
  5
DE4
330
2
100
AcDbEntity
  8
画層1
370
    30
100
AcDbLine
 10
137.6111048156881
 20
217.5478035151308
 30
0.0
 11
137.6111048156881
 21
210.0422500156656
 31
0.0
  0
LINE
  5
DE5
330
2
100
AcDbEntity
  8
画層1
370
    30
100
AcDbLine
 10
150.6111048156881
 20
217.5478035151308
 30
0.0
 11
150.6111048156881
 21
210.0422500156656
 31
0.0
  0
LINE
  5
DF4
330
2
100
AcDbEntity
  8
画層1
370
    30
100
AcDbLine
 10
92.61110481568811
 20
235.0422500156656
 30
0.0
 11
99.11110481568812
 21
231.289473265933
 31
0.0
  0
LINE
  5
DF5
330
2
100
AcDbEntity
  8
画層1
370
    30
100
AcDbLine
 10
105.6111048156881
 20
235.0422500156656
 30
0.0
 11
99.11110481568819
 21
231.289473265933
 31
0.0
  0
CIRCLE
  5
DF6
330
2
100
AcDbEntity
  8
画層1
370
    30
100
AcDbCircle
 10
99.11110481568812
 20
238.7950267653982
 30
0.0
 40
6.5
  0
LINE
  5
DF7
330
2
100
AcDbEntity
  8
画層1
370
    30
100
AcDbLine
 10
105.6111048156881
 20
242.5478035151308
 30
0.0
 11
99.11110481568819
 21
246.3005802648633
 31
0.0
  0
LINE
  5
DF8
330
2
100
AcDbEntity
  8
画層1
370
    30
100
AcDbLine
 10
92.61110481568811
 20
242.5478035151308
 30
0.0
 11
99.11110481568812
 21
246.3005802648633
 31
0.0
  0
LINE
  5
DF9
330
2
100
AcDbEntity
  8
画層1
370
    30
100
AcDbLine
 10
92.61110481568813
 20
242.5478035151308
 30
0.0
 11
92.61110481568811
 21
235.0422500156656
 31
0.0
  0
LINE
  5
DFA
330
2
100
AcDbEntity
  8
画層1
370
    30
100
AcDbLine
 10
105.6111048156881
 20
242.5478035151308
 30
0.0
 11
105.6111048156881
 21
235.0422500156656
 31
0.0
  0
CIRCLE
  5
DFB
330
2
100
AcDbEntity
  8
画層1
370
    30
100
AcDbCircle
 10
144.1111048156881
 20
238.7950267653982
 30
0.0
 40
6.5
  0
LINE
  5
DFC
330
2
100
AcDbEntity
  8
画層1
370
    30
100
AcDbLine
 10
150.6111048156881
 20
235.0422500156656
 30
0.0
 11
144.1111048156881
 21
231.289473265933
 31
0.0
  0
LINE
  5
DFD
330
2
100
AcDbEntity
  8
画層1
370
    30
100
AcDbLine
 10
137.6111048156881
 20
235.0422500156656
 30
0.0
 11
144.1111048156881
 21
231.289473265933
 31
0.0
  0
LINE
  5
DFE
330
2
100
AcDbEntity
  8
画層1
370
    30
100
AcDbLine
 10
150.6111048156881
 20
242.5478035151308
 30
0.0
 11
144.1111048156881
 21
246.3005802648633
 31
0.0
  0
LINE
  5
DFF
330
2
100
AcDbEntity
  8
画層1
370
    30
100
AcDbLine
 10
137.6111048156881
 20
242.5478035151308
 30
0.0
 11
144.1111048156881
 21
246.3005802648633
 31
0.0
  0
LINE
  5
E00
330
2
100
AcDbEntity
  8
画層1
370
    30
100
AcDbLine
 10
137.6111048156881
 20
242.5478035151308
 30
0.0
 11
137.6111048156881
 21
235.0422500156656
 31
0.0
  0
LINE
  5
E01
330
2
100
AcDbEntity
  8
画層1
370
    30
100
AcDbLine
 10
150.6111048156881
 20
242.5478035151308
 30
0.0
 11
150.6111048156881
 21
235.0422500156656
 31
0.0
  0
LINE
  5
E07
330
2
100
AcDbEntity
  8
画層1
370
    30
100
AcDbLine
 10
89.11110481568812
 20
254.7950267653982
 30
0.0
 11
89.11110481568812
 21
203.7950267653982
 31
0.0
  0
LINE
  5
E08
330
2
100
AcDbEntity
  8
画層1
370
    30
100
AcDbLine
 10
89.11110481568812
 20
203.7950267653982
 30
0.0
 11
109.1111048156881
 21
203.7950267653982
 31
0.0
  0
LINE
  5
E09
330
2
100
AcDbEntity
  8
画層1
370
    30
100
AcDbLine
 10
109.1111048156881
 20
203.7950267653982
 30
0.0
 11
109.1111048156881
 21
254.7950267653982
 31
0.0
  0
LINE
  5
E0B
330
2
100
AcDbEntity
  8
画層1
370
    30
100
AcDbLine
 10
154.1111048156881
 20
203.7950267653982
 30
0.0
 11
154.1111048156881
 21
254.7950267653982
 31
0.0
  0
LINE
  5
E0C
330
2
100
AcDbEntity
  8
画層1
370
    30
100
AcDbLine
 10
134.1111048156881
 20
203.7950267653982
 30
0.0
 11
154.1111048156881
 21
203.7950267653982
 31
0.0
  0
LINE
  5
E0D
330
2
100
AcDbEntity
  8
画層1
370
    30
100
AcDbLine
 10
134.1111048156881
 20
254.7950267653982
 30
0.0
 11
134.1111048156881
 21
203.7950267653982
 31
0.0
  0
LINE
  5
E12
330
2
100
AcDbEntity
  8
画層1
  6
CENTER
370
    30
100
AcDbLine
 10
69.11110481568812
 20
240.7950267653983
 30
0.0
 11
69.11110481568812
 21
196.7950267653983
 31
0.0
  0
LINE
  5
E13
330
2
100
AcDbEntity
  8
画層1
  6
CENTER
370
    30
100
AcDbLine
 10
72.11110481568812
 20
193.7950267653983
 30
0.0
 11
176.111104815688
 21
193.7950267653982
 31
0.0
  0
LINE
  5
E14
330
2
100
AcDbEntity
  8
画層1
  6
CENTER
370
    30
100
AcDbLine
 10
179.1111048156881
 20
196.7950267653982
 30
0.0
 11
179.1111048156881
 21
240.7950267653983
 31
0.0
  0
LINE
  5
E15
330
2
100
AcDbEntity
  8
画層1
  6
CENTER
370
    30
100
AcDbLine
 10
176.1111048156881
 20
243.7950267653982
 30
0.0
 11
72.11110481568812
 21
243.7950267653982
 31
0.0
  0
ARC
  5
E16
330
2
100
AcDbEntity
  8
画層1
  6
CENTER
370
    30
100
AcDbCircle
 10
72.11110481568812
 20
196.7950267653983
 30
0.0
 40
3.0
100
AcDbArc
 50
180.0
 51
270.0
  0
ARC
  5
E17
330
2
100
AcDbEntity
  8
画層1
  6
CENTER
370
    30
100
AcDbCircle
 10
72.11110481568812
 20
240.7950267653983
 30
0.0
 40
3.0
100
AcDbArc
 50
90.0
 51
180.0
  0
ARC
  5
E18
330
2
100
AcDbEntity
  8
画層1
  6
CENTER
370
    30
100
AcDbCircle
 10
176.1111048156881
 20
240.7950267653983
 30
0.0
 40
3.0
100
AcDbArc
 50
0.0
 51
89.99999999999998
  0
ARC
  5
E19
330
2
100
AcDbEntity
  8
画層1
  6
CENTER
370
    30
100
AcDbCircle
 10
176.111104815688
 20
196.7950267653982
 30
0.0
 40
3.0
100
AcDbArc
 50
269.9999999999999
 51
359.9999999999999
  0
CIRCLE
  5
E1B
330
2
100
AcDbEntity
  8
画層1
370
    30
100
AcDbCircle
 10
175.1111048156881
 20
223.7950267653982
 30
0.0
 40
4.0
  0
CIRCLE
  5
E1C
330
2
100
AcDbEntity
  8
画層1
370
    30
100
AcDbCircle
 10
175.1111048156881
 20
223.7950267653982
 30
0.0
 40
3.0
  0
LINE
  5
E25
330
2
100
AcDbEntity
  8
画層1
370
    30
100
AcDbLine
 10
173.1111048156881
 20
224.2950267653982
 30
0.0
 11
173.1111048156881
 21
223.2950267653982
 31
0.0
  0
LINE
  5
E26
330
2
100
AcDbEntity
  8
画層1
370
    30
100
AcDbLine
 10
173.1111048156881
 20
223.2950267653982
 30
0.0
 11
174.1111048156881
 21
223.2950267653982
 31
0.0
  0
LINE
  5
E27
330
2
100
AcDbEntity
  8
画層1
370
    30
100
AcDbLine
 10
174.6111048156881
 20
222.7950267653982
 30
0.0
 11
174.6111048156881
 21
221.7950267653982
 31
0.0
  0
LINE
  5
E28
330
2
100
AcDbEntity
  8
画層1
370
    30
100
AcDbLine
 10
174.6111048156881
 20
221.7950267653982
 30
0.0
 11
175.6111048156881
 21
221.7950267653982
 31
0.0
  0
LINE
  5
E29
330
2
100
AcDbEntity
  8
画層1
370
    30
100
AcDbLine
 10
175.6111048156881
 20
221.7950267653982
 30
0.0
 11
175.6111048156881
 21
222.7950267653982
 31
0.0
  0
LINE
  5
E2B
330
2
100
AcDbEntity
  8
画層1
370
    30
100
AcDbLine
 10
177.1111048156881
 20
223.2950267653982
 30
0.0
 11
177.1111048156881
 21
224.2950267653982
 31
0.0
  0
LINE
  5
E2E
330
2
100
AcDbEntity
  8
画層1
370
    30
100
AcDbLine
 10
175.6111048156881
 20
225.7950267653982
 30
0.0
 11
174.6111048156881
 21
225.7950267653982
 31
0.0
  0
LINE
  5
E30
330
2
100
AcDbEntity
  8
画層1
370
    30
100
AcDbLine
 10
173.1111048156881
 20
224.2950267653982
 30
0.0
 11
174.1111048156881
 21
224.2950267653982
 31
0.0
  0
LINE
  5
E32
330
2
100
AcDbEntity
  8
画層1
370
    30
100
AcDbLine
 10
174.6111048156881
 20
224.7950267653982
 30
0.0
 11
174.6111048156881
 21
225.7950267653982
 31
0.0
  0
LINE
  5
E33
330
2
100
AcDbEntity
  8
画層1
370
    30
100
AcDbLine
 10
177.1111048156881
 20
223.2950267653982
 30
0.0
 11
176.1111048156881
 21
223.2950267653982
 31
0.0
  0
LINE
  5
E35
330
2
100
AcDbEntity
  8
画層1
370
    30
100
AcDbLine
 10
177.1111048156881
 20
224.2950267653982
 30
0.0
 11
176.1111048156881
 21
224.2950267653982
 31
0.0
  0
LINE
  5
E36
330
2
100
AcDbEntity
  8
画層1
370
    30
100
AcDbLine
 10
175.6111048156881
 20
224.7950267653982
 30
0.0
 11
175.6111048156881
 21
225.7950267653982
 31
0.0
  0
CIRCLE
  5
E37
330
2
100
AcDbEntity
  8
画層1
370
    30
100
AcDbCircle
 10
73.11110481568812
 20
223.7950267653982
 30
0.0
 40
4.0
  0
LINE
  5
E38
330
2
100
AcDbEntity
  8
画層1
370
    30
100
AcDbLine
 10
72.61110481568812
 20
225.7950267653982
 30
0.0
 11
73.61110481568812
 21
225.7950267653982
 31
0.0
  0
LINE
  5
E39
330
2
100
AcDbEntity
  8
画層1
370
    30
100
AcDbLine
 10
73.61110481568812
 20
221.7950267653982
 30
0.0
 11
72.61110481568812
 21
221.7950267653982
 31
0.0
  0
CIRCLE
  5
E3A
330
2
100
AcDbEntity
  8
画層1
370
    30
100
AcDbCircle
 10
73.11110481568812
 20
223.7950267653982
 30
0.0
 40
3.0
  0
LINE
  5
E3B
330
2
100
AcDbEntity
  8
画層1
370
    30
100
AcDbLine
 10
75.11110481568812
 20
224.2950267653982
 30
0.0
 11
74.11110481568812
 21
224.2950267653982
 31
0.0
  0
LINE
  5
E3C
330
2
100
AcDbEntity
  8
画層1
370
    30
100
AcDbLine
 10
73.61110481568812
 20
224.7950267653982
 30
0.0
 11
73.61110481568812
 21
225.7950267653982
 31
0.0
  0
LINE
  5
E3D
330
2
100
AcDbEntity
  8
画層1
370
    30
100
AcDbLine
 10
75.11110481568812
 20
223.2950267653982
 30
0.0
 11
74.11110481568812
 21
223.2950267653982
 31
0.0
  0
LINE
  5
E3E
330
2
100
AcDbEntity
  8
画層1
370
    30
100
AcDbLine
 10
73.61110481568812
 20
222.7950267653982
 30
0.0
 11
73.61110481568812
 21
221.7950267653982
 31
0.0
  0
LINE
  5
E3F
330
2
100
AcDbEntity
  8
画層1
370
    30
100
AcDbLine
 10
75.11110481568812
 20
224.2950267653982
 30
0.0
 11
75.11110481568812
 21
223.2950267653982
 31
0.0
  0
LINE
  5
E40
330
2
100
AcDbEntity
  8
画層1
370
    30
100
AcDbLine
 10
72.61110481568812
 20
224.7950267653982
 30
0.0
 11
72.61110481568812
 21
225.7950267653982
 31
0.0
  0
LINE
  5
E41
330
2
100
AcDbEntity
  8
画層1
370
    30
100
AcDbLine
 10
71.11110481568812
 20
224.2950267653982
 30
0.0
 11
72.11110481568812
 21
224.2950267653982
 31
0.0
  0
LINE
  5
E42
330
2
100
AcDbEntity
  8
画層1
370
    30
100
AcDbLine
 10
71.11110481568812
 20
223.2950267653982
 30
0.0
 11
72.11110481568812
 21
223.2950267653982
 31
0.0
  0
LINE
  5
E43
330
2
100
AcDbEntity
  8
画層1
370
    30
100
AcDbLine
 10
72.61110481568812
 20
221.7950267653982
 30
0.0
 11
72.61110481568812
 21
222.7950267653982
 31
0.0
  0
LINE
  5
E44
330
2
100
AcDbEntity
  8
画層1
370
    30
100
AcDbLine
 10
71.11110481568812
 20
223.2950267653982
 30
0.0
 11
71.11110481568812
 21
224.2950267653982
 31
0.0
  0
CIRCLE
  5
E45
330
2
100
AcDbEntity
  8
画層1
370
    30
100
AcDbCircle
 10
99.11110481568812
 20
213.7950267653982
 30
0.0
 40
9.0
  0
CIRCLE
  5
E46
330
2
100
AcDbEntity
  8
画層1
370
    30
100
AcDbCircle
 10
144.1111048156881
 20
213.7950267653982
 30
0.0
 40
9.0
  0
CIRCLE
  5
E47
330
2
100
AcDbEntity
  8
画層1
370
    30
100
AcDbCircle
 10
144.1111048156881
 20
238.7950267653982
 30
0.0
 40
9.0
  0
CIRCLE
  5
E48
330
2
100
AcDbEntity
  8
画層1
370
    30
100
AcDbCircle
 10
99.11110481568812
 20
238.7950267653982
 30
0.0
 40
9.0
  0
CIRCLE
  5
E49
330
2
100
AcDbEntity
  8
画層1
370
    30
100
AcDbCircle
 10
99.11110481568812
 20
238.7950267653982
 30
0.0
 40
7.505553499465131
  0
CIRCLE
  5
E4A
330
2
100
AcDbEntity
  8
画層1
370
    30
100
AcDbCircle
 10
144.1111048156881
 20
238.7950267653982
 30
0.0
 40
7.505553499465131
  0
LINE
  5
E55
330
2
100
AcDbEntity
  8
画層1
370
    30
100
AcDbLine
 10
330.3111048156881
 20
203.7950267653982
 30
0.0
 11
452.3111048156882
 21
203.7950267653982
 31
0.0
  0
LINE
  5
E56
330
2
100
AcDbEntity
  8
画層1
370
    30
100
AcDbLine
 10
330.3111048156881
 20
383.7950267653982
 30
0.0
 11
452.3111048156882
 21
383.7950267653982
 31
0.0
  0
LINE
  5
E57
330
2
100
AcDbEntity
  8
画層1
370
    30
100
AcDbLine
 10
330.3111048156881
 20
383.7950267653982
 30
0.0
 11
330.3111048156881
 21
203.7950267653982
 31
0.0
  0
LINE
  5
E5E
330
2
100
AcDbEntity
  8
画層1
  6
CENTER
370
    30
100
AcDbLine
 10
328.3111048156881
 20
243.7950267653982
 30
0.0
 11
328.3111048156881
 21
193.7950267653983
 31
0.0
  0
LINE
  5
E5F
330
2
100
AcDbEntity
  8
画層1
  6
CENTER
370
    30
100
AcDbLine
 10
330.3111048156881
 20
243.7950267653982
 30
0.0
 11
330.3111048156881
 21
193.7950267653983
 31
0.0
  0
LINE
  5
E60
330
2
100
AcDbEntity
  8
画層1
370
    30
100
AcDbLine
 10
328.3111048156881
 20
243.7950267653982
 30
0.0
 11
330.3111048156881
 21
243.7950267653982
 31
0.0
  0
LINE
  5
E61
330
2
100
AcDbEntity
  8
画層1
  6
CENTER
370
    30
100
AcDbLine
 10
328.3111048156881
 20
193.7950267653983
 30
0.0
 11
330.3111048156881
 21
193.7950267653983
 31
0.0
  0
LINE
  5
E68
330
2
100
AcDbEntity
  8
画層1
370
    30
100
AcDbLine
 10
328.3111048156881
 20
219.7950267653982
 30
0.0
 11
327.3111048156881
 21
220.7950267653982
 31
0.0
  0
LINE
  5
E69
330
2
100
AcDbEntity
  8
画層1
370
    30
100
AcDbLine
 10
327.3111048156881
 20
220.7950267653982
 30
0.0
 11
327.3111048156881
 21
226.7950267653982
 31
0.0
  0
LINE
  5
E6A
330
2
100
AcDbEntity
  8
画層1
370
    30
100
AcDbLine
 10
327.3111048156881
 20
226.7950267653982
 30
0.0
 11
328.3111048156881
 21
227.7950267653982
 31
0.0
  0
LINE
  5
E6B
330
2
100
AcDbEntity
  8
画層1
370
    30
100
AcDbLine
 10
328.3111048156881
 20
227.7950267653982
 30
0.0
 11
328.3111048156881
 21
219.7950267653982
 31
0.0
  0
LINE
  5
E6C
330
2
100
AcDbEntity
  8
画層1
370
    30
100
AcDbLine
 10
325.8111048156881
 20
221.7950267653983
 30
0.0
 11
325.8111048156881
 21
225.7950267653983
 31
0.0
  0
LINE
  5
E6D
330
2
100
AcDbEntity
  8
画層1
370
    30
100
AcDbLine
 10
326.8111048156881
 20
226.7950267653982
 30
0.0
 11
327.3111048156881
 21
226.7950267653982
 31
0.0
  0
LINE
  5
E6E
330
2
100
AcDbEntity
  8
画層1
370
    30
100
AcDbLine
 10
326.8111048156881
 20
220.7950267653982
 30
0.0
 11
327.3111048156881
 21
220.7950267653982
 31
0.0
  0
ARC
  5
E6F
330
2
100
AcDbEntity
  8
画層1
370
    30
100
AcDbCircle
 10
326.8111048156881
 20
221.7950267653983
 30
0.0
 40
1.0
100
AcDbArc
 50
180.0
 51
270.0
  0
ARC
  5
E70
330
2
100
AcDbEntity
  8
画層1
370
    30
100
AcDbCircle
 10
326.8111048156881
 20
225.7950267653983
 30
0.0
 40
1.0
100
AcDbArc
 50
90.0
 51
180.0
  0
LINE
  5
E76
330
2
100
AcDbEntity
  8
画層1
370
    30
100
AcDbLine
 10
326.3111048156881
 20
223.2950267653982
 30
0.0
 11
326.3111048156881
 21
223.2950267653982
 31
0.0
  0
LINE
  5
E77
330
2
100
AcDbEntity
  8
画層1
370
    30
100
AcDbLine
 10
326.3111048156881
 20
223.2950267653982
 30
0.0
 11
326.3111048156881
 21
224.2950267653982
 31
0.0
  0
LINE
  5
E78
330
2
100
AcDbEntity
  8
画層1
370
    30
100
AcDbLine
 10
326.3111048156881
 20
224.2950267653982
 30
0.0
 11
326.3111048156881
 21
224.2950267653982
 31
0.0
  0
LINE
  5
E7A
330
2
100
AcDbEntity
  8
画層1
370
    30
100
AcDbLine
 10
325.8111048156881
 20
224.2950267653982
 30
0.0
 11
325.8111048156881
 21
224.2950267653982
 31
0.0
  0
ARC
  5
E7B
330
2
100
AcDbEntity
  8
画層1
370
    30
100
AcDbCircle
 10
326.3111048156881
 20
224.7950267653982
 30
0.0
 40
0.5
100
AcDbArc
 50
180.0
 51
270.0
  0
ARC
  5
E7C
330
2
100
AcDbEntity
  8
画層1
370
    30
100
AcDbCircle
 10
326.3111048156881
 20
222.7950267653982
 30
0.0
 40
0.5
100
AcDbArc
 50
90.0
 51
180.0
  0
ARC
  5
E82
330
2
100
AcDbEntity
  8
画層1
370
    30
100
AcDbCircle
 10
396.3159675329925
 20
227.7950267653982
 30
0.0
 40
0.5
100
AcDbArc
 50
0.0
 51
90.0
  0
ARC
  5
E83
330
2
100
AcDbEntity
  8
画層1
370
    30
100
AcDbCircle
 10
398.3159675329925
 20
227.7950267653982
 30
0.0
 40
0.5
100
AcDbArc
 50
90.0
 51
180.0
  0
ARC
  5
E84
330
2
100
AcDbEntity
  8
画層1
370
    30
100
AcDbCircle
 10
396.3159675329925
 20
229.7950267653982
 30
0.0
 40
0.5
100
AcDbArc
 50
270.0
 51
0.0
  0
ARC
  5
E85
330
2
100
AcDbEntity
  8
画層1
370
    30
100
AcDbCircle
 10
398.3159675329925
 20
229.7950267653982
 30
0.0
 40
0.5
100
AcDbArc
 50
180.0
 51
270.0
  0
ARC
  5
E86
330
2
100
AcDbEntity
  8
画層1
370
    30
100
AcDbCircle
 10
176.1111048156881
 20
222.7950267653982
 30
0.0
 40
0.5
100
AcDbArc
 50
90.0
 51
180.0
  0
ARC
  5
E87
330
2
100
AcDbEntity
  8
画層1
370
    30
100
AcDbCircle
 10
174.1111048156881
 20
222.7950267653982
 30
0.0
 40
0.5
100
AcDbArc
 50
0.0
 51
90.0
  0
ARC
  5
E88
330
2
100
AcDbEntity
  8
画層1
370
    30
100
AcDbCircle
 10
174.1111048156881
 20
224.7950267653982
 30
0.0
 40
0.5
100
AcDbArc
 50
270.0
 51
0.0
  0
ARC
  5
E89
330
2
100
AcDbEntity
  8
画層1
370
    30
100
AcDbCircle
 10
176.1111048156881
 20
224.7950267653982
 30
0.0
 40
0.5
100
AcDbArc
 50
180.0
 51
270.0
  0
ARC
  5
E8A
330
2
100
AcDbEntity
  8
画層1
370
    30
100
AcDbCircle
 10
72.11110481568812
 20
222.7950267653982
 30
0.0
 40
0.5
100
AcDbArc
 50
0.0
 51
90.0
  0
ARC
  5
E8B
330
2
100
AcDbEntity
  8
画層1
370
    30
100
AcDbCircle
 10
74.11110481568812
 20
222.7950267653982
 30
0.0
 40
0.5
100
AcDbArc
 50
90.0
 51
180.0
  0
ARC
  5
E8C
330
2
100
AcDbEntity
  8
画層1
370
    30
100
AcDbCircle
 10
74.11110481568812
 20
224.7950267653982
 30
0.0
 40
0.5
100
AcDbArc
 50
180.0
 51
270.0
  0
ARC
  5
E8D
330
2
100
AcDbEntity
  8
画層1
370
    30
100
AcDbCircle
 10
72.11110481568812
 20
224.7950267653982
 30
0.0
 40
0.5
100
AcDbArc
 50
270.0
 51
0.0
  0
ARC
  5
E8E
330
2
100
AcDbEntity
  8
画層1
370
    30
100
AcDbCircle
 10
100.1111048156881
 20
257.7950267653982
 30
0.0
 40
0.5
100
AcDbArc
 50
90.0
 51
180.0
  0
ARC
  5
E8F
330
2
100
AcDbEntity
  8
画層1
370
    30
100
AcDbCircle
 10
98.11110481568812
 20
257.7950267653982
 30
0.0
 40
0.5
100
AcDbArc
 50
0.0
 51
90.0
  0
ARC
  5
E90
330
2
100
AcDbEntity
  8
画層1
370
    30
100
AcDbCircle
 10
98.11110481568812
 20
259.7950267653982
 30
0.0
 40
0.5
100
AcDbArc
 50
270.0
 51
0.0
  0
ARC
  5
E91
330
2
100
AcDbEntity
  8
画層1
370
    30
100
AcDbCircle
 10
100.1111048156881
 20
259.7950267653982
 30
0.0
 40
0.5
100
AcDbArc
 50
180.0
 51
270.0
  0
ARC
  5
E92
330
2
100
AcDbEntity
  8
画層1
370
    30
100
AcDbCircle
 10
150.1111048156881
 20
257.7950267653982
 30
0.0
 40
0.5
100
AcDbArc
 50
90.0
 51
180.0
  0
ARC
  5
E93
330
2
100
AcDbEntity
  8
画層1
370
    30
100
AcDbCircle
 10
150.1111048156881
 20
259.7950267653982
 30
0.0
 40
0.5
100
AcDbArc
 50
180.0
 51
270.0
  0
ARC
  5
E94
330
2
100
AcDbEntity
  8
画層1
370
    30
100
AcDbCircle
 10
148.1111048156881
 20
259.7950267653982
 30
0.0
 40
0.5
100
AcDbArc
 50
270.0
 51
0.0
  0
ARC
  5
E95
330
2
100
AcDbEntity
  8
画層1
370
    30
100
AcDbCircle
 10
148.1111048156881
 20
257.7950267653982
 30
0.0
 40
0.5
100
AcDbArc
 50
0.0
 51
90.0
  0
ARC
  5
E96
330
2
100
AcDbEntity
  8
画層1
370
    30
100
AcDbCircle
 10
150.1111048156881
 20
377.7950267653982
 30
0.0
 40
0.5
100
AcDbArc
 50
90.0
 51
180.0
  0
ARC
  5
E97
330
2
100
AcDbEntity
  8
画層1
370
    30
100
AcDbCircle
 10
150.1111048156881
 20
379.7950267653982
 30
0.0
 40
0.5
100
AcDbArc
 50
180.0
 51
270.0
  0
ARC
  5
E98
330
2
100
AcDbEntity
  8
画層1
370
    30
100
AcDbCircle
 10
148.1111048156881
 20
379.7950267653982
 30
0.0
 40
0.5
100
AcDbArc
 50
270.0
 51
0.0
  0
ARC
  5
E99
330
2
100
AcDbEntity
  8
画層1
370
    30
100
AcDbCircle
 10
148.1111048156881
 20
377.7950267653982
 30
0.0
 40
0.5
100
AcDbArc
 50
0.0
 51
90.0
  0
ARC
  5
E9A
330
2
100
AcDbEntity
  8
画層1
370
    30
100
AcDbCircle
 10
100.1111048156881
 20
379.7950267653982
 30
0.0
 40
0.5
100
AcDbArc
 50
180.0
 51
270.0
  0
ARC
  5
E9B
330
2
100
AcDbEntity
  8
画層1
370
    30
100
AcDbCircle
 10
98.11110481568812
 20
379.7950267653982
 30
0.0
 40
0.5
100
AcDbArc
 50
270.0
 51
0.0
  0
ARC
  5
E9C
330
2
100
AcDbEntity
  8
画層1
370
    30
100
AcDbCircle
 10
98.11110481568812
 20
377.7950267653982
 30
0.0
 40
0.5
100
AcDbArc
 50
0.0
 51
90.0
  0
ARC
  5
E9D
330
2
100
AcDbEntity
  8
画層1
370
    30
100
AcDbCircle
 10
100.1111048156881
 20
377.7950267653982
 30
0.0
 40
0.5
100
AcDbArc
 50
90.0
 51
180.0
  0
LINE
  5
E9E
330
2
100
AcDbEntity
  8
画層1
370
    30
100
AcDbLine
 10
399.3159675329925
 20
359.2950267653982
 30
0.0
 11
398.3159675329925
 21
359.2950267653982
 31
0.0
  0
LINE
  5
E9F
330
2
100
AcDbEntity
  8
画層1
370
    30
100
AcDbLine
 10
398.3159675329925
 20
358.2950267653982
 30
0.0
 11
399.3159675329925
 21
358.2950267653982
 31
0.0
  0
CIRCLE
  5
EA0
330
2
100
AcDbEntity
  8
画層1
370
    30
100
AcDbCircle
 10
397.3159675329925
 20
358.7950267653982
 30
0.0
 40
5.0
  0
LINE
  5
EA2
330
2
100
AcDbEntity
  8
画層1
370
    30
100
AcDbLine
 10
395.3159675329925
 20
359.2950267653982
 30
0.0
 11
395.3159675329925
 21
358.2950267653982
 31
0.0
  0
LINE
  5
EA4
330
2
100
AcDbEntity
  8
画層1
370
    30
100
AcDbLine
 10
393.3159675329925
 20
358.7950267653982
 30
0.0
 11
393.3159675329925
 21
358.7950267653982
 31
0.0
  0
LINE
  5
EA5
330
2
100
AcDbEntity
  8
画層1
370
    30
100
AcDbLine
 10
397.8159675329925
 20
356.7950267653982
 30
0.0
 11
397.8159675329925
 21
357.7950267653982
 31
0.0
  0
ARC
  5
EA6
330
2
100
AcDbEntity
  8
画層1
370
    30
100
AcDbCircle
 10
398.3159675329925
 20
357.7950267653982
 30
0.0
 40
0.5
100
AcDbArc
 50
90.0
 51
180.0
  0
LINE
  5
EA7
330
2
100
AcDbEntity
  8
画層1
370
    30
100
AcDbLine
 10
395.3159675329925
 20
358.2950267653982
 30
0.0
 11
396.3159675329925
 21
358.2950267653982
 31
0.0
  0
LINE
  5
EA8
330
2
100
AcDbEntity
  8
画層1
370
    30
100
AcDbLine
 10
396.8159675329925
 20
357.7950267653982
 30
0.0
 11
396.8159675329925
 21
356.7950267653982
 31
0.0
  0
ARC
  5
EA9
330
2
100
AcDbEntity
  8
画層1
370
    30
100
AcDbCircle
 10
396.3159675329925
 20
357.7950267653982
 30
0.0
 40
0.5
100
AcDbArc
 50
0.0
 51
90.0
  0
LINE
  5
EAA
330
2
100
AcDbEntity
  8
画層1
370
    30
100
AcDbLine
 10
396.8159675329925
 20
356.7950267653982
 30
0.0
 11
397.8159675329925
 21
356.7950267653982
 31
0.0
  0
LINE
  5
EAB
330
2
100
AcDbEntity
  8
画層1
370
    30
100
AcDbLine
 10
397.8159675329925
 20
359.7950267653982
 30
0.0
 11
397.8159675329925
 21
360.7950267653982
 31
0.0
  0
ARC
  5
EAC
330
2
100
AcDbEntity
  8
画層1
370
    30
100
AcDbCircle
 10
398.3159675329925
 20
359.7950267653982
 30
0.0
 40
0.5
100
AcDbArc
 50
180.0
 51
270.0
  0
LINE
  5
EAD
330
2
100
AcDbEntity
  8
画層1
370
    30
100
AcDbLine
 10
396.8159675329925
 20
360.7950267653982
 30
0.0
 11
396.8159675329925
 21
359.7950267653982
 31
0.0
  0
LINE
  5
EAE
330
2
100
AcDbEntity
  8
画層1
370
    30
100
AcDbLine
 10
396.3159675329925
 20
359.2950267653982
 30
0.0
 11
395.3159675329925
 21
359.2950267653982
 31
0.0
  0
ARC
  5
EAF
330
2
100
AcDbEntity
  8
画層1
370
    30
100
AcDbCircle
 10
396.3159675329925
 20
359.7950267653982
 30
0.0
 40
0.5
100
AcDbArc
 50
270.0
 51
0.0
  0
LINE
  5
EB0
330
2
100
AcDbEntity
  8
画層1
370
    30
100
AcDbLine
 10
397.8159675329925
 20
360.7950267653982
 30
0.0
 11
396.8159675329925
 21
360.7950267653982
 31
0.0
  0
LINE
  5
EB1
330
2
100
AcDbEntity
  8
画層1
370
    30
100
AcDbLine
 10
399.3159675329925
 20
358.2950267653982
 30
0.0
 11
399.3159675329925
 21
359.2950267653982
 31
0.0
  0
LINE
  5
EB2
330
2
100
AcDbEntity
  8
画層1
  6
DASHED2
370
    30
100
AcDbLine
 10
387.3159675329925
 20
228.7950267653982
 30
0.0
 11
407.3159675329925
 21
228.7950267653982
 31
0.0
  0
LINE
  5
EB3
330
2
100
AcDbEntity
  8
画層1
  6
DASHED2
370
    30
100
AcDbLine
 10
397.3068599251215
 20
238.7950163968196
 30
0.0
 11
397.3153497150169
 21
218.7950268131106
 31
0.0
  0
LINE
  5
EB4
330
2
100
AcDbEntity
  8
画層1
  6
DASHED2
370
    30
100
AcDbLine
 10
387.3208302502969
 20
358.7950267653982
 30
0.0
 11
407.3208302502969
 21
358.7950267653982
 31
0.0
  0
LINE
  5
EB5
330
2
100
AcDbEntity
  8
画層1
  6
DASHED2
370
    30
100
AcDbLine
 10
397.3117226424259
 20
368.7950163968196
 30
0.0
 11
397.3202124323213
 21
348.7950268131106
 31
0.0
  0
LINE
  5
EB9
330
2
100
AcDbEntity
  8
画層1
  6
ByBlock
370
    30
100
AcDbLine
 10
181.7111048156881
 20
233.7950218861475
 30
0.0
 11
181.7111048156881
 21
223.7950275163045
 31
0.0
  0
LINE
  5
EBA
330
2
100
AcDbEntity
  8
画層1
  6
ByBlock
370
    30
100
AcDbLine
 10
180.7111048156881
 20
233.7950218861475
 30
0.0
 11
181.7111048156881
 21
233.7950218861475
 31
0.0
  0
LINE
  5
EBB
330
2
100
AcDbEntity
  8
画層1
  6
ByBlock
370
    30
100
AcDbLine
 10
181.7111048156881
 20
233.7950218861475
 30
0.0
 11
181.7111048156881
 21
223.7950275163045
 31
0.0
  0
LINE
  5
EBC
330
2
100
AcDbEntity
  8
画層1
  6
ByBlock
370
    30
100
AcDbLine
 10
181.7111048156881
 20
223.7950275163045
 30
0.0
 11
180.7111048156881
 21
223.7950275163045
 31
0.0
  0
LINE
  5
EBD
330
2
100
AcDbEntity
  8
画層1
  6
ByBlock
370
    30
100
AcDbLine
 10
185.6111048156881
 20
231.7950218861475
 30
0.0
 11
185.6111048156881
 21
225.7950275163044
 31
0.0
  0
LINE
  5
EBE
330
2
100
AcDbEntity
  8
画層1
  6
ByBlock
370
    30
100
AcDbLine
 10
181.7111048156881
 20
233.7950218861475
 30
0.0
 11
183.6111048156881
 21
233.7950218861475
 31
0.0
  0
LINE
  5
EBF
330
2
100
AcDbEntity
  8
画層1
  6
ByBlock
370
    30
100
AcDbLine
 10
181.7111048156881
 20
223.7950275163045
 30
0.0
 11
183.611104815688
 21
223.7950275163044
 31
0.0
  0
ARC
  5
EC1
330
2
100
AcDbEntity
  8
画層1
  6
ByBlock
370
    30
100
AcDbCircle
 10
183.6111048156881
 20
225.7950275163044
 30
0.0
 40
2.0
100
AcDbArc
 50
269.9999999999993
 51
0.0
  0
ARC
  5
EC2
330
2
100
AcDbEntity
  8
画層1
  6
ByBlock
370
    30
100
AcDbCircle
 10
183.6111048156881
 20
231.7950218861475
 30
0.0
 40
2.0
100
AcDbArc
 50
0.0
 51
90.0
  0
ARC
  5
EC3
330
2
100
AcDbEntity
  8
画層1
  6
ByBlock
370
    30
100
AcDbCircle
 10
185.1111048156881
 20
227.7950267653982
 30
0.0
 40
0.5
100
AcDbArc
 50
0.0
 51
90.0
  0
ARC
  5
EC4
330
2
100
AcDbEntity
  8
画層1
  6
ByBlock
370
    30
100
AcDbCircle
 10
185.1111048156881
 20
229.7950267653982
 30
0.0
 40
0.5
100
AcDbArc
 50
270.0
 51
0.0
  0
LINE
  5
EC5
330
2
100
AcDbEntity
  8
画層1
  6
ByBlock
370
    30
100
AcDbLine
 10
184.1111048156881
 20
229.2950267653982
 30
0.0
 11
184.1111048156881
 21
228.2950267653982
 31
0.0
  0
LINE
  5
EC6
330
2
100
AcDbEntity
  8
画層1
  6
ByBlock
370
    30
100
AcDbLine
 10
184.1111048156881
 20
228.2950267653982
 30
0.0
 11
185.1111048156881
 21
228.2950267653982
 31
0.0
  0
LINE
  5
EC7
330
2
100
AcDbEntity
  8
画層1
  6
ByBlock
370
    30
100
AcDbLine
 10
184.1111048156881
 20
229.2950267653982
 30
0.0
 11
185.1111048156881
 21
229.2950267653982
 31
0.0
  0
LINE
  5
EC9
330
2
100
AcDbEntity
  8
画層1
  6
DASHED2
370
    30
100
AcDbLine
 10
185.2111048156881
 20
228.7950267653982
 30
0.0
 11
178.6111048156881
 21
228.7950267653982
 31
0.0
  0
LINE
  5
ECA
330
2
100
AcDbEntity
  8
画層1
  6
ByBlock
370
    30
100
AcDbLine
 10
184.1111048156881
 20
359.2950267653982
 30
0.0
 11
184.1111048156881
 21
358.2950267653982
 31
0.0
  0
LINE
  5
ECB
330
2
100
AcDbEntity
  8
画層1
  6
ByBlock
370
    30
100
AcDbLine
 10
185.6111048156881
 20
361.7950218861476
 30
0.0
 11
185.6111048156881
 21
355.7950275163044
 31
0.0
  0
LINE
  5
ECC
330
2
100
AcDbEntity
  8
画層1
  6
ByBlock
370
    30
100
AcDbLine
 10
181.7111048156881
 20
363.7950218861475
 30
0.0
 11
181.7111048156881
 21
353.7950275163045
 31
0.0
  0
LINE
  5
ECD
330
2
100
AcDbEntity
  8
画層1
  6
ByBlock
370
    30
100
AcDbLine
 10
181.7111048156881
 20
363.7950218861475
 30
0.0
 11
181.7111048156881
 21
353.7950275163045
 31
0.0
  0
LINE
  5
ECE
330
2
100
AcDbEntity
  8
画層1
  6
DASHED2
370
    30
100
AcDbLine
 10
185.2111048156881
 20
358.7950267653982
 30
0.0
 11
178.6111048156881
 21
358.7950267653982
 31
0.0
  0
ARC
  5
ECF
330
2
100
AcDbEntity
  8
画層1
  6
ByBlock
370
    30
100
AcDbCircle
 10
185.1111048156881
 20
357.7950267653982
 30
0.0
 40
0.5
100
AcDbArc
 50
0.0
 51
90.0
  0
ARC
  5
ED0
330
2
100
AcDbEntity
  8
画層1
  6
ByBlock
370
    30
100
AcDbCircle
 10
183.6111048156881
 20
355.7950275163044
 30
0.0
 40
2.0
100
AcDbArc
 50
269.9999999999993
 51
0.0
  0
LINE
  5
ED1
330
2
100
AcDbEntity
  8
画層1
  6
ByBlock
370
    30
100
AcDbLine
 10
184.1111048156881
 20
358.2950267653982
 30
0.0
 11
185.1111048156881
 21
358.2950267653982
 31
0.0
  0
LINE
  5
ED2
330
2
100
AcDbEntity
  8
画層1
  6
ByBlock
370
    30
100
AcDbLine
 10
181.7111048156881
 20
353.7950275163045
 30
0.0
 11
183.611104815688
 21
353.7950275163044
 31
0.0
  0
LINE
  5
ED3
330
2
100
AcDbEntity
  8
画層1
  6
ByBlock
370
    30
100
AcDbLine
 10
181.7111048156881
 20
353.7950275163045
 30
0.0
 11
180.7111048156881
 21
353.7950275163045
 31
0.0
  0
ARC
  5
ED4
330
2
100
AcDbEntity
  8
画層1
  6
ByBlock
370
    30
100
AcDbCircle
 10
185.1111048156881
 20
359.7950267653982
 30
0.0
 40
0.5
100
AcDbArc
 50
270.0
 51
0.0
  0
ARC
  5
ED5
330
2
100
AcDbEntity
  8
画層1
  6
ByBlock
370
    30
100
AcDbCircle
 10
183.6111048156881
 20
361.7950218861476
 30
0.0
 40
2.0
100
AcDbArc
 50
0.0
 51
90.0
  0
LINE
  5
ED6
330
2
100
AcDbEntity
  8
画層1
  6
ByBlock
370
    30
100
AcDbLine
 10
184.1111048156881
 20
359.2950267653982
 30
0.0
 11
185.1111048156881
 21
359.2950267653982
 31
0.0
  0
LINE
  5
ED7
330
2
100
AcDbEntity
  8
画層1
  6
ByBlock
370
    30
100
AcDbLine
 10
181.7111048156881
 20
363.7950218861475
 30
0.0
 11
183.6111048156881
 21
363.7950218861476
 31
0.0
  0
LINE
  5
ED8
330
2
100
AcDbEntity
  8
画層1
  6
ByBlock
370
    30
100
AcDbLine
 10
180.7111048156881
 20
363.7950218861475
 30
0.0
 11
181.7111048156881
 21
363.7950218861475
 31
0.0
  0
LINE
  5
ED9
330
2
100
AcDbEntity
  8
画層1
  6
DASHED2
370
    30
100
AcDbLine
 10
63.0111048156881
 20
358.7950267653982
 30
0.0
 11
69.61110481568812
 21
358.7950267653982
 31
0.0
  0
ARC
  5
EDA
330
2
100
AcDbEntity
  8
画層1
  6
ByBlock
370
    30
100
AcDbCircle
 10
64.61110481568812
 20
355.7950275163044
 30
0.0
 40
2.0
100
AcDbArc
 50
180.0
 51
270.0000000000006
  0
LINE
  5
EDB
330
2
100
AcDbEntity
  8
画層1
  6
ByBlock
370
    30
100
AcDbLine
 10
66.51110481568813
 20
363.7950218861475
 30
0.0
 11
66.51110481568813
 21
353.7950275163045
 31
0.0
  0
LINE
  5
EDC
330
2
100
AcDbEntity
  8
画層1
  6
ByBlock
370
    30
100
AcDbLine
 10
66.51110481568813
 20
363.7950218861475
 30
0.0
 11
66.51110481568813
 21
353.7950275163045
 31
0.0
  0
LINE
  5
EDD
330
2
100
AcDbEntity
  8
画層1
  6
ByBlock
370
    30
100
AcDbLine
 10
66.51110481568813
 20
353.7950275163045
 30
0.0
 11
67.51110481568812
 21
353.7950275163045
 31
0.0
  0
LINE
  5
EDE
330
2
100
AcDbEntity
  8
画層1
  6
ByBlock
370
    30
100
AcDbLine
 10
66.51110481568813
 20
353.7950275163045
 30
0.0
 11
64.61110481568815
 21
353.7950275163044
 31
0.0
  0
ARC
  5
EDF
330
2
100
AcDbEntity
  8
画層1
  6
ByBlock
370
    30
100
AcDbCircle
 10
64.61110481568809
 20
361.7950218861476
 30
0.0
 40
2.0
100
AcDbArc
 50
90.0
 51
180.0
  0
ARC
  5
EE0
330
2
100
AcDbEntity
  8
画層1
  6
ByBlock
370
    30
100
AcDbCircle
 10
63.11110481568809
 20
359.7950267653982
 30
0.0
 40
0.5
100
AcDbArc
 50
180.0
 51
270.0
  0
ARC
  5
EE1
330
2
100
AcDbEntity
  8
画層1
  6
ByBlock
370
    30
100
AcDbCircle
 10
63.11110481568809
 20
357.7950267653982
 30
0.0
 40
0.5
100
AcDbArc
 50
90.0
 51
180.0
  0
LINE
  5
EE2
330
2
100
AcDbEntity
  8
画層1
  6
ByBlock
370
    30
100
AcDbLine
 10
67.51110481568812
 20
363.7950218861475
 30
0.0
 11
66.51110481568813
 21
363.7950218861475
 31
0.0
  0
LINE
  5
EE3
330
2
100
AcDbEntity
  8
画層1
  6
ByBlock
370
    30
100
AcDbLine
 10
66.51110481568813
 20
363.7950218861475
 30
0.0
 11
64.61110481568809
 21
363.7950218861476
 31
0.0
  0
LINE
  5
EE4
330
2
100
AcDbEntity
  8
画層1
  6
ByBlock
370
    30
100
AcDbLine
 10
64.11110481568809
 20
359.2950267653982
 30
0.0
 11
63.11110481568809
 21
359.2950267653982
 31
0.0
  0
LINE
  5
EE5
330
2
100
AcDbEntity
  8
画層1
  6
ByBlock
370
    30
100
AcDbLine
 10
64.11110481568809
 20
358.2950267653982
 30
0.0
 11
63.11110481568809
 21
358.2950267653982
 31
0.0
  0
LINE
  5
EE6
330
2
100
AcDbEntity
  8
画層1
  6
ByBlock
370
    30
100
AcDbLine
 10
64.11110481568809
 20
359.2950267653982
 30
0.0
 11
64.11110481568809
 21
358.2950267653982
 31
0.0
  0
LINE
  5
EE7
330
2
100
AcDbEntity
  8
画層1
  6
ByBlock
370
    30
100
AcDbLine
 10
62.6111048156881
 20
361.7950218861476
 30
0.0
 11
62.61110481568812
 21
355.7950275163044
 31
0.0
  0
LINE
  5
EE8
330
2
100
AcDbEntity
  8
画層1
  6
ByBlock
370
    30
100
AcDbLine
 10
65.0111048156881
 20
229.2950267653982
 30
0.0
 11
65.0111048156881
 21
228.2950267653982
 31
0.0
  0
LINE
  5
EE9
330
2
100
AcDbEntity
  8
画層1
  6
ByBlock
370
    30
100
AcDbLine
 10
63.51110481568809
 20
231.7950218861475
 30
0.0
 11
63.51110481568813
 21
225.7950275163044
 31
0.0
  0
LINE
  5
EEA
330
2
100
AcDbEntity
  8
画層1
  6
ByBlock
370
    30
100
AcDbLine
 10
66.51110481568813
 20
233.7950218861475
 30
0.0
 11
66.51110481568813
 21
223.7950275163045
 31
0.0
  0
LINE
  5
EEB
330
2
100
AcDbEntity
  8
画層1
  6
ByBlock
370
    30
100
AcDbLine
 10
66.51110481568813
 20
233.7950218861475
 30
0.0
 11
66.51110481568813
 21
223.7950275163045
 31
0.0
  0
LINE
  5
EEC
330
2
100
AcDbEntity
  8
画層1
  6
DASHED2
370
    30
100
AcDbLine
 10
63.0111048156881
 20
228.7950267653982
 30
0.0
 11
69.61110481568812
 21
228.7950267653982
 31
0.0
  0
ARC
  5
EED
330
2
100
AcDbEntity
  8
画層1
  6
ByBlock
370
    30
100
AcDbCircle
 10
64.0111048156881
 20
227.7950267653982
 30
0.0
 40
0.5
100
AcDbArc
 50
90.0
 51
180.0
  0
ARC
  5
EEE
330
2
100
AcDbEntity
  8
画層1
  6
ByBlock
370
    30
100
AcDbCircle
 10
65.51110481568812
 20
225.7950275163044
 30
0.0
 40
2.0
100
AcDbArc
 50
180.0
 51
270.0000000000006
  0
LINE
  5
EEF
330
2
100
AcDbEntity
  8
画層1
  6
ByBlock
370
    30
100
AcDbLine
 10
65.0111048156881
 20
228.2950267653982
 30
0.0
 11
64.0111048156881
 21
228.2950267653982
 31
0.0
  0
LINE
  5
EF0
330
2
100
AcDbEntity
  8
画層1
  6
ByBlock
370
    30
100
AcDbLine
 10
66.51110481568813
 20
223.7950275163045
 30
0.0
 11
65.51110481568816
 21
223.7950275163044
 31
0.0
  0
LINE
  5
EF1
330
2
100
AcDbEntity
  8
画層1
  6
ByBlock
370
    30
100
AcDbLine
 10
66.51110481568813
 20
223.7950275163045
 30
0.0
 11
67.51110481568812
 21
223.7950275163045
 31
0.0
  0
ARC
  5
EF2
330
2
100
AcDbEntity
  8
画層1
  6
ByBlock
370
    30
100
AcDbCircle
 10
64.0111048156881
 20
229.7950267653982
 30
0.0
 40
0.5
100
AcDbArc
 50
180.0
 51
270.0
  0
ARC
  5
EF3
330
2
100
AcDbEntity
  8
画層1
  6
ByBlock
370
    30
100
AcDbCircle
 10
65.5111048156881
 20
231.7950218861475
 30
0.0
 40
2.0
100
AcDbArc
 50
90.0
 51
180.0
  0
LINE
  5
EF4
330
2
100
AcDbEntity
  8
画層1
  6
ByBlock
370
    30
100
AcDbLine
 10
65.0111048156881
 20
229.2950267653982
 30
0.0
 11
64.0111048156881
 21
229.2950267653982
 31
0.0
  0
LINE
  5
EF5
330
2
100
AcDbEntity
  8
画層1
  6
ByBlock
370
    30
100
AcDbLine
 10
66.51110481568813
 20
233.7950218861475
 30
0.0
 11
65.5111048156881
 21
233.7950218861475
 31
0.0
  0
LINE
  5
EF6
330
2
100
AcDbEntity
  8
画層1
  6
ByBlock
370
    30
100
AcDbLine
 10
67.51110481568812
 20
233.7950218861475
 30
0.0
 11
66.51110481568813
 21
233.7950218861475
 31
0.0
  0
LINE
  5
EF9
330
2
100
AcDbEntity
  8
画層1
  6
DASHED2
370
    30
100
AcDbLine
 10
352.3111048156881
 20
203.7950267653982
 30
0.0
 11
352.3111048156881
 21
238.7950267653982
 31
0.0
  0
LINE
  5
EFA
330
2
100
AcDbEntity
  8
画層1
  6
DASHED2
370
    30
100
AcDbLine
 10
355.3111048156881
 20
203.7950267653982
 30
0.0
 11
355.3111048156881
 21
238.7950267653982
 31
0.0
  0
LINE
  5
EFF
330
2
100
AcDbEntity
  8
画層1
  6
DASHED2
370
    30
100
AcDbLine
 10
351.3111048156881
 20
222.7950267653982
 30
0.0
 11
351.3111048156881
 21
204.7950267653982
 31
0.0
  0
LINE
  5
F00
330
2
100
AcDbEntity
  8
画層1
  6
DASHED2
370
    30
100
AcDbLine
 10
356.3111048156881
 20
222.7950267653982
 30
0.0
 11
356.3111048156881
 21
204.7950267653982
 31
0.0
  0
LINE
  5
F01
330
2
100
AcDbEntity
  8
画層1
  6
DASHED2
370
    30
100
AcDbLine
 10
351.3111048156881
 20
222.7950267653982
 30
0.0
 11
352.3111048156881
 21
222.7950267653982
 31
0.0
  0
LINE
  5
F02
330
2
100
AcDbEntity
  8
画層1
  6
DASHED2
370
    30
100
AcDbLine
 10
356.3111048156881
 20
222.7950267653982
 30
0.0
 11
355.3111048156881
 21
222.7950267653982
 31
0.0
  0
LINE
  5
F03
330
2
100
AcDbEntity
  8
画層1
  6
DASHED2
370
    30
100
AcDbLine
 10
351.3111048156881
 20
204.7950267653982
 30
0.0
 11
352.3111048156881
 21
204.7950267653982
 31
0.0
  0
LINE
  5
F04
330
2
100
AcDbEntity
  8
画層1
  6
DASHED2
370
    30
100
AcDbLine
 10
356.3111048156881
 20
204.7950267653982
 30
0.0
 11
355.3111048156881
 21
204.7950267653982
 31
0.0
  0
LINE
  5
F0E
330
2
100
AcDbEntity
  8
画層1
  6
DASHED2
370
    30
100
AcDbLine
 10
346.3111048156881
 20
220.3005802648633
 30
0.0
 11
346.3111048156881
 21
207.2894732659331
 31
0.0
  0
LINE
  5
F0F
330
2
100
AcDbEntity
  8
画層1
  6
DASHED2
370
    30
100
AcDbLine
 10
347.3111048156881
 20
221.3005802648634
 30
0.0
 11
351.3111048156881
 21
221.3005802648633
 31
0.0
  0
LINE
  5
F10
330
2
100
AcDbEntity
  8
画層1
  6
DASHED2
370
    30
100
AcDbLine
 10
347.3111048156881
 20
206.289473265933
 30
0.0
 11
351.3111048156881
 21
206.289473265933
 31
0.0
  0
LINE
  5
F11
330
2
100
AcDbEntity
  8
画層1
  6
DASHED2
370
    30
100
AcDbLine
 10
346.3111048156881
 20
217.5478035151308
 30
0.0
 11
351.3111048156881
 21
217.5478035151308
 31
0.0
  0
LINE
  5
F12
330
2
100
AcDbEntity
  8
画層1
  6
DASHED2
370
    30
100
AcDbLine
 10
346.3111048156881
 20
210.0422500156656
 30
0.0
 11
351.3111048156881
 21
210.0422500156656
 31
0.0
  0
ARC
  5
F15
330
2
100
AcDbEntity
  8
画層1
  6
DASHED2
370
    30
100
AcDbCircle
 10
353.8527714823548
 20
213.7950267653982
 30
0.0
 40
7.54166666666663
100
AcDbArc
 50
150.1582758353155
 51
209.8417241646844
  0
ARC
  5
F1B
330
2
100
AcDbEntity
  8
画層1
  6
DASHED2
370
    30
100
AcDbCircle
 10
349.7094485686807
 20
220.0306642910312
 30
0.0
 40
3.452033449462696
100
AcDbArc
 50
190.1183594401083
 51
225.9916970597083
  0
LINE
  5
F1C
330
2
100
AcDbEntity
  8
画層1
  6
DASHED2
370
    30
100
AcDbLine
 10
346.3111048156881
 20
220.3005802648633
 30
0.0
 11
347.3111048156881
 21
221.3005802648634
 31
0.0
  0
LINE
  5
F1D
330
2
100
AcDbEntity
  8
画層1
  6
DASHED2
370
    30
100
AcDbLine
 10
346.3111048156881
 20
207.2894732659331
 30
0.0
 11
347.3111048156881
 21
206.289473265933
 31
0.0
  0
ARC
  5
F1E
330
2
100
AcDbEntity
  8
画層1
  6
DASHED2
370
    30
100
AcDbCircle
 10
349.5284876063923
 20
207.6787191887396
 30
0.0
 40
3.240843163490156
100
AcDbArc
 50
133.1726731695596
 51
173.1017582065947
  0
ARC
  5
F1F
330
2
100
AcDbEntity
  8
画層1
  6
DASHED2
370
    30
100
AcDbCircle
 10
358.0937220249839
 20
207.6787191887396
 30
0.0
 40
3.240843163490156
100
AcDbArc
 50
6.898241793405269
 51
46.82732683044039
  0
LINE
  5
F20
330
2
100
AcDbEntity
  8
画層1
  6
DASHED2
370
    30
100
AcDbLine
 10
361.3111048156881
 20
220.3005802648634
 30
0.0
 11
361.3111048156881
 21
207.2894732659331
 31
0.0
  0
LINE
  5
F21
330
2
100
AcDbEntity
  8
画層1
  6
DASHED2
370
    30
100
AcDbLine
 10
360.3111048156881
 20
206.2894732659331
 30
0.0
 11
356.3111048156881
 21
206.2894732659331
 31
0.0
  0
LINE
  5
F22
330
2
100
AcDbEntity
  8
画層1
  6
DASHED2
370
    30
100
AcDbLine
 10
361.3111048156881
 20
207.2894732659331
 30
0.0
 11
360.3111048156881
 21
206.2894732659331
 31
0.0
  0
ARC
  5
F23
330
2
100
AcDbEntity
  8
画層1
  6
DASHED2
370
    30
100
AcDbCircle
 10
357.9127610626956
 20
220.0306642910312
 30
0.0
 40
3.452033449462696
100
AcDbArc
 50
314.0083029402916
 51
349.8816405598916
  0
LINE
  5
F24
330
2
100
AcDbEntity
  8
画層1
  6
DASHED2
370
    30
100
AcDbLine
 10
361.3111048156881
 20
210.0422500156656
 30
0.0
 11
356.3111048156881
 21
210.0422500156656
 31
0.0
  0
LINE
  5
F25
330
2
100
AcDbEntity
  8
画層1
  6
DASHED2
370
    30
100
AcDbLine
 10
361.3111048156881
 20
217.5478035151308
 30
0.0
 11
356.3111048156881
 21
217.5478035151308
 31
0.0
  0
ARC
  5
F26
330
2
100
AcDbEntity
  8
画層1
  6
DASHED2
370
    30
100
AcDbCircle
 10
353.7694381490215
 20
213.7950267653982
 30
0.0
 40
7.54166666666663
100
AcDbArc
 50
330.1582758353155
 51
29.84172416468449
  0
LINE
  5
F27
330
2
100
AcDbEntity
  8
画層1
  6
DASHED2
370
    30
100
AcDbLine
 10
360.3111048156881
 20
221.3005802648634
 30
0.0
 11
356.3111048156881
 21
221.3005802648634
 31
0.0
  0
LINE
  5
F28
330
2
100
AcDbEntity
  8
画層1
  6
DASHED2
370
    30
100
AcDbLine
 10
361.3111048156881
 20
220.3005802648634
 30
0.0
 11
360.3111048156881
 21
221.3005802648634
 31
0.0
  0
LINE
  5
F2D
330
2
100
AcDbEntity
  8
画層1
  6
DASHED2
370
    30
100
AcDbLine
 10
361.3111048156881
 20
217.7950267653982
 30
0.0
 11
365.8111048156881
 21
217.7950267653982
 31
0.0
  0
LINE
  5
F2E
330
2
100
AcDbEntity
  8
画層1
  6
DASHED2
370
    30
100
AcDbLine
 10
366.8111048156881
 20
216.7950267653982
 30
0.0
 11
366.8111048156881
 21
210.7950267653981
 31
0.0
  0
LINE
  5
F2F
330
2
100
AcDbEntity
  8
画層1
  6
DASHED2
370
    30
100
AcDbLine
 10
365.8111048156882
 20
209.7950267653982
 30
0.0
 11
361.3111048156881
 21
209.7950267653982
 31
0.0
  0
LINE
  5
F30
330
2
100
AcDbEntity
  8
画層1
  6
DASHED2
370
    30
100
AcDbLine
 10
361.3111048156881
 20
217.7950267653982
 30
0.0
 11
365.8111048156881
 21
217.7950267653982
 31
0.0
  0
LINE
  5
F31
330
2
100
AcDbEntity
  8
画層1
  6
DASHED2
370
    30
100
AcDbLine
 10
366.8111048156881
 20
216.7950267653982
 30
0.0
 11
366.8111048156882
 21
210.7950267653982
 31
0.0
  0
LINE
  5
F32
330
2
100
AcDbEntity
  8
画層1
  6
DASHED2
370
    30
100
AcDbLine
 10
365.8111048156882
 20
209.7950267653982
 30
0.0
 11
361.3111048156881
 21
209.7950267653982
 31
0.0
  0
LINE
  5
F33
330
2
100
AcDbEntity
  8
画層1
  6
DASHED2
370
    30
100
AcDbLine
 10
365.8111048156881
 20
217.7950267653982
 30
0.0
 11
366.8111048156881
 21
216.7950267653982
 31
0.0
  0
LINE
  5
F34
330
2
100
AcDbEntity
  8
画層1
  6
DASHED2
370
    30
100
AcDbLine
 10
365.8111048156882
 20
209.7950267653982
 30
0.0
 11
366.8111048156882
 21
210.7950267653982
 31
0.0
  0
LINE
  5
F36
330
2
100
AcDbEntity
  8
画層1
  6
DASHED2
370
    30
100
AcDbLine
 10
366.8111048156881
 20
216.7950267653982
 30
0.0
 11
361.3111048156881
 21
216.7950267653982
 31
0.0
  0
LINE
  5
F37
330
2
100
AcDbEntity
  8
画層1
  6
DASHED2
370
    30
100
AcDbLine
 10
365.8111048156881
 20
217.7950267653982
 30
0.0
 11
365.8111048156882
 21
209.7950267653982
 31
0.0
  0
LINE
  5
F38
330
2
100
AcDbEntity
  8
画層1
  6
DASHED2
370
    30
100
AcDbLine
 10
366.8111048156882
 20
210.7950267653982
 30
0.0
 11
361.3111048156882
 21
210.7950267653982
 31
0.0
  0
DIMENSION
  5
F39
330
2
100
AcDbEntity
  8
画層1
370
    30
100
AcDbDimension
  2
*D11
 10
290.3111048156881
 20
408.6930815881059
 30
0.0
 11
371.3111048156881
 21
410.5730815881059
 31
0.0
 70
    32
 71
     5
 42
162.0
  3
STANDARD_WS
100
AcDbAlignedDimension
 13
452.3111048156881
 23
395.7950267653982
 33
0.0
 14
290.3111048156881
 24
380.2950267653982
 34
0.0
100
AcDbRotatedDimension
1001
ACAD
1000
DSTYLE
1002
{
1070
    47
1040
0.6
1070
   146
1040
0.5
1070
   173
1070
     0
1070
   271
1070
     1
1070
   272
1070
     1
1070
   284
1070
     8
1070
   340
1005
27
1070
   341
1005
28
1070
   342
1005
28
1070
   343
1005
0
1070
   344
1005
0
1002
}
  0
DIMENSION
  5
F46
330
2
100
AcDbEntity
  8
画層1
370
    30
100
AcDbDimension
  2
*D12
 10
62.6111048156881
 20
408.6930815881059
 30
0.0
 11
124.1111048156881
 21
410.5730815881059
 31
0.0
 70
    32
 71
     5
 42
123.0
  3
STANDARD_WS
100
AcDbAlignedDimension
 13
185.6111048156881
 23
361.7950218861476
 33
0.0
 14
62.6111048156881
 24
361.7950218861476
 34
0.0
100
AcDbRotatedDimension
1001
ACAD
1000
DSTYLE
1002
{
1070
    47
1040
0.6
1070
   146
1040
0.5
1070
   173
1070
     0
1070
   271
1070
     1
1070
   272
1070
     1
1070
   284
1070
     8
1070
   340
1005
27
1070
   341
1005
28
1070
   342
1005
28
1070
   343
1005
0
1070
   344
1005
0
1002
}
  0
DIMENSION
  5
F53
330
2
100
AcDbEntity
  8
画層1
370
    30
100
AcDbDimension
  2
*D13
 10
164.1111048156881
 20
400.786382662386
 30
0.0
 11
124.1111048156881
 21
402.666382662386
 31
0.0
 70
    32
 71
     5
 42
80.0
  3
STANDARD_WS
100
AcDbAlignedDimension
 13
84.11110481568812
 23
390.7950267653982
 33
0.0
 14
164.1111048156881
 24
390.7950267653982
 34
0.0
100
AcDbRotatedDimension
1001
ACAD
1000
DSTYLE
1002
{
1070
    47
1040
0.6
1070
   146
1040
0.5
1070
   173
1070
     0
1070
   271
1070
     1
1070
   272
1070
     1
1070
   284
1070
     8
1070
   340
1005
27
1070
   341
1005
28
1070
   342
1005
28
1070
   343
1005
0
1070
   344
1005
0
1002
}
  0
DIMENSION
  5
F8D
330
2
100
AcDbEntity
  8
画層1
370
    30
100
AcDbDimension
  2
*D14
 10
193.1706623141049
 20
213.7950267653982
 30
0.0
 11
191.2906623141048
 21
205.2950267653982
 31
0.0
 70
    32
 71
     5
 42
17.0
  3
STANDARD_WS
100
AcDbAlignedDimension
 13
164.1111048156881
 23
196.7950267653982
 33
0.0
 14
144.1111048156881
 24
213.7950267653982
 34
0.0
 50
90.0
100
AcDbRotatedDimension
1001
ACAD
1000
DSTYLE
1002
{
1070
    47
1040
0.6
1070
   146
1040
0.5
1070
   173
1070
     0
1070
   271
1070
     1
1070
   272
1070
     1
1070
   284
1070
     8
1070
   340
1005
27
1070
   341
1005
28
1070
   342
1005
28
1070
   343
1005
0
1070
   344
1005
0
1002
}
  0
DIMENSION
  5
F9A
330
2
100
AcDbEntity
  8
画層1
370
    30
100
AcDbDimension
  2
*D15
 10
204.881813011639
 20
390.7950267653982
 30
0.0
 11
203.0018130116389
 21
293.7950267653982
 31
0.0
 70
    32
 71
     5
 42
194.0
  3
STANDARD_WS
100
AcDbAlignedDimension
 13
194.4206623141049
 23
196.7950267653982
 33
0.0
 14
164.1111048156881
 24
390.7950267653982
 34
0.0
 50
90.0
100
AcDbRotatedDimension
1001
ACAD
1000
DSTYLE
1002
{
1070
    47
1040
0.6
1070
   146
1040
0.5
1070
   173
1070
     0
1070
   271
1070
     1
1070
   272
1070
     1
1070
   284
1070
     8
1070
   340
1005
27
1070
   341
1005
28
1070
   342
1005
28
1070
   343
1005
0
1070
   344
1005
0
1002
}
  0
DIMENSION
  5
FA7
330
2
100
AcDbEntity
  8
画層1
370
    30
100
AcDbDimension
  2
*D16
 10
211.5506620143569
 20
191.7950267653982
 30
0.0
 11
209.6706620143569
 21
293.7950267653982
 31
0.0
 70
    32
 71
     5
 42
204.0
  3
STANDARD_WS
100
AcDbAlignedDimension
 13
177.1111048156881
 23
395.7950267653982
 33
0.0
 14
177.1111048156881
 24
191.7950267653982
 34
0.0
 50
90.0
100
AcDbRotatedDimension
1001
ACAD
1000
DSTYLE
1002
{
1070
    47
1040
0.6
1070
   146
1040
0.5
1070
   173
1070
     0
1070
   271
1070
     1
1070
   272
1070
     1
1070
   284
1070
     8
1070
   340
1005
27
1070
   341
1005
28
1070
   342
1005
28
1070
   343
1005
0
1070
   344
1005
0
1002
}
  0
DIMENSION
  5
FBD
330
2
100
AcDbEntity
  8
画層1
370
    30
100
AcDbDimension
  2
*D17
 10
166.8611048156881
 20
180.3729747766394
 30
0.0
 11
171.262678419749
 21
182.2529747766394
 31
0.0
 70
    32
 71
     5
 42
5.5
  3
STANDARD_WS
100
AcDbAlignedDimension
 13
161.3611048156881
 23
191.7950267653982
 33
0.0
 14
166.8611048156881
 24
191.7950267653982
 34
0.0
100
AcDbRotatedDimension
1001
ACAD
1000
DSTYLE
1002
{
1070
    47
1040
0.6
1070
   146
1040
0.5
1070
   173
1070
     0
1070
   271
1070
     1
1070
   272
1070
     1
1070
   284
1070
     8
1070
   340
1005
27
1070
   341
1005
28
1070
   342
1005
28
1070
   343
1005
0
1070
   344
1005
0
1002
}
  0
DIMENSION
  5
FCB
330
2
100
AcDbEntity
  8
画層1
370
    30
100
AcDbDimension
  2
*D18
 10
86.86110481568812
 20
180.3729747766394
 30
0.0
 11
91.26267841974904
 21
182.2529747766394
 31
0.0
 70
    32
 71
     5
 42
5.5
  3
STANDARD_WS
100
AcDbAlignedDimension
 13
81.36110481568811
 23
191.7950267653982
 33
0.0
 14
86.86110481568812
 24
191.7950267653982
 34
0.0
100
AcDbRotatedDimension
1001
ACAD
1000
DSTYLE
1002
{
1070
    47
1040
0.6
1070
   146
1040
0.5
1070
   173
1070
     0
1070
   271
1070
     1
1070
   272
1070
     1
1070
   284
1070
     8
1070
   340
1005
27
1070
   341
1005
28
1070
   342
1005
28
1070
   343
1005
0
1070
   344
1005
0
1002
}
  0
DIMENSION
  5
FD9
330
2
100
AcDbEntity
  8
画層1
370
    30
100
AcDbDimension
  2
*D19
 10
124.1111048156881
 20
180.3729747766394
 30
0.0
 11
111.6111048156881
 21
182.2529747766394
 31
0.0
 70
    32
 71
     5
 42
25.0
  3
STANDARD_WS
100
AcDbAlignedDimension
 13
99.11110481568812
 23
213.7950267653982
 33
0.0
 14
124.1111048156881
 24
193.7950267653982
 34
0.0
100
AcDbRotatedDimension
1001
ACAD
1000
DSTYLE
1002
{
1070
    47
1040
0.6
1070
   146
1040
0.5
1070
   173
1070
     0
1070
   271
1070
     1
1070
   272
1070
     1
1070
   284
1070
     8
1070
   340
1005
27
1070
   341
1005
28
1070
   342
1005
28
1070
   343
1005
0
1070
   344
1005
0
1002
}
  0
DIMENSION
  5
FE6
330
2
100
AcDbEntity
  8
画層1
370
    30
100
AcDbDimension
  2
*D20
 10
124.1111048156881
 20
180.3729747766394
 30
0.0
 11
134.1111048156881
 21
182.2529747766394
 31
0.0
 70
    32
 71
     5
 42
20.0
  3
STANDARD_WS
100
AcDbAlignedDimension
 13
144.1111048156881
 23
213.7950267653982
 33
0.0
 14
124.1111048156881
 24
193.7950267653982
 34
0.0
100
AcDbRotatedDimension
1001
ACAD
1000
DSTYLE
1002
{
1070
    47
1040
0.6
1070
   146
1040
0.5
1070
   173
1070
     0
1070
   271
1070
     1
1070
   272
1070
     1
1070
   284
1070
     8
1070
   340
1005
27
1070
   341
1005
28
1070
   342
1005
28
1070
   343
1005
0
1070
   344
1005
0
1002
}
  0
DIMENSION
  5
FFC
330
2
100
AcDbEntity
  8
画層1
370
    30
100
AcDbDimension
  2
*D21
 10
154.1111048156881
 20
186.8961142034665
 30
0.0
 11
144.1111048156881
 21
188.7761142034666
 31
0.0
 70
    32
 71
     5
 42
20.0
  3
STANDARD_WS
100
AcDbAlignedDimension
 13
134.1111048156881
 23
203.7950267653982
 33
0.0
 14
154.1111048156881
 24
203.7950267653982
 34
0.0
100
AcDbRotatedDimension
1001
ACAD
1000
DSTYLE
1002
{
1070
    47
1040
0.6
1070
   146
1040
0.5
1070
   173
1070
     0
1070
   271
1070
     1
1070
   272
1070
     1
1070
   284
1070
     8
1070
   340
1005
27
1070
   341
1005
28
1070
   342
1005
28
1070
   343
1005
0
1070
   344
1005
0
1002
}
  0
LEADER
  5
1009
330
2
100
AcDbEntity
  8
画層1
370
    30
100
AcDbLeader
  3
STANDARD_WS
 76
     3
 10
99.11110481568812
 20
213.7950267653982
 30
0.0
 10
65.71292189206019
 20
175.9300661138872
 30
0.0
 10
51.36768405412567
 20
175.9300661138872
 30
0.0
1001
ACAD
1000
DSTYLE
1002
{
1070
   147
1040
0.63
1070
    77
1070
     0
1070
    47
1040
0.6
1070
   146
1040
0.5
1070
   173
1070
     0
1070
   271
1070
     1
1070
   272
1070
     1
1070
   284
1070
     8
1070
   340
1005
27
1070
   341
1005
28
1070
   342
1005
28
1070
   343
1005
0
1070
   344
1005
0
1002
}
  0
MTEXT
  5
100A
330
2
100
AcDbEntity
  8
画層1
370
    30
100
AcDbMText
 10
53.43667858345077
 20
180.4316868618207
 30
0.0
 40
3.75
 41
11.66566108832443
 71
     1
 72
     5
  1
2-M8
  7
STYLE1
 73
     1
 44
1.0
  0
ENDSEC
  0
SECTION
  2
OBJECTS
  0
DICTIONARY
  5
9
330
0
100
AcDbDictionary
281
     1
  3
ACAD_GROUP
350
23
  3
ACAD_LAYOUT
350
D
  3
ACAD_MLINESTYLE
350
24
  3
ACAD_PLOTSETTINGS
350
25
  3
ACAD_PLOTSTYLENAME
350
8
  3
DWGPROPS
350
618
  0
DICTIONARY
  5
3
330
2
100
AcDbDictionary
280
     1
281
     1
  0
DICTIONARY
  5
F
330
E
100
AcDbDictionary
280
     1
281
     1
  0
DICTIONARY
  5
23
102
{ACAD_REACTORS
330
9
102
}
330
9
100
AcDbDictionary
281
     1
  3
*A1
350
6FA
  3
*A2
350
876
  3
*A3
350
885
  3
*A4
350
804
  3
*A5
350
886
  3
*A7
350
816
  3
*A8
350
8F0
  3
*A9
350
755
  3
*A10
350
762
  3
*A11
350
7F7
  3
*A12
350
86F
  3
*A13
350
803
  3
*A14
350
806
  3
*A15
350
872
  3
*A16
350
815
  3
*A17
350
833
  3
*A18
350
834
  3
*A19
350
835
  3
*A20
350
836
  3
*A21
350
870
  3
*A22
350
89E
  3
*A23
350
871
  3
*A24
350
873
  3
*A25
350
709
  3
*A26
350
874
  3
*A27
350
875
  0
DICTIONARY
  5
D
102
{ACAD_REACTORS
330
9
102
}
330
9
100
AcDbDictionary
281
     1
  3
Model
350
560
  3
ﾚｲｱｳﾄ1
350
561
  0
DICTIONARY
  5
24
102
{ACAD_REACTORS
330
9
102
}
330
9
100
AcDbDictionary
281
     1
  3
STANDARD
350
34
  0
DICTIONARY
  5
25
102
{ACAD_REACTORS
330
9
102
}
330
9
100
AcDbDictionary
281
     1
  0
ACDBDICTIONARYWDFLT
  5
8
102
{ACAD_REACTORS
330
9
102
}
330
9
100
AcDbDictionary
281
     1
  3
Normal
350
7
100
AcDbDictionaryWithDefault
340
7
  0
XRECORD
  5
618
102
{ACAD_REACTORS
330
9
102
}
330
9
100
AcDbXrecord
280
     1
  1
DWGPROPS COOKIE
  2

  3

  4

  6

  7

  8

  9

300
=
301
=
302
=
303
=
304
=
305
=
306
=
307
=
308
=
309
=
 40
3.523243749999998
 41
2450995.462150231
 42
2451964.719684721
  1

 90
        0
  0
GROUP
  5
6FA
102
{ACAD_REACTORS
330
23
102
}
330
23
100
AcDbGroup
300

 70
     1
 71
     1
  0
GROUP
  5
876
102
{ACAD_REACTORS
330
23
102
}
330
23
100
AcDbGroup
300

 70
     1
 71
     1
340
853
340
852
340
851
340
847
340
854
340
84D
340
850
340
84F
340
843
340
842
340
84C
340
84E
  0
GROUP
  5
885
102
{ACAD_REACTORS
330
23
102
}
330
23
100
AcDbGroup
300

 70
     1
 71
     1
340
87A
340
87F
340
880
340
881
340
87C
340
879
340
87D
340
87B
340
884
340
882
340
883
  0
GROUP
  5
804
102
{ACAD_REACTORS
330
23
102
}
330
23
100
AcDbGroup
300

 70
     1
 71
     1
340
6B7
340
6B6
340
6AD
340
6B9
340
6B8
340
6BA
340
6B4
340
6B5
340
6AE
340
6B2
340
6B3
340
6B0
  0
GROUP
  5
886
102
{ACAD_REACTORS
330
23
102
}
330
23
100
AcDbGroup
300

 70
     1
 71
     1
340
87E
340
87D
340
883
340
882
340
884
340
879
340
87C
340
881
340
880
340
87F
340
87A
340
87B
  0
GROUP
  5
816
102
{ACAD_REACTORS
330
23
102
}
330
23
100
AcDbGroup
300

 70
     1
 71
     1
340
813
340
812
340
811
340
810
340
814
340
80A
340
80F
340
80E
340
80D
340
80C
340
809
340
80B
  0
GROUP
  5
8F0
102
{ACAD_REACTORS
330
23
102
}
330
23
100
AcDbGroup
300

 70
     1
 71
     1
  0
GROUP
  5
755
102
{ACAD_REACTORS
330
23
102
}
330
23
100
AcDbGroup
300

 70
     1
 71
     1
  0
GROUP
  5
762
102
{ACAD_REACTORS
330
23
102
}
330
23
100
AcDbGroup
300

 70
     1
 71
     1
  0
GROUP
  5
7F7
102
{ACAD_REACTORS
330
23
102
}
330
23
100
AcDbGroup
300

 70
     1
 71
     1
340
6AC
340
6AB
340
6AA
340
6A9
340
6A5
340
6A8
340
6A6
340
6A3
340
6A2
340
6A1
340
6A4
  0
GROUP
  5
86F
102
{ACAD_REACTORS
330
23
102
}
330
23
100
AcDbGroup
300

 70
     1
 71
     1
340
856
340
859
340
85A
340
85B
340
85C
340
857
340
85F
340
858
340
861
340
85D
340
85E
  0
GROUP
  5
803
102
{ACAD_REACTORS
330
23
102
}
330
23
100
AcDbGroup
300

 70
     1
 71
     1
340
7F8
340
7F9
340
7FA
340
7FB
340
7FC
340
7FD
340
7FE
340
7FF
340
800
340
801
340
802
  0
GROUP
  5
806
102
{ACAD_REACTORS
330
23
102
}
330
23
100
AcDbGroup
300

 70
     1
 71
     1
340
805
340
7FE
340
802
340
801
340
800
340
7FD
340
7FC
340
7FB
340
7FA
340
7F9
340
7F8
340
7FF
  0
GROUP
  5
872
102
{ACAD_REACTORS
330
23
102
}
330
23
100
AcDbGroup
300

 70
     1
 71
     1
340
865
340
866
340
867
340
868
340
86E
340
862
340
869
340
86A
340
86B
340
86C
340
863
340
86D
  0
GROUP
  5
815
102
{ACAD_REACTORS
330
23
102
}
330
23
100
AcDbGroup
300

 70
     1
 71
     1
340
809
340
80C
340
80D
340
80E
340
80F
340
80A
340
812
340
80B
340
814
340
810
340
811
  0
GROUP
  5
833
102
{ACAD_REACTORS
330
23
102
}
330
23
100
AcDbGroup
300

 70
     1
 71
     1
340
81A
340
81D
340
81E
340
81F
340
820
340
81B
340
823
340
81C
340
825
340
821
340
822
  0
GROUP
  5
834
102
{ACAD_REACTORS
330
23
102
}
330
23
100
AcDbGroup
300

 70
     1
 71
     1
340
824
340
823
340
822
340
821
340
825
340
81B
340
820
340
81F
340
81E
340
81D
340
81A
340
81C
  0
GROUP
  5
835
102
{ACAD_REACTORS
330
23
102
}
330
23
100
AcDbGroup
300

 70
     1
 71
     1
340
827
340
830
340
82F
340
82E
340
82D
340
826
340
82A
340
831
340
832
340
82C
340
82B
  0
GROUP
  5
836
102
{ACAD_REACTORS
330
23
102
}
330
23
100
AcDbGroup
300

 70
     1
 71
     1
340
829
340
82A
340
82B
340
82C
340
832
340
826
340
82D
340
82E
340
82F
340
830
340
827
340
831
  0
GROUP
  5
870
102
{ACAD_REACTORS
330
23
102
}
330
23
100
AcDbGroup
300

 70
     1
 71
     1
340
860
340
85F
340
85E
340
85D
340
861
340
857
340
85C
340
85B
340
85A
340
859
340
856
340
858
  0
GROUP
  5
89E
102
{ACAD_REACTORS
330
23
102
}
330
23
100
AcDbGroup
300

 70
     1
 71
     1
340
890
340
7F6
340
7F4
340
7D8
340
7D7
340
7EF
340
7D6
340
888
340
884
340
883
340
878
340
877
340
7EE
340
87A
340
882
340
881
340
880
340
87F
340
88B
340
838
340
88A
340
845
340
7E6
340
7E7
340
7E9
340
7E8
340
889
340
83C
340
83B
340
879
340
87E
340
87D
340
87C
340
87B
340
846
340
83D
340
84B
340
84A
340
849
340
848
340
841
340
840
340
83F
340
83E
340
83A
340
839
340
7EA
340
7EB
340
84D
340
84C
340
844
340
853
340
852
340
851
340
850
340
84F
340
84E
340
847
340
843
340
842
340
854
340
857
340
856
340
837
340
860
340
85F
340
85E
340
85D
340
85C
340
85B
340
85A
340
859
340
858
340
861
340
88E
340
825
340
822
340
818
340
817
340
7E2
340
7E3
340
7ED
340
7EC
340
88C
340
864
340
855
340
863
340
862
340
86D
340
86C
340
86B
340
86A
340
869
340
868
340
867
340
866
340
865
340
86E
340
81A
340
821
340
81F
340
81E
340
81D
340
7E1
340
7E0
340
7E5
340
7E4
340
88D
340
830
340
82F
340
828
340
819
340
81B
340
82C
340
824
340
823
340
820
340
81C
340
827
340
826
340
831
340
82E
340
82D
340
82B
340
82A
340
829
340
832
340
7D4
340
88F
340
808
340
7DD
340
7DC
340
7F8
340
7FD
340
7FF
340
7F9
340
7FA
340
7FB
340
7FC
340
801
340
802
340
7FE
340
805
340
800
340
80A
340
809
340
807
340
813
340
812
340
811
340
810
340
80F
340
80E
340
80D
340
80C
340
80B
340
814
340
7DB
  0
GROUP
  5
871
102
{ACAD_REACTORS
330
23
102
}
330
23
100
AcDbGroup
300

 70
     1
 71
     1
340
863
340
86C
340
86B
340
86A
340
869
340
862
340
866
340
86D
340
86E
340
868
340
867
  0
GROUP
  5
873
102
{ACAD_REACTORS
330
23
102
}
330
23
100
AcDbGroup
300

 70
     1
 71
     1
340
83D
340
841
340
840
340
83F
340
84A
340
846
340
849
340
84B
340
839
340
83E
340
83A
  0
GROUP
  5
709
102
{ACAD_REACTORS
330
23
102
}
330
23
100
AcDbGroup
300

 70
     1
 71
     1
  0
GROUP
  5
874
102
{ACAD_REACTORS
330
23
102
}
330
23
100
AcDbGroup
300

 70
     1
 71
     1
340
848
340
849
340
83A
340
83E
340
839
340
846
340
84A
340
83F
340
840
340
841
340
83D
340
84B
  0
GROUP
  5
875
102
{ACAD_REACTORS
330
23
102
}
330
23
100
AcDbGroup
300

 70
     1
 71
     1
340
84C
340
842
340
843
340
84F
340
850
340
84D
340
852
340
84E
340
854
340
847
340
851
  0
LAYOUT
  5
560
102
{ACAD_REACTORS
330
D
102
}
330
D
100
AcDbPlotSettings
  1

  2
DocuPrint 360
  4
A4
  6

 40
5.238749980926513
 41
5.281081199645996
 42
5.323410034179687
 43
5.281097412109375
 44
209.9733276367187
 45
296.9683227539062
 46
-26.95
 47
13.88
 48
0.0
 49
0.0
140
0.0
141
0.0
142
1.0
143
1.0
 70
 11956
 72
     1
 73
     1
 74
     1
  7

 75
    16
147
1.0
148
-88.68347276081738
149
-181.6218022319227
100
AcDbLayout
  1
Model
 70
     1
 71
     0
 10
0.0
 20
0.0
 11
12.0
 21
9.0
 12
0.0
 22
0.0
 32
0.0
 14
0.0
 24
0.0
 34
0.0
 15
0.0
 25
0.0
 35
0.0
146
0.0
 13
0.0
 23
0.0
 33
0.0
 16
1.0
 26
0.0
 36
0.0
 17
0.0
 27
1.0
 37
0.0
 76
     0
330
2
  0
LAYOUT
  5
561
102
{ACAD_REACTORS
330
D
102
}
330
D
100
AcDbPlotSettings
  1

  2
EPSON MJ-6000C
  4

  6

 40
0.0
 41
0.0
 42
0.0
 43
0.0
 44
0.0
 45
0.0
 46
0.0
 47
0.0
 48
0.0
 49
0.0
140
0.0
141
0.0
142
1.0
143
1.0
 70
   688
 72
     0
 73
     0
 74
     5
  7

 75
    16
147
1.0
148
0.0
149
0.0
100
AcDbLayout
  1
ﾚｲｱｳﾄ1
 70
     1
 71
     1
 10
0.0
 20
0.0
 11
420.0
 21
297.0
 12
0.0
 22
0.0
 32
0.0
 14
1.000000000000000E+20
 24
1.000000000000000E+20
 34
1.000000000000000E+20
 15
-1.000000000000000E+20
 25
-1.000000000000000E+20
 35
-1.000000000000000E+20
146
0.0
 13
0.0
 23
0.0
 33
0.0
 16
1.0
 26
0.0
 36
0.0
 17
0.0
 27
1.0
 37
0.0
 76
     0
330
E
  0
MLINESTYLE
  5
34
102
{ACAD_REACTORS
330
24
102
}
330
24
100
AcDbMlineStyle
  2
STANDARD
 70
     0
  3

 62
   256
 51
90.0
 52
90.0
 71
     2
 49
0.5
 62
   256
  6
BYLAYER
 49
-0.5
 62
   256
  6
BYLAYER
  0
ACDBPLACEHOLDER
  5
7
102
{ACAD_REACTORS
330
8
102
}
330
8
  0
ENDSEC
  0
EOF
