  0
SECTION
  2
HEADER
  9
$ACADVER
  1
AC1015
  9
$ACADMAINTVER
 70
     6
  9
$DWGCODEPAGE
  3
ANSI_932
  9
$INSBASE
 10
0.0
 20
0.0
 30
0.0
  9
$EXTMIN
 10
88.91110481568812
 20
191.7275110255868
 30
0.0
  9
$EXTMAX
 10
314.3111048156881
 20
434.9154615189934
 30
0.0
  9
$LIMMIN
 10
0.0
 20
0.0
  9
$LIMMAX
 10
420.0
 20
297.0
  9
$ORTHOMODE
 70
     1
  9
$REGENMODE
 70
     1
  9
$FILLMODE
 70
     1
  9
$QTEXTMODE
 70
     0
  9
$MIRRTEXT
 70
     1
  9
$LTSCALE
 40
0.2
  9
$ATTMODE
 70
     1
  9
$TEXTSIZE
 40
2.5
  9
$TRACEWID
 40
1.0
  9
$TEXTSTYLE
  7
STYLE1
  9
$CLAYER
  8
画層1
  9
$CELTYPE
  6
BYLAYER
  9
$CECOLOR
 62
   256
  9
$CELTSCALE
 40
1.0
  9
$DISPSILH
 70
     0
  9
$DIMSCALE
 40
1.0
  9
$DIMASZ
 40
1.5
  9
$DIMEXO
 40
0.63
  9
$DIMDLI
 40
3.75
  9
$DIMRND
 40
0.0
  9
$DIMDLE
 40
0.0
  9
$DIMEXE
 40
1.25
  9
$DIMTP
 40
0.6
  9
$DIMTM
 40
0.0
  9
$DIMTXT
 40
2.5
  9
$DIMCEN
 40
2.5
  9
$DIMTSZ
 40
0.0
  9
$DIMTOL
 70
     0
  9
$DIMLIM
 70
     0
  9
$DIMTIH
 70
     0
  9
$DIMTOH
 70
     0
  9
$DIMSE1
 70
     0
  9
$DIMSE2
 70
     0
  9
$DIMTAD
 70
     1
  9
$DIMZIN
 70
     8
  9
$DIMBLK
  1
OPEN30
  9
$DIMASO
 70
     1
  9
$DIMSHO
 70
     1
  9
$DIMPOST
  1

  9
$DIMAPOST
  1

  9
$DIMALT
 70
     0
  9
$DIMALTD
 70
     4
  9
$DIMALTF
 40
0.04
  9
$DIMLFAC
 40
1.0
  9
$DIMTOFL
 70
     1
  9
$DIMTVP
 40
0.0
  9
$DIMTIX
 70
     0
  9
$DIMSOXD
 70
     0
  9
$DIMSAH
 70
     0
  9
$DIMBLK1
  1

  9
$DIMBLK2
  1

  9
$DIMSTYLE
  2
STANDARD_WS
  9
$DIMCLRD
 70
     0
  9
$DIMCLRE
 70
     0
  9
$DIMCLRT
 70
     0
  9
$DIMTFAC
 40
0.5
  9
$DIMGAP
 40
0.63
  9
$DIMJUST
 70
     0
  9
$DIMSD1
 70
     0
  9
$DIMSD2
 70
     0
  9
$DIMTOLJ
 70
     1
  9
$DIMTZIN
 70
     8
  9
$DIMALTZ
 70
     0
  9
$DIMALTTZ
 70
     0
  9
$DIMUPT
 70
     0
  9
$DIMDEC
 70
     0
  9
$DIMTDEC
 70
     0
  9
$DIMALTU
 70
     8
  9
$DIMALTTD
 70
     4
  9
$DIMTXSTY
  7
STYLE1
  9
$DIMAUNIT
 70
     0
  9
$DIMADEC
 70
     0
  9
$DIMALTRND
 40
0.0
  9
$DIMAZIN
 70
     0
  9
$DIMDSEP
 70
    46
  9
$DIMATFIT
 70
     3
  9
$DIMFRAC
 70
     0
  9
$DIMLDRBLK
  1
OPEN30
  9
$DIMLUNIT
 70
     2
  9
$DIMLWD
 70
    -2
  9
$DIMLWE
 70
    -2
  9
$DIMTMOVE
 70
     0
  9
$LUNITS
 70
     2
  9
$LUPREC
 70
     4
  9
$SKETCHINC
 40
1.0
  9
$FILLETRAD
 40
1.0
  9
$AUNITS
 70
     0
  9
$AUPREC
 70
     0
  9
$MENU
  1
acad
  9
$ELEVATION
 40
0.0
  9
$PELEVATION
 40
0.0
  9
$THICKNESS
 40
0.0
  9
$LIMCHECK
 70
     0
  9
$CHAMFERA
 40
10.0
  9
$CHAMFERB
 40
10.0
  9
$CHAMFERC
 40
20.0
  9
$CHAMFERD
 40
0.0
  9
$SKPOLY
 70
     0
  9
$TDCREATE
 40
2450995.462150231
  9
$TDUCREATE
 40
2450995.087150231
  9
$TDUPDATE
 40
2454543.714049294
  9
$TDUUPDATE
 40
2454543.339049294
  9
$TDINDWG
 40
3.9480748264
  9
$TDUSRTIMER
 40
3.9480693750
  9
$USRTIMER
 70
     1
  9
$ANGBASE
 50
0.0
  9
$ANGDIR
 70
     0
  9
$PDMODE
 70
     0
  9
$PDSIZE
 40
0.0
  9
$PLINEWID
 40
10.0
  9
$SPLFRAME
 70
     0
  9
$SPLINETYPE
 70
     6
  9
$SPLINESEGS
 70
     8
  9
$HANDSEED
  5
B91
  9
$SURFTAB1
 70
     6
  9
$SURFTAB2
 70
     6
  9
$SURFTYPE
 70
     6
  9
$SURFU
 70
     6
  9
$SURFV
 70
     6
  9
$UCSBASE
  2

  9
$UCSNAME
  2

  9
$UCSORG
 10
0.0
 20
0.0
 30
0.0
  9
$UCSXDIR
 10
1.0
 20
0.0
 30
0.0
  9
$UCSYDIR
 10
0.0
 20
1.0
 30
0.0
  9
$UCSORTHOREF
  2

  9
$UCSORTHOVIEW
 70
     0
  9
$UCSORGTOP
 10
0.0
 20
0.0
 30
0.0
  9
$UCSORGBOTTOM
 10
0.0
 20
0.0
 30
0.0
  9
$UCSORGLEFT
 10
0.0
 20
0.0
 30
0.0
  9
$UCSORGRIGHT
 10
0.0
 20
0.0
 30
0.0
  9
$UCSORGFRONT
 10
0.0
 20
0.0
 30
0.0
  9
$UCSORGBACK
 10
0.0
 20
0.0
 30
0.0
  9
$PUCSBASE
  2

  9
$PUCSNAME
  2

  9
$PUCSORG
 10
0.0
 20
0.0
 30
0.0
  9
$PUCSXDIR
 10
1.0
 20
0.0
 30
0.0
  9
$PUCSYDIR
 10
0.0
 20
1.0
 30
0.0
  9
$PUCSORTHOREF
  2

  9
$PUCSORTHOVIEW
 70
     0
  9
$PUCSORGTOP
 10
0.0
 20
0.0
 30
0.0
  9
$PUCSORGBOTTOM
 10
0.0
 20
0.0
 30
0.0
  9
$PUCSORGLEFT
 10
0.0
 20
0.0
 30
0.0
  9
$PUCSORGRIGHT
 10
0.0
 20
0.0
 30
0.0
  9
$PUCSORGFRONT
 10
0.0
 20
0.0
 30
0.0
  9
$PUCSORGBACK
 10
0.0
 20
0.0
 30
0.0
  9
$USERI1
 70
     0
  9
$USERI2
 70
     0
  9
$USERI3
 70
     0
  9
$USERI4
 70
     0
  9
$USERI5
 70
     0
  9
$USERR1
 40
0.0
  9
$USERR2
 40
0.0
  9
$USERR3
 40
0.0
  9
$USERR4
 40
0.0
  9
$USERR5
 40
0.0
  9
$WORLDVIEW
 70
     1
  9
$SHADEDGE
 70
     3
  9
$SHADEDIF
 70
    70
  9
$TILEMODE
 70
     1
  9
$MAXACTVP
 70
    48
  9
$PINSBASE
 10
0.0
 20
0.0
 30
0.0
  9
$PLIMCHECK
 70
     0
  9
$PEXTMIN
 10
1.000000000000000E+20
 20
1.000000000000000E+20
 30
1.000000000000000E+20
  9
$PEXTMAX
 10
-1.000000000000000E+20
 20
-1.000000000000000E+20
 30
-1.000000000000000E+20
  9
$PLIMMIN
 10
0.0
 20
0.0
  9
$PLIMMAX
 10
420.0
 20
297.0
  9
$UNITMODE
 70
     0
  9
$VISRETAIN
 70
     1
  9
$PLINEGEN
 70
     0
  9
$PSLTSCALE
 70
     1
  9
$TREEDEPTH
 70
  3020
  9
$CMLSTYLE
  2
STANDARD
  9
$CMLJUST
 70
     0
  9
$CMLSCALE
 40
20.0
  9
$PROXYGRAPHICS
 70
     1
  9
$MEASUREMENT
 70
     1
  9
$CELWEIGHT
370
    -1
  9
$ENDCAPS
280
     0
  9
$JOINSTYLE
280
     0
  9
$LWDISPLAY
290
     0
  9
$INSUNITS
 70
     0
  9
$HYPERLINKBASE
  1

  9
$STYLESHEET
  1

  9
$XEDIT
290
     1
  9
$CEPSNTYPE
380
     0
  9
$PSTYLEMODE
290
     1
  9
$FINGERPRINTGUID
  2
{12426522-B208-11D3-A790-004026173390}
  9
$VERSIONGUID
  2
{87DC567C-8420-4440-B1BB-9A2279560D25}
  9
$EXTNAMES
290
     1
  9
$PSVPSCALE
 40
0.0
  9
$OLESTARTUP
290
     0
  0
ENDSEC
  0
SECTION
  2
CLASSES
  0
CLASS
  1
DICTIONARYVAR
  2
AcDbDictionaryVar
  3
AutoCAD 2000
 90
    32768
280
     0
281
     0
  0
CLASS
  1
LWPOLYLINE
  2
AcDbPolyline
  3
AutoCAD 2000
 90
    32768
280
     0
281
     1
  0
CLASS
  1
OLE2FRAME
  2
AcDbOle2Frame
  3
AutoCAD 2000
 90
    32768
280
     0
281
     1
  0
CLASS
  1
HATCH
  2
AcDbHatch
  3
AutoCAD 2000
 90
    32768
280
     0
281
     1
  0
CLASS
  1
ACDBDICTIONARYWDFLT
  2
AcDbDictionaryWithDefault
  3
AutoCAD 2000
 90
        0
280
     0
281
     0
  0
CLASS
  1
ACDBPLACEHOLDER
  2
AcDbPlaceHolder
  3
AutoCAD 2000
 90
        0
280
     0
281
     0
  0
CLASS
  1
LAYOUT
  2
AcDbLayout
  3
AutoCAD 2000
 90
        0
280
     0
281
     0
  0
CLASS
  1
LONG_TRANSACTION
  2
AcDbLongTransaction
  3
AutoCAD 2000
 90
    32768
280
     0
281
     0
  0
CLASS
  1
LWPOLYLINE
  2
AcDbPolyline
  3
AutoCAD 2000
 90
    32768
280
     0
281
     1
  0
CLASS
  1
HATCH
  2
AcDbHatch
  3
AutoCAD 2000
 90
    32768
280
     0
281
     1
  0
CLASS
  1
XRECORD
  2
AcDbXrecord
  3
AutoCAD 2000
 90
    32768
280
     0
281
     0
  0
CLASS
  1
LONG_TRANSACTION
  2
AcDbLongTransaction
  3
AutoCAD 2000
 90
    32768
280
     0
281
     0
  0
CLASS
  1
LWPOLYLINE
  2
AcDbPolyline
  3
AutoCAD 2000
 90
    32768
280
     0
281
     1
  0
CLASS
  1
HATCH
  2
AcDbHatch
  3
AutoCAD 2000
 90
    32768
280
     0
281
     1
  0
CLASS
  1
XRECORD
  2
AcDbXrecord
  3
AutoCAD 2000
 90
    32768
280
     0
281
     0
  0
CLASS
  1
LONG_TRANSACTION
  2
AcDbLongTransaction
  3
AutoCAD 2000
 90
    32768
280
     0
281
     0
  0
CLASS
  1
LWPOLYLINE
  2
AcDbPolyline
  3
AutoCAD 2000
 90
    32768
280
     0
281
     1
  0
CLASS
  1
HATCH
  2
AcDbHatch
  3
AutoCAD 2000
 90
    32768
280
     0
281
     1
  0
CLASS
  1
XRECORD
  2
AcDbXrecord
  3
AutoCAD 2000
 90
    32768
280
     0
281
     0
  0
CLASS
  1
LONG_TRANSACTION
  2
AcDbLongTransaction
  3
AutoCAD 2000
 90
    32768
280
     0
281
     0
  0
CLASS
  1
LWPOLYLINE
  2
AcDbPolyline
  3
AutoCAD 2000
 90
    32768
280
     0
281
     1
  0
CLASS
  1
HATCH
  2
AcDbHatch
  3
AutoCAD 2000
 90
    32768
280
     0
281
     1
  0
CLASS
  1
XRECORD
  2
AcDbXrecord
  3
AutoCAD 2000
 90
    32768
280
     0
281
     0
  0
CLASS
  1
LONG_TRANSACTION
  2
AcDbLongTransaction
  3
AutoCAD 2000
 90
    32768
280
     0
281
     0
  0
CLASS
  1
LWPOLYLINE
  2
AcDbPolyline
  3
AutoCAD 2000
 90
    32768
280
     0
281
     1
  0
CLASS
  1
HATCH
  2
AcDbHatch
  3
AutoCAD 2000
 90
    32768
280
     0
281
     1
  0
CLASS
  1
XRECORD
  2
AcDbXrecord
  3
AutoCAD 2000
 90
    32768
280
     0
281
     0
  0
CLASS
  1
LONG_TRANSACTION
  2
AcDbLongTransaction
  3
AutoCAD 2000
 90
    32768
280
     0
281
     0
  0
CLASS
  1
LWPOLYLINE
  2
AcDbPolyline
  3
AutoCAD 2000
 90
    32768
280
     0
281
     1
  0
CLASS
  1
HATCH
  2
AcDbHatch
  3
AutoCAD 2000
 90
    32768
280
     0
281
     1
  0
CLASS
  1
XRECORD
  2
AcDbXrecord
  3
AutoCAD 2000
 90
    32768
280
     0
281
     0
  0
CLASS
  1
LONG_TRANSACTION
  2
AcDbLongTransaction
  3
AutoCAD 2000
 90
    32768
280
     0
281
     0
  0
CLASS
  1
LWPOLYLINE
  2
AcDbPolyline
  3
AutoCAD 2000
 90
    32768
280
     0
281
     1
  0
CLASS
  1
HATCH
  2
AcDbHatch
  3
AutoCAD 2000
 90
    32768
280
     0
281
     1
  0
CLASS
  1
XRECORD
  2
AcDbXrecord
  3
AutoCAD 2000
 90
    32768
280
     0
281
     0
  0
CLASS
  1
LONG_TRANSACTION
  2
AcDbLongTransaction
  3
AutoCAD 2000
 90
    32768
280
     0
281
     0
  0
CLASS
  1
LWPOLYLINE
  2
AcDbPolyline
  3
AutoCAD 2000
 90
    32768
280
     0
281
     1
  0
CLASS
  1
HATCH
  2
AcDbHatch
  3
AutoCAD 2000
 90
    32768
280
     0
281
     1
  0
CLASS
  1
XRECORD
  2
AcDbXrecord
  3
AutoCAD 2000
 90
    32768
280
     0
281
     0
  0
ENDSEC
  0
SECTION
  2
TABLES
  0
TABLE
  2
VPORT
  5
1E
330
0
100
AcDbSymbolTable
 70
     2
  0
VPORT
  5
B90
330
1E
100
AcDbSymbolTableRecord
100
AcDbViewportTableRecord
  2
*Active
 70
     0
 10
0.0
 20
0.0
 11
1.0
 21
1.0
 12
480.1927918836042
 22
335.6677914643817
 13
0.0
 23
0.0
 14
1.0
 24
1.0
 15
2.0
 25
2.0
 16
0.0
 26
0.0
 36
1.0
 17
0.0
 27
0.0
 37
0.0
 40
632.1363583315525
 41
1.709909909909909
 42
50.0
 43
0.0
 44
0.0
 50
0.0
 51
0.0
 71
     0
 72
   100
 73
     1
 74
     1
 75
     0
 76
     0
 77
     0
 78
     0
281
     0
 65
     1
110
0.0
120
0.0
130
0.0
111
1.0
121
0.0
131
0.0
112
0.0
122
1.0
132
0.0
 79
     0
146
0.0
  0
ENDTAB
  0
TABLE
  2
LTYPE
  5
19
330
0
100
AcDbSymbolTable
 70
     3
  0
LTYPE
  5
1A
330
19
100
AcDbSymbolTableRecord
100
AcDbLinetypeTableRecord
  2
BYBLOCK
 70
     0
  3

 72
    65
 73
     0
 40
0.0
  0
LTYPE
  5
1B
330
19
100
AcDbSymbolTableRecord
100
AcDbLinetypeTableRecord
  2
BYLAYER
 70
     0
  3

 72
    65
 73
     0
 40
0.0
  0
LTYPE
  5
A
330
19
100
AcDbSymbolTableRecord
100
AcDbLinetypeTableRecord
  2
CONTINUOUS
 70
     0
  3
Solid line
 72
    65
 73
     0
 40
0.0
  0
LTYPE
  5
68
330
19
100
AcDbSymbolTableRecord
100
AcDbLinetypeTableRecord
  2
DASHED2
 70
     0
  3
Dashed (.5x) _ _ _ _ _ _ _ _ _ _ _ _ _ _ _ _ _
 72
    65
 73
     2
 40
9.529999999999999
 49
6.349999999999998
 74
     0
 49
-3.18
 74
     0
  0
LTYPE
  5
76
330
19
100
AcDbSymbolTableRecord
100
AcDbLinetypeTableRecord
  2
CENTER
 70
     0
  3
Center ____ _ ____ _ ____ _ ____ _ ____ _ ____
 72
    65
 73
     4
 40
50.8
 49
31.75
 74
     0
 49
-6.349999999999998
 74
     0
 49
6.349999999999998
 74
     0
 49
-6.349999999999998
 74
     0
  0
ENDTAB
  0
TABLE
  2
LAYER
  5
14
330
0
100
AcDbSymbolTable
 70
     3
  0
LAYER
  5
6
330
14
100
AcDbSymbolTableRecord
100
AcDbLayerTableRecord
  2
0
 70
     0
 62
     7
  6
CONTINUOUS
370
    -3
390
7
  0
LAYER
  5
3F
330
14
100
AcDbSymbolTableRecord
100
AcDbLayerTableRecord
  2
DEFPOINTS
 70
     0
 62
     7
  6
CONTINUOUS
290
     0
370
    -3
390
7
  0
LAYER
  5
26
330
14
100
AcDbSymbolTableRecord
100
AcDbLayerTableRecord
  2
画層1
 70
     0
 62
     7
  6
CONTINUOUS
370
    -3
390
7
  0
ENDTAB
  0
TABLE
  2
STYLE
  5
15
330
0
100
AcDbSymbolTable
 70
     2
  0
STYLE
  5
16
330
15
100
AcDbSymbolTableRecord
100
AcDbTextStyleTableRecord
  2
STANDARD
 70
     0
 40
2.5
 41
1.0
 50
0.0
 71
     0
 42
1.5
  3
MS PMincho.ttf
  4

1001
ACAD
1000
MS PMincho
1071
    32786
  0
STYLE
  5
27
330
15
100
AcDbSymbolTableRecord
100
AcDbTextStyleTableRecord
  2
STYLE1
 70
     0
 40
2.5
 41
1.0
 50
0.0
 71
     0
 42
2.5
  3
MS Gothic.ttf
  4

1001
ACAD
1000
MS Gothic
1071
    32817
  0
ENDTAB
  0
TABLE
  2
VIEW
  5
1C
330
0
100
AcDbSymbolTable
 70
     0
  0
ENDTAB
  0
TABLE
  2
UCS
  5
1D
330
0
100
AcDbSymbolTable
 70
     0
  0
ENDTAB
  0
TABLE
  2
APPID
  5
20
330
0
100
AcDbSymbolTable
 70
     1
  0
APPID
  5
17
330
20
100
AcDbSymbolTableRecord
100
AcDbRegAppTableRecord
  2
ACAD
 70
     0
  0
ENDTAB
  0
TABLE
  2
DIMSTYLE
  5
21
330
0
100
AcDbSymbolTable
 70
     1
100
AcDbDimStyleTable
 71
     0
  0
DIMSTYLE
105
35
102
{ACAD_REACTORS
330
A86
330
A93
330
AA0
330
AAD
330
AD0
330
ADE
330
B14
102
}
330
21
100
AcDbSymbolTableRecord
100
AcDbDimStyleTableRecord
  2
STANDARD_WS
 70
     0
 41
1.5
 42
0.63
 43
3.75
 44
1.25
 73
     0
 74
     0
 77
     1
 78
     8
140
2.5
141
2.5
143
0.04
147
0.63
171
     4
172
     1
173
     1
273
     8
274
     4
340
16
341
2E
343
2E
344
2E
  0
ENDTAB
  0
TABLE
  2
BLOCK_RECORD
  5
1
330
0
100
AcDbSymbolTable
 70
    11
  0
BLOCK_RECORD
  5
2
102
{ACAD_XDICTIONARY
360
3
102
}
330
1
100
AcDbSymbolTableRecord
100
AcDbBlockTableRecord
  2
*MODEL_SPACE
340
560
  0
BLOCK_RECORD
  5
E
102
{ACAD_XDICTIONARY
360
F
102
}
330
1
100
AcDbSymbolTableRecord
100
AcDbBlockTableRecord
  2
*PAPER_SPACE
340
561
  0
BLOCK_RECORD
  5
2E
330
1
100
AcDbSymbolTableRecord
100
AcDbBlockTableRecord
  2
_OPEN
340
0
  0
BLOCK_RECORD
  5
28
330
1
100
AcDbSymbolTableRecord
100
AcDbBlockTableRecord
  2
_OPEN30
340
0
102
{BLKREFS
331
B50
331
B51
331
B59
331
B5A
331
B62
331
B63
331
B6B
331
B6C
331
AC8
331
AC9
331
B74
331
B75
331
B7D
331
B7E
331
B86
331
B87
102
}
  0
BLOCK_RECORD
  5
121
330
1
100
AcDbSymbolTableRecord
100
AcDbBlockTableRecord
  2
_DOTSMALL
340
0
  0
BLOCK_RECORD
  5
A87
330
1
100
AcDbSymbolTableRecord
100
AcDbBlockTableRecord
  2
*D3
340
0
  0
BLOCK_RECORD
  5
A94
330
1
100
AcDbSymbolTableRecord
100
AcDbBlockTableRecord
  2
*D4
340
0
  0
BLOCK_RECORD
  5
AA1
330
1
100
AcDbSymbolTableRecord
100
AcDbBlockTableRecord
  2
*D5
340
0
  0
BLOCK_RECORD
  5
AAE
330
1
100
AcDbSymbolTableRecord
100
AcDbBlockTableRecord
  2
*D6
340
0
  0
BLOCK_RECORD
  5
AD1
330
1
100
AcDbSymbolTableRecord
100
AcDbBlockTableRecord
  2
*D8
340
0
  0
BLOCK_RECORD
  5
ADF
330
1
100
AcDbSymbolTableRecord
100
AcDbBlockTableRecord
  2
*D9
340
0
  0
BLOCK_RECORD
  5
B15
330
1
100
AcDbSymbolTableRecord
100
AcDbBlockTableRecord
  2
*D10
340
0
  0
ENDTAB
  0
ENDSEC
  0
SECTION
  2
BLOCKS
  0
BLOCK
  5
5
330
2
100
AcDbEntity
  8
0
100
AcDbBlockBegin
  2
*MODEL_SPACE
 70
     0
 10
0.0
 20
0.0
 30
0.0
  3
*MODEL_SPACE
  1

  0
ENDBLK
  5
B
330
2
100
AcDbEntity
  8
0
100
AcDbBlockEnd
  0
BLOCK
  5
11
330
E
100
AcDbEntity
 67
     1
  8
0
100
AcDbBlockBegin
  2
*PAPER_SPACE
 70
     0
 10
0.0
 20
0.0
 30
0.0
  3
*PAPER_SPACE
  1

  0
ENDBLK
  5
12
330
E
100
AcDbEntity
 67
     1
  8
0
100
AcDbBlockEnd
  0
BLOCK
  5
32
330
2E
100
AcDbEntity
  8
0
100
AcDbBlockBegin
  2
_OPEN
 70
     0
 10
0.0
 20
0.0
 30
0.0
  3
_OPEN
  1

  0
LINE
  5
2F
330
2E
100
AcDbEntity
  8
0
  6
ByBlock
 62
     0
100
AcDbLine
 10
-1.0
 20
0.17
 30
0.0
 11
0.0
 21
0.0
 31
0.0
  0
LINE
  5
30
330
2E
100
AcDbEntity
  8
0
  6
ByBlock
 62
     0
100
AcDbLine
 10
0.0
 20
0.0
 30
0.0
 11
-1.0
 21
-0.17
 31
0.0
  0
LINE
  5
31
330
2E
100
AcDbEntity
  8
0
  6
ByBlock
 62
     0
100
AcDbLine
 10
0.0
 20
0.0
 30
0.0
 11
-1.0
 21
0.0
 31
0.0
  0
ENDBLK
  5
33
330
2E
100
AcDbEntity
  8
0
100
AcDbBlockEnd
  0
BLOCK
  5
2C
330
28
100
AcDbEntity
  8
0
100
AcDbBlockBegin
  2
_OPEN30
 70
     0
 10
0.0
 20
0.0
 30
0.0
  3
_OPEN30
  1

  0
LINE
  5
29
330
28
100
AcDbEntity
  8
0
  6
ByBlock
 62
     0
100
AcDbLine
 10
-1.0
 20
0.27
 30
0.0
 11
0.0
 21
0.0
 31
0.0
  0
LINE
  5
2A
330
28
100
AcDbEntity
  8
0
  6
ByBlock
 62
     0
100
AcDbLine
 10
0.0
 20
0.0
 30
0.0
 11
-1.0
 21
-0.27
 31
0.0
  0
LINE
  5
2B
330
28
100
AcDbEntity
  8
0
  6
ByBlock
 62
     0
100
AcDbLine
 10
0.0
 20
0.0
 30
0.0
 11
-1.0
 21
0.0
 31
0.0
  0
ENDBLK
  5
2D
330
28
100
AcDbEntity
  8
0
100
AcDbBlockEnd
  0
BLOCK
  5
123
330
121
100
AcDbEntity
  8
0
 62
     1
100
AcDbBlockBegin
  2
_DOTSMALL
 70
     0
 10
0.0
 20
0.0
 30
0.0
  3
_DOTSMALL
  1

  0
LWPOLYLINE
  5
122
330
121
100
AcDbEntity
  8
画層1
 62
     0
100
AcDbPolyline
 90
        2
 70
     1
 43
0.5
 10
-0.06
 20
0.0
 42
1.0
 10
0.06
 20
0.0
 42
1.0
  0
ENDBLK
  5
124
330
121
100
AcDbEntity
  8
0
 62
     1
100
AcDbBlockEnd
  0
BLOCK
  5
A91
330
A87
100
AcDbEntity
  8
0
100
AcDbBlockBegin
  2
*D3
 70
     1
 10
0.0
 20
0.0
 30
0.0
  3
*D3
  1

  0
LINE
  5
B4D
330
A87
100
AcDbEntity
  8
画層1
 62
     0
100
AcDbLine
 10
90.11110481568811
 20
345.4250267653982
 30
0.0
 11
90.11110481568811
 21
390.6961538023206
 31
0.0
  0
LINE
  5
B4E
330
A87
100
AcDbEntity
  8
画層1
 62
     0
100
AcDbLine
 10
158.1111048156881
 20
345.4250267653982
 30
0.0
 11
158.1111048156881
 21
390.6961538023206
 31
0.0
  0
LINE
  5
B4F
330
A87
100
AcDbEntity
  8
画層1
 62
     0
100
AcDbLine
 10
91.61110481568812
 20
389.4461538023206
 30
0.0
 11
156.6111048156881
 21
389.4461538023206
 31
0.0
  0
INSERT
  5
B50
330
A87
100
AcDbEntity
  8
画層1
 62
     0
100
AcDbBlockReference
  2
_OPEN30
 10
90.11110481568811
 20
389.4461538023206
 30
0.0
 41
1.5
 42
1.5
 43
1.5
 50
180.0
  0
INSERT
  5
B51
330
A87
100
AcDbEntity
  8
画層1
 62
     0
100
AcDbBlockReference
  2
_OPEN30
 10
158.1111048156881
 20
389.4461538023206
 30
0.0
 41
1.5
 42
1.5
 43
1.5
  0
MTEXT
  5
B52
330
A87
100
AcDbEntity
  8
画層1
 62
     0
100
AcDbMText
 10
124.1111048156881
 20
391.3261538023206
 30
0.0
 40
2.5
 41
0.0
 71
     5
 72
     1
  1
\A1;68
  7
STYLE1
 73
     1
 44
1.0
  0
POINT
  5
B53
330
A87
100
AcDbEntity
  8
DEFPOINTS
 62
     0
100
AcDbPoint
 10
90.11110481568811
 20
344.7950267653982
 30
0.0
  0
POINT
  5
B54
330
A87
100
AcDbEntity
  8
DEFPOINTS
 62
     0
100
AcDbPoint
 10
158.1111048156881
 20
344.7950267653982
 30
0.0
  0
POINT
  5
B55
330
A87
100
AcDbEntity
  8
DEFPOINTS
 62
     0
100
AcDbPoint
 10
158.1111048156881
 20
389.4461538023206
 30
0.0
  0
ENDBLK
  5
A92
330
A87
100
AcDbEntity
  8
0
100
AcDbBlockEnd
  0
BLOCK
  5
A9E
330
A94
100
AcDbEntity
  8
0
100
AcDbBlockBegin
  2
*D4
 70
     1
 10
0.0
 20
0.0
 30
0.0
  3
*D4
  1

  0
LINE
  5
B56
330
A94
100
AcDbEntity
  8
画層1
 62
     0
100
AcDbLine
 10
124.7411048156881
 20
373.7950267653982
 30
0.0
 11
167.1024942750919
 21
373.7950267653981
 31
0.0
  0
LINE
  5
B57
330
A94
100
AcDbEntity
  8
画層1
 62
     0
100
AcDbLine
 10
124.7411048156881
 20
213.7950267653982
 30
0.0
 11
167.1024942750918
 21
213.7950267653982
 31
0.0
  0
LINE
  5
B58
330
A94
100
AcDbEntity
  8
画層1
 62
     0
100
AcDbLine
 10
165.8524942750919
 20
372.2950267653981
 30
0.0
 11
165.8524942750918
 21
215.2950267653982
 31
0.0
  0
INSERT
  5
B59
330
A94
100
AcDbEntity
  8
画層1
 62
     0
100
AcDbBlockReference
  2
_OPEN30
 10
165.8524942750919
 20
373.7950267653981
 30
0.0
 41
1.5
 42
1.5
 43
1.5
 50
90.0
  0
INSERT
  5
B5A
330
A94
100
AcDbEntity
  8
画層1
 62
     0
100
AcDbBlockReference
  2
_OPEN30
 10
165.8524942750918
 20
213.7950267653982
 30
0.0
 41
1.5
 42
1.5
 43
1.5
 50
270.0
  0
MTEXT
  5
B5B
330
A94
100
AcDbEntity
  8
画層1
 62
     0
100
AcDbMText
 10
163.9724942750918
 20
293.7950267653982
 30
0.0
 40
2.5
 41
0.0
 71
     5
 72
     1
  1
\A1;160
  7
STYLE1
 11
0.0000000000000001
 21
1.0
 31
0.0
 73
     1
 44
1.0
  0
POINT
  5
B5C
330
A94
100
AcDbEntity
  8
DEFPOINTS
 62
     0
100
AcDbPoint
 10
124.1111048156881
 20
373.7950267653982
 30
0.0
  0
POINT
  5
B5D
330
A94
100
AcDbEntity
  8
DEFPOINTS
 62
     0
100
AcDbPoint
 10
124.1111048156881
 20
213.7950267653982
 30
0.0
  0
POINT
  5
B5E
330
A94
100
AcDbEntity
  8
DEFPOINTS
 62
     0
100
AcDbPoint
 10
165.8524942750918
 20
213.7950267653982
 30
0.0
  0
ENDBLK
  5
A9F
330
A94
100
AcDbEntity
  8
0
100
AcDbBlockEnd
  0
BLOCK
  5
AAB
330
AA1
100
AcDbEntity
  8
0
100
AcDbBlockBegin
  2
*D5
 70
     1
 10
0.0
 20
0.0
 30
0.0
  3
*D5
  1

  0
LINE
  5
B5F
330
AA1
100
AcDbEntity
  8
画層1
 62
     0
100
AcDbLine
 10
150.7411048156881
 20
378.7950267653982
 30
0.0
 11
172.4465896037145
 21
378.7950267653982
 31
0.0
  0
LINE
  5
B60
330
AA1
100
AcDbEntity
  8
画層1
 62
     0
100
AcDbLine
 10
150.7411048156881
 20
208.7950267653982
 30
0.0
 11
172.4465896037145
 21
208.7950267653982
 31
0.0
  0
LINE
  5
B61
330
AA1
100
AcDbEntity
  8
画層1
 62
     0
100
AcDbLine
 10
171.1965896037145
 20
377.2950267653982
 30
0.0
 11
171.1965896037145
 21
210.2950267653982
 31
0.0
  0
INSERT
  5
B62
330
AA1
100
AcDbEntity
  8
画層1
 62
     0
100
AcDbBlockReference
  2
_OPEN30
 10
171.1965896037145
 20
378.7950267653982
 30
0.0
 41
1.5
 42
1.5
 43
1.5
 50
90.0
  0
INSERT
  5
B63
330
AA1
100
AcDbEntity
  8
画層1
 62
     0
100
AcDbBlockReference
  2
_OPEN30
 10
171.1965896037145
 20
208.7950267653982
 30
0.0
 41
1.5
 42
1.5
 43
1.5
 50
270.0
  0
MTEXT
  5
B64
330
AA1
100
AcDbEntity
  8
画層1
 62
     0
100
AcDbMText
 10
169.3165896037145
 20
293.7950267653982
 30
0.0
 40
2.5
 41
0.0
 71
     5
 72
     1
  1
\A1;170
  7
STYLE1
 11
0.0000000000000001
 21
1.0
 31
0.0
 73
     1
 44
1.0
  0
POINT
  5
B65
330
AA1
100
AcDbEntity
  8
DEFPOINTS
 62
     0
100
AcDbPoint
 10
150.1111048156881
 20
378.7950267653982
 30
0.0
  0
POINT
  5
B66
330
AA1
100
AcDbEntity
  8
DEFPOINTS
 62
     0
100
AcDbPoint
 10
150.1111048156881
 20
208.7950267653982
 30
0.0
  0
POINT
  5
B67
330
AA1
100
AcDbEntity
  8
DEFPOINTS
 62
     0
100
AcDbPoint
 10
171.1965896037145
 20
208.7950267653982
 30
0.0
  0
ENDBLK
  5
AAC
330
AA1
100
AcDbEntity
  8
0
100
AcDbBlockEnd
  0
BLOCK
  5
AB8
330
AAE
100
AcDbEntity
  8
0
100
AcDbBlockBegin
  2
*D6
 70
     1
 10
0.0
 20
0.0
 30
0.0
  3
*D6
  1

  0
LINE
  5
B68
330
AAE
100
AcDbEntity
  8
画層1
 62
     0
100
AcDbLine
 10
144.2411048156881
 20
228.7950267653982
 30
0.0
 11
159.2412244611441
 21
228.7950267653982
 31
0.0
  0
LINE
  5
B69
330
AAE
100
AcDbEntity
  8
画層1
 62
     0
100
AcDbLine
 10
124.7411048156881
 20
213.7950267653982
 30
0.0
 11
159.2412244611441
 21
213.7950267653982
 31
0.0
  0
LINE
  5
B6A
330
AAE
100
AcDbEntity
  8
画層1
 62
     0
100
AcDbLine
 10
157.9912244611441
 20
227.2950267653982
 30
0.0
 11
157.9912244611441
 21
215.2950267653982
 31
0.0
  0
INSERT
  5
B6B
330
AAE
100
AcDbEntity
  8
画層1
 62
     0
100
AcDbBlockReference
  2
_OPEN30
 10
157.9912244611441
 20
228.7950267653982
 30
0.0
 41
1.5
 42
1.5
 43
1.5
 50
90.0
  0
INSERT
  5
B6C
330
AAE
100
AcDbEntity
  8
画層1
 62
     0
100
AcDbBlockReference
  2
_OPEN30
 10
157.9912244611441
 20
213.7950267653982
 30
0.0
 41
1.5
 42
1.5
 43
1.5
 50
270.0
  0
MTEXT
  5
B6D
330
AAE
100
AcDbEntity
  8
画層1
 62
     0
100
AcDbMText
 10
156.1112244611441
 20
221.2950267653983
 30
0.0
 40
2.5
 41
0.0
 71
     5
 72
     1
  1
\A1;15
  7
STYLE1
 11
0.0000000000000001
 21
1.0
 31
0.0
 73
     1
 44
1.0
  0
POINT
  5
B6E
330
AAE
100
AcDbEntity
  8
DEFPOINTS
 62
     0
100
AcDbPoint
 10
143.6111048156881
 20
228.7950267653982
 30
0.0
  0
POINT
  5
B6F
330
AAE
100
AcDbEntity
  8
DEFPOINTS
 62
     0
100
AcDbPoint
 10
124.1111048156881
 20
213.7950267653982
 30
0.0
  0
POINT
  5
B70
330
AAE
100
AcDbEntity
  8
DEFPOINTS
 62
     0
100
AcDbPoint
 10
157.9912244611441
 20
213.7950267653982
 30
0.0
  0
ENDBLK
  5
AB9
330
AAE
100
AcDbEntity
  8
0
100
AcDbBlockEnd
  0
BLOCK
  5
ADB
330
AD1
100
AcDbEntity
  8
0
100
AcDbBlockBegin
  2
*D8
 70
     1
 10
0.0
 20
0.0
 30
0.0
  3
*D8
  1

  0
LINE
  5
B71
330
AD1
100
AcDbEntity
  8
画層1
 62
     0
100
AcDbLine
 10
117.6406677876839
 20
228.219404350105
 30
0.0
 11
117.6406677876839
 21
191.7275110255868
 31
0.0
  0
LINE
  5
B72
330
AD1
100
AcDbEntity
  8
画層1
 62
     0
100
AcDbLine
 10
130.6111048156881
 20
228.1650267653982
 30
0.0
 11
130.6111048156881
 21
191.7275110255868
 31
0.0
  0
LINE
  5
B73
330
AD1
100
AcDbEntity
  8
画層1
 62
     0
100
AcDbLine
 10
119.1406677876839
 20
192.9775110255868
 30
0.0
 11
129.1111048156881
 21
192.9775110255868
 31
0.0
  0
INSERT
  5
B74
330
AD1
100
AcDbEntity
  8
画層1
 62
     0
100
AcDbBlockReference
  2
_OPEN30
 10
117.6406677876839
 20
192.9775110255868
 30
0.0
 41
1.5
 42
1.5
 43
1.5
 50
180.0
  0
INSERT
  5
B75
330
AD1
100
AcDbEntity
  8
画層1
 62
     0
100
AcDbBlockReference
  2
_OPEN30
 10
130.6111048156881
 20
192.9775110255868
 30
0.0
 41
1.5
 42
1.5
 43
1.5
  0
MTEXT
  5
B76
330
AD1
100
AcDbEntity
  8
画層1
 62
     0
100
AcDbMText
 10
124.125886301686
 20
194.8575110255868
 30
0.0
 40
2.5
 41
0.0
 71
     5
 72
     1
  1
\A1;13
  7
STYLE1
 73
     1
 44
1.0
  0
POINT
  5
B77
330
AD1
100
AcDbEntity
  8
DEFPOINTS
 62
     0
100
AcDbPoint
 10
117.6406677876839
 20
228.849404350105
 30
0.0
  0
POINT
  5
B78
330
AD1
100
AcDbEntity
  8
DEFPOINTS
 62
     0
100
AcDbPoint
 10
130.6111048156881
 20
228.7950267653982
 30
0.0
  0
POINT
  5
B79
330
AD1
100
AcDbEntity
  8
DEFPOINTS
 62
     0
100
AcDbPoint
 10
130.6111048156881
 20
192.9775110255868
 30
0.0
  0
ENDBLK
  5
ADC
330
AD1
100
AcDbEntity
  8
0
100
AcDbBlockEnd
  0
BLOCK
  5
AEA
330
ADF
100
AcDbEntity
  8
0
100
AcDbBlockBegin
  2
*D9
 70
     1
 10
0.0
 20
0.0
 30
0.0
  3
*D9
  1

  0
LINE
  5
B7A
330
ADF
100
AcDbEntity
  8
画層1
 62
     0
100
AcDbLine
 10
121.3611048156881
 20
208.1650267653982
 30
0.0
 11
121.3611048156881
 21
197.9758158952172
 31
0.0
  0
LINE
  5
B7B
330
ADF
100
AcDbEntity
  8
画層1
 62
     0
100
AcDbLine
 10
126.8611048156881
 20
208.1650267653982
 30
0.0
 11
126.8611048156881
 21
197.9758158952172
 31
0.0
  0
LINE
  5
B7C
330
ADF
100
AcDbEntity
  8
画層1
 62
     0
100
AcDbLine
 10
122.8611048156881
 20
199.2258158952172
 30
0.0
 11
125.3611048156881
 21
199.2258158952172
 31
0.0
  0
INSERT
  5
B7D
330
ADF
100
AcDbEntity
  8
画層1
 62
     0
100
AcDbBlockReference
  2
_OPEN30
 10
121.3611048156881
 20
199.2258158952172
 30
0.0
 41
1.5
 42
1.5
 43
1.5
 50
180.0
  0
INSERT
  5
B7E
330
ADF
100
AcDbEntity
  8
画層1
 62
     0
100
AcDbBlockReference
  2
_OPEN30
 10
126.8611048156881
 20
199.2258158952172
 30
0.0
 41
1.5
 42
1.5
 43
1.5
  0
MTEXT
  5
B7F
330
ADF
100
AcDbEntity
  8
画層1
 62
     0
100
AcDbMText
 10
124.1111048156881
 20
201.1058158952172
 30
0.0
 40
2.5
 41
0.0
 71
     5
 72
     1
  1
\A1;5.5
  7
STYLE1
 73
     1
 44
1.0
  0
POINT
  5
B80
330
ADF
100
AcDbEntity
  8
DEFPOINTS
 62
     0
100
AcDbPoint
 10
121.3611048156881
 20
208.7950267653982
 30
0.0
  0
POINT
  5
B81
330
ADF
100
AcDbEntity
  8
DEFPOINTS
 62
     0
100
AcDbPoint
 10
126.8611048156881
 20
208.7950267653982
 30
0.0
  0
POINT
  5
B82
330
ADF
100
AcDbEntity
  8
DEFPOINTS
 62
     0
100
AcDbPoint
 10
126.8611048156881
 20
199.2258158952172
 30
0.0
  0
ENDBLK
  5
AEB
330
ADF
100
AcDbEntity
  8
0
100
AcDbBlockEnd
  0
BLOCK
  5
B1F
330
B15
100
AcDbEntity
  8
0
100
AcDbBlockBegin
  2
*D10
 70
     1
 10
0.0
 20
0.0
 30
0.0
  3
*D10
  1

  0
LINE
  5
B83
330
B15
100
AcDbEntity
  8
画層1
 62
     0
100
AcDbLine
 10
189.7111048156881
 20
367.9250267653982
 30
0.0
 11
189.7111048156881
 21
390.6961538023206
 31
0.0
  0
LINE
  5
B84
330
B15
100
AcDbEntity
  8
画層1
 62
     0
100
AcDbLine
 10
309.3111048156881
 20
379.4250267653982
 30
0.0
 11
309.3111048156881
 21
390.6961538023206
 31
0.0
  0
LINE
  5
B85
330
B15
100
AcDbEntity
  8
画層1
 62
     0
100
AcDbLine
 10
191.2111048156881
 20
389.4461538023206
 30
0.0
 11
307.811104815688
 21
389.4461538023206
 31
0.0
  0
INSERT
  5
B86
330
B15
100
AcDbEntity
  8
画層1
 62
     0
100
AcDbBlockReference
  2
_OPEN30
 10
189.7111048156881
 20
389.4461538023206
 30
0.0
 41
1.5
 42
1.5
 43
1.5
 50
180.0
  0
INSERT
  5
B87
330
B15
100
AcDbEntity
  8
画層1
 62
     0
100
AcDbBlockReference
  2
_OPEN30
 10
309.3111048156881
 20
389.4461538023206
 30
0.0
 41
1.5
 42
1.5
 43
1.5
  0
MTEXT
  5
B88
330
B15
100
AcDbEntity
  8
画層1
 62
     0
100
AcDbMText
 10
249.5111048156881
 20
391.3261538023206
 30
0.0
 40
2.5
 41
0.0
 71
     5
 72
     1
  1
\A1;120
  7
STYLE1
 73
     1
 44
1.0
  0
POINT
  5
B89
330
B15
100
AcDbEntity
  8
DEFPOINTS
 62
     0
100
AcDbPoint
 10
189.7111048156881
 20
367.2950267653982
 30
0.0
  0
POINT
  5
B8A
330
B15
100
AcDbEntity
  8
DEFPOINTS
 62
     0
100
AcDbPoint
 10
309.3111048156881
 20
378.7950267653982
 30
0.0
  0
POINT
  5
B8B
330
B15
100
AcDbEntity
  8
DEFPOINTS
 62
     0
100
AcDbPoint
 10
309.3111048156881
 20
389.4461538023206
 30
0.0
  0
ENDBLK
  5
B20
330
B15
100
AcDbEntity
  8
0
100
AcDbBlockEnd
  0
ENDSEC
  0
SECTION
  2
ENTITIES
  0
LINE
  5
657
330
2
100
AcDbEntity
  8
画層1
  6
CENTER
100
AcDbLine
 10
88.91110481568812
 20
293.7950267653982
 30
0.0
 11
160.1111048156881
 21
293.7950267653982
 31
0.0
  0
LINE
  5
658
330
2
100
AcDbEntity
  8
画層1
  6
CENTER
100
AcDbLine
 10
124.1111048156881
 20
203.7950267653982
 30
0.0
 11
124.1111048156881
 21
383.7950267653982
 31
0.0
  0
CIRCLE
  5
65A
330
2
100
AcDbEntity
  8
画層1
100
AcDbCircle
 10
124.1111048156881
 20
373.7950267653982
 30
0.0
 40
2.75
  0
LINE
  5
65E
330
2
100
AcDbEntity
  8
画層1
100
AcDbLine
 10
98.11110481568812
 20
378.7950267653982
 30
0.0
 11
150.1111048156881
 21
378.7950267653982
 31
0.0
  0
LINE
  5
65F
330
2
100
AcDbEntity
  8
画層1
100
AcDbLine
 10
98.11110481568812
 20
208.7950267653982
 30
0.0
 11
121.3611048156881
 21
208.7950267653982
 31
0.0
  0
LINE
  5
660
330
2
100
AcDbEntity
  8
画層1
100
AcDbLine
 10
96.11110481568813
 20
376.7950267653982
 30
0.0
 11
96.11110481568813
 21
370.7950267653982
 31
0.0
  0
LINE
  5
661
330
2
100
AcDbEntity
  8
画層1
100
AcDbLine
 10
152.1111048156881
 20
376.7950267653982
 30
0.0
 11
152.1111048156881
 21
370.7950267653982
 31
0.0
  0
ARC
  5
662
330
2
100
AcDbEntity
  8
画層1
100
AcDbCircle
 10
98.11110481568812
 20
376.7950267653982
 30
0.0
 40
2.0
100
AcDbArc
 50
90.0
 51
180.0
  0
ARC
  5
663
330
2
100
AcDbEntity
  8
画層1
100
AcDbCircle
 10
150.1111048156881
 20
376.7950267653982
 30
0.0
 40
2.0
100
AcDbArc
 50
0.0
 51
90.0
  0
LINE
  5
664
330
2
100
AcDbEntity
  8
画層1
100
AcDbLine
 10
96.11110481568813
 20
210.7950267653982
 30
0.0
 11
96.11110481568813
 21
216.7950267653982
 31
0.0
  0
LINE
  5
665
330
2
100
AcDbEntity
  8
画層1
100
AcDbLine
 10
152.1111048156881
 20
210.7950267653982
 30
0.0
 11
152.1111048156881
 21
216.7950267653982
 31
0.0
  0
ARC
  5
666
330
2
100
AcDbEntity
  8
画層1
100
AcDbCircle
 10
98.11110481568812
 20
210.7950267653982
 30
0.0
 40
2.0
100
AcDbArc
 50
180.0
 51
270.0
  0
ARC
  5
667
330
2
100
AcDbEntity
  8
画層1
100
AcDbCircle
 10
150.1111048156881
 20
210.7950267653982
 30
0.0
 40
2.0
100
AcDbArc
 50
270.0
 51
0.0
  0
LINE
  5
66A
330
2
100
AcDbEntity
  8
画層1
100
AcDbLine
 10
126.8611048156881
 20
208.7950267653982
 30
0.0
 11
150.1111048156881
 21
208.7950267653982
 31
0.0
  0
LINE
  5
66B
330
2
100
AcDbEntity
  8
画層1
100
AcDbLine
 10
126.8611048156881
 20
208.7950267653982
 30
0.0
 11
126.8611048156881
 21
213.7950267653982
 31
0.0
  0
LINE
  5
66C
330
2
100
AcDbEntity
  8
画層1
100
AcDbLine
 10
121.3611048156881
 20
208.7950267653982
 30
0.0
 11
121.3611048156881
 21
213.7950267653982
 31
0.0
  0
ARC
  5
66E
330
2
100
AcDbEntity
  8
画層1
100
AcDbCircle
 10
124.1111048156881
 20
213.7950267653982
 30
0.0
 40
2.75
100
AcDbArc
 50
0.0
 51
180.0000000000006
  0
LINE
  5
675
330
2
100
AcDbEntity
  8
画層1
100
AcDbLine
 10
93.91110481568812
 20
370.7950267653982
 30
0.0
 11
101.1111048156881
 21
370.7950267653982
 31
0.0
  0
ARC
  5
678
330
2
100
AcDbEntity
  8
画層1
100
AcDbCircle
 10
101.1111048156881
 20
368.7950267653982
 30
0.0
 40
1.999999999999938
100
AcDbArc
 50
29.99999999999913
 51
90.00000000000122
  0
LINE
  5
679
330
2
100
AcDbEntity
  8
画層1
100
AcDbLine
 10
154.3111048156881
 20
370.7950267653982
 30
0.0
 11
147.1111048156881
 21
370.7950267653982
 31
0.0
  0
ARC
  5
67B
330
2
100
AcDbEntity
  8
画層1
100
AcDbCircle
 10
147.1111048156879
 20
368.7950267653985
 30
0.0
 40
1.999999999999658
100
AcDbArc
 50
89.99999999999511
 51
150.0000000000058
  0
LINE
  5
67C
330
2
100
AcDbEntity
  8
画層1
100
AcDbLine
 10
93.91110481568812
 20
370.7950267653982
 30
0.0
 11
93.91110481568812
 21
216.7950267653982
 31
0.0
  0
LINE
  5
67D
330
2
100
AcDbEntity
  8
画層1
100
AcDbLine
 10
93.91110481568812
 20
216.7950267653982
 30
0.0
 11
99.61110481568812
 21
216.7950267653982
 31
0.0
  0
LINE
  5
67E
330
2
100
AcDbEntity
  8
画層1
100
AcDbLine
 10
154.3111048156881
 20
370.7950267653982
 30
0.0
 11
154.3111048156881
 21
369.7950267653982
 31
0.0
  0
LINE
  5
67F
330
2
100
AcDbEntity
  8
画層1
100
AcDbLine
 10
154.3111048156881
 20
216.7950267653982
 30
0.0
 11
148.6111048156881
 21
216.7950267653982
 31
0.0
  0
LINE
  5
681
330
2
100
AcDbEntity
  8
画層1
  6
DASHED2
100
AcDbLine
 10
144.1111048156881
 20
365.7950267653982
 30
0.0
 11
154.1111048156881
 21
365.7950267653982
 31
0.0
  0
LINE
  5
683
330
2
100
AcDbEntity
  8
画層1
  6
DASHED2
100
AcDbLine
 10
149.1111048156881
 20
370.7950267653982
 30
0.0
 11
149.1111048156881
 21
360.7950267653982
 31
0.0
  0
LINE
  5
688
330
2
100
AcDbEntity
  8
画層1
100
AcDbLine
 10
155.1111048156881
 20
369.7950267653982
 30
0.0
 11
111.1111048156881
 21
369.7950267653982
 31
0.0
  0
LINE
  5
689
330
2
100
AcDbEntity
  8
画層1
100
AcDbLine
 10
155.1111048156881
 20
369.7950267653982
 30
0.0
 11
155.1111048156881
 21
241.7950267653982
 31
0.0
  0
LINE
  5
68A
330
2
100
AcDbEntity
  8
画層1
100
AcDbLine
 10
155.1111048156881
 20
241.7950267653982
 30
0.0
 11
111.1111048156881
 21
241.7950267653982
 31
0.0
  0
LINE
  5
68B
330
2
100
AcDbEntity
  8
画層1
100
AcDbLine
 10
111.1111048156881
 20
241.7950267653982
 30
0.0
 11
111.1111048156881
 21
369.7950267653982
 31
0.0
  0
LINE
  5
68C
330
2
100
AcDbEntity
  8
画層1
100
AcDbLine
 10
154.3111048156881
 20
241.7950267653982
 30
0.0
 11
154.3111048156881
 21
216.7950267653982
 31
0.0
  0
LINE
  5
68E
330
2
100
AcDbEntity
  8
画層1
100
AcDbLine
 10
155.1111048156881
 20
367.7950267653982
 30
0.0
 11
155.1111048156881
 21
241.7950267653982
 31
0.0
  0
LINE
  5
690
330
2
100
AcDbEntity
  8
画層1
100
AcDbLine
 10
153.1111048156881
 20
369.7950267653982
 30
0.0
 11
153.1111048156881
 21
250.7950267653982
 31
0.0
  0
LINE
  5
691
330
2
100
AcDbEntity
  8
画層1
100
AcDbLine
 10
113.1111048156881
 20
250.7950267653982
 30
0.0
 11
113.1111048156881
 21
369.7950267653982
 31
0.0
  0
LINE
  5
692
330
2
100
AcDbEntity
  8
画層1
100
AcDbLine
 10
153.1111048156881
 20
249.7950267653982
 30
0.0
 11
113.1111048156881
 21
249.7950267653982
 31
0.0
  0
LINE
  5
693
330
2
100
AcDbEntity
  8
画層1
100
AcDbLine
 10
153.1111048156881
 20
250.7950267653982
 30
0.0
 11
113.1111048156881
 21
250.7950267653982
 31
0.0
  0
LINE
  5
694
330
2
100
AcDbEntity
  8
画層1
100
AcDbLine
 10
113.1111048156881
 20
249.7950267653982
 30
0.0
 11
113.1111048156881
 21
241.7950267653982
 31
0.0
  0
LINE
  5
695
330
2
100
AcDbEntity
  8
画層1
100
AcDbLine
 10
153.1111048156881
 20
249.7950267653982
 30
0.0
 11
153.1111048156881
 21
241.7950267653982
 31
0.0
  0
CIRCLE
  5
69B
330
2
100
AcDbEntity
  8
画層1
100
AcDbCircle
 10
149.1111048156881
 20
365.7950267653982
 30
0.0
 40
4.0
  0
CIRCLE
  5
69C
330
2
100
AcDbEntity
  8
画層1
100
AcDbCircle
 10
149.1111048156881
 20
365.7950267653982
 30
0.0
 40
2.5
  0
LINE
  5
6A1
102
{ACAD_REACTORS
330
7F7
102
}
330
2
100
AcDbEntity
  8
画層1
100
AcDbLine
 10
148.6111048156881
 20
364.2950267653982
 30
0.0
 11
149.6111048156881
 21
364.2950267653982
 31
0.0
  0
LINE
  5
6A2
102
{ACAD_REACTORS
330
7F7
102
}
330
2
100
AcDbEntity
  8
画層1
100
AcDbLine
 10
150.6111048156881
 20
365.2950267653982
 30
0.0
 11
150.6111048156881
 21
366.2950267653982
 31
0.0
  0
LINE
  5
6A3
102
{ACAD_REACTORS
330
7F7
102
}
330
2
100
AcDbEntity
  8
画層1
100
AcDbLine
 10
149.6111048156881
 20
367.2950267653982
 30
0.0
 11
148.6111048156881
 21
367.2950267653982
 31
0.0
  0
LINE
  5
6A4
102
{ACAD_REACTORS
330
7F7
102
}
330
2
100
AcDbEntity
  8
画層1
100
AcDbLine
 10
147.6111048156881
 20
366.2950267653982
 30
0.0
 11
147.6111048156881
 21
365.2950267653982
 31
0.0
  0
LINE
  5
6A5
102
{ACAD_REACTORS
330
7F7
102
}
330
2
100
AcDbEntity
  8
画層1
100
AcDbLine
 10
147.6111048156881
 20
366.2950267653982
 30
0.0
 11
148.6111048156881
 21
366.2950267653982
 31
0.0
  0
LINE
  5
6A6
102
{ACAD_REACTORS
330
7F7
102
}
330
2
100
AcDbEntity
  8
画層1
100
AcDbLine
 10
148.6111048156881
 20
366.2950267653982
 30
0.0
 11
148.6111048156881
 21
367.2950267653982
 31
0.0
  0
LINE
  5
6A7
330
2
100
AcDbEntity
  8
画層1
100
AcDbLine
 10
149.6111048156881
 20
367.2950267653982
 30
0.0
 11
149.6111048156881
 21
366.2950267653982
 31
0.0
  0
LINE
  5
6A8
102
{ACAD_REACTORS
330
7F7
102
}
330
2
100
AcDbEntity
  8
画層1
100
AcDbLine
 10
149.6111048156881
 20
366.2950267653982
 30
0.0
 11
150.6111048156881
 21
366.2950267653982
 31
0.0
  0
LINE
  5
6A9
102
{ACAD_REACTORS
330
7F7
102
}
330
2
100
AcDbEntity
  8
画層1
100
AcDbLine
 10
147.6111048156881
 20
365.2950267653982
 30
0.0
 11
148.6111048156881
 21
365.2950267653982
 31
0.0
  0
LINE
  5
6AA
102
{ACAD_REACTORS
330
7F7
102
}
330
2
100
AcDbEntity
  8
画層1
100
AcDbLine
 10
148.6111048156881
 20
365.2950267653982
 30
0.0
 11
148.6111048156881
 21
364.2950267653982
 31
0.0
  0
LINE
  5
6AB
102
{ACAD_REACTORS
330
7F7
102
}
330
2
100
AcDbEntity
  8
画層1
100
AcDbLine
 10
149.6111048156881
 20
364.2950267653982
 30
0.0
 11
149.6111048156881
 21
365.2950267653982
 31
0.0
  0
LINE
  5
6AC
102
{ACAD_REACTORS
330
7F7
102
}
330
2
100
AcDbEntity
  8
画層1
100
AcDbLine
 10
149.6111048156881
 20
365.2950267653982
 30
0.0
 11
150.6111048156881
 21
365.2950267653982
 31
0.0
  0
LINE
  5
6AD
102
{ACAD_REACTORS
330
804
102
}
330
2
100
AcDbEntity
  8
画層1
100
AcDbLine
 10
99.61110481568812
 20
367.2950267653982
 30
0.0
 11
99.61110481568812
 21
366.2950267653982
 31
0.0
  0
LINE
  5
6AE
102
{ACAD_REACTORS
330
804
102
}
330
2
100
AcDbEntity
  8
画層1
100
AcDbLine
 10
98.61110481568813
 20
366.2950267653982
 30
0.0
 11
98.61110481568813
 21
367.2950267653982
 31
0.0
  0
CIRCLE
  5
6AF
330
2
100
AcDbEntity
  8
画層1
100
AcDbCircle
 10
99.11110481568812
 20
365.7950267653982
 30
0.0
 40
2.5
  0
LINE
  5
6B0
102
{ACAD_REACTORS
330
804
102
}
330
2
100
AcDbEntity
  8
画層1
100
AcDbLine
 10
98.61110481568813
 20
364.2950267653982
 30
0.0
 11
99.61110481568812
 21
364.2950267653982
 31
0.0
  0
LINE
  5
6B1
330
2
100
AcDbEntity
  8
画層1
  6
DASHED2
100
AcDbLine
 10
94.11110481568812
 20
365.7950267653982
 30
0.0
 11
104.1111048156881
 21
365.7950267653982
 31
0.0
  0
LINE
  5
6B2
102
{ACAD_REACTORS
330
804
102
}
330
2
100
AcDbEntity
  8
画層1
100
AcDbLine
 10
98.61110481568813
 20
365.2950267653982
 30
0.0
 11
98.61110481568813
 21
364.2950267653982
 31
0.0
  0
LINE
  5
6B3
102
{ACAD_REACTORS
330
804
102
}
330
2
100
AcDbEntity
  8
画層1
100
AcDbLine
 10
97.61110481568813
 20
365.2950267653982
 30
0.0
 11
98.61110481568813
 21
365.2950267653982
 31
0.0
  0
LINE
  5
6B4
102
{ACAD_REACTORS
330
804
102
}
330
2
100
AcDbEntity
  8
画層1
100
AcDbLine
 10
97.61110481568813
 20
366.2950267653982
 30
0.0
 11
98.61110481568813
 21
366.2950267653982
 31
0.0
  0
LINE
  5
6B5
102
{ACAD_REACTORS
330
804
102
}
330
2
100
AcDbEntity
  8
画層1
100
AcDbLine
 10
97.61110481568813
 20
366.2950267653982
 30
0.0
 11
97.61110481568813
 21
365.2950267653982
 31
0.0
  0
LINE
  5
6B6
102
{ACAD_REACTORS
330
804
102
}
330
2
100
AcDbEntity
  8
画層1
100
AcDbLine
 10
99.61110481568812
 20
365.2950267653982
 30
0.0
 11
100.6111048156881
 21
365.2950267653982
 31
0.0
  0
LINE
  5
6B7
102
{ACAD_REACTORS
330
804
102
}
330
2
100
AcDbEntity
  8
画層1
100
AcDbLine
 10
99.61110481568812
 20
364.2950267653982
 30
0.0
 11
99.61110481568812
 21
365.2950267653982
 31
0.0
  0
LINE
  5
6B8
102
{ACAD_REACTORS
330
804
102
}
330
2
100
AcDbEntity
  8
画層1
100
AcDbLine
 10
99.61110481568812
 20
366.2950267653982
 30
0.0
 11
100.6111048156881
 21
366.2950267653982
 31
0.0
  0
LINE
  5
6B9
102
{ACAD_REACTORS
330
804
102
}
330
2
100
AcDbEntity
  8
画層1
100
AcDbLine
 10
100.6111048156881
 20
365.2950267653982
 30
0.0
 11
100.6111048156881
 21
366.2950267653982
 31
0.0
  0
LINE
  5
6BA
102
{ACAD_REACTORS
330
804
102
}
330
2
100
AcDbEntity
  8
画層1
100
AcDbLine
 10
99.61110481568812
 20
367.2950267653982
 30
0.0
 11
98.61110481568813
 21
367.2950267653982
 31
0.0
  0
CIRCLE
  5
6BB
330
2
100
AcDbEntity
  8
画層1
100
AcDbCircle
 10
99.11110481568812
 20
365.7950267653982
 30
0.0
 40
4.0
  0
LINE
  5
6BC
330
2
100
AcDbEntity
  8
画層1
  6
DASHED2
100
AcDbLine
 10
99.11110481568812
 20
370.7950267653982
 30
0.0
 11
99.11110481568812
 21
360.7950267653982
 31
0.0
  0
CIRCLE
  5
6BD
330
2
100
AcDbEntity
  8
画層1
100
AcDbCircle
 10
99.11110481568812
 20
245.7950267653982
 30
0.0
 40
2.598076211353316
  0
LINE
  5
6BF
330
2
100
AcDbEntity
  8
画層1
100
AcDbLine
 10
97.61110481568813
 20
246.2950267653982
 30
0.0
 11
98.61110481568813
 21
246.2950267653982
 31
0.0
  0
LINE
  5
6C0
330
2
100
AcDbEntity
  8
画層1
100
AcDbLine
 10
97.61110481568813
 20
245.2950267653982
 30
0.0
 11
98.61110481568813
 21
245.2950267653982
 31
0.0
  0
LINE
  5
6C1
330
2
100
AcDbEntity
  8
画層1
  6
DASHED2
100
AcDbLine
 10
94.11110481568812
 20
245.7950267653982
 30
0.0
 11
104.1111048156881
 21
245.7950267653982
 31
0.0
  0
LINE
  5
6C2
330
2
100
AcDbEntity
  8
画層1
100
AcDbLine
 10
97.61110481568813
 20
246.2950267653982
 30
0.0
 11
97.61110481568813
 21
245.2950267653982
 31
0.0
  0
LINE
  5
6C3
330
2
100
AcDbEntity
  8
画層1
100
AcDbLine
 10
98.61110481568813
 20
246.2950267653982
 30
0.0
 11
98.61110481568813
 21
247.2950267653982
 31
0.0
  0
LINE
  5
6C4
330
2
100
AcDbEntity
  8
画層1
100
AcDbLine
 10
99.61110481568812
 20
247.2950267653982
 30
0.0
 11
99.61110481568812
 21
246.2950267653982
 31
0.0
  0
LINE
  5
6C5
330
2
100
AcDbEntity
  8
画層1
  6
DASHED2
100
AcDbLine
 10
99.11110481568812
 20
250.7950267653982
 30
0.0
 11
99.11110481568812
 21
240.7950267653982
 31
0.0
  0
LINE
  5
6C6
330
2
100
AcDbEntity
  8
画層1
100
AcDbLine
 10
100.6111048156881
 20
245.2950267653982
 30
0.0
 11
100.6111048156881
 21
246.2950267653982
 31
0.0
  0
LINE
  5
6C7
330
2
100
AcDbEntity
  8
画層1
100
AcDbLine
 10
99.61110481568812
 20
246.2950267653982
 30
0.0
 11
100.6111048156881
 21
246.2950267653982
 31
0.0
  0
LINE
  5
6C8
330
2
100
AcDbEntity
  8
画層1
100
AcDbLine
 10
99.61110481568812
 20
244.2950267653982
 30
0.0
 11
99.61110481568812
 21
245.2950267653982
 31
0.0
  0
LINE
  5
6C9
330
2
100
AcDbEntity
  8
画層1
100
AcDbLine
 10
99.61110481568812
 20
245.2950267653982
 30
0.0
 11
100.6111048156881
 21
245.2950267653982
 31
0.0
  0
LINE
  5
6CA
330
2
100
AcDbEntity
  8
画層1
100
AcDbLine
 10
98.61110481568813
 20
245.2950267653982
 30
0.0
 11
98.61110481568813
 21
244.2950267653982
 31
0.0
  0
LINE
  5
6CB
330
2
100
AcDbEntity
  8
画層1
100
AcDbLine
 10
98.61110481568813
 20
244.2950267653982
 30
0.0
 11
99.61110481568812
 21
244.2950267653982
 31
0.0
  0
LINE
  5
6CC
330
2
100
AcDbEntity
  8
画層1
100
AcDbLine
 10
99.61110481568812
 20
247.2950267653982
 30
0.0
 11
98.61110481568813
 21
247.2950267653982
 31
0.0
  0
LINE
  5
6CD
330
2
100
AcDbEntity
  8
画層1
100
AcDbLine
 10
147.6111048156881
 20
245.2950267653982
 30
0.0
 11
148.6111048156881
 21
245.2950267653982
 31
0.0
  0
LINE
  5
6CE
330
2
100
AcDbEntity
  8
画層1
100
AcDbLine
 10
147.6111048156881
 20
246.2950267653982
 30
0.0
 11
148.6111048156881
 21
246.2950267653982
 31
0.0
  0
CIRCLE
  5
6CF
330
2
100
AcDbEntity
  8
画層1
100
AcDbCircle
 10
149.1111048156881
 20
245.7950267653982
 30
0.0
 40
2.5
  0
LINE
  5
6D0
330
2
100
AcDbEntity
  8
画層1
100
AcDbLine
 10
147.6111048156881
 20
246.2950267653982
 30
0.0
 11
147.6111048156881
 21
245.2950267653982
 31
0.0
  0
LINE
  5
6D1
330
2
100
AcDbEntity
  8
画層1
100
AcDbLine
 10
149.6111048156881
 20
247.2950267653982
 30
0.0
 11
148.6111048156881
 21
247.2950267653982
 31
0.0
  0
LINE
  5
6D2
330
2
100
AcDbEntity
  8
画層1
100
AcDbLine
 10
148.6111048156881
 20
244.2950267653982
 30
0.0
 11
149.6111048156881
 21
244.2950267653982
 31
0.0
  0
LINE
  5
6D3
330
2
100
AcDbEntity
  8
画層1
100
AcDbLine
 10
148.6111048156881
 20
245.2950267653982
 30
0.0
 11
148.6111048156881
 21
244.2950267653982
 31
0.0
  0
LINE
  5
6D4
330
2
100
AcDbEntity
  8
画層1
100
AcDbLine
 10
149.6111048156881
 20
245.2950267653982
 30
0.0
 11
150.6111048156881
 21
245.2950267653982
 31
0.0
  0
LINE
  5
6D5
330
2
100
AcDbEntity
  8
画層1
100
AcDbLine
 10
149.6111048156881
 20
244.2950267653982
 30
0.0
 11
149.6111048156881
 21
245.2950267653982
 31
0.0
  0
LINE
  5
6D6
330
2
100
AcDbEntity
  8
画層1
100
AcDbLine
 10
149.6111048156881
 20
246.2950267653982
 30
0.0
 11
150.6111048156881
 21
246.2950267653982
 31
0.0
  0
LINE
  5
6D7
330
2
100
AcDbEntity
  8
画層1
100
AcDbLine
 10
150.6111048156881
 20
245.2950267653982
 30
0.0
 11
150.6111048156881
 21
246.2950267653982
 31
0.0
  0
LINE
  5
6D8
330
2
100
AcDbEntity
  8
画層1
100
AcDbLine
 10
149.6111048156881
 20
247.2950267653982
 30
0.0
 11
149.6111048156881
 21
246.2950267653982
 31
0.0
  0
LINE
  5
6D9
330
2
100
AcDbEntity
  8
画層1
100
AcDbLine
 10
148.6111048156881
 20
246.2950267653982
 30
0.0
 11
148.6111048156881
 21
247.2950267653982
 31
0.0
  0
LINE
  5
6DA
330
2
100
AcDbEntity
  8
画層1
  6
DASHED2
100
AcDbLine
 10
144.1111048156881
 20
245.7950267653982
 30
0.0
 11
154.1111048156881
 21
245.7950267653982
 31
0.0
  0
CIRCLE
  5
6DB
330
2
100
AcDbEntity
  8
画層1
100
AcDbCircle
 10
149.1111048156881
 20
245.7950267653982
 30
0.0
 40
4.0
  0
LINE
  5
6DC
330
2
100
AcDbEntity
  8
画層1
  6
DASHED2
100
AcDbLine
 10
149.1111048156881
 20
250.7950267653982
 30
0.0
 11
149.1111048156881
 21
240.7950267653982
 31
0.0
  0
LINE
  5
6DF
330
2
100
AcDbEntity
  8
画層1
100
AcDbLine
 10
111.1111048156881
 20
241.7950267653982
 30
0.0
 11
94.11110481568812
 21
241.7950267653982
 31
0.0
  0
LINE
  5
6E1
330
2
100
AcDbEntity
  8
画層1
100
AcDbLine
 10
94.11110481568812
 20
241.7950267653982
 30
0.0
 11
94.11110481568812
 21
369.7950267653982
 31
0.0
  0
LINE
  5
6E2
330
2
100
AcDbEntity
  8
画層1
100
AcDbLine
 10
94.11110481568812
 20
369.7950267653982
 30
0.0
 11
111.1111048156881
 21
369.7950267653982
 31
0.0
  0
CIRCLE
  5
6E6
330
2
100
AcDbEntity
  8
画層1
100
AcDbCircle
 10
143.6111048156881
 20
228.7950267653982
 30
0.0
 40
4.0
  0
CIRCLE
  5
6ED
330
2
100
AcDbEntity
  8
画層1
100
AcDbCircle
 10
143.6111048156881
 20
228.7950267653982
 30
0.0
 40
3.0
  0
LINE
  5
6EE
102
{ACAD_REACTORS
330
6FA
102
}
330
2
100
AcDbEntity
  8
画層1
100
AcDbLine
 10
142.1111048156881
 20
229.2950267653982
 30
0.0
 11
142.1111048156881
 21
228.2950267653982
 31
0.0
  0
LINE
  5
6EF
102
{ACAD_REACTORS
330
6FA
102
}
330
2
100
AcDbEntity
  8
画層1
100
AcDbLine
 10
143.1111048156881
 20
227.2950267653982
 30
0.0
 11
144.1111048156881
 21
227.2950267653982
 31
0.0
  0
LINE
  5
6F0
102
{ACAD_REACTORS
330
6FA
102
}
330
2
100
AcDbEntity
  8
画層1
100
AcDbLine
 10
145.1111048156881
 20
228.2950267653982
 30
0.0
 11
145.1111048156881
 21
229.2950267653982
 31
0.0
  0
LINE
  5
6F1
102
{ACAD_REACTORS
330
6FA
102
}
330
2
100
AcDbEntity
  8
画層1
100
AcDbLine
 10
144.1111048156881
 20
230.2950267653982
 30
0.0
 11
143.1111048156881
 21
230.2950267653982
 31
0.0
  0
LINE
  5
6F2
102
{ACAD_REACTORS
330
6FA
102
}
330
2
100
AcDbEntity
  8
画層1
100
AcDbLine
 10
142.1111048156881
 20
228.2950267653982
 30
0.0
 11
143.1111048156881
 21
228.2950267653982
 31
0.0
  0
LINE
  5
6F3
102
{ACAD_REACTORS
330
6FA
102
}
330
2
100
AcDbEntity
  8
画層1
100
AcDbLine
 10
143.1111048156881
 20
228.2950267653982
 30
0.0
 11
143.1111048156881
 21
227.2950267653982
 31
0.0
  0
LINE
  5
6F4
102
{ACAD_REACTORS
330
6FA
102
}
330
2
100
AcDbEntity
  8
画層1
100
AcDbLine
 10
144.1111048156881
 20
227.2950267653982
 30
0.0
 11
144.1111048156881
 21
228.2950267653982
 31
0.0
  0
LINE
  5
6F5
102
{ACAD_REACTORS
330
6FA
102
}
330
2
100
AcDbEntity
  8
画層1
100
AcDbLine
 10
144.1111048156881
 20
228.2950267653982
 30
0.0
 11
145.1111048156881
 21
228.2950267653982
 31
0.0
  0
LINE
  5
6F6
102
{ACAD_REACTORS
330
6FA
102
}
330
2
100
AcDbEntity
  8
画層1
100
AcDbLine
 10
145.1111048156881
 20
229.2950267653982
 30
0.0
 11
144.1111048156881
 21
229.2950267653982
 31
0.0
  0
LINE
  5
6F7
102
{ACAD_REACTORS
330
6FA
102
}
330
2
100
AcDbEntity
  8
画層1
100
AcDbLine
 10
144.1111048156881
 20
229.2950267653982
 30
0.0
 11
144.1111048156881
 21
230.2950267653982
 31
0.0
  0
LINE
  5
6F8
102
{ACAD_REACTORS
330
6FA
102
}
330
2
100
AcDbEntity
  8
画層1
100
AcDbLine
 10
143.1111048156881
 20
230.2950267653982
 30
0.0
 11
143.1111048156881
 21
229.2950267653982
 31
0.0
  0
LINE
  5
6F9
102
{ACAD_REACTORS
330
6FA
102
}
330
2
100
AcDbEntity
  8
画層1
100
AcDbLine
 10
143.1111048156881
 20
229.2950267653982
 30
0.0
 11
142.1111048156881
 21
229.2950267653982
 31
0.0
  0
CIRCLE
  5
6FB
330
2
100
AcDbEntity
  8
画層1
100
AcDbCircle
 10
104.6111048156881
 20
228.7950267653982
 30
0.0
 40
4.0
  0
LINE
  5
6FC
102
{ACAD_REACTORS
330
709
102
}
330
2
100
AcDbEntity
  8
画層1
100
AcDbLine
 10
105.1111048156881
 20
230.2950267653982
 30
0.0
 11
104.1111048156881
 21
230.2950267653982
 31
0.0
  0
LINE
  5
6FD
102
{ACAD_REACTORS
330
709
102
}
330
2
100
AcDbEntity
  8
画層1
100
AcDbLine
 10
104.1111048156881
 20
227.2950267653982
 30
0.0
 11
105.1111048156881
 21
227.2950267653982
 31
0.0
  0
CIRCLE
  5
6FE
330
2
100
AcDbEntity
  8
画層1
100
AcDbCircle
 10
104.6111048156881
 20
228.7950267653982
 30
0.0
 40
3.0
  0
LINE
  5
6FF
102
{ACAD_REACTORS
330
709
102
}
330
2
100
AcDbEntity
  8
画層1
100
AcDbLine
 10
103.1111048156881
 20
229.2950267653982
 30
0.0
 11
103.1111048156881
 21
228.2950267653982
 31
0.0
  0
LINE
  5
700
102
{ACAD_REACTORS
330
709
102
}
330
2
100
AcDbEntity
  8
画層1
100
AcDbLine
 10
104.1111048156881
 20
229.2950267653982
 30
0.0
 11
103.1111048156881
 21
229.2950267653982
 31
0.0
  0
LINE
  5
701
102
{ACAD_REACTORS
330
709
102
}
330
2
100
AcDbEntity
  8
画層1
100
AcDbLine
 10
104.1111048156881
 20
230.2950267653982
 30
0.0
 11
104.1111048156881
 21
229.2950267653982
 31
0.0
  0
LINE
  5
702
102
{ACAD_REACTORS
330
709
102
}
330
2
100
AcDbEntity
  8
画層1
100
AcDbLine
 10
104.1111048156881
 20
228.2950267653982
 30
0.0
 11
104.1111048156881
 21
227.2950267653982
 31
0.0
  0
LINE
  5
703
102
{ACAD_REACTORS
330
709
102
}
330
2
100
AcDbEntity
  8
画層1
100
AcDbLine
 10
103.1111048156881
 20
228.2950267653982
 30
0.0
 11
104.1111048156881
 21
228.2950267653982
 31
0.0
  0
LINE
  5
704
102
{ACAD_REACTORS
330
709
102
}
330
2
100
AcDbEntity
  8
画層1
100
AcDbLine
 10
106.1111048156881
 20
228.2950267653982
 30
0.0
 11
106.1111048156881
 21
229.2950267653982
 31
0.0
  0
LINE
  5
705
102
{ACAD_REACTORS
330
709
102
}
330
2
100
AcDbEntity
  8
画層1
100
AcDbLine
 10
105.1111048156881
 20
229.2950267653982
 30
0.0
 11
105.1111048156881
 21
230.2950267653982
 31
0.0
  0
LINE
  5
706
102
{ACAD_REACTORS
330
709
102
}
330
2
100
AcDbEntity
  8
画層1
100
AcDbLine
 10
106.1111048156881
 20
229.2950267653982
 30
0.0
 11
105.1111048156881
 21
229.2950267653982
 31
0.0
  0
LINE
  5
707
102
{ACAD_REACTORS
330
709
102
}
330
2
100
AcDbEntity
  8
画層1
100
AcDbLine
 10
105.1111048156881
 20
228.2950267653982
 30
0.0
 11
106.1111048156881
 21
228.2950267653982
 31
0.0
  0
LINE
  5
708
102
{ACAD_REACTORS
330
709
102
}
330
2
100
AcDbEntity
  8
画層1
100
AcDbLine
 10
105.1111048156881
 20
227.2950267653982
 30
0.0
 11
105.1111048156881
 21
228.2950267653982
 31
0.0
  0
LINE
  5
73A
330
2
100
AcDbEntity
  8
画層1
100
AcDbLine
 10
99.61110481568812
 20
216.7950267653982
 30
0.0
 11
99.61110481568812
 21
240.7950267653982
 31
0.0
  0
LINE
  5
73B
330
2
100
AcDbEntity
  8
画層1
100
AcDbLine
 10
99.61110481568812
 20
240.7950267653982
 30
0.0
 11
148.6111048156881
 21
240.7950267653982
 31
0.0
  0
LINE
  5
73C
330
2
100
AcDbEntity
  8
画層1
100
AcDbLine
 10
148.6111048156881
 20
240.7950267653982
 30
0.0
 11
148.6111048156881
 21
216.7950267653982
 31
0.0
  0
LINE
  5
73D
330
2
100
AcDbEntity
  8
画層1
100
AcDbLine
 10
148.6111048156881
 20
216.7950267653982
 30
0.0
 11
99.61110481568812
 21
216.7950267653982
 31
0.0
  0
LINE
  5
73E
330
2
100
AcDbEntity
  8
画層1
100
AcDbLine
 10
109.6611048156881
 20
218.2450267653982
 30
0.0
 11
109.6611048156881
 21
239.3450267653982
 31
0.0
  0
LINE
  5
73F
330
2
100
AcDbEntity
  8
画層1
100
AcDbLine
 10
138.6079522645061
 20
239.3733969173647
 30
0.0
 11
138.5611048156881
 21
218.2477346525684
 31
0.0
  0
LINE
  5
743
330
2
100
AcDbEntity
  8
画層1
100
AcDbLine
 10
135.7111048156881
 20
239.2778330128351
 30
0.0
 11
135.6611048156881
 21
218.2477346525684
 31
0.0
  0
LINE
  5
744
330
2
100
AcDbEntity
  8
画層1
100
AcDbLine
 10
125.5611048156881
 20
239.3450267653982
 30
0.0
 11
125.5611048156881
 21
218.2450267653982
 31
0.0
  0
LINE
  5
747
330
2
100
AcDbEntity
  8
画層1
100
AcDbLine
 10
112.5611048156881
 20
239.3450267653982
 30
0.0
 11
112.5611048156881
 21
218.2450267653982
 31
0.0
  0
LINE
  5
748
330
2
100
AcDbEntity
  8
画層1
100
AcDbLine
 10
122.6611048156881
 20
239.3450267653982
 30
0.0
 11
122.6611048156881
 21
218.2450267653982
 31
0.0
  0
LINE
  5
749
102
{ACAD_REACTORS
330
755
102
}
330
2
100
AcDbEntity
  8
画層1
100
AcDbLine
 10
131.1111048156881
 20
230.2950267653982
 30
0.0
 11
130.1111048156881
 21
230.2950267653982
 31
0.0
  0
LINE
  5
74A
102
{ACAD_REACTORS
330
755
102
}
330
2
100
AcDbEntity
  8
画層1
100
AcDbLine
 10
130.1111048156881
 20
227.2950267653982
 30
0.0
 11
131.1111048156881
 21
227.2950267653982
 31
0.0
  0
LINE
  5
74B
102
{ACAD_REACTORS
330
755
102
}
330
2
100
AcDbEntity
  8
画層1
100
AcDbLine
 10
129.1111048156881
 20
229.2950267653982
 30
0.0
 11
129.1111048156881
 21
228.2950267653982
 31
0.0
  0
LINE
  5
74C
102
{ACAD_REACTORS
330
755
102
}
330
2
100
AcDbEntity
  8
画層1
100
AcDbLine
 10
130.1111048156881
 20
229.2950267653982
 30
0.0
 11
129.1111048156881
 21
229.2950267653982
 31
0.0
  0
LINE
  5
74D
102
{ACAD_REACTORS
330
755
102
}
330
2
100
AcDbEntity
  8
画層1
100
AcDbLine
 10
130.1111048156881
 20
230.2950267653982
 30
0.0
 11
130.1111048156881
 21
229.2950267653982
 31
0.0
  0
LINE
  5
74E
102
{ACAD_REACTORS
330
755
102
}
330
2
100
AcDbEntity
  8
画層1
100
AcDbLine
 10
130.1111048156881
 20
228.2950267653982
 30
0.0
 11
130.1111048156881
 21
227.2950267653982
 31
0.0
  0
LINE
  5
74F
102
{ACAD_REACTORS
330
755
102
}
330
2
100
AcDbEntity
  8
画層1
100
AcDbLine
 10
129.1111048156881
 20
228.2950267653982
 30
0.0
 11
130.1111048156881
 21
228.2950267653982
 31
0.0
  0
LINE
  5
750
102
{ACAD_REACTORS
330
755
102
}
330
2
100
AcDbEntity
  8
画層1
100
AcDbLine
 10
132.1111048156881
 20
228.2950267653982
 30
0.0
 11
132.1111048156881
 21
229.2950267653982
 31
0.0
  0
LINE
  5
751
102
{ACAD_REACTORS
330
755
102
}
330
2
100
AcDbEntity
  8
画層1
100
AcDbLine
 10
131.1111048156881
 20
229.2950267653982
 30
0.0
 11
131.1111048156881
 21
230.2950267653982
 31
0.0
  0
LINE
  5
752
102
{ACAD_REACTORS
330
755
102
}
330
2
100
AcDbEntity
  8
画層1
100
AcDbLine
 10
132.1111048156881
 20
229.2950267653982
 30
0.0
 11
131.1111048156881
 21
229.2950267653982
 31
0.0
  0
LINE
  5
753
102
{ACAD_REACTORS
330
755
102
}
330
2
100
AcDbEntity
  8
画層1
100
AcDbLine
 10
131.1111048156881
 20
228.2950267653982
 30
0.0
 11
132.1111048156881
 21
228.2950267653982
 31
0.0
  0
LINE
  5
754
102
{ACAD_REACTORS
330
755
102
}
330
2
100
AcDbEntity
  8
画層1
100
AcDbLine
 10
131.1111048156881
 20
227.2950267653982
 30
0.0
 11
131.1111048156881
 21
228.2950267653982
 31
0.0
  0
LINE
  5
756
102
{ACAD_REACTORS
330
762
102
}
330
2
100
AcDbEntity
  8
画層1
100
AcDbLine
 10
118.1111048156881
 20
228.2950267653982
 30
0.0
 11
119.1111048156881
 21
228.2950267653982
 31
0.0
  0
LINE
  5
757
102
{ACAD_REACTORS
330
762
102
}
330
2
100
AcDbEntity
  8
画層1
100
AcDbLine
 10
118.1111048156881
 20
230.2950267653982
 30
0.0
 11
117.1111048156881
 21
230.2950267653982
 31
0.0
  0
LINE
  5
758
102
{ACAD_REACTORS
330
762
102
}
330
2
100
AcDbEntity
  8
画層1
100
AcDbLine
 10
117.1111048156881
 20
227.2950267653982
 30
0.0
 11
118.1111048156881
 21
227.2950267653982
 31
0.0
  0
LINE
  5
759
102
{ACAD_REACTORS
330
762
102
}
330
2
100
AcDbEntity
  8
画層1
100
AcDbLine
 10
116.1111048156881
 20
229.2950267653982
 30
0.0
 11
116.1111048156881
 21
228.2950267653982
 31
0.0
  0
LINE
  5
75A
102
{ACAD_REACTORS
330
762
102
}
330
2
100
AcDbEntity
  8
画層1
100
AcDbLine
 10
117.1111048156881
 20
229.2950267653982
 30
0.0
 11
116.1111048156881
 21
229.2950267653982
 31
0.0
  0
LINE
  5
75B
102
{ACAD_REACTORS
330
762
102
}
330
2
100
AcDbEntity
  8
画層1
100
AcDbLine
 10
117.1111048156881
 20
230.2950267653982
 30
0.0
 11
117.1111048156881
 21
229.2950267653982
 31
0.0
  0
LINE
  5
75C
102
{ACAD_REACTORS
330
762
102
}
330
2
100
AcDbEntity
  8
画層1
100
AcDbLine
 10
117.1111048156881
 20
228.2950267653982
 30
0.0
 11
117.1111048156881
 21
227.2950267653982
 31
0.0
  0
LINE
  5
75D
102
{ACAD_REACTORS
330
762
102
}
330
2
100
AcDbEntity
  8
画層1
100
AcDbLine
 10
116.1111048156881
 20
228.2950267653982
 30
0.0
 11
117.1111048156881
 21
228.2950267653982
 31
0.0
  0
LINE
  5
75E
102
{ACAD_REACTORS
330
762
102
}
330
2
100
AcDbEntity
  8
画層1
100
AcDbLine
 10
119.1111048156881
 20
228.2950267653982
 30
0.0
 11
119.1111048156881
 21
229.2950267653982
 31
0.0
  0
LINE
  5
75F
102
{ACAD_REACTORS
330
762
102
}
330
2
100
AcDbEntity
  8
画層1
100
AcDbLine
 10
118.1111048156881
 20
229.2950267653982
 30
0.0
 11
118.1111048156881
 21
230.2950267653982
 31
0.0
  0
LINE
  5
760
102
{ACAD_REACTORS
330
762
102
}
330
2
100
AcDbEntity
  8
画層1
100
AcDbLine
 10
119.1111048156881
 20
229.2950267653982
 30
0.0
 11
118.1111048156881
 21
229.2950267653982
 31
0.0
  0
LINE
  5
761
102
{ACAD_REACTORS
330
762
102
}
330
2
100
AcDbEntity
  8
画層1
100
AcDbLine
 10
118.1111048156881
 20
227.2950267653982
 30
0.0
 11
118.1111048156881
 21
228.2950267653982
 31
0.0
  0
CIRCLE
  5
764
330
2
100
AcDbEntity
  8
画層1
100
AcDbCircle
 10
130.6111048156881
 20
228.7950267653982
 30
0.0
 40
4.5
  0
CIRCLE
  5
765
330
2
100
AcDbEntity
  8
画層1
100
AcDbCircle
 10
117.6111048156881
 20
228.7950267653982
 30
0.0
 40
4.5
  0
LINE
  5
76C
330
2
100
AcDbEntity
  8
画層1
100
AcDbLine
 10
148.6111048156881
 20
220.7950267653982
 30
0.0
 11
138.6111048156881
 21
220.7950267653982
 31
0.0
  0
LINE
  5
76D
330
2
100
AcDbEntity
  8
画層1
100
AcDbLine
 10
148.6111048156881
 20
222.7950267653982
 30
0.0
 11
138.6111048156881
 21
222.7950267653982
 31
0.0
  0
LINE
  5
76E
330
2
100
AcDbEntity
  8
画層1
100
AcDbLine
 10
148.6111048156881
 20
236.7950267653982
 30
0.0
 11
138.6111048156881
 21
236.7950267653982
 31
0.0
  0
LINE
  5
76F
330
2
100
AcDbEntity
  8
画層1
100
AcDbLine
 10
148.6111048156881
 20
234.7950267653982
 30
0.0
 11
138.6111048156881
 21
234.7950267653982
 31
0.0
  0
LINE
  5
770
330
2
100
AcDbEntity
  8
画層1
100
AcDbLine
 10
135.6611048156881
 20
234.7950267653982
 30
0.0
 11
125.6611048156881
 21
234.7950267653982
 31
0.0
  0
LINE
  5
771
330
2
100
AcDbEntity
  8
画層1
100
AcDbLine
 10
135.6611048156881
 20
236.7950267653982
 30
0.0
 11
125.6611048156881
 21
236.7950267653982
 31
0.0
  0
LINE
  5
772
330
2
100
AcDbEntity
  8
画層1
100
AcDbLine
 10
135.6611048156881
 20
222.7950267653982
 30
0.0
 11
125.6611048156881
 21
222.7950267653982
 31
0.0
  0
LINE
  5
773
330
2
100
AcDbEntity
  8
画層1
100
AcDbLine
 10
135.6611048156881
 20
220.7950267653982
 30
0.0
 11
125.6611048156881
 21
220.7950267653982
 31
0.0
  0
LINE
  5
774
330
2
100
AcDbEntity
  8
画層1
100
AcDbLine
 10
122.6611048156881
 20
234.7950267653982
 30
0.0
 11
112.6611048156881
 21
234.7950267653982
 31
0.0
  0
LINE
  5
775
330
2
100
AcDbEntity
  8
画層1
100
AcDbLine
 10
122.6611048156881
 20
236.7950267653982
 30
0.0
 11
112.6611048156881
 21
236.7950267653982
 31
0.0
  0
LINE
  5
776
330
2
100
AcDbEntity
  8
画層1
100
AcDbLine
 10
122.6611048156881
 20
222.7950267653982
 30
0.0
 11
112.6611048156881
 21
222.7950267653982
 31
0.0
  0
LINE
  5
777
330
2
100
AcDbEntity
  8
画層1
100
AcDbLine
 10
122.6611048156881
 20
220.7950267653982
 30
0.0
 11
112.6611048156881
 21
220.7950267653982
 31
0.0
  0
LINE
  5
778
330
2
100
AcDbEntity
  8
画層1
100
AcDbLine
 10
122.6611048156881
 20
234.7950267653982
 30
0.0
 11
112.6611048156881
 21
234.7950267653982
 31
0.0
  0
LINE
  5
779
330
2
100
AcDbEntity
  8
画層1
100
AcDbLine
 10
122.6611048156881
 20
236.7950267653982
 30
0.0
 11
112.6611048156881
 21
236.7950267653982
 31
0.0
  0
LINE
  5
77A
330
2
100
AcDbEntity
  8
画層1
100
AcDbLine
 10
122.6611048156881
 20
222.7950267653982
 30
0.0
 11
112.6611048156881
 21
222.7950267653982
 31
0.0
  0
LINE
  5
77B
330
2
100
AcDbEntity
  8
画層1
100
AcDbLine
 10
122.6611048156881
 20
220.7950267653982
 30
0.0
 11
112.6611048156881
 21
220.7950267653982
 31
0.0
  0
ARC
  5
77D
330
2
100
AcDbEntity
  8
画層1
100
AcDbCircle
 10
124.1111048156881
 20
218.2450267653982
 30
0.0
 40
1.450000000000002
100
AcDbArc
 50
180.0
 51
0.0
  0
ARC
  5
77E
330
2
100
AcDbEntity
  8
画層1
100
AcDbCircle
 10
124.1111048156881
 20
239.3450267653982
 30
0.0
 40
1.450000000000002
100
AcDbArc
 50
0.0
 51
180.0
  0
ARC
  5
77F
330
2
100
AcDbEntity
  8
画層1
100
AcDbCircle
 10
111.1111048156881
 20
239.3450267653982
 30
0.0
 40
1.450000000000002
100
AcDbArc
 50
0.0
 51
180.0
  0
ARC
  5
780
330
2
100
AcDbEntity
  8
画層1
100
AcDbCircle
 10
111.1111048156881
 20
218.2450267653982
 30
0.0
 40
1.450000000000002
100
AcDbArc
 50
180.0
 51
0.0
  0
ARC
  5
781
330
2
100
AcDbEntity
  8
画層1
100
AcDbCircle
 10
137.1111048156881
 20
218.2477346525684
 30
0.0
 40
1.450000000000002
100
AcDbArc
 50
180.0
 51
0.0
  0
ARC
  5
782
330
2
100
AcDbEntity
  8
画層1
100
AcDbCircle
 10
137.1611048156881
 20
239.2778330128351
 30
0.0
 40
1.450000000000002
100
AcDbArc
 50
0.0
 51
180.0
  0
LINE
  5
788
330
2
100
AcDbEntity
  8
画層1
100
AcDbLine
 10
155.1111048156881
 20
339.7950267653982
 30
0.0
 11
155.6111048156881
 21
339.7950267653982
 31
0.0
  0
LINE
  5
789
330
2
100
AcDbEntity
  8
画層1
100
AcDbLine
 10
155.6111048156881
 20
339.7950267653982
 30
0.0
 11
155.6111048156881
 21
347.7950267653982
 31
0.0
  0
LINE
  5
78A
330
2
100
AcDbEntity
  8
画層1
100
AcDbLine
 10
155.6111048156881
 20
347.7950267653982
 30
0.0
 11
155.1111048156881
 21
347.7950267653982
 31
0.0
  0
LINE
  5
78C
330
2
100
AcDbEntity
  8
画層1
100
AcDbLine
 10
155.6111048156881
 20
340.2950267653982
 30
0.0
 11
156.1111048156881
 21
340.2950267653982
 31
0.0
  0
LINE
  5
78D
330
2
100
AcDbEntity
  8
画層1
100
AcDbLine
 10
158.1111048156881
 20
344.7950267653982
 30
0.0
 11
158.1111048156881
 21
345.2950267653982
 31
0.0
  0
LINE
  5
78E
330
2
100
AcDbEntity
  8
画層1
100
AcDbLine
 10
156.1111048156881
 20
347.2950267653982
 30
0.0
 11
155.6111048156881
 21
347.2950267653982
 31
0.0
  0
ARC
  5
78F
330
2
100
AcDbEntity
  8
画層1
100
AcDbCircle
 10
156.1111048156881
 20
342.2950267653982
 30
0.0
 40
2.0
100
AcDbArc
 50
270.0
 51
0.0
  0
ARC
  5
790
330
2
100
AcDbEntity
  8
画層1
100
AcDbCircle
 10
156.1111048156881
 20
345.2950267653982
 30
0.0
 40
2.0
100
AcDbArc
 50
0.0
 51
90.0
  0
LINE
  5
794
330
2
100
AcDbEntity
  8
画層1
100
AcDbLine
 10
157.1111048156881
 20
343.2950267653982
 30
0.0
 11
157.6111048156881
 21
343.2950267653982
 31
0.0
  0
LINE
  5
795
330
2
100
AcDbEntity
  8
画層1
100
AcDbLine
 10
157.6111048156881
 20
344.2950267653982
 30
0.0
 11
157.1111048156881
 21
344.2950267653982
 31
0.0
  0
LINE
  5
796
330
2
100
AcDbEntity
  8
画層1
100
AcDbLine
 10
157.1111048156881
 20
344.2950267653982
 30
0.0
 11
157.1111048156881
 21
343.2950267653982
 31
0.0
  0
LINE
  5
797
330
2
100
AcDbEntity
  8
画層1
100
AcDbLine
 10
158.1111048156881
 20
342.7950267653982
 30
0.0
 11
158.1111048156881
 21
342.2950267653982
 31
0.0
  0
ARC
  5
798
330
2
100
AcDbEntity
  8
画層1
100
AcDbCircle
 10
157.6111048156881
 20
342.7950267653982
 30
0.0
 40
0.5
100
AcDbArc
 50
0.0
 51
90.0
  0
ARC
  5
799
330
2
100
AcDbEntity
  8
画層1
100
AcDbCircle
 10
157.6111048156881
 20
344.7950267653982
 30
0.0
 40
0.5
100
AcDbArc
 50
270.0
 51
0.0
  0
LINE
  5
79A
330
2
100
AcDbEntity
  8
画層1
100
AcDbLine
 10
158.1111048156881
 20
342.7950267653982
 30
0.0
 11
158.1111048156881
 21
344.7950267653982
 31
0.0
  0
LINE
  5
79B
330
2
100
AcDbEntity
  8
画層1
100
AcDbLine
 10
158.1111048156881
 20
242.7950267653982
 30
0.0
 11
158.1111048156881
 21
244.7950267653982
 31
0.0
  0
ARC
  5
79C
330
2
100
AcDbEntity
  8
画層1
100
AcDbCircle
 10
157.6111048156881
 20
242.7950267653982
 30
0.0
 40
0.5
100
AcDbArc
 50
0.0
 51
90.0
  0
LINE
  5
79D
330
2
100
AcDbEntity
  8
画層1
100
AcDbLine
 10
155.6111048156881
 20
239.7950267653982
 30
0.0
 11
155.6111048156881
 21
247.7950267653982
 31
0.0
  0
LINE
  5
79E
330
2
100
AcDbEntity
  8
画層1
100
AcDbLine
 10
158.1111048156881
 20
242.7950267653982
 30
0.0
 11
158.1111048156881
 21
242.2950267653982
 31
0.0
  0
LINE
  5
79F
330
2
100
AcDbEntity
  8
画層1
100
AcDbLine
 10
155.6111048156881
 20
240.2950267653982
 30
0.0
 11
156.1111048156881
 21
240.2950267653982
 31
0.0
  0
ARC
  5
7A0
330
2
100
AcDbEntity
  8
画層1
100
AcDbCircle
 10
156.1111048156881
 20
242.2950267653982
 30
0.0
 40
2.0
100
AcDbArc
 50
270.0
 51
0.0
  0
LINE
  5
7A1
330
2
100
AcDbEntity
  8
画層1
100
AcDbLine
 10
154.3111048156881
 20
239.7950267653982
 30
0.0
 11
155.6111048156881
 21
239.7950267653982
 31
0.0
  0
LINE
  5
7A2
330
2
100
AcDbEntity
  8
画層1
100
AcDbLine
 10
157.6111048156881
 20
244.2950267653982
 30
0.0
 11
157.1111048156881
 21
244.2950267653982
 31
0.0
  0
LINE
  5
7A3
330
2
100
AcDbEntity
  8
画層1
100
AcDbLine
 10
158.1111048156881
 20
244.7950267653982
 30
0.0
 11
158.1111048156881
 21
245.2950267653982
 31
0.0
  0
ARC
  5
7A4
330
2
100
AcDbEntity
  8
画層1
100
AcDbCircle
 10
157.6111048156881
 20
244.7950267653982
 30
0.0
 40
0.5
100
AcDbArc
 50
270.0
 51
0.0
  0
LINE
  5
7A5
330
2
100
AcDbEntity
  8
画層1
100
AcDbLine
 10
157.1111048156881
 20
243.2950267653982
 30
0.0
 11
157.6111048156881
 21
243.2950267653982
 31
0.0
  0
LINE
  5
7A6
330
2
100
AcDbEntity
  8
画層1
100
AcDbLine
 10
157.1111048156881
 20
244.2950267653982
 30
0.0
 11
157.1111048156881
 21
243.2950267653982
 31
0.0
  0
LINE
  5
7A7
330
2
100
AcDbEntity
  8
画層1
100
AcDbLine
 10
156.1111048156881
 20
247.2950267653982
 30
0.0
 11
155.6111048156881
 21
247.2950267653982
 31
0.0
  0
ARC
  5
7A8
330
2
100
AcDbEntity
  8
画層1
100
AcDbCircle
 10
156.1111048156881
 20
245.2950267653982
 30
0.0
 40
2.0
100
AcDbArc
 50
0.0
 51
90.0
  0
LINE
  5
7A9
330
2
100
AcDbEntity
  8
画層1
100
AcDbLine
 10
155.6111048156881
 20
247.7950267653982
 30
0.0
 11
155.1111048156881
 21
247.7950267653982
 31
0.0
  0
ARC
  5
7B0
330
2
100
AcDbEntity
  8
画層1
100
AcDbCircle
 10
92.11110481568812
 20
342.2950267653982
 30
0.0
 40
2.0
100
AcDbArc
 50
180.0
 51
270.0
  0
LINE
  5
7B1
330
2
100
AcDbEntity
  8
画層1
100
AcDbLine
 10
92.61110481568811
 20
339.7950267653982
 30
0.0
 11
92.61110481568811
 21
347.7950267653982
 31
0.0
  0
LINE
  5
7B2
330
2
100
AcDbEntity
  8
画層1
100
AcDbLine
 10
93.61110481568813
 20
339.7950267653982
 30
0.0
 11
92.61110481568811
 21
339.7950267653982
 31
0.0
  0
LINE
  5
7B3
330
2
100
AcDbEntity
  8
画層1
100
AcDbLine
 10
92.61110481568811
 20
340.2950267653982
 30
0.0
 11
92.11110481568812
 21
340.2950267653982
 31
0.0
  0
LINE
  5
7B4
330
2
100
AcDbEntity
  8
画層1
100
AcDbLine
 10
92.61110481568811
 20
347.7950267653982
 30
0.0
 11
93.91110481568812
 21
347.7950267653982
 31
0.0
  0
ARC
  5
7B5
330
2
100
AcDbEntity
  8
画層1
100
AcDbCircle
 10
92.11110481568812
 20
345.2950267653982
 30
0.0
 40
2.0
100
AcDbArc
 50
90.0
 51
180.0
  0
LINE
  5
7B6
330
2
100
AcDbEntity
  8
画層1
100
AcDbLine
 10
92.11110481568812
 20
347.2950267653982
 30
0.0
 11
92.61110481568811
 21
347.2950267653982
 31
0.0
  0
LINE
  5
7B7
330
2
100
AcDbEntity
  8
画層1
100
AcDbLine
 10
91.11110481568813
 20
344.2950267653982
 30
0.0
 11
91.11110481568813
 21
343.2950267653982
 31
0.0
  0
LINE
  5
7B8
330
2
100
AcDbEntity
  8
画層1
100
AcDbLine
 10
91.11110481568813
 20
343.2950267653982
 30
0.0
 11
90.61110481568812
 21
343.2950267653982
 31
0.0
  0
ARC
  5
7B9
330
2
100
AcDbEntity
  8
画層1
100
AcDbCircle
 10
90.61110481568812
 20
344.7950267653982
 30
0.0
 40
0.5
100
AcDbArc
 50
180.0
 51
270.0
  0
LINE
  5
7BA
330
2
100
AcDbEntity
  8
画層1
100
AcDbLine
 10
90.11110481568811
 20
344.7950267653982
 30
0.0
 11
90.11110481568811
 21
345.2950267653982
 31
0.0
  0
LINE
  5
7BB
330
2
100
AcDbEntity
  8
画層1
100
AcDbLine
 10
90.61110481568812
 20
344.2950267653982
 30
0.0
 11
91.11110481568813
 21
344.2950267653982
 31
0.0
  0
LINE
  5
7BC
330
2
100
AcDbEntity
  8
画層1
100
AcDbLine
 10
90.11110481568811
 20
342.7950267653982
 30
0.0
 11
90.11110481568811
 21
342.2950267653982
 31
0.0
  0
ARC
  5
7BD
330
2
100
AcDbEntity
  8
画層1
100
AcDbCircle
 10
90.61110481568812
 20
342.7950267653982
 30
0.0
 40
0.5
100
AcDbArc
 50
90.0
 51
180.0
  0
LINE
  5
7BE
330
2
100
AcDbEntity
  8
画層1
100
AcDbLine
 10
90.11110481568811
 20
342.7950267653982
 30
0.0
 11
90.11110481568811
 21
344.7950267653982
 31
0.0
  0
LINE
  5
7BF
330
2
100
AcDbEntity
  8
画層1
100
AcDbLine
 10
92.61110481568811
 20
239.7950267653982
 30
0.0
 11
92.61110481568811
 21
247.7950267653982
 31
0.0
  0
ARC
  5
7C0
330
2
100
AcDbEntity
  8
画層1
100
AcDbCircle
 10
92.11110481568812
 20
242.2950267653982
 30
0.0
 40
2.0
100
AcDbArc
 50
180.0
 51
270.0
  0
LINE
  5
7C1
330
2
100
AcDbEntity
  8
画層1
100
AcDbLine
 10
93.91110481568814
 20
239.7950267653982
 30
0.0
 11
92.61110481568811
 21
239.7950267653982
 31
0.0
  0
LINE
  5
7C2
330
2
100
AcDbEntity
  8
画層1
100
AcDbLine
 10
92.61110481568811
 20
240.2950267653982
 30
0.0
 11
92.11110481568812
 21
240.2950267653982
 31
0.0
  0
LINE
  5
7C3
330
2
100
AcDbEntity
  8
画層1
100
AcDbLine
 10
90.11110481568811
 20
242.7950267653982
 30
0.0
 11
90.11110481568811
 21
244.7950267653982
 31
0.0
  0
ARC
  5
7C4
330
2
100
AcDbEntity
  8
画層1
100
AcDbCircle
 10
90.61110481568812
 20
242.7950267653982
 30
0.0
 40
0.5
100
AcDbArc
 50
90.0
 51
180.0
  0
LINE
  5
7C5
330
2
100
AcDbEntity
  8
画層1
100
AcDbLine
 10
90.11110481568811
 20
242.7950267653982
 30
0.0
 11
90.11110481568811
 21
242.2950267653982
 31
0.0
  0
LINE
  5
7C6
330
2
100
AcDbEntity
  8
画層1
100
AcDbLine
 10
90.61110481568812
 20
244.2950267653982
 30
0.0
 11
91.11110481568813
 21
244.2950267653982
 31
0.0
  0
LINE
  5
7C7
330
2
100
AcDbEntity
  8
画層1
100
AcDbLine
 10
90.11110481568811
 20
244.7950267653982
 30
0.0
 11
90.11110481568811
 21
245.2950267653982
 31
0.0
  0
ARC
  5
7C8
330
2
100
AcDbEntity
  8
画層1
100
AcDbCircle
 10
90.61110481568812
 20
244.7950267653982
 30
0.0
 40
0.5
100
AcDbArc
 50
180.0
 51
270.0
  0
LINE
  5
7C9
330
2
100
AcDbEntity
  8
画層1
100
AcDbLine
 10
91.11110481568813
 20
243.2950267653982
 30
0.0
 11
90.61110481568812
 21
243.2950267653982
 31
0.0
  0
LINE
  5
7CA
330
2
100
AcDbEntity
  8
画層1
100
AcDbLine
 10
91.11110481568813
 20
244.2950267653982
 30
0.0
 11
91.11110481568813
 21
243.2950267653982
 31
0.0
  0
LINE
  5
7CB
330
2
100
AcDbEntity
  8
画層1
100
AcDbLine
 10
92.11110481568812
 20
247.2950267653982
 30
0.0
 11
92.61110481568811
 21
247.2950267653982
 31
0.0
  0
ARC
  5
7CC
330
2
100
AcDbEntity
  8
画層1
100
AcDbCircle
 10
92.11110481568812
 20
245.2950267653982
 30
0.0
 40
2.0
100
AcDbArc
 50
90.0
 51
180.0
  0
LINE
  5
7CD
330
2
100
AcDbEntity
  8
画層1
100
AcDbLine
 10
92.61110481568811
 20
247.7950267653982
 30
0.0
 11
93.11110481568812
 21
247.7950267653982
 31
0.0
  0
LINE
  5
7D4
102
{ACAD_REACTORS
330
89E
102
}
330
2
100
AcDbEntity
  8
画層1
100
AcDbLine
 10
108.6111048156881
 20
341.5450267653982
 30
0.0
 11
93.61110481568813
 21
341.5450267653982
 31
0.0
  0
LINE
  5
7D6
102
{ACAD_REACTORS
330
89E
102
}
330
2
100
AcDbEntity
  8
画層1
100
AcDbLine
 10
108.6111048156881
 20
250.0450267653982
 30
0.0
 11
93.61110481568813
 21
250.0450267653982
 31
0.0
  0
LINE
  5
7D7
102
{ACAD_REACTORS
330
89E
102
}
330
2
100
AcDbEntity
  8
画層1
100
AcDbLine
 10
93.61110481568813
 20
341.5450267653982
 30
0.0
 11
93.61110481568813
 21
250.0450267653982
 31
0.0
  0
LINE
  5
7D8
102
{ACAD_REACTORS
330
89E
102
}
330
2
100
AcDbEntity
  8
画層1
100
AcDbLine
 10
108.6111048156881
 20
341.5450267653982
 30
0.0
 11
108.6111048156881
 21
250.0450267653982
 31
0.0
  0
LINE
  5
7DB
102
{ACAD_REACTORS
330
89E
102
}
330
2
100
AcDbEntity
  8
画層1
100
AcDbLine
 10
93.61110481568813
 20
340.0450267653982
 30
0.0
 11
106.1111048156881
 21
340.0450267653982
 31
0.0
  0
LINE
  5
7DC
102
{ACAD_REACTORS
330
89E
102
}
330
2
100
AcDbEntity
  8
画層1
100
AcDbLine
 10
93.61110481568813
 20
331.5450267653982
 30
0.0
 11
106.1111048156881
 21
331.5450267653982
 31
0.0
  0
LINE
  5
7DD
102
{ACAD_REACTORS
330
89E
102
}
330
2
100
AcDbEntity
  8
画層1
100
AcDbLine
 10
93.61110481568813
 20
330.0450267653982
 30
0.0
 11
106.1111048156881
 21
330.0450267653982
 31
0.0
  0
LINE
  5
7E0
102
{ACAD_REACTORS
330
89E
102
}
330
2
100
AcDbEntity
  8
画層1
100
AcDbLine
 10
93.61110481568813
 20
320.0450267653982
 30
0.0
 11
106.1111048156881
 21
320.0450267653982
 31
0.0
  0
LINE
  5
7E1
102
{ACAD_REACTORS
330
89E
102
}
330
2
100
AcDbEntity
  8
画層1
100
AcDbLine
 10
93.61110481568813
 20
321.5450267653982
 30
0.0
 11
106.1111048156881
 21
321.5450267653982
 31
0.0
  0
LINE
  5
7E2
102
{ACAD_REACTORS
330
89E
102
}
330
2
100
AcDbEntity
  8
画層1
100
AcDbLine
 10
93.61110481568813
 20
301.5450267653982
 30
0.0
 11
106.1111048156881
 21
301.5450267653982
 31
0.0
  0
LINE
  5
7E3
102
{ACAD_REACTORS
330
89E
102
}
330
2
100
AcDbEntity
  8
画層1
100
AcDbLine
 10
93.61110481568813
 20
300.0450267653982
 30
0.0
 11
106.1111048156881
 21
300.0450267653982
 31
0.0
  0
LINE
  5
7E4
102
{ACAD_REACTORS
330
89E
102
}
330
2
100
AcDbEntity
  8
画層1
100
AcDbLine
 10
93.61110481568813
 20
310.0450267653982
 30
0.0
 11
106.1111048156881
 21
310.0450267653982
 31
0.0
  0
LINE
  5
7E5
102
{ACAD_REACTORS
330
89E
102
}
330
2
100
AcDbEntity
  8
画層1
100
AcDbLine
 10
93.61110481568813
 20
311.5450267653982
 30
0.0
 11
106.1111048156881
 21
311.5450267653982
 31
0.0
  0
LINE
  5
7E6
102
{ACAD_REACTORS
330
89E
102
}
330
2
100
AcDbEntity
  8
画層1
100
AcDbLine
 10
93.61110481568813
 20
271.5450267653982
 30
0.0
 11
106.1111048156881
 21
271.5450267653982
 31
0.0
  0
LINE
  5
7E7
102
{ACAD_REACTORS
330
89E
102
}
330
2
100
AcDbEntity
  8
画層1
100
AcDbLine
 10
93.61110481568813
 20
270.0450267653982
 30
0.0
 11
106.1111048156881
 21
270.0450267653982
 31
0.0
  0
LINE
  5
7E8
102
{ACAD_REACTORS
330
89E
102
}
330
2
100
AcDbEntity
  8
画層1
100
AcDbLine
 10
93.61110481568813
 20
260.0450267653982
 30
0.0
 11
106.1111048156881
 21
260.0450267653982
 31
0.0
  0
LINE
  5
7E9
102
{ACAD_REACTORS
330
89E
102
}
330
2
100
AcDbEntity
  8
画層1
100
AcDbLine
 10
93.61110481568813
 20
261.5450267653982
 30
0.0
 11
106.1111048156881
 21
261.5450267653982
 31
0.0
  0
LINE
  5
7EA
102
{ACAD_REACTORS
330
89E
102
}
330
2
100
AcDbEntity
  8
画層1
100
AcDbLine
 10
93.61110481568813
 20
281.5450267653982
 30
0.0
 11
106.1111048156881
 21
281.5450267653982
 31
0.0
  0
LINE
  5
7EB
102
{ACAD_REACTORS
330
89E
102
}
330
2
100
AcDbEntity
  8
画層1
100
AcDbLine
 10
93.61110481568813
 20
280.0450267653982
 30
0.0
 11
106.1111048156881
 21
280.0450267653982
 31
0.0
  0
LINE
  5
7EC
102
{ACAD_REACTORS
330
89E
102
}
330
2
100
AcDbEntity
  8
画層1
100
AcDbLine
 10
93.61110481568813
 20
290.0450267653982
 30
0.0
 11
106.1111048156881
 21
290.0450267653982
 31
0.0
  0
LINE
  5
7ED
102
{ACAD_REACTORS
330
89E
102
}
330
2
100
AcDbEntity
  8
画層1
100
AcDbLine
 10
93.61110481568813
 20
291.5450267653982
 30
0.0
 11
106.1111048156881
 21
291.5450267653982
 31
0.0
  0
LINE
  5
7EE
102
{ACAD_REACTORS
330
89E
102
}
330
2
100
AcDbEntity
  8
画層1
100
AcDbLine
 10
93.61110481568813
 20
251.5450267653982
 30
0.0
 11
106.1111048156881
 21
251.5450267653982
 31
0.0
  0
LINE
  5
7EF
102
{ACAD_REACTORS
330
89E
102
}
330
2
100
AcDbEntity
  8
画層1
100
AcDbLine
 10
93.61110481568813
 20
250.0450267653982
 30
0.0
 11
108.6111048156881
 21
250.0450267653982
 31
0.0
  0
LWPOLYLINE
  5
7F4
102
{ACAD_REACTORS
330
89E
102
}
330
2
100
AcDbEntity
  8
画層1
100
AcDbPolyline
 90
        4
 70
     1
 43
0.0
 10
96.11110481568813
 20
321.7950267653982
 10
104.1111048156881
 20
321.7950267653982
 10
104.1111048156881
 20
329.7950267653982
 10
96.11110481568813
 20
329.7950267653982
  0
CIRCLE
  5
7F6
102
{ACAD_REACTORS
330
89E
102
}
330
2
100
AcDbEntity
  8
画層1
100
AcDbCircle
 10
100.1111048156881
 20
325.7950267653982
 30
0.0
 40
3.0
  0
LINE
  5
7F8
102
{ACAD_REACTORS
330
803
330
806
330
89E
102
}
330
2
100
AcDbEntity
  8
画層1
100
AcDbLine
 10
100.6111048156881
 20
325.2950267653982
 30
0.0
 11
101.6111048156881
 21
325.2950267653982
 31
0.0
  0
LINE
  5
7F9
102
{ACAD_REACTORS
330
803
330
806
330
89E
102
}
330
2
100
AcDbEntity
  8
画層1
100
AcDbLine
 10
100.6111048156881
 20
324.2950267653982
 30
0.0
 11
100.6111048156881
 21
325.2950267653982
 31
0.0
  0
LINE
  5
7FA
102
{ACAD_REACTORS
330
803
330
806
330
89E
102
}
330
2
100
AcDbEntity
  8
画層1
100
AcDbLine
 10
99.61110481568812
 20
325.2950267653982
 30
0.0
 11
99.61110481568812
 21
324.2950267653982
 31
0.0
  0
LINE
  5
7FB
102
{ACAD_REACTORS
330
803
330
806
330
89E
102
}
330
2
100
AcDbEntity
  8
画層1
100
AcDbLine
 10
98.61110481568813
 20
325.2950267653982
 30
0.0
 11
99.61110481568812
 21
325.2950267653982
 31
0.0
  0
LINE
  5
7FC
102
{ACAD_REACTORS
330
803
330
806
330
89E
102
}
330
2
100
AcDbEntity
  8
画層1
100
AcDbLine
 10
98.61110481568813
 20
326.2950267653982
 30
0.0
 11
99.61110481568812
 21
326.2950267653982
 31
0.0
  0
LINE
  5
7FD
102
{ACAD_REACTORS
330
803
330
806
330
89E
102
}
330
2
100
AcDbEntity
  8
画層1
100
AcDbLine
 10
100.6111048156881
 20
326.2950267653982
 30
0.0
 11
101.6111048156881
 21
326.2950267653982
 31
0.0
  0
LINE
  5
7FE
102
{ACAD_REACTORS
330
803
330
806
330
89E
102
}
330
2
100
AcDbEntity
  8
画層1
100
AcDbLine
 10
99.61110481568812
 20
326.2950267653982
 30
0.0
 11
99.61110481568812
 21
327.2950267653982
 31
0.0
  0
LINE
  5
7FF
102
{ACAD_REACTORS
330
803
330
806
330
89E
102
}
330
2
100
AcDbEntity
  8
画層1
100
AcDbLine
 10
100.6111048156881
 20
327.2950267653982
 30
0.0
 11
99.61110481568812
 21
327.2950267653982
 31
0.0
  0
LINE
  5
800
102
{ACAD_REACTORS
330
803
330
806
330
89E
102
}
330
2
100
AcDbEntity
  8
画層1
100
AcDbLine
 10
101.6111048156881
 20
325.2950267653982
 30
0.0
 11
101.6111048156881
 21
326.2950267653982
 31
0.0
  0
LINE
  5
801
102
{ACAD_REACTORS
330
803
330
806
330
89E
102
}
330
2
100
AcDbEntity
  8
画層1
100
AcDbLine
 10
99.61110481568812
 20
324.2950267653982
 30
0.0
 11
100.6111048156881
 21
324.2950267653982
 31
0.0
  0
LINE
  5
802
102
{ACAD_REACTORS
330
803
330
806
330
89E
102
}
330
2
100
AcDbEntity
  8
画層1
100
AcDbLine
 10
98.61110481568813
 20
326.2950267653982
 30
0.0
 11
98.61110481568813
 21
325.2950267653982
 31
0.0
  0
LINE
  5
805
102
{ACAD_REACTORS
330
806
330
89E
102
}
330
2
100
AcDbEntity
  8
画層1
100
AcDbLine
 10
100.6111048156881
 20
326.2950267653982
 30
0.0
 11
100.6111048156881
 21
327.2950267653982
 31
0.0
  0
CIRCLE
  5
807
102
{ACAD_REACTORS
330
89E
102
}
330
2
100
AcDbEntity
  8
画層1
100
AcDbCircle
 10
100.1111048156881
 20
335.7950267653982
 30
0.0
 40
3.0
  0
LWPOLYLINE
  5
808
102
{ACAD_REACTORS
330
89E
102
}
330
2
100
AcDbEntity
  8
画層1
100
AcDbPolyline
 90
        4
 70
     1
 43
0.0
 10
96.11110481568813
 20
331.7950267653982
 10
104.1111048156881
 20
331.7950267653982
 10
104.1111048156881
 20
339.7950267653982
 10
96.11110481568813
 20
339.7950267653982
  0
LINE
  5
809
102
{ACAD_REACTORS
330
815
330
816
330
89E
102
}
330
2
100
AcDbEntity
  8
画層1
100
AcDbLine
 10
100.6111048156881
 20
335.2950267653982
 30
0.0
 11
101.6111048156881
 21
335.2950267653982
 31
0.0
  0
LINE
  5
80A
102
{ACAD_REACTORS
330
815
330
816
330
89E
102
}
330
2
100
AcDbEntity
  8
画層1
100
AcDbLine
 10
100.6111048156881
 20
336.2950267653982
 30
0.0
 11
101.6111048156881
 21
336.2950267653982
 31
0.0
  0
LINE
  5
80B
102
{ACAD_REACTORS
330
815
330
816
330
89E
102
}
330
2
100
AcDbEntity
  8
画層1
100
AcDbLine
 10
100.6111048156881
 20
337.2950267653982
 30
0.0
 11
99.61110481568812
 21
337.2950267653982
 31
0.0
  0
LINE
  5
80C
102
{ACAD_REACTORS
330
815
330
816
330
89E
102
}
330
2
100
AcDbEntity
  8
画層1
100
AcDbLine
 10
100.6111048156881
 20
334.2950267653982
 30
0.0
 11
100.6111048156881
 21
335.2950267653982
 31
0.0
  0
LINE
  5
80D
102
{ACAD_REACTORS
330
815
330
816
330
89E
102
}
330
2
100
AcDbEntity
  8
画層1
100
AcDbLine
 10
99.61110481568812
 20
335.2950267653982
 30
0.0
 11
99.61110481568812
 21
334.2950267653982
 31
0.0
  0
LINE
  5
80E
102
{ACAD_REACTORS
330
815
330
816
330
89E
102
}
330
2
100
AcDbEntity
  8
画層1
100
AcDbLine
 10
98.61110481568813
 20
335.2950267653982
 30
0.0
 11
99.61110481568812
 21
335.2950267653982
 31
0.0
  0
LINE
  5
80F
102
{ACAD_REACTORS
330
815
330
816
330
89E
102
}
330
2
100
AcDbEntity
  8
画層1
100
AcDbLine
 10
98.61110481568813
 20
336.2950267653982
 30
0.0
 11
99.61110481568812
 21
336.2950267653982
 31
0.0
  0
LINE
  5
810
102
{ACAD_REACTORS
330
815
330
816
330
89E
102
}
330
2
100
AcDbEntity
  8
画層1
100
AcDbLine
 10
99.61110481568812
 20
334.2950267653982
 30
0.0
 11
100.6111048156881
 21
334.2950267653982
 31
0.0
  0
LINE
  5
811
102
{ACAD_REACTORS
330
815
330
816
330
89E
102
}
330
2
100
AcDbEntity
  8
画層1
100
AcDbLine
 10
98.61110481568813
 20
336.2950267653982
 30
0.0
 11
98.61110481568813
 21
335.2950267653982
 31
0.0
  0
LINE
  5
812
102
{ACAD_REACTORS
330
815
330
816
330
89E
102
}
330
2
100
AcDbEntity
  8
画層1
100
AcDbLine
 10
99.61110481568812
 20
336.2950267653982
 30
0.0
 11
99.61110481568812
 21
337.2950267653982
 31
0.0
  0
LINE
  5
813
102
{ACAD_REACTORS
330
816
330
89E
102
}
330
2
100
AcDbEntity
  8
画層1
100
AcDbLine
 10
100.6111048156881
 20
336.2950267653982
 30
0.0
 11
100.6111048156881
 21
337.2950267653982
 31
0.0
  0
LINE
  5
814
102
{ACAD_REACTORS
330
815
330
816
330
89E
102
}
330
2
100
AcDbEntity
  8
画層1
100
AcDbLine
 10
101.6111048156881
 20
335.2950267653982
 30
0.0
 11
101.6111048156881
 21
336.2950267653982
 31
0.0
  0
CIRCLE
  5
817
102
{ACAD_REACTORS
330
89E
102
}
330
2
100
AcDbEntity
  8
画層1
100
AcDbCircle
 10
100.1111048156881
 20
305.7950267653982
 30
0.0
 40
3.0
  0
LWPOLYLINE
  5
818
102
{ACAD_REACTORS
330
89E
102
}
330
2
100
AcDbEntity
  8
画層1
100
AcDbPolyline
 90
        4
 70
     1
 43
0.0
 10
96.11110481568813
 20
301.7950267653982
 10
104.1111048156881
 20
301.7950267653982
 10
104.1111048156881
 20
309.7950267653982
 10
96.11110481568813
 20
309.7950267653982
  0
LWPOLYLINE
  5
819
102
{ACAD_REACTORS
330
89E
102
}
330
2
100
AcDbEntity
  8
画層1
100
AcDbPolyline
 90
        4
 70
     1
 43
0.0
 10
96.11110481568813
 20
311.7950267653982
 10
104.1111048156881
 20
311.7950267653982
 10
104.1111048156881
 20
319.7950267653982
 10
96.11110481568813
 20
319.7950267653982
  0
LINE
  5
81A
102
{ACAD_REACTORS
330
833
330
834
330
89E
102
}
330
2
100
AcDbEntity
  8
画層1
100
AcDbLine
 10
100.6111048156881
 20
305.2950267653982
 30
0.0
 11
101.6111048156881
 21
305.2950267653982
 31
0.0
  0
LINE
  5
81B
102
{ACAD_REACTORS
330
833
330
834
330
89E
102
}
330
2
100
AcDbEntity
  8
画層1
100
AcDbLine
 10
100.6111048156881
 20
306.2950267653982
 30
0.0
 11
101.6111048156881
 21
306.2950267653982
 31
0.0
  0
LINE
  5
81C
102
{ACAD_REACTORS
330
833
330
834
330
89E
102
}
330
2
100
AcDbEntity
  8
画層1
100
AcDbLine
 10
100.6111048156881
 20
307.2950267653982
 30
0.0
 11
99.61110481568812
 21
307.2950267653982
 31
0.0
  0
LINE
  5
81D
102
{ACAD_REACTORS
330
833
330
834
330
89E
102
}
330
2
100
AcDbEntity
  8
画層1
100
AcDbLine
 10
100.6111048156881
 20
304.2950267653982
 30
0.0
 11
100.6111048156881
 21
305.2950267653982
 31
0.0
  0
LINE
  5
81E
102
{ACAD_REACTORS
330
833
330
834
330
89E
102
}
330
2
100
AcDbEntity
  8
画層1
100
AcDbLine
 10
99.61110481568812
 20
305.2950267653982
 30
0.0
 11
99.61110481568812
 21
304.2950267653982
 31
0.0
  0
LINE
  5
81F
102
{ACAD_REACTORS
330
833
330
834
330
89E
102
}
330
2
100
AcDbEntity
  8
画層1
100
AcDbLine
 10
98.61110481568813
 20
305.2950267653982
 30
0.0
 11
99.61110481568812
 21
305.2950267653982
 31
0.0
  0
LINE
  5
820
102
{ACAD_REACTORS
330
833
330
834
330
89E
102
}
330
2
100
AcDbEntity
  8
画層1
100
AcDbLine
 10
98.61110481568813
 20
306.2950267653982
 30
0.0
 11
99.61110481568812
 21
306.2950267653982
 31
0.0
  0
LINE
  5
821
102
{ACAD_REACTORS
330
833
330
834
330
89E
102
}
330
2
100
AcDbEntity
  8
画層1
100
AcDbLine
 10
99.61110481568812
 20
304.2950267653982
 30
0.0
 11
100.6111048156881
 21
304.2950267653982
 31
0.0
  0
LINE
  5
822
102
{ACAD_REACTORS
330
833
330
834
330
89E
102
}
330
2
100
AcDbEntity
  8
画層1
100
AcDbLine
 10
98.61110481568813
 20
306.2950267653982
 30
0.0
 11
98.61110481568813
 21
305.2950267653982
 31
0.0
  0
LINE
  5
823
102
{ACAD_REACTORS
330
833
330
834
330
89E
102
}
330
2
100
AcDbEntity
  8
画層1
100
AcDbLine
 10
99.61110481568812
 20
306.2950267653982
 30
0.0
 11
99.61110481568812
 21
307.2950267653982
 31
0.0
  0
LINE
  5
824
102
{ACAD_REACTORS
330
834
330
89E
102
}
330
2
100
AcDbEntity
  8
画層1
100
AcDbLine
 10
100.6111048156881
 20
306.2950267653982
 30
0.0
 11
100.6111048156881
 21
307.2950267653982
 31
0.0
  0
LINE
  5
825
102
{ACAD_REACTORS
330
833
330
834
330
89E
102
}
330
2
100
AcDbEntity
  8
画層1
100
AcDbLine
 10
101.6111048156881
 20
305.2950267653982
 30
0.0
 11
101.6111048156881
 21
306.2950267653982
 31
0.0
  0
LINE
  5
826
102
{ACAD_REACTORS
330
835
330
836
330
89E
102
}
330
2
100
AcDbEntity
  8
画層1
100
AcDbLine
 10
100.6111048156881
 20
316.2950267653982
 30
0.0
 11
101.6111048156881
 21
316.2950267653982
 31
0.0
  0
LINE
  5
827
102
{ACAD_REACTORS
330
835
330
836
330
89E
102
}
330
2
100
AcDbEntity
  8
画層1
100
AcDbLine
 10
100.6111048156881
 20
315.2950267653982
 30
0.0
 11
101.6111048156881
 21
315.2950267653982
 31
0.0
  0
CIRCLE
  5
828
102
{ACAD_REACTORS
330
89E
102
}
330
2
100
AcDbEntity
  8
画層1
100
AcDbCircle
 10
100.1111048156881
 20
315.7950267653982
 30
0.0
 40
3.0
  0
LINE
  5
829
102
{ACAD_REACTORS
330
836
330
89E
102
}
330
2
100
AcDbEntity
  8
画層1
100
AcDbLine
 10
100.6111048156881
 20
316.2950267653982
 30
0.0
 11
100.6111048156881
 21
317.2950267653982
 31
0.0
  0
LINE
  5
82A
102
{ACAD_REACTORS
330
835
330
836
330
89E
102
}
330
2
100
AcDbEntity
  8
画層1
100
AcDbLine
 10
99.61110481568812
 20
316.2950267653982
 30
0.0
 11
99.61110481568812
 21
317.2950267653982
 31
0.0
  0
LINE
  5
82B
102
{ACAD_REACTORS
330
835
330
836
330
89E
102
}
330
2
100
AcDbEntity
  8
画層1
100
AcDbLine
 10
98.61110481568813
 20
316.2950267653982
 30
0.0
 11
98.61110481568813
 21
315.2950267653982
 31
0.0
  0
LINE
  5
82C
102
{ACAD_REACTORS
330
835
330
836
330
89E
102
}
330
2
100
AcDbEntity
  8
画層1
100
AcDbLine
 10
99.61110481568812
 20
314.2950267653982
 30
0.0
 11
100.6111048156881
 21
314.2950267653982
 31
0.0
  0
LINE
  5
82D
102
{ACAD_REACTORS
330
835
330
836
330
89E
102
}
330
2
100
AcDbEntity
  8
画層1
100
AcDbLine
 10
98.61110481568813
 20
316.2950267653982
 30
0.0
 11
99.61110481568812
 21
316.2950267653982
 31
0.0
  0
LINE
  5
82E
102
{ACAD_REACTORS
330
835
330
836
330
89E
102
}
330
2
100
AcDbEntity
  8
画層1
100
AcDbLine
 10
98.61110481568813
 20
315.2950267653982
 30
0.0
 11
99.61110481568812
 21
315.2950267653982
 31
0.0
  0
LINE
  5
82F
102
{ACAD_REACTORS
330
835
330
836
330
89E
102
}
330
2
100
AcDbEntity
  8
画層1
100
AcDbLine
 10
99.61110481568812
 20
315.2950267653982
 30
0.0
 11
99.61110481568812
 21
314.2950267653982
 31
0.0
  0
LINE
  5
830
102
{ACAD_REACTORS
330
835
330
836
330
89E
102
}
330
2
100
AcDbEntity
  8
画層1
100
AcDbLine
 10
100.6111048156881
 20
314.2950267653982
 30
0.0
 11
100.6111048156881
 21
315.2950267653982
 31
0.0
  0
LINE
  5
831
102
{ACAD_REACTORS
330
835
330
836
330
89E
102
}
330
2
100
AcDbEntity
  8
画層1
100
AcDbLine
 10
100.6111048156881
 20
317.2950267653982
 30
0.0
 11
99.61110481568812
 21
317.2950267653982
 31
0.0
  0
LINE
  5
832
102
{ACAD_REACTORS
330
835
330
836
330
89E
102
}
330
2
100
AcDbEntity
  8
画層1
100
AcDbLine
 10
101.6111048156881
 20
315.2950267653982
 30
0.0
 11
101.6111048156881
 21
316.2950267653982
 31
0.0
  0
CIRCLE
  5
837
102
{ACAD_REACTORS
330
89E
102
}
330
2
100
AcDbEntity
  8
画層1
100
AcDbCircle
 10
100.1111048156881
 20
285.7950267653982
 30
0.0
 40
3.0
  0
LWPOLYLINE
  5
838
102
{ACAD_REACTORS
330
89E
102
}
330
2
100
AcDbEntity
  8
画層1
100
AcDbPolyline
 90
        4
 70
     1
 43
0.0
 10
96.11110481568813
 20
281.7950267653982
 10
104.1111048156881
 20
281.7950267653982
 10
104.1111048156881
 20
289.7950267653982
 10
96.11110481568813
 20
289.7950267653982
  0
LINE
  5
839
102
{ACAD_REACTORS
330
873
330
874
330
89E
102
}
330
2
100
AcDbEntity
  8
画層1
100
AcDbLine
 10
101.6111048156881
 20
265.2950267653982
 30
0.0
 11
101.6111048156881
 21
266.2950267653982
 31
0.0
  0
LINE
  5
83A
102
{ACAD_REACTORS
330
873
330
874
330
89E
102
}
330
2
100
AcDbEntity
  8
画層1
100
AcDbLine
 10
98.61110481568813
 20
266.2950267653982
 30
0.0
 11
98.61110481568813
 21
265.2950267653982
 31
0.0
  0
LWPOLYLINE
  5
83B
102
{ACAD_REACTORS
330
89E
102
}
330
2
100
AcDbEntity
  8
画層1
100
AcDbPolyline
 90
        4
 70
     1
 43
0.0
 10
96.11110481568813
 20
261.7950267653982
 10
104.1111048156881
 20
261.7950267653982
 10
104.1111048156881
 20
269.7950267653982
 10
96.11110481568813
 20
269.7950267653982
  0
CIRCLE
  5
83C
102
{ACAD_REACTORS
330
89E
102
}
330
2
100
AcDbEntity
  8
画層1
100
AcDbCircle
 10
100.1111048156881
 20
265.7950267653982
 30
0.0
 40
3.0
  0
LINE
  5
83D
102
{ACAD_REACTORS
330
873
330
874
330
89E
102
}
330
2
100
AcDbEntity
  8
画層1
100
AcDbLine
 10
100.6111048156881
 20
265.2950267653982
 30
0.0
 11
101.6111048156881
 21
265.2950267653982
 31
0.0
  0
LINE
  5
83E
102
{ACAD_REACTORS
330
873
330
874
330
89E
102
}
330
2
100
AcDbEntity
  8
画層1
100
AcDbLine
 10
99.61110481568812
 20
264.2950267653982
 30
0.0
 11
100.6111048156881
 21
264.2950267653982
 31
0.0
  0
LINE
  5
83F
102
{ACAD_REACTORS
330
873
330
874
330
89E
102
}
330
2
100
AcDbEntity
  8
画層1
100
AcDbLine
 10
98.61110481568813
 20
265.2950267653982
 30
0.0
 11
99.61110481568812
 21
265.2950267653982
 31
0.0
  0
LINE
  5
840
102
{ACAD_REACTORS
330
873
330
874
330
89E
102
}
330
2
100
AcDbEntity
  8
画層1
100
AcDbLine
 10
99.61110481568812
 20
265.2950267653982
 30
0.0
 11
99.61110481568812
 21
264.2950267653982
 31
0.0
  0
LINE
  5
841
102
{ACAD_REACTORS
330
873
330
874
330
89E
102
}
330
2
100
AcDbEntity
  8
画層1
100
AcDbLine
 10
100.6111048156881
 20
264.2950267653982
 30
0.0
 11
100.6111048156881
 21
265.2950267653982
 31
0.0
  0
LINE
  5
842
102
{ACAD_REACTORS
330
875
330
876
330
89E
102
}
330
2
100
AcDbEntity
  8
画層1
100
AcDbLine
 10
100.6111048156881
 20
274.2950267653982
 30
0.0
 11
100.6111048156881
 21
275.2950267653982
 31
0.0
  0
LINE
  5
843
102
{ACAD_REACTORS
330
875
330
876
330
89E
102
}
330
2
100
AcDbEntity
  8
画層1
100
AcDbLine
 10
99.61110481568812
 20
275.2950267653982
 30
0.0
 11
99.61110481568812
 21
274.2950267653982
 31
0.0
  0
CIRCLE
  5
844
102
{ACAD_REACTORS
330
89E
102
}
330
2
100
AcDbEntity
  8
画層1
100
AcDbCircle
 10
100.1111048156881
 20
275.7950267653982
 30
0.0
 40
3.0
  0
LWPOLYLINE
  5
845
102
{ACAD_REACTORS
330
89E
102
}
330
2
100
AcDbEntity
  8
画層1
100
AcDbPolyline
 90
        4
 70
     1
 43
0.0
 10
96.11110481568813
 20
271.7950267653982
 10
104.1111048156881
 20
271.7950267653982
 10
104.1111048156881
 20
279.7950267653982
 10
96.11110481568813
 20
279.7950267653982
  0
LINE
  5
846
102
{ACAD_REACTORS
330
873
330
874
330
89E
102
}
330
2
100
AcDbEntity
  8
画層1
100
AcDbLine
 10
100.6111048156881
 20
266.2950267653982
 30
0.0
 11
101.6111048156881
 21
266.2950267653982
 31
0.0
  0
LINE
  5
847
102
{ACAD_REACTORS
330
875
330
876
330
89E
102
}
330
2
100
AcDbEntity
  8
画層1
100
AcDbLine
 10
99.61110481568812
 20
274.2950267653982
 30
0.0
 11
100.6111048156881
 21
274.2950267653982
 31
0.0
  0
LINE
  5
848
102
{ACAD_REACTORS
330
874
330
89E
102
}
330
2
100
AcDbEntity
  8
画層1
100
AcDbLine
 10
100.6111048156881
 20
266.2950267653982
 30
0.0
 11
100.6111048156881
 21
267.2950267653982
 31
0.0
  0
LINE
  5
849
102
{ACAD_REACTORS
330
873
330
874
330
89E
102
}
330
2
100
AcDbEntity
  8
画層1
100
AcDbLine
 10
99.61110481568812
 20
266.2950267653982
 30
0.0
 11
99.61110481568812
 21
267.2950267653982
 31
0.0
  0
LINE
  5
84A
102
{ACAD_REACTORS
330
873
330
874
330
89E
102
}
330
2
100
AcDbEntity
  8
画層1
100
AcDbLine
 10
98.61110481568813
 20
266.2950267653982
 30
0.0
 11
99.61110481568812
 21
266.2950267653982
 31
0.0
  0
LINE
  5
84B
102
{ACAD_REACTORS
330
873
330
874
330
89E
102
}
330
2
100
AcDbEntity
  8
画層1
100
AcDbLine
 10
100.6111048156881
 20
267.2950267653982
 30
0.0
 11
99.61110481568812
 21
267.2950267653982
 31
0.0
  0
LINE
  5
84C
102
{ACAD_REACTORS
330
875
330
876
330
89E
102
}
330
2
100
AcDbEntity
  8
画層1
100
AcDbLine
 10
100.6111048156881
 20
275.2950267653982
 30
0.0
 11
101.6111048156881
 21
275.2950267653982
 31
0.0
  0
LINE
  5
84D
102
{ACAD_REACTORS
330
875
330
876
330
89E
102
}
330
2
100
AcDbEntity
  8
画層1
100
AcDbLine
 10
100.6111048156881
 20
276.2950267653982
 30
0.0
 11
101.6111048156881
 21
276.2950267653982
 31
0.0
  0
LINE
  5
84E
102
{ACAD_REACTORS
330
875
330
876
330
89E
102
}
330
2
100
AcDbEntity
  8
画層1
100
AcDbLine
 10
100.6111048156881
 20
277.2950267653982
 30
0.0
 11
99.61110481568812
 21
277.2950267653982
 31
0.0
  0
LINE
  5
84F
102
{ACAD_REACTORS
330
875
330
876
330
89E
102
}
330
2
100
AcDbEntity
  8
画層1
100
AcDbLine
 10
98.61110481568813
 20
275.2950267653982
 30
0.0
 11
99.61110481568812
 21
275.2950267653982
 31
0.0
  0
LINE
  5
850
102
{ACAD_REACTORS
330
875
330
876
330
89E
102
}
330
2
100
AcDbEntity
  8
画層1
100
AcDbLine
 10
98.61110481568813
 20
276.2950267653982
 30
0.0
 11
99.61110481568812
 21
276.2950267653982
 31
0.0
  0
LINE
  5
851
102
{ACAD_REACTORS
330
875
330
876
330
89E
102
}
330
2
100
AcDbEntity
  8
画層1
100
AcDbLine
 10
98.61110481568813
 20
276.2950267653982
 30
0.0
 11
98.61110481568813
 21
275.2950267653982
 31
0.0
  0
LINE
  5
852
102
{ACAD_REACTORS
330
875
330
876
330
89E
102
}
330
2
100
AcDbEntity
  8
画層1
100
AcDbLine
 10
99.61110481568812
 20
276.2950267653982
 30
0.0
 11
99.61110481568812
 21
277.2950267653982
 31
0.0
  0
LINE
  5
853
102
{ACAD_REACTORS
330
876
330
89E
102
}
330
2
100
AcDbEntity
  8
画層1
100
AcDbLine
 10
100.6111048156881
 20
276.2950267653982
 30
0.0
 11
100.6111048156881
 21
277.2950267653982
 31
0.0
  0
LINE
  5
854
102
{ACAD_REACTORS
330
875
330
876
330
89E
102
}
330
2
100
AcDbEntity
  8
画層1
100
AcDbLine
 10
101.6111048156881
 20
275.2950267653982
 30
0.0
 11
101.6111048156881
 21
276.2950267653982
 31
0.0
  0
LWPOLYLINE
  5
855
102
{ACAD_REACTORS
330
89E
102
}
330
2
100
AcDbEntity
  8
画層1
100
AcDbPolyline
 90
        4
 70
     1
 43
0.0
 10
96.11110481568813
 20
291.7950267653982
 10
104.1111048156881
 20
291.7950267653982
 10
104.1111048156881
 20
299.7950267653982
 10
96.11110481568813
 20
299.7950267653982
  0
LINE
  5
856
102
{ACAD_REACTORS
330
86F
330
870
330
89E
102
}
330
2
100
AcDbEntity
  8
画層1
100
AcDbLine
 10
100.6111048156881
 20
285.2950267653982
 30
0.0
 11
101.6111048156881
 21
285.2950267653982
 31
0.0
  0
LINE
  5
857
102
{ACAD_REACTORS
330
86F
330
870
330
89E
102
}
330
2
100
AcDbEntity
  8
画層1
100
AcDbLine
 10
100.6111048156881
 20
286.2950267653982
 30
0.0
 11
101.6111048156881
 21
286.2950267653982
 31
0.0
  0
LINE
  5
858
102
{ACAD_REACTORS
330
86F
330
870
330
89E
102
}
330
2
100
AcDbEntity
  8
画層1
100
AcDbLine
 10
100.6111048156881
 20
287.2950267653982
 30
0.0
 11
99.61110481568812
 21
287.2950267653982
 31
0.0
  0
LINE
  5
859
102
{ACAD_REACTORS
330
86F
330
870
330
89E
102
}
330
2
100
AcDbEntity
  8
画層1
100
AcDbLine
 10
100.6111048156881
 20
284.2950267653982
 30
0.0
 11
100.6111048156881
 21
285.2950267653982
 31
0.0
  0
LINE
  5
85A
102
{ACAD_REACTORS
330
86F
330
870
330
89E
102
}
330
2
100
AcDbEntity
  8
画層1
100
AcDbLine
 10
99.61110481568812
 20
285.2950267653982
 30
0.0
 11
99.61110481568812
 21
284.2950267653982
 31
0.0
  0
LINE
  5
85B
102
{ACAD_REACTORS
330
86F
330
870
330
89E
102
}
330
2
100
AcDbEntity
  8
画層1
100
AcDbLine
 10
98.61110481568813
 20
285.2950267653982
 30
0.0
 11
99.61110481568812
 21
285.2950267653982
 31
0.0
  0
LINE
  5
85C
102
{ACAD_REACTORS
330
86F
330
870
330
89E
102
}
330
2
100
AcDbEntity
  8
画層1
100
AcDbLine
 10
98.61110481568813
 20
286.2950267653982
 30
0.0
 11
99.61110481568812
 21
286.2950267653982
 31
0.0
  0
LINE
  5
85D
102
{ACAD_REACTORS
330
86F
330
870
330
89E
102
}
330
2
100
AcDbEntity
  8
画層1
100
AcDbLine
 10
99.61110481568812
 20
284.2950267653982
 30
0.0
 11
100.6111048156881
 21
284.2950267653982
 31
0.0
  0
LINE
  5
85E
102
{ACAD_REACTORS
330
86F
330
870
330
89E
102
}
330
2
100
AcDbEntity
  8
画層1
100
AcDbLine
 10
98.61110481568813
 20
286.2950267653982
 30
0.0
 11
98.61110481568813
 21
285.2950267653982
 31
0.0
  0
LINE
  5
85F
102
{ACAD_REACTORS
330
86F
330
870
330
89E
102
}
330
2
100
AcDbEntity
  8
画層1
100
AcDbLine
 10
99.61110481568812
 20
286.2950267653982
 30
0.0
 11
99.61110481568812
 21
287.2950267653982
 31
0.0
  0
LINE
  5
860
102
{ACAD_REACTORS
330
870
330
89E
102
}
330
2
100
AcDbEntity
  8
画層1
100
AcDbLine
 10
100.6111048156881
 20
286.2950267653982
 30
0.0
 11
100.6111048156881
 21
287.2950267653982
 31
0.0
  0
LINE
  5
861
102
{ACAD_REACTORS
330
86F
330
870
330
89E
102
}
330
2
100
AcDbEntity
  8
画層1
100
AcDbLine
 10
101.6111048156881
 20
285.2950267653982
 30
0.0
 11
101.6111048156881
 21
286.2950267653982
 31
0.0
  0
LINE
  5
862
102
{ACAD_REACTORS
330
871
330
872
330
89E
102
}
330
2
100
AcDbEntity
  8
画層1
100
AcDbLine
 10
100.6111048156881
 20
296.2950267653982
 30
0.0
 11
101.6111048156881
 21
296.2950267653982
 31
0.0
  0
LINE
  5
863
102
{ACAD_REACTORS
330
871
330
872
330
89E
102
}
330
2
100
AcDbEntity
  8
画層1
100
AcDbLine
 10
100.6111048156881
 20
295.2950267653982
 30
0.0
 11
101.6111048156881
 21
295.2950267653982
 31
0.0
  0
CIRCLE
  5
864
102
{ACAD_REACTORS
330
89E
102
}
330
2
100
AcDbEntity
  8
画層1
100
AcDbCircle
 10
100.1111048156881
 20
295.7950267653982
 30
0.0
 40
3.0
  0
LINE
  5
865
102
{ACAD_REACTORS
330
872
330
89E
102
}
330
2
100
AcDbEntity
  8
画層1
100
AcDbLine
 10
100.6111048156881
 20
296.2950267653982
 30
0.0
 11
100.6111048156881
 21
297.2950267653982
 31
0.0
  0
LINE
  5
866
102
{ACAD_REACTORS
330
871
330
872
330
89E
102
}
330
2
100
AcDbEntity
  8
画層1
100
AcDbLine
 10
99.61110481568812
 20
296.2950267653982
 30
0.0
 11
99.61110481568812
 21
297.2950267653982
 31
0.0
  0
LINE
  5
867
102
{ACAD_REACTORS
330
871
330
872
330
89E
102
}
330
2
100
AcDbEntity
  8
画層1
100
AcDbLine
 10
98.61110481568813
 20
296.2950267653982
 30
0.0
 11
98.61110481568813
 21
295.2950267653982
 31
0.0
  0
LINE
  5
868
102
{ACAD_REACTORS
330
871
330
872
330
89E
102
}
330
2
100
AcDbEntity
  8
画層1
100
AcDbLine
 10
99.61110481568812
 20
294.2950267653982
 30
0.0
 11
100.6111048156881
 21
294.2950267653982
 31
0.0
  0
LINE
  5
869
102
{ACAD_REACTORS
330
871
330
872
330
89E
102
}
330
2
100
AcDbEntity
  8
画層1
100
AcDbLine
 10
98.61110481568813
 20
296.2950267653982
 30
0.0
 11
99.61110481568812
 21
296.2950267653982
 31
0.0
  0
LINE
  5
86A
102
{ACAD_REACTORS
330
871
330
872
330
89E
102
}
330
2
100
AcDbEntity
  8
画層1
100
AcDbLine
 10
98.61110481568813
 20
295.2950267653982
 30
0.0
 11
99.61110481568812
 21
295.2950267653982
 31
0.0
  0
LINE
  5
86B
102
{ACAD_REACTORS
330
871
330
872
330
89E
102
}
330
2
100
AcDbEntity
  8
画層1
100
AcDbLine
 10
99.61110481568812
 20
295.2950267653982
 30
0.0
 11
99.61110481568812
 21
294.2950267653982
 31
0.0
  0
LINE
  5
86C
102
{ACAD_REACTORS
330
871
330
872
330
89E
102
}
330
2
100
AcDbEntity
  8
画層1
100
AcDbLine
 10
100.6111048156881
 20
294.2950267653982
 30
0.0
 11
100.6111048156881
 21
295.2950267653982
 31
0.0
  0
LINE
  5
86D
102
{ACAD_REACTORS
330
871
330
872
330
89E
102
}
330
2
100
AcDbEntity
  8
画層1
100
AcDbLine
 10
100.6111048156881
 20
297.2950267653982
 30
0.0
 11
99.61110481568812
 21
297.2950267653982
 31
0.0
  0
LINE
  5
86E
102
{ACAD_REACTORS
330
871
330
872
330
89E
102
}
330
2
100
AcDbEntity
  8
画層1
100
AcDbLine
 10
101.6111048156881
 20
295.2950267653982
 30
0.0
 11
101.6111048156881
 21
296.2950267653982
 31
0.0
  0
CIRCLE
  5
877
102
{ACAD_REACTORS
330
89E
102
}
330
2
100
AcDbEntity
  8
画層1
100
AcDbCircle
 10
100.1111048156881
 20
255.7950267653982
 30
0.0
 40
3.0
  0
LWPOLYLINE
  5
878
102
{ACAD_REACTORS
330
89E
102
}
330
2
100
AcDbEntity
  8
画層1
100
AcDbPolyline
 90
        4
 70
     1
 43
0.0
 10
96.11110481568813
 20
251.7950267653982
 10
104.1111048156881
 20
251.7950267653982
 10
104.1111048156881
 20
259.7950267653982
 10
96.11110481568813
 20
259.7950267653982
  0
LINE
  5
879
102
{ACAD_REACTORS
330
885
330
886
330
89E
102
}
330
2
100
AcDbEntity
  8
画層1
100
AcDbLine
 10
100.6111048156881
 20
256.2950267653982
 30
0.0
 11
101.6111048156881
 21
256.2950267653982
 31
0.0
  0
LINE
  5
87A
102
{ACAD_REACTORS
330
885
330
886
330
89E
102
}
330
2
100
AcDbEntity
  8
画層1
100
AcDbLine
 10
100.6111048156881
 20
255.2950267653982
 30
0.0
 11
101.6111048156881
 21
255.2950267653982
 31
0.0
  0
LINE
  5
87B
102
{ACAD_REACTORS
330
885
330
886
330
89E
102
}
330
2
100
AcDbEntity
  8
画層1
100
AcDbLine
 10
100.6111048156881
 20
257.2950267653982
 30
0.0
 11
99.61110481568812
 21
257.2950267653982
 31
0.0
  0
LINE
  5
87C
102
{ACAD_REACTORS
330
885
330
886
330
89E
102
}
330
2
100
AcDbEntity
  8
画層1
100
AcDbLine
 10
98.61110481568813
 20
256.2950267653982
 30
0.0
 11
99.61110481568812
 21
256.2950267653982
 31
0.0
  0
LINE
  5
87D
102
{ACAD_REACTORS
330
885
330
886
330
89E
102
}
330
2
100
AcDbEntity
  8
画層1
100
AcDbLine
 10
99.61110481568812
 20
256.2950267653982
 30
0.0
 11
99.61110481568812
 21
257.2950267653982
 31
0.0
  0
LINE
  5
87E
102
{ACAD_REACTORS
330
886
330
89E
102
}
330
2
100
AcDbEntity
  8
画層1
100
AcDbLine
 10
100.6111048156881
 20
256.2950267653982
 30
0.0
 11
100.6111048156881
 21
257.2950267653982
 31
0.0
  0
LINE
  5
87F
102
{ACAD_REACTORS
330
885
330
886
330
89E
102
}
330
2
100
AcDbEntity
  8
画層1
100
AcDbLine
 10
100.6111048156881
 20
254.2950267653982
 30
0.0
 11
100.6111048156881
 21
255.2950267653982
 31
0.0
  0
LINE
  5
880
102
{ACAD_REACTORS
330
885
330
886
330
89E
102
}
330
2
100
AcDbEntity
  8
画層1
100
AcDbLine
 10
99.61110481568812
 20
255.2950267653982
 30
0.0
 11
99.61110481568812
 21
254.2950267653982
 31
0.0
  0
LINE
  5
881
102
{ACAD_REACTORS
330
885
330
886
330
89E
102
}
330
2
100
AcDbEntity
  8
画層1
100
AcDbLine
 10
98.61110481568813
 20
255.2950267653982
 30
0.0
 11
99.61110481568812
 21
255.2950267653982
 31
0.0
  0
LINE
  5
882
102
{ACAD_REACTORS
330
885
330
886
330
89E
102
}
330
2
100
AcDbEntity
  8
画層1
100
AcDbLine
 10
99.61110481568812
 20
254.2950267653982
 30
0.0
 11
100.6111048156881
 21
254.2950267653982
 31
0.0
  0
LINE
  5
883
102
{ACAD_REACTORS
330
885
330
886
330
89E
102
}
330
2
100
AcDbEntity
  8
画層1
100
AcDbLine
 10
98.61110481568813
 20
256.2950267653982
 30
0.0
 11
98.61110481568813
 21
255.2950267653982
 31
0.0
  0
LINE
  5
884
102
{ACAD_REACTORS
330
885
330
886
330
89E
102
}
330
2
100
AcDbEntity
  8
画層1
100
AcDbLine
 10
101.6111048156881
 20
255.2950267653982
 30
0.0
 11
101.6111048156881
 21
256.2950267653982
 31
0.0
  0
LINE
  5
888
102
{ACAD_REACTORS
330
89E
102
}
330
2
100
AcDbEntity
  8
画層1
100
AcDbLine
 10
106.1111048156881
 20
251.5450267653982
 30
0.0
 11
106.1111048156881
 21
260.0450267653982
 31
0.0
  0
LINE
  5
889
102
{ACAD_REACTORS
330
89E
102
}
330
2
100
AcDbEntity
  8
画層1
100
AcDbLine
 10
106.1111048156881
 20
261.5450267653982
 30
0.0
 11
106.1111048156881
 21
270.0450267653982
 31
0.0
  0
LINE
  5
88A
102
{ACAD_REACTORS
330
89E
102
}
330
2
100
AcDbEntity
  8
画層1
100
AcDbLine
 10
106.1111048156881
 20
271.5450267653982
 30
0.0
 11
106.1111048156881
 21
280.0450267653982
 31
0.0
  0
LINE
  5
88B
102
{ACAD_REACTORS
330
89E
102
}
330
2
100
AcDbEntity
  8
画層1
100
AcDbLine
 10
106.1111048156881
 20
281.5450267653982
 30
0.0
 11
106.1111048156881
 21
290.0450267653982
 31
0.0
  0
LINE
  5
88C
102
{ACAD_REACTORS
330
89E
102
}
330
2
100
AcDbEntity
  8
画層1
100
AcDbLine
 10
106.1111048156881
 20
291.5450267653982
 30
0.0
 11
106.1111048156881
 21
300.0450267653982
 31
0.0
  0
LINE
  5
88D
102
{ACAD_REACTORS
330
89E
102
}
330
2
100
AcDbEntity
  8
画層1
100
AcDbLine
 10
106.1111048156881
 20
311.5450267653982
 30
0.0
 11
106.1111048156881
 21
320.0450267653982
 31
0.0
  0
LINE
  5
88E
102
{ACAD_REACTORS
330
89E
102
}
330
2
100
AcDbEntity
  8
画層1
100
AcDbLine
 10
106.1111048156881
 20
301.5450267653982
 30
0.0
 11
106.1111048156881
 21
310.0450267653982
 31
0.0
  0
LINE
  5
88F
102
{ACAD_REACTORS
330
89E
102
}
330
2
100
AcDbEntity
  8
画層1
100
AcDbLine
 10
106.1111048156881
 20
331.5450267653982
 30
0.0
 11
106.1111048156881
 21
340.0450267653982
 31
0.0
  0
LINE
  5
890
102
{ACAD_REACTORS
330
89E
102
}
330
2
100
AcDbEntity
  8
画層1
100
AcDbLine
 10
106.1111048156881
 20
321.5450267653982
 30
0.0
 11
106.1111048156881
 21
330.0450267653982
 31
0.0
  0
LINE
  5
895
330
2
100
AcDbEntity
  8
画層1
100
AcDbLine
 10
96.51302860433482
 20
247.2950267653982
 30
0.0
 11
96.5130286043348
 21
244.2950267653982
 31
0.0
  0
LINE
  5
898
330
2
100
AcDbEntity
  8
画層1
100
AcDbLine
 10
96.51302860433482
 20
247.2950267653982
 30
0.0
 11
99.11110481568812
 21
248.7950267653982
 31
0.0
  0
LINE
  5
899
330
2
100
AcDbEntity
  8
画層1
100
AcDbLine
 10
99.11110481568812
 20
248.7950267653982
 30
0.0
 11
101.7091810270414
 21
247.2950267653982
 31
0.0
  0
LINE
  5
89A
330
2
100
AcDbEntity
  8
画層1
100
AcDbLine
 10
101.7091810270414
 20
247.2950267653982
 30
0.0
 11
101.7091810270414
 21
244.2950267653982
 31
0.0
  0
LINE
  5
89B
330
2
100
AcDbEntity
  8
画層1
100
AcDbLine
 10
101.7091810270414
 20
244.2950267653982
 30
0.0
 11
99.11110481568812
 21
242.7950267653982
 31
0.0
  0
LINE
  5
89C
330
2
100
AcDbEntity
  8
画層1
100
AcDbLine
 10
99.11110481568812
 20
242.7950267653982
 30
0.0
 11
96.5130286043348
 21
244.2950267653982
 31
0.0
  0
CIRCLE
  5
8A2
330
2
100
AcDbEntity
  8
画層1
100
AcDbCircle
 10
100.1111048156881
 20
348.7950267653982
 30
0.0
 40
3.5
  0
ARC
  5
8A7
330
2
100
AcDbEntity
  8
画層1
100
AcDbCircle
 10
100.1111048156881
 20
348.7950267653982
 30
0.0
 40
2.500000000000015
100
AcDbArc
 50
300.0000000000001
 51
239.9999999999998
  0
CIRCLE
  5
8AA
330
2
100
AcDbEntity
  8
画層1
100
AcDbCircle
 10
100.1111048156881
 20
348.7950267653982
 30
0.0
 40
2.0
  0
LINE
  5
8AB
330
2
100
AcDbEntity
  8
画層1
100
AcDbLine
 10
99.11110481568814
 20
347.0629759578294
 30
0.0
 11
98.86110481568811
 21
346.6299632559371
 31
0.0
  0
LINE
  5
8AC
330
2
100
AcDbEntity
  8
画層1
100
AcDbLine
 10
101.1111048156881
 20
347.0629759578294
 30
0.0
 11
101.3611048156881
 21
346.6299632559371
 31
0.0
  0
LINE
  5
8AE
330
2
100
AcDbEntity
  8
画層1
100
AcDbLine
 10
98.77965676013261
 20
350.2874228506776
 30
0.0
 11
101.6046344538347
 21
347.4648503786067
 31
0.0
  0
LINE
  5
8AF
330
2
100
AcDbEntity
  8
画層1
100
AcDbLine
 10
98.54196828762059
 20
350.0351116642193
 30
0.0
 11
101.3492057525644
 21
347.2243243524293
 31
0.0
  0
LINE
  5
8B1
330
2
100
AcDbEntity
  8
画層1
100
AcDbLine
 10
101.843155623257
 20
347.7950267653982
 30
0.0
 11
102.2761683251492
 21
347.5450267653982
 31
0.0
  0
LINE
  5
8B2
330
2
100
AcDbEntity
  8
画層1
  6
CENTER
100
AcDbLine
 10
187.7111048156881
 20
293.7950267653982
 30
0.0
 11
314.3111048156881
 21
293.7950267653982
 31
0.0
  0
LINE
  5
8B8
330
2
100
AcDbEntity
  8
画層1
100
AcDbLine
 10
309.3111048156881
 20
378.7950267653982
 30
0.0
 11
308.1111048156881
 21
378.7950267653982
 31
0.0
  0
LINE
  5
8B9
330
2
100
AcDbEntity
  8
画層1
100
AcDbLine
 10
308.1111048156881
 20
378.7950267653982
 30
0.0
 11
308.1111048156881
 21
370.7950267653982
 31
0.0
  0
LINE
  5
8BB
330
2
100
AcDbEntity
  8
画層1
100
AcDbLine
 10
309.3111048156881
 20
378.7950267653982
 30
0.0
 11
309.3111048156881
 21
208.7950267653982
 31
0.0
  0
LINE
  5
8BC
330
2
100
AcDbEntity
  8
画層1
100
AcDbLine
 10
309.3111048156881
 20
208.7950267653982
 30
0.0
 11
308.1111048156881
 21
208.7950267653982
 31
0.0
  0
LINE
  5
8BD
330
2
100
AcDbEntity
  8
画層1
100
AcDbLine
 10
308.1111048156881
 20
208.7950267653982
 30
0.0
 11
308.1111048156881
 21
216.7950267653982
 31
0.0
  0
LINE
  5
8C1
330
2
100
AcDbEntity
  8
画層1
100
AcDbLine
 10
309.3111048156881
 20
370.7950267653982
 30
0.0
 11
230.3111048156881
 21
370.7950267653982
 31
0.0
  0
LINE
  5
8C2
330
2
100
AcDbEntity
  8
画層1
100
AcDbLine
 10
230.3111048156881
 20
370.7950267653982
 30
0.0
 11
230.3111048156881
 21
361.7950267653982
 31
0.0
  0
LINE
  5
8C3
330
2
100
AcDbEntity
  8
画層1
100
AcDbLine
 10
230.3111048156881
 20
361.7950267653982
 30
0.0
 11
233.8111048156881
 21
361.7950267653982
 31
0.0
  0
LINE
  5
8C4
330
2
100
AcDbEntity
  8
画層1
100
AcDbLine
 10
233.8111048156881
 20
361.7950267653982
 30
0.0
 11
233.8111048156881
 21
249.7950267653982
 31
0.0
  0
LINE
  5
8C5
330
2
100
AcDbEntity
  8
画層1
100
AcDbLine
 10
233.8111048156881
 20
249.7950267653982
 30
0.0
 11
230.3111048156881
 21
249.7950267653982
 31
0.0
  0
LINE
  5
8C6
330
2
100
AcDbEntity
  8
画層1
100
AcDbLine
 10
230.3111048156881
 20
249.7950267653982
 30
0.0
 11
230.3111048156881
 21
216.7950267653982
 31
0.0
  0
LINE
  5
8C7
330
2
100
AcDbEntity
  8
画層1
100
AcDbLine
 10
230.3111048156881
 20
216.7950267653982
 30
0.0
 11
309.3111048156881
 21
216.7950267653982
 31
0.0
  0
LINE
  5
8C8
330
2
100
AcDbEntity
  8
画層1
100
AcDbLine
 10
230.3111048156881
 20
369.7950267653982
 30
0.0
 11
228.7111048156881
 21
369.7950267653982
 31
0.0
  0
LINE
  5
8C9
330
2
100
AcDbEntity
  8
画層1
  6
DASHED2
100
AcDbLine
 10
228.7111048156881
 20
369.7950267653982
 30
0.0
 11
228.7111048156881
 21
241.7950267653982
 31
0.0
  0
LINE
  5
8CA
330
2
100
AcDbEntity
  8
画層1
100
AcDbLine
 10
230.3111048156881
 20
369.7950267653982
 30
0.0
 11
230.3111048156881
 21
241.7950267653982
 31
0.0
  0
LINE
  5
8CB
330
2
100
AcDbEntity
  8
画層1
100
AcDbLine
 10
228.7111048156881
 20
369.7950267653982
 30
0.0
 11
192.7111048156881
 21
369.7950267653982
 31
0.0
  0
LINE
  5
8CC
330
2
100
AcDbEntity
  8
画層1
100
AcDbLine
 10
192.7111048156881
 20
369.7950267653982
 30
0.0
 11
192.7111048156881
 21
241.7950267653982
 31
0.0
  0
LINE
  5
8CD
330
2
100
AcDbEntity
  8
画層1
100
AcDbLine
 10
230.2111048156881
 20
369.7950267653982
 30
0.0
 11
230.2111048156881
 21
241.7950267653982
 31
0.0
  0
LINE
  5
8CF
330
2
100
AcDbEntity
  8
画層1
100
AcDbLine
 10
230.3111048156881
 20
241.7950267653982
 30
0.0
 11
192.7111048156881
 21
241.7950267653982
 31
0.0
  0
CIRCLE
  5
8D2
330
2
100
AcDbEntity
  8
画層1
100
AcDbCircle
 10
280.8111048156881
 20
243.7950267653982
 30
0.0
 40
4.0
  0
CIRCLE
  5
8D3
330
2
100
AcDbEntity
  8
画層1
100
AcDbCircle
 10
280.8111048156881
 20
243.7950267653982
 30
0.0
 40
3.5
  0
LINE
  5
8D5
102
{ACAD_REACTORS
330
8E1
102
}
330
2
100
AcDbEntity
  8
画層1
100
AcDbLine
 10
281.3111048156881
 20
244.2950267653982
 30
0.0
 11
281.3111048156881
 21
245.2950267653982
 31
0.0
  0
LINE
  5
8D6
102
{ACAD_REACTORS
330
8E1
102
}
330
2
100
AcDbEntity
  8
画層1
100
AcDbLine
 10
281.3111048156881
 20
245.2950267653982
 30
0.0
 11
280.311104815688
 21
245.2950267653982
 31
0.0
  0
LINE
  5
8D7
102
{ACAD_REACTORS
330
8E1
102
}
330
2
100
AcDbEntity
  8
画層1
100
AcDbLine
 10
280.311104815688
 20
242.2950267653982
 30
0.0
 11
281.3111048156881
 21
242.2950267653982
 31
0.0
  0
LINE
  5
8D8
102
{ACAD_REACTORS
330
8E1
102
}
330
2
100
AcDbEntity
  8
画層1
100
AcDbLine
 10
279.3111048156881
 20
244.2950267653982
 30
0.0
 11
279.3111048156881
 21
243.2950267653982
 31
0.0
  0
LINE
  5
8D9
102
{ACAD_REACTORS
330
8E1
102
}
330
2
100
AcDbEntity
  8
画層1
100
AcDbLine
 10
280.311104815688
 20
244.2950267653982
 30
0.0
 11
279.3111048156881
 21
244.2950267653982
 31
0.0
  0
LINE
  5
8DA
102
{ACAD_REACTORS
330
8E1
102
}
330
2
100
AcDbEntity
  8
画層1
100
AcDbLine
 10
280.311104815688
 20
245.2950267653982
 30
0.0
 11
280.311104815688
 21
244.2950267653982
 31
0.0
  0
LINE
  5
8DB
102
{ACAD_REACTORS
330
8E1
102
}
330
2
100
AcDbEntity
  8
画層1
100
AcDbLine
 10
280.311104815688
 20
243.2950267653982
 30
0.0
 11
280.311104815688
 21
242.2950267653982
 31
0.0
  0
LINE
  5
8DC
102
{ACAD_REACTORS
330
8E1
102
}
330
2
100
AcDbEntity
  8
画層1
100
AcDbLine
 10
279.3111048156881
 20
243.2950267653982
 30
0.0
 11
280.311104815688
 21
243.2950267653982
 31
0.0
  0
LINE
  5
8DD
102
{ACAD_REACTORS
330
8E1
102
}
330
2
100
AcDbEntity
  8
画層1
100
AcDbLine
 10
282.3111048156881
 20
243.2950267653982
 30
0.0
 11
282.3111048156881
 21
244.2950267653982
 31
0.0
  0
LINE
  5
8DE
102
{ACAD_REACTORS
330
8E1
102
}
330
2
100
AcDbEntity
  8
画層1
100
AcDbLine
 10
282.3111048156881
 20
244.2950267653982
 30
0.0
 11
281.3111048156881
 21
244.2950267653982
 31
0.0
  0
LINE
  5
8DF
102
{ACAD_REACTORS
330
8E1
102
}
330
2
100
AcDbEntity
  8
画層1
100
AcDbLine
 10
281.3111048156881
 20
243.2950267653982
 30
0.0
 11
282.3111048156881
 21
243.2950267653982
 31
0.0
  0
LINE
  5
8E0
102
{ACAD_REACTORS
330
8E1
102
}
330
2
100
AcDbEntity
  8
画層1
100
AcDbLine
 10
281.3111048156881
 20
242.2950267653982
 30
0.0
 11
281.3111048156881
 21
243.2950267653982
 31
0.0
  0
LINE
  5
8E2
102
{ACAD_REACTORS
330
8F0
102
}
330
2
100
AcDbEntity
  8
画層1
100
AcDbLine
 10
281.3111048156881
 20
343.2950267653982
 30
0.0
 11
282.3111048156881
 21
343.2950267653982
 31
0.0
  0
LINE
  5
8E3
102
{ACAD_REACTORS
330
8F0
102
}
330
2
100
AcDbEntity
  8
画層1
100
AcDbLine
 10
282.3111048156881
 20
344.2950267653982
 30
0.0
 11
281.3111048156881
 21
344.2950267653982
 31
0.0
  0
CIRCLE
  5
8E4
330
2
100
AcDbEntity
  8
画層1
100
AcDbCircle
 10
280.8111048156881
 20
343.7950267653982
 30
0.0
 40
3.5
  0
CIRCLE
  5
8E5
330
2
100
AcDbEntity
  8
画層1
100
AcDbCircle
 10
280.8111048156881
 20
343.7950267653982
 30
0.0
 40
4.0
  0
LINE
  5
8E6
102
{ACAD_REACTORS
330
8F0
102
}
330
2
100
AcDbEntity
  8
画層1
100
AcDbLine
 10
281.3111048156881
 20
342.2950267653982
 30
0.0
 11
281.3111048156881
 21
343.2950267653982
 31
0.0
  0
LINE
  5
8E7
102
{ACAD_REACTORS
330
8F0
102
}
330
2
100
AcDbEntity
  8
画層1
100
AcDbLine
 10
281.3111048156881
 20
344.2950267653982
 30
0.0
 11
281.3111048156881
 21
345.2950267653982
 31
0.0
  0
LINE
  5
8E8
102
{ACAD_REACTORS
330
8F0
102
}
330
2
100
AcDbEntity
  8
画層1
100
AcDbLine
 10
279.3111048156881
 20
343.2950267653982
 30
0.0
 11
280.311104815688
 21
343.2950267653982
 31
0.0
  0
LINE
  5
8E9
102
{ACAD_REACTORS
330
8F0
102
}
330
2
100
AcDbEntity
  8
画層1
100
AcDbLine
 10
280.311104815688
 20
343.2950267653982
 30
0.0
 11
280.311104815688
 21
342.2950267653982
 31
0.0
  0
LINE
  5
8EA
102
{ACAD_REACTORS
330
8F0
102
}
330
2
100
AcDbEntity
  8
画層1
100
AcDbLine
 10
280.311104815688
 20
344.2950267653982
 30
0.0
 11
279.3111048156881
 21
344.2950267653982
 31
0.0
  0
LINE
  5
8EB
102
{ACAD_REACTORS
330
8F0
102
}
330
2
100
AcDbEntity
  8
画層1
100
AcDbLine
 10
279.3111048156881
 20
344.2950267653982
 30
0.0
 11
279.3111048156881
 21
343.2950267653982
 31
0.0
  0
LINE
  5
8EC
102
{ACAD_REACTORS
330
8F0
102
}
330
2
100
AcDbEntity
  8
画層1
100
AcDbLine
 10
280.311104815688
 20
342.2950267653982
 30
0.0
 11
281.3111048156881
 21
342.2950267653982
 31
0.0
  0
LINE
  5
8ED
102
{ACAD_REACTORS
330
8F0
102
}
330
2
100
AcDbEntity
  8
画層1
100
AcDbLine
 10
281.3111048156881
 20
345.2950267653982
 30
0.0
 11
280.311104815688
 21
345.2950267653982
 31
0.0
  0
LINE
  5
8EE
102
{ACAD_REACTORS
330
8F0
102
}
330
2
100
AcDbEntity
  8
画層1
100
AcDbLine
 10
280.311104815688
 20
345.2950267653982
 30
0.0
 11
280.311104815688
 21
344.2950267653982
 31
0.0
  0
LINE
  5
8EF
102
{ACAD_REACTORS
330
8F0
102
}
330
2
100
AcDbEntity
  8
画層1
100
AcDbLine
 10
282.3111048156881
 20
343.2950267653982
 30
0.0
 11
282.3111048156881
 21
344.2950267653982
 31
0.0
  0
LINE
  5
8F3
330
2
100
AcDbEntity
  8
画層1
100
AcDbLine
 10
230.3111048156881
 20
240.7950267653982
 30
0.0
 11
212.3111048156881
 21
240.7950267653983
 31
0.0
  0
LINE
  5
8F4
330
2
100
AcDbEntity
  8
画層1
100
AcDbLine
 10
211.3111048156881
 20
239.7950267653982
 30
0.0
 11
211.3111048156881
 21
232.7950267653982
 31
0.0
  0
LINE
  5
8F5
330
2
100
AcDbEntity
  8
画層1
100
AcDbLine
 10
212.3111048156881
 20
216.7950267653982
 30
0.0
 11
230.3111048156881
 21
216.7950267653982
 31
0.0
  0
LINE
  5
8F7
330
2
100
AcDbEntity
  8
画層1
100
AcDbLine
 10
228.3111048156881
 20
216.7950267653982
 30
0.0
 11
228.3111048156881
 21
220.7950267653982
 31
0.0
  0
LINE
  5
8F8
330
2
100
AcDbEntity
  8
画層1
100
AcDbLine
 10
228.3111048156881
 20
240.7950267653982
 30
0.0
 11
228.3111048156881
 21
236.7950267653982
 31
0.0
  0
LINE
  5
8FA
330
2
100
AcDbEntity
  8
画層1
100
AcDbLine
 10
220.311104815688
 20
222.7950267653982
 30
0.0
 11
220.311104815688
 21
234.7950267653982
 31
0.0
  0
LINE
  5
8FC
330
2
100
AcDbEntity
  8
画層1
100
AcDbLine
 10
220.311104815688
 20
222.7950267653982
 30
0.0
 11
228.3111048156881
 21
220.7950267653982
 31
0.0
  0
LINE
  5
8FD
330
2
100
AcDbEntity
  8
画層1
100
AcDbLine
 10
220.311104815688
 20
234.7950267653982
 30
0.0
 11
228.3111048156881
 21
236.7950267653982
 31
0.0
  0
ARC
  5
8FE
330
2
100
AcDbEntity
  8
画層1
100
AcDbCircle
 10
212.3111048156881
 20
217.7950267653982
 30
0.0
 40
1.0
100
AcDbArc
 50
180.0
 51
270.0
  0
ARC
  5
8FF
330
2
100
AcDbEntity
  8
画層1
100
AcDbCircle
 10
212.3111048156881
 20
239.7950267653982
 30
0.0
 40
1.0
100
AcDbArc
 50
90.0
 51
180.0
  0
LINE
  5
902
330
2
100
AcDbEntity
  8
画層1
100
AcDbLine
 10
220.311104815688
 20
224.7950267653982
 30
0.0
 11
210.3111048156881
 21
224.7950267653982
 31
0.0
  0
LINE
  5
903
330
2
100
AcDbEntity
  8
画層1
100
AcDbLine
 10
220.311104815688
 20
232.7950267653982
 30
0.0
 11
210.3111048156881
 21
232.7950267653982
 31
0.0
  0
LINE
  5
905
330
2
100
AcDbEntity
  8
画層1
100
AcDbLine
 10
210.3111048156881
 20
240.7950267653982
 30
0.0
 11
210.3111048156881
 21
216.7950267653982
 31
0.0
  0
LINE
  5
906
330
2
100
AcDbEntity
  8
画層1
100
AcDbLine
 10
210.3111048156881
 20
239.4611169937254
 30
0.0
 11
210.3111048156881
 21
239.4611169937254
 31
0.0
  0
LINE
  5
90A
330
2
100
AcDbEntity
  8
画層1
100
AcDbLine
 10
210.3111048156881
 20
240.7950267653982
 30
0.0
 11
209.3111048156881
 21
240.7950267653982
 31
0.0
  0
LINE
  5
90B
330
2
100
AcDbEntity
  8
画層1
100
AcDbLine
 10
209.3111048156881
 20
240.7950267653982
 30
0.0
 11
209.3111048156881
 21
216.7950267653982
 31
0.0
  0
LINE
  5
90D
330
2
100
AcDbEntity
  8
画層1
100
AcDbLine
 10
209.3111048156881
 20
216.7950267653982
 30
0.0
 11
210.3111048156881
 21
216.7950267653982
 31
0.0
  0
LINE
  5
90E
330
2
100
AcDbEntity
  8
画層1
100
AcDbLine
 10
211.3111048156881
 20
224.7950267653982
 30
0.0
 11
211.3111048156881
 21
217.7950267653982
 31
0.0
  0
LINE
  5
913
330
2
100
AcDbEntity
  8
画層1
100
AcDbLine
 10
209.3111048156881
 20
225.7950267653982
 30
0.0
 11
207.3111048156881
 21
225.7950267653982
 31
0.0
  0
LINE
  5
914
330
2
100
AcDbEntity
  8
画層1
100
AcDbLine
 10
206.311104815688
 20
226.7950267653982
 30
0.0
 11
206.311104815688
 21
227.7950267653982
 31
0.0
  0
LINE
  5
915
330
2
100
AcDbEntity
  8
画層1
100
AcDbLine
 10
207.3111048156881
 20
231.7950267653982
 30
0.0
 11
209.3111048156881
 21
231.7950267653982
 31
0.0
  0
LINE
  5
916
330
2
100
AcDbEntity
  8
画層1
100
AcDbLine
 10
208.3111048156881
 20
231.7950267653982
 30
0.0
 11
208.3111048156881
 21
225.7950267653982
 31
0.0
  0
ARC
  5
917
330
2
100
AcDbEntity
  8
画層1
100
AcDbCircle
 10
207.3111048156881
 20
226.7950267653982
 30
0.0
 40
1.0
100
AcDbArc
 50
180.0
 51
270.0
  0
ARC
  5
918
330
2
100
AcDbEntity
  8
画層1
100
AcDbCircle
 10
207.3111048156881
 20
230.7950267653982
 30
0.0
 40
1.0
100
AcDbArc
 50
90.0
 51
179.9999999999996
  0
LINE
  5
91B
330
2
100
AcDbEntity
  8
画層1
100
AcDbLine
 10
206.811104815688
 20
229.2950267653982
 30
0.0
 11
206.811104815688
 21
228.2950267653982
 31
0.0
  0
LINE
  5
91C
330
2
100
AcDbEntity
  8
画層1
100
AcDbLine
 10
206.811104815688
 20
229.2950267653982
 30
0.0
 11
206.811104815688
 21
229.2950267653982
 31
0.0
  0
LINE
  5
91D
330
2
100
AcDbEntity
  8
画層1
100
AcDbLine
 10
206.811104815688
 20
228.2950267653982
 30
0.0
 11
206.811104815688
 21
228.2950267653982
 31
0.0
  0
LINE
  5
91E
330
2
100
AcDbEntity
  8
画層1
100
AcDbLine
 10
206.311104815688
 20
229.7950267653982
 30
0.0
 11
206.311104815688
 21
230.7950267653982
 31
0.0
  0
ARC
  5
91F
330
2
100
AcDbEntity
  8
画層1
100
AcDbCircle
 10
206.811104815688
 20
227.7950267653982
 30
0.0
 40
0.5
100
AcDbArc
 50
90.0
 51
180.0
  0
ARC
  5
920
330
2
100
AcDbEntity
  8
画層1
100
AcDbCircle
 10
206.811104815688
 20
229.7950267653982
 30
0.0
 40
0.5
100
AcDbArc
 50
180.0
 51
270.0
  0
LINE
  5
921
330
2
100
AcDbEntity
  8
画層1
100
AcDbLine
 10
206.311104815688
 20
229.7950267653982
 30
0.0
 11
206.311104815688
 21
227.7950267653982
 31
0.0
  0
LINE
  5
922
330
2
100
AcDbEntity
  8
画層1
  6
CENTER
100
AcDbLine
 10
204.311104815688
 20
228.7980974622898
 30
0.0
 11
232.3111048156881
 21
228.7980974622898
 31
0.0
  0
LINE
  5
928
330
2
100
AcDbEntity
  8
画層1
100
AcDbLine
 10
191.7111048156881
 20
368.2950267653982
 30
0.0
 11
191.7111048156881
 21
363.2950267653982
 31
0.0
  0
LINE
  5
929
330
2
100
AcDbEntity
  8
画層1
100
AcDbLine
 10
191.7111048156881
 20
368.2950267653982
 30
0.0
 11
192.7111048156881
 21
369.7950267653982
 31
0.0
  0
LINE
  5
92A
330
2
100
AcDbEntity
  8
画層1
100
AcDbLine
 10
191.7111048156881
 20
363.2950267653982
 30
0.0
 11
192.7111048156881
 21
361.7950267653982
 31
0.0
  0
LINE
  5
92C
330
2
100
AcDbEntity
  8
画層1
100
AcDbLine
 10
191.7111048156881
 20
363.2950267653982
 30
0.0
 11
190.7111048156881
 21
363.2950267653982
 31
0.0
  0
LINE
  5
92D
330
2
100
AcDbEntity
  8
画層1
100
AcDbLine
 10
189.7111048156881
 20
364.2950267653982
 30
0.0
 11
189.7111048156881
 21
364.7950267653982
 31
0.0
  0
LINE
  5
92E
330
2
100
AcDbEntity
  8
画層1
100
AcDbLine
 10
190.7111048156881
 20
368.2950267653982
 30
0.0
 11
191.7111048156881
 21
368.2950267653982
 31
0.0
  0
LINE
  5
933
330
2
100
AcDbEntity
  8
画層1
100
AcDbLine
 10
190.2111048156881
 20
365.2950267653982
 30
0.0
 11
190.2111048156881
 21
365.2950267653982
 31
0.0
  0
LINE
  5
934
330
2
100
AcDbEntity
  8
画層1
100
AcDbLine
 10
190.2111048156881
 20
365.2950267653982
 30
0.0
 11
190.2111048156881
 21
366.2950267653982
 31
0.0
  0
LINE
  5
935
330
2
100
AcDbEntity
  8
画層1
100
AcDbLine
 10
190.2111048156881
 20
366.2950267653982
 30
0.0
 11
190.2111048156881
 21
366.2950267653982
 31
0.0
  0
LINE
  5
937
330
2
100
AcDbEntity
  8
画層1
100
AcDbLine
 10
189.7111048156881
 20
366.7950267653982
 30
0.0
 11
189.7111048156881
 21
367.2950267653982
 31
0.0
  0
ARC
  5
938
330
2
100
AcDbEntity
  8
画層1
100
AcDbCircle
 10
190.2111048156881
 20
364.7950267653982
 30
0.0
 40
0.5
100
AcDbArc
 50
90.0
 51
180.0
  0
ARC
  5
939
330
2
100
AcDbEntity
  8
画層1
100
AcDbCircle
 10
190.2111048156881
 20
366.7950267653982
 30
0.0
 40
0.5
100
AcDbArc
 50
180.0
 51
270.0
  0
LINE
  5
93A
330
2
100
AcDbEntity
  8
画層1
100
AcDbLine
 10
189.7111048156881
 20
364.7950267653982
 30
0.0
 11
189.7111048156881
 21
366.7950267653982
 31
0.0
  0
ARC
  5
93B
330
2
100
AcDbEntity
  8
画層1
100
AcDbCircle
 10
190.7111048156881
 20
364.2950267653982
 30
0.0
 40
1.0
100
AcDbArc
 50
180.0
 51
270.0
  0
ARC
  5
93C
330
2
100
AcDbEntity
  8
画層1
100
AcDbCircle
 10
190.7111048156881
 20
367.2950267653982
 30
0.0
 40
1.0
100
AcDbArc
 50
90.0
 51
180.0
  0
LINE
  5
995
330
2
100
AcDbEntity
  8
画層1
100
AcDbLine
 10
275.8111048156881
 20
243.7950267653982
 30
0.0
 11
285.8111048156881
 21
243.7950267653982
 31
0.0
  0
LINE
  5
996
330
2
100
AcDbEntity
  8
画層1
100
AcDbLine
 10
276.8111048156881
 20
243.7950267653982
 30
0.0
 11
276.8111048156881
 21
243.7950267653982
 31
0.0
  0
LINE
  5
998
330
2
100
AcDbEntity
  8
画層1
100
AcDbLine
 10
280.8019972078171
 20
248.7950163968196
 30
0.0
 11
280.8104869977125
 21
238.7950268131106
 31
0.0
  0
LINE
  5
999
330
2
100
AcDbEntity
  8
画層1
100
AcDbLine
 10
275.8159675329924
 20
343.7950267653982
 30
0.0
 11
285.8159675329924
 21
343.7950267653982
 31
0.0
  0
LINE
  5
99A
330
2
100
AcDbEntity
  8
画層1
100
AcDbLine
 10
280.8068599251214
 20
348.7950163968196
 30
0.0
 11
280.8153497150168
 21
338.7950268131106
 31
0.0
  0
MTEXT
  5
9DD
330
2
100
AcDbEntity
  8
画層1
100
AcDbMText
 10
145.357907668364
 20
433.9781409899676
 30
0.0
 40
8.028354096439215
 41
71.00865208974205
 71
     1
 72
     5
  1
PAC15 20A,30A
  7
STYLE1
 73
     1
 44
1.0
1001
ACAD
1000
MTEXTBEGIN
1070
    73
1070
     1
1070
    44
1040
1.0
1070
    74
1070
     0
1000
MTEXTEND
1000
MTEXTBEGIN
1070
    73
1070
     1
1070
    44
1040
1.0
1070
    74
1070
     0
1000
MTEXTEND
1000
MTEXTBEGIN
1070
    73
1070
     1
1070
    44
1040
1.0
1070
    74
1070
     0
1000
MTEXTEND
1000
MTEXTBEGIN
1070
    73
1070
     1
1070
    44
1040
1.0
1070
    74
1070
     0
1000
MTEXTEND
  0
LINE
  5
A0E
330
2
100
AcDbEntity
  8
画層1
100
AcDbLine
 10
109.6611048156881
 20
220.7950267653982
 30
0.0
 11
99.66110481568811
 21
220.7950267653982
 31
0.0
  0
LINE
  5
A0F
330
2
100
AcDbEntity
  8
画層1
100
AcDbLine
 10
109.6611048156881
 20
222.7950267653982
 30
0.0
 11
99.66110481568811
 21
222.7950267653982
 31
0.0
  0
LINE
  5
A10
330
2
100
AcDbEntity
  8
画層1
100
AcDbLine
 10
109.6611048156881
 20
220.7950267653982
 30
0.0
 11
99.66110481568811
 21
220.7950267653982
 31
0.0
  0
LINE
  5
A11
330
2
100
AcDbEntity
  8
画層1
100
AcDbLine
 10
109.6611048156881
 20
222.7950267653982
 30
0.0
 11
99.66110481568811
 21
222.7950267653982
 31
0.0
  0
LINE
  5
A12
330
2
100
AcDbEntity
  8
画層1
100
AcDbLine
 10
109.6611048156881
 20
236.7950267653982
 30
0.0
 11
99.66110481568811
 21
236.7950267653982
 31
0.0
  0
LINE
  5
A13
330
2
100
AcDbEntity
  8
画層1
100
AcDbLine
 10
109.6611048156881
 20
234.7950267653982
 30
0.0
 11
99.66110481568811
 21
234.7950267653982
 31
0.0
  0
LINE
  5
A14
330
2
100
AcDbEntity
  8
画層1
100
AcDbLine
 10
109.6611048156881
 20
236.7950267653982
 30
0.0
 11
99.66110481568811
 21
236.7950267653982
 31
0.0
  0
LINE
  5
A15
330
2
100
AcDbEntity
  8
画層1
100
AcDbLine
 10
109.6611048156881
 20
234.7950267653982
 30
0.0
 11
99.66110481568811
 21
234.7950267653982
 31
0.0
  0
LINE
  5
A77
330
2
100
AcDbEntity
  8
画層1
100
AcDbLine
 10
191.7111048156881
 20
243.2950267653982
 30
0.0
 11
192.7111048156881
 21
241.7950267653982
 31
0.0
  0
ARC
  5
A78
330
2
100
AcDbEntity
  8
画層1
100
AcDbCircle
 10
190.7111048156881
 20
247.2950267653982
 30
0.0
 40
1.0
100
AcDbArc
 50
90.0
 51
180.0
  0
ARC
  5
A79
330
2
100
AcDbEntity
  8
画層1
100
AcDbCircle
 10
190.7111048156881
 20
244.2950267653982
 30
0.0
 40
1.0
100
AcDbArc
 50
180.0
 51
270.0
  0
LINE
  5
A7A
330
2
100
AcDbEntity
  8
画層1
100
AcDbLine
 10
189.7111048156881
 20
244.7950267653982
 30
0.0
 11
189.7111048156881
 21
246.7950267653982
 31
0.0
  0
ARC
  5
A7B
330
2
100
AcDbEntity
  8
画層1
100
AcDbCircle
 10
190.2111048156881
 20
246.7950267653982
 30
0.0
 40
0.5
100
AcDbArc
 50
180.0
 51
270.0
  0
ARC
  5
A7C
330
2
100
AcDbEntity
  8
画層1
100
AcDbCircle
 10
190.2111048156881
 20
244.7950267653982
 30
0.0
 40
0.5
100
AcDbArc
 50
90.0
 51
180.0
  0
LINE
  5
A7D
330
2
100
AcDbEntity
  8
画層1
100
AcDbLine
 10
189.7111048156881
 20
246.7950267653982
 30
0.0
 11
189.7111048156881
 21
247.2950267653982
 31
0.0
  0
LINE
  5
A7E
330
2
100
AcDbEntity
  8
画層1
100
AcDbLine
 10
190.2111048156881
 20
246.2950267653982
 30
0.0
 11
190.2111048156881
 21
246.2950267653982
 31
0.0
  0
LINE
  5
A7F
330
2
100
AcDbEntity
  8
画層1
100
AcDbLine
 10
190.2111048156881
 20
245.2950267653982
 30
0.0
 11
190.2111048156881
 21
246.2950267653982
 31
0.0
  0
LINE
  5
A80
330
2
100
AcDbEntity
  8
画層1
100
AcDbLine
 10
190.2111048156881
 20
245.2950267653982
 30
0.0
 11
190.2111048156881
 21
245.2950267653982
 31
0.0
  0
LINE
  5
A81
330
2
100
AcDbEntity
  8
画層1
100
AcDbLine
 10
190.7111048156881
 20
248.2950267653982
 30
0.0
 11
191.7111048156881
 21
248.2950267653982
 31
0.0
  0
LINE
  5
A82
330
2
100
AcDbEntity
  8
画層1
100
AcDbLine
 10
189.7111048156881
 20
244.2950267653982
 30
0.0
 11
189.7111048156881
 21
244.7950267653982
 31
0.0
  0
LINE
  5
A83
330
2
100
AcDbEntity
  8
画層1
100
AcDbLine
 10
191.7111048156881
 20
243.2950267653982
 30
0.0
 11
190.7111048156881
 21
243.2950267653982
 31
0.0
  0
LINE
  5
A84
330
2
100
AcDbEntity
  8
画層1
100
AcDbLine
 10
191.7111048156881
 20
248.2950267653982
 30
0.0
 11
192.7111048156881
 21
249.7950267653982
 31
0.0
  0
LINE
  5
A85
330
2
100
AcDbEntity
  8
画層1
100
AcDbLine
 10
191.7111048156881
 20
248.2950267653982
 30
0.0
 11
191.7111048156881
 21
243.2950267653982
 31
0.0
  0
DIMENSION
  5
A86
330
2
100
AcDbEntity
  8
画層1
100
AcDbDimension
  2
*D3
 10
158.1111048156881
 20
389.4461538023206
 30
0.0
 11
124.1111048156881
 21
391.3261538023206
 31
0.0
 70
    32
 71
     5
 42
-1.0
  3
STANDARD_WS
100
AcDbAlignedDimension
 13
90.11110481568811
 23
344.7950267653982
 33
0.0
 14
158.1111048156881
 24
344.7950267653982
 34
0.0
100
AcDbRotatedDimension
1001
ACAD
1000
DSTYLE
1002
{
1070
    47
1040
0.6
1070
   146
1040
0.5
1070
   173
1070
     0
1070
   271
1070
     0
1070
   272
1070
     0
1070
   284
1070
     8
1070
   340
1005
27
1070
   341
1005
28
1070
     5
1000
OPEN30
1070
     6
1000

1070
     7
1000

1002
}
  0
DIMENSION
  5
A93
330
2
100
AcDbEntity
  8
画層1
100
AcDbDimension
  2
*D4
 10
165.8524942750918
 20
213.7950267653982
 30
0.0
 11
163.9724942750918
 21
293.7950267653982
 31
0.0
 70
    32
 71
     5
 42
-1.0
  3
STANDARD_WS
100
AcDbAlignedDimension
 13
124.1111048156881
 23
373.7950267653982
 33
0.0
 14
124.1111048156881
 24
213.7950267653982
 34
0.0
 50
90.0
100
AcDbRotatedDimension
1001
ACAD
1000
DSTYLE
1002
{
1070
    47
1040
0.6
1070
   146
1040
0.5
1070
   173
1070
     0
1070
   271
1070
     0
1070
   272
1070
     0
1070
   284
1070
     8
1070
   340
1005
27
1070
   341
1005
28
1070
     5
1000
OPEN30
1070
     6
1000

1070
     7
1000

1002
}
  0
DIMENSION
  5
AA0
330
2
100
AcDbEntity
  8
画層1
100
AcDbDimension
  2
*D5
 10
171.1965896037145
 20
208.7950267653982
 30
0.0
 11
169.3165896037145
 21
293.7950267653982
 31
0.0
 70
    32
 71
     5
 42
-1.0
  3
STANDARD_WS
100
AcDbAlignedDimension
 13
150.1111048156881
 23
378.7950267653982
 33
0.0
 14
150.1111048156881
 24
208.7950267653982
 34
0.0
 50
90.0
100
AcDbRotatedDimension
1001
ACAD
1000
DSTYLE
1002
{
1070
    47
1040
0.6
1070
   146
1040
0.5
1070
   173
1070
     0
1070
   271
1070
     0
1070
   272
1070
     0
1070
   284
1070
     8
1070
   340
1005
27
1070
   341
1005
28
1070
     5
1000
OPEN30
1070
     6
1000

1070
     7
1000

1002
}
  0
DIMENSION
  5
AAD
330
2
100
AcDbEntity
  8
画層1
100
AcDbDimension
  2
*D6
 10
157.9912244611441
 20
213.7950267653982
 30
0.0
 11
156.1112244611441
 21
221.2950267653983
 31
0.0
 70
    32
 71
     5
 42
-1.0
  3
STANDARD_WS
100
AcDbAlignedDimension
 13
143.6111048156881
 23
228.7950267653982
 33
0.0
 14
124.1111048156881
 24
213.7950267653982
 34
0.0
 50
90.0
100
AcDbRotatedDimension
1001
ACAD
1000
DSTYLE
1002
{
1070
    47
1040
0.6
1070
   146
1040
0.5
1070
   173
1070
     0
1070
   271
1070
     0
1070
   272
1070
     0
1070
   284
1070
     8
1070
   340
1005
27
1070
   341
1005
28
1070
     5
1000
OPEN30
1070
     6
1000

1070
     7
1000

1002
}
  0
DIMENSION
  5
AD0
330
2
100
AcDbEntity
  8
画層1
100
AcDbDimension
  2
*D8
 10
130.6111048156881
 20
192.9775110255868
 30
0.0
 11
124.125886301686
 21
194.8575110255868
 31
0.0
 70
    32
 71
     5
 42
-1.0
  3
STANDARD_WS
100
AcDbAlignedDimension
 13
117.6406677876839
 23
228.849404350105
 33
0.0
 14
130.6111048156881
 24
228.7950267653982
 34
0.0
100
AcDbRotatedDimension
1001
ACAD
1000
DSTYLE
1002
{
1070
    47
1040
0.6
1070
   146
1040
0.5
1070
   173
1070
     0
1070
   271
1070
     0
1070
   272
1070
     0
1070
   284
1070
     8
1070
   340
1005
27
1070
   341
1005
28
1070
     5
1000
OPEN30
1070
     6
1000

1070
     7
1000

1002
}
  0
DIMENSION
  5
ADE
330
2
100
AcDbEntity
  8
画層1
100
AcDbDimension
  2
*D9
 10
126.8611048156881
 20
199.2258158952172
 30
0.0
 11
124.1111048156881
 21
199.2258158952172
 31
0.0
 70
   160
 71
     5
 42
-1.0
  3
STANDARD_WS
100
AcDbAlignedDimension
 13
121.3611048156881
 23
208.7950267653982
 33
0.0
 14
126.8611048156881
 24
208.7950267653982
 34
0.0
100
AcDbRotatedDimension
1001
ACAD
1000
DSTYLE
1002
{
1070
    47
1040
0.6
1070
   146
1040
0.5
1070
   173
1070
     0
1070
   271
1070
     1
1070
   272
1070
     1
1070
   284
1070
     8
1070
   340
1005
27
1070
   341
1005
28
1070
     5
1000
OPEN30
1070
     6
1000

1070
     7
1000

1002
}
  0
DIMENSION
  5
B14
330
2
100
AcDbEntity
  8
画層1
100
AcDbDimension
  2
*D10
 10
309.3111048156881
 20
389.4461538023206
 30
0.0
 11
249.5111048156881
 21
391.3261538023206
 31
0.0
 70
    32
 71
     5
 42
-1.0
  3
STANDARD_WS
100
AcDbAlignedDimension
 13
189.7111048156881
 23
367.2950267653982
 33
0.0
 14
309.3111048156881
 24
378.7950267653982
 34
0.0
100
AcDbRotatedDimension
1001
ACAD
1000
DSTYLE
1002
{
1070
    47
1040
0.6
1070
   146
1040
0.5
1070
   173
1070
     0
1070
   271
1070
     0
1070
   272
1070
     0
1070
   284
1070
     8
1070
   340
1005
27
1070
   341
1005
28
1070
     5
1000
OPEN30
1070
     6
1000

1070
     7
1000

1002
}
  0
ENDSEC
  0
SECTION
  2
OBJECTS
  0
DICTIONARY
  5
9
330
0
100
AcDbDictionary
281
     1
  3
ACAD_GROUP
350
23
  3
ACAD_LAYOUT
350
D
  3
ACAD_MLINESTYLE
350
24
  3
ACAD_PLOTSETTINGS
350
25
  3
ACAD_PLOTSTYLENAME
350
8
  3
DWGPROPS
350
618
  0
DICTIONARY
  5
3
330
2
100
AcDbDictionary
280
     1
281
     1
  3
ACAD_LAYOUTSELFREF
360
B45
  0
DICTIONARY
  5
F
330
E
100
AcDbDictionary
280
     1
281
     1
  3
ACAD_LAYOUTSELFREF
360
B48
  0
DICTIONARY
  5
23
102
{ACAD_REACTORS
330
9
102
}
330
9
100
AcDbDictionary
281
     1
  3
*A1
350
6FA
  3
*A2
350
86F
  3
*A3
350
870
  3
*A4
350
89E
  3
*A5
350
871
  3
*A6
350
873
  3
*A7
350
709
  3
*A8
350
874
  3
*A9
350
875
  3
*A10
350
876
  3
*A11
350
885
  3
*A12
350
804
  3
*A13
350
886
  3
*A14
350
8E1
  3
*A15
350
816
  3
*A16
350
8F0
  3
*A17
350
755
  3
*A18
350
762
  3
*A19
350
7F7
  3
*A20
350
803
  3
*A21
350
806
  3
*A22
350
872
  3
*A23
350
815
  3
*A24
350
833
  3
*A25
350
834
  3
*A26
350
835
  3
*A27
350
836
  0
DICTIONARY
  5
D
102
{ACAD_REACTORS
330
9
102
}
330
9
100
AcDbDictionary
281
     1
  3
Model
350
560
  3
ﾚｲｱｳﾄ1
350
561
  0
DICTIONARY
  5
24
102
{ACAD_REACTORS
330
9
102
}
330
9
100
AcDbDictionary
281
     1
  3
STANDARD
350
34
  0
DICTIONARY
  5
25
102
{ACAD_REACTORS
330
9
102
}
330
9
100
AcDbDictionary
281
     1
  0
ACDBDICTIONARYWDFLT
  5
8
102
{ACAD_REACTORS
330
9
102
}
330
9
100
AcDbDictionary
281
     1
  3
Normal
350
7
100
AcDbDictionaryWithDefault
340
7
  0
XRECORD
  5
618
102
{ACAD_REACTORS
330
9
102
}
330
9
100
AcDbXrecord
280
     1
  1
DWGPROPS COOKIE
  2

  3

  4

  6

  7

  8

  9

300
=
301
=
302
=
303
=
304
=
305
=
306
=
307
=
308
=
309
=
 40
3.523243749999998
 41
2450995.462150231
 42
2451964.719684721
  1

 90
        0
  0
XRECORD
  5
B45
102
{ACAD_REACTORS
330
3
102
}
330
3
100
AcDbXrecord
280
     1
340
2
  0
XRECORD
  5
B48
102
{ACAD_REACTORS
330
F
102
}
330
F
100
AcDbXrecord
280
     1
340
E
  0
GROUP
  5
6FA
102
{ACAD_REACTORS
330
23
102
}
330
23
100
AcDbGroup
300

 70
     1
 71
     1
340
6F1
340
6EF
340
6EE
340
6F9
340
6F8
340
6F3
340
6F2
340
6F0
340
6F7
340
6F6
340
6F5
340
6F4
  0
GROUP
  5
86F
102
{ACAD_REACTORS
330
23
102
}
330
23
100
AcDbGroup
300

 70
     1
 71
     1
340
856
340
859
340
85A
340
85B
340
85C
340
857
340
85F
340
858
340
861
340
85D
340
85E
  0
GROUP
  5
870
102
{ACAD_REACTORS
330
23
102
}
330
23
100
AcDbGroup
300

 70
     1
 71
     1
340
860
340
85F
340
85E
340
85D
340
861
340
857
340
85C
340
85B
340
85A
340
859
340
856
340
858
  0
GROUP
  5
89E
102
{ACAD_REACTORS
330
23
102
}
330
23
100
AcDbGroup
300

 70
     1
 71
     1
340
890
340
7F6
340
7F4
340
7D8
340
7D7
340
7EF
340
7D6
340
888
340
884
340
883
340
878
340
877
340
7EE
340
87A
340
882
340
881
340
880
340
87F
340
88B
340
838
340
88A
340
845
340
7E6
340
7E7
340
7E9
340
7E8
340
889
340
83C
340
83B
340
879
340
87E
340
87D
340
87C
340
87B
340
846
340
83D
340
84B
340
84A
340
849
340
848
340
841
340
840
340
83F
340
83E
340
83A
340
839
340
7EA
340
7EB
340
84D
340
84C
340
844
340
853
340
852
340
851
340
850
340
84F
340
84E
340
847
340
843
340
842
340
854
340
857
340
856
340
837
340
860
340
85F
340
85E
340
85D
340
85C
340
85B
340
85A
340
859
340
858
340
861
340
88E
340
825
340
822
340
818
340
817
340
7E2
340
7E3
340
7ED
340
7EC
340
88C
340
864
340
855
340
863
340
862
340
86D
340
86C
340
86B
340
86A
340
869
340
868
340
867
340
866
340
865
340
86E
340
81A
340
821
340
81F
340
81E
340
81D
340
7E1
340
7E0
340
7E5
340
7E4
340
88D
340
830
340
82F
340
828
340
819
340
81B
340
82C
340
824
340
823
340
820
340
81C
340
827
340
826
340
831
340
82E
340
82D
340
82B
340
82A
340
829
340
832
340
7D4
340
88F
340
808
340
7DD
340
7DC
340
7F8
340
7FD
340
7FF
340
7F9
340
7FA
340
7FB
340
7FC
340
801
340
802
340
7FE
340
805
340
800
340
80A
340
809
340
807
340
813
340
812
340
811
340
810
340
80F
340
80E
340
80D
340
80C
340
80B
340
814
340
7DB
  0
GROUP
  5
871
102
{ACAD_REACTORS
330
23
102
}
330
23
100
AcDbGroup
300

 70
     1
 71
     1
340
863
340
86C
340
86B
340
86A
340
869
340
862
340
866
340
86D
340
86E
340
868
340
867
  0
GROUP
  5
873
102
{ACAD_REACTORS
330
23
102
}
330
23
100
AcDbGroup
300

 70
     1
 71
     1
340
83D
340
841
340
840
340
83F
340
84A
340
846
340
849
340
84B
340
839
340
83E
340
83A
  0
GROUP
  5
709
102
{ACAD_REACTORS
330
23
102
}
330
23
100
AcDbGroup
300

 70
     1
 71
     1
340
6FC
340
6FD
340
6FF
340
700
340
701
340
702
340
703
340
704
340
705
340
706
340
707
340
708
  0
GROUP
  5
874
102
{ACAD_REACTORS
330
23
102
}
330
23
100
AcDbGroup
300

 70
     1
 71
     1
340
848
340
849
340
83A
340
83E
340
839
340
846
340
84A
340
83F
340
840
340
841
340
83D
340
84B
  0
GROUP
  5
875
102
{ACAD_REACTORS
330
23
102
}
330
23
100
AcDbGroup
300

 70
     1
 71
     1
340
84C
340
842
340
843
340
84F
340
850
340
84D
340
852
340
84E
340
854
340
847
340
851
  0
GROUP
  5
876
102
{ACAD_REACTORS
330
23
102
}
330
23
100
AcDbGroup
300

 70
     1
 71
     1
340
853
340
852
340
851
340
847
340
854
340
84D
340
850
340
84F
340
843
340
842
340
84C
340
84E
  0
GROUP
  5
885
102
{ACAD_REACTORS
330
23
102
}
330
23
100
AcDbGroup
300

 70
     1
 71
     1
340
87A
340
87F
340
880
340
881
340
87C
340
879
340
87D
340
87B
340
884
340
882
340
883
  0
GROUP
  5
804
102
{ACAD_REACTORS
330
23
102
}
330
23
100
AcDbGroup
300

 70
     1
 71
     1
340
6B7
340
6B6
340
6AD
340
6B9
340
6B8
340
6BA
340
6B4
340
6B5
340
6AE
340
6B2
340
6B3
340
6B0
  0
GROUP
  5
886
102
{ACAD_REACTORS
330
23
102
}
330
23
100
AcDbGroup
300

 70
     1
 71
     1
340
87E
340
87D
340
883
340
882
340
884
340
879
340
87C
340
881
340
880
340
87F
340
87A
340
87B
  0
GROUP
  5
8E1
102
{ACAD_REACTORS
330
23
102
}
330
23
100
AcDbGroup
300

 70
     1
 71
     1
340
8D6
340
8D7
340
8D8
340
8D9
340
8DA
340
8DB
340
8DC
340
8DD
340
8D5
340
8DE
340
8DF
340
8E0
  0
GROUP
  5
816
102
{ACAD_REACTORS
330
23
102
}
330
23
100
AcDbGroup
300

 70
     1
 71
     1
340
813
340
812
340
811
340
810
340
814
340
80A
340
80F
340
80E
340
80D
340
80C
340
809
340
80B
  0
GROUP
  5
8F0
102
{ACAD_REACTORS
330
23
102
}
330
23
100
AcDbGroup
300

 70
     1
 71
     1
340
8ED
340
8EC
340
8EB
340
8EA
340
8EE
340
8E9
340
8E8
340
8EF
340
8E7
340
8E3
340
8E2
340
8E6
  0
GROUP
  5
755
102
{ACAD_REACTORS
330
23
102
}
330
23
100
AcDbGroup
300

 70
     1
 71
     1
340
749
340
74A
340
74B
340
74C
340
74D
340
74E
340
74F
340
750
340
751
340
752
340
753
340
754
  0
GROUP
  5
762
102
{ACAD_REACTORS
330
23
102
}
330
23
100
AcDbGroup
300

 70
     1
 71
     1
340
757
340
758
340
759
340
75A
340
75B
340
75C
340
75D
340
75E
340
75F
340
760
340
756
340
761
  0
GROUP
  5
7F7
102
{ACAD_REACTORS
330
23
102
}
330
23
100
AcDbGroup
300

 70
     1
 71
     1
340
6AC
340
6AB
340
6AA
340
6A9
340
6A5
340
6A8
340
6A6
340
6A3
340
6A2
340
6A1
340
6A4
  0
GROUP
  5
803
102
{ACAD_REACTORS
330
23
102
}
330
23
100
AcDbGroup
300

 70
     1
 71
     1
340
7F8
340
7F9
340
7FA
340
7FB
340
7FC
340
7FD
340
7FE
340
7FF
340
800
340
801
340
802
  0
GROUP
  5
806
102
{ACAD_REACTORS
330
23
102
}
330
23
100
AcDbGroup
300

 70
     1
 71
     1
340
805
340
7FE
340
802
340
801
340
800
340
7FD
340
7FC
340
7FB
340
7FA
340
7F9
340
7F8
340
7FF
  0
GROUP
  5
872
102
{ACAD_REACTORS
330
23
102
}
330
23
100
AcDbGroup
300

 70
     1
 71
     1
340
865
340
866
340
867
340
868
340
86E
340
862
340
869
340
86A
340
86B
340
86C
340
863
340
86D
  0
GROUP
  5
815
102
{ACAD_REACTORS
330
23
102
}
330
23
100
AcDbGroup
300

 70
     1
 71
     1
340
809
340
80C
340
80D
340
80E
340
80F
340
80A
340
812
340
80B
340
814
340
810
340
811
  0
GROUP
  5
833
102
{ACAD_REACTORS
330
23
102
}
330
23
100
AcDbGroup
300

 70
     1
 71
     1
340
81A
340
81D
340
81E
340
81F
340
820
340
81B
340
823
340
81C
340
825
340
821
340
822
  0
GROUP
  5
834
102
{ACAD_REACTORS
330
23
102
}
330
23
100
AcDbGroup
300

 70
     1
 71
     1
340
824
340
823
340
822
340
821
340
825
340
81B
340
820
340
81F
340
81E
340
81D
340
81A
340
81C
  0
GROUP
  5
835
102
{ACAD_REACTORS
330
23
102
}
330
23
100
AcDbGroup
300

 70
     1
 71
     1
340
827
340
830
340
82F
340
82E
340
82D
340
826
340
82A
340
831
340
832
340
82C
340
82B
  0
GROUP
  5
836
102
{ACAD_REACTORS
330
23
102
}
330
23
100
AcDbGroup
300

 70
     1
 71
     1
340
829
340
82A
340
82B
340
82C
340
832
340
826
340
82D
340
82E
340
82F
340
830
340
827
340
831
  0
LAYOUT
  5
560
102
{ACAD_REACTORS
330
D
102
}
330
D
100
AcDbPlotSettings
  1

  2
EPSON MJ-6000C
  4

  6

 40
0.0
 41
0.0
 42
0.0
 43
0.0
 44
0.0
 45
0.0
 46
0.0
 47
0.0
 48
0.0
 49
0.0
140
0.0
141
0.0
142
1.0
143
1.0
 70
  1712
 72
     0
 73
     0
 74
     0
  7

 75
     0
147
1.0
148
0.0
149
0.0
100
AcDbLayout
  1
Model
 70
     1
 71
     0
 10
0.0
 20
0.0
 11
12.0
 21
9.0
 12
0.0
 22
0.0
 32
0.0
 14
0.0
 24
0.0
 34
0.0
 15
0.0
 25
0.0
 35
0.0
146
0.0
 13
0.0
 23
0.0
 33
0.0
 16
1.0
 26
0.0
 36
0.0
 17
0.0
 27
1.0
 37
0.0
 76
     0
330
2
  0
LAYOUT
  5
561
102
{ACAD_REACTORS
330
D
102
}
330
D
100
AcDbPlotSettings
  1

  2
EPSON MJ-6000C
  4

  6

 40
0.0
 41
0.0
 42
0.0
 43
0.0
 44
0.0
 45
0.0
 46
0.0
 47
0.0
 48
0.0
 49
0.0
140
0.0
141
0.0
142
1.0
143
1.0
 70
   688
 72
     0
 73
     0
 74
     5
  7

 75
    16
147
1.0
148
0.0
149
0.0
100
AcDbLayout
  1
ﾚｲｱｳﾄ1
 70
     1
 71
     1
 10
0.0
 20
0.0
 11
420.0
 21
297.0
 12
0.0
 22
0.0
 32
0.0
 14
1.000000000000000E+20
 24
1.000000000000000E+20
 34
1.000000000000000E+20
 15
-1.000000000000000E+20
 25
-1.000000000000000E+20
 35
-1.000000000000000E+20
146
0.0
 13
0.0
 23
0.0
 33
0.0
 16
1.0
 26
0.0
 36
0.0
 17
0.0
 27
1.0
 37
0.0
 76
     0
330
E
  0
MLINESTYLE
  5
34
102
{ACAD_REACTORS
330
24
102
}
330
24
100
AcDbMlineStyle
  2
STANDARD
 70
     0
  3

 62
   256
 51
90.0
 52
90.0
 71
     2
 49
0.5
 62
   256
  6
BYLAYER
 49
-0.5
 62
   256
  6
BYLAYER
  0
ACDBPLACEHOLDER
  5
7
102
{ACAD_REACTORS
330
8
102
}
330
8
  0
ENDSEC
  0
EOF
