  0
SECTION
  2
HEADER
  9
$ACADVER
  1
AC1015
  9
$ACADMAINTVER
 70
     6
  9
$DWGCODEPAGE
  3
ANSI_932
  9
$INSBASE
 10
0.0
 20
0.0
 30
0.0
  9
$EXTMIN
 10
-0.0128164049386896
 20
-0.014700635241411
 30
-0.0000000000022887
  9
$EXTMAX
 10
198.0157477897776
 20
481.7618723052758
 30
0.0000000000000001
  9
$LIMMIN
 10
0.0
 20
0.0
  9
$LIMMAX
 10
420.0
 20
297.0
  9
$ORTHOMODE
 70
     0
  9
$REGENMODE
 70
     1
  9
$FILLMODE
 70
     1
  9
$QTEXTMODE
 70
     0
  9
$MIRRTEXT
 70
     1
  9
$LTSCALE
 40
0.2
  9
$ATTMODE
 70
     1
  9
$TEXTSIZE
 40
3.5
  9
$TRACEWID
 40
1.0
  9
$TEXTSTYLE
  7
STYLE1
  9
$CLAYER
  8
画層1
  9
$CELTYPE
  6
BYBLOCK
  9
$CECOLOR
 62
     1
  9
$CELTSCALE
 40
1.0
  9
$DISPSILH
 70
     0
  9
$DIMSCALE
 40
0.0
  9
$DIMASZ
 40
1.5
  9
$DIMEXO
 40
0.625
  9
$DIMDLI
 40
3.75
  9
$DIMRND
 40
0.0
  9
$DIMDLE
 40
0.0
  9
$DIMEXE
 40
1.25
  9
$DIMTP
 40
0.0
  9
$DIMTM
 40
0.0
  9
$DIMTXT
 40
2.5
  9
$DIMCEN
 40
2.5
  9
$DIMTSZ
 40
0.0
  9
$DIMTOL
 70
     0
  9
$DIMLIM
 70
     0
  9
$DIMTIH
 70
     0
  9
$DIMTOH
 70
     0
  9
$DIMSE1
 70
     0
  9
$DIMSE2
 70
     0
  9
$DIMTAD
 70
     1
  9
$DIMZIN
 70
     8
  9
$DIMBLK
  1

  9
$DIMASO
 70
     1
  9
$DIMSHO
 70
     1
  9
$DIMPOST
  1

  9
$DIMAPOST
  1

  9
$DIMALT
 70
     0
  9
$DIMALTD
 70
     4
  9
$DIMALTF
 40
0.0394
  9
$DIMLFAC
 40
1.0
  9
$DIMTOFL
 70
     1
  9
$DIMTVP
 40
0.0
  9
$DIMTIX
 70
     0
  9
$DIMSOXD
 70
     0
  9
$DIMSAH
 70
     1
  9
$DIMBLK1
  1
OPEN30
  9
$DIMBLK2
  1
OPEN30
  9
$DIMSTYLE
  2
STANDARD_WS
  9
$DIMCLRD
 70
     0
  9
$DIMCLRE
 70
     0
  9
$DIMCLRT
 70
     0
  9
$DIMTFAC
 40
0.5
  9
$DIMGAP
 40
0.625
  9
$DIMJUST
 70
     0
  9
$DIMSD1
 70
     0
  9
$DIMSD2
 70
     0
  9
$DIMTOLJ
 70
     1
  9
$DIMTZIN
 70
     0
  9
$DIMALTZ
 70
     0
  9
$DIMALTTZ
 70
     0
  9
$DIMUPT
 70
     0
  9
$DIMDEC
 70
     1
  9
$DIMTDEC
 70
     1
  9
$DIMALTU
 70
     8
  9
$DIMALTTD
 70
     4
  9
$DIMTXSTY
  7
STYLE1
  9
$DIMAUNIT
 70
     0
  9
$DIMADEC
 70
     0
  9
$DIMALTRND
 40
0.0
  9
$DIMAZIN
 70
     0
  9
$DIMDSEP
 70
    46
  9
$DIMATFIT
 70
     3
  9
$DIMFRAC
 70
     0
  9
$DIMLDRBLK
  1
OPEN30
  9
$DIMLUNIT
 70
     2
  9
$DIMLWD
 70
    -2
  9
$DIMLWE
 70
    -2
  9
$DIMTMOVE
 70
     0
  9
$LUNITS
 70
     2
  9
$LUPREC
 70
     4
  9
$SKETCHINC
 40
1.0
  9
$FILLETRAD
 40
2.5
  9
$AUNITS
 70
     0
  9
$AUPREC
 70
     0
  9
$MENU
  1
acad
  9
$ELEVATION
 40
0.0
  9
$PELEVATION
 40
0.0
  9
$THICKNESS
 40
0.0
  9
$LIMCHECK
 70
     0
  9
$CHAMFERA
 40
10.0
  9
$CHAMFERB
 40
10.0
  9
$CHAMFERC
 40
20.0
  9
$CHAMFERD
 40
0.0
  9
$SKPOLY
 70
     0
  9
$TDCREATE
 40
2450995.462150231
  9
$TDUCREATE
 40
2450995.087150231
  9
$TDUPDATE
 40
2452601.669783912
  9
$TDUUPDATE
 40
2452601.294783912
  9
$TDINDWG
 40
0.8381064815
  9
$TDUSRTIMER
 40
0.8381064815
  9
$USRTIMER
 70
     1
  9
$ANGBASE
 50
0.0
  9
$ANGDIR
 70
     0
  9
$PDMODE
 70
     0
  9
$PDSIZE
 40
0.0
  9
$PLINEWID
 40
0.6
  9
$SPLFRAME
 70
     0
  9
$SPLINETYPE
 70
     6
  9
$SPLINESEGS
 70
     8
  9
$HANDSEED
  5
D2B
  9
$SURFTAB1
 70
     6
  9
$SURFTAB2
 70
     6
  9
$SURFTYPE
 70
     6
  9
$SURFU
 70
     6
  9
$SURFV
 70
     6
  9
$UCSBASE
  2

  9
$UCSNAME
  2

  9
$UCSORG
 10
0.0
 20
0.0
 30
0.0
  9
$UCSXDIR
 10
1.0
 20
0.0
 30
0.0
  9
$UCSYDIR
 10
0.0
 20
1.0
 30
0.0
  9
$UCSORTHOREF
  2

  9
$UCSORTHOVIEW
 70
     0
  9
$UCSORGTOP
 10
0.0
 20
0.0
 30
0.0
  9
$UCSORGBOTTOM
 10
0.0
 20
0.0
 30
0.0
  9
$UCSORGLEFT
 10
0.0
 20
0.0
 30
0.0
  9
$UCSORGRIGHT
 10
0.0
 20
0.0
 30
0.0
  9
$UCSORGFRONT
 10
0.0
 20
0.0
 30
0.0
  9
$UCSORGBACK
 10
0.0
 20
0.0
 30
0.0
  9
$PUCSBASE
  2

  9
$PUCSNAME
  2

  9
$PUCSORG
 10
0.0
 20
0.0
 30
0.0
  9
$PUCSXDIR
 10
1.0
 20
0.0
 30
0.0
  9
$PUCSYDIR
 10
0.0
 20
1.0
 30
0.0
  9
$PUCSORTHOREF
  2

  9
$PUCSORTHOVIEW
 70
     0
  9
$PUCSORGTOP
 10
0.0
 20
0.0
 30
0.0
  9
$PUCSORGBOTTOM
 10
0.0
 20
0.0
 30
0.0
  9
$PUCSORGLEFT
 10
0.0
 20
0.0
 30
0.0
  9
$PUCSORGRIGHT
 10
0.0
 20
0.0
 30
0.0
  9
$PUCSORGFRONT
 10
0.0
 20
0.0
 30
0.0
  9
$PUCSORGBACK
 10
0.0
 20
0.0
 30
0.0
  9
$USERI1
 70
     0
  9
$USERI2
 70
     0
  9
$USERI3
 70
     0
  9
$USERI4
 70
     0
  9
$USERI5
 70
     0
  9
$USERR1
 40
0.0
  9
$USERR2
 40
0.0
  9
$USERR3
 40
0.0
  9
$USERR4
 40
0.0
  9
$USERR5
 40
0.0
  9
$WORLDVIEW
 70
     1
  9
$SHADEDGE
 70
     3
  9
$SHADEDIF
 70
    70
  9
$TILEMODE
 70
     1
  9
$MAXACTVP
 70
    48
  9
$PINSBASE
 10
0.0
 20
0.0
 30
0.0
  9
$PLIMCHECK
 70
     0
  9
$PEXTMIN
 10
28.51784982681273
 20
19.82258291244505
 30
0.0
  9
$PEXTMAX
 10
256.6606484413147
 20
178.4032462120056
 30
0.0
  9
$PLIMMIN
 10
-5.873748779296875
 20
-5.873749732971191
  9
$PLIMMAX
 10
291.05224609375
 20
204.1842489242553
  9
$UNITMODE
 70
     0
  9
$VISRETAIN
 70
     1
  9
$PLINEGEN
 70
     0
  9
$PSLTSCALE
 70
     1
  9
$TREEDEPTH
 70
  3020
  9
$CMLSTYLE
  2
STANDARD
  9
$CMLJUST
 70
     0
  9
$CMLSCALE
 40
20.0
  9
$PROXYGRAPHICS
 70
     1
  9
$MEASUREMENT
 70
     1
  9
$CELWEIGHT
370
    -1
  9
$ENDCAPS
280
     0
  9
$JOINSTYLE
280
     0
  9
$LWDISPLAY
290
     0
  9
$INSUNITS
 70
     0
  9
$HYPERLINKBASE
  1

  9
$STYLESHEET
  1
aclt.ctb
  9
$XEDIT
290
     1
  9
$CEPSNTYPE
380
     0
  9
$PSTYLEMODE
290
     1
  9
$FINGERPRINTGUID
  2
{1080B319-95B7-11D3-A790-004026173390}
  9
$VERSIONGUID
  2
{0488D249-FE2C-11D6-9161-00E0297C6FFB}
  9
$EXTNAMES
290
     1
  9
$PSVPSCALE
 40
0.0
  9
$OLESTARTUP
290
     0
  0
ENDSEC
  0
SECTION
  2
CLASSES
  0
CLASS
  1
DICTIONARYVAR
  2
AcDbDictionaryVar
  3
AutoCAD 2000
 90
        0
280
     0
281
     0
  0
CLASS
  1
LWPOLYLINE
  2
AcDbPolyline
  3
AutoCAD 2000
 90
    32768
280
     0
281
     1
  0
CLASS
  1
OLE2FRAME
  2
AcDbOle2Frame
  3
AutoCAD 2000
 90
    32768
280
     0
281
     1
  0
CLASS
  1
ACDBDICTIONARYWDFLT
  2
AcDbDictionaryWithDefault
  3
AutoCAD 2000
 90
        0
280
     0
281
     0
  0
CLASS
  1
ACDBPLACEHOLDER
  2
AcDbPlaceHolder
  3
AutoCAD 2000
 90
        0
280
     0
281
     0
  0
CLASS
  1
LAYOUT
  2
AcDbLayout
  3
AutoCAD 2000
 90
        0
280
     0
281
     0
  0
ENDSEC
  0
SECTION
  2
TABLES
  0
TABLE
  2
VPORT
  5
8
330
0
100
AcDbSymbolTable
 70
     5
  0
VPORT
  5
D2A
330
8
100
AcDbSymbolTableRecord
100
AcDbViewportTableRecord
  2
*Active
 70
     0
 10
0.0
 20
0.0
 11
1.0
 21
1.0
 12
127.3812989227671
 22
87.2397249215918
 13
0.0
 23
0.0
 14
0.5
 24
0.5
 15
1.0
 25
1.0
 16
0.0
 26
0.0
 36
1.0
 17
0.0
 27
0.0
 37
0.0
 40
539.235075491164
 41
1.70110701107011
 42
50.0
 43
0.0
 44
0.0
 50
0.0
 51
0.0
 71
     0
 72
   100
 73
     1
 74
     1
 75
     1
 76
     1
 77
     0
 78
     0
281
     0
 65
     1
110
0.0
120
0.0
130
0.0
111
1.0
121
0.0
131
0.0
112
0.0
122
1.0
132
0.0
 79
     0
146
0.0
  0
ENDTAB
  0
TABLE
  2
LTYPE
  5
5
330
0
100
AcDbSymbolTable
 70
     3
  0
LTYPE
  5
12
330
5
100
AcDbSymbolTableRecord
100
AcDbLinetypeTableRecord
  2
BYBLOCK
 70
     0
  3

 72
    65
 73
     0
 40
0.0
  0
LTYPE
  5
13
330
5
100
AcDbSymbolTableRecord
100
AcDbLinetypeTableRecord
  2
BYLAYER
 70
     0
  3

 72
    65
 73
     0
 40
0.0
  0
LTYPE
  5
14
330
5
100
AcDbSymbolTableRecord
100
AcDbLinetypeTableRecord
  2
CONTINUOUS
 70
     0
  3
Solid line
 72
    65
 73
     0
 40
0.0
  0
LTYPE
  5
1DA
330
5
100
AcDbSymbolTableRecord
100
AcDbLinetypeTableRecord
  2
DASHED2
 70
     0
  3
Dashed (.5x) _ _ _ _ _ _ _ _ _ _ _ _ _ _ _ _ _
 72
    65
 73
     2
 40
9.524999999999998
 49
6.349999999999999
 74
     0
 49
-3.174999999999999
 74
     0
  0
LTYPE
  5
1E1
330
5
100
AcDbSymbolTableRecord
100
AcDbLinetypeTableRecord
  2
CENTER
 70
     0
  3
Center ____ _ ____ _ ____ _ ____ _ ____ _ ____
 72
    65
 73
     4
 40
50.8
 49
31.75
 74
     0
 49
-6.349999999999999
 74
     0
 49
6.349999999999999
 74
     0
 49
-6.349999999999999
 74
     0
  0
ENDTAB
  0
TABLE
  2
LAYER
  5
2
330
0
100
AcDbSymbolTable
 70
     3
  0
LAYER
  5
E
330
2
100
AcDbSymbolTableRecord
100
AcDbLayerTableRecord
  2
0
 70
     4
 62
     7
  6
CONTINUOUS
370
    -3
390
244
  0
LAYER
  5
DC
330
2
100
AcDbSymbolTableRecord
100
AcDbLayerTableRecord
  2
DEFPOINTS
 70
     0
 62
     7
  6
CONTINUOUS
290
     0
370
    -3
390
244
  0
LAYER
  5
168
330
2
100
AcDbSymbolTableRecord
100
AcDbLayerTableRecord
  2
画層1
 70
     0
 62
     7
  6
CONTINUOUS
370
    -3
390
244
  0
ENDTAB
  0
TABLE
  2
STYLE
  5
3
330
0
100
AcDbSymbolTable
 70
     3
  0
STYLE
  5
F
330
3
100
AcDbSymbolTableRecord
100
AcDbTextStyleTableRecord
  2
STANDARD
 70
     0
 40
1.5
 41
1.0
 50
0.0
 71
     0
 42
1.5
  3
MS PMincho.ttf
  4

1001
ACAD
1000
MS PMincho
1071
    32786
  0
STYLE
  5
169
330
3
100
AcDbSymbolTableRecord
100
AcDbTextStyleTableRecord
  2
STYLE1
 70
     0
 40
3.5
 41
1.0
 50
0.0
 71
     0
 42
3.5
  3
MS Gothic.ttf
  4

1001
ACAD
1000
MS Gothic
1071
    32817
  0
STYLE
  5
1D8
330
3
100
AcDbSymbolTableRecord
100
AcDbTextStyleTableRecord
  2

 70
     1
 40
0.0
 41
1.0
 50
0.0
 71
     0
 42
1.5
  3
ltypeshp.shx
  4

  0
ENDTAB
  0
TABLE
  2
VIEW
  5
6
330
0
100
AcDbSymbolTable
 70
     0
  0
ENDTAB
  0
TABLE
  2
UCS
  5
7
330
0
100
AcDbSymbolTable
 70
     0
  0
ENDTAB
  0
TABLE
  2
APPID
  5
9
330
0
100
AcDbSymbolTable
 70
     3
  0
APPID
  5
10
330
9
100
AcDbSymbolTableRecord
100
AcDbRegAppTableRecord
  2
ACAD
 70
     0
  0
APPID
  5
24
330
9
100
AcDbSymbolTableRecord
100
AcDbRegAppTableRecord
  2
CONTENTTABDATA
 70
     0
  0
APPID
  5
25
330
9
100
AcDbSymbolTableRecord
100
AcDbRegAppTableRecord
  2
CONTENTCURRENTTAB
 70
     0
  0
ENDTAB
  0
TABLE
  2
DIMSTYLE
  5
A
330
0
100
AcDbSymbolTable
 70
     3
100
AcDbDimStyleTable
 71
     1
340
35
  0
DIMSTYLE
105
1D
330
A
100
AcDbSymbolTableRecord
100
AcDbDimStyleTableRecord
  2
STANDARD
 70
     0
340
F
  0
DIMSTYLE
105
35
102
{ACAD_REACTORS
330
679
330
686
330
78D
330
79A
330
7E4
330
7FA
330
B04
330
B39
330
B6B
330
BD4
102
}
330
A
100
AcDbSymbolTableRecord
100
AcDbDimStyleTableRecord
  2
STANDARD_WS
 70
     0
 41
2.5
 42
0.625
 43
3.75
 44
1.25
 73
     0
 74
     0
 77
     1
 78
     8
140
2.5
141
2.5
143
0.0394
147
0.625
171
     4
172
     1
273
     8
274
     4
340
F
  0
DIMSTYLE
105
24D
330
A
100
AcDbSymbolTableRecord
100
AcDbDimStyleTableRecord
  2
ｺﾋﾟｰ - STANDARD_WS
 70
     0
 40
0.0
 41
1.5
 42
0.625
 43
3.75
 44
1.25
 73
     0
 74
     0
 77
     1
 78
     8
140
2.5
141
2.5
143
0.0394
146
0.5
147
0.625
171
     4
172
     1
173
     1
273
     8
274
     4
340
169
341
217
343
217
344
217
  0
ENDTAB
  0
TABLE
  2
BLOCK_RECORD
  5
1
330
0
100
AcDbSymbolTable
 70
    15
  0
BLOCK_RECORD
  5
18
330
1
100
AcDbSymbolTableRecord
100
AcDbBlockTableRecord
  2
*MODEL_SPACE
340
247
  0
BLOCK_RECORD
  5
15
330
1
100
AcDbSymbolTableRecord
100
AcDbBlockTableRecord
  2
*PAPER_SPACE
340
248
  0
BLOCK_RECORD
  5
14A
330
1
100
AcDbSymbolTableRecord
100
AcDbBlockTableRecord
  2
_OPEN
340
0
  0
BLOCK_RECORD
  5
171
330
1
100
AcDbSymbolTableRecord
100
AcDbBlockTableRecord
  2
A$C7298027A
340
0
  0
BLOCK_RECORD
  5
1F4
330
1
100
AcDbSymbolTableRecord
100
AcDbBlockTableRecord
  2
A$C4E83561F
340
0
  0
BLOCK_RECORD
  5
217
330
1
100
AcDbSymbolTableRecord
100
AcDbBlockTableRecord
  2
_OPEN30
340
0
102
{BLKREFS
331
93B
331
93C
331
C57
331
C58
331
C60
331
C61
331
C72
331
C73
331
C7B
331
C7C
331
C84
331
C85
331
C8D
331
C8E
331
C96
331
C97
331
C9F
331
CA0
331
CD9
331
CDA
102
}
  0
BLOCK_RECORD
  5
21D
330
1
100
AcDbSymbolTableRecord
100
AcDbBlockTableRecord
  2
A$C0B5F4613
340
0
102
{BLKREFS
331
221
102
}
  0
BLOCK_RECORD
  5
67A
330
1
100
AcDbSymbolTableRecord
100
AcDbBlockTableRecord
  2
*D5
340
0
  0
BLOCK_RECORD
  5
687
330
1
100
AcDbSymbolTableRecord
100
AcDbBlockTableRecord
  2
*D6
340
0
  0
BLOCK_RECORD
  5
78E
330
1
100
AcDbSymbolTableRecord
100
AcDbBlockTableRecord
  2
*D7
340
0
  0
BLOCK_RECORD
  5
79B
330
1
100
AcDbSymbolTableRecord
100
AcDbBlockTableRecord
  2
*D8
340
0
  0
BLOCK_RECORD
  5
7E5
330
1
100
AcDbSymbolTableRecord
100
AcDbBlockTableRecord
  2
*D9
340
0
  0
BLOCK_RECORD
  5
7FB
330
1
100
AcDbSymbolTableRecord
100
AcDbBlockTableRecord
  2
*D10
340
0
  0
BLOCK_RECORD
  5
B05
330
1
100
AcDbSymbolTableRecord
100
AcDbBlockTableRecord
  2
*D11
340
0
  0
BLOCK_RECORD
  5
B3A
330
1
100
AcDbSymbolTableRecord
100
AcDbBlockTableRecord
  2
*D12
340
0
  0
BLOCK_RECORD
  5
B6C
330
1
100
AcDbSymbolTableRecord
100
AcDbBlockTableRecord
  2
*D13
340
0
  0
BLOCK_RECORD
  5
BD5
330
1
100
AcDbSymbolTableRecord
100
AcDbBlockTableRecord
  2
*D14
340
0
  0
ENDTAB
  0
ENDSEC
  0
SECTION
  2
BLOCKS
  0
BLOCK
  5
19
330
18
100
AcDbEntity
  8
0
100
AcDbBlockBegin
  2
*MODEL_SPACE
 70
     0
 10
0.0
 20
0.0
 30
0.0
  3
*MODEL_SPACE
  1

  0
ENDBLK
  5
1A
330
18
100
AcDbEntity
  8
0
100
AcDbBlockEnd
  0
BLOCK
  5
16
330
15
100
AcDbEntity
 67
     1
  8
0
100
AcDbBlockBegin
  2
*PAPER_SPACE
 70
     0
 10
0.0
 20
0.0
 30
0.0
  3
*PAPER_SPACE
  1

  0
ENDBLK
  5
17
330
15
100
AcDbEntity
 67
     1
  8
0
100
AcDbBlockEnd
  0
BLOCK
  5
14B
330
14A
100
AcDbEntity
  8
0
100
AcDbBlockBegin
  2
_OPEN
 70
     0
 10
0.0
 20
0.0
 30
0.0
  3
_OPEN
  1

  0
LINE
  5
14C
330
14A
100
AcDbEntity
  8
0
  6
ByBlock
 62
     0
100
AcDbLine
 10
-1.0
 20
0.1666666666666666
 30
0.0
 11
0.0
 21
0.0
 31
0.0
  0
LINE
  5
14D
330
14A
100
AcDbEntity
  8
0
  6
ByBlock
 62
     0
100
AcDbLine
 10
0.0
 20
0.0
 30
0.0
 11
-1.0
 21
-0.1666666666666666
 31
0.0
  0
LINE
  5
14E
330
14A
100
AcDbEntity
  8
0
  6
ByBlock
 62
     0
100
AcDbLine
 10
0.0
 20
0.0
 30
0.0
 11
-1.0
 21
0.0
 31
0.0
  0
ENDBLK
  5
14F
330
14A
100
AcDbEntity
  8
0
100
AcDbBlockEnd
  0
BLOCK
  5
19F
330
171
100
AcDbEntity
  8
0
 62
     0
100
AcDbBlockBegin
  2
A$C7298027A
 70
     0
 10
0.0
 20
0.0
 30
0.0
  3
A$C7298027A
  1

  0
MTEXT
  5
172
330
171
100
AcDbEntity
  8
0
100
AcDbMText
 10
110.2999997960162
 20
36.0000001124572
 30
0.0
 40
1.5
 41
7.0
 71
     1
 72
     5
  1
SCALE
 73
     1
 44
1.0
  0
MTEXT
  5
173
330
171
100
AcDbEntity
  8
0
100
AcDbMText
 10
108.7999997960162
 20
40.00000011245719
 30
0.0
 40
2.5
 41
10.5
 71
     1
 72
     5
  1
尺　度
 73
     1
 44
1.0
  0
LWPOLYLINE
  5
174
330
171
100
AcDbEntity
  8
0
100
AcDbPolyline
 90
        2
 70
     0
 43
0.6
 10
65.29999979601621
 20
33.5000001124572
 10
175.2999997960162
 20
33.5000001124572
  0
LWPOLYLINE
  5
175
330
171
100
AcDbEntity
  8
0
100
AcDbPolyline
 90
        2
 70
     0
 43
0.6
 10
0.2999997960162091
 20
13.5000001124572
 10
175.2999997960162
 20
13.5000001124572
  0
LWPOLYLINE
  5
176
330
171
100
AcDbEntity
  8
0
100
AcDbPolyline
 90
        2
 70
     0
 43
0.6
 10
0.2999997960162091
 20
21.00000011245719
 10
175.2999997960162
 20
21.00000011245719
  0
LWPOLYLINE
  5
177
330
171
100
AcDbEntity
  8
0
100
AcDbPolyline
 90
        3
 70
     0
 43
0.6
 10
0.2999997960162091
 20
0.0000001124572009
 10
0.2999997960162091
 20
41.0000001124572
 10
175.2999997960162
 20
41.0000001124572
  0
MTEXT
  5
178
330
171
100
AcDbEntity
  8
0
100
AcDbMText
 10
31.2999997960162
 20
19.5000001124572
 30
0.0
 40
2.5
 41
17.5
 71
     1
 72
     5
  1
変 更 事 項
 73
     1
 44
1.0
  0
LWPOLYLINE
  5
179
330
171
100
AcDbEntity
  8
0
100
AcDbPolyline
 90
        2
 70
     0
 43
0.18
 10
0.2999997960162091
 20
26.0000001124572
 10
65.29999979601621
 20
26.0000001124572
  0
LWPOLYLINE
  5
17A
330
171
100
AcDbEntity
  8
0
100
AcDbPolyline
 90
        2
 70
     0
 43
0.18
 10
0.2999997960162091
 20
31.0000001124572
 10
65.29999979601621
 20
31.0000001124572
  0
LWPOLYLINE
  5
17B
330
171
100
AcDbEntity
  8
0
100
AcDbPolyline
 90
        2
 70
     0
 43
0.18
 10
0.2999997960162091
 20
36.0000001124572
 10
65.29999979601621
 20
36.0000001124572
  0
MTEXT
  5
17C
330
171
100
AcDbEntity
  8
0
100
AcDbMText
 10
12.79999979601621
 20
19.5000001124572
 30
0.0
 40
2.5
 41
11.0
 71
     1
 72
     5
  1
日　付
 73
     1
 44
1.0
  0
LWPOLYLINE
  5
17D
330
171
100
AcDbEntity
  8
0
100
AcDbPolyline
 90
        2
 70
     0
 43
0.18
 10
10.29999979601621
 20
13.5000001124572
 10
10.29999979601621
 20
41.0000001124572
  0
LWPOLYLINE
  5
17E
330
171
100
AcDbEntity
  8
0
100
AcDbPolyline
 90
        3
 70
     1
 43
0.18
 10
1.299999796016209
 20
26.5000001124572
 10
9.299999796016209
 20
26.5000001124572
 10
5.299999796016209
 20
30.0000001124572
  0
MTEXT
  5
17F
330
171
100
AcDbEntity
  8
0
100
AcDbMText
 10
0.7999997960162091
 20
19.5000001124572
 30
0.0
 40
2.5
 41
10.5
 71
     1
 72
     5
  1
符 号
 73
     1
 44
1.0
  0
MTEXT
  5
180
330
171
100
AcDbEntity
  8
0
100
AcDbMText
 10
2.299999796016209
 20
16.0000001124572
 30
0.0
 40
1.5
 41
6.0
 71
     1
 72
     5
  1
MARK
 73
     1
 44
1.0
  0
LWPOLYLINE
  5
181
330
171
100
AcDbEntity
  8
0
100
AcDbPolyline
 90
        3
 70
     1
 43
0.18
 10
1.299999796016209
 20
21.5000001124572
 10
9.299999796016209
 20
21.5000001124572
 10
5.299999796016209
 20
25.0000001124572
  0
LWPOLYLINE
  5
182
330
171
100
AcDbEntity
  8
0
100
AcDbPolyline
 90
        3
 70
     1
 43
0.18
 10
1.299999796016209
 20
36.5000001124572
 10
9.299999796016209
 20
36.5000001124572
 10
5.299999796016209
 20
40.00000011245719
  0
LWPOLYLINE
  5
183
330
171
100
AcDbEntity
  8
0
100
AcDbPolyline
 90
        3
 70
     1
 43
0.18
 10
1.299999796016209
 20
31.5000001124572
 10
9.299999796016209
 20
31.5000001124572
 10
5.299999796016209
 20
35.0000001124572
  0
LWPOLYLINE
  5
184
330
171
100
AcDbEntity
  8
0
100
AcDbPolyline
 90
        2
 70
     0
 43
0.18
 10
25.29999979601621
 20
13.5000001124572
 10
25.29999979601621
 20
41.0000001124572
  0
MTEXT
  5
185
330
171
100
AcDbEntity
  8
0
100
AcDbMText
 10
15.29999979601621
 20
16.0000001124572
 30
0.0
 40
1.5
 41
6.0
 71
     1
 72
     5
  1
DATE
 73
     1
 44
1.0
  0
MTEXT
  5
186
330
171
100
AcDbEntity
  8
0
100
AcDbMText
 10
34.7999997960162
 20
16.0000001124572
 30
0.0
 40
1.5
 41
10.5
 71
     1
 72
     5
  1
REVISIONS
 73
     1
 44
1.0
  0
LWPOLYLINE
  5
187
330
171
100
AcDbEntity
  8
0
100
AcDbPolyline
 90
        2
 70
     0
 43
0.18
 10
97.29999979601622
 20
0.0000001124572009
 10
97.29999979601622
 20
21.00000011245719
  0
LWPOLYLINE
  5
188
330
171
100
AcDbEntity
  8
0
100
AcDbPolyline
 90
        2
 70
     0
 43
0.18
 10
81.2999997960162
 20
0.0000001124572009
 10
81.2999997960162
 20
21.00000011245719
  0
LWPOLYLINE
  5
189
330
171
100
AcDbEntity
  8
0
100
AcDbPolyline
 90
        2
 70
     0
 43
0.6
 10
65.29999979601621
 20
0.0000001124572009
 10
65.29999979601621
 20
41.0000001124572
  0
MTEXT
  5
18A
330
171
100
AcDbEntity
  8
0
100
AcDbMText
 10
74.79999979601621
 20
24.5000001124572
 30
0.0
 40
1.5
 41
6.0
 71
     1
 72
     5
  1
TITLE
 73
     1
 44
1.0
  0
MTEXT
  5
18B
330
171
100
AcDbEntity
  8
0
100
AcDbMText
 10
70.79999979601621
 20
30.0000001124572
 30
0.0
 40
3.5
 41
15.0
 71
     1
 72
     5
  1
名　称
 73
     1
 44
1.0
  0
LWPOLYLINE
  5
18C
330
171
100
AcDbEntity
  8
0
100
AcDbPolyline
 90
        2
 70
     0
 43
0.18
 10
55.29999979601621
 20
13.5000001124572
 10
55.29999979601621
 20
41.0000001124572
  0
MTEXT
  5
18D
330
171
100
AcDbEntity
  8
0
100
AcDbMText
 10
56.79999979601621
 20
19.5000001124572
 30
0.0
 40
2.5
 41
7.0
 71
     1
 72
     5
  1
承認
 73
     1
 44
1.0
  0
MTEXT
  5
18E
330
171
100
AcDbEntity
  8
0
100
AcDbMText
 10
58.29999979601621
 20
16.0000001124572
 30
0.0
 40
1.5
 41
5.0
 71
     1
 72
     5
  1
APP.
 73
     1
 44
1.0
  0
MTEXT
  5
18F
330
171
100
AcDbEntity
  8
0
100
AcDbMText
 10
68.7999997960162
 20
19.5000001124572
 30
0.0
 40
2.5
 41
11.0
 71
     1
 72
     5
  1
承　認
 73
     1
 44
1.0
  0
MTEXT
  5
190
330
171
100
AcDbEntity
  8
0
100
AcDbMText
 10
67.79999979601621
 20
16.0000001124572
 30
0.0
 40
1.5
 41
11.0
 71
     1
 72
     5
  1
APPROVED
 73
     1
 44
1.0
  0
MTEXT
  5
191
330
171
100
AcDbEntity
  8
0
100
AcDbMText
 10
68.7999997960162
 20
40.00000011245719
 30
0.0
 40
2.5
 41
11.0
 71
     1
 72
     5
  1
日　付
 73
     1
 44
1.0
  0
MTEXT
  5
192
330
171
100
AcDbEntity
  8
0
100
AcDbMText
 10
70.79999979601621
 20
36.0000001124572
 30
0.0
 40
1.5
 41
6.0
 71
     1
 72
     5
  1
DATE
 73
     1
 44
1.0
  0
LWPOLYLINE
  5
193
330
171
100
AcDbEntity
  8
0
100
AcDbPolyline
 90
        2
 70
     0
 43
0.18
 10
89.29999979601621
 20
21.00000011245719
 10
89.29999979601621
 20
33.5000001124572
  0
LWPOLYLINE
  5
194
330
171
100
AcDbEntity
  8
0
100
AcDbPolyline
 90
        2
 70
     0
 43
0.18
 10
81.2999997960162
 20
33.5000001124572
 10
81.2999997960162
 20
41.0000001124572
  0
LWPOLYLINE
  5
195
330
171
100
AcDbEntity
  8
0
100
AcDbPolyline
 90
        2
 70
     0
 43
0.6
 10
106.2999997960162
 20
33.5000001124572
 10
106.2999997960162
 20
41.0000001124572
  0
MTEXT
  5
196
330
171
100
AcDbEntity
  8
0
100
AcDbMText
 10
116.2999997960162
 20
5.0000001124572
 30
0.0
 40
1.5
 41
15.5
 71
     1
 72
     5
  1
DRAWING No.
 73
     1
 44
1.0
  0
LWPOLYLINE
  5
197
330
171
100
AcDbEntity
  8
0
100
AcDbPolyline
 90
        2
 70
     0
 43
0.18
 10
132.2999997960162
 20
0.0000001124572009
 10
132.2999997960162
 20
13.5000001124572
  0
LWPOLYLINE
  5
198
330
171
100
AcDbEntity
  8
0
100
AcDbPolyline
 90
        2
 70
     0
 43
0.6
 10
113.2999997960162
 20
0.0000001124572009
 10
113.2999997960162
 20
21.00000011245719
  0
MTEXT
  5
199
330
171
100
AcDbEntity
  8
0
100
AcDbMText
 10
142.2999997960162
 20
36.5000001124572
 30
0.0
 40
1.5
 41
28.0
 71
     1
 72
     5
  1
THIRD ANGLE PROJECTION
 73
     1
 44
1.0
  0
MTEXT
  5
19A
330
171
100
AcDbEntity
  8
0
100
AcDbMText
 10
145.2999997960162
 20
40.00000011245719
 30
0.0
 40
2.5
 41
25.0
 71
     1
 72
     5
  1
第　三　角　法
 73
     1
 44
1.0
  0
MTEXT
  5
19B
330
171
100
AcDbEntity
  8
0
100
AcDbMText
 10
117.2999997960162
 20
10.0000001124572
 30
0.0
 40
3.0
 41
13.0
 71
     1
 72
     5
  1
図　番
 73
     1
 44
1.0
  0
LWPOLYLINE
  5
19C
330
171
100
AcDbEntity
  8
0
100
AcDbPolyline
 90
        2
 70
     0
 43
0.18
 10
126.2999997960162
 20
34.5000001124572
 10
132.2999997960162
 20
40.00000011245719
  0
LWPOLYLINE
  5
19D
330
171
100
AcDbEntity
  8
0
100
AcDbPolyline
 90
        2
 70
     0
 43
0.18
 10
121.2999997960162
 20
33.5000001124572
 10
121.2999997960162
 20
41.0000001124572
  0
LWPOLYLINE
  5
19E
330
171
100
AcDbEntity
  8
0
100
AcDbPolyline
 90
        2
 70
     0
 43
0.6
 10
137.2999997960162
 20
33.5000001124572
 10
137.2999997960162
 20
41.0000001124572
  0
ENDBLK
  5
1A0
330
171
100
AcDbEntity
  8
0
 62
     0
100
AcDbBlockEnd
  0
BLOCK
  5
1F9
330
1F4
100
AcDbEntity
  8
0
 62
     0
100
AcDbBlockBegin
  2
A$C4E83561F
 70
     0
 10
0.0
 20
0.0
 30
0.0
  3
A$C4E83561F
  1

  0
MTEXT
  5
1F5
330
1F4
100
AcDbEntity
  8
0
100
AcDbMText
 10
0.8134074052909454
 20
5.423014417937679
 30
0.0
 40
2.5
 41
11.0
 71
     1
 72
     5
  1
審　査
 73
     1
 44
1.0
  0
MTEXT
  5
1F6
330
1F4
100
AcDbEntity
  8
0
100
AcDbMText
 10
0.3134074052909455
 20
1.923014417937679
 30
0.0
 40
1.5
 41
10.5
 71
     1
 72
     5
  1
EXAMINED
 73
     1
 44
1.0
  0
MTEXT
  5
1F7
330
1F4
100
AcDbEntity
  8
0
100
AcDbMText
 10
16.81340740529094
 20
5.423014417937679
 30
0.0
 40
2.5
 41
11.0
 71
     1
 72
     5
  1
作　成
 73
     1
 44
1.0
  0
MTEXT
  5
1F8
330
1F4
100
AcDbEntity
  8
0
100
AcDbMText
 10
18.31340740529094
 20
1.923014417937679
 30
0.0
 40
1.5
 41
8.5
 71
     1
 72
     5
  1
MAKED
 73
     1
 44
1.0
  0
ENDBLK
  5
1FA
330
1F4
100
AcDbEntity
  8
0
 62
     0
100
AcDbBlockEnd
  0
BLOCK
  5
21B
330
217
100
AcDbEntity
  8
0
100
AcDbBlockBegin
  2
_OPEN30
 70
     0
 10
0.0
 20
0.0
 30
0.0
  3
_OPEN30
  1

  0
LINE
  5
218
330
217
100
AcDbEntity
  8
0
  6
ByBlock
 62
     0
100
AcDbLine
 10
-1.0
 20
0.26794919
 30
0.0
 11
0.0
 21
0.0
 31
0.0
  0
LINE
  5
219
330
217
100
AcDbEntity
  8
0
  6
ByBlock
 62
     0
100
AcDbLine
 10
0.0
 20
0.0
 30
0.0
 11
-1.0
 21
-0.26794919
 31
0.0
  0
LINE
  5
21A
330
217
100
AcDbEntity
  8
0
  6
ByBlock
 62
     0
100
AcDbLine
 10
0.0
 20
0.0
 30
0.0
 11
-1.0
 21
0.0
 31
0.0
  0
ENDBLK
  5
21C
330
217
100
AcDbEntity
  8
0
100
AcDbBlockEnd
  0
BLOCK
  5
21F
330
21D
100
AcDbEntity
  8
0
 62
     0
100
AcDbBlockBegin
  2
A$C0B5F4613
 70
     0
 10
0.0
 20
0.0
 30
0.0
  3
A$C0B5F4613
  1

  0
MTEXT
  5
21E
330
21D
100
AcDbEntity
  8
0
100
AcDbMText
 10
0.2860331286174187
 20
3.559908721023589
 30
0.0
 40
2.5
 41
16.5
 71
     1
 72
     5
  1
初版日付
 73
     1
 44
1.0
  0
ENDBLK
  5
220
330
21D
100
AcDbEntity
  8
0
 62
     0
100
AcDbBlockEnd
  0
BLOCK
  5
684
330
67A
100
AcDbEntity
  8
0
 62
     1
100
AcDbBlockBegin
  2
*D5
 70
     1
 10
0.0
 20
0.0
 30
0.0
  3
*D5
  1

  0
LINE
  5
C93
330
67A
100
AcDbEntity
  8
画層1
  6
ByBlock
 62
     0
370
    -2
100
AcDbLine
 10
30.09949137586204
 20
236.1786907594159
 30
0.0
 11
30.09949137586204
 21
237.9984972596
 31
0.0
  0
LINE
  5
C94
330
67A
100
AcDbEntity
  8
画層1
  6
ByBlock
 62
     0
370
    -2
100
AcDbLine
 10
130.099491375862
 20
236.1786907594159
 30
0.0
 11
130.099491375862
 21
237.9984972596
 31
0.0
  0
LINE
  5
C95
330
67A
100
AcDbEntity
  8
画層1
  6
ByBlock
 62
     0
370
    -2
100
AcDbLine
 10
31.59949137586204
 20
236.7484972596
 30
0.0
 11
128.599491375862
 21
236.7484972596
 31
0.0
  0
INSERT
  5
C96
330
67A
100
AcDbEntity
  8
画層1
  6
ByBlock
 62
     0
370
    -2
100
AcDbBlockReference
  2
_OPEN30
 10
30.09949137586204
 20
236.7484972596
 30
0.0
 41
1.5
 42
1.5
 43
1.5
 50
180.0
  0
INSERT
  5
C97
330
67A
100
AcDbEntity
  8
画層1
  6
ByBlock
 62
     0
370
    -2
100
AcDbBlockReference
  2
_OPEN30
 10
130.099491375862
 20
236.7484972596
 30
0.0
 41
1.5
 42
1.5
 43
1.5
  0
MTEXT
  5
C98
330
67A
100
AcDbEntity
  8
画層1
  6
ByBlock
 62
     0
100
AcDbMText
 10
80.37889218182726
 20
239.1234972596
 30
0.0
 40
3.5
 41
0.0
 71
     5
 72
     1
  1
\A1;100
  7
STYLE1
 73
     1
 44
1.0
  0
POINT
  5
C99
330
67A
100
AcDbEntity
  8
DEFPOINTS
  6
ByBlock
 62
     0
100
AcDbPoint
 10
30.09949137586204
 20
235.553690759416
 30
0.0
  0
POINT
  5
C9A
330
67A
100
AcDbEntity
  8
DEFPOINTS
  6
ByBlock
 62
     0
100
AcDbPoint
 10
130.099491375862
 20
235.553690759416
 30
0.0
  0
POINT
  5
C9B
330
67A
100
AcDbEntity
  8
DEFPOINTS
  6
ByBlock
 62
     0
100
AcDbPoint
 10
130.099491375862
 20
236.7484972596
 30
0.0
  0
ENDBLK
  5
685
330
67A
100
AcDbEntity
  8
0
 62
     1
100
AcDbBlockEnd
  0
BLOCK
  5
691
330
687
100
AcDbEntity
  8
0
 62
     1
100
AcDbBlockBegin
  2
*D6
 70
     1
 10
0.0
 20
0.0
 30
0.0
  3
*D6
  1

  0
LINE
  5
C54
330
687
100
AcDbEntity
  8
画層1
  6
ByBlock
 62
     0
370
    -2
100
AcDbLine
 10
35.59949137586204
 20
231.6786907594159
 30
0.0
 11
35.59949137586204
 21
233.25
 31
0.0
  0
LINE
  5
C55
330
687
100
AcDbEntity
  8
画層1
  6
ByBlock
 62
     0
370
    -2
100
AcDbLine
 10
125.599491375862
 20
231.6786907594159
 30
0.0
 11
125.599491375862
 21
233.25
 31
0.0
  0
LINE
  5
C56
330
687
100
AcDbEntity
  8
画層1
  6
ByBlock
 62
     0
370
    -2
100
AcDbLine
 10
37.09949137586204
 20
232.0
 30
0.0
 11
124.099491375862
 21
232.0
 31
0.0
  0
INSERT
  5
C57
330
687
100
AcDbEntity
  8
画層1
  6
ByBlock
 62
     0
370
    -2
100
AcDbBlockReference
  2
_OPEN30
 10
35.59949137586204
 20
232.0
 30
0.0
 41
1.5
 42
1.5
 43
1.5
 50
180.0
  0
INSERT
  5
C58
330
687
100
AcDbEntity
  8
画層1
  6
ByBlock
 62
     0
370
    -2
100
AcDbBlockReference
  2
_OPEN30
 10
125.599491375862
 20
232.0
 30
0.0
 41
1.5
 42
1.5
 43
1.5
  0
MTEXT
  5
C59
330
687
100
AcDbEntity
  8
画層1
  6
ByBlock
 62
     0
100
AcDbMText
 10
80.5
 20
234.375
 30
0.0
 40
3.5
 41
0.0
 71
     5
 72
     1
  1
\A1;90
  7
STYLE1
 73
     1
 44
1.0
  0
POINT
  5
C5A
330
687
100
AcDbEntity
  8
DEFPOINTS
  6
ByBlock
 62
     0
100
AcDbPoint
 10
35.59949137586204
 20
231.0536907594159
 30
0.0
  0
POINT
  5
C5B
330
687
100
AcDbEntity
  8
DEFPOINTS
  6
ByBlock
 62
     0
100
AcDbPoint
 10
125.599491375862
 20
231.0536907594159
 30
0.0
  0
POINT
  5
C5C
330
687
100
AcDbEntity
  8
DEFPOINTS
  6
ByBlock
 62
     0
100
AcDbPoint
 10
125.599491375862
 20
232.0
 30
0.0
  0
ENDBLK
  5
692
330
687
100
AcDbEntity
  8
0
 62
     1
100
AcDbBlockEnd
  0
BLOCK
  5
798
330
78E
100
AcDbEntity
  8
0
 62
     1
100
AcDbBlockBegin
  2
*D7
 70
     1
 10
0.0
 20
0.0
 30
0.0
  3
*D7
  1

  0
LINE
  5
CD6
330
78E
100
AcDbEntity
  8
画層1
  6
ByBlock
 62
     0
370
    -2
100
AcDbLine
 10
135.9397157883922
 20
154.9464646088574
 30
0.0
 11
134.8147157883923
 21
154.9464646088574
 31
0.0
  0
LINE
  5
CD7
330
78E
100
AcDbEntity
  8
画層1
  6
ByBlock
 62
     0
370
    -2
100
AcDbLine
 10
135.9397157883922
 20
54.94646460885746
 30
0.0
 11
134.8147157883922
 21
54.94646460885746
 31
0.0
  0
LINE
  5
CD8
330
78E
100
AcDbEntity
  8
画層1
  6
ByBlock
 62
     0
370
    -2
100
AcDbLine
 10
136.0647157883922
 20
153.4464646088574
 30
0.0
 11
136.0647157883922
 21
56.44646460885747
 31
0.0
  0
INSERT
  5
CD9
330
78E
100
AcDbEntity
  8
画層1
  6
ByBlock
 62
     0
370
    -2
100
AcDbBlockReference
  2
_OPEN30
 10
136.0647157883922
 20
154.9464646088574
 30
0.0
 41
1.5
 42
1.5
 43
1.5
 50
90.0
  0
INSERT
  5
CDA
330
78E
100
AcDbEntity
  8
画層1
  6
ByBlock
 62
     0
370
    -2
100
AcDbBlockReference
  2
_OPEN30
 10
136.0647157883922
 20
54.94646460885746
 30
0.0
 41
1.5
 42
1.5
 43
1.5
 50
270.0
  0
MTEXT
  5
CDB
330
78E
100
AcDbEntity
  8
画層1
  6
ByBlock
 62
     0
100
AcDbMText
 10
133.6897157883922
 20
104.9464646088574
 30
0.0
 40
3.5
 41
0.0
 71
     5
 72
     1
  1
\A1;100
  7
STYLE1
 11
0.0000000000000001
 21
1.0
 31
0.0
 73
     1
 44
1.0
  0
POINT
  5
CDC
330
78E
100
AcDbEntity
  8
DEFPOINTS
  6
ByBlock
 62
     0
100
AcDbPoint
 10
136.5647157883922
 20
154.9464646088574
 30
0.0
  0
POINT
  5
CDD
330
78E
100
AcDbEntity
  8
DEFPOINTS
  6
ByBlock
 62
     0
100
AcDbPoint
 10
136.5647157883922
 20
54.94646460885746
 30
0.0
  0
POINT
  5
CDE
330
78E
100
AcDbEntity
  8
DEFPOINTS
  6
ByBlock
 62
     0
100
AcDbPoint
 10
136.0647157883922
 20
54.94646460885746
 30
0.0
  0
ENDBLK
  5
799
330
78E
100
AcDbEntity
  8
0
 62
     1
100
AcDbBlockEnd
  0
BLOCK
  5
7A5
330
79B
100
AcDbEntity
  8
0
 62
     1
100
AcDbBlockBegin
  2
*D8
 70
     1
 10
0.0
 20
0.0
 30
0.0
  3
*D8
  1

  0
LINE
  5
938
330
79B
100
AcDbEntity
  8
画層1
  6
ByBlock
 62
     0
370
    -2
100
AcDbLine
 10
40.0
 20
162.2901185787175
 30
0.0
 11
40.0
 21
160.6651185787175
 31
0.0
  0
LINE
  5
939
330
79B
100
AcDbEntity
  8
画層1
  6
ByBlock
 62
     0
370
    -2
100
AcDbLine
 10
120.0
 20
162.2901185787175
 30
0.0
 11
120.0
 21
160.6651185787175
 31
0.0
  0
LINE
  5
93A
330
79B
100
AcDbEntity
  8
画層1
  6
ByBlock
 62
     0
370
    -2
100
AcDbLine
 10
41.5
 20
161.9151185787175
 30
0.0
 11
118.5
 21
161.9151185787175
 31
0.0
  0
INSERT
  5
93B
330
79B
100
AcDbEntity
  8
画層1
  6
ByBlock
 62
     0
370
    -2
100
AcDbBlockReference
  2
_OPEN30
 10
40.0
 20
161.9151185787175
 30
0.0
 41
1.5
 42
1.5
 43
1.5
 50
180.0
  0
INSERT
  5
93C
330
79B
100
AcDbEntity
  8
画層1
  6
ByBlock
 62
     0
370
    -2
100
AcDbBlockReference
  2
_OPEN30
 10
120.0
 20
161.9151185787175
 30
0.0
 41
1.5
 42
1.5
 43
1.5
  0
MTEXT
  5
93D
330
79B
100
AcDbEntity
  8
画層1
  6
ByBlock
 62
     0
100
AcDbMText
 10
80.0
 20
164.2901185787175
 30
0.0
 40
3.5
 41
0.0
 71
     5
 72
     1
  1
\A1;80
  7
STYLE1
 73
     1
 44
1.0
  0
POINT
  5
93E
330
79B
100
AcDbEntity
  8
DEFPOINTS
  6
ByBlock
 62
     0
100
AcDbPoint
 10
40.0
 20
162.9151185787175
 30
0.0
  0
POINT
  5
93F
330
79B
100
AcDbEntity
  8
DEFPOINTS
  6
ByBlock
 62
     0
100
AcDbPoint
 10
120.0
 20
162.9151185787175
 30
0.0
  0
POINT
  5
940
330
79B
100
AcDbEntity
  8
DEFPOINTS
  6
ByBlock
 62
     0
100
AcDbPoint
 10
120.0
 20
161.9151185787175
 30
0.0
  0
ENDBLK
  5
7A6
330
79B
100
AcDbEntity
  8
0
 62
     1
100
AcDbBlockEnd
  0
BLOCK
  5
7EF
330
7E5
100
AcDbEntity
  8
0
 62
     1
100
AcDbBlockBegin
  2
*D9
 70
     1
 10
0.0
 20
0.0
 30
0.0
  3
*D9
  1

  0
LINE
  5
C78
330
7E5
100
AcDbEntity
  8
画層1
  6
ByBlock
 62
     0
370
    -2
100
AcDbLine
 10
80.0
 20
227.1839236015707
 30
0.0
 11
80.0
 21
228.3089236015707
 31
0.0
  0
LINE
  5
C79
330
7E5
100
AcDbEntity
  8
画層1
  6
ByBlock
 62
     0
370
    -2
100
AcDbLine
 10
111.4999999999999
 20
227.6839236015707
 30
0.0
 11
111.4999999999999
 21
228.3089236015707
 31
0.0
  0
LINE
  5
C7A
330
7E5
100
AcDbEntity
  8
画層1
  6
ByBlock
 62
     0
370
    -2
100
AcDbLine
 10
81.5
 20
227.0589236015707
 30
0.0
 11
110.0
 21
227.0589236015707
 31
0.0
  0
INSERT
  5
C7B
330
7E5
100
AcDbEntity
  8
画層1
  6
ByBlock
 62
     0
370
    -2
100
AcDbBlockReference
  2
_OPEN30
 10
80.0
 20
227.0589236015707
 30
0.0
 41
1.5
 42
1.5
 43
1.5
 50
180.0
  0
INSERT
  5
C7C
330
7E5
100
AcDbEntity
  8
画層1
  6
ByBlock
 62
     0
370
    -2
100
AcDbBlockReference
  2
_OPEN30
 10
111.4999999999999
 20
227.0589236015707
 30
0.0
 41
1.5
 42
1.5
 43
1.5
  0
MTEXT
  5
C7D
330
7E5
100
AcDbEntity
  8
画層1
  6
ByBlock
 62
     0
100
AcDbMText
 10
95.75000000000001
 20
229.4339236015707
 30
0.0
 40
3.5
 41
0.0
 71
     5
 72
     1
  1
\A1;31.5
  7
STYLE1
 73
     1
 44
1.0
  0
POINT
  5
C7E
330
7E5
100
AcDbEntity
  8
DEFPOINTS
  6
ByBlock
 62
     0
100
AcDbPoint
 10
80.0
 20
226.5589236015707
 30
0.0
  0
POINT
  5
C7F
330
7E5
100
AcDbEntity
  8
DEFPOINTS
  6
ByBlock
 62
     0
100
AcDbPoint
 10
111.4999999999999
 20
227.0589236015707
 30
0.0
  0
POINT
  5
C80
330
7E5
100
AcDbEntity
  8
DEFPOINTS
  6
ByBlock
 62
     0
100
AcDbPoint
 10
111.4999999999999
 20
227.0589236015707
 30
0.0
  0
ENDBLK
  5
7F0
330
7E5
100
AcDbEntity
  8
0
 62
     1
100
AcDbBlockEnd
  0
BLOCK
  5
805
330
7FB
100
AcDbEntity
  8
0
 62
     1
100
AcDbBlockBegin
  2
*D10
 70
     1
 10
0.0
 20
0.0
 30
0.0
  3
*D10
  1

  0
LINE
  5
C5D
330
7FB
100
AcDbEntity
  8
画層1
  6
ByBlock
 62
     0
370
    -2
100
AcDbLine
 10
80.00000227916189
 20
227.4418921175397
 30
0.0
 11
80.00000227916189
 21
228.25
 31
0.0
  0
LINE
  5
C5E
330
7FB
100
AcDbEntity
  8
画層1
  6
ByBlock
 62
     0
370
    -2
100
AcDbLine
 10
48.5
 20
227.625
 30
0.0
 11
48.5
 21
228.25
 31
0.0
  0
LINE
  5
C5F
330
7FB
100
AcDbEntity
  8
画層1
  6
ByBlock
 62
     0
370
    -2
100
AcDbLine
 10
78.50000227916189
 20
227.0
 30
0.0
 11
50.0
 21
227.0
 31
0.0
  0
INSERT
  5
C60
330
7FB
100
AcDbEntity
  8
画層1
  6
ByBlock
 62
     0
370
    -2
100
AcDbBlockReference
  2
_OPEN30
 10
80.00000227916189
 20
227.0
 30
0.0
 41
1.5
 42
1.5
 43
1.5
  0
INSERT
  5
C61
330
7FB
100
AcDbEntity
  8
画層1
  6
ByBlock
 62
     0
370
    -2
100
AcDbBlockReference
  2
_OPEN30
 10
48.5
 20
227.0
 30
0.0
 41
1.5
 42
1.5
 43
1.5
 50
180.0
  0
MTEXT
  5
C62
330
7FB
100
AcDbEntity
  8
画層1
  6
ByBlock
 62
     0
100
AcDbMText
 10
64.25000113958095
 20
229.375
 30
0.0
 40
3.5
 41
0.0
 71
     5
 72
     1
  1
\A1;31.5
  7
STYLE1
 73
     1
 44
1.0
  0
POINT
  5
C63
330
7FB
100
AcDbEntity
  8
DEFPOINTS
  6
ByBlock
 62
     0
100
AcDbPoint
 10
80.00000227916189
 20
226.8168921175397
 30
0.0
  0
POINT
  5
C64
330
7FB
100
AcDbEntity
  8
DEFPOINTS
  6
ByBlock
 62
     0
100
AcDbPoint
 10
48.5
 20
227.0
 30
0.0
  0
POINT
  5
C65
330
7FB
100
AcDbEntity
  8
DEFPOINTS
  6
ByBlock
 62
     0
100
AcDbPoint
 10
48.5
 20
227.0
 30
0.0
  0
ENDBLK
  5
806
330
7FB
100
AcDbEntity
  8
0
 62
     1
100
AcDbBlockEnd
  0
BLOCK
  5
B0F
330
B05
100
AcDbEntity
  8
0
 62
     1
100
AcDbBlockBegin
  2
*D11
 70
     1
 10
0.0
 20
0.0
 30
0.0
  3
*D11
  1

  0
LINE
  5
C6F
330
B05
100
AcDbEntity
  8
画層1
  6
ByBlock
 62
     0
370
    -2
100
AcDbLine
 10
148.875
 20
186.5
 30
0.0
 11
146.7499999999999
 21
186.5
 31
0.0
  0
LINE
  5
C70
330
B05
100
AcDbEntity
  8
画層1
  6
ByBlock
 62
     0
370
    -2
100
AcDbLine
 10
148.875
 20
213.5
 30
0.0
 11
146.75
 21
213.5
 31
0.0
  0
LINE
  5
C71
330
B05
100
AcDbEntity
  8
画層1
  6
ByBlock
 62
     0
370
    -2
100
AcDbLine
 10
147.9999999999999
 20
188.0
 30
0.0
 11
148.0
 21
212.0
 31
0.0
  0
INSERT
  5
C72
330
B05
100
AcDbEntity
  8
画層1
  6
ByBlock
 62
     0
370
    -2
100
AcDbBlockReference
  2
_OPEN30
 10
147.9999999999999
 20
186.5
 30
0.0
 41
1.5
 42
1.5
 43
1.5
 50
270.0
  0
INSERT
  5
C73
330
B05
100
AcDbEntity
  8
画層1
  6
ByBlock
 62
     0
370
    -2
100
AcDbBlockReference
  2
_OPEN30
 10
148.0
 20
213.5
 30
0.0
 41
1.5
 42
1.5
 43
1.5
 50
90.0
  0
MTEXT
  5
C74
330
B05
100
AcDbEntity
  8
画層1
  6
ByBlock
 62
     0
100
AcDbMText
 10
145.6249999999999
 20
200.0
 30
0.0
 40
3.5
 41
0.0
 71
     5
 72
     1
  1
\A1;27
  7
STYLE1
 11
0.0000000000000001
 21
1.0
 31
0.0
 73
     1
 44
1.0
  0
POINT
  5
C75
330
B05
100
AcDbEntity
  8
DEFPOINTS
  6
ByBlock
 62
     0
100
AcDbPoint
 10
149.5
 20
186.5
 30
0.0
  0
POINT
  5
C76
330
B05
100
AcDbEntity
  8
DEFPOINTS
  6
ByBlock
 62
     0
100
AcDbPoint
 10
149.5
 20
213.5
 30
0.0
  0
POINT
  5
C77
330
B05
100
AcDbEntity
  8
DEFPOINTS
  6
ByBlock
 62
     0
100
AcDbPoint
 10
148.0
 20
213.5
 30
0.0
  0
ENDBLK
  5
B10
330
B05
100
AcDbEntity
  8
0
 62
     1
100
AcDbBlockEnd
  0
BLOCK
  5
B44
330
B3A
100
AcDbEntity
  8
0
 62
     1
100
AcDbBlockBegin
  2
*D12
 70
     1
 10
0.0
 20
0.0
 30
0.0
  3
*D12
  1

  0
LINE
  5
C8A
330
B3A
100
AcDbEntity
  8
画層1
  6
ByBlock
 62
     0
370
    -2
100
AcDbLine
 10
136.875
 20
206.0
 30
0.0
 11
134.7499999999999
 21
206.0
 31
0.0
  0
LINE
  5
C8B
330
B3A
100
AcDbEntity
  8
画層1
  6
ByBlock
 62
     0
370
    -2
100
AcDbLine
 10
136.875
 20
194.0
 30
0.0
 11
134.7499999999999
 21
194.0
 31
0.0
  0
LINE
  5
C8C
330
B3A
100
AcDbEntity
  8
画層1
  6
ByBlock
 62
     0
370
    -2
100
AcDbLine
 10
136.0
 20
204.4999999999999
 30
0.0
 11
136.0
 21
195.5
 31
0.0
  0
INSERT
  5
C8D
330
B3A
100
AcDbEntity
  8
画層1
  6
ByBlock
 62
     0
370
    -2
100
AcDbBlockReference
  2
_OPEN30
 10
136.0
 20
206.0
 30
0.0
 41
1.5
 42
1.5
 43
1.5
 50
90.0
  0
INSERT
  5
C8E
330
B3A
100
AcDbEntity
  8
画層1
  6
ByBlock
 62
     0
370
    -2
100
AcDbBlockReference
  2
_OPEN30
 10
136.0
 20
194.0
 30
0.0
 41
1.5
 42
1.5
 43
1.5
 50
270.0
  0
MTEXT
  5
C8F
330
B3A
100
AcDbEntity
  8
画層1
  6
ByBlock
 62
     0
100
AcDbMText
 10
133.6249999999999
 20
200.0
 30
0.0
 40
3.5
 41
0.0
 71
     5
 72
     1
  1
\A1;12
  7
STYLE1
 11
0.0000000000000001
 21
1.0
 31
0.0
 73
     1
 44
1.0
  0
POINT
  5
C90
330
B3A
100
AcDbEntity
  8
DEFPOINTS
  6
ByBlock
 62
     0
100
AcDbPoint
 10
137.5
 20
206.0
 30
0.0
  0
POINT
  5
C91
330
B3A
100
AcDbEntity
  8
DEFPOINTS
  6
ByBlock
 62
     0
100
AcDbPoint
 10
137.5
 20
194.0
 30
0.0
  0
POINT
  5
C92
330
B3A
100
AcDbEntity
  8
DEFPOINTS
  6
ByBlock
 62
     0
100
AcDbPoint
 10
136.0
 20
194.0
 30
0.0
  0
ENDBLK
  5
B45
330
B3A
100
AcDbEntity
  8
0
 62
     1
100
AcDbBlockEnd
  0
BLOCK
  5
B76
330
B6C
100
AcDbEntity
  8
0
 62
     1
100
AcDbBlockBegin
  2
*D13
 70
     1
 10
0.0
 20
0.0
 30
0.0
  3
*D13
  1

  0
LINE
  5
C81
330
B6C
100
AcDbEntity
  8
画層1
  6
ByBlock
 62
     0
370
    -2
100
AcDbLine
 10
142.8749999999999
 20
207.5
 30
0.0
 11
140.25
 21
207.5
 31
0.0
  0
LINE
  5
C82
330
B6C
100
AcDbEntity
  8
画層1
  6
ByBlock
 62
     0
370
    -2
100
AcDbLine
 10
142.8749999999999
 20
192.5
 30
0.0
 11
140.25
 21
192.5
 31
0.0
  0
LINE
  5
C83
330
B6C
100
AcDbEntity
  8
画層1
  6
ByBlock
 62
     0
370
    -2
100
AcDbLine
 10
141.5
 20
206.0
 30
0.0
 11
141.5
 21
194.0
 31
0.0
  0
INSERT
  5
C84
330
B6C
100
AcDbEntity
  8
画層1
  6
ByBlock
 62
     0
370
    -2
100
AcDbBlockReference
  2
_OPEN30
 10
141.5
 20
207.5
 30
0.0
 41
1.5
 42
1.5
 43
1.5
 50
90.0
  0
INSERT
  5
C85
330
B6C
100
AcDbEntity
  8
画層1
  6
ByBlock
 62
     0
370
    -2
100
AcDbBlockReference
  2
_OPEN30
 10
141.5
 20
192.5
 30
0.0
 41
1.5
 42
1.5
 43
1.5
 50
270.0
  0
MTEXT
  5
C86
330
B6C
100
AcDbEntity
  8
画層1
  6
ByBlock
 62
     0
100
AcDbMText
 10
139.1249999999999
 20
200.0
 30
0.0
 40
3.5
 41
0.0
 71
     5
 72
     1
  1
\A1;15
  7
STYLE1
 11
0.0000000000000001
 21
1.0
 31
0.0
 73
     1
 44
1.0
  0
POINT
  5
C87
330
B6C
100
AcDbEntity
  8
DEFPOINTS
  6
ByBlock
 62
     0
100
AcDbPoint
 10
143.5
 20
207.5
 30
0.0
  0
POINT
  5
C88
330
B6C
100
AcDbEntity
  8
DEFPOINTS
  6
ByBlock
 62
     0
100
AcDbPoint
 10
143.5
 20
192.5
 30
0.0
  0
POINT
  5
C89
330
B6C
100
AcDbEntity
  8
DEFPOINTS
  6
ByBlock
 62
     0
100
AcDbPoint
 10
141.5
 20
192.5
 30
0.0
  0
ENDBLK
  5
B77
330
B6C
100
AcDbEntity
  8
0
 62
     1
100
AcDbBlockEnd
  0
BLOCK
  5
BDF
330
BD5
100
AcDbEntity
  8
0
 62
     3
100
AcDbBlockBegin
  2
*D14
 70
     1
 10
0.0
 20
0.0
 30
0.0
  3
*D14
  1

  0
LINE
  5
C9C
330
BD5
100
AcDbEntity
  8
画層1
  6
ByBlock
 62
     0
370
    -2
100
AcDbLine
 10
27.625
 20
206.0
 30
0.0
 11
28.25
 21
206.0
 31
0.0
  0
LINE
  5
C9D
330
BD5
100
AcDbEntity
  8
画層1
  6
ByBlock
 62
     0
370
    -2
100
AcDbLine
 10
26.375
 20
194.0
 30
0.0
 11
25.75
 21
194.0
 31
0.0
  0
LINE
  5
C9E
330
BD5
100
AcDbEntity
  8
画層1
  6
ByBlock
 62
     0
370
    -2
100
AcDbLine
 10
27.0
 20
204.4999999999999
 30
0.0
 11
27.0
 21
195.5
 31
0.0
  0
INSERT
  5
C9F
330
BD5
100
AcDbEntity
  8
画層1
  6
ByBlock
 62
     0
370
    -2
100
AcDbBlockReference
  2
_OPEN30
 10
27.0
 20
206.0
 30
0.0
 41
1.5
 42
1.5
 43
1.5
 50
90.0
  0
INSERT
  5
CA0
330
BD5
100
AcDbEntity
  8
画層1
  6
ByBlock
 62
     0
370
    -2
100
AcDbBlockReference
  2
_OPEN30
 10
27.0
 20
194.0
 30
0.0
 41
1.5
 42
1.5
 43
1.5
 50
270.0
  0
MTEXT
  5
CA1
330
BD5
100
AcDbEntity
  8
画層1
  6
ByBlock
 62
     0
100
AcDbMText
 10
24.62499999999996
 20
200.0
 30
0.0
 40
3.5
 41
0.0
 71
     5
 72
     1
  1
\A1;12
  7
STYLE1
 11
0.0000000000000001
 21
1.0
 31
0.0
 73
     1
 44
1.0
  0
POINT
  5
CA2
330
BD5
100
AcDbEntity
  8
DEFPOINTS
  6
ByBlock
 62
     0
100
AcDbPoint
 10
27.0
 20
206.0
 30
0.0
  0
POINT
  5
CA3
330
BD5
100
AcDbEntity
  8
DEFPOINTS
  6
ByBlock
 62
     0
100
AcDbPoint
 10
27.0
 20
194.0
 30
0.0
  0
POINT
  5
CA4
330
BD5
100
AcDbEntity
  8
DEFPOINTS
  6
ByBlock
 62
     0
100
AcDbPoint
 10
27.0
 20
194.0
 30
0.0
  0
ENDBLK
  5
BE0
330
BD5
100
AcDbEntity
  8
0
 62
     3
100
AcDbBlockEnd
  0
ENDSEC
  0
SECTION
  2
ENTITIES
  0
LWPOLYLINE
  5
5A
330
18
100
AcDbEntity
  8
0
100
AcDbPolyline
 90
        2
 70
     0
 43
0.3
 10
99.0
 20
4.0
 10
99.0
 20
0.0
  0
LWPOLYLINE
  5
5C
330
18
100
AcDbEntity
  8
0
100
AcDbPolyline
 90
        2
 70
     0
 43
0.3
 10
0.0
 20
142.5
 10
19.0
 20
142.5
  0
LWPOLYLINE
  5
5D
330
18
100
AcDbEntity
  8
0
100
AcDbPolyline
 90
        2
 70
     0
 43
0.3
 10
99.0
 20
281.0
 10
99.0
 20
285.0
  0
LWPOLYLINE
  5
5F
330
18
100
AcDbEntity
  8
0
100
AcDbPolyline
 90
        2
 70
     0
 43
0.3
 10
194.0
 20
142.5
 10
198.0
 20
142.5
  0
MTEXT
  5
6D
330
18
100
AcDbEntity
  8
0
100
AcDbMText
 10
-11.0
 20
49.0
 30
0.0
 40
2.5
 41
9.0
 71
     1
 72
     5
  1

 73
     1
 44
1.0
  0
MTEXT
  5
A9
330
18
100
AcDbEntity
  8
0
100
AcDbMText
 10
19.5
 20
2.5
 30
0.0
 40
1.5
 41
9.0
 71
     1
 72
     5
  1
DA-A403
 73
     1
 44
1.0
  0
LWPOLYLINE
  5
CB
330
18
100
AcDbEntity
  8
0
100
AcDbPolyline
 90
        6
 70
     0
 43
0.8
 10
84.0
 20
4.0
 10
194.0
 20
4.0
 10
194.0
 20
281.0
 10
19.0
 20
281.0
 10
19.0
 20
4.0
 10
84.0
 20
4.0
  0
MTEXT
  5
E2
330
18
100
AcDbEntity
  8
0
100
AcDbMText
 10
85.5
 20
244.4999999999999
 30
0.0
 40
2.5
 41
5.5
 71
     1
 72
     5
  1

 73
     1
 44
1.0
  0
LWPOLYLINE
  5
1A4
330
18
100
AcDbEntity
  8
0
100
AcDbPolyline
 90
        2
 70
     0
 43
0.6
 10
19.0
 20
38.5
 10
194.0
 20
38.5
  0
LWPOLYLINE
  5
1A5
330
18
100
AcDbEntity
  8
0
100
AcDbPolyline
 90
        2
 70
     0
 43
0.6
 10
84.0
 20
17.5
 10
194.0
 20
17.5
  0
MTEXT
  5
1A8
330
18
100
AcDbEntity
  8
0
100
AcDbMText
 10
50.0
 20
23.0
 30
0.0
 40
2.5
 41
17.5
 71
     1
 72
     5
  1
変 更 事 項
 73
     1
 44
1.0
  0
LWPOLYLINE
  5
1A9
330
18
100
AcDbEntity
  8
0
100
AcDbPolyline
 90
        2
 70
     0
 43
0.18
 10
19.0
 20
28.5
 10
84.0
 20
28.5
  0
LWPOLYLINE
  5
1AA
330
18
100
AcDbEntity
  8
0
100
AcDbPolyline
 90
        2
 70
     0
 43
0.18
 10
19.0
 20
33.5
 10
84.0
 20
33.5
  0
MTEXT
  5
1AC
330
18
100
AcDbEntity
  8
0
100
AcDbMText
 10
31.5
 20
23.0
 30
0.0
 40
2.5
 41
11.0
 71
     1
 72
     5
  1
日　付
 73
     1
 44
1.0
  0
LWPOLYLINE
  5
1AD
330
18
100
AcDbEntity
  8
0
100
AcDbPolyline
 90
        2
 70
     0
 43
0.18
 10
29.0
 20
17.5
 10
29.0
 20
38.5
  0
LWPOLYLINE
  5
1AE
330
18
100
AcDbEntity
  8
0
100
AcDbPolyline
 90
        3
 70
     1
 43
0.18
 10
20.0
 20
29.0
 10
28.0
 20
29.0
 10
24.0
 20
32.5
  0
MTEXT
  5
1AF
330
18
100
AcDbEntity
  8
0
100
AcDbMText
 10
19.5
 20
23.0
 30
0.0
 40
2.5
 41
10.5
 71
     1
 72
     5
  1
符 号
 73
     1
 44
1.0
  0
MTEXT
  5
1B0
330
18
100
AcDbEntity
  8
0
100
AcDbMText
 10
21.0
 20
19.5
 30
0.0
 40
1.5
 41
6.0
 71
     1
 72
     5
  1
MARK
 73
     1
 44
1.0
  0
LWPOLYLINE
  5
1B1
330
18
100
AcDbEntity
  8
0
100
AcDbPolyline
 90
        3
 70
     1
 43
0.18
 10
20.0
 20
24.0
 10
28.0
 20
24.0
 10
24.0
 20
27.5
  0
LWPOLYLINE
  5
1B3
330
18
100
AcDbEntity
  8
0
100
AcDbPolyline
 90
        3
 70
     1
 43
0.18
 10
20.0
 20
34.0
 10
28.0
 20
34.0
 10
24.0
 20
37.5
  0
LWPOLYLINE
  5
1B4
330
18
100
AcDbEntity
  8
0
100
AcDbPolyline
 90
        2
 70
     0
 43
0.18
 10
44.0
 20
17.5
 10
44.0
 20
38.5
  0
MTEXT
  5
1B5
330
18
100
AcDbEntity
  8
0
100
AcDbMText
 10
34.0
 20
19.5
 30
0.0
 40
1.5
 41
6.0
 71
     1
 72
     5
  1
DATE
 73
     1
 44
1.0
  0
MTEXT
  5
1B6
330
18
100
AcDbEntity
  8
0
100
AcDbMText
 10
53.5
 20
19.5
 30
0.0
 40
1.5
 41
10.5
 71
     1
 72
     5
  1
REVISIONS
 73
     1
 44
1.0
  0
LWPOLYLINE
  5
1B7
330
18
100
AcDbEntity
  8
0
100
AcDbPolyline
 90
        2
 70
     0
 43
0.18
 10
116.0
 20
4.0
 10
116.0
 20
25.0
  0
LWPOLYLINE
  5
1B8
330
18
100
AcDbEntity
  8
0
100
AcDbPolyline
 90
        2
 70
     0
 43
0.18
 10
100.0
 20
4.0
 10
100.0
 20
25.0
  0
LWPOLYLINE
  5
1B9
330
18
100
AcDbEntity
  8
0
100
AcDbPolyline
 90
        2
 70
     0
 43
0.6
 10
84.0
 20
4.0
 10
84.0
 20
38.5
  0
MTEXT
  5
1BA
330
18
100
AcDbEntity
  8
0
100
AcDbMText
 10
93.49999999999999
 20
29.5
 30
0.0
 40
1.5
 41
6.0
 71
     1
 72
     5
  1
TITLE
 73
     1
 44
1.0
  0
MTEXT
  5
1BB
330
18
100
AcDbEntity
  8
0
100
AcDbMText
 10
89.50000000000001
 20
35.0
 30
0.0
 40
3.5
 41
15.0
 71
     1
 72
     5
  1
名　称
 73
     1
 44
1.0
  0
LWPOLYLINE
  5
1BC
330
18
100
AcDbEntity
  8
0
100
AcDbPolyline
 90
        2
 70
     0
 43
0.18
 10
76.5
 20
17.5
 10
76.5
 20
38.5
  0
MTEXT
  5
1BD
330
18
100
AcDbEntity
  8
0
100
AcDbMText
 10
76.5
 20
23.0
 30
0.0
 40
2.5
 41
7.0
 71
     1
 72
     5
  1
承認
 73
     1
 44
1.0
  0
MTEXT
  5
1BE
330
18
100
AcDbEntity
  8
0
100
AcDbMText
 10
78.0
 20
19.5
 30
0.0
 40
1.5
 41
5.0
 71
     1
 72
     5
  1
APP.
 73
     1
 44
1.0
  0
MTEXT
  5
1BF
330
18
100
AcDbEntity
  8
0
100
AcDbMText
 10
87.5
 20
23.5
 30
0.0
 40
2.5
 41
11.0
 71
     1
 72
     5
  1
承　認
 73
     1
 44
1.0
  0
MTEXT
  5
1C0
330
18
100
AcDbEntity
  8
0
100
AcDbMText
 10
86.5
 20
20.0
 30
0.0
 40
1.5
 41
11.0
 71
     1
 72
     5
  1
APPROVED
 73
     1
 44
1.0
  0
MTEXT
  5
1C2
330
18
100
AcDbEntity
  8
0
100
AcDbMText
 10
138.5
 20
20.0
 30
0.0
 40
1.5
 41
6.0
 71
     1
 72
     5
  1
DATE
 73
     1
 44
1.0
  0
LWPOLYLINE
  5
1C3
330
18
100
AcDbEntity
  8
0
100
AcDbPolyline
 90
        2
 70
     0
 43
0.18
 10
108.0
 20
25.0
 10
108.0
 20
38.5
  0
MTEXT
  5
1C6
330
18
100
AcDbEntity
  8
0
100
AcDbMText
 10
135.0
 20
9.0
 30
0.0
 40
1.5
 41
15.5
 71
     1
 72
     5
  1
DRAWING No.
 73
     1
 44
1.0
  0
LWPOLYLINE
  5
1C7
330
18
100
AcDbEntity
  8
0
100
AcDbPolyline
 90
        2
 70
     0
 43
0.18
 10
151.0
 20
4.0
 10
151.0
 20
25.0
  0
LWPOLYLINE
  5
1C8
330
18
100
AcDbEntity
  8
0
100
AcDbPolyline
 90
        2
 70
     0
 43
0.6
 10
132.0
 20
4.0
 10
132.0
 20
25.0
  0
MTEXT
  5
1CB
330
18
100
AcDbEntity
  8
0
100
AcDbMText
 10
136.0
 20
14.0
 30
0.0
 40
3.0
 41
13.0
 71
     1
 72
     5
  1
図　番
 73
     1
 44
1.0
  0
LWPOLYLINE
  5
202
330
18
100
AcDbEntity
  8
0
100
AcDbPolyline
 90
        2
 70
     0
 43
0.6
 10
84.0
 20
25.0
 10
194.0
 20
25.0
  0
LWPOLYLINE
  5
203
330
18
100
AcDbEntity
  8
0
100
AcDbPolyline
 90
        2
 70
     0
 43
0.6
 10
19.0
 20
23.5
 10
84.0
 20
23.5
  0
LWPOLYLINE
  5
204
330
18
100
AcDbEntity
  8
0
100
AcDbPolyline
 90
        2
 70
     0
 43
0.6
 10
19.0
 20
17.5
 10
84.0
 20
17.5
  0
MTEXT
  5
20D
330
18
100
AcDbEntity
  8
0
100
AcDbMText
 10
103.3134074052909
 20
23.42301441793768
 30
0.0
 40
2.5
 41
11.0
 71
     1
 72
     5
  1
審　査
 73
     1
 44
1.0
  0
MTEXT
  5
20E
330
18
100
AcDbEntity
  8
0
100
AcDbMText
 10
102.8134074052909
 20
19.92301441793768
 30
0.0
 40
1.5
 41
10.5
 71
     1
 72
     5
  1
EXAMINED
 73
     1
 44
1.0
  0
MTEXT
  5
20F
330
18
100
AcDbEntity
  8
0
100
AcDbMText
 10
119.3134074052909
 20
23.42301441793768
 30
0.0
 40
2.5
 41
11.0
 71
     1
 72
     5
  1
作　成
 73
     1
 44
1.0
  0
MTEXT
  5
210
330
18
100
AcDbEntity
  8
0
100
AcDbMText
 10
120.8134074052909
 20
19.92301441793768
 30
0.0
 40
1.5
 41
8.5
 71
     1
 72
     5
  1
DRAWN
 73
     1
 44
1.0
  0
INSERT
  5
221
330
18
100
AcDbEntity
  8
0
 62
     0
100
AcDbBlockReference
  2
A$C0B5F4613
 10
134.0
 20
20.5
 30
0.0
  0
HATCH
  5
254
330
18
100
AcDbEntity
  8
0
 62
     0
100
AcDbHatch
 10
0.0
 20
0.0
 30
0.0
210
0.0
220
0.0
230
1.0
  2
SOLID
 70
     1
 71
     0
 91
       40
 92
        7
 72
     1
 73
     1
 93
       18
 10
27.34999999999999
 20
13.0677192982456
 42
0.0
 10
27.65
 20
13.0677192982456
 42
0.0
 10
27.65
 20
13.5677192982456
 42
0.0
 10
27.34999999999999
 20
13.5677192982456
 42
0.0
 10
27.34999999999999
 20
13.96771929824561
 42
0.0
 10
26.84999999999999
 20
13.96771929824561
 42
0.0
 10
26.84999999999999
 20
13.5677192982456
 42
0.0
 10
26.34999999999999
 20
13.5677192982456
 42
0.0
 10
26.34999999999999
 20
13.0677192982456
 42
0.0
 10
26.84999999999999
 20
13.0677192982456
 42
-0.226827051633085
 10
26.34999999999999
 20
11.76771929824559
 42
0.0
 10
26.34999999999999
 20
11.1677192982456
 42
0.2360679774997958
 10
26.84999999999999
 20
11.6677192982456
 42
0.0
 10
26.84999999999999
 20
11.0677192982456
 42
0.0
 10
27.34999999999999
 20
11.0677192982456
 42
0.0
 10
27.34999999999999
 20
11.6677192982456
 42
0.0
 10
27.65
 20
11.36771929824558
 42
0.0
 10
27.65
 20
12.0677192982456
 42
-0.1097722286464436
 97
        0
 92
        7
 72
     1
 73
     1
 93
       28
 10
30.25
 20
13.5677192982456
 42
0.0
 10
29.34999999999999
 20
13.5677192982456
 42
0.0
 10
29.34999999999999
 20
13.96771929824561
 42
0.0
 10
28.84999999999999
 20
13.96771929824561
 42
0.0
 10
28.84999999999999
 20
13.5677192982456
 42
0.0
 10
28.34999999999999
 20
13.5677192982456
 42
0.0
 10
28.34999999999999
 20
13.96771929824561
 42
0.0
 10
27.84999999999999
 20
13.96771929824561
 42
0.0
 10
27.84999999999999
 20
13.0677192982456
 42
0.0
 10
28.84999999999999
 20
13.0677192982456
 42
0.0
 10
28.84999999999999
 20
12.76771929824559
 42
0.0
 10
27.84999999999999
 20
12.76771929824559
 42
0.0
 10
27.84999999999999
 20
12.26771929824559
 42
0.0
 10
28.84999999999999
 20
12.26771929824559
 42
-0.1231056256176598
 10
27.84999999999999
 20
11.46771929824561
 42
0.0
 10
27.84999999999999
 20
11.0677192982456
 42
0.1464024815284726
 10
28.84999999999999
 20
11.46771929824561
 42
0.0
 10
28.84999999999999
 20
11.0677192982456
 42
0.0
 10
29.34999999999999
 20
11.0677192982456
 42
0.0
 10
29.34999999999999
 20
11.5677192982456
 42
0.171289914004821
 10
30.25
 20
11.0677192982456
 42
0.0
 10
30.25
 20
11.5677192982456
 42
-0.1099526118956116
 10
29.34999999999999
 20
12.26771929824559
 42
0.0
 10
30.25
 20
12.26771929824559
 42
0.0
 10
30.25
 20
12.76771929824559
 42
0.0
 10
29.34999999999999
 20
12.76771929824559
 42
0.0
 10
29.34999999999999
 20
13.0677192982456
 42
0.0
 10
30.25
 20
13.0677192982456
 42
0.0
 97
        0
 92
        7
 72
     1
 73
     1
 93
       18
 10
34.94999999999999
 20
13.5677192982456
 42
0.0
 10
34.65
 20
13.5677192982456
 42
0.0
 10
34.65
 20
13.96771929824561
 42
0.0
 10
34.15
 20
13.96771929824561
 42
0.0
 10
34.15
 20
13.5677192982456
 42
0.0
 10
33.84999999999999
 20
13.5677192982456
 42
0.0
 10
33.84999999999999
 20
13.96771929824561
 42
0.0
 10
33.34999999999999
 20
13.96771929824561
 42
0.0
 10
33.34999999999999
 20
13.5677192982456
 42
0.0
 10
31.15
 20
13.5677192982456
 42
0.0
 10
31.15
 20
13.0677192982456
 42
0.0
 10
33.34999999999999
 20
13.0677192982456
 42
0.0
 10
33.34999999999999
 20
12.76771929824559
 42
0.4336059021825717
 10
34.94999999999999
 20
11.06771929824563
 42
0.0
 10
34.94999999999999
 20
11.5677192982456
 42
-0.4228915093663999
 10
33.84999999999999
 20
12.76771929824562
 42
0.0
 10
33.84999999999999
 20
13.0677192982456
 42
0.0
 10
34.94999999999999
 20
13.0677192982456
 42
0.0
 97
        0
 92
       23
 72
     1
 73
     1
 93
       13
 10
33.05000000000001
 20
12.76771929824559
 42
0.0
 10
31.15
 20
12.76771929824559
 42
0.0
 10
31.15
 20
12.26771929824559
 42
0.0
 10
31.84999999999999
 20
12.26771929824559
 42
0.0
 10
31.84999999999999
 20
11.5677192982456
 42
0.0
 10
31.15
 20
11.5677192982456
 42
0.0
 10
31.15
 20
11.0677192982456
 42
0.0
 10
31.85000000000002
 20
11.0677192982456
 42
0.0760883743498627
 10
33.05000000000001
 20
11.36771929824558
 42
0.0
 10
33.05000000000001
 20
11.86771929824558
 42
-0.0450014940788304
 10
32.34999999999999
 20
11.64586458964717
 42
0.0
 10
32.34999999999999
 20
12.26771929824559
 42
0.0
 10
33.05000000000001
 20
12.26771929824559
 42
0.0
 97
        0
 92
        7
 72
     0
 73
     1
 93
       10
 10
39.44999999999998
 20
13.0677192982456
 10
37.69999999999999
 20
13.96771929824561
 10
37.30000000000001
 20
13.96771929824561
 10
35.55000000000001
 20
13.0677192982456
 10
35.55000000000001
 20
12.5677192982456
 10
36.05000000000001
 20
12.79848852901483
 10
36.05000000000001
 20
12.6677192982456
 10
38.94999999999999
 20
12.6677192982456
 10
38.94999999999999
 20
12.79848852901483
 10
39.44999999999998
 20
12.5677192982456
 97
        0
 92
       22
 72
     0
 73
     1
 93
        3
 10
36.63333333333335
 20
13.0677192982456
 10
37.5
 20
13.46771929824561
 10
38.36666666666667
 20
13.0677192982456
 97
        0
 92
        7
 72
     0
 73
     1
 93
        8
 10
39.44999999999998
 20
12.36771929824558
 10
35.55000000000001
 20
12.36771929824558
 10
35.55000000000001
 20
11.96771929824561
 10
36.05000000000001
 20
11.96771929824561
 10
35.84999999999999
 20
11.0677192982456
 10
39.15
 20
11.0677192982456
 10
38.94999999999999
 20
11.96771929824561
 10
39.44999999999998
 20
11.96771929824561
 97
        0
 92
       23
 72
     0
 73
     1
 93
        4
 10
38.44999999999998
 20
11.96771929824561
 10
38.5611111111111
 20
11.46771929824561
 10
36.4388888888889
 20
11.46771929824561
 10
36.55000000000001
 20
11.96771929824561
 97
        0
 92
        7
 72
     1
 73
     1
 93
       18
 10
41.74999999999999
 20
13.5677192982456
 42
0.0
 10
41.15000000000001
 20
13.5677192982456
 42
0.0
 10
41.15000000000001
 20
13.96771929824561
 42
0.0
 10
40.65
 20
13.96771929824561
 42
0.0
 10
40.65
 20
13.5677192982456
 42
0.0
 10
39.94999999999999
 20
13.5677192982456
 42
0.0
 10
39.94999999999999
 20
13.0677192982456
 42
0.0
 10
41.15000000000001
 20
13.0677192982456
 42
-0.2934128124060343
 10
39.94999999999999
 20
12.0677192982456
 42
0.0
 10
39.94999999999999
 20
11.5677192982456
 42
0.0941134708646488
 10
40.65
 20
11.75385319003044
 42
0.0
 10
40.65
 20
11.0677192982456
 42
0.0
 10
41.15000000000001
 20
11.0677192982456
 42
0.0
 10
41.15000000000001
 20
12.09943710820502
 42
0.0124211165220396
 10
41.21808794625727
 20
12.1677192982456
 42
0.0
 10
41.74999999999999
 20
11.96771929824561
 42
0.0
 10
41.74999999999999
 20
12.46771929824561
 42
0.0
 10
41.50098137157283
 20
12.55072550772132
 42
0.137395649198469
 97
        0
 92
        7
 72
     0
 73
     1
 93
       16
 10
43.84999999999999
 20
13.5677192982456
 10
43.15
 20
13.5677192982456
 10
43.15
 20
13.96771929824561
 10
42.65
 20
13.96771929824561
 10
42.65
 20
13.5677192982456
 10
41.94999999999999
 20
13.5677192982456
 10
41.94999999999999
 20
13.0677192982456
 10
42.65
 20
13.0677192982456
 10
42.65
 20
11.5677192982456
 10
41.94999999999999
 20
11.5677192982456
 10
41.94999999999999
 20
11.0677192982456
 10
43.84999999999999
 20
11.0677192982456
 10
43.84999999999999
 20
11.5677192982456
 10
43.15
 20
11.5677192982456
 10
43.15
 20
13.0677192982456
 10
43.84999999999999
 20
13.0677192982456
 97
        0
 92
       23
 72
     0
 73
     1
 93
        4
 10
50.55000000000001
 20
14.96771929824561
 10
45.75
 20
14.96771929824561
 10
45.75
 20
13.76771929824559
 10
50.55000000000001
 20
13.76771929824559
 97
        0
 92
       23
 72
     0
 73
     1
 93
        4
 10
50.55000000000001
 20
13.46771929824561
 10
45.75
 20
13.46771929824561
 10
45.75
 20
12.26771929824559
 10
50.55000000000001
 20
12.26771929824559
 97
        0
 92
        7
 72
     1
 73
     1
 93
        8
 10
52.55000000000001
 20
12.1677192982456
 42
0.0
 10
52.55000000000001
 20
14.96771929824561
 42
0.0
 10
51.35000000000002
 20
14.96771929824561
 42
0.0
 10
51.35000000000002
 20
12.1677192982456
 42
-0.4142135623730951
 10
50.55000000000001
 20
11.36771929824558
 42
0.0
 10
45.75
 20
11.36771929824558
 42
0.0
 10
45.75
 20
10.1677192982456
 42
0.0
 10
50.55000000000001
 20
10.1677192982456
 42
0.4142135623730951
 97
        0
 92
        7
 72
     1
 73
     1
 93
       14
 10
60.25
 20
14.96771929824561
 42
0.0
 10
53.44999999999998
 20
14.96771929824561
 42
0.0
 10
53.44999999999998
 20
13.76771929824559
 42
0.0
 10
59.05000000000001
 20
13.76771929824559
 42
0.0
 10
59.05000000000001
 20
13.26771929824559
 42
-0.4142135623730951
 10
58.25
 20
12.46771929824561
 42
0.0
 10
56.40151515151512
 20
12.46771929824561
 42
0.0
 10
55.25
 20
13.46771929824561
 42
0.0
 10
53.55000000000001
 20
13.46771929824561
 42
0.0
 10
57.35000000000002
 20
10.1677192982456
 42
0.0
 10
59.05000000000001
 20
10.1677192982456
 42
0.0
 10
57.78333333333335
 20
11.26771929824559
 42
0.0
 10
58.25
 20
11.26771929824559
 42
0.4142135623730942
 10
60.25
 20
13.26771929824559
 42
0.0
 97
        0
 92
        7
 72
     0
 73
     1
 93
        4
 10
65.64999999999997
 20
14.96771929824561
 10
61.14999999999998
 20
14.96771929824561
 10
61.14999999999998
 20
13.76771929824559
 10
65.64999999999997
 20
13.76771929824559
 97
        0
 92
        7
 72
     1
 73
     1
 93
       12
 10
67.94999999999999
 20
13.46771929824561
 42
0.0
 10
61.14999999999998
 20
13.46771929824561
 42
0.0
 10
61.14999999999998
 20
12.26771929824559
 42
0.0
 10
64.85000000000002
 20
12.26771929824559
 42
0.0
 10
64.85000000000002
 20
12.1677192982456
 42
-0.4142135623730951
 10
64.05000000000001
 20
11.36771929824558
 42
0.0
 10
61.14999999999998
 20
11.36771929824558
 42
0.0
 10
61.14999999999998
 20
10.1677192982456
 42
0.0
 10
64.05000000000001
 20
10.1677192982456
 42
0.4142135623730784
 10
66.05000000000001
 20
12.16771929824548
 42
0.0
 10
66.05000000000001
 20
12.26771929824559
 42
0.0
 10
67.94999999999999
 20
12.26771929824559
 42
0.0
 97
        0
 92
        7
 72
     0
 73
     1
 93
        4
 10
66.80000000000001
 20
14.96771929824561
 10
66.0
 20
14.96771929824561
 10
66.0
 20
13.76771929824559
 10
66.80000000000001
 20
13.76771929824559
 97
        0
 92
        7
 72
     0
 73
     1
 93
        4
 10
67.94999999999999
 20
14.96771929824561
 10
67.14999999999998
 20
14.96771929824561
 10
67.14999999999998
 20
13.76771929824559
 10
67.94999999999999
 20
13.76771929824559
 97
        0
 92
        7
 72
     0
 73
     1
 93
        4
 10
73.64999999999998
 20
14.96771929824561
 10
68.85000000000002
 20
14.96771929824561
 10
68.85000000000002
 20
13.76771929824559
 10
73.64999999999998
 20
13.76771929824559
 97
        0
 92
        7
 72
     1
 73
     1
 93
        8
 10
75.64999999999997
 20
12.1677192982456
 42
0.0
 10
75.64999999999997
 20
14.96771929824561
 42
0.0
 10
74.44999999999999
 20
14.96771929824561
 42
0.0
 10
74.44999999999999
 20
12.1677192982456
 42
-0.4142135623730951
 10
73.64999999999998
 20
11.36771929824558
 42
0.0
 10
68.85000000000002
 20
11.36771929824558
 42
0.0
 10
68.85000000000002
 20
10.1677192982456
 42
0.0
 10
73.64999999999998
 20
10.1677192982456
 42
0.4142135623730951
 97
        0
 92
        7
 72
     1
 73
     1
 93
        2
 10
72.69561403508771
 20
6.646315789473675
 42
1.0
 10
73.22192982456141
 20
6.646315789473675
 42
1.0
 97
        0
 92
        7
 72
     1
 73
     1
 93
        4
 10
71.46754385964914
 20
8.707719298245592
 42
0.0
 10
69.44999999999999
 20
8.707719298245592
 42
0.0
 10
69.45000000000004
 20
6.427017543859648
 42
0.0
 10
71.46754385964914
 20
6.427017543859648
 42
1.0
 97
        0
 92
       22
 72
     1
 73
     1
 93
        4
 10
70.59035087719303
 20
8.137543859649127
 42
0.0
 10
70.85350877192985
 20
8.137543859649099
 42
-1.0
 10
70.85350877192985
 20
6.997192982456141
 42
0.0
 10
70.59035087719298
 20
6.997192982456141
 42
0.0
 97
        0
 92
        7
 72
     0
 73
     1
 93
        8
 10
69.09912280701758
 20
8.707719298245592
 10
66.37982456140355
 20
8.707719298245621
 10
66.37982456140349
 20
8.225263157894715
 10
67.16929824561407
 20
8.225263157894715
 10
67.16929824561407
 20
6.427017543859648
 10
68.30964912280705
 20
6.427017543859648
 10
68.309649122807
 20
8.225263157894715
 10
69.09912280701758
 20
8.225263157894715
 97
        0
 92
        7
 72
     0
 73
     1
 93
        6
 10
65.63421052631582
 20
8.707719298245621
 10
64.49385964912284
 20
8.707719298245592
 10
64.49385964912284
 20
6.427017543859648
 10
66.68684210526317
 20
6.427017543859619
 10
66.68684210526317
 20
6.909473684210524
 10
65.63421052631577
 20
6.909473684210496
 97
        0
 92
        7
 72
     1
 73
     1
 93
        3
 10
63.61666666666668
 20
6.383157894736825
 42
-0.1939908086291979
 10
63.48508771929829
 20
6.032280701754388
 42
0.2690240276591165
 10
63.87982456140355
 20
6.646315789473703
 42
2.414213562372836
 97
        0
 92
        7
 72
     1
 73
     1
 93
        2
 10
62.47631578947369
 20
6.646315789473675
 42
1.0
 10
63.00263157894739
 20
6.646315789473675
 42
1.0
 97
        0
 92
        5
 93
        1
 72
     3
 10
60.85350877192985
 20
7.567368421052634
 11
1.710526315789474
 21
0.0
 40
0.717948717948718
 50
0.0
 51
360.0
 73
     1
 97
        0
 92
       22
 72
     1
 73
     1
 93
        2
 10
60.19561403508771
 20
7.567368421052634
 42
-1.0
 10
61.51140350877193
 20
7.567368421052634
 42
-1.0
 97
        0
 92
        5
 93
        4
 72
     3
 10
58.00263157894739
 20
7.567368421052634
 11
1.710526315789474
 21
0.0
 40
0.717948717948718
 50
48.32934583897131
 51
311.6706541610286
 73
     1
 72
     1
 10
58.92368421052629
 20
6.532534979072551
 11
58.92368421052628
 21
7.111228070175428
 72
     3
 10
58.39736842105264
 20
7.567368421052634
 11
0.8771929824561404
 21
0.0
 40
0.65
 50
40.91438322002507
 51
319.0856167799749
 73
     0
 72
     1
 10
58.92368421052629
 20
8.023508771929812
 11
58.9236842105263
 21
8.602201863032689
 97
        0
 92
        7
 72
     0
 73
     1
 93
       10
 10
54.62543859649122
 20
8.707719298245592
 10
53.48508771929823
 20
8.707719298245592
 10
53.48508771929823
 20
7.742807017543839
 10
52.52017543859648
 20
8.707719298245592
 10
51.20438596491226
 20
8.707719298245592
 10
51.20438596491226
 20
6.427017543859648
 10
52.34473684210525
 20
6.427017543859648
 10
52.34473684210525
 20
7.479649122806989
 10
53.39736842105264
 20
6.427017543859619
 10
54.62543859649122
 20
6.427017543859619
 97
        0
 92
        7
 72
     0
 73
     1
 93
       12
 10
50.89736842105264
 20
8.707719298245592
 10
48.52894736842109
 20
8.707719298245592
 10
48.52894736842109
 20
6.427017543859648
 10
50.89736842105264
 20
6.427017543859619
 10
50.89736842105264
 20
6.909473684210496
 10
49.71315789473687
 20
6.909473684210496
 10
49.71315789473687
 20
7.260350877192962
 10
50.72192982456141
 20
7.260350877192962
 10
50.72192982456141
 20
7.874385964912249
 10
49.71315789473681
 20
7.874385964912278
 10
49.71315789473687
 20
8.225263157894715
 10
50.89736842105264
 20
8.225263157894715
 97
        0
 92
        7
 72
     1
 73
     1
 93
        4
 10
47.12543859649122
 20
8.707719298245592
 42
0.0
 10
45.10789473684212
 20
8.707719298245592
 42
0.0
 10
45.10789473684212
 20
6.427017543859648
 42
0.0
 10
47.12543859649122
 20
6.427017543859648
 42
1.0
 97
        0
 92
       22
 72
     1
 73
     1
 93
        4
 10
46.24824561403511
 20
8.137543859649099
 42
0.0
 10
46.51140350877193
 20
8.137543859649099
 42
-1.0
 10
46.51140350877193
 20
6.997192982456141
 42
0.0
 10
46.24824561403511
 20
6.997192982456141
 42
0.0
 97
        0
 92
        7
 72
     0
 73
     1
 93
        8
 10
43.74824561403508
 20
8.707719298245621
 10
42.43245614035089
 20
8.707719298245621
 10
41.37982456140349
 20
6.427017543859648
 10
42.52017543859648
 20
6.427017543859619
 10
42.71023391812867
 20
6.865614035087702
 10
43.52894736842105
 20
6.865614035087702
 10
43.74824561403508
 20
6.427017543859648
 10
44.80087719298246
 20
6.427017543859648
 97
        0
 92
       22
 72
     0
 73
     1
 93
        3
 10
43.09035087719297
 20
7.742807017543867
 10
43.33157894736842
 20
7.260350877192962
 10
42.88128654970759
 20
7.260350877192962
 97
        0
 92
        7
 72
     0
 73
     1
 93
       13
 10
40.67807017543858
 20
8.707719298245592
 10
39.62543859649122
 20
8.707719298245592
 10
39.14298245614034
 20
7.742807017543839
 10
38.74824561403508
 20
8.707719298245592
 10
37.52017543859648
 20
8.707719298245592
 10
37.12543859649122
 20
6.427017543859648
 10
38.22192982456141
 20
6.427017543859648
 10
38.35350877192982
 20
7.172631578947374
 10
38.74824561403508
 20
6.427017543859648
 10
39.44999999999998
 20
6.427017543859648
 10
39.80087719298245
 20
7.172631578947346
 10
39.97631578947368
 20
6.427017543859648
 10
41.07280701754385
 20
6.427017543859648
 97
        0
 92
        7
 72
     0
 73
     1
 93
        4
 10
36.81842105263157
 20
8.707719298245592
 10
35.67807017543859
 20
8.707719298245592
 10
35.67807017543859
 20
6.427017543859619
 10
36.81842105263157
 20
6.427017543859619
 97
        0
 92
        7
 72
     0
 73
     1
 93
       12
 10
35.32719298245615
 20
8.707719298245592
 10
34.18684210526317
 20
8.707719298245592
 10
34.18684210526317
 20
7.874385964912278
 10
33.48508771929823
 20
7.874385964912278
 10
33.48508771929823
 20
8.707719298245592
 10
32.34473684210525
 20
8.707719298245621
 10
32.34473684210525
 20
6.427017543859648
 10
33.48508771929823
 20
6.427017543859648
 10
33.48508771929823
 20
7.260350877192962
 10
34.18684210526317
 20
7.260350877192962
 10
34.18684210526317
 20
6.427017543859648
 10
35.32719298245615
 20
6.427017543859619
 97
        0
 92
        5
 93
       10
 72
     3
 10
30.85350877192982
 20
7.194561403508743
 11
-1.228070175438596
 21
0.0
 40
0.6607142857142858
 50
90.0
 51
270.0
 73
     1
 72
     2
 10
30.85350877192982
 20
8.137543859649099
 40
0.1315789473684219
 50
89.99999999999628
 51
269.9999999999956
 73
     0
 72
     2
 10
30.93233131474164
 20
6.57664392046135
 40
1.694313363783033
 50
267.3335335883714
 51
296.4437824908839
 73
     0
 72
     1
 10
31.68684210526317
 20
8.093684210526305
 11
31.86228070175439
 21
8.488421052631565
 72
     2
 10
30.78909966995007
 20
6.432769092628234
 40
2.318927016464754
 50
62.43257811529775
 51
90.5759553231079
 73
     1
 72
     3
 10
30.76578947368421
 20
7.940175438596469
 11
1.194781030325506
 21
0.0
 40
0.679123193436433
 50
90.0
 51
270.0
 73
     1
 72
     2
 10
30.76578947368421
 20
6.997192982456141
 40
0.1315789473684219
 50
270.0000000000024
 51
450.0000000000031
 73
     0
 72
     2
 10
30.6536973256953
 20
9.156030488125651
 40
2.293157687117836
 50
87.1982008190587
 51
115.4216641289816
 73
     0
 72
     1
 10
29.66929824561401
 20
7.084912280701729
 11
29.44999999999998
 21
6.690175438596469
 72
     2
 10
30.7591642053409
 20
9.31339726952828
 40
2.931757781745128
 50
243.4777171338575
 51
271.8441083094922
 73
     1
 97
        0
 75
     0
 76
     1
 47
0.278962567714329
 98
       40
 10
27.05511307073743
 20
12.2054545773521
 10
29.0096097711355
 20
13.26551229125189
 10
33.75624528899325
 20
13.37709741861149
 10
31.96927669745838
 20
12.48441711117499
 10
36.77175491827052
 20
12.87496477235746
 10
36.77175491827052
 20
12.87496477235746
 10
36.93928302713371
 20
12.14966201367232
 10
36.93928302713371
 20
12.14966201367232
 10
41.07164802612027
 20
13.26551229125189
 10
42.74693121174635
 20
13.26551229125189
 10
49.11300695015154
 20
14.38136256883149
 10
48.94547857916411
 20
12.65179465992633
 10
48.55457913423475
 20
10.97801931470098
 10
58.21537827881343
 20
14.26977758375994
 10
62.62695705469628
 20
14.38136256883149
 10
63.85549809243866
 20
13.09813474250054
 10
66.31257990579911
 20
14.43715513251129
 10
67.54112068141722
 20
14.43715513251129
 10
71.28258623547447
 20
14.1581925986884
 10
71.72932838335817
 20
10.97801931470098
 10
72.95786942110055
 20
6.681995753133975
 10
70.38910193970702
 20
8.299978676967583
 10
70.38910193970702
 20
8.299978676967583
 10
67.26190690452097
 20
8.523148647110673
 10
64.63729672017302
 20
8.188393549608008
 10
63.68796972145116
 20
6.737788174525718
 10
62.62695705469628
 20
6.626203189454173
 10
62.12437220385817
 20
7.51888335460265
 10
62.12437220385817
 20
7.51888335460265
 10
57.88032179896283
 20
8.411563662039128
 10
53.85964220588505
 20
7.797846030713571
 10
49.11300695015154
 20
8.299978676967583
 10
45.4273840990487
 20
8.355771098359355
 10
45.4273840990487
 20
8.355771098359355
 10
42.91445958273385
 20
8.299978676967583
 10
42.91445958273385
 20
8.299978676967583
 10
40.01063535936538
 20
7.909431015785116
 10
36.21332710235373
 20
7.74205346703377
 10
34.59388688180633
 20
7.630468481962225
 10
30.23815080887789
 20
7.909431015785116
  0
MTEXT
  5
4A9
330
18
100
AcDbEntity
  8
画層1
 62
     1
100
AcDbMText
 10
76.00971653178385
 20
155.6141768518035
 30
0.0
 40
2.5
 41
0.0
 71
     1
 72
     1
  1

  7
STYLE1
 73
     1
 44
1.0
  0
MTEXT
  5
4AD
330
18
100
AcDbEntity
  8
画層1
 62
     1
100
AcDbMText
 10
75.95032928517799
 20
157.0977282776476
 30
0.0
 40
2.5
 41
0.0
 71
     1
 72
     1
  1

  7
STYLE1
 73
     1
 44
1.0
  0
TEXT
  5
4CA
330
18
100
AcDbEntity
  8
画層1
 62
     3
100
AcDbText
 10
179.3769583386226
 20
40.93132631987202
 30
0.0
 40
2.5
  1
三角法
  7
STYLE1
100
AcDbText
  0
LINE
  5
5D3
330
18
100
AcDbEntity
  8
画層1
  6
CENTER
 62
     1
100
AcDbLine
 10
38.0
 20
200.0
 30
0.0
 11
124.5
 21
200.0
 31
0.0
  0
LINE
  5
5D5
330
18
100
AcDbEntity
  8
画層1
  6
CENTER
 62
     1
100
AcDbLine
 10
125.5
 20
200.0
 30
0.0
 11
70.22059919403478
 21
199.9947671578452
 31
0.0
  0
LINE
  5
676
330
18
100
AcDbEntity
  8
画層1
  6
ByBlock
 62
     1
100
AcDbLine
 10
130.099491375862
 20
231.2432644174453
 30
0.0
 11
130.099491375862
 21
231.2432644174453
 31
0.0
  0
LINE
  5
677
330
18
100
AcDbEntity
  8
画層1
  6
ByBlock
 62
     1
100
AcDbLine
 10
130.099491375862
 20
231.2432644174453
 30
0.0
 11
130.099491375862
 21
231.2432644174453
 31
0.0
  0
DIMENSION
  5
679
330
18
100
AcDbEntity
  8
画層1
  6
ByBlock
 62
     1
100
AcDbDimension
  2
*D5
 10
130.099491375862
 20
236.7484972596
 30
0.0
 11
80.37889218182726
 21
236.7484972596
 31
0.0
 70
   160
 71
     5
 42
100.0
  3
STANDARD_WS
100
AcDbAlignedDimension
 13
30.09949137586204
 23
235.553690759416
 33
0.0
 14
130.099491375862
 24
235.553690759416
 34
0.0
100
AcDbRotatedDimension
1001
ACAD
1000
DSTYLE
1002
{
1070
    41
1040
1.5
1070
   146
1040
0.5
1070
   173
1070
     1
1070
   271
1070
     1
1070
   272
1070
     1
1070
   340
1005
169
1070
   341
1005
217
1070
   343
1005
217
1070
   344
1005
217
1002
}
  0
DIMENSION
  5
686
330
18
100
AcDbEntity
  8
画層1
  6
ByBlock
 62
     1
100
AcDbDimension
  2
*D6
 10
125.599491375862
 20
232.0
 30
0.0
 11
80.5
 21
232.0
 31
0.0
 70
   160
 71
     5
 42
90.0
  3
STANDARD_WS
100
AcDbAlignedDimension
 13
35.59949137586204
 23
231.0536907594159
 33
0.0
 14
125.599491375862
 24
231.0536907594159
 34
0.0
100
AcDbRotatedDimension
1001
ACAD
1000
DSTYLE
1002
{
1070
    41
1040
1.5
1070
   146
1040
0.5
1070
   173
1070
     1
1070
   271
1070
     1
1070
   272
1070
     1
1070
   340
1005
169
1070
   341
1005
217
1070
   343
1005
217
1070
   344
1005
217
1002
}
  0
LINE
  5
71B
330
18
100
AcDbEntity
  8
画層1
  6
CENTER
 62
     1
100
AcDbLine
 10
80.0
 20
158.9151185787175
 30
0.0
 11
80.0
 21
73.41511857871751
 31
0.0
  0
LINE
  5
71C
330
18
100
AcDbEntity
  8
画層1
  6
ByBlock
 62
     1
100
AcDbLine
 10
80.0
 20
73.41511857871751
 30
0.0
 11
80.0
 21
86.9151185787175
 31
0.0
  0
LINE
  5
71E
330
18
100
AcDbEntity
  8
画層1
  6
CENTER
 62
     1
100
AcDbLine
 10
80.0
 20
72.91511857871751
 30
0.0
 11
80.0
 21
50.41511857871751
 31
0.0
  0
LINE
  5
747
330
18
100
AcDbEntity
  8
画層1
  6
ByBlock
 62
     3
100
AcDbLine
 10
119.9797399486262
 20
154.9075551448835
 30
0.0
 11
40.0
 21
154.9151185787175
 31
0.0
  0
LINE
  5
748
330
18
100
AcDbEntity
  8
画層1
  6
ByBlock
 62
     3
100
AcDbLine
 10
40.0
 20
154.9151185787175
 30
0.0
 11
40.0
 21
133.9151185787175
 31
0.0
  0
LINE
  5
749
330
18
100
AcDbEntity
  8
画層1
  6
ByBlock
 62
     3
100
AcDbLine
 10
40.0
 20
133.9151185787175
 30
0.0
 11
120.0
 21
133.9151185787175
 31
0.0
  0
LINE
  5
74A
330
18
100
AcDbEntity
  8
画層1
  6
ByBlock
 62
     3
100
AcDbLine
 10
120.0
 20
133.9151185787175
 30
0.0
 11
120.0
 21
154.9151185787175
 31
0.0
  0
LINE
  5
74B
330
18
100
AcDbEntity
  8
画層1
  6
ByBlock
 62
     3
100
AcDbLine
 10
41.0
 20
133.9151185787175
 30
0.0
 11
41.0
 21
77.41511857871751
 31
0.0
  0
LINE
  5
74C
330
18
100
AcDbEntity
  8
画層1
  6
ByBlock
 62
     3
100
AcDbLine
 10
119.0
 20
133.9151185787175
 30
0.0
 11
119.0
 21
76.91511857871751
 31
0.0
  0
LINE
  5
74D
330
18
100
AcDbEntity
  8
画層1
  6
ByBlock
 62
     3
100
AcDbLine
 10
119.0
 20
76.91511857871751
 30
0.0
 11
119.0
 21
58.91511857871751
 31
0.0
  0
LINE
  5
74E
330
18
100
AcDbEntity
  8
画層1
  6
ByBlock
 62
     3
100
AcDbLine
 10
119.0
 20
58.91511857871751
 30
0.0
 11
41.0
 21
58.91511857871751
 31
0.0
  0
LINE
  5
74F
330
18
100
AcDbEntity
  8
画層1
  6
ByBlock
 62
     3
100
AcDbLine
 10
41.0
 20
58.91511857871751
 30
0.0
 11
41.0
 21
79.41511857871751
 31
0.0
  0
LINE
  5
753
330
18
100
AcDbEntity
  8
画層1
  6
ByBlock
 62
     3
100
AcDbLine
 10
130.0
 20
54.91511857871751
 30
0.0
 11
107.0
 21
54.91511857871751
 31
0.0
  0
LINE
  5
754
330
18
100
AcDbEntity
  8
画層1
  6
ByBlock
 62
     3
100
AcDbLine
 10
107.0
 20
54.91511857871751
 30
0.0
 11
107.0
 21
58.91511857871751
 31
0.0
  0
LINE
  5
755
330
18
100
AcDbEntity
  8
画層1
  6
ByBlock
 62
     3
100
AcDbLine
 10
130.0
 20
56.91511857871751
 30
0.0
 11
118.0
 21
56.91511857871751
 31
0.0
  0
LINE
  5
756
330
18
100
AcDbEntity
  8
画層1
  6
ByBlock
 62
     3
100
AcDbLine
 10
118.0
 20
56.91511857871751
 30
0.0
 11
118.0
 21
58.91511857871751
 31
0.0
  0
LINE
  5
757
330
18
100
AcDbEntity
  8
画層1
  6
ByBlock
 62
     3
100
AcDbLine
 10
109.0
 20
58.91511857871751
 30
0.0
 11
109.0
 21
54.91511857871751
 31
0.0
  0
LINE
  5
758
330
18
100
AcDbEntity
  8
画層1
  6
ByBlock
 62
     3
100
AcDbLine
 10
109.0
 20
54.91511857871751
 30
0.0
 11
110.0
 21
54.91511857871751
 31
0.0
  0
LINE
  5
759
330
18
100
AcDbEntity
  8
画層1
  6
ByBlock
 62
     3
100
AcDbLine
 10
110.0
 20
54.91511857871751
 30
0.0
 11
118.0
 21
54.91511857871751
 31
0.0
  0
LINE
  5
75A
330
18
100
AcDbEntity
  8
画層1
  6
ByBlock
 62
     3
100
AcDbLine
 10
118.0
 20
54.91511857871751
 30
0.0
 11
118.0
 21
54.91511857871751
 31
0.0
  0
LINE
  5
75B
330
18
100
AcDbEntity
  8
画層1
  6
ByBlock
 62
     3
100
AcDbLine
 10
118.0
 20
56.91511857871751
 30
0.0
 11
118.0
 21
54.91511857871751
 31
0.0
  0
LINE
  5
75C
330
18
100
AcDbEntity
  8
画層1
  6
ByBlock
 62
     3
100
AcDbLine
 10
118.0
 20
54.91511857871751
 30
0.0
 11
121.0
 21
54.91511857871751
 31
0.0
  0
LINE
  5
75D
330
18
100
AcDbEntity
  8
画層1
  6
ByBlock
 62
     3
100
AcDbLine
 10
121.0
 20
54.91511857871751
 30
0.0
 11
130.0
 21
54.91511857871751
 31
0.0
  0
LINE
  5
75E
330
18
100
AcDbEntity
  8
画層1
  6
ByBlock
 62
     3
100
AcDbLine
 10
130.0
 20
54.91511857871751
 30
0.0
 11
130.0
 21
54.91511857871751
 31
0.0
  0
LINE
  5
75F
330
18
100
AcDbEntity
  8
画層1
  6
ByBlock
 62
     3
100
AcDbLine
 10
130.0
 20
56.91511857871751
 30
0.0
 11
130.0
 21
54.91511857871751
 31
0.0
  0
LINE
  5
760
330
18
100
AcDbEntity
  8
画層1
  6
ByBlock
 62
     3
100
AcDbLine
 10
30.0
 20
54.91511857871751
 30
0.0
 11
44.0
 21
54.91511857871751
 31
0.0
  0
LINE
  5
761
330
18
100
AcDbEntity
  8
画層1
  6
ByBlock
 62
     3
100
AcDbLine
 10
44.0
 20
54.91511857871751
 30
0.0
 11
44.0
 21
58.91511857871751
 31
0.0
  0
LINE
  5
762
330
18
100
AcDbEntity
  8
画層1
  6
ByBlock
 62
     3
100
AcDbLine
 10
42.0
 20
58.91511857871751
 30
0.0
 11
42.0
 21
56.91511857871751
 31
0.0
  0
LINE
  5
763
330
18
100
AcDbEntity
  8
画層1
  6
ByBlock
 62
     3
100
AcDbLine
 10
42.0
 20
56.91511857871751
 30
0.0
 11
30.0
 21
56.91511857871751
 31
0.0
  0
LINE
  5
764
330
18
100
AcDbEntity
  8
画層1
  6
ByBlock
 62
     3
100
AcDbLine
 10
30.0
 20
56.91511857871751
 30
0.0
 11
30.0
 21
54.91511857871751
 31
0.0
  0
LINE
  5
765
330
18
100
AcDbEntity
  8
画層1
  6
ByBlock
 62
     3
100
AcDbLine
 10
49.0
 20
58.41511857871751
 30
0.0
 11
49.0
 21
55.91511857871751
 31
0.0
  0
LINE
  5
766
330
18
100
AcDbEntity
  8
画層1
  6
ByBlock
 62
     3
100
AcDbLine
 10
49.0
 20
55.91511857871751
 30
0.0
 11
56.0
 21
55.91511857871751
 31
0.0
  0
LINE
  5
767
330
18
100
AcDbEntity
  8
画層1
  6
ByBlock
 62
     3
100
AcDbLine
 10
56.0
 20
55.91511857871751
 30
0.0
 11
56.0
 21
58.91511857871751
 31
0.0
  0
LINE
  5
76C
330
18
100
AcDbEntity
  8
画層1
  6
ByBlock
 62
     3
100
AcDbLine
 10
142.5
 20
134.9151185787175
 30
0.0
 11
142.5
 21
134.9151185787175
 31
0.0
  0
LINE
  5
76D
330
18
100
AcDbEntity
  8
画層1
  6
ByBlock
 62
     3
100
AcDbLine
 10
189.0
 20
135.4151185787175
 30
0.0
 11
189.0
 21
134.9151185787175
 31
0.0
  0
LINE
  5
772
330
18
100
AcDbEntity
  8
画層1
  6
ByBlock
 62
     3
100
AcDbLine
 10
164.0
 20
56.91511857871751
 30
0.0
 11
164.0
 21
58.91511857871751
 31
0.0
  0
LINE
  5
77A
330
18
100
AcDbEntity
  8
画層1
  6
ByBlock
 62
     3
100
AcDbLine
 10
40.0
 20
150.9151185787175
 30
0.0
 11
120.0
 21
150.9151185787175
 31
0.0
  0
TEXT
  5
78A
330
18
100
AcDbEntity
  8
画層1
  6
ByBlock
 62
     3
100
AcDbText
 10
129.4999999999999
 20
27.5
 30
0.0
 40
3.5
  1
外形取付寸法図
  7
STYLE1
100
AcDbText
  0
DIMENSION
  5
78D
330
18
100
AcDbEntity
  8
画層1
  6
ByBlock
 62
     1
100
AcDbDimension
  2
*D7
 10
136.0647157883922
 20
54.94646460885746
 30
0.0
 11
133.6897157883922
 21
104.9464646088574
 31
0.0
 70
    32
 71
     5
 42
100.0
  3
STANDARD_WS
100
AcDbAlignedDimension
 13
136.5647157883922
 23
154.9464646088574
 33
0.0
 14
136.5647157883922
 24
54.94646460885746
 34
0.0
 50
90.0
100
AcDbRotatedDimension
1001
ACAD
1000
DSTYLE
1002
{
1070
    41
1040
1.5
1070
   146
1040
0.5
1070
   173
1070
     1
1070
   271
1070
     1
1070
   272
1070
     1
1070
   340
1005
169
1070
   341
1005
217
1070
   343
1005
217
1070
   344
1005
217
1002
}
  0
DIMENSION
  5
79A
330
18
100
AcDbEntity
  8
画層1
  6
ByBlock
 62
     1
100
AcDbDimension
  2
*D8
 10
120.0
 20
161.9151185787175
 30
0.0
 11
80.0
 21
164.2901185787175
 31
0.0
 70
    32
 71
     5
 42
80.0
  3
STANDARD_WS
100
AcDbAlignedDimension
 13
40.0
 23
162.9151185787175
 33
0.0
 14
120.0
 24
162.9151185787175
 34
0.0
100
AcDbRotatedDimension
1001
ACAD
1000
DSTYLE
1002
{
1070
    41
1040
1.5
1070
   146
1040
0.5
1070
   173
1070
     1
1070
   271
1070
     1
1070
   272
1070
     1
1070
   340
1005
169
1070
   341
1005
217
1070
   343
1005
217
1070
   344
1005
217
1002
}
  0
DIMENSION
  5
7E4
330
18
100
AcDbEntity
  8
画層1
  6
ByBlock
 62
     1
100
AcDbDimension
  2
*D9
 10
111.4999999999999
 20
227.0589236015707
 30
0.0
 11
95.75000000000001
 21
229.4339236015707
 31
0.0
 70
    32
 71
     5
 42
31.5
  3
STANDARD_WS
100
AcDbAlignedDimension
 13
80.0
 23
226.5589236015707
 33
0.0
 14
111.4999999999999
 24
227.0589236015707
 34
0.0
100
AcDbRotatedDimension
1001
ACAD
1000
DSTYLE
1002
{
1070
    41
1040
1.5
1070
   146
1040
0.5
1070
   173
1070
     1
1070
   271
1070
     1
1070
   272
1070
     1
1070
   340
1005
169
1070
   341
1005
217
1070
   343
1005
217
1070
   344
1005
217
1002
}
  0
DIMENSION
  5
7FA
330
18
100
AcDbEntity
  8
画層1
  6
ByBlock
 62
     1
100
AcDbDimension
  2
*D10
 10
48.5
 20
227.0
 30
0.0
 11
64.25000113958095
 21
229.375
 31
0.0
 70
    32
 71
     5
 42
31.50000227916189
  3
STANDARD_WS
100
AcDbAlignedDimension
 13
80.00000227916189
 23
226.8168921175397
 33
0.0
 14
48.5
 24
227.0
 34
0.0
100
AcDbRotatedDimension
1001
ACAD
1000
DSTYLE
1002
{
1070
    41
1040
1.5
1070
   146
1040
0.5
1070
   173
1070
     1
1070
   271
1070
     1
1070
   272
1070
     1
1070
   340
1005
169
1070
   341
1005
217
1070
   343
1005
217
1070
   344
1005
217
1002
}
  0
LINE
  5
83A
330
18
100
AcDbEntity
  8
画層1
  6
ByBlock
 62
     1
100
AcDbLine
 10
60.79148120584614
 20
481.7471694267239
 30
0.0
 11
60.94521522454124
 21
472.9293364770169
 31
0.0
  0
CIRCLE
  5
860
330
18
100
AcDbEntity
  8
画層1
  6
ByBlock
 62
     1
100
AcDbCircle
 10
111.4371178939732
 20
206.0206830967126
 30
0.0
 40
2.97611614483155
  0
LINE
  5
861
330
18
100
AcDbEntity
  8
画層1
  6
ByBlock
 62
     1
100
AcDbLine
 10
112.8289996985595
 20
206.9057528138969
 30
0.0
 11
110.171770591698
 21
205.0091727430849
 31
0.0
  0
LINE
  5
862
330
18
100
AcDbEntity
  8
画層1
  6
ByBlock
 62
     1
100
AcDbLine
 10
110.2983050940092
 20
207.0321921105294
 30
0.0
 11
112.7024651962478
 21
204.8827347862634
 31
0.0
  0
CIRCLE
  5
87C
330
18
100
AcDbEntity
  8
画層1
  6
ByBlock
 62
     3
100
AcDbCircle
 10
35.60340322135289
 20
207.5978952693312
 30
0.0
 40
2.153855591660736
  0
CIRCLE
  5
87D
330
18
100
AcDbEntity
  8
画層1
  6
ByBlock
 62
     3
100
AcDbCircle
 10
35.47072843063415
 20
192.4078206082717
 30
0.0
 40
2.153855591660736
  0
LINE
  5
8E9
330
18
100
AcDbEntity
  8
画層1
  6
ByBlock
 62
     1
100
AcDbLine
 10
137.5
 20
206.0
 30
0.0
 11
116.0
 21
206.0
 31
0.0
  0
LINE
  5
8EB
330
18
100
AcDbEntity
  8
画層1
  6
ByBlock
 62
     1
100
AcDbLine
 10
110.2983050940092
 20
195.0321921105294
 30
0.0
 11
112.7024651962478
 21
192.8827347862634
 31
0.0
  0
LINE
  5
8EC
330
18
100
AcDbEntity
  8
画層1
  6
ByBlock
 62
     1
100
AcDbLine
 10
112.8289996985595
 20
194.9057528138969
 30
0.0
 11
110.171770591698
 21
193.0091727430849
 31
0.0
  0
CIRCLE
  5
8ED
330
18
100
AcDbEntity
  8
画層1
  6
ByBlock
 62
     1
100
AcDbCircle
 10
111.4371178939732
 20
194.0206830967126
 30
0.0
 40
2.97611614483155
  0
LINE
  5
8F3
330
18
100
AcDbEntity
  8
画層1
  6
ByBlock
 62
     1
100
AcDbLine
 10
47.29791994888046
 20
207.0747293320384
 30
0.0
 11
49.70208005111908
 21
204.9252720077725
 31
0.0
  0
LINE
  5
8F4
330
18
100
AcDbEntity
  8
画層1
  6
ByBlock
 62
     1
100
AcDbLine
 10
49.82861455343073
 20
206.948290035406
 30
0.0
 11
47.17138544656927
 21
205.051709964594
 31
0.0
  0
CIRCLE
  5
8F5
330
18
100
AcDbEntity
  8
画層1
  6
ByBlock
 62
     1
100
AcDbCircle
 10
48.43673274884441
 20
206.0632203182217
 30
0.0
 40
2.97611614483155
  0
CIRCLE
  5
8F6
330
18
100
AcDbEntity
  8
画層1
  6
ByBlock
 62
     1
100
AcDbCircle
 10
48.43673274884441
 20
194.0632203182217
 30
0.0
 40
2.97611614483155
  0
LINE
  5
8F7
330
18
100
AcDbEntity
  8
画層1
  6
ByBlock
 62
     1
100
AcDbLine
 10
47.29791994888046
 20
195.0747293320384
 30
0.0
 11
49.70208005111908
 21
192.9252720077725
 31
0.0
  0
LINE
  5
8F8
330
18
100
AcDbEntity
  8
画層1
  6
ByBlock
 62
     1
100
AcDbLine
 10
49.82861455343073
 20
194.9482900354059
 30
0.0
 11
47.17138544656927
 21
193.051709964594
 31
0.0
  0
LINE
  5
8FD
330
18
100
AcDbEntity
  8
画層1
  6
ByBlock
 62
     1
100
AcDbLine
 10
35.5
 20
196.0
 30
0.0
 11
35.5
 21
188.4999999999999
 31
0.0
  0
LINE
  5
924
330
18
100
AcDbEntity
  8
画層1
  6
ByBlock
 62
     3
100
AcDbLine
 10
122.0701094626365
 20
197.9843362121632
 30
0.0
 11
120.0200627222643
 21
197.9843362121632
 31
0.0
  0
LINE
  5
925
330
18
100
AcDbEntity
  8
画層1
  6
ByBlock
 62
     3
100
AcDbLine
 10
120.0200627222643
 20
201.9237434151082
 30
0.0
 11
121.991261861724
 21
201.9237434151082
 31
0.0
  0
TEXT
  5
94A
330
18
100
AcDbEntity
  8
画層1
  6
ByBlock
 62
     1
100
AcDbText
 10
26.71820713028955
 20
177.4820091228177
 30
0.0
 40
3.5
  1
2- 4.6
  7
STYLE1
100
AcDbText
  0
TEXT
  5
94D
330
18
100
AcDbEntity
  8
画層1
  6
ByBlock
 62
     1
100
AcDbText
 10
120.4850345118925
 20
177.377205092973
 30
0.0
 40
3.5
  1
2-4.6×5.6
  7
STYLE1
100
AcDbText
  0
CIRCLE
  5
94E
330
18
100
AcDbEntity
  8
画層1
  6
ByBlock
 62
     1
100
AcDbCircle
 10
32.52152274883155
 20
179.2636950477224
 30
0.0
 40
1.048559139383819
  0
LINE
  5
94F
330
18
100
AcDbEntity
  8
画層1
  6
ByBlock
 62
     1
100
AcDbLine
 10
33.255713683277
 20
180.8357688935045
 30
0.0
 11
31.8922142800252
 21
177.6916198621295
 31
0.0
  0
LEADER
  5
950
330
18
100
AcDbEntity
  8
画層1
  6
ByBlock
 62
     1
100
AcDbLeader
  3
STANDARD_WS
 76
     2
 10
36.5
 20
190.5
 30
0.0
 10
45.0
 20
176.5
 30
0.0
1001
ACAD
1000
DSTYLE
1002
{
1070
   147
1040
0.625
1070
    77
1070
     0
1070
    40
1040
0.0
1070
    41
1040
1.5
1070
   146
1040
0.5
1070
   173
1070
     1
1070
   271
1070
     1
1070
   272
1070
     1
1070
   340
1005
169
1070
   341
1005
217
1070
   343
1005
217
1070
   344
1005
217
1002
}
  0
LEADER
  5
953
330
18
100
AcDbEntity
  8
画層1
  6
ByBlock
 62
     1
100
AcDbLeader
  3
STANDARD_WS
 76
     2
 10
110.0
 20
191.5
 30
0.0
 10
104.0
 20
176.5
 30
0.0
1001
ACAD
1000
DSTYLE
1002
{
1070
   147
1040
0.625
1070
    77
1070
     0
1070
    40
1040
0.0
1070
    41
1040
1.5
1070
   146
1040
0.5
1070
   173
1070
     1
1070
   271
1070
     1
1070
   272
1070
     1
1070
   340
1005
169
1070
   341
1005
217
1070
   343
1005
217
1070
   344
1005
217
1002
}
  0
LEADER
  5
954
330
18
100
AcDbEntity
  8
画層1
  6
ByBlock
 62
     1
100
AcDbLeader
  3
STANDARD_WS
 76
     2
 10
124.0
 20
190.5
 30
0.0
 10
118.0
 20
176.5
 30
0.0
1001
ACAD
1000
DSTYLE
1002
{
1070
   147
1040
0.625
1070
    77
1070
     0
1070
    40
1040
0.0
1070
    41
1040
1.5
1070
   146
1040
0.5
1070
   173
1070
     1
1070
   271
1070
     1
1070
   272
1070
     1
1070
   340
1005
169
1070
   341
1005
217
1070
   343
1005
217
1070
   344
1005
217
1002
}
  0
LINE
  5
955
330
18
100
AcDbEntity
  8
画層1
  6
ByBlock
 62
     1
100
AcDbLine
 10
45.0
 20
176.5
 30
0.0
 11
26.0
 21
176.5
 31
0.0
  0
LINE
  5
957
330
18
100
AcDbEntity
  8
画層1
  6
ByBlock
 62
     1
100
AcDbLine
 10
104.0
 20
176.5
 30
0.0
 11
92.0
 21
176.5
 31
0.0
  0
LINE
  5
958
330
18
100
AcDbEntity
  8
画層1
  6
ByBlock
 62
     1
100
AcDbLine
 10
118.0
 20
176.5
 30
0.0
 11
144.0
 21
176.5
 31
0.0
  0
LINE
  5
959
330
18
100
AcDbEntity
  8
画層1
  6
ByBlock
 62
     3
100
AcDbLine
 10
121.0
 20
202.0
 30
0.0
 11
121.0
 21
198.0
 31
0.0
  0
LINE
  5
95D
330
18
100
AcDbEntity
  8
画層1
  6
ByBlock
 62
     3
100
AcDbLine
 10
167.0
 20
57.0
 30
0.0
 11
167.0
 21
55.0
 31
0.0
  0
LINE
  5
95E
330
18
100
AcDbEntity
  8
画層1
  6
ByBlock
 62
     3
100
AcDbLine
 10
166.0
 20
59.0
 30
0.0
 11
166.0
 21
57.0
 31
0.0
  0
LINE
  5
95F
330
18
100
AcDbEntity
  8
画層1
  6
ByBlock
 62
     3
100
AcDbLine
 10
166.0
 20
57.0
 30
0.0
 11
167.0
 21
57.0
 31
0.0
  0
LINE
  5
961
330
18
100
AcDbEntity
  8
画層1
  6
ByBlock
 62
     3
100
AcDbLine
 10
163.0
 20
57.0
 30
0.0
 11
163.0
 21
55.0
 31
0.0
  0
LINE
  5
965
330
18
100
AcDbEntity
  8
画層1
  6
ByBlock
 62
     1
100
AcDbLine
 10
120.0
 20
164.0
 30
0.0
 11
120.0
 21
156.0
 31
0.0
  0
LINE
  5
96A
330
18
100
AcDbEntity
  8
画層1
  6
ByBlock
 62
     1
100
AcDbLine
 10
40.0
 20
164.0
 30
0.0
 11
40.0
 21
156.0
 31
0.0
  0
TEXT
  5
978
330
18
100
AcDbEntity
  8
画層1
  6
ByBlock
 62
     1
100
AcDbText
 10
56.67613010911828
 20
190.1967891009373
 30
0.0
 40
3.5
  1
～1
 50
90.0
  7
STYLE1
100
AcDbText
  0
TEXT
  5
97A
330
18
100
AcDbEntity
  8
画層1
  6
ByBlock
 62
     1
100
AcDbText
 10
106.4376831388576
 20
204.0392687449132
 30
0.0
 40
3.5
  1
3＋
 50
90.0
  7
STYLE1
100
AcDbText
  0
TEXT
  5
97B
330
18
100
AcDbEntity
  8
画層1
  6
ByBlock
 62
     1
100
AcDbText
 10
106.1976782894139
 20
189.292312790975
 30
0.0
 40
3.5
  1
－4
 50
90.0
  7
STYLE1
100
AcDbText
  0
LINE
  5
97D
330
18
100
AcDbEntity
  8
画層1
  6
CENTER
 62
     1
100
AcDbLine
 10
165.0
 20
157.5
 30
0.0
 11
165.0
 21
53.0
 31
0.0
  0
LINE
  5
9C4
330
18
100
AcDbEntity
  8
画層1
  6
ByBlock
 62
     1
100
AcDbLine
 10
149.5
 20
213.5
 30
0.0
 11
131.0
 21
213.5
 31
0.0
  0
LINE
  5
9C5
330
18
100
AcDbEntity
  8
画層1
  6
ByBlock
 62
     1
100
AcDbLine
 10
149.5
 20
186.5
 30
0.0
 11
131.0
 21
186.5
 31
0.0
  0
LINE
  5
9F1
330
18
100
AcDbEntity
  8
画層1
  6
ByBlock
 62
     3
100
AcDbLine
 10
121.0
 20
213.5
 30
0.0
 11
128.0
 21
213.5
 31
0.0
  0
LINE
  5
9F6
330
18
100
AcDbEntity
  8
画層1
  6
ByBlock
 62
     3
100
AcDbLine
 10
129.0
 20
203.0
 30
0.0
 11
122.0
 21
203.0
 31
0.0
  0
LINE
  5
9FF
330
18
100
AcDbEntity
  8
画層1
  6
ByBlock
 62
     1
100
AcDbLine
 10
125.5
 20
215.5
 30
0.0
 11
125.5
 21
209.5
 31
0.0
  0
LINE
  5
A00
330
18
100
AcDbEntity
  8
画層1
  6
ByBlock
 62
     1
100
AcDbLine
 10
125.5
 20
195.5
 30
0.0
 11
125.5
 21
189.0
 31
0.0
  0
LINE
  5
A05
330
18
100
AcDbEntity
  8
画層1
  6
ByBlock
 62
     3
100
AcDbLine
 10
40.0
 20
186.5
 30
0.0
 11
40.0
 21
213.5
 31
0.0
  0
CIRCLE
  5
A0F
330
18
100
AcDbEntity
  8
画層1
  6
ByBlock
 62
     3
100
AcDbCircle
 10
97.0
 20
205.5
 30
0.0
 40
3.162277660168379
  0
CIRCLE
  5
A10
330
18
100
AcDbEntity
  8
画層1
  6
ByBlock
 62
     3
100
AcDbCircle
 10
97.0
 20
205.5
 30
0.0
 40
2.06155281280883
  0
LINE
  5
A47
330
18
100
AcDbEntity
  8
画層1
  6
ByBlock
 62
     3
100
AcDbLine
 10
151.5
 20
155.0
 30
0.0
 11
151.5
 21
61.0
 31
0.0
  0
LINE
  5
A4B
330
18
100
AcDbEntity
  8
画層1
  6
ByBlock
 62
     3
100
AcDbLine
 10
151.5
 20
155.0
 30
0.0
 11
178.5
 21
155.0
 31
0.0
  0
LINE
  5
A51
330
18
100
AcDbEntity
  8
画層1
  6
ByBlock
 62
     3
100
AcDbLine
 10
151.5
 20
134.0
 30
0.0
 11
178.5
 21
134.0
 31
0.0
  0
LINE
  5
A53
330
18
100
AcDbEntity
  8
画層1
  6
ByBlock
 62
     3
100
AcDbLine
 10
160.0
 20
57.0
 30
0.0
 11
160.0
 21
55.0
 31
0.0
  0
LINE
  5
A55
330
18
100
AcDbEntity
  8
画層1
  6
ByBlock
 62
     3
100
AcDbLine
 10
170.0
 20
57.0
 30
0.0
 11
170.0
 21
55.0
 31
0.0
  0
LINE
  5
A56
330
18
100
AcDbEntity
  8
画層1
  6
ByBlock
 62
     3
100
AcDbLine
 10
151.5
 20
55.0
 30
0.0
 11
178.5
 21
55.0
 31
0.0
  0
LINE
  5
A5A
330
18
100
AcDbEntity
  8
画層1
  6
ByBlock
 62
     3
100
AcDbLine
 10
164.0
 20
57.0
 30
0.0
 11
151.5
 21
57.0
 31
0.0
  0
LINE
  5
A5B
330
18
100
AcDbEntity
  8
画層1
  6
ByBlock
 62
     3
100
AcDbLine
 10
167.0
 20
57.0
 30
0.0
 11
178.5
 21
57.0
 31
0.0
  0
LINE
  5
AAF
330
18
100
AcDbEntity
  8
画層1
  6
ByBlock
 62
     1
100
AcDbLine
 10
25.5
 20
194.0
 30
0.0
 11
43.94370916913021
 21
194.0220382826159
 31
0.0
  0
LINE
  5
AE1
330
18
100
AcDbEntity
  8
画層1
  6
ByBlock
 62
     1
100
AcDbLine
 10
48.5
 20
228.9265645972866
 30
0.0
 11
48.5
 21
211.5
 31
0.0
  0
LINE
  5
AE4
330
18
100
AcDbEntity
  8
画層1
  6
ByBlock
 62
     1
100
AcDbLine
 10
125.4923847957825
 20
226.5957441027867
 30
0.0
 11
125.4923847957825
 21
210.7426162480244
 31
0.0
  0
LINE
  5
AE5
330
18
100
AcDbEntity
  8
画層1
  6
ByBlock
 62
     1
100
AcDbLine
 10
130.0944932821571
 20
236.3153781385542
 30
0.0
 11
130.0
 21
214.0
 31
0.0
  0
LINE
  5
AF6
330
18
100
AcDbEntity
  8
画層1
  6
CENTER
 62
     1
100
AcDbLine
 10
80.0
 20
228.5
 30
0.0
 11
80.0
 21
181.0
 31
0.0
  0
LINE
  5
B02
330
18
100
AcDbEntity
  8
画層1
 62
     3
100
AcDbLine
 10
120.0
 20
213.5
 30
0.0
 11
40.0
 21
213.5
 31
0.0
  0
LINE
  5
B03
330
18
100
AcDbEntity
  8
画層1
  6
ByBlock
 62
     3
100
AcDbLine
 10
120.0
 20
186.5
 30
0.0
 11
40.0
 21
186.5
 31
0.0
  0
DIMENSION
  5
B04
330
18
100
AcDbEntity
  8
画層1
  6
ByBlock
 62
     1
100
AcDbDimension
  2
*D11
 10
148.0
 20
213.5
 30
0.0
 11
145.6249999999999
 21
200.0
 31
0.0
 70
    32
 71
     5
 42
27.0
  3
STANDARD_WS
100
AcDbAlignedDimension
 13
149.5
 23
186.5
 33
0.0
 14
149.5
 24
213.5
 34
0.0
 50
90.0
100
AcDbRotatedDimension
1001
ACAD
1000
DSTYLE
1002
{
1070
    41
1040
1.5
1070
   146
1040
0.5
1070
   173
1070
     1
1070
   271
1070
     1
1070
   272
1070
     1
1070
   340
1005
169
1070
   341
1005
217
1070
   343
1005
217
1070
   344
1005
217
1002
}
  0
DIMENSION
  5
B39
330
18
100
AcDbEntity
  8
画層1
  6
ByBlock
 62
     1
100
AcDbDimension
  2
*D12
 10
136.0
 20
194.0
 30
0.0
 11
133.6249999999999
 21
200.0
 31
0.0
 70
    32
 71
     5
 42
12.0
  3
STANDARD_WS
100
AcDbAlignedDimension
 13
137.5
 23
206.0
 33
0.0
 14
137.5
 24
194.0
 34
0.0
 50
90.0
100
AcDbRotatedDimension
1001
ACAD
1000
DSTYLE
1002
{
1070
    41
1040
1.5
1070
   146
1040
0.5
1070
   173
1070
     1
1070
   271
1070
     1
1070
   272
1070
     1
1070
   340
1005
169
1070
   341
1005
217
1070
   343
1005
217
1070
   344
1005
217
1002
}
  0
LINE
  5
B61
330
18
100
AcDbEntity
  8
画層1
  6
ByBlock
 62
     1
100
AcDbLine
 10
116.0
 20
194.0
 30
0.0
 11
137.5
 21
194.0
 31
0.0
  0
DIMENSION
  5
B6B
330
18
100
AcDbEntity
  8
画層1
  6
ByBlock
 62
     1
100
AcDbDimension
  2
*D13
 10
141.5
 20
192.5
 30
0.0
 11
139.1249999999999
 21
200.0
 31
0.0
 70
    32
 71
     5
 42
15.0
  3
STANDARD_WS
100
AcDbAlignedDimension
 13
143.5
 23
207.5
 33
0.0
 14
143.5
 24
192.5
 34
0.0
 50
90.0
100
AcDbRotatedDimension
1001
ACAD
1000
DSTYLE
1002
{
1070
    41
1040
1.5
1070
   146
1040
0.5
1070
   173
1070
     1
1070
   271
1070
     1
1070
   272
1070
     1
1070
   340
1005
169
1070
   341
1005
217
1070
   343
1005
217
1070
   344
1005
217
1002
}
  0
LINE
  5
B81
330
18
100
AcDbEntity
  8
画層1
  6
ByBlock
 62
     3
100
AcDbLine
 10
121.0
 20
213.5
 30
0.0
 11
120.0
 21
212.5
 31
0.0
  0
LINE
  5
B82
330
18
100
AcDbEntity
  8
画層1
  6
ByBlock
 62
     3
100
AcDbLine
 10
128.0
 20
213.5
 30
0.0
 11
130.0
 21
211.5
 31
0.0
  0
LINE
  5
B85
330
18
100
AcDbEntity
  8
画層1
  6
ByBlock
 62
     3
100
AcDbLine
 10
130.0
 20
211.5
 30
0.0
 11
130.0
 21
204.0
 31
0.0
  0
LINE
  5
B86
330
18
100
AcDbEntity
  8
画層1
  6
ByBlock
 62
     3
100
AcDbLine
 10
130.0
 20
204.0
 30
0.0
 11
129.0
 21
203.0
 31
0.0
  0
LINE
  5
B87
330
18
100
AcDbEntity
  8
画層1
  6
ByBlock
 62
     3
100
AcDbLine
 10
122.0
 20
203.0
 30
0.0
 11
122.0
 21
202.0
 31
0.0
  0
LINE
  5
B88
330
18
100
AcDbEntity
  8
画層1
  6
ByBlock
 62
     3
100
AcDbLine
 10
122.0
 20
198.0
 30
0.0
 11
122.0
 21
197.0
 31
0.0
  0
LINE
  5
B89
330
18
100
AcDbEntity
  8
画層1
  6
ByBlock
 62
     3
100
AcDbLine
 10
122.0
 20
197.0
 30
0.0
 11
129.0
 21
197.0
 31
0.0
  0
LINE
  5
B8A
330
18
100
AcDbEntity
  8
画層1
  6
ByBlock
 62
     3
100
AcDbLine
 10
129.0
 20
197.0
 30
0.0
 11
130.0
 21
196.0
 31
0.0
  0
LINE
  5
B8B
330
18
100
AcDbEntity
  8
画層1
  6
ByBlock
 62
     3
100
AcDbLine
 10
130.0
 20
196.0
 30
0.0
 11
130.0
 21
188.4999999999999
 31
0.0
  0
LINE
  5
B8C
330
18
100
AcDbEntity
  8
画層1
  6
ByBlock
 62
     3
100
AcDbLine
 10
130.0
 20
188.4999999999999
 30
0.0
 11
128.4999999999999
 21
186.5
 31
0.0
  0
LINE
  5
B8D
330
18
100
AcDbEntity
  8
画層1
  6
ByBlock
 62
     3
100
AcDbLine
 10
128.4999999999999
 20
186.5
 30
0.0
 11
121.0
 21
186.5
 31
0.0
  0
LINE
  5
B8E
330
18
100
AcDbEntity
  8
画層1
  6
ByBlock
 62
     3
100
AcDbLine
 10
121.0
 20
186.5
 30
0.0
 11
120.0
 21
187.5
 31
0.0
  0
LINE
  5
B8F
330
18
100
AcDbEntity
  8
画層1
  6
ByBlock
 62
     3
100
AcDbLine
 10
120.0
 20
213.5
 30
0.0
 11
120.0
 21
186.5
 31
0.0
  0
LINE
  5
B92
330
18
100
AcDbEntity
  8
画層1
  6
ByBlock
 62
     3
100
AcDbLine
 10
40.0
 20
187.5
 30
0.0
 11
39.0
 21
186.5
 31
0.0
  0
LINE
  5
B93
330
18
100
AcDbEntity
  8
画層1
  6
ByBlock
 62
     3
100
AcDbLine
 10
39.0
 20
186.5
 30
0.0
 11
32.0
 21
186.5
 31
0.0
  0
LINE
  5
B94
330
18
100
AcDbEntity
  8
画層1
  6
ByBlock
 62
     3
100
AcDbLine
 10
32.0
 20
186.5
 30
0.0
 11
30.0
 21
188.4999999999999
 31
0.0
  0
LINE
  5
B95
330
18
100
AcDbEntity
  8
画層1
  6
ByBlock
 62
     3
100
AcDbLine
 10
30.0
 20
188.4999999999999
 30
0.0
 11
30.0
 21
196.0
 31
0.0
  0
LINE
  5
B9B
330
18
100
AcDbEntity
  8
画層1
  6
ByBlock
 62
     3
100
AcDbLine
 10
39.0
 20
213.5
 30
0.0
 11
32.0
 21
213.5
 31
0.0
  0
LINE
  5
B9C
330
18
100
AcDbEntity
  8
画層1
  6
ByBlock
 62
     3
100
AcDbLine
 10
32.0
 20
213.5
 30
0.0
 11
30.0
 21
211.5
 31
0.0
  0
LINE
  5
B9D
330
18
100
AcDbEntity
  8
画層1
  6
ByBlock
 62
     3
100
AcDbLine
 10
30.0
 20
211.5
 30
0.0
 11
30.0
 21
204.0
 31
0.0
  0
LINE
  5
B9E
330
18
100
AcDbEntity
  8
画層1
  6
ByBlock
 62
     3
100
AcDbLine
 10
30.0
 20
204.0
 30
0.0
 11
31.0
 21
203.0
 31
0.0
  0
LINE
  5
B9F
330
18
100
AcDbEntity
  8
画層1
  6
ByBlock
 62
     3
100
AcDbLine
 10
31.0
 20
203.0
 30
0.0
 11
39.0
 21
203.0
 31
0.0
  0
LINE
  5
BA1
330
18
100
AcDbEntity
  8
画層1
  6
ByBlock
 62
     3
100
AcDbLine
 10
39.0
 20
203.0
 30
0.0
 11
39.0
 21
202.0
 31
0.0
  0
LINE
  5
BA2
330
18
100
AcDbEntity
  8
画層1
  6
ByBlock
 62
     3
100
AcDbLine
 10
39.0
 20
202.0
 30
0.0
 11
40.0
 21
202.0
 31
0.0
  0
LINE
  5
BA3
330
18
100
AcDbEntity
  8
画層1
  6
ByBlock
 62
     3
100
AcDbLine
 10
40.0
 20
198.0
 30
0.0
 11
39.0
 21
198.0
 31
0.0
  0
LINE
  5
BA4
330
18
100
AcDbEntity
  8
画層1
  6
ByBlock
 62
     3
100
AcDbLine
 10
39.0
 20
198.0
 30
0.0
 11
39.0
 21
197.0
 31
0.0
  0
LINE
  5
BA5
330
18
100
AcDbEntity
  8
画層1
  6
ByBlock
 62
     3
100
AcDbLine
 10
39.0
 20
197.0
 30
0.0
 11
31.0
 21
197.0
 31
0.0
  0
LINE
  5
BA6
330
18
100
AcDbEntity
  8
画層1
  6
ByBlock
 62
     3
100
AcDbLine
 10
31.0
 20
197.0
 30
0.0
 11
30.0
 21
196.0
 31
0.0
  0
DIMENSION
  5
BD4
330
18
100
AcDbEntity
  8
画層1
  6
ByBlock
 62
     1
100
AcDbDimension
  2
*D14
 10
27.0
 20
194.0
 30
0.0
 11
24.62499999999996
 21
200.0
 31
0.0
 70
    32
 71
     5
 42
12.0
  3
STANDARD_WS
100
AcDbAlignedDimension
 13
27.0
 23
206.0
 33
0.0
 14
27.0
 24
194.0
 34
0.0
 50
90.0
100
AcDbRotatedDimension
1001
ACAD
1000
DSTYLE
1002
{
1070
    41
1040
1.5
1070
   146
1040
0.5
1070
   173
1070
     1
1070
   271
1070
     1
1070
   272
1070
     1
1070
   340
1005
169
1070
   341
1005
217
1070
   343
1005
217
1070
   344
1005
217
1002
}
  0
LINE
  5
BEA
330
18
100
AcDbEntity
  8
画層1
  6
ByBlock
 62
     1
100
AcDbLine
 10
25.5
 20
206.0
 30
0.0
 11
44.0
 21
206.0
 31
0.0
  0
LINE
  5
BEC
330
18
100
AcDbEntity
  8
画層1
  6
ByBlock
 62
     1
100
AcDbLine
 10
125.5
 20
231.4999999999999
 30
0.0
 11
125.5
 21
225.0
 31
0.0
  0
LINE
  5
BEE
330
18
100
AcDbEntity
  8
画層1
  6
ByBlock
 62
     1
100
AcDbLine
 10
125.5
 20
210.0
 30
0.0
 11
125.5
 21
204.0
 31
0.0
  0
LINE
  5
BEF
330
18
100
AcDbEntity
  8
画層1
  6
ByBlock
 62
     1
100
AcDbLine
 10
121.5
 20
207.5
 30
0.0
 11
140.5
 21
207.5
 31
0.0
  0
LINE
  5
BF0
330
18
100
AcDbEntity
  8
画層1
  6
ByBlock
 62
     1
100
AcDbLine
 10
121.5
 20
192.5
 30
0.0
 11
140.5
 21
192.5
 31
0.0
  0
LWPOLYLINE
  5
BF1
330
18
100
AcDbEntity
  8
画層1
  6
ByBlock
 62
     1
100
AcDbPolyline
 90
        4
 70
     1
 43
0.0
 10
41.0
 20
212.5
 10
119.0
 20
212.5
 10
119.0
 20
187.5
 10
41.0
 20
187.5
  0
TEXT
  5
BF2
330
18
100
AcDbEntity
  8
画層1
  6
ByBlock
 62
     1
100
AcDbText
 10
78.0
 20
190.0
 30
0.0
 40
3.5
  1
PAC04-010
 50
90.0
  7
STYLE1
100
AcDbText
  0
TEXT
  5
BF3
330
18
100
AcDbEntity
  8
画層1
  6
ByBlock
 62
     1
100
AcDbText
 10
56.5
 20
203.5
 30
0.0
 40
3.5
  1
2～
 50
90.0
  7
STYLE1
100
AcDbText
  0
LINE
  5
BF4
330
18
100
AcDbEntity
  8
画層1
  6
ByBlock
 62
     1
100
AcDbLine
 10
30.0
 20
238.0
 30
0.0
 11
30.0
 21
214.5
 31
0.0
  0
LINE
  5
BF5
330
18
100
AcDbEntity
  8
画層1
  6
ByBlock
 62
     1
100
AcDbLine
 10
111.4999999999999
 20
228.5
 30
0.0
 11
111.4999999999999
 21
212.0
 31
0.0
  0
LINE
  5
BFF
330
18
100
AcDbEntity
  8
画層1
  6
ByBlock
 62
     1
100
AcDbLine
 10
35.5
 20
231.0
 30
0.0
 11
35.5
 21
204.4999999999999
 31
0.0
  0
LINE
  5
C00
330
18
100
AcDbEntity
  8
画層1
  6
ByBlock
 62
     1
100
AcDbLine
 10
32.5
 20
207.5
 30
0.0
 11
38.5
 21
207.5
 31
0.0
  0
LINE
  5
C01
330
18
100
AcDbEntity
  8
画層1
  6
ByBlock
 62
     1
100
AcDbLine
 10
32.5
 20
192.5
 30
0.0
 11
38.5
 21
192.5
 31
0.0
  0
LINE
  5
C02
330
18
100
AcDbEntity
  8
画層1
  6
ByBlock
 62
     3
100
AcDbLine
 10
39.0
 20
213.5
 30
0.0
 11
40.0
 21
212.5
 31
0.0
  0
LINE
  5
C38
330
18
100
AcDbEntity
  8
画層1
  6
ByBlock
 62
     3
100
AcDbLine
 10
178.5
 20
155.0
 30
0.0
 11
178.5
 21
135.0
 31
0.0
  0
LINE
  5
C39
330
18
100
AcDbEntity
  8
画層1
  6
ByBlock
 62
     3
100
AcDbLine
 10
151.5
 20
151.0
 30
0.0
 11
152.5
 21
151.0
 31
0.0
  0
LINE
  5
C3A
330
18
100
AcDbEntity
  8
画層1
  6
ByBlock
 62
     3
100
AcDbLine
 10
152.5
 20
151.0
 30
0.0
 11
152.5
 21
154.0
 31
0.0
  0
LINE
  5
C3B
330
18
100
AcDbEntity
  8
画層1
  6
ByBlock
 62
     3
100
AcDbLine
 10
152.5
 20
154.0
 30
0.0
 11
177.5
 21
154.0
 31
0.0
  0
LINE
  5
C3D
330
18
100
AcDbEntity
  8
画層1
  6
ByBlock
 62
     3
100
AcDbLine
 10
177.5
 20
154.0
 30
0.0
 11
177.5
 21
151.0
 31
0.0
  0
LINE
  5
C3E
330
18
100
AcDbEntity
  8
画層1
  6
ByBlock
 62
     3
100
AcDbLine
 10
177.5
 20
151.0
 30
0.0
 11
178.5
 21
151.0
 31
0.0
  0
LINE
  5
C3F
330
18
100
AcDbEntity
  8
画層1
  6
ByBlock
 62
     3
100
AcDbLine
 10
178.5
 20
136.0
 30
0.0
 11
178.5
 21
59.0
 31
0.0
  0
LINE
  5
C40
330
18
100
AcDbEntity
  8
画層1
  6
ByBlock
 62
     3
100
AcDbLine
 10
152.5
 20
57.0
 30
0.0
 11
152.5
 21
59.0
 31
0.0
  0
LINE
  5
C41
330
18
100
AcDbEntity
  8
画層1
  6
ByBlock
 62
     3
100
AcDbLine
 10
152.5
 20
59.0
 30
0.0
 11
178.5
 21
59.0
 31
0.0
  0
LINE
  5
C42
330
18
100
AcDbEntity
  8
画層1
  6
ByBlock
 62
     3
100
AcDbLine
 10
177.5
 20
59.0
 30
0.0
 11
177.5
 21
57.0
 31
0.0
  0
LINE
  5
C43
330
18
100
AcDbEntity
  8
画層1
  6
ByBlock
 62
     3
100
AcDbLine
 10
151.5
 20
61.0
 30
0.0
 11
151.5
 21
59.0
 31
0.0
  0
LINE
  5
C44
330
18
100
AcDbEntity
  8
画層1
  6
ByBlock
 62
     3
100
AcDbLine
 10
151.5
 20
59.0
 30
0.0
 11
152.5
 21
59.0
 31
0.0
  0
LINE
  5
C45
330
18
100
AcDbEntity
  8
画層1
  6
ByBlock
 62
     3
100
AcDbLine
 10
151.5
 20
55.0
 30
0.0
 11
151.5
 21
57.0
 31
0.0
  0
LINE
  5
C46
330
18
100
AcDbEntity
  8
画層1
  6
ByBlock
 62
     3
100
AcDbLine
 10
178.5
 20
57.0
 30
0.0
 11
178.5
 21
55.0
 31
0.0
  0
LINE
  5
C4F
330
18
100
AcDbEntity
  8
画層1
  6
ByBlock
 62
     1
100
AcDbLine
 10
151.5
 20
107.0
 30
0.0
 11
179.0
 21
107.0
 31
0.0
  0
LINE
  5
C50
330
18
100
AcDbEntity
  8
画層1
  6
ByBlock
 62
     1
100
AcDbLine
 10
119.0
 20
107.0
 30
0.0
 11
41.0
 21
107.0
 31
0.0
  0
LINE
  5
C51
330
18
100
AcDbEntity
  8
画層1
  6
ByBlock
 62
     1
100
AcDbLine
 10
151.5
 20
61.0
 30
0.0
 11
178.5
 21
61.0
 31
0.0
  0
LINE
  5
C52
330
18
100
AcDbEntity
  8
画層1
  6
ByBlock
 62
     1
100
AcDbLine
 10
119.0
 20
61.0
 30
0.0
 11
41.0
 21
61.0
 31
0.0
  0
TEXT
  5
CA5
330
18
100
AcDbEntity
  8
画層1
  6
ByBlock
 62
     1
100
AcDbText
 10
93.16154094939907
 20
177.3242682083146
 30
0.0
 40
3.5
  1
4-M4
  7
STYLE1
100
AcDbText
  0
LINE
  5
CE0
330
18
100
AcDbEntity
  8
画層1
  6
ByBlock
 62
     1
100
AcDbLine
 10
135.6503527086163
 20
54.96074533414287
 30
0.0
 11
137.8964367893752
 21
54.96074533414287
 31
0.0
  0
LINE
  5
CE1
330
18
100
AcDbEntity
  8
画層1
  6
ByBlock
 62
     1
100
AcDbLine
 10
134.953292263425
 20
54.96074533414287
 30
0.0
 11
131.3130853841437
 21
54.96074533414287
 31
0.0
  0
LINE
  5
CE2
330
18
100
AcDbEntity
  8
画層1
  6
ByBlock
 62
     1
100
AcDbLine
 10
136.0376076634386
 20
154.9136695557009
 30
0.0
 11
138.2062422797446
 21
154.9136695557009
 31
0.0
  0
LINE
  5
CE3
330
18
100
AcDbEntity
  8
画層1
  6
ByBlock
 62
     1
100
AcDbLine
 10
134.953292263425
 20
154.9136695557009
 30
0.0
 11
120.9346243544462
 21
154.9136695557009
 31
0.0
  0
LINE
  5
CE6
330
18
100
AcDbEntity
  8
画層1
  6
ByBlock
 62
     1
100
AcDbLine
 10
125.5816952611487
 20
58.6746615717783
 30
0.0
 11
125.5816952611487
 21
53.10240864058767
 31
0.0
  0
LINE
  5
CE7
330
18
100
AcDbEntity
  8
画層1
  6
ByBlock
 62
     1
100
AcDbLine
 10
35.4284960101927
 20
58.98423180223574
 30
0.0
 11
35.4284960101927
 21
52.79283841013011
 31
0.0
  0
TEXT
  5
CE8
330
18
100
AcDbEntity
  8
画層1
  6
ByBlock
 62
     3
100
AcDbText
 10
111.9126309031003
 20
33.7492024981093
 30
0.0
 40
3.5
  1
PAC04 10A
  7
STYLE1
100
AcDbText
  0
TEXT
  5
CEA
330
18
100
AcDbEntity
  8
画層1
  6
ByBlock
 62
     3
100
AcDbText
 10
158.2416091102579
 20
9.865178680239409
 30
0.0
 40
3.5
  1
ZPA04-J6-01
  7
STYLE1
100
AcDbText
  0
ARC
  5
D02
330
18
100
AcDbEntity
  8
画層1
  6
ByBlock
 62
     3
100
AcDbCircle
 10
126.3105354019708
 20
192.5602994391474
 30
0.0
 40
2.25
100
AcDbArc
 50
270.0
 51
90.0
  0
ARC
  5
D03
330
18
100
AcDbEntity
  8
画層1
  6
ByBlock
 62
     3
100
AcDbCircle
 10
124.8105354019708
 20
192.5602994391474
 30
0.0
 40
2.25
100
AcDbArc
 50
90.0
 51
270.0
  0
LINE
  5
D04
330
18
100
AcDbEntity
  8
画層1
  6
ByBlock
 62
     3
100
AcDbLine
 10
124.8105354019708
 20
194.8102994391474
 30
0.0
 11
126.3105354019708
 21
194.8102994391474
 31
0.0
  0
LINE
  5
D05
330
18
100
AcDbEntity
  8
画層1
  6
ByBlock
 62
     3
100
AcDbLine
 10
124.8105354019708
 20
190.3102994391474
 30
0.0
 11
126.3105354019708
 21
190.3102994391474
 31
0.0
  0
ARC
  5
D0F
330
18
100
AcDbEntity
  8
画層1
  6
ByBlock
 62
     3
100
AcDbCircle
 10
126.2375226769518
 20
207.4801905897722
 30
0.0
 40
2.25
100
AcDbArc
 50
270.0
 51
90.0
  0
LINE
  5
D10
330
18
100
AcDbEntity
  8
画層1
  6
ByBlock
 62
     3
100
AcDbLine
 10
124.7375226769518
 20
205.2301905897722
 30
0.0
 11
126.2375226769518
 21
205.2301905897722
 31
0.0
  0
ARC
  5
D11
330
18
100
AcDbEntity
  8
画層1
  6
ByBlock
 62
     3
100
AcDbCircle
 10
124.7375226769518
 20
207.4801905897722
 30
0.0
 40
2.25
100
AcDbArc
 50
90.0
 51
270.0
  0
LINE
  5
D12
330
18
100
AcDbEntity
  8
画層1
  6
ByBlock
 62
     3
100
AcDbLine
 10
124.7375226769518
 20
209.7301905897722
 30
0.0
 11
126.2375226769518
 21
209.7301905897722
 31
0.0
  0
LWPOLYLINE
  5
D23
330
18
100
AcDbEntity
  8
画層1
  6
ByBlock
 62
     1
100
AcDbPolyline
 90
        4
 70
     1
 43
0.0
 10
167.0
 20
104.0
 10
175.0
 20
104.0
 10
175.0
 20
85.0
 10
167.0
 20
85.0
  0
LWPOLYLINE
  5
D24
330
18
100
AcDbEntity
  8
画層1
  6
ByBlock
 62
     1
100
AcDbPolyline
 90
        4
 70
     1
 43
0.0
 10
167.0
 20
82.0
 10
175.0
 20
82.0
 10
175.0
 20
63.0
 10
167.0
 20
63.0
  0
LWPOLYLINE
  5
D25
330
18
100
AcDbEntity
  8
画層1
  6
ByBlock
 62
     1
100
AcDbPolyline
 90
        4
 70
     1
 43
0.0
 10
163.0
 20
76.0
 10
163.0
 20
76.0
 10
163.0
 20
76.0
 10
163.0
 20
76.0
  0
LWPOLYLINE
  5
D26
330
18
100
AcDbEntity
  8
画層1
  6
ByBlock
 62
     1
100
AcDbPolyline
 90
        4
 70
     1
 43
0.0
 10
163.0
 20
104.0
 10
155.0
 20
104.0
 10
155.0
 20
85.0
 10
163.0
 20
85.0
  0
LWPOLYLINE
  5
D27
330
18
100
AcDbEntity
  8
画層1
  6
ByBlock
 62
     1
100
AcDbPolyline
 90
        4
 70
     1
 43
0.0
 10
163.0
 20
82.0
 10
155.0
 20
82.0
 10
155.0
 20
63.0
 10
163.0
 20
63.0
  0
VIEWPORT
  5
26A
330
15
100
AcDbEntity
 67
     1
  8
0
 62
     3
100
AcDbViewport
 10
142.5892486572265
 20
99.15524959564208
 30
0.0
 40
424.4034234061427
 41
222.2413625793457
 68
     1
 69
     1
 12
142.5892486572265
 22
99.15524959564208
 13
0.0
 23
0.0
 14
10.0
 24
10.0
 15
10.0
 25
10.0
 16
0.0
 26
0.0
 36
1.0
 17
0.0
 27
0.0
 37
0.0
 42
50.0
 43
0.0
 44
0.0
 45
222.2413625793457
 50
0.0
 51
0.0
 72
   100
 90
    32800
  1

281
     0
 71
     1
 74
     0
110
0.0
120
0.0
130
0.0
111
1.0
121
0.0
131
0.0
112
0.0
122
1.0
132
0.0
 79
     0
146
0.0
  0
VIEWPORT
  5
26C
330
15
100
AcDbEntity
 67
     1
  8
画層1
 62
     3
100
AcDbViewport
 10
142.5892491340637
 20
99.11291456222535
 30
0.0
 40
228.1427986145019
 41
158.5806632995605
 68
     2
 69
     2
 12
99.0
 22
142.5
 13
0.0
 23
0.0
 14
0.5
 24
0.5
 15
0.5
 25
0.5
 16
0.0
 26
0.0
 36
1.0
 17
0.0
 27
0.0
 37
0.0
 42
50.0
 43
0.0
 44
0.0
 45
289.9421965317919
 50
0.0
 51
0.0
 72
   100
 90
    33568
  1

281
     0
 71
     1
 74
     0
110
0.0
120
0.0
130
0.0
111
1.0
121
0.0
131
0.0
112
0.0
122
1.0
132
0.0
 79
     0
146
0.0
  0
ENDSEC
  0
SECTION
  2
OBJECTS
  0
DICTIONARY
  5
C
330
0
100
AcDbDictionary
281
     1
  3
ACAD_GROUP
350
D
  3
ACAD_LAYOUT
350
245
  3
ACAD_MLINESTYLE
350
1B
  3
ACAD_PLOTSETTINGS
350
246
  3
ACAD_PLOTSTYLENAME
350
243
  3
AcadDim
350
951
  3
ACDBVARIABLEDICTIONARY
350
33
  3
CONTENTDICTIONARY
350
23
  0
DICTIONARY
  5
D
102
{ACAD_REACTORS
330
C
102
}
330
C
100
AcDbDictionary
281
     1
  3
*A1
350
58E
  0
DICTIONARY
  5
245
102
{ACAD_REACTORS
330
C
102
}
330
C
100
AcDbDictionary
281
     1
  3
Model
350
247
  3
ﾚｲｱｳﾄ1
350
248
  0
DICTIONARY
  5
1B
102
{ACAD_REACTORS
330
C
102
}
330
C
100
AcDbDictionary
281
     1
  3
STANDARD
350
1C
  0
DICTIONARY
  5
246
102
{ACAD_REACTORS
330
C
102
}
330
C
100
AcDbDictionary
281
     1
  0
ACDBDICTIONARYWDFLT
  5
243
102
{ACAD_REACTORS
330
C
102
}
330
C
100
AcDbDictionary
281
     1
  3
Normal
350
244
100
AcDbDictionaryWithDefault
340
244
  0
XRECORD
  5
951
102
{ACAD_REACTORS
330
C
102
}
330
C
100
AcDbXrecord
280
     1
 90
   990106
  3

 60
     0
 61
     0
 62
     1
 63
     3
 64
     0
 65
     0
 66
     0
 67
     3
 68
     1
 69
     0
 70
     0
 71
     0
 72
     0
 40
17.83068956098077
170
     0
340
4AD
  0
DICTIONARY
  5
33
102
{ACAD_REACTORS
330
C
102
}
330
C
100
AcDbDictionary
281
     1
  3
DIMADEC
350
34
  0
DICTIONARY
  5
23
102
{ACAD_REACTORS
330
C
102
}
330
C
100
AcDbDictionary
281
     1
  0
GROUP
  5
58E
102
{ACAD_REACTORS
330
D
102
}
330
D
100
AcDbGroup
300

 70
     1
 71
     1
  0
LAYOUT
  5
247
102
{ACAD_REACTORS
330
245
102
}
330
245
100
AcDbPlotSettings
  1

  2
Canon LASER SHOT LBP-740
  4
A4
  6

 40
5.873749732971191
 41
5.873747825622558
 42
5.958419799804687
 43
5.873748779296875
 44
210.0579986572265
 45
296.9259948730469
 46
0.0
 47
0.0
 48
0.0
 49
0.0
140
0.0
141
0.0
142
1.0
143
1.0
 70
 11952
 72
     1
 73
     0
 74
     1
  7
aclt.ctb
 75
    16
147
1.0
148
0.01922157577701
149
0.0135924000137493
100
AcDbLayout
  1
Model
 70
     1
 71
     0
 10
0.0
 20
0.0
 11
12.0
 21
9.0
 12
0.0
 22
0.0
 32
0.0
 14
0.0
 24
0.0
 34
0.0
 15
0.0
 25
0.0
 35
0.0
146
0.0
 13
0.0
 23
0.0
 33
0.0
 16
1.0
 26
0.0
 36
0.0
 17
0.0
 27
1.0
 37
0.0
 76
     0
330
18
  0
LAYOUT
  5
248
102
{ACAD_REACTORS
330
245
102
}
330
245
100
AcDbPlotSettings
  1

  2
Canon LASER SHOT LBP-740
  4
A4
  6

 40
5.873749732971191
 41
5.873747825622558
 42
5.958419799804687
 43
5.873748779296875
 44
210.0579986572265
 45
296.9259948730469
 46
0.0
 47
0.0
 48
0.0
 49
0.0
140
0.0
141
0.0
142
1.0
143
1.0
 70
   688
 72
     1
 73
     1
 74
     5
  7
aclt.ctb
 75
    16
147
1.0
148
0.0
149
0.0
100
AcDbLayout
  1
ﾚｲｱｳﾄ1
 70
     1
 71
     1
 10
-5.873748779296875
 20
-5.873749732971191
 11
291.05224609375
 21
204.1842489242553
 12
0.0
 22
0.0
 32
0.0
 14
28.51784982681273
 24
19.82258291244505
 34
0.0
 15
256.6606484413147
 25
178.4032462120056
 35
0.0
146
0.0
 13
0.0
 23
0.0
 33
0.0
 16
1.0
 26
0.0
 36
0.0
 17
0.0
 27
1.0
 37
0.0
 76
     0
330
15
331
26A
  0
MLINESTYLE
  5
1C
102
{ACAD_REACTORS
330
1B
102
}
330
1B
100
AcDbMlineStyle
  2
STANDARD
 70
     0
  3

 62
   256
 51
90.0
 52
90.0
 71
     2
 49
0.5
 62
   256
  6
BYLAYER
 49
-0.5
 62
   256
  6
BYLAYER
  0
ACDBPLACEHOLDER
  5
244
102
{ACAD_REACTORS
330
243
102
}
330
243
  0
DICTIONARYVAR
  5
34
102
{ACAD_REACTORS
330
33
102
}
330
33
100
DictionaryVariables
280
     0
  1
0
  0
ENDSEC
  0
EOF
