  0
SECTION
  2
HEADER
  9
$ACADVER
  1
AC1015
  9
$ACADMAINTVER
 70
     6
  9
$DWGCODEPAGE
  3
ANSI_932
  9
$INSBASE
 10
0.0
 20
0.0
 30
0.0
  9
$EXTMIN
 10
29.0
 20
145.5492129148107
 30
-0.00000001
  9
$EXTMAX
 10
357.64
 20
266.2137563451776
 30
0.00000001
  9
$LIMMIN
 10
0.0
 20
0.0
  9
$LIMMAX
 10
420.0
 20
297.0
  9
$ORTHOMODE
 70
     0
  9
$REGENMODE
 70
     1
  9
$FILLMODE
 70
     1
  9
$QTEXTMODE
 70
     0
  9
$MIRRTEXT
 70
     1
  9
$LTSCALE
 40
0.2
  9
$ATTMODE
 70
     1
  9
$TEXTSIZE
 40
4.0
  9
$TRACEWID
 40
1.0
  9
$TEXTSTYLE
  7
STYLE1
  9
$CLAYER
  8
画層1
  9
$CELTYPE
  6
BYLAYER
  9
$CECOLOR
 62
     0
  9
$CELTSCALE
 40
1.0
  9
$DISPSILH
 70
     0
  9
$DIMSCALE
 40
1.0
  9
$DIMASZ
 40
1.5
  9
$DIMEXO
 40
0.63
  9
$DIMDLI
 40
3.75
  9
$DIMRND
 40
0.0
  9
$DIMDLE
 40
0.0
  9
$DIMEXE
 40
1.25
  9
$DIMTP
 40
0.8
  9
$DIMTM
 40
0.0
  9
$DIMTXT
 40
2.5
  9
$DIMCEN
 40
2.5
  9
$DIMTSZ
 40
0.0
  9
$DIMTOL
 70
     1
  9
$DIMLIM
 70
     0
  9
$DIMTIH
 70
     0
  9
$DIMTOH
 70
     0
  9
$DIMSE1
 70
     0
  9
$DIMSE2
 70
     0
  9
$DIMTAD
 70
     1
  9
$DIMZIN
 70
     8
  9
$DIMBLK
  1

  9
$DIMASO
 70
     1
  9
$DIMSHO
 70
     1
  9
$DIMPOST
  1

  9
$DIMAPOST
  1

  9
$DIMALT
 70
     0
  9
$DIMALTD
 70
     4
  9
$DIMALTF
 40
0.04
  9
$DIMLFAC
 40
1.0
  9
$DIMTOFL
 70
     1
  9
$DIMTVP
 40
0.0
  9
$DIMTIX
 70
     0
  9
$DIMSOXD
 70
     0
  9
$DIMSAH
 70
     1
  9
$DIMBLK1
  1
OPEN
  9
$DIMBLK2
  1
OPEN
  9
$DIMSTYLE
  2
STANDARD_WS
  9
$DIMCLRD
 70
     0
  9
$DIMCLRE
 70
     0
  9
$DIMCLRT
 70
     0
  9
$DIMTFAC
 40
0.5
  9
$DIMGAP
 40
0.63
  9
$DIMJUST
 70
     0
  9
$DIMSD1
 70
     0
  9
$DIMSD2
 70
     0
  9
$DIMTOLJ
 70
     1
  9
$DIMTZIN
 70
     8
  9
$DIMALTZ
 70
     0
  9
$DIMALTTZ
 70
     0
  9
$DIMUPT
 70
     0
  9
$DIMDEC
 70
     4
  9
$DIMTDEC
 70
     4
  9
$DIMALTU
 70
     8
  9
$DIMALTTD
 70
     4
  9
$DIMTXSTY
  7
STYLE1
  9
$DIMAUNIT
 70
     0
  9
$DIMADEC
 70
     0
  9
$DIMALTRND
 40
0.0
  9
$DIMAZIN
 70
     0
  9
$DIMDSEP
 70
    46
  9
$DIMATFIT
 70
     3
  9
$DIMFRAC
 70
     0
  9
$DIMLDRBLK
  1
OPEN
  9
$DIMLUNIT
 70
     2
  9
$DIMLWD
 70
    -2
  9
$DIMLWE
 70
    -2
  9
$DIMTMOVE
 70
     0
  9
$LUNITS
 70
     2
  9
$LUPREC
 70
     4
  9
$SKETCHINC
 40
1.0
  9
$FILLETRAD
 40
1.0
  9
$AUNITS
 70
     0
  9
$AUPREC
 70
     0
  9
$MENU
  1
acad
  9
$ELEVATION
 40
0.0
  9
$PELEVATION
 40
0.0
  9
$THICKNESS
 40
0.0
  9
$LIMCHECK
 70
     0
  9
$CHAMFERA
 40
10.0
  9
$CHAMFERB
 40
10.0
  9
$CHAMFERC
 40
20.0
  9
$CHAMFERD
 40
0.0
  9
$SKPOLY
 70
     0
  9
$TDCREATE
 40
2450995.462150231
  9
$TDUCREATE
 40
2450995.087150231
  9
$TDUPDATE
 40
2456001.528531169
  9
$TDUUPDATE
 40
2456001.153531169
  9
$TDINDWG
 40
1.8296416898
  9
$TDUSRTIMER
 40
1.8296399537
  9
$USRTIMER
 70
     1
  9
$ANGBASE
 50
0.0
  9
$ANGDIR
 70
     0
  9
$PDMODE
 70
     0
  9
$PDSIZE
 40
0.0
  9
$PLINEWID
 40
10.0
  9
$SPLFRAME
 70
     0
  9
$SPLINETYPE
 70
     6
  9
$SPLINESEGS
 70
     8
  9
$HANDSEED
  5
462
  9
$SURFTAB1
 70
     6
  9
$SURFTAB2
 70
     6
  9
$SURFTYPE
 70
     6
  9
$SURFU
 70
     6
  9
$SURFV
 70
     6
  9
$UCSBASE
  2

  9
$UCSNAME
  2

  9
$UCSORG
 10
0.0
 20
0.0
 30
0.0
  9
$UCSXDIR
 10
1.0
 20
0.0
 30
0.0
  9
$UCSYDIR
 10
0.0
 20
1.0
 30
0.0
  9
$UCSORTHOREF
  2

  9
$UCSORTHOVIEW
 70
     0
  9
$UCSORGTOP
 10
0.0
 20
0.0
 30
0.0
  9
$UCSORGBOTTOM
 10
0.0
 20
0.0
 30
0.0
  9
$UCSORGLEFT
 10
0.0
 20
0.0
 30
0.0
  9
$UCSORGRIGHT
 10
0.0
 20
0.0
 30
0.0
  9
$UCSORGFRONT
 10
0.0
 20
0.0
 30
0.0
  9
$UCSORGBACK
 10
0.0
 20
0.0
 30
0.0
  9
$PUCSBASE
  2

  9
$PUCSNAME
  2

  9
$PUCSORG
 10
0.0
 20
0.0
 30
0.0
  9
$PUCSXDIR
 10
1.0
 20
0.0
 30
0.0
  9
$PUCSYDIR
 10
0.0
 20
1.0
 30
0.0
  9
$PUCSORTHOREF
  2

  9
$PUCSORTHOVIEW
 70
     0
  9
$PUCSORGTOP
 10
0.0
 20
0.0
 30
0.0
  9
$PUCSORGBOTTOM
 10
0.0
 20
0.0
 30
0.0
  9
$PUCSORGLEFT
 10
0.0
 20
0.0
 30
0.0
  9
$PUCSORGRIGHT
 10
0.0
 20
0.0
 30
0.0
  9
$PUCSORGFRONT
 10
0.0
 20
0.0
 30
0.0
  9
$PUCSORGBACK
 10
0.0
 20
0.0
 30
0.0
  9
$USERI1
 70
     0
  9
$USERI2
 70
     0
  9
$USERI3
 70
     0
  9
$USERI4
 70
     0
  9
$USERI5
 70
     0
  9
$USERR1
 40
0.0
  9
$USERR2
 40
0.0
  9
$USERR3
 40
0.0
  9
$USERR4
 40
0.0
  9
$USERR5
 40
0.0
  9
$WORLDVIEW
 70
     1
  9
$SHADEDGE
 70
     3
  9
$SHADEDIF
 70
    70
  9
$TILEMODE
 70
     1
  9
$MAXACTVP
 70
    48
  9
$PINSBASE
 10
0.0
 20
0.0
 30
0.0
  9
$PLIMCHECK
 70
     0
  9
$PEXTMIN
 10
1.000000000000000E+20
 20
1.000000000000000E+20
 30
1.000000000000000E+20
  9
$PEXTMAX
 10
-1.000000000000000E+20
 20
-1.000000000000000E+20
 30
-1.000000000000000E+20
  9
$PLIMMIN
 10
0.0
 20
0.0
  9
$PLIMMAX
 10
420.0
 20
297.0
  9
$UNITMODE
 70
     0
  9
$VISRETAIN
 70
     1
  9
$PLINEGEN
 70
     0
  9
$PSLTSCALE
 70
     1
  9
$TREEDEPTH
 70
  3020
  9
$CMLSTYLE
  2
STANDARD
  9
$CMLJUST
 70
     0
  9
$CMLSCALE
 40
20.0
  9
$PROXYGRAPHICS
 70
     1
  9
$MEASUREMENT
 70
     1
  9
$CELWEIGHT
370
    -1
  9
$ENDCAPS
280
     0
  9
$JOINSTYLE
280
     0
  9
$LWDISPLAY
290
     0
  9
$INSUNITS
 70
     0
  9
$HYPERLINKBASE
  1

  9
$STYLESHEET
  1

  9
$XEDIT
290
     1
  9
$CEPSNTYPE
380
     0
  9
$PSTYLEMODE
290
     1
  9
$FINGERPRINTGUID
  2
{128F3924-9681-11D3-A790-004026173390}
  9
$VERSIONGUID
  2
{99FB2973-35E7-11D6-9161-00E0297C6FFB}
  9
$EXTNAMES
290
     1
  9
$PSVPSCALE
 40
0.0
  9
$OLESTARTUP
290
     0
  0
ENDSEC
  0
SECTION
  2
CLASSES
  0
CLASS
  1
DICTIONARYVAR
  2
AcDbDictionaryVar
  3
AutoCAD 2000
 90
    32768
280
     0
281
     0
  0
CLASS
  1
LWPOLYLINE
  2
AcDbPolyline
  3
AutoCAD 2000
 90
    32768
280
     0
281
     1
  0
CLASS
  1
OLE2FRAME
  2
AcDbOle2Frame
  3
AutoCAD 2000
 90
    32768
280
     0
281
     1
  0
CLASS
  1
HATCH
  2
AcDbHatch
  3
AutoCAD 2000
 90
    32768
280
     0
281
     1
  0
CLASS
  1
ACDBDICTIONARYWDFLT
  2
AcDbDictionaryWithDefault
  3
AutoCAD 2000
 90
        0
280
     0
281
     0
  0
CLASS
  1
ACDBPLACEHOLDER
  2
AcDbPlaceHolder
  3
AutoCAD 2000
 90
        0
280
     0
281
     0
  0
CLASS
  1
LAYOUT
  2
AcDbLayout
  3
AutoCAD 2000
 90
        0
280
     0
281
     0
  0
CLASS
  1
LONG_TRANSACTION
  2
AcDbLongTransaction
  3
AutoCAD 2000
 90
    32768
280
     0
281
     0
  0
CLASS
  1
LWPOLYLINE
  2
AcDbPolyline
  3
AutoCAD 2000
 90
    32768
280
     0
281
     1
  0
CLASS
  1
HATCH
  2
AcDbHatch
  3
AutoCAD 2000
 90
    32768
280
     0
281
     1
  0
CLASS
  1
XRECORD
  2
AcDbXrecord
  3
AutoCAD 2000
 90
    32768
280
     0
281
     0
  0
ENDSEC
  0
SECTION
  2
TABLES
  0
TABLE
  2
VPORT
  5
1A
330
0
100
AcDbSymbolTable
 70
     2
  0
VPORT
  5
461
330
1A
100
AcDbSymbolTableRecord
100
AcDbViewportTableRecord
  2
*Active
 70
     0
 10
0.0
 20
0.0
 11
1.0
 21
1.0
 12
187.22
 22
230.5567755532138
 13
0.0
 23
0.0
 14
1.0
 24
1.0
 15
2.0
 25
2.0
 16
0.0
 26
0.0
 36
1.0
 17
0.0
 27
0.0
 37
0.0
 40
239.4535511064278
 41
1.709909909909909
 42
50.0
 43
0.0
 44
0.0
 50
0.0
 51
0.0
 71
     0
 72
   100
 73
     1
 74
     1
 75
     0
 76
     1
 77
     0
 78
     0
281
     0
 65
     1
110
0.0
120
0.0
130
0.0
111
1.0
121
0.0
131
0.0
112
0.0
122
1.0
132
0.0
 79
     0
146
0.0
  0
ENDTAB
  0
TABLE
  2
LTYPE
  5
15
330
0
100
AcDbSymbolTable
 70
     2
  0
LTYPE
  5
16
330
15
100
AcDbSymbolTableRecord
100
AcDbLinetypeTableRecord
  2
BYBLOCK
 70
     0
  3

 72
    65
 73
     0
 40
0.0
  0
LTYPE
  5
17
330
15
100
AcDbSymbolTableRecord
100
AcDbLinetypeTableRecord
  2
BYLAYER
 70
     0
  3

 72
    65
 73
     0
 40
0.0
  0
LTYPE
  5
8
330
15
100
AcDbSymbolTableRecord
100
AcDbLinetypeTableRecord
  2
CONTINUOUS
 70
     0
  3
Solid line
 72
    65
 73
     0
 40
0.0
  0
LTYPE
  5
2D
330
15
100
AcDbSymbolTableRecord
100
AcDbLinetypeTableRecord
  2
CENTER
 70
     0
  3
Center ____ _ ____ _ ____ _ ____ _ ____ _ ____
 72
    65
 73
     4
 40
50.8
 49
31.75
 74
     0
 49
-6.349999999999999
 74
     0
 49
6.349999999999999
 74
     0
 49
-6.349999999999999
 74
     0
  0
ENDTAB
  0
TABLE
  2
LAYER
  5
10
330
0
100
AcDbSymbolTable
 70
     3
  0
LAYER
  5
4
330
10
100
AcDbSymbolTableRecord
100
AcDbLayerTableRecord
  2
0
 70
     0
 62
     7
  6
CONTINUOUS
370
    -3
390
5
  0
LAYER
  5
3D
330
10
100
AcDbSymbolTableRecord
100
AcDbLayerTableRecord
  2
DEFPOINTS
 70
     0
 62
     7
  6
CONTINUOUS
290
     0
370
    -3
390
5
  0
LAYER
  5
29
330
10
100
AcDbSymbolTableRecord
100
AcDbLayerTableRecord
  2
画層1
 70
     0
 62
     7
  6
CONTINUOUS
370
    -3
390
5
  0
ENDTAB
  0
TABLE
  2
STYLE
  5
11
330
0
100
AcDbSymbolTable
 70
     2
  0
STYLE
  5
12
330
11
100
AcDbSymbolTableRecord
100
AcDbTextStyleTableRecord
  2
STANDARD
 70
     0
 40
2.5
 41
1.0
 50
0.0
 71
     0
 42
1.5
  3
MS PMincho.ttf
  4

1001
ACAD
1000
MS PMincho
1071
    32786
  0
STYLE
  5
2A
330
11
100
AcDbSymbolTableRecord
100
AcDbTextStyleTableRecord
  2
STYLE1
 70
     0
 40
5.0
 41
1.0
 50
0.0
 71
     0
 42
4.0
  3
MS Gothic.ttf
  4

1001
ACAD
1000
MS Gothic
1071
    32817
  0
ENDTAB
  0
TABLE
  2
VIEW
  5
18
330
0
100
AcDbSymbolTable
 70
     0
  0
ENDTAB
  0
TABLE
  2
UCS
  5
19
330
0
100
AcDbSymbolTable
 70
     0
  0
ENDTAB
  0
TABLE
  2
APPID
  5
1C
330
0
100
AcDbSymbolTable
 70
     1
  0
APPID
  5
13
330
1C
100
AcDbSymbolTableRecord
100
AcDbRegAppTableRecord
  2
ACAD
 70
     0
  0
ENDTAB
  0
TABLE
  2
DIMSTYLE
  5
1D
330
0
100
AcDbSymbolTable
 70
     1
100
AcDbDimStyleTable
 71
     0
  0
DIMSTYLE
105
1E
102
{ACAD_REACTORS
330
54
330
2E
102
}
330
1D
100
AcDbSymbolTableRecord
100
AcDbDimStyleTableRecord
  2
STANDARD_WS
 70
     0
 41
1.5
 42
0.63
 43
3.75
 44
1.25
 73
     0
 74
     0
 77
     1
 78
     8
140
2.5
141
2.5
143
0.04
147
0.63
171
     4
172
     1
173
     1
273
     8
274
     4
340
12
341
1F
343
1F
344
1F
  0
ENDTAB
  0
TABLE
  2
BLOCK_RECORD
  5
1
330
0
100
AcDbSymbolTable
 70
     6
  0
BLOCK_RECORD
  5
2
102
{ACAD_XDICTIONARY
360
437
102
}
330
1
100
AcDbSymbolTableRecord
100
AcDbBlockTableRecord
  2
*MODEL_SPACE
340
457
  0
BLOCK_RECORD
  5
C
102
{ACAD_XDICTIONARY
360
439
102
}
330
1
100
AcDbSymbolTableRecord
100
AcDbBlockTableRecord
  2
*PAPER_SPACE
340
458
  0
BLOCK_RECORD
  5
1F
330
1
100
AcDbSymbolTableRecord
100
AcDbBlockTableRecord
  2
_OPEN
340
0
  0
BLOCK_RECORD
  5
2F
330
1
100
AcDbSymbolTableRecord
100
AcDbBlockTableRecord
  2
_OPEN30
340
0
102
{BLKREFS
331
59
331
5A
331
39
331
3A
331
440
331
441
331
44C
331
44D
102
}
  0
BLOCK_RECORD
  5
43C
330
1
100
AcDbSymbolTableRecord
100
AcDbBlockTableRecord
  2
*D4
340
0
  0
BLOCK_RECORD
  5
448
330
1
100
AcDbSymbolTableRecord
100
AcDbBlockTableRecord
  2
*D5
340
0
  0
ENDTAB
  0
ENDSEC
  0
SECTION
  2
BLOCKS
  0
BLOCK
  5
3
330
2
100
AcDbEntity
  8
0
100
AcDbBlockBegin
  2
*MODEL_SPACE
 70
     0
 10
0.0
 20
0.0
 30
0.0
  3
*MODEL_SPACE
  1

  0
ENDBLK
  5
9
330
2
100
AcDbEntity
  8
0
100
AcDbBlockEnd
  0
BLOCK
  5
D
330
C
100
AcDbEntity
 67
     1
  8
0
100
AcDbBlockBegin
  2
*PAPER_SPACE
 70
     0
 10
0.0
 20
0.0
 30
0.0
  3
*PAPER_SPACE
  1

  0
ENDBLK
  5
E
330
C
100
AcDbEntity
 67
     1
  8
0
100
AcDbBlockEnd
  0
BLOCK
  5
23
330
1F
100
AcDbEntity
  8
0
100
AcDbBlockBegin
  2
_OPEN
 70
     0
 10
0.0
 20
0.0
 30
0.0
  3
_OPEN
  1

  0
LINE
  5
20
330
1F
100
AcDbEntity
  8
0
  6
ByBlock
 62
     0
100
AcDbLine
 10
-1.0
 20
0.17
 30
0.0
 11
0.0
 21
0.0
 31
0.0
  0
LINE
  5
21
330
1F
100
AcDbEntity
  8
0
  6
ByBlock
 62
     0
100
AcDbLine
 10
0.0
 20
0.0
 30
0.0
 11
-1.0
 21
-0.17
 31
0.0
  0
LINE
  5
22
330
1F
100
AcDbEntity
  8
0
  6
ByBlock
 62
     0
100
AcDbLine
 10
0.0
 20
0.0
 30
0.0
 11
-1.0
 21
0.0
 31
0.0
  0
ENDBLK
  5
24
330
1F
100
AcDbEntity
  8
0
100
AcDbBlockEnd
  0
BLOCK
  5
33
330
2F
100
AcDbEntity
  8
0
100
AcDbBlockBegin
  2
_OPEN30
 70
     0
 10
0.0
 20
0.0
 30
0.0
  3
_OPEN30
  1

  0
LINE
  5
30
330
2F
100
AcDbEntity
  8
0
  6
ByBlock
 62
     0
100
AcDbLine
 10
-1.0
 20
0.27
 30
0.0
 11
0.0
 21
0.0
 31
0.0
  0
LINE
  5
31
330
2F
100
AcDbEntity
  8
0
  6
ByBlock
 62
     0
100
AcDbLine
 10
0.0
 20
0.0
 30
0.0
 11
-1.0
 21
-0.27
 31
0.0
  0
LINE
  5
32
330
2F
100
AcDbEntity
  8
0
  6
ByBlock
 62
     0
100
AcDbLine
 10
0.0
 20
0.0
 30
0.0
 11
-1.0
 21
0.0
 31
0.0
  0
ENDBLK
  5
34
330
2F
100
AcDbEntity
  8
0
100
AcDbBlockEnd
  0
BLOCK
  5
446
330
43C
100
AcDbEntity
  8
0
 62
     0
100
AcDbBlockBegin
  2
*D4
 70
     1
 10
0.0
 20
0.0
 30
0.0
  3
*D4
  1

  0
LINE
  5
43D
330
43C
100
AcDbEntity
  8
画層1
 62
     0
100
AcDbLine
 10
151.0
 20
253.63
 30
0.0
 11
151.0
 21
261.25
 31
0.0
  0
LINE
  5
43E
330
43C
100
AcDbEntity
  8
画層1
 62
     0
100
AcDbLine
 10
262.0
 20
253.63
 30
0.0
 11
262.0
 21
261.25
 31
0.0
  0
LINE
  5
43F
330
43C
100
AcDbEntity
  8
画層1
 62
     0
100
AcDbLine
 10
152.5
 20
260.0
 30
0.0
 11
260.4999999999999
 21
260.0
 31
0.0
  0
INSERT
  5
440
330
43C
100
AcDbEntity
  8
画層1
 62
     0
100
AcDbBlockReference
  2
_OPEN30
 10
151.0
 20
260.0
 30
0.0
 41
1.5
 42
1.5
 43
1.5
 50
180.0
  0
INSERT
  5
441
330
43C
100
AcDbEntity
  8
画層1
 62
     0
100
AcDbBlockReference
  2
_OPEN30
 10
262.0
 20
260.0
 30
0.0
 41
1.5
 42
1.5
 43
1.5
  0
MTEXT
  5
442
330
43C
100
AcDbEntity
  8
画層1
 62
     0
100
AcDbMText
 10
206.4999999999999
 20
263.1299999999999
 30
0.0
 40
5.0
 41
0.0
 71
     5
 72
     1
  1
\A1;111
  7
STYLE1
 73
     1
 44
1.0
  0
POINT
  5
443
330
43C
100
AcDbEntity
  8
DEFPOINTS
 62
     0
100
AcDbPoint
 10
151.0
 20
253.0
 30
0.0
  0
POINT
  5
444
330
43C
100
AcDbEntity
  8
DEFPOINTS
 62
     0
100
AcDbPoint
 10
262.0
 20
253.0
 30
0.0
  0
POINT
  5
445
330
43C
100
AcDbEntity
  8
DEFPOINTS
 62
     0
100
AcDbPoint
 10
262.0
 20
260.0
 30
0.0
  0
ENDBLK
  5
447
330
43C
100
AcDbEntity
  8
0
 62
     0
100
AcDbBlockEnd
  0
BLOCK
  5
452
330
448
100
AcDbEntity
  8
0
 62
     0
100
AcDbBlockBegin
  2
*D5
 70
     1
 10
0.0
 20
0.0
 30
0.0
  3
*D5
  1

  0
LINE
  5
449
330
448
100
AcDbEntity
  8
画層1
 62
     0
100
AcDbLine
 10
128.21
 20
148.0
 30
0.0
 11
136.84
 21
148.0
 31
0.0
  0
LINE
  5
44A
330
448
100
AcDbEntity
  8
画層1
 62
     0
100
AcDbLine
 10
128.21
 20
244.0
 30
0.0
 11
136.84
 21
244.0
 31
0.0
  0
LINE
  5
44B
330
448
100
AcDbEntity
  8
画層1
 62
     0
100
AcDbLine
 10
135.59
 20
149.5
 30
0.0
 11
135.59
 21
242.5
 31
0.0
  0
INSERT
  5
44C
330
448
100
AcDbEntity
  8
画層1
 62
     0
100
AcDbBlockReference
  2
_OPEN30
 10
135.59
 20
148.0
 30
0.0
 41
1.5
 42
1.5
 43
1.5
 50
270.0
  0
INSERT
  5
44D
330
448
100
AcDbEntity
  8
画層1
 62
     0
100
AcDbBlockReference
  2
_OPEN30
 10
135.59
 20
244.0
 30
0.0
 41
1.5
 42
1.5
 43
1.5
 50
90.0
  0
MTEXT
  5
44E
330
448
100
AcDbEntity
  8
画層1
 62
     0
100
AcDbMText
 10
132.4599999999999
 20
196.0
 30
0.0
 40
5.0
 41
0.0
 71
     5
 72
     1
  1
\A1;96
  7
STYLE1
 11
0.0
 21
1.0
 31
0.0
 73
     1
 44
1.0
  0
POINT
  5
44F
330
448
100
AcDbEntity
  8
DEFPOINTS
 62
     0
100
AcDbPoint
 10
127.59
 20
148.0
 30
0.0
  0
POINT
  5
450
330
448
100
AcDbEntity
  8
DEFPOINTS
 62
     0
100
AcDbPoint
 10
127.59
 20
244.0
 30
0.0
  0
POINT
  5
451
330
448
100
AcDbEntity
  8
DEFPOINTS
 62
     0
100
AcDbPoint
 10
135.59
 20
244.0
 30
0.0
  0
ENDBLK
  5
453
330
448
100
AcDbEntity
  8
0
 62
     0
100
AcDbBlockEnd
  0
ENDSEC
  0
SECTION
  2
ENTITIES
  0
LINE
  5
2C
330
2
100
AcDbEntity
  8
画層1
  6
CENTER
 62
     0
100
AcDbLine
 10
147.0
 20
196.0
 30
0.0
 11
267.0
 21
196.0
 31
0.0
  0
DIMENSION
  5
2E
330
2
100
AcDbEntity
  8
画層1
 62
     0
100
AcDbDimension
  2
*D4
 10
262.0
 20
260.0
 30
0.0
 11
206.4999999999999
 21
263.1299999999999
 31
0.0
 70
    32
 71
     5
 42
-1.0
  3
STANDARD_WS
100
AcDbAlignedDimension
 13
151.0
 23
253.0
 33
0.0
 14
262.0
 24
253.0
 34
0.0
100
AcDbRotatedDimension
1001
ACAD
1000
DSTYLE
1002
{
1070
   140
1040
5.0
1070
     7
1000
OPEN30
1070
     6
1000
OPEN30
1070
   340
1005
2A
1002
}
  0
LINE
  5
42
330
2
100
AcDbEntity
  8
画層1
  6
CENTER
 62
     0
100
AcDbLine
 10
151.0
 20
196.0
 30
0.0
 11
264.0
 21
196.0
 31
0.0
  0
LINE
  5
43
330
2
100
AcDbEntity
  8
画層1
 62
     0
100
AcDbLine
 10
251.0
 20
156.0
 30
0.0
 11
166.0
 21
156.0
 31
0.0
  0
LINE
  5
44
330
2
100
AcDbEntity
  8
画層1
 62
     0
100
AcDbLine
 10
183.6
 20
241.8
 30
0.0
 11
253.5
 21
241.8
 31
0.0
  0
LINE
  5
45
330
2
100
AcDbEntity
  8
画層1
 62
     0
100
AcDbLine
 10
249.5
 20
154.1999999999999
 30
0.0
 11
192.5
 21
154.1999999999999
 31
0.0
  0
LINE
  5
46
330
2
100
AcDbEntity
  8
画層1
 62
     0
100
AcDbLine
 10
183.6
 20
150.1999999999999
 30
0.0
 11
253.5
 21
150.1999999999999
 31
0.0
  0
LWPOLYLINE
  5
47
330
2
100
AcDbEntity
  8
画層1
 62
     0
100
AcDbPolyline
 90
        4
 70
     1
 43
0.0
 10
190.5
 20
229.8999999999999
 10
212.5
 20
229.8999999999999
 10
212.5
 20
228.1
 10
190.5
 20
228.1
  0
LWPOLYLINE
  5
48
330
2
100
AcDbEntity
  8
画層1
 62
     0
100
AcDbPolyline
 90
        4
 70
     1
 43
0.0
 10
190.5
 20
233.1999999999999
 10
212.5
 20
233.1999999999999
 10
212.5
 20
231.4
 10
190.5
 20
231.4
  0
LINE
  5
49
330
2
100
AcDbEntity
  8
画層1
 62
     0
100
AcDbLine
 10
249.5
 20
237.8
 30
0.0
 11
192.5
 21
237.8
 31
0.0
  0
LINE
  5
4A
330
2
100
AcDbEntity
  8
画層1
 62
     0
100
AcDbLine
 10
251.0
 20
236.0
 30
0.0
 11
166.0
 21
236.0
 31
0.0
  0
LWPOLYLINE
  5
4B
330
2
100
AcDbEntity
  8
画層1
 62
     0
100
AcDbPolyline
 90
        4
 70
     1
 43
0.0
 10
190.5
 20
226.6
 10
212.5
 20
226.6
 10
212.5
 20
224.8
 10
190.5
 20
224.8
  0
LWPOLYLINE
  5
4C
330
2
100
AcDbEntity
  8
画層1
 62
     0
100
AcDbPolyline
 90
        4
 70
     1
 43
0.0
 10
190.5
 20
223.3
 10
212.5
 20
223.3
 10
212.5
 20
221.4999999999999
 10
190.5
 20
221.4999999999999
  0
LINE
  5
4D
330
2
100
AcDbEntity
  8
画層1
 62
     0
100
AcDbLine
 10
250.7
 20
156.3
 30
0.0
 11
181.1999999999999
 21
156.3
 31
0.0
  0
LINE
  5
4E
330
2
100
AcDbEntity
  8
画層1
 62
     0
100
AcDbLine
 10
181.1999999999999
 20
219.3
 30
0.0
 11
250.7
 21
219.3
 31
0.0
  0
TEXT
  5
4F
330
2
100
AcDbEntity
  8
画層1
 62
     0
100
AcDbText
 10
204.3499999999999
 20
252.15
 30
0.0
 40
5.0
  1
100
  7
STYLE1
100
AcDbText
  0
LEADER
  5
50
330
2
100
AcDbEntity
  8
画層1
 62
     0
100
AcDbLeader
  3
STANDARD_WS
 76
     2
 10
162.0
 20
252.0
 30
0.0
 10
260.0
 20
252.0
 30
0.0
1001
ACAD
1000
DSTYLE
1002
{
1070
     6
1000
OPEN
1070
    47
1040
0.8
1070
    71
1070
     1
1070
    77
1070
     0
1070
   146
1040
0.5
1070
   147
1040
0.63
1070
   284
1070
     8
1070
   340
1005
2A
1002
}
  0
LINE
  5
51
330
2
100
AcDbEntity
  8
画層1
 62
     0
100
AcDbLine
 10
195.4
 20
241.6999999999999
 30
0.0
 11
214.31
 21
241.6599999999999
 31
0.0
  0
LINE
  5
52
330
2
100
AcDbEntity
  8
画層1
 62
     0
100
AcDbLine
 10
214.13
 20
150.33
 30
0.0
 11
184.9799999999999
 21
150.36
 31
0.0
  0
LINE
  5
53
330
2
100
AcDbEntity
  8
画層1
  6
CENTER
 62
     0
100
AcDbLine
 10
79.0
 20
246.0
 30
0.0
 11
79.0
 21
146.0
 31
0.0
  0
DIMENSION
  5
54
330
2
100
AcDbEntity
  8
画層1
 62
     0
100
AcDbDimension
  2
*D5
 10
135.59
 20
244.0
 30
0.0
 11
132.4599999999999
 21
196.0
 31
0.0
 70
    32
 71
     5
 42
-1.0
  3
STANDARD_WS
100
AcDbAlignedDimension
 13
127.59
 23
148.0
 33
0.0
 14
127.59
 24
244.0
 34
0.0
 50
90.0
100
AcDbRotatedDimension
1001
ACAD
1000
DSTYLE
1002
{
1070
   140
1040
5.0
1070
    77
1070
     3
1070
   340
1005
2A
1070
     6
1000
OPEN30
1070
     7
1000
OPEN30
1002
}
  0
ARC
  5
61
330
2
100
AcDbEntity
  8
画層1
 62
     0
100
AcDbCircle
 10
32.1
 20
149.0999999999999
 30
0.0
 40
1.1
100
AcDbArc
 50
180.0
 51
270.0
  0
ARC
  5
62
330
2
100
AcDbEntity
  8
画層1
 62
     0
100
AcDbCircle
 10
125.9
 20
149.0999999999999
 30
0.0
 40
1.1
100
AcDbArc
 50
270.0
 51
0.0
  0
ARC
  5
63
330
2
100
AcDbEntity
  8
画層1
 62
     0
100
AcDbCircle
 10
32.1
 20
149.0999999999999
 30
0.0
 40
1.0
100
AcDbArc
 50
180.0
 51
270.0
  0
ARC
  5
64
330
2
100
AcDbEntity
  8
画層1
 62
     0
100
AcDbCircle
 10
125.9
 20
149.0999999999999
 30
0.0
 40
1.0
100
AcDbArc
 50
270.0
 51
0.0
  0
LINE
  5
65
330
2
100
AcDbEntity
  8
画層1
 62
     0
100
AcDbLine
 10
160.0
 20
244.0
 30
0.0
 11
160.0
 21
148.0
 31
0.0
  0
ARC
  5
66
330
2
100
AcDbEntity
  8
画層1
 62
     0
100
AcDbCircle
 10
183.74
 20
120.1999999999999
 30
0.0
 40
32.0
100
AcDbArc
 50
90.26000000000001
 51
120.25
  0
ARC
  5
67
330
2
100
AcDbEntity
  8
画層1
 62
     0
100
AcDbCircle
 10
183.9499999999999
 20
118.7999999999999
 30
0.0
 40
31.40248406519289
100
AcDbArc
 50
90.63
 51
121.5899999999999
  0
LINE
  5
68
330
2
100
AcDbEntity
  8
画層1
 62
     0
100
AcDbLine
 10
154.0
 20
148.0
 30
0.0
 11
154.0
 21
196.0
 31
0.0
  0
LINE
  5
69
330
2
100
AcDbEntity
  8
画層1
 62
     0
100
AcDbLine
 10
162.5999999999999
 20
148.3999999999999
 30
0.0
 11
163.8
 21
148.8
 31
0.0
  0
LINE
  5
6A
330
2
100
AcDbEntity
  8
画層1
 62
     0
100
AcDbLine
 10
163.8
 20
148.8
 30
0.0
 11
166.74
 21
147.78
 31
0.0
  0
LINE
  5
6B
330
2
100
AcDbEntity
  8
画層1
 62
     0
100
AcDbLine
 10
162.0
 20
244.0
 30
0.0
 11
162.0
 21
148.0
 31
0.0
  0
ARC
  5
6C
330
2
100
AcDbEntity
  8
画層1
 62
     0
100
AcDbCircle
 10
152.2
 20
149.3
 30
0.0
 40
1.199999999999999
100
AcDbArc
 50
180.0
 51
270.0
  0
LINE
  5
6D
330
2
100
AcDbEntity
  8
画層1
 62
     0
100
AcDbLine
 10
161.96
 20
148.2299999999999
 30
0.0
 11
161.96
 21
162.41
 31
0.0
  0
LINE
  5
6E
330
2
100
AcDbEntity
  8
画層1
 62
     0
100
AcDbLine
 10
151.61
 20
148.55
 30
0.0
 11
152.35
 21
148.2899999999999
 31
0.0
  0
LINE
  5
6F
330
2
100
AcDbEntity
  8
画層1
 62
     0
100
AcDbLine
 10
172.74
 20
148.3
 30
0.0
 11
177.97
 21
149.74
 31
0.0
  0
LINE
  5
70
330
2
100
AcDbEntity
  8
画層1
 62
     0
100
AcDbLine
 10
162.68
 20
148.35
 30
0.0
 11
163.77
 21
148.74
 31
0.0
  0
LINE
  5
71
330
2
100
AcDbEntity
  8
画層1
 62
     0
100
AcDbLine
 10
163.77
 20
148.74
 30
0.0
 11
166.9
 21
147.61
 31
0.0
  0
LINE
  5
72
330
2
100
AcDbEntity
  8
画層1
 62
     0
100
AcDbLine
 10
167.77
 20
147.78
 30
0.0
 11
172.96
 21
150.22
 31
0.0
  0
LINE
  5
73
330
2
100
AcDbEntity
  8
画層1
 62
     0
100
AcDbLine
 10
31.24
 20
149.1399999999999
 30
0.0
 11
31.5
 21
148.46
 31
0.0
  0
LINE
  5
74
330
2
100
AcDbEntity
  8
画層1
 62
     0
100
AcDbLine
 10
126.56
 20
148.46
 30
0.0
 11
126.8299999999999
 21
149.1699999999999
 31
0.0
  0
LINE
  5
75
330
2
100
AcDbEntity
  8
画層1
 62
     0
100
AcDbLine
 10
32.1
 20
148.0
 30
0.0
 11
125.9
 21
148.0
 31
0.0
  0
LINE
  5
76
330
2
100
AcDbEntity
  8
画層1
 62
     0
100
AcDbLine
 10
125.9
 20
148.0999999999999
 30
0.0
 11
32.1
 21
148.0999999999999
 31
0.0
  0
LINE
  5
77
330
2
100
AcDbEntity
  8
画層1
 62
     0
100
AcDbLine
 10
57.01
 20
148.2
 30
0.0
 11
84.23999999999999
 21
148.2
 31
0.0
  0
LINE
  5
78
330
2
100
AcDbEntity
  8
画層1
 62
     0
100
AcDbLine
 10
32.11999999999999
 20
148.2
 30
0.0
 11
57.01
 21
148.2
 31
0.0
  0
LINE
  5
79
330
2
100
AcDbEntity
  8
画層1
 62
     0
100
AcDbLine
 10
33.2
 20
145.9
 30
0.0
 11
37.0
 21
145.9
 31
0.0
  0
LINE
  5
7A
330
2
100
AcDbEntity
  8
画層1
 62
     0
100
AcDbLine
 10
33.2
 20
146.25
 30
0.0
 11
37.0
 21
146.25
 31
0.0
  0
LINE
  5
7B
330
2
100
AcDbEntity
  8
画層1
 62
     0
100
AcDbLine
 10
33.2
 20
146.6
 30
0.0
 11
37.0
 21
146.6
 31
0.0
  0
LINE
  5
7C
330
2
100
AcDbEntity
  8
画層1
 62
     0
100
AcDbLine
 10
33.2
 20
146.9499999999999
 30
0.0
 11
37.0
 21
146.9499999999999
 31
0.0
  0
LINE
  5
7D
330
2
100
AcDbEntity
  8
画層1
 62
     0
100
AcDbLine
 10
33.2
 20
147.3
 30
0.0
 11
37.0
 21
147.3
 31
0.0
  0
LINE
  5
7E
330
2
100
AcDbEntity
  8
画層1
 62
     0
100
AcDbLine
 10
33.2
 20
147.65
 30
0.0
 11
37.0
 21
147.65
 31
0.0
  0
LINE
  5
7F
330
2
100
AcDbEntity
  8
画層1
 62
     0
100
AcDbLine
 10
33.2
 20
145.55
 30
0.0
 11
37.0
 21
145.55
 31
0.0
  0
LINE
  5
80
330
2
100
AcDbEntity
  8
画層1
 62
     0
100
AcDbLine
 10
33.2
 20
148.0
 30
0.0
 11
33.2
 21
145.55
 31
0.0
  0
LINE
  5
81
330
2
100
AcDbEntity
  8
画層1
 62
     0
100
AcDbLine
 10
31.5
 20
148.46
 30
0.0
 11
32.11999999999999
 21
148.2
 31
0.0
  0
LINE
  5
82
330
2
100
AcDbEntity
  8
画層1
 62
     0
100
AcDbLine
 10
37.0
 20
145.55
 30
0.0
 11
37.0
 21
148.0
 31
0.0
  0
LINE
  5
83
330
2
100
AcDbEntity
  8
画層1
 62
     0
100
AcDbLine
 10
42.0
 20
148.0999999999999
 30
0.0
 11
42.0
 21
148.0
 31
0.0
  0
LINE
  5
84
330
2
100
AcDbEntity
  8
画層1
 62
     0
100
AcDbLine
 10
44.0
 20
148.0999999999999
 30
0.0
 11
44.0
 21
148.0
 31
0.0
  0
LINE
  5
85
330
2
100
AcDbEntity
  8
画層1
 62
     0
100
AcDbLine
 10
54.0
 20
148.0999999999999
 30
0.0
 11
54.0
 21
148.0
 31
0.0
  0
LINE
  5
86
330
2
100
AcDbEntity
  8
画層1
 62
     0
100
AcDbLine
 10
56.0
 20
148.0999999999999
 30
0.0
 11
56.0
 21
148.0
 31
0.0
  0
LINE
  5
87
330
2
100
AcDbEntity
  8
画層1
 62
     0
100
AcDbLine
 10
111.2
 20
148.2
 30
0.0
 11
125.8599999999999
 21
148.1699999999999
 31
0.0
  0
LINE
  5
88
330
2
100
AcDbEntity
  8
画層1
 62
     0
100
AcDbLine
 10
84.23999999999999
 20
148.2
 30
0.0
 11
111.2
 21
148.2
 31
0.0
  0
LINE
  5
89
330
2
100
AcDbEntity
  8
画層1
 62
     0
100
AcDbLine
 10
102.0
 20
148.0999999999999
 30
0.0
 11
102.0
 21
148.0
 31
0.0
  0
LINE
  5
8A
330
2
100
AcDbEntity
  8
画層1
 62
     0
100
AcDbLine
 10
104.0
 20
148.0999999999999
 30
0.0
 11
104.0
 21
148.0
 31
0.0
  0
LINE
  5
8B
330
2
100
AcDbEntity
  8
画層1
 62
     0
100
AcDbLine
 10
114.0
 20
148.0999999999999
 30
0.0
 11
114.0
 21
148.0
 31
0.0
  0
LINE
  5
8C
330
2
100
AcDbEntity
  8
画層1
 62
     0
100
AcDbLine
 10
116.0
 20
148.0999999999999
 30
0.0
 11
116.0
 21
148.0
 31
0.0
  0
LINE
  5
8D
330
2
100
AcDbEntity
  8
画層1
 62
     0
100
AcDbLine
 10
121.0
 20
145.9
 30
0.0
 11
124.7999999999999
 21
145.9
 31
0.0
  0
LINE
  5
8E
330
2
100
AcDbEntity
  8
画層1
 62
     0
100
AcDbLine
 10
121.0
 20
146.25
 30
0.0
 11
124.7999999999999
 21
146.25
 31
0.0
  0
LINE
  5
8F
330
2
100
AcDbEntity
  8
画層1
 62
     0
100
AcDbLine
 10
121.0
 20
146.6
 30
0.0
 11
124.7999999999999
 21
146.6
 31
0.0
  0
LINE
  5
90
330
2
100
AcDbEntity
  8
画層1
 62
     0
100
AcDbLine
 10
121.0
 20
146.9499999999999
 30
0.0
 11
124.7999999999999
 21
146.9499999999999
 31
0.0
  0
LINE
  5
91
330
2
100
AcDbEntity
  8
画層1
 62
     0
100
AcDbLine
 10
121.0
 20
147.3
 30
0.0
 11
124.7999999999999
 21
147.3
 31
0.0
  0
LINE
  5
92
330
2
100
AcDbEntity
  8
画層1
 62
     0
100
AcDbLine
 10
121.0
 20
147.65
 30
0.0
 11
124.7999999999999
 21
147.65
 31
0.0
  0
LINE
  5
93
330
2
100
AcDbEntity
  8
画層1
 62
     0
100
AcDbLine
 10
124.7999999999999
 20
145.55
 30
0.0
 11
121.0
 21
145.55
 31
0.0
  0
LINE
  5
94
330
2
100
AcDbEntity
  8
画層1
 62
     0
100
AcDbLine
 10
121.0
 20
145.55
 30
0.0
 11
121.0
 21
148.0
 31
0.0
  0
LINE
  5
95
330
2
100
AcDbEntity
  8
画層1
 62
     0
100
AcDbLine
 10
124.7999999999999
 20
148.0
 30
0.0
 11
124.7999999999999
 21
145.55
 31
0.0
  0
LINE
  5
96
330
2
100
AcDbEntity
  8
画層1
 62
     0
100
AcDbLine
 10
125.8599999999999
 20
148.1699999999999
 30
0.0
 11
126.56
 21
148.46
 31
0.0
  0
LINE
  5
97
330
2
100
AcDbEntity
  8
画層1
 62
     0
100
AcDbLine
 10
153.0
 20
148.0
 30
0.0
 11
162.0
 21
148.0
 31
0.0
  0
LINE
  5
98
330
2
100
AcDbEntity
  8
画層1
 62
     0
100
AcDbLine
 10
161.87
 20
148.2299999999999
 30
0.0
 11
152.38
 21
148.2299999999999
 31
0.0
  0
LINE
  5
99
330
2
100
AcDbEntity
  8
画層1
 62
     0
100
AcDbLine
 10
152.2
 20
148.0999999999999
 30
0.0
 11
153.0
 21
148.0999999999999
 31
0.0
  0
LINE
  5
9A
330
2
100
AcDbEntity
  8
画層1
 62
     0
100
AcDbLine
 10
152.2
 20
148.0999999999999
 30
0.0
 11
154.0
 21
148.0999999999999
 31
0.0
  0
LINE
  5
9B
330
2
100
AcDbEntity
  8
画層1
 62
     0
100
AcDbLine
 10
153.0
 20
148.0
 30
0.0
 11
153.0
 21
148.0999999999999
 31
0.0
  0
LINE
  5
9C
330
2
100
AcDbEntity
  8
画層1
 62
     0
100
AcDbLine
 10
167.3799999999999
 20
145.61
 30
0.0
 11
172.74
 21
148.3
 31
0.0
  0
LINE
  5
9D
330
2
100
AcDbEntity
  8
画層1
 62
     0
100
AcDbLine
 10
165.0
 20
147.1999999999999
 30
0.0
 11
164.4
 21
146.9499999999999
 31
0.0
  0
LINE
  5
9E
330
2
100
AcDbEntity
  8
画層1
 62
     0
100
AcDbLine
 10
164.59
 20
147.17
 30
0.0
 11
165.12
 21
147.4799999999999
 31
0.0
  0
LINE
  5
9F
330
2
100
AcDbEntity
  8
画層1
 62
     0
100
AcDbLine
 10
164.4
 20
146.9499999999999
 30
0.0
 11
164.4
 21
147.55
 31
0.0
  0
LINE
  5
A0
330
2
100
AcDbEntity
  8
画層1
 62
     0
100
AcDbLine
 10
164.4
 20
147.55
 30
0.0
 11
163.8
 21
147.3
 31
0.0
  0
LINE
  5
A1
330
2
100
AcDbEntity
  8
画層1
 62
     0
100
AcDbLine
 10
163.8
 20
147.3
 30
0.0
 11
163.8
 21
147.9
 31
0.0
  0
LINE
  5
A2
330
2
100
AcDbEntity
  8
画層1
 62
     0
100
AcDbLine
 10
163.8
 20
147.9
 30
0.0
 11
163.1999999999999
 21
147.65
 31
0.0
  0
LINE
  5
A3
330
2
100
AcDbEntity
  8
画層1
 62
     0
100
AcDbLine
 10
163.1999999999999
 20
147.65
 30
0.0
 11
163.1999999999999
 21
148.2499999999999
 31
0.0
  0
LINE
  5
A4
330
2
100
AcDbEntity
  8
画層1
 62
     0
100
AcDbLine
 10
163.1999999999999
 20
148.2499999999999
 30
0.0
 11
162.5999999999999
 21
148.0
 31
0.0
  0
LINE
  5
A5
330
2
100
AcDbEntity
  8
画層1
 62
     0
100
AcDbLine
 10
162.5999999999999
 20
148.0
 30
0.0
 11
162.5999999999999
 21
148.3999999999999
 31
0.0
  0
LINE
  5
A6
330
2
100
AcDbEntity
  8
画層1
 62
     0
100
AcDbLine
 10
162.72
 20
148.35
 30
0.0
 11
162.72
 21
148.13
 31
0.0
  0
LINE
  5
A7
330
2
100
AcDbEntity
  8
画層1
 62
     0
100
AcDbLine
 10
162.72
 20
148.13
 30
0.0
 11
163.37
 21
148.43
 31
0.0
  0
LINE
  5
A8
330
2
100
AcDbEntity
  8
画層1
 62
     0
100
AcDbLine
 10
163.37
 20
148.43
 30
0.0
 11
163.33
 21
147.78
 31
0.0
  0
LINE
  5
A9
330
2
100
AcDbEntity
  8
画層1
 62
     0
100
AcDbLine
 10
163.33
 20
147.78
 30
0.0
 11
163.94
 21
148.09
 31
0.0
  0
LINE
  5
AA
330
2
100
AcDbEntity
  8
画層1
 62
     0
100
AcDbLine
 10
163.94
 20
148.09
 30
0.0
 11
163.94
 21
147.4799999999999
 31
0.0
  0
LINE
  5
AB
330
2
100
AcDbEntity
  8
画層1
 62
     0
100
AcDbLine
 10
163.94
 20
147.4799999999999
 30
0.0
 11
164.6399999999999
 21
147.82
 31
0.0
  0
LINE
  5
AC
330
2
100
AcDbEntity
  8
画層1
 62
     0
100
AcDbLine
 10
164.6399999999999
 20
147.82
 30
0.0
 11
164.59
 21
147.17
 31
0.0
  0
LINE
  5
AD
330
2
100
AcDbEntity
  8
画層1
 62
     0
100
AcDbLine
 10
167.1999999999999
 20
146.15
 30
0.0
 11
166.4
 21
145.9
 31
0.0
  0
ARC
  5
AE
330
2
100
AcDbEntity
  8
画層1
 62
     0
100
AcDbCircle
 10
167.1199999999999
 20
148.71
 30
0.0
 40
1.0
100
AcDbArc
 50
247.5099999999999
 51
300.2499999999999
  0
LINE
  5
AF
330
2
100
AcDbEntity
  8
画層1
 62
     0
100
AcDbLine
 10
166.4
 20
145.9
 30
0.0
 11
166.4
 21
146.5
 31
0.0
  0
LINE
  5
B0
330
2
100
AcDbEntity
  8
画層1
 62
     0
100
AcDbLine
 10
166.4
 20
146.5
 30
0.0
 11
165.8
 21
146.25
 31
0.0
  0
LINE
  5
B1
330
2
100
AcDbEntity
  8
画層1
 62
     0
100
AcDbLine
 10
165.8
 20
146.25
 30
0.0
 11
165.8
 21
146.8499999999999
 31
0.0
  0
LINE
  5
B2
330
2
100
AcDbEntity
  8
画層1
 62
     0
100
AcDbLine
 10
165.8
 20
146.8499999999999
 30
0.0
 11
165.0
 21
146.6
 31
0.0
  0
LINE
  5
B3
330
2
100
AcDbEntity
  8
画層1
 62
     0
100
AcDbLine
 10
165.0
 20
146.6
 30
0.0
 11
165.0
 21
147.1999999999999
 31
0.0
  0
LINE
  5
B4
330
2
100
AcDbEntity
  8
画層1
 62
     0
100
AcDbLine
 10
167.1999999999999
 20
145.55
 30
0.0
 11
167.1999999999999
 21
146.15
 31
0.0
  0
LINE
  5
B5
330
2
100
AcDbEntity
  8
画層1
 62
     0
100
AcDbLine
 10
167.5
 20
145.55
 30
0.0
 11
167.1999999999999
 21
145.55
 31
0.0
  0
LINE
  5
B6
330
2
100
AcDbEntity
  8
画層1
 62
     0
100
AcDbLine
 10
166.9
 20
147.61
 30
0.0
 11
167.77
 21
147.78
 31
0.0
  0
LINE
  5
B7
330
2
100
AcDbEntity
  8
画層1
 62
     0
100
AcDbLine
 10
167.25
 20
146.2599999999999
 30
0.0
 11
167.3399999999999
 21
145.61
 31
0.0
  0
LINE
  5
B8
330
2
100
AcDbEntity
  8
画層1
 62
     0
100
AcDbLine
 10
165.12
 20
147.4799999999999
 30
0.0
 11
165.12
 21
146.74
 31
0.0
  0
LINE
  5
B9
330
2
100
AcDbEntity
  8
画層1
 62
     0
100
AcDbLine
 10
165.12
 20
146.74
 30
0.0
 11
165.99
 21
147.0399999999999
 31
0.0
  0
LINE
  5
BA
330
2
100
AcDbEntity
  8
画層1
 62
     0
100
AcDbLine
 10
165.99
 20
147.0399999999999
 30
0.0
 11
165.9399999999999
 21
146.43
 31
0.0
  0
LINE
  5
BB
330
2
100
AcDbEntity
  8
画層1
 62
     0
100
AcDbLine
 10
165.9399999999999
 20
146.43
 30
0.0
 11
166.55
 21
146.7799999999999
 31
0.0
  0
LINE
  5
BC
330
2
100
AcDbEntity
  8
画層1
 62
     0
100
AcDbLine
 10
166.55
 20
146.7799999999999
 30
0.0
 11
166.5999999999999
 21
146.0399999999999
 31
0.0
  0
LINE
  5
BD
330
2
100
AcDbEntity
  8
画層1
 62
     0
100
AcDbLine
 10
166.5999999999999
 20
146.0399999999999
 30
0.0
 11
167.3399999999999
 21
146.3
 31
0.0
  0
ELLIPSE
  5
BE
330
2
100
AcDbEntity
  8
画層1
 62
     0
100
AcDbEllipse
 10
69.0
 20
174.0
 30
0.0
 11
-9.0
 21
0.0
 31
0.0
210
0.0
220
0.0
230
1.0
 40
0.5600000000000001
 41
0.0
 42
6.283185307179585
  0
ELLIPSE
  5
BF
330
2
100
AcDbEntity
  8
画層1
 62
     0
100
AcDbEllipse
 10
89.0
 20
174.0
 30
0.0
 11
-9.0
 21
0.0
 31
0.0
210
0.0
220
0.0
230
1.0
 40
0.5600000000000001
 41
0.0
 42
6.283185307179585
  0
ELLIPSE
  5
C0
330
2
100
AcDbEntity
  8
画層1
 62
     0
100
AcDbEllipse
 10
109.0
 20
174.0
 30
0.0
 11
-9.0
 21
0.0
 31
0.0
210
0.0
220
0.0
230
1.0
 40
0.5600000000000001
 41
0.0
 42
6.283185307179585
  0
ELLIPSE
  5
C1
330
2
100
AcDbEntity
  8
画層1
 62
     0
100
AcDbEllipse
 10
49.0
 20
174.0
 30
0.0
 11
-9.0
 21
0.0
 31
0.0
210
0.0
220
0.0
230
1.0
 40
0.5600000000000001
 41
0.0
 42
6.283185307179585
  0
ELLIPSE
  5
C2
330
2
100
AcDbEntity
  8
画層1
 62
     0
100
AcDbEllipse
 10
69.0
 20
162.0
 30
0.0
 11
-9.0
 21
0.0
 31
0.0
210
0.0
220
0.0
230
1.0
 40
0.5600000000000001
 41
0.0
 42
6.283185307179585
  0
ELLIPSE
  5
C3
330
2
100
AcDbEntity
  8
画層1
 62
     0
100
AcDbEllipse
 10
49.0
 20
162.0
 30
0.0
 11
-9.0
 21
0.0
 31
0.0
210
0.0
220
0.0
230
1.0
 40
0.5600000000000001
 41
0.0
 42
6.283185307179585
  0
ELLIPSE
  5
C4
330
2
100
AcDbEntity
  8
画層1
 62
     0
100
AcDbEllipse
 10
89.0
 20
162.0
 30
0.0
 11
-9.0
 21
0.0
 31
0.0
210
0.0
220
0.0
230
1.0
 40
0.5600000000000001
 41
0.0
 42
6.283185307179585
  0
ELLIPSE
  5
C5
330
2
100
AcDbEntity
  8
画層1
 62
     0
100
AcDbEllipse
 10
109.0
 20
162.0
 30
0.0
 11
-9.0
 21
0.0
 31
0.0
210
0.0
220
0.0
230
1.0
 40
0.5600000000000001
 41
0.0
 42
6.283185307179585
  0
LINE
  5
C6
330
2
100
AcDbEntity
  8
画層1
  6
CENTER
 62
     0
100
AcDbLine
 10
29.0
 20
196.0
 30
0.0
 11
129.0
 21
196.0
 31
0.0
  0
LINE
  5
C7
330
2
100
AcDbEntity
  8
画層1
 62
     0
100
AcDbLine
 10
125.9
 20
244.0
 30
0.0
 11
32.1
 21
244.0
 31
0.0
  0
LINE
  5
C8
330
2
100
AcDbEntity
  8
画層1
 62
     0
100
AcDbLine
 10
32.1
 20
243.9
 30
0.0
 11
125.9
 21
243.9
 31
0.0
  0
LINE
  5
C9
330
2
100
AcDbEntity
  8
画層1
 62
     0
100
AcDbLine
 10
33.5
 20
242.0999999999999
 30
0.0
 11
124.5
 21
242.0999999999999
 31
0.0
  0
LINE
  5
CA
330
2
100
AcDbEntity
  8
画層1
 62
     0
100
AcDbLine
 10
124.5
 20
149.9
 30
0.0
 11
33.5
 21
149.9
 31
0.0
  0
LINE
  5
CB
330
2
100
AcDbEntity
  8
画層1
 62
     0
100
AcDbLine
 10
124.3999999999999
 20
150.0999999999999
 30
0.0
 11
33.6
 21
150.0999999999999
 31
0.0
  0
LINE
  5
CC
330
2
100
AcDbEntity
  8
画層1
 62
     0
100
AcDbLine
 10
33.6
 20
241.9
 30
0.0
 11
124.3999999999999
 21
241.9
 31
0.0
  0
LINE
  5
CD
330
2
100
AcDbEntity
  8
画層1
 62
     0
100
AcDbLine
 10
33.1
 20
155.0
 30
0.0
 11
124.9
 21
155.0
 31
0.0
  0
LINE
  5
CE
330
2
100
AcDbEntity
  8
画層1
 62
     0
100
AcDbLine
 10
39.5
 20
211.5
 30
0.0
 11
108.4999999999999
 21
211.5
 31
0.0
  0
LINE
  5
CF
330
2
100
AcDbEntity
  8
画層1
 62
     0
100
AcDbLine
 10
108.4999999999999
 20
234.5
 30
0.0
 11
39.5
 21
234.5
 31
0.0
  0
LINE
  5
D0
330
2
100
AcDbEntity
  8
画層1
 62
     0
100
AcDbLine
 10
113.5
 20
182.3
 30
0.0
 11
75.5
 21
182.3
 31
0.0
  0
LINE
  5
D1
330
2
100
AcDbEntity
  8
画層1
 62
     0
100
AcDbLine
 10
75.5
 20
194.6999999999999
 30
0.0
 11
113.5
 21
194.6999999999999
 31
0.0
  0
MTEXT
  5
D2
330
2
100
AcDbEntity
  8
画層1
 62
     0
100
AcDbMText
 10
76.76999999999999
 20
197.47
 30
0.0
 40
2.2
 41
5.91
 71
     1
 72
     5
  1
\fＭＳ Ｐゴシック|b0|i0|c128|p50;ＳＶ
  7
STYLE1
 73
     1
 44
1.0
1001
ACAD
1000
MTEXTBEGIN
1070
    73
1070
     1
1070
    44
1040
1.0
1070
    74
1070
     0
1000
MTEXTEND
  0
LINE
  5
D3
330
2
100
AcDbEntity
  8
画層1
 62
     0
100
AcDbLine
 10
124.9
 20
181.0
 30
0.0
 11
33.1
 21
181.0
 31
0.0
  0
TEXT
  5
D4
330
2
100
AcDbEntity
  8
画層1
 62
     0
100
AcDbText
 10
76.17
 20
252.2299999999999
 30
0.0
 40
5.0
  1
96
  7
STYLE1
100
AcDbText
  0
LEADER
  5
D5
330
2
100
AcDbEntity
  8
画層1
 62
     0
100
AcDbLeader
  3
STANDARD_WS
 76
     2
 10
31.0
 20
252.0
 30
0.0
 10
127.0
 20
252.0
 30
0.0
1001
ACAD
1000
DSTYLE
1002
{
1070
     6
1000
OPEN
1070
    47
1040
0.8
1070
    71
1070
     1
1070
    77
1070
     0
1070
   146
1040
0.5
1070
   147
1040
0.63
1070
   284
1070
     8
1070
   340
1005
2A
1002
}
  0
LINE
  5
D6
330
2
100
AcDbEntity
  8
画層1
 62
     0
100
AcDbLine
 10
101.12
 20
243.84
 30
0.0
 11
75.26
 21
243.84
 31
0.0
  0
LINE
  5
D7
330
2
100
AcDbEntity
  8
画層1
 62
     0
100
AcDbLine
 10
63.42
 20
180.9499999999999
 30
0.0
 11
96.44
 21
180.9499999999999
 31
0.0
  0
LINE
  5
D8
330
2
100
AcDbEntity
  8
画層1
 62
     0
100
AcDbLine
 10
31.0
 20
242.9
 30
0.0
 11
31.0
 21
149.0999999999999
 31
0.0
  0
LINE
  5
D9
330
2
100
AcDbEntity
  8
画層1
 62
     0
100
AcDbLine
 10
31.1
 20
149.0999999999999
 30
0.0
 11
31.1
 21
242.9
 31
0.0
  0
LINE
  5
DA
330
2
100
AcDbEntity
  8
画層1
 62
     0
100
AcDbLine
 10
32.9
 20
150.5
 30
0.0
 11
32.9
 21
241.5
 31
0.0
  0
LINE
  5
DB
330
2
100
AcDbEntity
  8
画層1
 62
     0
100
AcDbLine
 10
33.1
 20
150.6
 30
0.0
 11
33.1
 21
241.4
 31
0.0
  0
LINE
  5
DC
330
2
100
AcDbEntity
  8
画層1
 62
     0
100
AcDbLine
 10
31.18
 20
242.9
 30
0.0
 11
31.18
 21
230.01
 31
0.0
  0
MTEXT
  5
DD
330
2
100
AcDbEntity
  8
画層1
 62
     0
100
AcDbMText
 10
40.78
 20
197.47
 30
0.0
 40
2.2
 41
5.91
 71
     1
 72
     5
  1
{\fＭＳ Ｐゴシック|b0|i0|c128|p50;PTN}
  7
STYLE1
 73
     1
 44
1.0
1001
ACAD
1000
MTEXTBEGIN
1070
    73
1070
     1
1070
    44
1040
1.0
1070
    74
1070
     0
1000
MTEXTEND
  0
ARC
  5
DE
330
2
100
AcDbEntity
  8
画層1
 62
     0
100
AcDbCircle
 10
39.5
 20
193.6999999999999
 30
0.0
 40
1.649999999999999
100
AcDbArc
 50
90.0
 51
180.0
  0
ARC
  5
DF
330
2
100
AcDbEntity
  8
画層1
 62
     0
100
AcDbCircle
 10
39.5
 20
193.6999999999999
 30
0.0
 40
1.0
100
AcDbArc
 50
90.0
 51
180.0
  0
ARC
  5
E0
330
2
100
AcDbEntity
  8
画層1
 62
     0
100
AcDbCircle
 10
47.5
 20
193.6999999999999
 30
0.0
 40
1.649999999999999
100
AcDbArc
 50
0.0
 51
90.0
  0
ARC
  5
E1
330
2
100
AcDbEntity
  8
画層1
 62
     0
100
AcDbCircle
 10
47.5
 20
193.6999999999999
 30
0.0
 40
1.0
100
AcDbArc
 50
0.0
 51
90.0
  0
MTEXT
  5
E2
330
2
100
AcDbEntity
  8
画層1
 62
     0
100
AcDbMText
 10
57.9
 20
197.27
 30
0.0
 40
2.2
 41
5.91
 71
     1
 72
     5
  1
{\fＭＳ Ｐゴシック|b0|i0|c128|p50;STEP}
  7
STYLE1
 73
     1
 44
1.0
1001
ACAD
1000
MTEXTBEGIN
1070
    73
1070
     1
1070
    44
1040
1.0
1070
    74
1070
     0
1000
MTEXTEND
  0
ARC
  5
E3
330
2
100
AcDbEntity
  8
画層1
 62
     0
100
AcDbCircle
 10
52.5
 20
193.5
 30
0.0
 40
1.649999999999999
100
AcDbArc
 50
90.0
 51
180.0
  0
ARC
  5
E4
330
2
100
AcDbEntity
  8
画層1
 62
     0
100
AcDbCircle
 10
75.5
 20
193.6999999999999
 30
0.0
 40
1.0
100
AcDbArc
 50
90.0
 51
180.0
  0
ARC
  5
E5
330
2
100
AcDbEntity
  8
画層1
 62
     0
100
AcDbCircle
 10
70.5
 20
193.5
 30
0.0
 40
1.649999999999999
100
AcDbArc
 50
0.0
 51
90.0
  0
LINE
  5
E6
330
2
100
AcDbEntity
  8
画層1
 62
     0
100
AcDbLine
 10
31.23
 20
201.27
 30
0.0
 11
31.23
 21
183.7899999999999
 31
0.0
  0
HATCH
  5
E7
330
2
100
AcDbEntity
  8
画層1
 62
     0
100
AcDbHatch
 10
0.0
 20
0.0
 30
0.0
210
0.0
220
0.0
230
1.0
  2
SOLID
 70
     1
 71
     0
 91
        1
 92
        5
 93
        5
 72
     3
 10
49.00000000000005
 20
173.990244753767
 11
-5.0
 21
0.0
 40
0.5400000000000006
 50
102.6170915574609
 51
437.3829084425389
 73
     1
 72
     1
 10
48.4000000000001
 20
171.3097552462329
 11
48.4000000000001
 21
172.1097324484064
 72
     3
 10
49.00000000000005
 20
173.990244753767
 11
-4.200000000000001
 21
0.0
 40
0.4523809523809536
 50
-72.30409342292334
 51
209.8520372589858
 73
     0
 72
     1
 10
51.60000000000001
 20
172.4980731940195
 11
50.80000000000001
 21
173.690244753767
 72
     1
 10
50.80000000000007
 20
173.690244753767
 11
49.60000000000005
 21
171.3097552462329
 97
        0
 75
     0
 76
     1
 47
0.05
 98
        1
 10
49.75261369800961
 20
176.2611216350046
  0
MTEXT
  5
E8
330
2
100
AcDbEntity
  8
画層1
 62
     0
100
AcDbMText
 10
45.7
 20
164.03
 30
0.0
 40
4.0
 41
6.49
 71
     1
 72
     5
  1
GRP
  7
STYLE1
 73
     1
 44
1.0
1001
ACAD
1000
MTEXTBEGIN
1070
    73
1070
     1
1070
    44
1040
1.0
1070
    74
1070
     0
1000
MTEXTEND
  0
LINE
  5
E9
330
2
100
AcDbEntity
  8
画層1
 62
     0
100
AcDbLine
 10
39.5
 20
181.6499999999999
 30
0.0
 11
47.5
 21
181.6499999999999
 31
0.0
  0
LINE
  5
EA
330
2
100
AcDbEntity
  8
画層1
 62
     0
100
AcDbLine
 10
39.5
 20
182.3
 30
0.0
 11
47.5
 21
182.3
 31
0.0
  0
LINE
  5
EB
330
2
100
AcDbEntity
  8
画層1
 62
     0
100
AcDbLine
 10
39.5
 20
194.6999999999999
 30
0.0
 11
47.5
 21
194.6999999999999
 31
0.0
  0
LINE
  5
EC
330
2
100
AcDbEntity
  8
画層1
 62
     0
100
AcDbLine
 10
33.14999999999999
 20
180.9499999999999
 30
0.0
 11
63.42
 21
180.9499999999999
 31
0.0
  0
LINE
  5
ED
330
2
100
AcDbEntity
  8
画層1
 62
     0
100
AcDbLine
 10
31.23
 20
183.7899999999999
 30
0.0
 11
31.23
 21
166.8
 31
0.0
  0
LINE
  5
EE
330
2
100
AcDbEntity
  8
画層1
 62
     0
100
AcDbLine
 10
31.23
 20
166.83
 30
0.0
 11
31.23
 21
149.39
 31
0.0
  0
MTEXT
  5
EF
330
2
100
AcDbEntity
  8
画層1
 62
     0
100
AcDbMText
 10
35.90999999999999
 20
153.55
 30
0.0
 40
2.0
 41
11.18999999999999
 71
     1
 72
     5
  1
{\fＭＳ Ｐゴシック|b0|i0|c128|p50;ＦＰ９３}
  7
STYLE1
 73
     1
 44
1.0
1001
ACAD
1000
MTEXTBEGIN
1070
    73
1070
     1
1070
    44
1040
1.0
1070
    74
1070
     0
1000
MTEXTEND
  0
ARC
  5
F0
330
2
100
AcDbEntity
  8
画層1
 62
     0
100
AcDbCircle
 10
33.5
 20
150.5
 30
0.0
 40
0.6
100
AcDbArc
 50
180.0
 51
270.0
  0
ARC
  5
F1
330
2
100
AcDbEntity
  8
画層1
 62
     0
100
AcDbCircle
 10
33.6
 20
150.6
 30
0.0
 40
0.5
100
AcDbArc
 50
180.0
 51
270.0
  0
LINE
  5
F2
330
2
100
AcDbEntity
  8
画層1
 62
     0
100
AcDbLine
 10
31.23
 20
149.37
 30
0.0
 11
31.27
 21
149.0999999999999
 31
0.0
  0
LINE
  5
F3
330
2
100
AcDbEntity
  8
画層1
 62
     0
100
AcDbLine
 10
37.85
 20
183.3
 30
0.0
 11
37.85
 21
193.6999999999999
 31
0.0
  0
LINE
  5
F4
330
2
100
AcDbEntity
  8
画層1
 62
     0
100
AcDbLine
 10
38.5
 20
183.3
 30
0.0
 11
38.5
 21
193.6999999999999
 31
0.0
  0
ARC
  5
F5
330
2
100
AcDbEntity
  8
画層1
 62
     0
100
AcDbCircle
 10
39.5
 20
183.3
 30
0.0
 40
1.649999999999999
100
AcDbArc
 50
180.0
 51
270.0
  0
ARC
  5
F6
330
2
100
AcDbEntity
  8
画層1
 62
     0
100
AcDbCircle
 10
39.5
 20
183.3
 30
0.0
 40
1.0
100
AcDbArc
 50
180.0
 51
270.0
  0
HATCH
  5
F7
330
2
100
AcDbEntity
  8
画層1
 62
     0
100
AcDbHatch
 10
0.0
 20
0.0
 30
0.0
210
0.0
220
0.0
230
1.0
  2
SOLID
 70
     1
 71
     0
 91
        1
 92
        7
 72
     1
 73
     1
 93
        6
 10
71.36724339015905
 20
175.7070430666046
 42
0.5575365158350519
 10
71.18835795195912
 20
175.9964857857046
 42
0.0
 10
66.83557154745904
 20
175.9964857857046
 42
0.5575365158350514
 10
66.65668610925904
 20
175.7070430666046
 42
0.0
 10
68.83307931150909
 20
171.3542566621046
 42
0.6180339887498949
 10
69.19085018790906
 20
171.3542566621046
 42
0.0
 97
        0
 75
     0
 76
     1
 47
0.07
 98
        1
 10
69.37234845475433
 20
174.6282598172754
  0
MTEXT
  5
F8
330
2
100
AcDbEntity
  8
画層1
 62
     0
100
AcDbMText
 10
65.7
 20
164.03
 30
0.0
 40
4.0
 41
6.49
 71
     1
 72
     5
  1
PTN
  7
STYLE1
 73
     1
 44
1.0
1001
ACAD
1000
MTEXTBEGIN
1070
    73
1070
     1
1070
    44
1040
1.0
1070
    74
1070
     0
1000
MTEXTEND
  0
LINE
  5
F9
330
2
100
AcDbEntity
  8
画層1
 62
     0
100
AcDbLine
 10
52.5
 20
181.85
 30
0.0
 11
70.5
 21
181.85
 31
0.0
  0
LINE
  5
FA
330
2
100
AcDbEntity
  8
画層1
 62
     0
100
AcDbLine
 10
52.5
 20
194.5
 30
0.0
 11
70.5
 21
194.5
 31
0.0
  0
LINE
  5
FB
330
2
100
AcDbEntity
  8
画層1
 62
     0
100
AcDbLine
 10
52.5
 20
182.5
 30
0.0
 11
70.5
 21
182.5
 31
0.0
  0
LINE
  5
FC
330
2
100
AcDbEntity
  8
画層1
 62
     0
100
AcDbLine
 10
49.15
 20
193.6999999999999
 30
0.0
 11
49.15
 21
183.3
 31
0.0
  0
LINE
  5
FD
330
2
100
AcDbEntity
  8
画層1
 62
     0
100
AcDbLine
 10
48.5
 20
193.6999999999999
 30
0.0
 11
48.5
 21
183.3
 31
0.0
  0
ARC
  5
FE
330
2
100
AcDbEntity
  8
画層1
 62
     0
100
AcDbCircle
 10
52.5
 20
183.4999999999999
 30
0.0
 40
1.649999999999999
100
AcDbArc
 50
180.0
 51
270.0
  0
ARC
  5
FF
330
2
100
AcDbEntity
  8
画層1
 62
     0
100
AcDbCircle
 10
52.5
 20
183.4999999999999
 30
0.0
 40
1.0
100
AcDbArc
 50
180.0
 51
270.0
  0
ARC
  5
100
330
2
100
AcDbEntity
  8
画層1
 62
     0
100
AcDbCircle
 10
47.5
 20
183.3
 30
0.0
 40
1.649999999999999
100
AcDbArc
 50
270.0
 51
0.0
  0
ARC
  5
101
330
2
100
AcDbEntity
  8
画層1
 62
     0
100
AcDbCircle
 10
47.5
 20
183.3
 30
0.0
 40
1.0
100
AcDbArc
 50
270.0
 51
0.0
  0
LINE
  5
102
330
2
100
AcDbEntity
  8
画層1
 62
     0
100
AcDbLine
 10
50.85
 20
183.4999999999999
 30
0.0
 11
50.85
 21
193.5
 31
0.0
  0
LINE
  5
103
330
2
100
AcDbEntity
  8
画層1
 62
     0
100
AcDbLine
 10
51.5
 20
183.4999999999999
 30
0.0
 11
51.5
 21
193.5
 31
0.0
  0
ARC
  5
104
330
2
100
AcDbEntity
  8
画層1
 62
     0
100
AcDbCircle
 10
52.5
 20
193.5
 30
0.0
 40
1.0
100
AcDbArc
 50
90.0
 51
180.0
  0
LINE
  5
105
330
2
100
AcDbEntity
  8
画層1
 62
     0
100
AcDbLine
 10
74.5
 20
183.3
 30
0.0
 11
74.5
 21
193.6999999999999
 31
0.0
  0
ARC
  5
106
330
2
100
AcDbEntity
  8
画層1
 62
     0
100
AcDbCircle
 10
70.5
 20
183.4999999999999
 30
0.0
 40
1.649999999999999
100
AcDbArc
 50
270.0
 51
0.0
  0
ARC
  5
107
330
2
100
AcDbEntity
  8
画層1
 62
     0
100
AcDbCircle
 10
70.5
 20
183.4999999999999
 30
0.0
 40
1.0
100
AcDbArc
 50
270.0
 51
0.0
  0
ARC
  5
108
330
2
100
AcDbEntity
  8
画層1
 62
     0
100
AcDbCircle
 10
75.5
 20
183.3
 30
0.0
 40
1.0
100
AcDbArc
 50
180.0
 51
270.0
  0
ARC
  5
109
330
2
100
AcDbEntity
  8
画層1
 62
     0
100
AcDbCircle
 10
70.5
 20
193.5
 30
0.0
 40
1.0
100
AcDbArc
 50
0.0
 51
90.0
  0
LINE
  5
10A
330
2
100
AcDbEntity
  8
画層1
 62
     0
100
AcDbLine
 10
72.15
 20
193.5
 30
0.0
 11
72.15
 21
183.4999999999999
 31
0.0
  0
LINE
  5
10B
330
2
100
AcDbEntity
  8
画層1
 62
     0
100
AcDbLine
 10
71.5
 20
193.5
 30
0.0
 11
71.5
 21
183.4999999999999
 31
0.0
  0
MTEXT
  5
10C
330
2
100
AcDbEntity
  8
画層1
 62
     0
100
AcDbMText
 10
41.2
 20
238.3199999999999
 30
0.0
 40
2.799999999999999
 41
6.049999999999999
 71
     1
 72
     5
  1
\fＭＳ Ｐゴシック|b0|i0|c128|p50;ＰＶ
  7
STYLE1
 73
     1
 44
1.0
1001
ACAD
1000
MTEXTBEGIN
1070
    73
1070
     1
1070
    44
1040
1.0
1070
    74
1070
     0
1000
MTEXTEND
  0
LINE
  5
10D
330
2
100
AcDbEntity
  8
画層1
 62
     0
100
AcDbLine
 10
38.5
 20
233.4999999999999
 30
0.0
 11
38.5
 21
212.5
 31
0.0
  0
LINE
  5
10E
330
2
100
AcDbEntity
  8
画層1
 62
     0
100
AcDbLine
 10
31.18
 20
230.01
 30
0.0
 11
31.18
 21
217.1699999999999
 31
0.0
  0
LINE
  5
10F
330
2
100
AcDbEntity
  8
画層1
 62
     0
100
AcDbLine
 10
31.19
 20
217.2499999999999
 30
0.0
 11
31.23
 21
201.27
 31
0.0
  0
LINE
  5
110
330
2
100
AcDbEntity
  8
画層1
 62
     0
100
AcDbLine
 10
39.5
 20
195.35
 30
0.0
 11
40.4
 21
195.35
 31
0.0
  0
ARC
  5
111
330
2
100
AcDbEntity
  8
画層1
 62
     0
100
AcDbCircle
 10
39.5
 20
212.5
 30
0.0
 40
1.0
100
AcDbArc
 50
180.0
 51
270.0
  0
ARC
  5
112
330
2
100
AcDbEntity
  8
画層1
 62
     0
100
AcDbCircle
 10
39.5
 20
233.4999999999999
 30
0.0
 40
1.0
100
AcDbArc
 50
90.0
 51
180.0
  0
LINE
  5
113
102
{ACAD_REACTORS
330
115
102
}
330
2
100
AcDbEntity
  8
画層1
 62
     0
100
AcDbLine
 10
62.11999999999999
 20
207.2599999999999
 30
0.0
 11
62.42
 21
206.74
 31
0.0
  0
LINE
  5
114
102
{ACAD_REACTORS
330
115
102
}
330
2
100
AcDbEntity
  8
画層1
 62
     0
100
AcDbLine
 10
64.28
 20
208.5099999999999
 30
0.0
 11
62.11999999999999
 21
207.2599999999999
 31
0.0
  0
HATCH
  5
115
330
2
100
AcDbEntity
  8
画層1
 62
     0
100
AcDbHatch
 10
0.0
 20
0.0
 30
0.0
210
0.0
220
0.0
230
1.0
  2
SOLID
 70
     1
 71
     1
 91
        1
 92
        7
 72
     0
 73
     1
 93
        7
 10
65.73205080756894
 20
209.0
 10
64.03301270189228
 20
208.9428203230276
 10
64.28301270189227
 20
208.5098076211353
 10
62.11794919243118
 20
207.2598076211353
 10
62.41794919243118
 20
206.7401923788646
 10
64.5830127018923
 20
207.9901923788646
 10
64.83301270189226
 20
207.5571796769724
 97
        7
330
138
330
13B
330
114
330
113
330
13A
330
139
330
137
 75
     0
 76
     1
 47
0.03
 98
        1
 10
64.82879898168414
 20
208.4367282455052
  0
LINE
  5
116
330
2
100
AcDbEntity
  8
画層1
 62
     0
100
AcDbLine
 10
52.5
 20
195.15
 30
0.0
 11
57.6
 21
195.15
 31
0.0
  0
LINE
  5
117
330
2
100
AcDbEntity
  8
画層1
 62
     0
100
AcDbLine
 10
46.6
 20
195.35
 30
0.0
 11
47.5
 21
195.35
 31
0.0
  0
LINE
  5
118
330
2
100
AcDbEntity
  8
画層1
 62
     0
100
AcDbLine
 10
75.0
 20
206.77
 30
0.0
 11
77.59999999999999
 21
205.27
 31
0.0
  0
LINE
  5
119
330
2
100
AcDbEntity
  8
画層1
 62
     0
100
AcDbLine
 10
62.4
 20
205.27
 30
0.0
 11
65.0
 21
206.77
 31
0.0
  0
LINE
  5
11A
330
2
100
AcDbEntity
  8
画層1
 62
     0
100
AcDbLine
 10
65.0
 20
206.77
 30
0.0
 11
65.59999999999999
 21
205.73
 31
0.0
  0
LINE
  5
11B
330
2
100
AcDbEntity
  8
画層1
 62
     0
100
AcDbLine
 10
74.40000000000001
 20
205.73
 30
0.0
 11
75.0
 21
206.77
 31
0.0
  0
LINE
  5
11C
330
2
100
AcDbEntity
  8
画層1
 62
     0
100
AcDbLine
 10
68.5
 20
199.6
 30
0.0
 11
71.5
 21
199.6
 31
0.0
  0
LINE
  5
11D
330
2
100
AcDbEntity
  8
画層1
 62
     0
100
AcDbLine
 10
71.5
 20
198.4
 30
0.0
 11
68.5
 21
198.4
 31
0.0
  0
LINE
  5
11E
330
2
100
AcDbEntity
  8
画層1
 62
     0
100
AcDbLine
 10
68.5
 20
206.0999999999999
 30
0.0
 11
71.5
 21
206.0999999999999
 31
0.0
  0
LINE
  5
11F
330
2
100
AcDbEntity
  8
画層1
 62
     0
100
AcDbLine
 10
71.5
 20
204.8999999999999
 30
0.0
 11
68.5
 21
204.8999999999999
 31
0.0
  0
MTEXT
  5
120
330
2
100
AcDbEntity
  8
画層1
 62
     0
100
AcDbMText
 10
68.3
 20
202.38
 30
0.0
 40
1.8
 41
4.669999999999999
 71
     1
 72
     5
  1
MAN
  7
STYLE1
 73
     1
 44
1.0
1001
ACAD
1000
MTEXTBEGIN
1070
    73
1070
     1
1070
    44
1040
1.0
1070
    74
1070
     0
1000
MTEXTEND
  0
MTEXT
  5
121
330
2
100
AcDbEntity
  8
画層1
 62
     0
100
AcDbMText
 10
62.98
 20
202.38
 30
0.0
 40
1.8
 41
3.089999999999999
 71
     1
 72
     5
  1
AT
  7
STYLE1
 73
     1
 44
1.0
1001
ACAD
1000
MTEXTBEGIN
1070
    73
1070
     1
1070
    44
1040
1.0
1070
    74
1070
     0
1000
MTEXTEND
  0
LINE
  5
122
330
2
100
AcDbEntity
  8
画層1
 62
     0
100
AcDbLine
 10
65.4
 20
195.15
 30
0.0
 11
70.5
 21
195.15
 31
0.0
  0
LINE
  5
123
330
2
100
AcDbEntity
  8
画層1
 62
     0
100
AcDbLine
 10
65.5
 20
198.4
 30
0.0
 11
62.5
 21
198.4
 31
0.0
  0
LINE
  5
124
330
2
100
AcDbEntity
  8
画層1
 62
     0
100
AcDbLine
 10
62.5
 20
199.6
 30
0.0
 11
65.5
 21
199.6
 31
0.0
  0
LINE
  5
125
330
2
100
AcDbEntity
  8
画層1
 62
     0
100
AcDbLine
 10
62.5
 20
198.4
 30
0.0
 11
62.5
 21
199.6
 31
0.0
  0
LINE
  5
126
330
2
100
AcDbEntity
  8
画層1
 62
     0
100
AcDbLine
 10
65.5
 20
199.6
 30
0.0
 11
65.5
 21
198.4
 31
0.0
  0
LINE
  5
127
330
2
100
AcDbEntity
  8
画層1
 62
     0
100
AcDbLine
 10
68.5
 20
198.4
 30
0.0
 11
68.5
 21
199.6
 31
0.0
  0
LINE
  5
128
330
2
100
AcDbEntity
  8
画層1
 62
     0
100
AcDbLine
 10
65.59999999999999
 20
205.73
 30
0.0
 11
63.0
 21
204.23
 31
0.0
  0
LINE
  5
129
330
2
100
AcDbEntity
  8
画層1
 62
     0
100
AcDbLine
 10
63.0
 20
204.23
 30
0.0
 11
62.4
 21
205.27
 31
0.0
  0
LINE
  5
12A
330
2
100
AcDbEntity
  8
画層1
 62
     0
100
AcDbLine
 10
68.5
 20
204.8999999999999
 30
0.0
 11
68.5
 21
206.0999999999999
 31
0.0
  0
MTEXT
  5
12B
330
2
100
AcDbEntity
  8
画層1
 62
     0
100
AcDbMText
 10
74.59999999999999
 20
202.38
 30
0.0
 40
1.8
 41
3.709999999999999
 71
     1
 72
     5
  1
EV1
  7
STYLE1
 73
     1
 44
1.0
1001
ACAD
1000
MTEXTBEGIN
1070
    73
1070
     1
1070
    44
1040
1.0
1070
    74
1070
     0
1000
MTEXTEND
  0
LINE
  5
12C
330
2
100
AcDbEntity
  8
画層1
 62
     0
100
AcDbLine
 10
77.5
 20
198.4
 30
0.0
 11
74.5
 21
198.4
 31
0.0
  0
LINE
  5
12D
330
2
100
AcDbEntity
  8
画層1
 62
     0
100
AcDbLine
 10
74.5
 20
199.6
 30
0.0
 11
77.5
 21
199.6
 31
0.0
  0
LINE
  5
12E
330
2
100
AcDbEntity
  8
画層1
 62
     0
100
AcDbLine
 10
74.5
 20
198.4
 30
0.0
 11
74.5
 21
199.6
 31
0.0
  0
LINE
  5
12F
330
2
100
AcDbEntity
  8
画層1
 62
     0
100
AcDbLine
 10
71.5
 20
199.6
 30
0.0
 11
71.5
 21
198.4
 31
0.0
  0
LINE
  5
130
330
2
100
AcDbEntity
  8
画層1
 62
     0
100
AcDbLine
 10
77.5
 20
199.6
 30
0.0
 11
77.5
 21
198.4
 31
0.0
  0
LINE
  5
131
330
2
100
AcDbEntity
  8
画層1
 62
     0
100
AcDbLine
 10
77.0
 20
204.23
 30
0.0
 11
74.40000000000001
 21
205.73
 31
0.0
  0
LINE
  5
132
330
2
100
AcDbEntity
  8
画層1
 62
     0
100
AcDbLine
 10
71.5
 20
206.0999999999999
 30
0.0
 11
71.5
 21
204.8999999999999
 31
0.0
  0
LINE
  5
133
330
2
100
AcDbEntity
  8
画層1
 62
     0
100
AcDbLine
 10
77.59999999999999
 20
205.27
 30
0.0
 11
77.0
 21
204.23
 31
0.0
  0
LINE
  5
134
102
{ACAD_REACTORS
330
136
102
}
330
2
100
AcDbEntity
  8
画層1
 62
     0
100
AcDbLine
 10
72.0
 20
208.0
 30
0.0
 11
70.5
 21
207.2
 31
0.0
  0
LINE
  5
135
102
{ACAD_REACTORS
330
136
102
}
330
2
100
AcDbEntity
  8
画層1
 62
     0
100
AcDbLine
 10
72.0
 20
208.0
 30
0.0
 11
70.5
 21
208.8
 31
0.0
  0
HATCH
  5
136
330
2
100
AcDbEntity
  8
画層1
 62
     0
100
AcDbHatch
 10
0.0
 20
0.0
 30
0.0
210
0.0
220
0.0
230
1.0
  2
SOLID
 70
     1
 71
     1
 91
        1
 92
        7
 72
     0
 73
     1
 93
        7
 10
70.50000000000007
 20
208.8
 10
70.50000000000007
 20
208.3
 10
68.00000000000007
 20
208.3
 10
68.00000000000007
 20
207.6999999999999
 10
70.50000000000007
 20
207.6999999999999
 10
70.50000000000007
 20
207.1999999999999
 10
72.00000000000007
 20
208.0
 97
        7
330
13F
330
13C
330
140
330
13D
330
13E
330
134
330
135
 75
     0
 76
     1
 47
0.03
 98
        1
 10
70.58171310340822
 20
208.0439848257228
  0
LINE
  5
137
102
{ACAD_REACTORS
330
115
102
}
330
2
100
AcDbEntity
  8
画層1
 62
     0
100
AcDbLine
 10
65.73
 20
209.0
 30
0.0
 11
64.83
 21
207.56
 31
0.0
  0
LINE
  5
138
102
{ACAD_REACTORS
330
115
102
}
330
2
100
AcDbEntity
  8
画層1
 62
     0
100
AcDbLine
 10
65.73
 20
209.0
 30
0.0
 11
64.03
 21
208.9399999999999
 31
0.0
  0
LINE
  5
139
102
{ACAD_REACTORS
330
115
102
}
330
2
100
AcDbEntity
  8
画層1
 62
     0
100
AcDbLine
 10
64.83
 20
207.56
 30
0.0
 11
64.58
 21
207.99
 31
0.0
  0
LINE
  5
13A
102
{ACAD_REACTORS
330
115
102
}
330
2
100
AcDbEntity
  8
画層1
 62
     0
100
AcDbLine
 10
62.42
 20
206.74
 30
0.0
 11
64.58
 21
207.99
 31
0.0
  0
LINE
  5
13B
102
{ACAD_REACTORS
330
115
102
}
330
2
100
AcDbEntity
  8
画層1
 62
     0
100
AcDbLine
 10
64.03
 20
208.9399999999999
 30
0.0
 11
64.28
 21
208.5099999999999
 31
0.0
  0
LINE
  5
13C
102
{ACAD_REACTORS
330
136
102
}
330
2
100
AcDbEntity
  8
画層1
 62
     0
100
AcDbLine
 10
70.5
 20
208.3
 30
0.0
 11
68.0
 21
208.3
 31
0.0
  0
LINE
  5
13D
102
{ACAD_REACTORS
330
136
102
}
330
2
100
AcDbEntity
  8
画層1
 62
     0
100
AcDbLine
 10
68.0
 20
207.6999999999999
 30
0.0
 11
70.5
 21
207.6999999999999
 31
0.0
  0
LINE
  5
13E
102
{ACAD_REACTORS
330
136
102
}
330
2
100
AcDbEntity
  8
画層1
 62
     0
100
AcDbLine
 10
70.5
 20
207.2
 30
0.0
 11
70.5
 21
207.6999999999999
 31
0.0
  0
LINE
  5
13F
102
{ACAD_REACTORS
330
136
102
}
330
2
100
AcDbEntity
  8
画層1
 62
     0
100
AcDbLine
 10
70.5
 20
208.8
 30
0.0
 11
70.5
 21
208.3
 31
0.0
  0
LINE
  5
140
102
{ACAD_REACTORS
330
136
102
}
330
2
100
AcDbEntity
  8
画層1
 62
     0
100
AcDbLine
 10
68.0
 20
208.3
 30
0.0
 11
68.0
 21
207.6999999999999
 31
0.0
  0
LINE
  5
141
102
{ACAD_REACTORS
330
143
102
}
330
2
100
AcDbEntity
  8
画層1
 62
     0
100
AcDbLine
 10
74.12
 20
208.74
 30
0.0
 11
76.28
 21
207.4899999999999
 31
0.0
  0
LINE
  5
142
102
{ACAD_REACTORS
330
143
102
}
330
2
100
AcDbEntity
  8
画層1
 62
     0
100
AcDbLine
 10
76.58
 20
208.0099999999999
 30
0.0
 11
74.42
 21
209.26
 31
0.0
  0
HATCH
  5
143
330
2
100
AcDbEntity
  8
画層1
 62
     0
100
AcDbHatch
 10
0.0
 20
0.0
 30
0.0
210
0.0
220
0.0
230
1.0
  2
SOLID
 70
     1
 71
     1
 91
        1
 92
        7
 72
     0
 73
     1
 93
        7
 10
76.83301270189232
 20
208.4428203230274
 10
76.58301270189233
 20
208.0098076211353
 10
74.41794919243121
 20
209.2598076211353
 10
74.11794919243118
 20
208.7401923788646
 10
76.28301270189226
 20
207.4901923788646
 10
76.03301270189231
 20
207.0571796769725
 10
77.73205080756892
 20
207.0
 97
        7
330
148
330
142
330
144
330
141
330
147
330
145
330
146
 75
     0
 76
     1
 47
0.03
 98
        1
 10
76.55913230454451
 20
207.6231883999025
  0
LINE
  5
144
102
{ACAD_REACTORS
330
143
102
}
330
2
100
AcDbEntity
  8
画層1
 62
     0
100
AcDbLine
 10
74.42
 20
209.26
 30
0.0
 11
74.12
 21
208.74
 31
0.0
  0
LINE
  5
145
102
{ACAD_REACTORS
330
143
102
}
330
2
100
AcDbEntity
  8
画層1
 62
     0
100
AcDbLine
 10
77.73
 20
207.0
 30
0.0
 11
76.03
 21
207.06
 31
0.0
  0
LINE
  5
146
102
{ACAD_REACTORS
330
143
102
}
330
2
100
AcDbEntity
  8
画層1
 62
     0
100
AcDbLine
 10
77.73
 20
207.0
 30
0.0
 11
76.82999999999999
 21
208.44
 31
0.0
  0
LINE
  5
147
102
{ACAD_REACTORS
330
143
102
}
330
2
100
AcDbEntity
  8
画層1
 62
     0
100
AcDbLine
 10
76.03
 20
207.06
 30
0.0
 11
76.28
 21
207.4899999999999
 31
0.0
  0
LINE
  5
148
102
{ACAD_REACTORS
330
143
102
}
330
2
100
AcDbEntity
  8
画層1
 62
     0
100
AcDbLine
 10
76.82999999999999
 20
208.44
 30
0.0
 11
76.58
 21
208.0099999999999
 31
0.0
  0
LINE
  5
149
330
2
100
AcDbEntity
  8
画層1
 62
     0
100
AcDbLine
 10
49.64
 20
243.84
 30
0.0
 11
32.14999999999999
 21
243.84
 31
0.0
  0
LINE
  5
14A
330
2
100
AcDbEntity
  8
画層1
 62
     0
100
AcDbLine
 10
31.0
 20
254.0
 30
0.0
 11
31.0
 21
244.0
 31
0.0
  0
LINE
  5
14B
330
2
100
AcDbEntity
  8
画層1
 62
     0
100
AcDbLine
 10
33.2
 20
244.3499999999999
 30
0.0
 11
37.0
 21
244.3499999999999
 31
0.0
  0
LINE
  5
14C
330
2
100
AcDbEntity
  8
画層1
 62
     0
100
AcDbLine
 10
33.2
 20
244.7
 30
0.0
 11
37.0
 21
244.7
 31
0.0
  0
LINE
  5
14D
330
2
100
AcDbEntity
  8
画層1
 62
     0
100
AcDbLine
 10
33.2
 20
245.05
 30
0.0
 11
37.0
 21
245.05
 31
0.0
  0
LINE
  5
14E
330
2
100
AcDbEntity
  8
画層1
 62
     0
100
AcDbLine
 10
33.2
 20
245.4
 30
0.0
 11
37.0
 21
245.4
 31
0.0
  0
LINE
  5
14F
330
2
100
AcDbEntity
  8
画層1
 62
     0
100
AcDbLine
 10
33.2
 20
245.75
 30
0.0
 11
37.0
 21
245.75
 31
0.0
  0
LINE
  5
150
330
2
100
AcDbEntity
  8
画層1
 62
     0
100
AcDbLine
 10
33.2
 20
246.0999999999999
 30
0.0
 11
37.0
 21
246.0999999999999
 31
0.0
  0
LINE
  5
151
330
2
100
AcDbEntity
  8
画層1
 62
     0
100
AcDbLine
 10
33.2
 20
246.45
 30
0.0
 11
37.0
 21
246.45
 31
0.0
  0
ARC
  5
152
330
2
100
AcDbEntity
  8
画層1
 62
     0
100
AcDbCircle
 10
32.1
 20
242.9
 30
0.0
 40
1.1
100
AcDbArc
 50
90.0
 51
180.0
  0
LINE
  5
153
330
2
100
AcDbEntity
  8
画層1
 62
     0
100
AcDbLine
 10
33.2
 20
244.0
 30
0.0
 11
33.2
 21
246.45
 31
0.0
  0
ARC
  5
154
330
2
100
AcDbEntity
  8
画層1
 62
     0
100
AcDbCircle
 10
32.1
 20
242.9
 30
0.0
 40
1.0
100
AcDbArc
 50
90.0
 51
180.0
  0
ARC
  5
155
330
2
100
AcDbEntity
  8
画層1
 62
     0
100
AcDbCircle
 10
33.5
 20
241.5
 30
0.0
 40
0.6
100
AcDbArc
 50
90.0
 51
180.0
  0
ARC
  5
156
330
2
100
AcDbEntity
  8
画層1
 62
     0
100
AcDbCircle
 10
33.6
 20
241.4
 30
0.0
 40
0.5
100
AcDbArc
 50
90.0
 51
180.0
  0
LINE
  5
157
330
2
100
AcDbEntity
  8
画層1
 62
     0
100
AcDbLine
 10
32.14999999999999
 20
243.84
 30
0.0
 11
31.48
 21
243.57
 31
0.0
  0
LINE
  5
158
330
2
100
AcDbEntity
  8
画層1
 62
     0
100
AcDbLine
 10
31.48
 20
243.57
 30
0.0
 11
31.18
 21
242.9
 31
0.0
  0
LINE
  5
159
330
2
100
AcDbEntity
  8
画層1
 62
     0
100
AcDbLine
 10
37.0
 20
246.45
 30
0.0
 11
37.0
 21
244.0
 31
0.0
  0
LINE
  5
15A
330
2
100
AcDbEntity
  8
画層1
 62
     0
100
AcDbLine
 10
44.0
 20
244.0
 30
0.0
 11
44.0
 21
243.9
 31
0.0
  0
LINE
  5
15B
330
2
100
AcDbEntity
  8
画層1
 62
     0
100
AcDbLine
 10
42.0
 20
244.0
 30
0.0
 11
42.0
 21
243.9
 31
0.0
  0
LINE
  5
15C
330
2
100
AcDbEntity
  8
画層1
 62
     0
100
AcDbLine
 10
75.26
 20
243.84
 30
0.0
 11
49.64
 21
243.84
 31
0.0
  0
LINE
  5
15D
330
2
100
AcDbEntity
  8
画層1
 62
     0
100
AcDbLine
 10
54.0
 20
244.0
 30
0.0
 11
54.0
 21
243.9
 31
0.0
  0
LINE
  5
15E
330
2
100
AcDbEntity
  8
画層1
 62
     0
100
AcDbLine
 10
56.0
 20
244.0
 30
0.0
 11
56.0
 21
243.9
 31
0.0
  0
LINE
  5
15F
330
2
100
AcDbEntity
  8
画層1
 62
     0
100
AcDbLine
 10
127.0
 20
242.9
 30
0.0
 11
127.0
 21
149.0999999999999
 31
0.0
  0
LINE
  5
160
330
2
100
AcDbEntity
  8
画層1
 62
     0
100
AcDbLine
 10
126.9
 20
242.9
 30
0.0
 11
126.9
 21
149.0999999999999
 31
0.0
  0
LINE
  5
161
330
2
100
AcDbEntity
  8
画層1
 62
     0
100
AcDbLine
 10
125.0999999999999
 20
241.5
 30
0.0
 11
125.0999999999999
 21
150.5
 31
0.0
  0
LINE
  5
162
330
2
100
AcDbEntity
  8
画層1
 62
     0
100
AcDbLine
 10
154.0
 20
244.0
 30
0.0
 11
154.0
 21
196.0
 31
0.0
  0
LINE
  5
163
330
2
100
AcDbEntity
  8
画層1
 62
     0
100
AcDbLine
 10
162.0999999999999
 20
241.8
 30
0.0
 11
162.0999999999999
 21
150.1999999999999
 31
0.0
  0
ARC
  5
164
330
2
100
AcDbEntity
  8
画層1
 62
     0
100
AcDbCircle
 10
183.74
 20
271.7999999999999
 30
0.0
 40
32.0
100
AcDbArc
 50
239.7499999999999
 51
269.74
  0
ARC
  5
165
330
2
100
AcDbEntity
  8
画層1
 62
     0
100
AcDbCircle
 10
183.9499999999999
 20
273.1999999999999
 30
0.0
 40
31.40248406519245
100
AcDbArc
 50
238.4099999999999
 51
269.37
  0
LINE
  5
166
330
2
100
AcDbEntity
  8
画層1
 62
     0
100
AcDbLine
 10
171.0
 20
241.8
 30
0.0
 11
171.0
 21
239.5999999999999
 31
0.0
  0
LINE
  5
167
330
2
100
AcDbEntity
  8
画層1
 62
     0
100
AcDbLine
 10
192.5
 20
237.8
 30
0.0
 11
190.0
 21
241.8
 31
0.0
  0
LINE
  5
168
330
2
100
AcDbEntity
  8
画層1
 62
     0
100
AcDbLine
 10
192.5
 20
241.8
 30
0.0
 11
192.5
 21
237.8
 31
0.0
  0
LINE
  5
169
330
2
100
AcDbEntity
  8
画層1
 62
     0
100
AcDbLine
 10
151.0
 20
242.7
 30
0.0
 11
151.0
 21
149.3
 31
0.0
  0
LINE
  5
16A
330
2
100
AcDbEntity
  8
画層1
 62
     0
100
AcDbLine
 10
124.9
 20
241.4
 30
0.0
 11
124.9
 21
150.6
 31
0.0
  0
LINE
  5
16B
330
2
100
AcDbEntity
  8
画層1
 62
     0
100
AcDbLine
 10
151.24
 20
242.5699999999999
 30
0.0
 11
151.24
 21
204.7899999999999
 31
0.0
  0
LINE
  5
16C
330
2
100
AcDbEntity
  8
画層1
 62
     0
100
AcDbLine
 10
162.02
 20
235.2599999999999
 30
0.0
 11
161.9399999999999
 21
243.71
 31
0.0
  0
LINE
  5
16D
330
2
100
AcDbEntity
  8
画層1
 62
     0
100
AcDbLine
 10
172.75
 20
241.8099999999999
 30
0.0
 11
176.28
 21
240.8799999999999
 31
0.0
  0
LINE
  5
16E
330
2
100
AcDbEntity
  8
画層1
 62
     0
100
AcDbLine
 10
126.8299999999999
 20
237.0
 30
0.0
 11
126.8299999999999
 21
242.87
 31
0.0
  0
ARC
  5
16F
330
2
100
AcDbEntity
  8
画層1
 62
     0
100
AcDbCircle
 10
113.5
 20
193.6999999999999
 30
0.0
 40
1.0
100
AcDbArc
 50
0.0
 51
90.0
  0
LINE
  5
170
330
2
100
AcDbEntity
  8
画層1
 62
     0
100
AcDbLine
 10
126.8299999999999
 20
192.22
 30
0.0
 11
126.8299999999999
 21
206.9199999999999
 31
0.0
  0
HATCH
  5
171
330
2
100
AcDbEntity
  8
画層1
 62
     0
100
AcDbHatch
 10
0.0
 20
0.0
 30
0.0
210
0.0
220
0.0
230
1.0
  2
SOLID
 70
     1
 71
     0
 91
       10
 92
        5
 93
       10
 72
     3
 10
101.8323247680428
 20
152.1533393342756
 11
-0.982456140350877
 21
0.0
 40
0.6607142857142858
 50
90.0
 51
270.0
 73
     1
 72
     2
 10
101.8323247680428
 20
152.9077252991879
 40
0.1052631578947376
 50
89.99999999999628
 51
269.9999999999955
 73
     0
 72
     2
 10
101.8953828022922
 20
151.6590053478377
 40
1.355450691026425
 50
267.3335335883713
 51
296.4437824908838
 73
     0
 72
     1
 10
102.4989914347095
 20
152.8726375798896
 11
102.6393423119025
 21
153.1884270535739
 72
     2
 10
101.7807974864591
 20
151.5439054855711
 40
1.855141613171803
 50
62.43257811529774
 51
90.5759553231079
 73
     1
 72
     3
 10
101.7621493294464
 20
152.7498305623458
 11
0.9558248242604051
 21
0.0
 40
0.6791231934364329
 50
90.0
 51
270.0
 73
     1
 72
     2
 10
101.7621493294464
 20
151.9954445974335
 40
0.1052631578947376
 50
270.0000000000023
 51
450.0000000000031
 73
     0
 72
     2
 10
101.6724756110553
 20
153.7225146019691
 40
1.834526149694269
 50
87.1982008190587
 51
115.4216641289815
 73
     0
 72
     1
 10
100.8849563469902
 20
152.0656200360299
 11
100.709517750499
 21
151.7498305623458
 72
     2
 10
101.7568491147718
 20
153.8484080270911
 40
2.345406225396101
 50
243.4777171338575
 51
271.8441083094921
 73
     1
 97
        0
 92
        7
 72
     0
 73
     1
 93
       12
 10
105.4112721364639
 20
153.3638656500651
 10
104.4989914347094
 20
153.3638656500651
 10
104.4989914347094
 20
152.6971989833985
 10
103.9375879259377
 20
152.6971989833985
 10
103.9375879259377
 20
153.3638656500651
 10
103.0253072241831
 20
153.3638656500651
 10
103.0253072241831
 20
151.5393042465564
 10
103.9375879259377
 20
151.5393042465564
 10
103.9375879259377
 20
152.205970913223
 10
104.4989914347094
 20
152.205970913223
 10
104.4989914347094
 20
151.5393042465564
 10
105.4112721364639
 20
151.5393042465563
 97
        0
 92
        7
 72
     0
 73
     1
 93
        4
 10
106.6042545926042
 20
153.3638656500651
 10
105.6919738908497
 20
153.3638656500651
 10
105.6919738908497
 20
151.5393042465564
 10
106.6042545926042
 20
151.5393042465563
 97
        0
 92
        7
 72
     0
 73
     1
 93
       13
 10
109.6919738908499
 20
153.3638656500651
 10
108.8498686276919
 20
153.3638656500651
 10
108.4639037154113
 20
152.5919358255037
 10
108.148114241727
 20
153.3638656500651
 10
107.1656581013762
 20
153.3638656500651
 10
106.8498686276919
 20
151.5393042465564
 10
107.7270616101482
 20
151.5393042465564
 10
107.8323247680428
 20
152.1357954746266
 10
108.148114241727
 20
151.5393042465564
 10
108.7095177504989
 20
151.5393042465564
 10
108.990219504885
 20
152.1357954746265
 10
109.130570382078
 20
151.5393042465564
 10
110.007763364534
 20
151.5393042465564
 97
        0
 92
        7
 72
     0
 73
     1
 93
        8
 10
112.148114241727
 20
153.3638656500651
 10
111.0954826627796
 20
153.3638656500651
 10
110.2533773996217
 20
151.5393042465563
 10
111.1656581013762
 20
151.5393042465564
 10
111.3177048850019
 20
151.8901814395388
 10
111.9726756452358
 20
151.8901814395388
 10
112.148114241727
 20
151.5393042465564
 10
112.990219504885
 20
151.5393042465564
 97
        0
 92
       22
 72
     0
 73
     1
 93
        3
 10
111.4545469902651
 20
152.205970913223
 10
111.6217984522533
 20
152.5919358255037
 10
111.8147809083938
 20
152.205970913223
 97
        0
 92
        7
 72
     1
 73
     1
 93
        4
 10
114.8498686276919
 20
153.3638656500651
 42
0.0
 10
113.2358335399727
 20
153.3638656500651
 42
0.0
 10
113.2358335399727
 20
151.5393042465564
 42
0.0
 10
114.8498686276919
 20
151.5393042465564
 42
1.0
 97
        0
 92
       22
 72
     1
 73
     1
 93
        4
 10
114.148114241727
 20
152.9077252991879
 42
0.0
 10
114.3586405575164
 20
152.9077252991879
 42
-1.0
 10
114.3586405575164
 20
151.9954445974335
 42
0.0
 10
114.148114241727
 20
151.9954445974335
 42
0.0
 97
        0
 92
        7
 72
     0
 73
     1
 93
       12
 10
116.9200440662885
 20
152.205970913223
 10
117.727061610148
 20
152.205970913223
 10
117.727061610148
 20
152.6971989833985
 10
116.9200440662885
 20
152.6971989833985
 10
116.9200440662885
 20
152.9779007377844
 10
117.867412487341
 20
152.9779007377844
 10
117.867412487341
 20
153.3638656500651
 10
115.9726756452359
 20
153.3638656500651
 10
115.9726756452359
 20
151.5393042465564
 10
117.867412487341
 20
151.5393042465563
 10
117.867412487341
 20
151.9252691588369
 10
116.9200440662885
 20
151.9252691588369
 97
        0
 92
        7
 72
     0
 73
     1
 93
       10
 10
119.0253072241832
 20
152.3814095097141
 10
119.867412487341
 20
151.5393042465563
 10
120.849868627692
 20
151.5393042465564
 10
120.849868627692
 20
153.3638656500651
 10
119.9375879259376
 20
153.3638656500651
 10
119.9375879259376
 20
152.5919358255037
 10
119.1656581013762
 20
153.3638656500651
 10
118.1130265224289
 20
153.3638656500651
 10
118.1130265224289
 20
151.5393042465564
 10
119.0253072241832
 20
151.5393042465564
 97
        0
 75
     0
 76
     1
 47
0.31
 98
       10
 10
102.0344757936733
 20
152.2287189057266
 10
103.3323978513916
 20
152.3783405173938
 10
106.3775227854991
 20
152.3284666261299
 10
107.4258444652331
 20
152.1788450144627
 10
110.820409882419
 20
152.1289711231988
 10
110.820409882419
 20
152.1289711231988
 10
113.6658544910894
 20
152.0790972940594
 10
113.6658544910894
 20
152.0790972940594
 10
116.2616986065259
 20
152.1289711231988
 10
118.5580222914311
 20
152.1289711231988
  0
MTEXT
  5
172
330
2
100
AcDbEntity
  8
画層1
 62
     0
100
AcDbMText
 10
105.6999999999999
 20
176.0299999999999
 30
0.0
 40
4.0
 41
6.49
 71
     1
 72
     5
  1
ENT
  7
STYLE1
 73
     1
 44
1.0
1001
ACAD
1000
MTEXTBEGIN
1070
    73
1070
     1
1070
    44
1040
1.0
1070
    74
1070
     0
1000
MTEXTEND
  0
MTEXT
  5
173
330
2
100
AcDbEntity
  8
画層1
 62
     0
100
AcDbMText
 10
109.8
 20
161.63
 30
0.0
 40
2.6
 41
6.49
 71
     1
 72
     5
  1
RST
  7
STYLE1
 73
     1
 44
1.0
1001
ACAD
1000
MTEXTBEGIN
1070
    73
1070
     1
1070
    44
1040
1.0
1070
    74
1070
     0
1000
MTEXTEND
  0
LINE
  5
174
330
2
100
AcDbEntity
  8
画層1
 62
     0
100
AcDbLine
 10
112.5
 20
164.5599999999999
 30
0.0
 11
105.4999999999999
 21
159.44
 31
0.0
  0
LINE
  5
175
330
2
100
AcDbEntity
  8
画層1
 62
     0
100
AcDbLine
 10
96.44
 20
180.9499999999999
 30
0.0
 11
124.87
 21
180.9499999999999
 31
0.0
  0
MTEXT
  5
176
330
2
100
AcDbEntity
  8
画層1
 62
     0
100
AcDbMText
 10
84.06
 20
164.03
 30
0.0
 40
4.0
 41
6.49
 71
     1
 72
     5
  1
STEP
  7
STYLE1
 73
     1
 44
1.0
1001
ACAD
1000
MTEXTBEGIN
1070
    73
1070
     1
1070
    44
1040
1.0
1070
    74
1070
     0
1000
MTEXTEND
  0
MTEXT
  5
177
330
2
100
AcDbEntity
  8
画層1
 62
     0
100
AcDbMText
 10
103.4999999999999
 20
165.03
 30
0.0
 40
2.6
 41
6.49
 71
     1
 72
     5
  1
RUN
  7
STYLE1
 73
     1
 44
1.0
1001
ACAD
1000
MTEXTBEGIN
1070
    73
1070
     1
1070
    44
1040
1.0
1070
    74
1070
     0
1000
MTEXTEND
  0
HATCH
  5
178
330
2
100
AcDbEntity
  8
画層1
 62
     0
100
AcDbHatch
 10
0.0
 20
0.0
 30
0.0
210
0.0
220
0.0
230
1.0
  2
SOLID
 70
     1
 71
     0
 91
        1
 92
        7
 72
     1
 73
     1
 93
        6
 10
91.26923387421673
 20
172.3376052553736
 42
-0.5575365158350519
 10
91.09034843601682
 20
172.0481625362735
 42
0.0
 10
86.73756203151674
 20
172.0481625362735
 42
-0.5575365158350514
 10
86.55867659331676
 20
172.3376052553736
 42
0.0
 10
88.73506979556678
 20
176.6903916598735
 42
-0.6180339887498949
 10
89.09284067196677
 20
176.6903916598735
 42
0.0
 97
        0
 75
     0
 76
     1
 47
0.07
 98
        1
 10
89.27433893881206
 20
173.4163885047028
  0
LINE
  5
179
330
2
100
AcDbEntity
  8
画層1
 62
     0
100
AcDbLine
 10
126.8299999999999
 20
161.9699999999999
 30
0.0
 11
126.8299999999999
 21
177.13
 31
0.0
  0
LINE
  5
17A
330
2
100
AcDbEntity
  8
画層1
 62
     0
100
AcDbLine
 10
126.8299999999999
 20
149.1699999999999
 30
0.0
 11
126.8299999999999
 21
161.9699999999999
 31
0.0
  0
ARC
  5
17B
330
2
100
AcDbEntity
  8
画層1
 62
     0
100
AcDbCircle
 10
124.5
 20
150.5
 30
0.0
 40
0.6
100
AcDbArc
 50
270.0
 51
0.0
  0
ARC
  5
17C
330
2
100
AcDbEntity
  8
画層1
 62
     0
100
AcDbCircle
 10
124.3999999999999
 20
150.6
 30
0.0
 40
0.5
100
AcDbArc
 50
270.0
 51
0.0
  0
LINE
  5
17D
330
2
100
AcDbEntity
  8
画層1
 62
     0
100
AcDbLine
 10
114.5
 20
193.6999999999999
 30
0.0
 11
114.5
 21
183.3
 31
0.0
  0
LINE
  5
17E
330
2
100
AcDbEntity
  8
画層1
 62
     0
100
AcDbLine
 10
126.8299999999999
 20
177.13
 30
0.0
 11
126.8299999999999
 21
192.22
 31
0.0
  0
ARC
  5
17F
330
2
100
AcDbEntity
  8
画層1
 62
     0
100
AcDbCircle
 10
113.5
 20
183.3
 30
0.0
 40
1.0
100
AcDbArc
 50
270.0
 51
0.0
  0
LINE
  5
180
330
2
100
AcDbEntity
  8
画層1
 62
     0
100
AcDbLine
 10
110.4999999999999
 20
206.0999999999999
 30
0.0
 11
113.5
 21
206.0999999999999
 31
0.0
  0
LINE
  5
181
330
2
100
AcDbEntity
  8
画層1
 62
     0
100
AcDbLine
 10
113.5
 20
204.8999999999999
 30
0.0
 11
110.4999999999999
 21
204.8999999999999
 31
0.0
  0
LINE
  5
182
330
2
100
AcDbEntity
  8
画層1
 62
     0
100
AcDbLine
 10
113.5
 20
198.4
 30
0.0
 11
110.4999999999999
 21
198.4
 31
0.0
  0
LINE
  5
183
330
2
100
AcDbEntity
  8
画層1
 62
     0
100
AcDbLine
 10
110.4999999999999
 20
199.6
 30
0.0
 11
113.5
 21
199.6
 31
0.0
  0
MTEXT
  5
184
330
2
100
AcDbEntity
  8
画層1
 62
     0
100
AcDbMText
 10
110.41
 20
208.8799999999999
 30
0.0
 40
1.8
 41
4.389999999999999
 71
     1
 72
     5
  1
COM
  7
STYLE1
 73
     1
 44
1.0
1001
ACAD
1000
MTEXTBEGIN
1070
    73
1070
     1
1070
    44
1040
1.0
1070
    74
1070
     0
1000
MTEXTEND
  0
MTEXT
  5
185
330
2
100
AcDbEntity
  8
画層1
 62
     0
100
AcDbMText
 10
110.43
 20
202.38
 30
0.0
 40
1.8
 41
3.819999999999999
 71
     1
 72
     5
  1
DO4
  7
STYLE1
 73
     1
 44
1.0
1001
ACAD
1000
MTEXTBEGIN
1070
    73
1070
     1
1070
    44
1040
1.0
1070
    74
1070
     0
1000
MTEXTEND
  0
MTEXT
  5
186
330
2
100
AcDbEntity
  8
画層1
 62
     0
100
AcDbMText
 10
105.8699999999999
 20
239.55
 30
0.0
 40
1.5
 41
17.29
 71
     1
 72
     5
  1
{\fＭＳ Ｐゴシック|b0|i0|c128|p50;ＣＯＮＴＲＯＬＬＥＲ}
  7
STYLE1
 73
     1
 44
1.0
1001
ACAD
1000
MTEXTBEGIN
1070
    73
1070
     1
1070
    44
1040
1.0
1070
    74
1070
     0
1000
MTEXTEND
  0
LINE
  5
187
330
2
100
AcDbEntity
  8
画層1
 62
     0
100
AcDbLine
 10
109.4999999999999
 20
212.5
 30
0.0
 11
109.4999999999999
 21
233.4999999999999
 31
0.0
  0
LINE
  5
188
330
2
100
AcDbEntity
  8
画層1
 62
     0
100
AcDbLine
 10
95.5
 20
198.4
 30
0.0
 11
92.5
 21
198.4
 31
0.0
  0
LINE
  5
189
330
2
100
AcDbEntity
  8
画層1
 62
     0
100
AcDbLine
 10
92.5
 20
199.6
 30
0.0
 11
95.5
 21
199.6
 31
0.0
  0
LINE
  5
18A
330
2
100
AcDbEntity
  8
画層1
 62
     0
100
AcDbLine
 10
92.5
 20
206.0999999999999
 30
0.0
 11
95.5
 21
206.0999999999999
 31
0.0
  0
LINE
  5
18B
330
2
100
AcDbEntity
  8
画層1
 62
     0
100
AcDbLine
 10
95.5
 20
204.8999999999999
 30
0.0
 11
92.5
 21
204.8999999999999
 31
0.0
  0
MTEXT
  5
18C
330
2
100
AcDbEntity
  8
画層1
 62
     0
100
AcDbMText
 10
92.40999999999999
 20
208.8799999999999
 30
0.0
 40
1.8
 41
4.389999999999999
 71
     1
 72
     5
  1
RUN
  7
STYLE1
 73
     1
 44
1.0
1001
ACAD
1000
MTEXTBEGIN
1070
    73
1070
     1
1070
    44
1040
1.0
1070
    74
1070
     0
1000
MTEXTEND
  0
MTEXT
  5
18D
330
2
100
AcDbEntity
  8
画層1
 62
     0
100
AcDbMText
 10
92.59999999999999
 20
202.38
 30
0.0
 40
1.8
 41
3.709999999999999
 71
     1
 72
     5
  1
DO1
  7
STYLE1
 73
     1
 44
1.0
1001
ACAD
1000
MTEXTBEGIN
1070
    73
1070
     1
1070
    44
1040
1.0
1070
    74
1070
     0
1000
MTEXTEND
  0
LINE
  5
18E
330
2
100
AcDbEntity
  8
画層1
 62
     0
100
AcDbLine
 10
86.5
 20
199.6
 30
0.0
 11
89.50000000000001
 21
199.6
 31
0.0
  0
LINE
  5
18F
330
2
100
AcDbEntity
  8
画層1
 62
     0
100
AcDbLine
 10
89.50000000000001
 20
198.4
 30
0.0
 11
86.5
 21
198.4
 31
0.0
  0
LINE
  5
190
330
2
100
AcDbEntity
  8
画層1
 62
     0
100
AcDbLine
 10
89.50000000000001
 20
204.8999999999999
 30
0.0
 11
86.5
 21
204.8999999999999
 31
0.0
  0
LINE
  5
191
330
2
100
AcDbEntity
  8
画層1
 62
     0
100
AcDbLine
 10
86.5
 20
206.0999999999999
 30
0.0
 11
89.50000000000001
 21
206.0999999999999
 31
0.0
  0
MTEXT
  5
192
330
2
100
AcDbEntity
  8
画層1
 62
     0
100
AcDbMText
 10
86.43
 20
202.38
 30
0.0
 40
1.8
 41
3.819999999999999
 71
     1
 72
     5
  1
EV3
  7
STYLE1
 73
     1
 44
1.0
1001
ACAD
1000
MTEXTBEGIN
1070
    73
1070
     1
1070
    44
1040
1.0
1070
    74
1070
     0
1000
MTEXTEND
  0
MTEXT
  5
193
330
2
100
AcDbEntity
  8
画層1
 62
     0
100
AcDbMText
 10
80.43000000000001
 20
202.38
 30
0.0
 40
1.8
 41
3.819999999999999
 71
     1
 72
     5
  1
EV2
  7
STYLE1
 73
     1
 44
1.0
1001
ACAD
1000
MTEXTBEGIN
1070
    73
1070
     1
1070
    44
1040
1.0
1070
    74
1070
     0
1000
MTEXTEND
  0
LINE
  5
194
330
2
100
AcDbEntity
  8
画層1
 62
     0
100
AcDbLine
 10
83.49999999999999
 20
198.4
 30
0.0
 11
80.5
 21
198.4
 31
0.0
  0
LINE
  5
195
330
2
100
AcDbEntity
  8
画層1
 62
     0
100
AcDbLine
 10
80.5
 20
199.6
 30
0.0
 11
83.49999999999999
 21
199.6
 31
0.0
  0
LINE
  5
196
330
2
100
AcDbEntity
  8
画層1
 62
     0
100
AcDbLine
 10
80.5
 20
198.4
 30
0.0
 11
80.5
 21
199.6
 31
0.0
  0
LINE
  5
197
330
2
100
AcDbEntity
  8
画層1
 62
     0
100
AcDbLine
 10
83.49999999999999
 20
199.6
 30
0.0
 11
83.49999999999999
 21
198.4
 31
0.0
  0
LINE
  5
198
330
2
100
AcDbEntity
  8
画層1
 62
     0
100
AcDbLine
 10
86.5
 20
198.4
 30
0.0
 11
86.5
 21
199.6
 31
0.0
  0
LINE
  5
199
330
2
100
AcDbEntity
  8
画層1
 62
     0
100
AcDbLine
 10
86.5
 20
204.8999999999999
 30
0.0
 11
86.5
 21
206.0999999999999
 31
0.0
  0
LINE
  5
19A
330
2
100
AcDbEntity
  8
画層1
 62
     0
100
AcDbLine
 10
89.50000000000001
 20
199.6
 30
0.0
 11
89.50000000000001
 21
198.4
 31
0.0
  0
LINE
  5
19B
330
2
100
AcDbEntity
  8
画層1
 62
     0
100
AcDbLine
 10
92.5
 20
198.4
 30
0.0
 11
92.5
 21
199.6
 31
0.0
  0
LINE
  5
19C
330
2
100
AcDbEntity
  8
画層1
 62
     0
100
AcDbLine
 10
89.50000000000001
 20
206.0999999999999
 30
0.0
 11
89.50000000000001
 21
204.8999999999999
 31
0.0
  0
LINE
  5
19D
330
2
100
AcDbEntity
  8
画層1
 62
     0
100
AcDbLine
 10
92.5
 20
204.8999999999999
 30
0.0
 11
92.5
 21
206.0999999999999
 31
0.0
  0
MTEXT
  5
19E
330
2
100
AcDbEntity
  8
画層1
 62
     0
100
AcDbMText
 10
86.41
 20
208.8799999999999
 30
0.0
 40
1.8
 41
4.389999999999999
 71
     1
 72
     5
  1
OUT
  7
STYLE1
 73
     1
 44
1.0
1001
ACAD
1000
MTEXTBEGIN
1070
    73
1070
     1
1070
    44
1040
1.0
1070
    74
1070
     0
1000
MTEXTEND
  0
MTEXT
  5
19F
330
2
100
AcDbEntity
  8
画層1
 62
     0
100
AcDbMText
 10
98.43000000000001
 20
202.38
 30
0.0
 40
1.8
 41
3.819999999999999
 71
     1
 72
     5
  1
DO2
  7
STYLE1
 73
     1
 44
1.0
1001
ACAD
1000
MTEXTBEGIN
1070
    73
1070
     1
1070
    44
1040
1.0
1070
    74
1070
     0
1000
MTEXTEND
  0
LINE
  5
1A0
330
2
100
AcDbEntity
  8
画層1
 62
     0
100
AcDbLine
 10
98.50000000000001
 20
199.6
 30
0.0
 11
101.5
 21
199.6
 31
0.0
  0
LINE
  5
1A1
330
2
100
AcDbEntity
  8
画層1
 62
     0
100
AcDbLine
 10
101.5
 20
198.4
 30
0.0
 11
98.50000000000001
 21
198.4
 31
0.0
  0
LINE
  5
1A2
330
2
100
AcDbEntity
  8
画層1
 62
     0
100
AcDbLine
 10
95.5
 20
199.6
 30
0.0
 11
95.5
 21
198.4
 31
0.0
  0
LINE
  5
1A3
330
2
100
AcDbEntity
  8
画層1
 62
     0
100
AcDbLine
 10
98.50000000000001
 20
198.4
 30
0.0
 11
98.50000000000001
 21
199.6
 31
0.0
  0
LINE
  5
1A4
330
2
100
AcDbEntity
  8
画層1
 62
     0
100
AcDbLine
 10
101.5
 20
199.6
 30
0.0
 11
101.5
 21
198.4
 31
0.0
  0
LINE
  5
1A5
330
2
100
AcDbEntity
  8
画層1
 62
     0
100
AcDbLine
 10
101.5
 20
204.8999999999999
 30
0.0
 11
98.50000000000001
 21
204.8999999999999
 31
0.0
  0
LINE
  5
1A6
330
2
100
AcDbEntity
  8
画層1
 62
     0
100
AcDbLine
 10
98.50000000000001
 20
206.0999999999999
 30
0.0
 11
101.5
 21
206.0999999999999
 31
0.0
  0
LINE
  5
1A7
330
2
100
AcDbEntity
  8
画層1
 62
     0
100
AcDbLine
 10
95.5
 20
206.0999999999999
 30
0.0
 11
95.5
 21
204.8999999999999
 31
0.0
  0
LINE
  5
1A8
330
2
100
AcDbEntity
  8
画層1
 62
     0
100
AcDbLine
 10
98.50000000000001
 20
204.8999999999999
 30
0.0
 11
98.50000000000001
 21
206.0999999999999
 31
0.0
  0
LINE
  5
1A9
330
2
100
AcDbEntity
  8
画層1
 62
     0
100
AcDbLine
 10
101.5
 20
206.0999999999999
 30
0.0
 11
101.5
 21
204.8999999999999
 31
0.0
  0
MTEXT
  5
1AA
330
2
100
AcDbEntity
  8
画層1
 62
     0
100
AcDbMText
 10
104.43
 20
202.38
 30
0.0
 40
1.8
 41
3.819999999999999
 71
     1
 72
     5
  1
DO3
  7
STYLE1
 73
     1
 44
1.0
1001
ACAD
1000
MTEXTBEGIN
1070
    73
1070
     1
1070
    44
1040
1.0
1070
    74
1070
     0
1000
MTEXTEND
  0
LINE
  5
1AB
330
2
100
AcDbEntity
  8
画層1
 62
     0
100
AcDbLine
 10
104.4999999999999
 20
199.6
 30
0.0
 11
107.4999999999999
 21
199.6
 31
0.0
  0
LINE
  5
1AC
330
2
100
AcDbEntity
  8
画層1
 62
     0
100
AcDbLine
 10
107.4999999999999
 20
198.4
 30
0.0
 11
104.4999999999999
 21
198.4
 31
0.0
  0
LINE
  5
1AD
330
2
100
AcDbEntity
  8
画層1
 62
     0
100
AcDbLine
 10
104.4999999999999
 20
198.4
 30
0.0
 11
104.4999999999999
 21
199.6
 31
0.0
  0
LINE
  5
1AE
330
2
100
AcDbEntity
  8
画層1
 62
     0
100
AcDbLine
 10
110.4999999999999
 20
198.4
 30
0.0
 11
110.4999999999999
 21
199.6
 31
0.0
  0
LINE
  5
1AF
330
2
100
AcDbEntity
  8
画層1
 62
     0
100
AcDbLine
 10
107.4999999999999
 20
199.6
 30
0.0
 11
107.4999999999999
 21
198.4
 31
0.0
  0
LINE
  5
1B0
330
2
100
AcDbEntity
  8
画層1
 62
     0
100
AcDbLine
 10
107.4999999999999
 20
204.8999999999999
 30
0.0
 11
104.4999999999999
 21
204.8999999999999
 31
0.0
  0
LINE
  5
1B1
330
2
100
AcDbEntity
  8
画層1
 62
     0
100
AcDbLine
 10
104.4999999999999
 20
206.0999999999999
 30
0.0
 11
107.4999999999999
 21
206.0999999999999
 31
0.0
  0
LINE
  5
1B2
330
2
100
AcDbEntity
  8
画層1
 62
     0
100
AcDbLine
 10
104.4999999999999
 20
204.8999999999999
 30
0.0
 11
104.4999999999999
 21
206.0999999999999
 31
0.0
  0
LINE
  5
1B3
330
2
100
AcDbEntity
  8
画層1
 62
     0
100
AcDbLine
 10
110.4999999999999
 20
204.8999999999999
 30
0.0
 11
110.4999999999999
 21
206.0999999999999
 31
0.0
  0
LINE
  5
1B4
330
2
100
AcDbEntity
  8
画層1
 62
     0
100
AcDbLine
 10
107.4999999999999
 20
206.0999999999999
 30
0.0
 11
107.4999999999999
 21
204.8999999999999
 31
0.0
  0
MTEXT
  5
1B5
330
2
100
AcDbEntity
  8
画層1
 62
     0
100
AcDbMText
 10
98.41000000000001
 20
208.8799999999999
 30
0.0
 40
1.8
 41
4.389999999999999
 71
     1
 72
     5
  1
HLD
  7
STYLE1
 73
     1
 44
1.0
1001
ACAD
1000
MTEXTBEGIN
1070
    73
1070
     1
1070
    44
1040
1.0
1070
    74
1070
     0
1000
MTEXTEND
  0
ARC
  5
1B6
330
2
100
AcDbEntity
  8
画層1
 62
     0
100
AcDbCircle
 10
108.4999999999999
 20
212.5
 30
0.0
 40
1.0
100
AcDbArc
 50
270.0
 51
0.0
  0
MTEXT
  5
1B7
330
2
100
AcDbEntity
  8
画層1
 62
     0
100
AcDbMText
 10
104.41
 20
208.8799999999999
 30
0.0
 40
1.8
 41
4.389999999999999
 71
     1
 72
     5
  1
GUA
  7
STYLE1
 73
     1
 44
1.0
1001
ACAD
1000
MTEXTBEGIN
1070
    73
1070
     1
1070
    44
1040
1.0
1070
    74
1070
     0
1000
MTEXTEND
  0
MTEXT
  5
1B8
330
2
100
AcDbEntity
  8
画層1
 62
     0
100
AcDbMText
 10
96.73000000000001
 20
240.0
 30
0.0
 40
2.0
 41
9.56
 71
     1
 72
     5
  1
{\fＭＳ Ｐゴシック|b0|i0|c128|p50;ＰＲＯＧ}
  7
STYLE1
 73
     1
 44
1.0
1001
ACAD
1000
MTEXTBEGIN
1070
    73
1070
     1
1070
    44
1040
1.0
1070
    74
1070
     0
1000
MTEXTEND
  0
ARC
  5
1B9
330
2
100
AcDbEntity
  8
画層1
 62
     0
100
AcDbCircle
 10
108.4999999999999
 20
233.4999999999999
 30
0.0
 40
1.0
100
AcDbArc
 50
0.0
 51
90.0
  0
LINE
  5
1BA
330
2
100
AcDbEntity
  8
画層1
 62
     0
100
AcDbLine
 10
126.8299999999999
 20
206.9199999999999
 30
0.0
 11
126.8299999999999
 21
222.21
 31
0.0
  0
LINE
  5
1BB
330
2
100
AcDbEntity
  8
画層1
 62
     0
100
AcDbLine
 10
113.5
 20
199.6
 30
0.0
 11
113.5
 21
198.4
 31
0.0
  0
LINE
  5
1BC
330
2
100
AcDbEntity
  8
画層1
 62
     0
100
AcDbLine
 10
113.5
 20
206.0999999999999
 30
0.0
 11
113.5
 21
204.8999999999999
 31
0.0
  0
HATCH
  5
1BD
330
2
100
AcDbEntity
  8
画層1
 62
     0
100
AcDbHatch
 10
0.0
 20
0.0
 30
0.0
210
0.0
220
0.0
230
1.0
  2
SOLID
 70
     1
 71
     0
 91
        3
 92
        7
 72
     1
 73
     1
 93
        2
 10
115.0355220420925
 20
216.2331090772472
 42
1.0
 10
113.4647236285494
 20
216.2331090772472
 42
1.0
 97
        0
 92
       22
 72
     1
 73
     1
 93
        2
 10
113.8374550392915
 20
216.2331090772472
 42
-1.0
 10
114.6627906313504
 20
216.2331090772472
 42
-1.0
 97
        0
 92
        7
 72
     1
 73
     1
 93
        4
 10
118.473889601171
 20
216.0663482533129
 42
0.0
 10
118.473889601171
 20
216.8688818757619
 42
1.533941497875936
 10
118.473889601171
 20
212.216126449289
 42
0.0
 10
118.473889601171
 20
213.0186600717379
 42
-1.878800399703971
 97
        0
 75
     0
 76
     1
 47
0.01
 98
        3
 10
114.3433920863826
 20
215.7139466872445
 10
114.3433920863826
 20
215.7139466872445
 10
115.1828153459392
 20
214.3162024037025
  0
LINE
  5
1BE
330
2
100
AcDbEntity
  8
画層1
 62
     0
100
AcDbLine
 10
126.8299999999999
 20
222.21
 30
0.0
 11
126.8299999999999
 21
237.0
 31
0.0
  0
LINE
  5
1BF
330
2
100
AcDbEntity
  8
画層1
 62
     0
100
AcDbLine
 10
165.0
 20
157.0
 30
0.0
 11
165.0
 21
235.0
 31
0.0
  0
LINE
  5
1C0
330
2
100
AcDbEntity
  8
画層1
 62
     0
100
AcDbLine
 10
180.1999999999999
 20
218.3
 30
0.0
 11
180.1999999999999
 21
157.3
 31
0.0
  0
LINE
  5
1C1
330
2
100
AcDbEntity
  8
画層1
 62
     0
100
AcDbLine
 10
151.24
 20
205.0
 30
0.0
 11
151.24
 21
159.82
 31
0.0
  0
LINE
  5
1C2
330
2
100
AcDbEntity
  8
画層1
 62
     0
100
AcDbLine
 10
161.9799999999999
 20
190.44
 30
0.0
 11
161.9799999999999
 21
213.12
 31
0.0
  0
LINE
  5
1C3
330
2
100
AcDbEntity
  8
画層1
 62
     0
100
AcDbLine
 10
171.0
 20
152.4
 30
0.0
 11
185.0
 21
152.4
 31
0.0
  0
LINE
  5
1C4
330
2
100
AcDbEntity
  8
画層1
 62
     0
100
AcDbLine
 10
184.6999999999999
 20
153.8
 30
0.0
 11
162.0999999999999
 21
154.4
 31
0.0
  0
LINE
  5
1C5
330
2
100
AcDbEntity
  8
画層1
 62
     0
100
AcDbLine
 10
172.96
 20
150.22
 30
0.0
 11
178.3199999999999
 21
151.6599999999999
 31
0.0
  0
LINE
  5
1C6
330
2
100
AcDbEntity
  8
画層1
 62
     0
100
AcDbLine
 10
171.6999999999999
 20
186.8999999999999
 30
0.0
 11
171.6999999999999
 21
168.5
 31
0.0
  0
LINE
  5
1C7
330
2
100
AcDbEntity
  8
画層1
 62
     0
100
AcDbLine
 10
176.3
 20
186.8999999999999
 30
0.0
 11
176.3
 21
168.5
 31
0.0
  0
LINE
  5
1C8
330
2
100
AcDbEntity
  8
画層1
 62
     0
100
AcDbLine
 10
161.96
 20
162.41
 30
0.0
 11
161.96
 21
190.4499999999999
 31
0.0
  0
LINE
  5
1C9
330
2
100
AcDbEntity
  8
画層1
 62
     0
100
AcDbLine
 10
151.24
 20
159.8899999999999
 30
0.0
 11
151.24
 21
149.4399999999999
 31
0.0
  0
LINE
  5
1CA
330
2
100
AcDbEntity
  8
画層1
 62
     0
100
AcDbLine
 10
151.2599999999999
 20
149.4699999999999
 30
0.0
 11
151.61
 21
148.55
 31
0.0
  0
LINE
  5
1CB
330
2
100
AcDbEntity
  8
画層1
 62
     0
100
AcDbLine
 10
162.0999999999999
 20
150.1999999999999
 30
0.0
 11
172.61
 21
150.1999999999999
 31
0.0
  0
LINE
  5
1CC
330
2
100
AcDbEntity
  8
画層1
 62
     0
100
AcDbLine
 10
162.1999999999999
 20
150.35
 30
0.0
 11
172.78
 21
150.35
 31
0.0
  0
LINE
  5
1CD
330
2
100
AcDbEntity
  8
画層1
 62
     0
100
AcDbLine
 10
162.0999999999999
 20
150.4
 30
0.0
 11
162.0
 21
150.4
 31
0.0
  0
ARC
  5
1CE
330
2
100
AcDbEntity
  8
画層1
 62
     0
100
AcDbCircle
 10
166.0
 20
157.0
 30
0.0
 40
1.0
100
AcDbArc
 50
180.0
 51
270.0
  0
LINE
  5
1CF
330
2
100
AcDbEntity
  8
画層1
 62
     0
100
AcDbLine
 10
171.0
 20
150.1999999999999
 30
0.0
 11
171.0
 21
152.4
 31
0.0
  0
ARC
  5
1D0
330
2
100
AcDbEntity
  8
画層1
 62
     0
100
AcDbCircle
 10
174.0
 20
168.5
 30
0.0
 40
2.299999999999998
100
AcDbArc
 50
180.0
 51
0.0
  0
ARC
  5
1D1
330
2
100
AcDbEntity
  8
画層1
 62
     0
100
AcDbCircle
 10
174.0
 20
186.8999999999999
 30
0.0
 40
2.299999999999998
100
AcDbArc
 50
0.0
 51
180.0
  0
ARC
  5
1D2
330
2
100
AcDbEntity
  8
画層1
 62
     0
100
AcDbCircle
 10
184.6999999999999
 20
153.0
 30
0.0
 40
0.8000000000000111
100
AcDbArc
 50
270.0
 51
90.0
  0
LINE
  5
1D3
330
2
100
AcDbEntity
  8
画層1
 62
     0
100
AcDbLine
 10
183.6299999999999
 20
150.3899999999999
 30
0.0
 11
186.2899999999999
 21
150.3899999999999
 31
0.0
  0
LINE
  5
1D4
330
2
100
AcDbEntity
  8
画層1
 62
     0
100
AcDbLine
 10
177.97
 20
149.74
 30
0.0
 11
183.6299999999999
 21
150.3899999999999
 31
0.0
  0
LINE
  5
1D5
330
2
100
AcDbEntity
  8
画層1
 62
     0
100
AcDbLine
 10
178.3199999999999
 20
151.6599999999999
 30
0.0
 11
184.81
 21
152.2199999999999
 31
0.0
  0
LINE
  5
1D6
330
2
100
AcDbEntity
  8
画層1
 62
     0
100
AcDbLine
 10
183.6
 20
152.2
 30
0.0
 11
184.6999999999999
 21
152.2
 31
0.0
  0
LINE
  5
1D7
330
2
100
AcDbEntity
  8
画層1
 62
     0
100
AcDbLine
 10
185.0
 20
152.4
 30
0.0
 11
185.0
 21
152.2599999999999
 31
0.0
  0
ARC
  5
1D8
330
2
100
AcDbEntity
  8
画層1
 62
     0
100
AcDbCircle
 10
181.1999999999999
 20
157.3
 30
0.0
 40
1.0
100
AcDbArc
 50
180.0
 51
269.9899999999999
  0
LINE
  5
1D9
330
2
100
AcDbEntity
  8
画層1
 62
     0
100
AcDbLine
 10
190.0
 20
150.1999999999999
 30
0.0
 11
192.5
 21
154.1999999999999
 31
0.0
  0
LINE
  5
1DA
330
2
100
AcDbEntity
  8
画層1
 62
     0
100
AcDbLine
 10
192.5
 20
154.1999999999999
 30
0.0
 11
192.5
 21
150.1999999999999
 31
0.0
  0
LINE
  5
1DB
330
2
100
AcDbEntity
  8
画層1
 62
     0
100
AcDbLine
 10
171.0
 20
239.5999999999999
 30
0.0
 11
185.0
 21
239.5999999999999
 31
0.0
  0
LINE
  5
1DC
330
2
100
AcDbEntity
  8
画層1
 62
     0
100
AcDbLine
 10
184.6999999999999
 20
238.2
 30
0.0
 11
162.0999999999999
 21
237.5999999999999
 31
0.0
  0
LINE
  5
1DD
330
2
100
AcDbEntity
  8
画層1
 62
     0
100
AcDbLine
 10
176.2899999999999
 20
240.8799999999999
 30
0.0
 11
178.16
 21
240.33
 31
0.0
  0
LINE
  5
1DE
330
2
100
AcDbEntity
  8
画層1
 62
     0
100
AcDbLine
 10
161.9799999999999
 20
213.1399999999999
 30
0.0
 11
161.9799999999999
 21
235.2899999999999
 31
0.0
  0
ARC
  5
1DF
330
2
100
AcDbEntity
  8
画層1
 62
     0
100
AcDbCircle
 10
166.0
 20
235.0
 30
0.0
 40
1.0
100
AcDbArc
 50
90.0
 51
180.0
  0
ARC
  5
1E0
330
2
100
AcDbEntity
  8
画層1
 62
     0
100
AcDbCircle
 10
181.1999999999999
 20
218.3
 30
0.0
 40
1.0
100
AcDbArc
 50
89.99
 51
180.0
  0
ARC
  5
1E1
330
2
100
AcDbEntity
  8
画層1
 62
     0
100
AcDbCircle
 10
184.6999999999999
 20
239.0
 30
0.0
 40
0.8000000000000111
100
AcDbArc
 50
270.0
 51
90.0
  0
LINE
  5
1E2
330
2
100
AcDbEntity
  8
画層1
 62
     0
100
AcDbLine
 10
178.16
 20
240.33
 30
0.0
 11
184.7199999999999
 21
239.8099999999999
 31
0.0
  0
LINE
  5
1E3
330
2
100
AcDbEntity
  8
画層1
 62
     0
100
AcDbLine
 10
183.6
 20
239.8
 30
0.0
 11
184.6999999999999
 21
239.8
 31
0.0
  0
LINE
  5
1E4
330
2
100
AcDbEntity
  8
画層1
 62
     0
100
AcDbLine
 10
185.0
 20
239.5999999999999
 30
0.0
 11
185.0
 21
239.74
 31
0.0
  0
LINE
  5
1E5
330
2
100
AcDbEntity
  8
画層1
 62
     0
100
AcDbLine
 10
125.92
 20
243.84
 30
0.0
 11
101.12
 21
243.84
 31
0.0
  0
LINE
  5
1E6
330
2
100
AcDbEntity
  8
画層1
 62
     0
100
AcDbLine
 10
102.0
 20
244.0
 30
0.0
 11
102.0
 21
243.9
 31
0.0
  0
LINE
  5
1E7
330
2
100
AcDbEntity
  8
画層1
 62
     0
100
AcDbLine
 10
104.0
 20
244.0
 30
0.0
 11
104.0
 21
243.9
 31
0.0
  0
LINE
  5
1E8
330
2
100
AcDbEntity
  8
画層1
 62
     0
100
AcDbLine
 10
127.0
 20
254.0
 30
0.0
 11
127.0
 21
244.0
 31
0.0
  0
LINE
  5
1E9
330
2
100
AcDbEntity
  8
画層1
 62
     0
100
AcDbLine
 10
114.0
 20
244.0
 30
0.0
 11
114.0
 21
243.9
 31
0.0
  0
LINE
  5
1EA
330
2
100
AcDbEntity
  8
画層1
 62
     0
100
AcDbLine
 10
116.0
 20
244.0
 30
0.0
 11
116.0
 21
243.9
 31
0.0
  0
LINE
  5
1EB
330
2
100
AcDbEntity
  8
画層1
 62
     0
100
AcDbLine
 10
121.0
 20
244.3499999999999
 30
0.0
 11
124.7999999999999
 21
244.3499999999999
 31
0.0
  0
LINE
  5
1EC
330
2
100
AcDbEntity
  8
画層1
 62
     0
100
AcDbLine
 10
121.0
 20
244.7
 30
0.0
 11
124.7999999999999
 21
244.7
 31
0.0
  0
LINE
  5
1ED
330
2
100
AcDbEntity
  8
画層1
 62
     0
100
AcDbLine
 10
121.0
 20
245.05
 30
0.0
 11
124.7999999999999
 21
245.05
 31
0.0
  0
LINE
  5
1EE
330
2
100
AcDbEntity
  8
画層1
 62
     0
100
AcDbLine
 10
121.0
 20
245.4
 30
0.0
 11
124.7999999999999
 21
245.4
 31
0.0
  0
LINE
  5
1EF
330
2
100
AcDbEntity
  8
画層1
 62
     0
100
AcDbLine
 10
121.0
 20
245.75
 30
0.0
 11
124.7999999999999
 21
245.75
 31
0.0
  0
LINE
  5
1F0
330
2
100
AcDbEntity
  8
画層1
 62
     0
100
AcDbLine
 10
121.0
 20
246.0999999999999
 30
0.0
 11
124.7999999999999
 21
246.0999999999999
 31
0.0
  0
LINE
  5
1F1
330
2
100
AcDbEntity
  8
画層1
 62
     0
100
AcDbLine
 10
124.7999999999999
 20
246.45
 30
0.0
 11
121.0
 21
246.45
 31
0.0
  0
LINE
  5
1F2
330
2
100
AcDbEntity
  8
画層1
 62
     0
100
AcDbLine
 10
121.0
 20
246.45
 30
0.0
 11
121.0
 21
244.0
 31
0.0
  0
ARC
  5
1F3
330
2
100
AcDbEntity
  8
画層1
 62
     0
100
AcDbCircle
 10
125.9
 20
242.9
 30
0.0
 40
1.1
100
AcDbArc
 50
0.0
 51
90.0
  0
LINE
  5
1F4
330
2
100
AcDbEntity
  8
画層1
 62
     0
100
AcDbLine
 10
124.7999999999999
 20
244.0
 30
0.0
 11
124.7999999999999
 21
246.45
 31
0.0
  0
ARC
  5
1F5
330
2
100
AcDbEntity
  8
画層1
 62
     0
100
AcDbCircle
 10
125.9
 20
242.9
 30
0.0
 40
1.0
100
AcDbArc
 50
0.0
 51
90.0
  0
ARC
  5
1F6
330
2
100
AcDbEntity
  8
画層1
 62
     0
100
AcDbCircle
 10
124.5
 20
241.5
 30
0.0
 40
0.6
100
AcDbArc
 50
0.0
 51
90.0
  0
ARC
  5
1F7
330
2
100
AcDbEntity
  8
画層1
 62
     0
100
AcDbCircle
 10
124.3999999999999
 20
241.4
 30
0.0
 40
0.5
100
AcDbArc
 50
0.0
 51
90.0
  0
LINE
  5
1F8
330
2
100
AcDbEntity
  8
画層1
 62
     0
100
AcDbLine
 10
126.8299999999999
 20
242.87
 30
0.0
 11
126.53
 21
243.57
 31
0.0
  0
LINE
  5
1F9
330
2
100
AcDbEntity
  8
画層1
 62
     0
100
AcDbLine
 10
126.53
 20
243.57
 30
0.0
 11
125.92
 21
243.84
 31
0.0
  0
LEADER
  5
1FA
330
2
100
AcDbEntity
  8
画層1
 62
     0
100
AcDbLeader
  3
STANDARD_WS
 76
     2
 10
127.0
 20
252.0
 30
0.0
 10
123.0
 20
252.0
 30
0.0
1001
ACAD
1000
DSTYLE
1002
{
1070
     6
1000
OPEN
1070
    47
1040
0.8
1070
    71
1070
     1
1070
    77
1070
     0
1070
   146
1040
0.5
1070
   147
1040
0.63
1070
   284
1070
     8
1070
   340
1005
2A
1002
}
  0
LINE
  5
1FB
330
2
100
AcDbEntity
  8
画層1
 62
     0
100
AcDbLine
 10
176.2899999999999
 20
242.79
 30
0.0
 11
178.0299999999999
 21
242.27
 31
0.0
  0
LINE
  5
1FC
330
2
100
AcDbEntity
  8
画層1
 62
     0
100
AcDbLine
 10
153.0
 20
244.0
 30
0.0
 11
162.0
 21
244.0
 31
0.0
  0
LEADER
  5
1FD
330
2
100
AcDbEntity
  8
画層1
 62
     0
100
AcDbLeader
  3
STANDARD_WS
 76
     2
 10
162.0
 20
252.0
 30
0.0
 10
155.0
 20
252.0
 30
0.0
1001
ACAD
1000
DSTYLE
1002
{
1070
     6
1000
OPEN
1070
    47
1040
0.8
1070
    71
1070
     1
1070
    77
1070
     0
1070
   146
1040
0.5
1070
   147
1040
0.63
1070
   284
1070
     8
1070
   340
1005
2A
1002
}
  0
LINE
  5
1FE
330
2
100
AcDbEntity
  8
画層1
 62
     0
100
AcDbLine
 10
152.11
 20
243.78
 30
0.0
 11
162.05
 21
243.78
 31
0.0
  0
TEXT
  5
1FF
330
2
100
AcDbEntity
  8
画層1
 62
     0
100
AcDbText
 10
153.3199999999999
 20
252.37
 30
0.0
 40
5.0
  1
11
  7
STYLE1
100
AcDbText
  0
LINE
  5
200
330
2
100
AcDbEntity
  8
画層1
 62
     0
100
AcDbLine
 10
151.0
 20
259.0
 30
0.0
 11
151.0
 21
244.0
 31
0.0
  0
LINE
  5
201
330
2
100
AcDbEntity
  8
画層1
 62
     0
100
AcDbLine
 10
152.2
 20
243.9
 30
0.0
 11
154.0
 21
243.9
 31
0.0
  0
LINE
  5
202
330
2
100
AcDbEntity
  8
画層1
 62
     0
100
AcDbLine
 10
152.2
 20
243.9
 30
0.0
 11
153.0
 21
243.9
 31
0.0
  0
LEADER
  5
203
330
2
100
AcDbEntity
  8
画層1
 62
     0
100
AcDbLeader
  3
STANDARD_WS
 76
     2
 10
151.0
 20
252.0
 30
0.0
 10
156.0
 20
252.0
 30
0.0
1001
ACAD
1000
DSTYLE
1002
{
1070
     6
1000
OPEN
1070
    47
1040
0.8
1070
    71
1070
     1
1070
    77
1070
     0
1070
   146
1040
0.5
1070
   147
1040
0.63
1070
   284
1070
     8
1070
   340
1005
2A
1002
}
  0
ARC
  5
204
330
2
100
AcDbEntity
  8
画層1
 62
     0
100
AcDbCircle
 10
152.2
 20
242.7
 30
0.0
 40
1.199999999999999
100
AcDbArc
 50
90.0
 51
180.0
  0
LINE
  5
205
330
2
100
AcDbEntity
  8
画層1
 62
     0
100
AcDbLine
 10
151.2599999999999
 20
242.62
 30
0.0
 11
151.53
 21
243.4499999999999
 31
0.0
  0
LINE
  5
206
330
2
100
AcDbEntity
  8
画層1
 62
     0
100
AcDbLine
 10
151.53
 20
243.4499999999999
 30
0.0
 11
152.1399999999999
 21
243.75
 31
0.0
  0
LINE
  5
207
330
2
100
AcDbEntity
  8
画層1
 62
     0
100
AcDbLine
 10
153.0
 20
244.0
 30
0.0
 11
153.0
 21
243.9
 31
0.0
  0
LINE
  5
208
330
2
100
AcDbEntity
  8
画層1
 62
     0
100
AcDbLine
 10
162.0
 20
253.0
 30
0.0
 11
162.0
 21
245.0
 31
0.0
  0
LINE
  5
209
330
2
100
AcDbEntity
  8
画層1
 62
     0
100
AcDbLine
 10
162.0999999999999
 20
241.8
 30
0.0
 11
172.61
 21
241.8
 31
0.0
  0
LINE
  5
20A
330
2
100
AcDbEntity
  8
画層1
 62
     0
100
AcDbLine
 10
162.07
 20
241.6599999999999
 30
0.0
 11
172.74
 21
241.6599999999999
 31
0.0
  0
LINE
  5
20B
330
2
100
AcDbEntity
  8
画層1
 62
     0
100
AcDbLine
 10
167.65
 20
244.2299999999999
 30
0.0
 11
172.75
 21
241.8099999999999
 31
0.0
  0
LINE
  5
20C
330
2
100
AcDbEntity
  8
画層1
 62
     0
100
AcDbLine
 10
167.4799999999999
 20
246.3999999999999
 30
0.0
 11
172.62
 21
243.86
 31
0.0
  0
LINE
  5
20D
330
2
100
AcDbEntity
  8
画層1
 62
     0
100
AcDbLine
 10
163.8
 20
243.1999999999999
 30
0.0
 11
166.74
 21
244.22
 31
0.0
  0
LINE
  5
20E
330
2
100
AcDbEntity
  8
画層1
 62
     0
100
AcDbLine
 10
165.0
 20
244.7999999999999
 30
0.0
 11
164.4
 21
245.05
 31
0.0
  0
LINE
  5
20F
330
2
100
AcDbEntity
  8
画層1
 62
     0
100
AcDbLine
 10
163.8
 20
243.25
 30
0.0
 11
166.83
 21
244.2899999999999
 31
0.0
  0
LINE
  5
210
330
2
100
AcDbEntity
  8
画層1
 62
     0
100
AcDbLine
 10
164.5
 20
244.9199999999999
 30
0.0
 11
165.08
 21
244.68
 31
0.0
  0
LINE
  5
211
330
2
100
AcDbEntity
  8
画層1
 62
     0
100
AcDbLine
 10
162.5999999999999
 20
244.0
 30
0.0
 11
162.5999999999999
 21
243.5999999999999
 31
0.0
  0
LINE
  5
212
330
2
100
AcDbEntity
  8
画層1
 62
     0
100
AcDbLine
 10
162.0
 20
241.5999999999999
 30
0.0
 11
162.0999999999999
 21
241.5999999999999
 31
0.0
  0
LINE
  5
213
330
2
100
AcDbEntity
  8
画層1
 62
     0
100
AcDbLine
 10
162.5999999999999
 20
243.5999999999999
 30
0.0
 11
163.8
 21
243.1999999999999
 31
0.0
  0
LINE
  5
214
330
2
100
AcDbEntity
  8
画層1
 62
     0
100
AcDbLine
 10
163.1999999999999
 20
243.75
 30
0.0
 11
162.5999999999999
 21
244.0
 31
0.0
  0
LINE
  5
215
330
2
100
AcDbEntity
  8
画層1
 62
     0
100
AcDbLine
 10
163.1999999999999
 20
244.3499999999999
 30
0.0
 11
163.1999999999999
 21
243.75
 31
0.0
  0
LINE
  5
216
330
2
100
AcDbEntity
  8
画層1
 62
     0
100
AcDbLine
 10
163.8
 20
244.0999999999999
 30
0.0
 11
163.1999999999999
 21
244.3499999999999
 31
0.0
  0
LINE
  5
217
330
2
100
AcDbEntity
  8
画層1
 62
     0
100
AcDbLine
 10
163.8
 20
244.7
 30
0.0
 11
163.8
 21
244.0999999999999
 31
0.0
  0
LINE
  5
218
330
2
100
AcDbEntity
  8
画層1
 62
     0
100
AcDbLine
 10
164.4
 20
244.45
 30
0.0
 11
163.8
 21
244.7
 31
0.0
  0
LINE
  5
219
330
2
100
AcDbEntity
  8
画層1
 62
     0
100
AcDbLine
 10
164.4
 20
245.05
 30
0.0
 11
164.4
 21
244.45
 31
0.0
  0
LINE
  5
21A
330
2
100
AcDbEntity
  8
画層1
 62
     0
100
AcDbLine
 10
163.8
 20
243.23
 30
0.0
 11
162.6699999999999
 21
243.6199999999999
 31
0.0
  0
LINE
  5
21B
330
2
100
AcDbEntity
  8
画層1
 62
     0
100
AcDbLine
 10
162.6699999999999
 20
243.6199999999999
 30
0.0
 11
162.6399999999999
 21
243.88
 31
0.0
  0
LINE
  5
21C
330
2
100
AcDbEntity
  8
画層1
 62
     0
100
AcDbLine
 10
162.6399999999999
 20
243.88
 30
0.0
 11
163.28
 21
243.68
 31
0.0
  0
LINE
  5
21D
330
2
100
AcDbEntity
  8
画層1
 62
     0
100
AcDbLine
 10
163.28
 20
243.68
 30
0.0
 11
163.28
 21
244.2499999999999
 31
0.0
  0
LINE
  5
21E
330
2
100
AcDbEntity
  8
画層1
 62
     0
100
AcDbLine
 10
163.28
 20
244.2499999999999
 30
0.0
 11
163.86
 21
244.01
 31
0.0
  0
LINE
  5
21F
330
2
100
AcDbEntity
  8
画層1
 62
     0
100
AcDbLine
 10
163.86
 20
244.01
 30
0.0
 11
163.84
 21
244.6
 31
0.0
  0
LINE
  5
220
330
2
100
AcDbEntity
  8
画層1
 62
     0
100
AcDbLine
 10
163.84
 20
244.6
 30
0.0
 11
164.5
 21
244.3599999999999
 31
0.0
  0
LINE
  5
221
330
2
100
AcDbEntity
  8
画層1
 62
     0
100
AcDbLine
 10
164.5
 20
244.3599999999999
 30
0.0
 11
164.5
 21
244.9199999999999
 31
0.0
  0
ARC
  5
222
330
2
100
AcDbEntity
  8
画層1
 62
     0
100
AcDbCircle
 10
167.1199999999999
 20
243.29
 30
0.0
 40
1.0
100
AcDbArc
 50
59.75
 51
112.49
  0
LINE
  5
223
330
2
100
AcDbEntity
  8
画層1
 62
     0
100
AcDbLine
 10
167.1999999999999
 20
245.8499999999999
 30
0.0
 11
166.4
 21
246.0999999999999
 31
0.0
  0
LINE
  5
224
330
2
100
AcDbEntity
  8
画層1
 62
     0
100
AcDbLine
 10
165.0
 20
245.4
 30
0.0
 11
165.0
 21
244.7999999999999
 31
0.0
  0
LINE
  5
225
330
2
100
AcDbEntity
  8
画層1
 62
     0
100
AcDbLine
 10
165.8
 20
245.15
 30
0.0
 11
165.0
 21
245.4
 31
0.0
  0
LINE
  5
226
330
2
100
AcDbEntity
  8
画層1
 62
     0
100
AcDbLine
 10
165.8
 20
245.75
 30
0.0
 11
165.8
 21
245.15
 31
0.0
  0
LINE
  5
227
330
2
100
AcDbEntity
  8
画層1
 62
     0
100
AcDbLine
 10
166.4
 20
245.5
 30
0.0
 11
165.8
 21
245.75
 31
0.0
  0
LINE
  5
228
330
2
100
AcDbEntity
  8
画層1
 62
     0
100
AcDbLine
 10
166.4
 20
246.0999999999999
 30
0.0
 11
166.4
 21
245.5
 31
0.0
  0
LINE
  5
229
330
2
100
AcDbEntity
  8
画層1
 62
     0
100
AcDbLine
 10
167.1999999999999
 20
246.45
 30
0.0
 11
167.1999999999999
 21
245.8499999999999
 31
0.0
  0
LINE
  5
22A
330
2
100
AcDbEntity
  8
画層1
 62
     0
100
AcDbLine
 10
167.5
 20
246.45
 30
0.0
 11
167.1999999999999
 21
246.45
 31
0.0
  0
LINE
  5
22B
330
2
100
AcDbEntity
  8
画層1
 62
     0
100
AcDbLine
 10
166.83
 20
244.2899999999999
 30
0.0
 11
167.65
 21
244.2299999999999
 31
0.0
  0
LINE
  5
22C
330
2
100
AcDbEntity
  8
画層1
 62
     0
100
AcDbLine
 10
165.08
 20
244.68
 30
0.0
 11
165.08
 21
245.29
 31
0.0
  0
LINE
  5
22D
330
2
100
AcDbEntity
  8
画層1
 62
     0
100
AcDbLine
 10
165.08
 20
245.29
 30
0.0
 11
165.8899999999999
 21
245.0299999999999
 31
0.0
  0
LINE
  5
22E
330
2
100
AcDbEntity
  8
画層1
 62
     0
100
AcDbLine
 10
165.8899999999999
 20
245.0299999999999
 30
0.0
 11
165.87
 21
245.6399999999999
 31
0.0
  0
LINE
  5
22F
330
2
100
AcDbEntity
  8
画層1
 62
     0
100
AcDbLine
 10
165.87
 20
245.6399999999999
 30
0.0
 11
166.4799999999999
 21
245.38
 31
0.0
  0
LINE
  5
230
330
2
100
AcDbEntity
  8
画層1
 62
     0
100
AcDbLine
 10
166.4799999999999
 20
245.38
 30
0.0
 11
166.46
 21
246.03
 31
0.0
  0
LINE
  5
231
330
2
100
AcDbEntity
  8
画層1
 62
     0
100
AcDbLine
 10
166.46
 20
246.03
 30
0.0
 11
167.28
 21
245.71
 31
0.0
  0
LINE
  5
232
330
2
100
AcDbEntity
  8
画層1
 62
     0
100
AcDbLine
 10
167.28
 20
245.71
 30
0.0
 11
167.28
 21
246.3799999999999
 31
0.0
  0
LINE
  5
233
330
2
100
AcDbEntity
  8
画層1
 62
     0
100
AcDbLine
 10
167.28
 20
246.3799999999999
 30
0.0
 11
167.4799999999999
 21
246.3999999999999
 31
0.0
  0
LINE
  5
234
330
2
100
AcDbEntity
  8
画層1
 62
     0
100
AcDbLine
 10
172.62
 20
243.86
 30
0.0
 11
176.34
 21
242.79
 31
0.0
  0
LINE
  5
235
330
2
100
AcDbEntity
  8
画層1
 62
     0
100
AcDbLine
 10
183.59
 20
241.72
 30
0.0
 11
195.3899999999999
 21
241.6999999999999
 31
0.0
  0
LINE
  5
236
330
2
100
AcDbEntity
  8
画層1
 62
     0
100
AcDbLine
 10
178.0299999999999
 20
242.27
 30
0.0
 11
183.59
 21
241.72
 31
0.0
  0
TEXT
  5
237
330
2
100
AcDbEntity
  8
画層1
 62
     0
100
AcDbText
 10
330.1
 20
147.24
 30
0.0
 40
4.0
  1
単位：ｍｍ
  7
STYLE1
100
AcDbText
  0
LINE
  5
238
330
2
100
AcDbEntity
  8
画層1
  6
CENTER
 62
     0
100
AcDbLine
 10
279.6399999999999
 20
226.19
 30
0.0
 11
357.64
 21
226.19
 31
0.0
  0
LWPOLYLINE
  5
239
330
2
100
AcDbEntity
  8
画層1
 62
     0
100
AcDbPolyline
 90
        4
 70
     1
 43
0.0
 10
323.6399999999999
 20
242.1899999999999
 10
355.64
 20
242.1899999999999
 10
355.64
 20
210.19
 10
323.6399999999999
 20
210.19
  0
LWPOLYLINE
  5
23A
330
2
100
AcDbEntity
  8
画層1
 62
     0
100
AcDbPolyline
 90
        4
 70
     1
 43
0.0
 10
323.45
 20
242.32
 10
355.75
 20
242.32
 10
355.75
 20
210.13
 10
323.45
 20
210.13
  0
LINE
  5
23B
330
2
100
AcDbEntity
  8
画層1
 62
     0
100
AcDbLine
 10
253.5
 20
241.8
 30
0.0
 11
253.5
 21
239.8
 31
0.0
  0
LINE
  5
23C
330
2
100
AcDbEntity
  8
画層1
 62
     0
100
AcDbLine
 10
249.5
 20
241.8
 30
0.0
 11
249.5
 21
237.8
 31
0.0
  0
LEADER
  5
23D
330
2
100
AcDbEntity
  8
画層1
 62
     0
100
AcDbLeader
  3
STANDARD_WS
 76
     2
 10
272.0
 20
242.0
 30
0.0
 10
272.0
 20
191.0
 30
0.0
1001
ACAD
1000
DSTYLE
1002
{
1070
     6
1000
OPEN
1070
    47
1040
0.8
1070
    71
1070
     1
1070
    77
1070
     0
1070
   146
1040
0.5
1070
   147
1040
0.63
1070
   284
1070
     8
1070
   340
1005
2A
1002
}
  0
LINE
  5
23E
330
2
100
AcDbEntity
  8
画層1
  6
CENTER
 62
     0
100
AcDbLine
 10
297.6399999999999
 20
252.19
 30
0.0
 11
297.6399999999999
 21
170.19
 31
0.0
  0
LINE
  5
23F
330
2
100
AcDbEntity
  8
画層1
  6
CENTER
 62
     0
100
AcDbLine
 10
339.6399999999999
 20
252.19
 30
0.0
 11
339.6399999999999
 21
208.19
 31
0.0
  0
LWPOLYLINE
  5
240
330
2
100
AcDbEntity
  8
画層1
 62
     0
100
AcDbPolyline
 90
        4
 70
     1
 43
0.0
 10
281.6399999999999
 20
242.1899999999999
 10
313.64
 20
242.1899999999999
 10
313.64
 20
210.19
 10
281.6399999999999
 20
210.19
  0
LEADER
  5
241
330
2
100
AcDbEntity
  8
画層1
 62
     0
100
AcDbLeader
  3
STANDARD_WS
 76
     2
 10
293.6399999999999
 20
242.1899999999999
 30
0.0
 10
293.6399999999999
 20
212.19
 30
0.0
1001
ACAD
1000
DSTYLE
1002
{
1070
     6
1000
OPEN
1070
    47
1040
0.8
1070
    71
1070
     1
1070
    77
1070
     0
1070
   146
1040
0.5
1070
   147
1040
0.63
1070
   284
1070
     8
1070
   340
1005
2A
1002
}
  0
TEXT
  5
242
330
2
100
AcDbEntity
  8
画層1
 62
     0
100
AcDbText
 10
288.72
 20
228.69
 30
0.0
 40
4.0
  1
＋0.8
 50
90.0
  7
STYLE1
100
AcDbText
  0
LWPOLYLINE
  5
243
330
2
100
AcDbEntity
  8
画層1
 62
     0
100
AcDbPolyline
 90
        4
 70
     1
 43
0.0
 10
281.5199999999999
 20
242.32
 10
313.8199999999999
 20
242.32
 10
313.8199999999999
 20
210.13
 10
281.5199999999999
 20
210.13
  0
LINE
  5
244
330
2
100
AcDbEntity
  8
画層1
 62
     0
100
AcDbLine
 10
253.4
 20
241.6399999999999
 30
0.0
 11
253.4
 21
239.9799999999999
 31
0.0
  0
LINE
  5
245
330
2
100
AcDbEntity
  8
画層1
 62
     0
100
AcDbLine
 10
252.0
 20
235.0
 30
0.0
 11
252.0
 21
157.0
 31
0.0
  0
LINE
  5
246
330
2
100
AcDbEntity
  8
画層1
 62
     0
100
AcDbLine
 10
253.5
 20
195.4499999999999
 30
0.0
 11
253.5
 21
188.25
 31
0.0
  0
LINE
  5
247
330
2
100
AcDbEntity
  8
画層1
 62
     0
100
AcDbLine
 10
256.0
 20
195.4499999999999
 30
0.0
 11
256.0
 21
193.1499999999999
 31
0.0
  0
LINE
  5
248
330
2
100
AcDbEntity
  8
画層1
 62
     0
100
AcDbLine
 10
254.47
 20
195.35
 30
0.0
 11
254.47
 21
188.3499999999999
 31
0.0
  0
LINE
  5
249
330
2
100
AcDbEntity
  8
画層1
 62
     0
100
AcDbLine
 10
253.9699999999999
 20
188.3499999999999
 30
0.0
 11
253.9699999999999
 21
195.35
 31
0.0
  0
ARC
  5
24A
330
2
100
AcDbEntity
  8
画層1
 62
     0
100
AcDbCircle
 10
244.66
 20
191.6
 30
0.0
 40
11.44118730072771
100
AcDbArc
 50
4.259999999999999
 51
19.13
  0
ARC
  5
24B
330
2
100
AcDbEntity
  8
画層1
 62
     0
100
AcDbCircle
 10
244.5699999999999
 20
191.8499999999999
 30
0.0
 40
10.50674104301653
100
AcDbArc
 50
4.37
 51
19.46
  0
LINE
  5
24C
330
2
100
AcDbEntity
  8
画層1
 62
     0
100
AcDbLine
 10
251.6999999999999
 20
218.3
 30
0.0
 11
251.6999999999999
 21
157.3
 31
0.0
  0
TEXT
  5
24D
330
2
100
AcDbEntity
  8
画層1
 62
     0
100
AcDbText
 10
271.4399999999999
 20
190.2299999999999
 30
0.0
 40
5.0
  1
91.6
 50
90.0
  7
STYLE1
100
AcDbText
  0
LINE
  5
24E
330
2
100
AcDbEntity
  8
画層1
 62
     0
100
AcDbLine
 10
253.44
 20
195.49
 30
0.0
 11
253.44
 21
188.1999999999999
 31
0.0
  0
LINE
  5
24F
330
2
100
AcDbEntity
  8
画層1
 62
     0
100
AcDbLine
 10
253.4199999999999
 20
150.2899999999999
 30
0.0
 11
242.81
 21
150.2899999999999
 31
0.0
  0
LINE
  5
250
330
2
100
AcDbEntity
  8
画層1
 62
     0
100
AcDbLine
 10
242.86
 20
150.2899999999999
 30
0.0
 11
213.8199999999999
 21
150.2899999999999
 31
0.0
  0
LINE
  5
251
330
2
100
AcDbEntity
  8
画層1
 62
     0
100
AcDbLine
 10
253.5
 20
178.8499999999999
 30
0.0
 11
253.5
 21
171.65
 31
0.0
  0
ARC
  5
252
330
2
100
AcDbEntity
  8
画層1
 62
     0
100
AcDbCircle
 10
253.6999999999999
 20
171.8499999999999
 30
0.0
 40
0.2
100
AcDbArc
 50
180.0
 51
270.0
  0
ARC
  5
253
330
2
100
AcDbEntity
  8
画層1
 62
     0
100
AcDbCircle
 10
261.6999999999999
 20
171.3499999999999
 30
0.0
 40
0.3
100
AcDbArc
 50
0.0
 51
90.0
  0
LINE
  5
254
330
2
100
AcDbEntity
  8
画層1
 62
     0
100
AcDbLine
 10
256.0
 20
178.8499999999999
 30
0.0
 11
256.0
 21
171.65
 31
0.0
  0
LEADER
  5
255
330
2
100
AcDbEntity
  8
画層1
 62
     0
100
AcDbLeader
  3
STANDARD_WS
 76
     2
 10
272.0
 20
150.0
 30
0.0
 10
272.0
 20
193.0
 30
0.0
1001
ACAD
1000
DSTYLE
1002
{
1070
     6
1000
OPEN
1070
    47
1040
0.8
1070
    71
1070
     1
1070
    77
1070
     0
1070
   146
1040
0.5
1070
   147
1040
0.63
1070
   284
1070
     8
1070
   340
1005
2A
1002
}
  0
LINE
  5
256
330
2
100
AcDbEntity
  8
画層1
 62
     0
100
AcDbLine
 10
253.4499999999999
 20
174.76
 30
0.0
 11
253.4499999999999
 21
171.58
 31
0.0
  0
LINE
  5
257
330
2
100
AcDbEntity
  8
画層1
 62
     0
100
AcDbLine
 10
253.5
 20
155.05
 30
0.0
 11
261.6999999999999
 21
155.05
 31
0.0
  0
LINE
  5
258
330
2
100
AcDbEntity
  8
画層1
 62
     0
100
AcDbLine
 10
253.5
 20
152.0
 30
0.0
 11
261.2999999999999
 21
152.0
 31
0.0
  0
LINE
  5
259
330
2
100
AcDbEntity
  8
画層1
 62
     0
100
AcDbLine
 10
253.5
 20
162.25
 30
0.0
 11
261.6999999999999
 21
162.25
 31
0.0
  0
LINE
  5
25A
330
2
100
AcDbEntity
  8
画層1
 62
     0
100
AcDbLine
 10
253.5
 20
163.3499999999999
 30
0.0
 11
261.6999999999999
 21
163.3499999999999
 31
0.0
  0
LINE
  5
25B
330
2
100
AcDbEntity
  8
画層1
 62
     0
100
AcDbLine
 10
253.5
 20
170.55
 30
0.0
 11
261.6999999999999
 21
170.55
 31
0.0
  0
LINE
  5
25C
330
2
100
AcDbEntity
  8
画層1
 62
     0
100
AcDbLine
 10
253.5
 20
171.65
 30
0.0
 11
261.6999999999999
 21
171.65
 31
0.0
  0
LINE
  5
25D
330
2
100
AcDbEntity
  8
画層1
 62
     0
100
AcDbLine
 10
254.0
 20
150.0
 30
0.0
 11
274.0
 21
150.0
 31
0.0
  0
LINE
  5
25E
330
2
100
AcDbEntity
  8
画層1
 62
     0
100
AcDbLine
 10
253.4499999999999
 20
171.58
 30
0.0
 11
261.69
 21
171.58
 31
0.0
  0
LINE
  5
25F
330
2
100
AcDbEntity
  8
画層1
 62
     0
100
AcDbLine
 10
261.83
 20
170.5899999999999
 30
0.0
 11
253.4499999999999
 21
170.5899999999999
 31
0.0
  0
LINE
  5
260
330
2
100
AcDbEntity
  8
画層1
 62
     0
100
AcDbLine
 10
253.4499999999999
 20
163.3
 30
0.0
 11
261.7599999999999
 21
163.3
 31
0.0
  0
LINE
  5
261
330
2
100
AcDbEntity
  8
画層1
 62
     0
100
AcDbLine
 10
261.66
 20
162.3099999999999
 30
0.0
 11
253.4499999999999
 21
162.2799999999999
 31
0.0
  0
LINE
  5
262
330
2
100
AcDbEntity
  8
画層1
 62
     0
100
AcDbLine
 10
253.4499999999999
 20
154.9799999999999
 30
0.0
 11
261.66
 21
154.9799999999999
 31
0.0
  0
LINE
  5
263
330
2
100
AcDbEntity
  8
画層1
 62
     0
100
AcDbLine
 10
261.2799999999999
 20
152.0399999999999
 30
0.0
 11
253.4199999999999
 21
152.0699999999999
 31
0.0
  0
LINE
  5
264
330
2
100
AcDbEntity
  8
画層1
 62
     0
100
AcDbLine
 10
256.07
 20
161.07
 30
0.0
 11
256.07
 21
156.23
 31
0.0
  0
LINE
  5
265
330
2
100
AcDbEntity
  8
画層1
 62
     0
100
AcDbLine
 10
253.9699999999999
 20
155.15
 30
0.0
 11
253.9699999999999
 21
162.15
 31
0.0
  0
LINE
  5
266
330
2
100
AcDbEntity
  8
画層1
 62
     0
100
AcDbLine
 10
254.47
 20
162.15
 30
0.0
 11
254.47
 21
155.15
 31
0.0
  0
LINE
  5
267
330
2
100
AcDbEntity
  8
画層1
 62
     0
100
AcDbLine
 10
253.5
 20
162.25
 30
0.0
 11
253.5
 21
155.05
 31
0.0
  0
ARC
  5
268
330
2
100
AcDbEntity
  8
画層1
 62
     0
100
AcDbCircle
 10
244.5699999999999
 20
158.65
 30
0.0
 40
10.50674104301653
100
AcDbArc
 50
4.37
 51
19.46
  0
ARC
  5
269
330
2
100
AcDbEntity
  8
画層1
 62
     0
100
AcDbCircle
 10
244.66
 20
158.4
 30
0.0
 40
11.44118730072771
100
AcDbArc
 50
4.259999999999999
 51
19.13
  0
ARC
  5
26A
330
2
100
AcDbEntity
  8
画層1
 62
     0
100
AcDbCircle
 10
251.0299999999999
 20
158.65
 30
0.0
 40
7.540000001812724
100
AcDbArc
 50
3.799999999999999
 51
15.99
  0
LINE
  5
26B
330
2
100
AcDbEntity
  8
画層1
 62
     0
100
AcDbLine
 10
256.0
 20
162.25
 30
0.0
 11
256.0
 21
159.9499999999999
 31
0.0
  0
LINE
  5
26C
330
2
100
AcDbEntity
  8
画層1
 62
     0
100
AcDbLine
 10
253.4499999999999
 20
162.22
 30
0.0
 11
253.4499999999999
 21
154.9799999999999
 31
0.0
  0
LINE
  5
26D
330
2
100
AcDbEntity
  8
画層1
 62
     0
100
AcDbLine
 10
249.5
 20
154.1999999999999
 30
0.0
 11
253.5
 21
152.2
 31
0.0
  0
ARC
  5
26E
330
2
100
AcDbEntity
  8
画層1
 62
     0
100
AcDbCircle
 10
251.0
 20
157.0
 30
0.0
 40
1.0
100
AcDbArc
 50
270.0
 51
0.0
  0
ARC
  5
26F
330
2
100
AcDbEntity
  8
画層1
 62
     0
100
AcDbCircle
 10
250.7
 20
157.3
 30
0.0
 40
1.0
100
AcDbArc
 50
269.9899999999999
 51
0.0
  0
LINE
  5
270
330
2
100
AcDbEntity
  8
画層1
 62
     0
100
AcDbLine
 10
249.5
 20
150.1999999999999
 30
0.0
 11
249.5
 21
154.1999999999999
 31
0.0
  0
LINE
  5
271
330
2
100
AcDbEntity
  8
画層1
 62
     0
100
AcDbLine
 10
253.5
 20
151.8
 30
0.0
 11
257.6
 21
151.8
 31
0.0
  0
LINE
  5
272
330
2
100
AcDbEntity
  8
画層1
 62
     0
100
AcDbLine
 10
253.5
 20
150.1999999999999
 30
0.0
 11
253.5
 21
152.2
 31
0.0
  0
LINE
  5
273
330
2
100
AcDbEntity
  8
画層1
 62
     0
100
AcDbLine
 10
253.4199999999999
 20
152.0699999999999
 30
0.0
 11
253.4199999999999
 21
150.2899999999999
 31
0.0
  0
LINE
  5
274
330
2
100
AcDbEntity
  8
画層1
 62
     0
100
AcDbLine
 10
257.6
 20
151.8
 30
0.0
 11
257.6
 21
152.0
 31
0.0
  0
ARC
  5
275
330
2
100
AcDbEntity
  8
画層1
 62
     0
100
AcDbCircle
 10
244.5699999999999
 20
158.65
 30
0.0
 40
10.50674104301653
100
AcDbArc
 50
340.54
 51
355.63
  0
LINE
  5
276
330
2
100
AcDbEntity
  8
画層1
 62
     0
100
AcDbLine
 10
255.4699999999999
 20
155.15
 30
0.0
 11
253.5
 21
155.15
 31
0.0
  0
ARC
  5
277
330
2
100
AcDbEntity
  8
画層1
 62
     0
100
AcDbCircle
 10
253.6999999999999
 20
155.25
 30
0.0
 40
0.2
100
AcDbArc
 50
180.0
 51
270.0
  0
LINE
  5
278
330
2
100
AcDbEntity
  8
画層1
 62
     0
100
AcDbLine
 10
255.0399999999999
 20
159.45
 30
0.0
 11
254.47
 21
159.45
 31
0.0
  0
LINE
  5
279
330
2
100
AcDbEntity
  8
画層1
 62
     0
100
AcDbLine
 10
255.0399999999999
 20
157.85
 30
0.0
 11
254.47
 21
157.85
 31
0.0
  0
ARC
  5
27A
330
2
100
AcDbEntity
  8
画層1
 62
     0
100
AcDbCircle
 10
251.0299999999999
 20
158.65
 30
0.0
 40
7.540000001812724
100
AcDbArc
 50
344.01
 51
356.1999999999999
  0
ARC
  5
27B
330
2
100
AcDbEntity
  8
画層1
 62
     0
100
AcDbCircle
 10
244.66
 20
158.9
 30
0.0
 40
11.44118729799423
100
AcDbArc
 50
340.87
 51
355.74
  0
LINE
  5
27C
330
2
100
AcDbEntity
  8
画層1
 62
     0
100
AcDbLine
 10
256.0
 20
157.3499999999999
 30
0.0
 11
256.0
 21
155.05
 31
0.0
  0
ARC
  5
27D
330
2
100
AcDbEntity
  8
画層1
 62
     0
100
AcDbCircle
 10
257.3199999999999
 20
156.85
 30
0.0
 40
1.0
100
AcDbArc
 50
278.5299999999999
 51
344.01
  0
ARC
  5
27E
330
2
100
AcDbEntity
  8
画層1
 62
     0
100
AcDbCircle
 10
256.57
 20
156.23
 30
0.0
 40
0.5
100
AcDbArc
 50
180.0
 51
278.5299999999999
  0
LINE
  5
27F
330
2
100
AcDbEntity
  8
画層1
 62
     0
100
AcDbLine
 10
256.65
 20
155.74
 30
0.0
 11
257.47
 21
155.86
 31
0.0
  0
LINE
  5
280
330
2
100
AcDbEntity
  8
画層1
 62
     0
100
AcDbLine
 10
256.07
 20
159.25
 30
0.0
 11
255.6699999999999
 21
159.25
 31
0.0
  0
LINE
  5
281
330
2
100
AcDbEntity
  8
画層1
 62
     0
100
AcDbLine
 10
258.5599999999999
 20
159.15
 30
0.0
 11
257.5699999999999
 21
159.15
 31
0.0
  0
LINE
  5
282
330
2
100
AcDbEntity
  8
画層1
 62
     0
100
AcDbLine
 10
257.5699999999999
 20
158.15
 30
0.0
 11
258.5599999999999
 21
158.15
 31
0.0
  0
LINE
  5
283
330
2
100
AcDbEntity
  8
画層1
 62
     0
100
AcDbLine
 10
257.5699999999999
 20
159.15
 30
0.0
 11
257.5699999999999
 21
158.15
 31
0.0
  0
LINE
  5
284
330
2
100
AcDbEntity
  8
画層1
 62
     0
100
AcDbLine
 10
255.6699999999999
 20
158.05
 30
0.0
 11
256.07
 21
158.05
 31
0.0
  0
LINE
  5
285
330
2
100
AcDbEntity
  8
画層1
 62
     0
100
AcDbLine
 10
255.6699999999999
 20
159.25
 30
0.0
 11
255.6699999999999
 21
158.05
 31
0.0
  0
LINE
  5
286
330
2
100
AcDbEntity
  8
画層1
 62
     0
100
AcDbLine
 10
253.5
 20
170.55
 30
0.0
 11
253.5
 21
163.3499999999999
 31
0.0
  0
LINE
  5
287
330
2
100
AcDbEntity
  8
画層1
 62
     0
100
AcDbLine
 10
254.47
 20
170.4499999999999
 30
0.0
 11
254.47
 21
163.4499999999999
 31
0.0
  0
LINE
  5
288
330
2
100
AcDbEntity
  8
画層1
 62
     0
100
AcDbLine
 10
253.9699999999999
 20
163.4499999999999
 30
0.0
 11
253.9699999999999
 21
170.4499999999999
 31
0.0
  0
LINE
  5
289
330
2
100
AcDbEntity
  8
画層1
 62
     0
100
AcDbLine
 10
256.07
 20
169.3699999999999
 30
0.0
 11
256.07
 21
164.5299999999999
 31
0.0
  0
ARC
  5
28A
330
2
100
AcDbEntity
  8
画層1
 62
     0
100
AcDbCircle
 10
244.66
 20
167.1999999999999
 30
0.0
 40
11.44118729799423
100
AcDbArc
 50
340.87
 51
355.74
  0
ARC
  5
28B
330
2
100
AcDbEntity
  8
画層1
 62
     0
100
AcDbCircle
 10
244.5699999999999
 20
166.95
 30
0.0
 40
10.50674104301653
100
AcDbArc
 50
340.54
 51
355.63
  0
ARC
  5
28C
330
2
100
AcDbEntity
  8
画層1
 62
     0
100
AcDbCircle
 10
251.0299999999999
 20
166.95
 30
0.0
 40
7.540000001812724
100
AcDbArc
 50
344.01
 51
356.1999999999999
  0
LINE
  5
28D
330
2
100
AcDbEntity
  8
画層1
 62
     0
100
AcDbLine
 10
253.4499999999999
 20
170.5899999999999
 30
0.0
 11
253.4499999999999
 21
163.3
 31
0.0
  0
LINE
  5
28E
330
2
100
AcDbEntity
  8
画層1
 62
     0
100
AcDbLine
 10
255.4699999999999
 20
163.4499999999999
 30
0.0
 11
253.5
 21
163.4499999999999
 31
0.0
  0
LINE
  5
28F
330
2
100
AcDbEntity
  8
画層1
 62
     0
100
AcDbLine
 10
253.5
 20
162.15
 30
0.0
 11
255.4699999999999
 21
162.15
 31
0.0
  0
ARC
  5
290
330
2
100
AcDbEntity
  8
画層1
 62
     0
100
AcDbCircle
 10
253.6999999999999
 20
163.55
 30
0.0
 40
0.2
100
AcDbArc
 50
180.0
 51
270.0
  0
ARC
  5
291
330
2
100
AcDbEntity
  8
画層1
 62
     0
100
AcDbCircle
 10
253.6999999999999
 20
162.05
 30
0.0
 40
0.2
100
AcDbArc
 50
90.0
 51
180.0
  0
LINE
  5
292
330
2
100
AcDbEntity
  8
画層1
 62
     0
100
AcDbLine
 10
256.65
 20
164.0399999999999
 30
0.0
 11
257.47
 21
164.1599999999999
 31
0.0
  0
ARC
  5
293
330
2
100
AcDbEntity
  8
画層1
 62
     0
100
AcDbCircle
 10
256.57
 20
164.5299999999999
 30
0.0
 40
0.5
100
AcDbArc
 50
180.0
 51
278.5299999999999
  0
ARC
  5
294
330
2
100
AcDbEntity
  8
画層1
 62
     0
100
AcDbCircle
 10
257.3199999999999
 20
165.15
 30
0.0
 40
1.0
100
AcDbArc
 50
278.5299999999999
 51
344.01
  0
LINE
  5
295
330
2
100
AcDbEntity
  8
画層1
 62
     0
100
AcDbLine
 10
256.0
 20
165.65
 30
0.0
 11
256.0
 21
163.3499999999999
 31
0.0
  0
ARC
  5
296
330
2
100
AcDbEntity
  8
画層1
 62
     0
100
AcDbCircle
 10
257.3199999999999
 20
160.4499999999999
 30
0.0
 40
1.0
100
AcDbArc
 50
15.99
 51
81.47
  0
ARC
  5
297
330
2
100
AcDbEntity
  8
画層1
 62
     0
100
AcDbCircle
 10
256.57
 20
161.07
 30
0.0
 40
0.5
100
AcDbArc
 50
81.47
 51
180.0
  0
LINE
  5
298
330
2
100
AcDbEntity
  8
画層1
 62
     0
100
AcDbLine
 10
256.65
 20
161.56
 30
0.0
 11
257.47
 21
161.44
 31
0.0
  0
LINE
  5
299
330
2
100
AcDbEntity
  8
画層1
 62
     0
100
AcDbLine
 10
253.5
 20
170.4499999999999
 30
0.0
 11
255.4699999999999
 21
170.4499999999999
 31
0.0
  0
ARC
  5
29A
330
2
100
AcDbEntity
  8
画層1
 62
     0
100
AcDbCircle
 10
244.5699999999999
 20
166.95
 30
0.0
 40
10.50674104301653
100
AcDbArc
 50
4.37
 51
19.46
  0
ARC
  5
29B
330
2
100
AcDbEntity
  8
画層1
 62
     0
100
AcDbCircle
 10
253.6999999999999
 20
170.35
 30
0.0
 40
0.2
100
AcDbArc
 50
90.0
 51
180.0
  0
LINE
  5
29C
330
2
100
AcDbEntity
  8
画層1
 62
     0
100
AcDbLine
 10
255.0399999999999
 20
166.15
 30
0.0
 11
254.47
 21
166.15
 31
0.0
  0
LINE
  5
29D
330
2
100
AcDbEntity
  8
画層1
 62
     0
100
AcDbLine
 10
255.0399999999999
 20
167.75
 30
0.0
 11
254.47
 21
167.75
 31
0.0
  0
LINE
  5
29E
330
2
100
AcDbEntity
  8
画層1
 62
     0
100
AcDbLine
 10
256.0
 20
170.55
 30
0.0
 11
256.0
 21
168.25
 31
0.0
  0
LINE
  5
29F
330
2
100
AcDbEntity
  8
画層1
 62
     0
100
AcDbLine
 10
255.6699999999999
 20
167.55
 30
0.0
 11
255.6699999999999
 21
166.3499999999999
 31
0.0
  0
ARC
  5
2A0
330
2
100
AcDbEntity
  8
画層1
 62
     0
100
AcDbCircle
 10
251.0299999999999
 20
166.95
 30
0.0
 40
7.540000001812724
100
AcDbArc
 50
3.799999999999999
 51
15.99
  0
LINE
  5
2A1
330
2
100
AcDbEntity
  8
画層1
 62
     0
100
AcDbLine
 10
255.6699999999999
 20
166.3499999999999
 30
0.0
 11
256.07
 21
166.3499999999999
 31
0.0
  0
LINE
  5
2A2
330
2
100
AcDbEntity
  8
画層1
 62
     0
100
AcDbLine
 10
257.5699999999999
 20
167.4499999999999
 30
0.0
 11
257.5699999999999
 21
166.4499999999999
 31
0.0
  0
LINE
  5
2A3
330
2
100
AcDbEntity
  8
画層1
 62
     0
100
AcDbLine
 10
257.5699999999999
 20
166.4499999999999
 30
0.0
 11
258.5599999999999
 21
166.4499999999999
 31
0.0
  0
LINE
  5
2A4
330
2
100
AcDbEntity
  8
画層1
 62
     0
100
AcDbLine
 10
258.5599999999999
 20
167.4499999999999
 30
0.0
 11
257.5699999999999
 21
167.4499999999999
 31
0.0
  0
LINE
  5
2A5
330
2
100
AcDbEntity
  8
画層1
 62
     0
100
AcDbLine
 10
256.65
 20
169.86
 30
0.0
 11
257.47
 21
169.74
 31
0.0
  0
ARC
  5
2A6
330
2
100
AcDbEntity
  8
画層1
 62
     0
100
AcDbCircle
 10
256.57
 20
169.3699999999999
 30
0.0
 40
0.5
100
AcDbArc
 50
81.47
 51
180.0
  0
LINE
  5
2A7
330
2
100
AcDbEntity
  8
画層1
 62
     0
100
AcDbLine
 10
256.07
 20
167.55
 30
0.0
 11
255.6699999999999
 21
167.55
 31
0.0
  0
ARC
  5
2A8
330
2
100
AcDbEntity
  8
画層1
 62
     0
100
AcDbCircle
 10
244.66
 20
166.6999999999999
 30
0.0
 40
11.44118730072771
100
AcDbArc
 50
4.259999999999999
 51
19.13
  0
ARC
  5
2A9
330
2
100
AcDbEntity
  8
画層1
 62
     0
100
AcDbCircle
 10
257.3199999999999
 20
168.75
 30
0.0
 40
1.0
100
AcDbArc
 50
15.99
 51
81.47
  0
LINE
  5
2AA
330
2
100
AcDbEntity
  8
画層1
 62
     0
100
AcDbLine
 10
262.0
 20
154.75
 30
0.0
 11
262.0
 21
152.6999999999999
 31
0.0
  0
LINE
  5
2AB
330
2
100
AcDbEntity
  8
画層1
 62
     0
100
AcDbLine
 10
261.97
 20
154.77
 30
0.0
 11
261.9299999999999
 21
152.75
 31
0.0
  0
ARC
  5
2AC
330
2
100
AcDbEntity
  8
画層1
 62
     0
100
AcDbCircle
 10
261.2999999999999
 20
152.6999999999999
 30
0.0
 40
0.7
100
AcDbArc
 50
270.0
 51
360.0
  0
LINE
  5
2AD
330
2
100
AcDbEntity
  8
画層1
 62
     0
100
AcDbLine
 10
261.9299999999999
 20
152.75
 30
0.0
 11
261.73
 21
152.21
 31
0.0
  0
LINE
  5
2AE
330
2
100
AcDbEntity
  8
画層1
 62
     0
100
AcDbLine
 10
261.73
 20
152.21
 30
0.0
 11
261.2799999999999
 21
152.0399999999999
 31
0.0
  0
ARC
  5
2AF
330
2
100
AcDbEntity
  8
画層1
 62
     0
100
AcDbCircle
 10
261.6999999999999
 20
154.75
 30
0.0
 40
0.3
100
AcDbArc
 50
360.0
 51
90.0
  0
LINE
  5
2B0
330
2
100
AcDbEntity
  8
画層1
 62
     0
100
AcDbLine
 10
261.66
 20
154.9799999999999
 30
0.0
 11
261.97
 21
154.77
 31
0.0
  0
ARC
  5
2B1
330
2
100
AcDbEntity
  8
画層1
 62
     0
100
AcDbCircle
 10
261.6999999999999
 20
163.05
 30
0.0
 40
0.3
100
AcDbArc
 50
0.0
 51
90.0
  0
ARC
  5
2B2
330
2
100
AcDbEntity
  8
画層1
 62
     0
100
AcDbCircle
 10
261.6999999999999
 20
162.55
 30
0.0
 40
0.3
100
AcDbArc
 50
270.0
 51
0.0
  0
LINE
  5
2B3
330
2
100
AcDbEntity
  8
画層1
 62
     0
100
AcDbLine
 10
262.0
 20
163.05
 30
0.0
 11
262.0
 21
162.55
 31
0.0
  0
LINE
  5
2B4
330
2
100
AcDbEntity
  8
画層1
 62
     0
100
AcDbLine
 10
261.7599999999999
 20
163.3
 30
0.0
 11
261.97
 21
163.1299999999999
 31
0.0
  0
LINE
  5
2B5
330
2
100
AcDbEntity
  8
画層1
 62
     0
100
AcDbLine
 10
261.97
 20
163.1299999999999
 30
0.0
 11
261.97
 21
162.59
 31
0.0
  0
LINE
  5
2B6
330
2
100
AcDbEntity
  8
画層1
 62
     0
100
AcDbLine
 10
261.97
 20
162.59
 30
0.0
 11
261.66
 21
162.3099999999999
 31
0.0
  0
ARC
  5
2B7
330
2
100
AcDbEntity
  8
画層1
 62
     0
100
AcDbCircle
 10
261.6999999999999
 20
170.8499999999999
 30
0.0
 40
0.3
100
AcDbArc
 50
270.0
 51
0.0
  0
LINE
  5
2B8
330
2
100
AcDbEntity
  8
画層1
 62
     0
100
AcDbLine
 10
262.0
 20
171.3499999999999
 30
0.0
 11
262.0
 21
170.8499999999999
 31
0.0
  0
LINE
  5
2B9
330
2
100
AcDbEntity
  8
画層1
 62
     0
100
AcDbLine
 10
261.69
 20
171.58
 30
0.0
 11
261.97
 21
171.37
 31
0.0
  0
LINE
  5
2BA
330
2
100
AcDbEntity
  8
画層1
 62
     0
100
AcDbLine
 10
261.97
 20
171.37
 30
0.0
 11
261.97
 21
170.8899999999999
 31
0.0
  0
LINE
  5
2BB
330
2
100
AcDbEntity
  8
画層1
 62
     0
100
AcDbLine
 10
261.97
 20
170.8899999999999
 30
0.0
 11
261.83
 21
170.5899999999999
 31
0.0
  0
LINE
  5
2BC
330
2
100
AcDbEntity
  8
画層1
 62
     0
100
AcDbLine
 10
253.5
 20
178.8499999999999
 30
0.0
 11
261.6999999999999
 21
178.8499999999999
 31
0.0
  0
LINE
  5
2BD
330
2
100
AcDbEntity
  8
画層1
 62
     0
100
AcDbLine
 10
253.5
 20
179.9499999999999
 30
0.0
 11
261.6999999999999
 21
179.9499999999999
 31
0.0
  0
LINE
  5
2BE
330
2
100
AcDbEntity
  8
画層1
 62
     0
100
AcDbLine
 10
253.5
 20
187.15
 30
0.0
 11
261.6999999999999
 21
187.15
 31
0.0
  0
LINE
  5
2BF
330
2
100
AcDbEntity
  8
画層1
 62
     0
100
AcDbLine
 10
253.5
 20
188.25
 30
0.0
 11
261.6999999999999
 21
188.25
 31
0.0
  0
LINE
  5
2C0
330
2
100
AcDbEntity
  8
画層1
 62
     0
100
AcDbLine
 10
253.44
 20
188.1999999999999
 30
0.0
 11
261.6999999999999
 21
188.2299999999999
 31
0.0
  0
LINE
  5
2C1
330
2
100
AcDbEntity
  8
画層1
 62
     0
100
AcDbLine
 10
261.7599999999999
 20
187.21
 30
0.0
 11
253.44
 21
187.21
 31
0.0
  0
LINE
  5
2C2
330
2
100
AcDbEntity
  8
画層1
 62
     0
100
AcDbLine
 10
253.4499999999999
 20
179.8899999999999
 30
0.0
 11
261.66
 21
179.8899999999999
 31
0.0
  0
LINE
  5
2C3
330
2
100
AcDbEntity
  8
画層1
 62
     0
100
AcDbLine
 10
261.7399999999999
 20
178.9099999999999
 30
0.0
 11
253.4499999999999
 21
178.9099999999999
 31
0.0
  0
LINE
  5
2C4
330
2
100
AcDbEntity
  8
画層1
 62
     0
100
AcDbLine
 10
253.5
 20
187.15
 30
0.0
 11
253.5
 21
179.9499999999999
 31
0.0
  0
LINE
  5
2C5
330
2
100
AcDbEntity
  8
画層1
 62
     0
100
AcDbLine
 10
255.6699999999999
 20
184.15
 30
0.0
 11
255.6699999999999
 21
182.9499999999999
 31
0.0
  0
LINE
  5
2C6
330
2
100
AcDbEntity
  8
画層1
 62
     0
100
AcDbLine
 10
254.47
 20
187.05
 30
0.0
 11
254.47
 21
180.05
 31
0.0
  0
LINE
  5
2C7
330
2
100
AcDbEntity
  8
画層1
 62
     0
100
AcDbLine
 10
253.9699999999999
 20
180.05
 30
0.0
 11
253.9699999999999
 21
187.05
 31
0.0
  0
LINE
  5
2C8
330
2
100
AcDbEntity
  8
画層1
 62
     0
100
AcDbLine
 10
256.07
 20
185.97
 30
0.0
 11
256.07
 21
181.1299999999999
 31
0.0
  0
LINE
  5
2C9
330
2
100
AcDbEntity
  8
画層1
 62
     0
100
AcDbLine
 10
257.5699999999999
 20
184.05
 30
0.0
 11
257.5699999999999
 21
183.05
 31
0.0
  0
LINE
  5
2CA
330
2
100
AcDbEntity
  8
画層1
 62
     0
100
AcDbLine
 10
253.4499999999999
 20
187.1699999999999
 30
0.0
 11
253.4499999999999
 21
179.8899999999999
 31
0.0
  0
LINE
  5
2CB
330
2
100
AcDbEntity
  8
画層1
 62
     0
100
AcDbLine
 10
256.07
 20
177.6699999999999
 30
0.0
 11
256.07
 21
172.83
 31
0.0
  0
ARC
  5
2CC
330
2
100
AcDbEntity
  8
画層1
 62
     0
100
AcDbCircle
 10
257.3199999999999
 20
177.05
 30
0.0
 40
1.0
100
AcDbArc
 50
15.99
 51
81.47
  0
LINE
  5
2CD
330
2
100
AcDbEntity
  8
画層1
 62
     0
100
AcDbLine
 10
253.4499999999999
 20
178.9099999999999
 30
0.0
 11
253.4499999999999
 21
174.6699999999999
 31
0.0
  0
ARC
  5
2CE
330
2
100
AcDbEntity
  8
画層1
 62
     0
100
AcDbCircle
 10
244.66
 20
175.0
 30
0.0
 40
11.44118730072771
100
AcDbArc
 50
4.259999999999999
 51
7.759999999999998
  0
ARC
  5
2CF
330
2
100
AcDbEntity
  8
画層1
 62
     0
100
AcDbCircle
 10
257.3199999999999
 20
173.4499999999999
 30
0.0
 40
1.0
100
AcDbArc
 50
278.5299999999999
 51
344.01
  0
ARC
  5
2D0
330
2
100
AcDbEntity
  8
画層1
 62
     0
100
AcDbCircle
 10
256.57
 20
172.83
 30
0.0
 40
0.5
100
AcDbArc
 50
180.0
 51
278.5299999999999
  0
ARC
  5
2D1
330
2
100
AcDbEntity
  8
画層1
 62
     0
100
AcDbCircle
 10
244.66
 20
175.5
 30
0.0
 40
11.44118729799423
100
AcDbArc
 50
352.24
 51
355.74
  0
LINE
  5
2D2
330
2
100
AcDbEntity
  8
画層1
 62
     0
100
AcDbLine
 10
256.65
 20
172.3399999999999
 30
0.0
 11
257.47
 21
172.46
 31
0.0
  0
LINE
  5
2D3
330
2
100
AcDbEntity
  8
画層1
 62
     0
100
AcDbLine
 10
256.0
 20
174.65
 30
0.0
 11
256.07
 21
174.65
 31
0.0
  0
LINE
  5
2D4
330
2
100
AcDbEntity
  8
画層1
 62
     0
100
AcDbLine
 10
256.07
 20
175.8499999999999
 30
0.0
 11
256.0
 21
175.8499999999999
 31
0.0
  0
LINE
  5
2D5
330
2
100
AcDbEntity
  8
画層1
 62
     0
100
AcDbLine
 10
257.5699999999999
 20
175.75
 30
0.0
 11
257.5699999999999
 21
174.75
 31
0.0
  0
LINE
  5
2D6
330
2
100
AcDbEntity
  8
画層1
 62
     0
100
AcDbLine
 10
257.5699999999999
 20
174.75
 30
0.0
 11
258.5599999999999
 21
174.75
 31
0.0
  0
LINE
  5
2D7
330
2
100
AcDbEntity
  8
画層1
 62
     0
100
AcDbLine
 10
258.5599999999999
 20
175.75
 30
0.0
 11
257.5699999999999
 21
175.75
 31
0.0
  0
ARC
  5
2D8
330
2
100
AcDbEntity
  8
画層1
 62
     0
100
AcDbCircle
 10
251.0299999999999
 20
175.2499999999999
 30
0.0
 40
7.540000001812724
100
AcDbArc
 50
3.799999999999999
 51
15.99
  0
ARC
  5
2D9
330
2
100
AcDbEntity
  8
画層1
 62
     0
100
AcDbCircle
 10
251.0299999999999
 20
175.2499999999999
 30
0.0
 40
7.540000001812724
100
AcDbArc
 50
344.01
 51
356.1999999999999
  0
ARC
  5
2DA
330
2
100
AcDbEntity
  8
画層1
 62
     0
100
AcDbCircle
 10
244.5699999999999
 20
183.55
 30
0.0
 40
10.50674104301653
100
AcDbArc
 50
340.54
 51
355.63
  0
LINE
  5
2DB
330
2
100
AcDbEntity
  8
画層1
 62
     0
100
AcDbLine
 10
255.4699999999999
 20
180.05
 30
0.0
 11
253.5
 21
180.05
 31
0.0
  0
ARC
  5
2DC
330
2
100
AcDbEntity
  8
画層1
 62
     0
100
AcDbCircle
 10
253.6999999999999
 20
178.65
 30
0.0
 40
0.2
100
AcDbArc
 50
90.0
 51
180.0
  0
ARC
  5
2DD
330
2
100
AcDbEntity
  8
画層1
 62
     0
100
AcDbCircle
 10
253.6999999999999
 20
180.15
 30
0.0
 40
0.2
100
AcDbArc
 50
180.0
 51
270.0
  0
LINE
  5
2DE
330
2
100
AcDbEntity
  8
画層1
 62
     0
100
AcDbLine
 10
255.0399999999999
 20
182.75
 30
0.0
 11
254.47
 21
182.75
 31
0.0
  0
LINE
  5
2DF
330
2
100
AcDbEntity
  8
画層1
 62
     0
100
AcDbLine
 10
256.65
 20
180.64
 30
0.0
 11
257.47
 21
180.7599999999999
 31
0.0
  0
LINE
  5
2E0
330
2
100
AcDbEntity
  8
画層1
 62
     0
100
AcDbLine
 10
255.6699999999999
 20
182.9499999999999
 30
0.0
 11
256.07
 21
182.9499999999999
 31
0.0
  0
ARC
  5
2E1
330
2
100
AcDbEntity
  8
画層1
 62
     0
100
AcDbCircle
 10
244.66
 20
183.8
 30
0.0
 40
11.44118729799423
100
AcDbArc
 50
340.87
 51
355.74
  0
ARC
  5
2E2
330
2
100
AcDbEntity
  8
画層1
 62
     0
100
AcDbCircle
 10
256.57
 20
181.1299999999999
 30
0.0
 40
0.5
100
AcDbArc
 50
180.0
 51
278.5299999999999
  0
ARC
  5
2E3
330
2
100
AcDbEntity
  8
画層1
 62
     0
100
AcDbCircle
 10
251.0299999999999
 20
183.55
 30
0.0
 40
7.540000001812724
100
AcDbArc
 50
344.01
 51
356.1999999999999
  0
ARC
  5
2E4
330
2
100
AcDbEntity
  8
画層1
 62
     0
100
AcDbCircle
 10
257.3199999999999
 20
181.75
 30
0.0
 40
1.0
100
AcDbArc
 50
278.5299999999999
 51
344.01
  0
LINE
  5
2E5
330
2
100
AcDbEntity
  8
画層1
 62
     0
100
AcDbLine
 10
257.5699999999999
 20
183.05
 30
0.0
 11
258.5599999999999
 21
183.05
 31
0.0
  0
ARC
  5
2E6
330
2
100
AcDbEntity
  8
画層1
 62
     0
100
AcDbCircle
 10
256.57
 20
177.6699999999999
 30
0.0
 40
0.5
100
AcDbArc
 50
81.47
 51
180.0
  0
LINE
  5
2E7
330
2
100
AcDbEntity
  8
画層1
 62
     0
100
AcDbLine
 10
256.65
 20
178.16
 30
0.0
 11
257.47
 21
178.04
 31
0.0
  0
LINE
  5
2E8
330
2
100
AcDbEntity
  8
画層1
 62
     0
100
AcDbLine
 10
256.0
 20
182.2499999999999
 30
0.0
 11
256.0
 21
179.9499999999999
 31
0.0
  0
ARC
  5
2E9
330
2
100
AcDbEntity
  8
画層1
 62
     0
100
AcDbCircle
 10
244.66
 20
192.1
 30
0.0
 40
11.44118729799423
100
AcDbArc
 50
340.87
 51
355.74
  0
ARC
  5
2EA
330
2
100
AcDbEntity
  8
画層1
 62
     0
100
AcDbCircle
 10
244.5699999999999
 20
191.8499999999999
 30
0.0
 40
10.50674104301653
100
AcDbArc
 50
340.54
 51
355.63
  0
ARC
  5
2EB
330
2
100
AcDbEntity
  8
画層1
 62
     0
100
AcDbCircle
 10
256.57
 20
189.43
 30
0.0
 40
0.5
100
AcDbArc
 50
180.0
 51
278.5299999999999
  0
ARC
  5
2EC
330
2
100
AcDbEntity
  8
画層1
 62
     0
100
AcDbCircle
 10
257.3199999999999
 20
190.05
 30
0.0
 40
1.0
100
AcDbArc
 50
278.5299999999999
 51
344.01
  0
LINE
  5
2ED
330
2
100
AcDbEntity
  8
画層1
 62
     0
100
AcDbLine
 10
256.0
 20
190.55
 30
0.0
 11
256.0
 21
188.25
 31
0.0
  0
LINE
  5
2EE
330
2
100
AcDbEntity
  8
画層1
 62
     0
100
AcDbLine
 10
255.4699999999999
 20
188.3499999999999
 30
0.0
 11
253.5
 21
188.3499999999999
 31
0.0
  0
LINE
  5
2EF
330
2
100
AcDbEntity
  8
画層1
 62
     0
100
AcDbLine
 10
253.5
 20
187.05
 30
0.0
 11
255.4699999999999
 21
187.05
 31
0.0
  0
ARC
  5
2F0
330
2
100
AcDbEntity
  8
画層1
 62
     0
100
AcDbCircle
 10
244.5699999999999
 20
183.55
 30
0.0
 40
10.50674104301653
100
AcDbArc
 50
4.37
 51
19.46
  0
ARC
  5
2F1
330
2
100
AcDbEntity
  8
画層1
 62
     0
100
AcDbCircle
 10
253.6999999999999
 20
186.95
 30
0.0
 40
0.2
100
AcDbArc
 50
90.0
 51
180.0
  0
ARC
  5
2F2
330
2
100
AcDbEntity
  8
画層1
 62
     0
100
AcDbCircle
 10
253.6999999999999
 20
188.4499999999999
 30
0.0
 40
0.2
100
AcDbArc
 50
180.0
 51
270.0
  0
LINE
  5
2F3
330
2
100
AcDbEntity
  8
画層1
 62
     0
100
AcDbLine
 10
255.0399999999999
 20
184.3499999999999
 30
0.0
 11
254.47
 21
184.3499999999999
 31
0.0
  0
LINE
  5
2F4
330
2
100
AcDbEntity
  8
画層1
 62
     0
100
AcDbLine
 10
256.0
 20
187.15
 30
0.0
 11
256.0
 21
184.8499999999999
 31
0.0
  0
LINE
  5
2F5
330
2
100
AcDbEntity
  8
画層1
 62
     0
100
AcDbLine
 10
256.65
 20
188.94
 30
0.0
 11
257.47
 21
189.06
 31
0.0
  0
ARC
  5
2F6
330
2
100
AcDbEntity
  8
画層1
 62
     0
100
AcDbCircle
 10
251.0299999999999
 20
183.55
 30
0.0
 40
7.540000001812724
100
AcDbArc
 50
3.799999999999999
 51
15.99
  0
LINE
  5
2F7
330
2
100
AcDbEntity
  8
画層1
 62
     0
100
AcDbLine
 10
258.5599999999999
 20
184.05
 30
0.0
 11
257.5699999999999
 21
184.05
 31
0.0
  0
LINE
  5
2F8
330
2
100
AcDbEntity
  8
画層1
 62
     0
100
AcDbLine
 10
256.65
 20
186.46
 30
0.0
 11
257.47
 21
186.34
 31
0.0
  0
ARC
  5
2F9
330
2
100
AcDbEntity
  8
画層1
 62
     0
100
AcDbCircle
 10
256.57
 20
185.97
 30
0.0
 40
0.5
100
AcDbArc
 50
81.47
 51
180.0
  0
LINE
  5
2FA
330
2
100
AcDbEntity
  8
画層1
 62
     0
100
AcDbLine
 10
256.07
 20
184.15
 30
0.0
 11
255.6699999999999
 21
184.15
 31
0.0
  0
ARC
  5
2FB
330
2
100
AcDbEntity
  8
画層1
 62
     0
100
AcDbCircle
 10
244.66
 20
183.3
 30
0.0
 40
11.44118730072771
100
AcDbArc
 50
4.259999999999999
 51
19.13
  0
ARC
  5
2FC
330
2
100
AcDbEntity
  8
画層1
 62
     0
100
AcDbCircle
 10
257.3199999999999
 20
185.35
 30
0.0
 40
1.0
100
AcDbArc
 50
15.99
 51
81.47
  0
LINE
  5
2FD
330
2
100
AcDbEntity
  8
画層1
 62
     0
100
AcDbLine
 10
255.0399999999999
 20
192.65
 30
0.0
 11
254.47
 21
192.65
 31
0.0
  0
LINE
  5
2FE
330
2
100
AcDbEntity
  8
画層1
 62
     0
100
AcDbLine
 10
255.0399999999999
 20
191.05
 30
0.0
 11
254.47
 21
191.05
 31
0.0
  0
ARC
  5
2FF
330
2
100
AcDbEntity
  8
画層1
 62
     0
100
AcDbCircle
 10
251.0299999999999
 20
191.8499999999999
 30
0.0
 40
7.540000001812724
100
AcDbArc
 50
344.01
 51
356.1999999999999
  0
LINE
  5
300
330
2
100
AcDbEntity
  8
画層1
 62
     0
100
AcDbLine
 10
256.07
 20
194.27
 30
0.0
 11
256.07
 21
189.43
 31
0.0
  0
LINE
  5
301
330
2
100
AcDbEntity
  8
画層1
 62
     0
100
AcDbLine
 10
256.65
 20
194.7599999999999
 30
0.0
 11
257.47
 21
194.6399999999999
 31
0.0
  0
ARC
  5
302
330
2
100
AcDbEntity
  8
画層1
 62
     0
100
AcDbCircle
 10
256.57
 20
194.27
 30
0.0
 40
0.5
100
AcDbArc
 50
81.47
 51
180.0
  0
LINE
  5
303
330
2
100
AcDbEntity
  8
画層1
 62
     0
100
AcDbLine
 10
256.07
 20
192.4499999999999
 30
0.0
 11
255.6699999999999
 21
192.4499999999999
 31
0.0
  0
LINE
  5
304
330
2
100
AcDbEntity
  8
画層1
 62
     0
100
AcDbLine
 10
255.6699999999999
 20
191.25
 30
0.0
 11
256.07
 21
191.25
 31
0.0
  0
LINE
  5
305
330
2
100
AcDbEntity
  8
画層1
 62
     0
100
AcDbLine
 10
255.6699999999999
 20
192.4499999999999
 30
0.0
 11
255.6699999999999
 21
191.25
 31
0.0
  0
ARC
  5
306
330
2
100
AcDbEntity
  8
画層1
 62
     0
100
AcDbCircle
 10
257.3199999999999
 20
193.65
 30
0.0
 40
1.0
100
AcDbArc
 50
15.99
 51
81.47
  0
LINE
  5
307
330
2
100
AcDbEntity
  8
画層1
 62
     0
100
AcDbLine
 10
258.5599999999999
 20
192.3499999999999
 30
0.0
 11
257.5699999999999
 21
192.3499999999999
 31
0.0
  0
ARC
  5
308
330
2
100
AcDbEntity
  8
画層1
 62
     0
100
AcDbCircle
 10
251.0299999999999
 20
191.8499999999999
 30
0.0
 40
7.540000001812724
100
AcDbArc
 50
3.799999999999999
 51
15.99
  0
LINE
  5
309
330
2
100
AcDbEntity
  8
画層1
 62
     0
100
AcDbLine
 10
257.5699999999999
 20
191.3499999999999
 30
0.0
 11
258.5599999999999
 21
191.3499999999999
 31
0.0
  0
LINE
  5
30A
330
2
100
AcDbEntity
  8
画層1
 62
     0
100
AcDbLine
 10
257.5699999999999
 20
192.3499999999999
 30
0.0
 11
257.5699999999999
 21
191.3499999999999
 31
0.0
  0
ARC
  5
30B
330
2
100
AcDbEntity
  8
画層1
 62
     0
100
AcDbCircle
 10
261.6999999999999
 20
179.15
 30
0.0
 40
0.3
100
AcDbArc
 50
270.0
 51
0.0
  0
ARC
  5
30C
330
2
100
AcDbEntity
  8
画層1
 62
     0
100
AcDbCircle
 10
261.6999999999999
 20
179.6499999999999
 30
0.0
 40
0.3
100
AcDbArc
 50
0.0
 51
90.0
  0
LINE
  5
30D
330
2
100
AcDbEntity
  8
画層1
 62
     0
100
AcDbLine
 10
262.0
 20
179.6499999999999
 30
0.0
 11
262.0
 21
179.15
 31
0.0
  0
LINE
  5
30E
330
2
100
AcDbEntity
  8
画層1
 62
     0
100
AcDbLine
 10
261.66
 20
179.8899999999999
 30
0.0
 11
261.94
 21
179.71
 31
0.0
  0
LINE
  5
30F
330
2
100
AcDbEntity
  8
画層1
 62
     0
100
AcDbLine
 10
261.94
 20
179.71
 30
0.0
 11
261.94
 21
179.09
 31
0.0
  0
LINE
  5
310
330
2
100
AcDbEntity
  8
画層1
 62
     0
100
AcDbLine
 10
261.94
 20
179.09
 30
0.0
 11
261.7399999999999
 21
178.9099999999999
 31
0.0
  0
LWPOLYLINE
  5
311
330
2
100
AcDbEntity
  8
画層1
 62
     0
100
AcDbPolyline
 90
        4
 70
     1
 43
0.0
 10
266.93
 20
188.18
 10
270.93
 20
188.18
 10
270.93
 20
184.18
 10
266.93
 20
184.18
  0
ARC
  5
312
330
2
100
AcDbEntity
  8
画層1
 62
     0
100
AcDbCircle
 10
261.6999999999999
 20
187.4499999999999
 30
0.0
 40
0.3
100
AcDbArc
 50
270.0
 51
360.0
  0
ARC
  5
313
330
2
100
AcDbEntity
  8
画層1
 62
     0
100
AcDbCircle
 10
261.6999999999999
 20
187.9499999999999
 30
0.0
 40
0.3
100
AcDbArc
 50
360.0
 51
90.0
  0
LINE
  5
314
330
2
100
AcDbEntity
  8
画層1
 62
     0
100
AcDbLine
 10
262.0
 20
187.9499999999999
 30
0.0
 11
262.0
 21
187.4499999999999
 31
0.0
  0
LINE
  5
315
330
2
100
AcDbEntity
  8
画層1
 62
     0
100
AcDbLine
 10
261.6999999999999
 20
188.2299999999999
 30
0.0
 11
261.9599999999999
 21
187.9799999999999
 31
0.0
  0
LINE
  5
316
330
2
100
AcDbEntity
  8
画層1
 62
     0
100
AcDbLine
 10
261.9599999999999
 20
187.9799999999999
 30
0.0
 11
261.9299999999999
 21
187.3799999999999
 31
0.0
  0
LINE
  5
317
330
2
100
AcDbEntity
  8
画層1
 62
     0
100
AcDbLine
 10
261.9299999999999
 20
187.3799999999999
 30
0.0
 11
261.7599999999999
 21
187.21
 31
0.0
  0
LWPOLYLINE
  5
318
330
2
100
AcDbEntity
  8
画層1
 62
     0
100
AcDbPolyline
 90
        4
 70
     1
 43
0.0
 10
215.5
 20
233.1999999999999
 10
237.5
 20
233.1999999999999
 10
237.5
 20
231.4
 10
215.5
 20
231.4
  0
LWPOLYLINE
  5
319
330
2
100
AcDbEntity
  8
画層1
 62
     0
100
AcDbPolyline
 90
        4
 70
     1
 43
0.0
 10
215.5
 20
229.8999999999999
 10
237.5
 20
229.8999999999999
 10
237.5
 20
228.1
 10
215.5
 20
228.1
  0
LWPOLYLINE
  5
31A
330
2
100
AcDbEntity
  8
画層1
 62
     0
100
AcDbPolyline
 90
        4
 70
     1
 43
0.0
 10
215.5
 20
226.6
 10
237.5
 20
226.6
 10
237.5
 20
224.8
 10
215.5
 20
224.8
  0
LWPOLYLINE
  5
31B
330
2
100
AcDbEntity
  8
画層1
 62
     0
100
AcDbPolyline
 90
        4
 70
     1
 43
0.0
 10
215.5
 20
223.3
 10
237.5
 20
223.3
 10
237.5
 20
221.4999999999999
 10
215.5
 20
221.4999999999999
  0
LINE
  5
31C
330
2
100
AcDbEntity
  8
画層1
 62
     0
100
AcDbLine
 10
253.5
 20
220.35
 30
0.0
 11
253.5
 21
213.1499999999999
 31
0.0
  0
LINE
  5
31D
330
2
100
AcDbEntity
  8
画層1
 62
     0
100
AcDbLine
 10
256.0
 20
220.35
 30
0.0
 11
256.0
 21
218.05
 31
0.0
  0
ARC
  5
31E
330
2
100
AcDbEntity
  8
画層1
 62
     0
100
AcDbCircle
 10
244.66
 20
216.5
 30
0.0
 40
11.44118730072771
100
AcDbArc
 50
4.259999999999999
 51
19.13
  0
ARC
  5
31F
330
2
100
AcDbEntity
  8
画層1
 62
     0
100
AcDbCircle
 10
244.5699999999999
 20
216.7499999999999
 30
0.0
 40
10.50674104301653
100
AcDbArc
 50
4.37
 51
19.46
  0
LINE
  5
320
330
2
100
AcDbEntity
  8
画層1
 62
     0
100
AcDbLine
 10
254.47
 20
220.25
 30
0.0
 11
254.47
 21
213.2499999999999
 31
0.0
  0
LINE
  5
321
330
2
100
AcDbEntity
  8
画層1
 62
     0
100
AcDbLine
 10
253.9699999999999
 20
213.2499999999999
 30
0.0
 11
253.9699999999999
 21
220.25
 31
0.0
  0
LINE
  5
322
330
2
100
AcDbEntity
  8
画層1
 62
     0
100
AcDbLine
 10
256.07
 20
219.1699999999999
 30
0.0
 11
256.07
 21
214.3299999999999
 31
0.0
  0
ARC
  5
323
330
2
100
AcDbEntity
  8
画層1
 62
     0
100
AcDbCircle
 10
251.0299999999999
 20
216.7499999999999
 30
0.0
 40
7.540000001812724
100
AcDbArc
 50
3.799999999999999
 51
15.99
  0
LINE
  5
324
330
2
100
AcDbEntity
  8
画層1
 62
     0
100
AcDbLine
 10
253.5099999999999
 20
220.4199999999999
 30
0.0
 11
253.4899999999999
 21
213.05
 31
0.0
  0
LINE
  5
325
330
2
100
AcDbEntity
  8
画層1
 62
     0
100
AcDbLine
 10
253.5
 20
195.4499999999999
 30
0.0
 11
261.6999999999999
 21
195.4499999999999
 31
0.0
  0
LINE
  5
326
330
2
100
AcDbEntity
  8
画層1
 62
     0
100
AcDbLine
 10
253.5
 20
196.55
 30
0.0
 11
261.6999999999999
 21
196.55
 31
0.0
  0
LINE
  5
327
330
2
100
AcDbEntity
  8
画層1
 62
     0
100
AcDbLine
 10
253.5
 20
203.75
 30
0.0
 11
261.6999999999999
 21
203.75
 31
0.0
  0
LINE
  5
328
330
2
100
AcDbEntity
  8
画層1
 62
     0
100
AcDbLine
 10
253.5
 20
204.8499999999999
 30
0.0
 11
261.6999999999999
 21
204.8499999999999
 31
0.0
  0
LINE
  5
329
330
2
100
AcDbEntity
  8
画層1
 62
     0
100
AcDbLine
 10
253.5
 20
212.05
 30
0.0
 11
261.6999999999999
 21
212.05
 31
0.0
  0
LINE
  5
32A
330
2
100
AcDbEntity
  8
画層1
 62
     0
100
AcDbLine
 10
253.5
 20
213.1499999999999
 30
0.0
 11
261.6999999999999
 21
213.1499999999999
 31
0.0
  0
LINE
  5
32B
330
2
100
AcDbEntity
  8
画層1
 62
     0
100
AcDbLine
 10
253.4899999999999
 20
213.05
 30
0.0
 11
261.64
 21
213.07
 31
0.0
  0
LINE
  5
32C
330
2
100
AcDbEntity
  8
画層1
 62
     0
100
AcDbLine
 10
261.7099999999999
 20
212.13
 30
0.0
 11
253.44
 21
212.13
 31
0.0
  0
LINE
  5
32D
330
2
100
AcDbEntity
  8
画層1
 62
     0
100
AcDbLine
 10
253.44
 20
204.77
 30
0.0
 11
261.69
 21
204.77
 31
0.0
  0
LINE
  5
32E
330
2
100
AcDbEntity
  8
画層1
 62
     0
100
AcDbLine
 10
261.7599999999999
 20
203.81
 30
0.0
 11
253.4699999999999
 21
203.81
 31
0.0
  0
LINE
  5
32F
330
2
100
AcDbEntity
  8
画層1
 62
     0
100
AcDbLine
 10
253.4699999999999
 20
196.4799999999999
 30
0.0
 11
261.73
 21
196.4799999999999
 31
0.0
  0
LINE
  5
330
330
2
100
AcDbEntity
  8
画層1
 62
     0
100
AcDbLine
 10
261.6999999999999
 20
195.49
 30
0.0
 11
253.44
 21
195.49
 31
0.0
  0
LINE
  5
331
330
2
100
AcDbEntity
  8
画層1
 62
     0
100
AcDbLine
 10
253.5
 20
212.05
 30
0.0
 11
253.5
 21
204.8499999999999
 31
0.0
  0
ARC
  5
332
330
2
100
AcDbEntity
  8
画層1
 62
     0
100
AcDbCircle
 10
251.0299999999999
 20
208.4499999999999
 30
0.0
 40
7.540000001812724
100
AcDbArc
 50
344.01
 51
356.1999999999999
  0
ARC
  5
333
330
2
100
AcDbEntity
  8
画層1
 62
     0
100
AcDbCircle
 10
244.66
 20
208.6999999999999
 30
0.0
 40
11.44118729799423
100
AcDbArc
 50
340.87
 51
355.74
  0
ARC
  5
334
330
2
100
AcDbEntity
  8
画層1
 62
     0
100
AcDbCircle
 10
244.5699999999999
 20
208.4499999999999
 30
0.0
 40
10.50674104301653
100
AcDbArc
 50
340.54
 51
355.63
  0
LINE
  5
335
330
2
100
AcDbEntity
  8
画層1
 62
     0
100
AcDbLine
 10
254.47
 20
211.9499999999999
 30
0.0
 11
254.47
 21
204.95
 31
0.0
  0
LINE
  5
336
330
2
100
AcDbEntity
  8
画層1
 62
     0
100
AcDbLine
 10
253.9699999999999
 20
204.95
 30
0.0
 11
253.9699999999999
 21
211.9499999999999
 31
0.0
  0
LINE
  5
337
330
2
100
AcDbEntity
  8
画層1
 62
     0
100
AcDbLine
 10
256.07
 20
210.87
 30
0.0
 11
256.07
 21
206.03
 31
0.0
  0
LINE
  5
338
330
2
100
AcDbEntity
  8
画層1
 62
     0
100
AcDbLine
 10
256.0
 20
207.1499999999999
 30
0.0
 11
256.0
 21
204.8499999999999
 31
0.0
  0
LINE
  5
339
330
2
100
AcDbEntity
  8
画層1
 62
     0
100
AcDbLine
 10
253.44
 20
212.1199999999999
 30
0.0
 11
253.44
 21
204.77
 31
0.0
  0
LINE
  5
33A
330
2
100
AcDbEntity
  8
画層1
 62
     0
100
AcDbLine
 10
253.5
 20
203.75
 30
0.0
 11
253.5
 21
196.55
 31
0.0
  0
LINE
  5
33B
330
2
100
AcDbEntity
  8
画層1
 62
     0
100
AcDbLine
 10
256.07
 20
202.57
 30
0.0
 11
256.07
 21
197.7299999999999
 31
0.0
  0
ARC
  5
33C
330
2
100
AcDbEntity
  8
画層1
 62
     0
100
AcDbCircle
 10
251.0299999999999
 20
200.15
 30
0.0
 40
7.540000001812724
100
AcDbArc
 50
3.799999999999999
 51
15.99
  0
LINE
  5
33D
330
2
100
AcDbEntity
  8
画層1
 62
     0
100
AcDbLine
 10
254.47
 20
203.65
 30
0.0
 11
254.47
 21
196.65
 31
0.0
  0
LINE
  5
33E
330
2
100
AcDbEntity
  8
画層1
 62
     0
100
AcDbLine
 10
253.9699999999999
 20
196.65
 30
0.0
 11
253.9699999999999
 21
203.65
 31
0.0
  0
LINE
  5
33F
330
2
100
AcDbEntity
  8
画層1
 62
     0
100
AcDbLine
 10
255.6699999999999
 20
200.7499999999999
 30
0.0
 11
255.6699999999999
 21
199.55
 31
0.0
  0
LINE
  5
340
330
2
100
AcDbEntity
  8
画層1
 62
     0
100
AcDbLine
 10
253.4699999999999
 20
203.81
 30
0.0
 11
253.4699999999999
 21
199.72
 31
0.0
  0
LINE
  5
341
330
2
100
AcDbEntity
  8
画層1
 62
     0
100
AcDbLine
 10
255.4699999999999
 20
196.65
 30
0.0
 11
253.5
 21
196.65
 31
0.0
  0
ARC
  5
342
330
2
100
AcDbEntity
  8
画層1
 62
     0
100
AcDbCircle
 10
244.5699999999999
 20
200.15
 30
0.0
 40
10.50674104301653
100
AcDbArc
 50
340.54
 51
355.63
  0
LINE
  5
343
330
2
100
AcDbEntity
  8
画層1
 62
     0
100
AcDbLine
 10
253.5
 20
195.35
 30
0.0
 11
255.4699999999999
 21
195.35
 31
0.0
  0
ARC
  5
344
330
2
100
AcDbEntity
  8
画層1
 62
     0
100
AcDbCircle
 10
253.6999999999999
 20
195.25
 30
0.0
 40
0.2
100
AcDbArc
 50
90.0
 51
180.0
  0
ARC
  5
345
330
2
100
AcDbEntity
  8
画層1
 62
     0
100
AcDbCircle
 10
253.6999999999999
 20
196.75
 30
0.0
 40
0.2
100
AcDbArc
 50
180.0
 51
270.0
  0
LINE
  5
346
330
2
100
AcDbEntity
  8
画層1
 62
     0
100
AcDbLine
 10
255.0399999999999
 20
199.35
 30
0.0
 11
254.47
 21
199.35
 31
0.0
  0
LINE
  5
347
330
2
100
AcDbEntity
  8
画層1
 62
     0
100
AcDbLine
 10
253.4699999999999
 20
199.69
 30
0.0
 11
253.4699999999999
 21
196.4799999999999
 31
0.0
  0
LINE
  5
348
330
2
100
AcDbEntity
  8
画層1
 62
     0
100
AcDbLine
 10
256.65
 20
197.24
 30
0.0
 11
257.47
 21
197.36
 31
0.0
  0
LINE
  5
349
330
2
100
AcDbEntity
  8
画層1
 62
     0
100
AcDbLine
 10
255.6699999999999
 20
199.55
 30
0.0
 11
256.07
 21
199.55
 31
0.0
  0
ARC
  5
34A
330
2
100
AcDbEntity
  8
画層1
 62
     0
100
AcDbCircle
 10
244.66
 20
200.4
 30
0.0
 40
11.44118729799423
100
AcDbArc
 50
340.87
 51
355.74
  0
ARC
  5
34B
330
2
100
AcDbEntity
  8
画層1
 62
     0
100
AcDbCircle
 10
256.57
 20
197.7299999999999
 30
0.0
 40
0.5
100
AcDbArc
 50
180.0
 51
278.5299999999999
  0
LINE
  5
34C
330
2
100
AcDbEntity
  8
画層1
 62
     0
100
AcDbLine
 10
257.5699999999999
 20
200.6499999999999
 30
0.0
 11
257.5699999999999
 21
199.65
 31
0.0
  0
ARC
  5
34D
330
2
100
AcDbEntity
  8
画層1
 62
     0
100
AcDbCircle
 10
251.0299999999999
 20
200.15
 30
0.0
 40
7.540000001812724
100
AcDbArc
 50
344.01
 51
356.1999999999999
  0
LINE
  5
34E
330
2
100
AcDbEntity
  8
画層1
 62
     0
100
AcDbLine
 10
257.5699999999999
 20
199.65
 30
0.0
 11
258.5599999999999
 21
199.65
 31
0.0
  0
LINE
  5
34F
330
2
100
AcDbEntity
  8
画層1
 62
     0
100
AcDbLine
 10
258.5599999999999
 20
200.6499999999999
 30
0.0
 11
257.5699999999999
 21
200.6499999999999
 31
0.0
  0
ARC
  5
350
330
2
100
AcDbEntity
  8
画層1
 62
     0
100
AcDbCircle
 10
257.3199999999999
 20
198.35
 30
0.0
 40
1.0
100
AcDbArc
 50
278.5299999999999
 51
344.01
  0
LINE
  5
351
330
2
100
AcDbEntity
  8
画層1
 62
     0
100
AcDbLine
 10
256.0
 20
198.8499999999999
 30
0.0
 11
256.0
 21
196.55
 31
0.0
  0
LINE
  5
352
330
2
100
AcDbEntity
  8
画層1
 62
     0
100
AcDbLine
 10
255.4699999999999
 20
204.95
 30
0.0
 11
253.5
 21
204.95
 31
0.0
  0
ARC
  5
353
330
2
100
AcDbEntity
  8
画層1
 62
     0
100
AcDbCircle
 10
244.5699999999999
 20
200.15
 30
0.0
 40
10.50674104301653
100
AcDbArc
 50
4.37
 51
19.46
  0
LINE
  5
354
330
2
100
AcDbEntity
  8
画層1
 62
     0
100
AcDbLine
 10
253.5
 20
203.65
 30
0.0
 11
255.4699999999999
 21
203.65
 31
0.0
  0
ARC
  5
355
330
2
100
AcDbEntity
  8
画層1
 62
     0
100
AcDbCircle
 10
253.6999999999999
 20
203.55
 30
0.0
 40
0.2
100
AcDbArc
 50
90.0
 51
180.0
  0
ARC
  5
356
330
2
100
AcDbEntity
  8
画層1
 62
     0
100
AcDbCircle
 10
253.6999999999999
 20
205.0499999999999
 30
0.0
 40
0.2
100
AcDbArc
 50
180.0
 51
270.0
  0
LINE
  5
357
330
2
100
AcDbEntity
  8
画層1
 62
     0
100
AcDbLine
 10
255.0399999999999
 20
200.95
 30
0.0
 11
254.47
 21
200.95
 31
0.0
  0
LINE
  5
358
330
2
100
AcDbEntity
  8
画層1
 62
     0
100
AcDbLine
 10
256.0
 20
203.75
 30
0.0
 11
256.0
 21
201.4499999999999
 31
0.0
  0
LINE
  5
359
330
2
100
AcDbEntity
  8
画層1
 62
     0
100
AcDbLine
 10
256.65
 20
205.54
 30
0.0
 11
257.47
 21
205.6599999999999
 31
0.0
  0
ARC
  5
35A
330
2
100
AcDbEntity
  8
画層1
 62
     0
100
AcDbCircle
 10
256.57
 20
206.03
 30
0.0
 40
0.5
100
AcDbArc
 50
180.0
 51
278.5299999999999
  0
ARC
  5
35B
330
2
100
AcDbEntity
  8
画層1
 62
     0
100
AcDbCircle
 10
257.3199999999999
 20
206.65
 30
0.0
 40
1.0
100
AcDbArc
 50
278.5299999999999
 51
344.01
  0
ARC
  5
35C
330
2
100
AcDbEntity
  8
画層1
 62
     0
100
AcDbCircle
 10
244.66
 20
199.9
 30
0.0
 40
11.44118730072771
100
AcDbArc
 50
4.259999999999999
 51
19.13
  0
LINE
  5
35D
330
2
100
AcDbEntity
  8
画層1
 62
     0
100
AcDbLine
 10
256.07
 20
200.7499999999999
 30
0.0
 11
255.6699999999999
 21
200.7499999999999
 31
0.0
  0
LINE
  5
35E
330
2
100
AcDbEntity
  8
画層1
 62
     0
100
AcDbLine
 10
256.65
 20
203.06
 30
0.0
 11
257.47
 21
202.9399999999999
 31
0.0
  0
ARC
  5
35F
330
2
100
AcDbEntity
  8
画層1
 62
     0
100
AcDbCircle
 10
256.57
 20
202.57
 30
0.0
 40
0.5
100
AcDbArc
 50
81.47
 51
180.0
  0
ARC
  5
360
330
2
100
AcDbEntity
  8
画層1
 62
     0
100
AcDbCircle
 10
257.3199999999999
 20
201.9499999999999
 30
0.0
 40
1.0
100
AcDbArc
 50
15.99
 51
81.47
  0
LINE
  5
361
330
2
100
AcDbEntity
  8
画層1
 62
     0
100
AcDbLine
 10
253.5
 20
211.9499999999999
 30
0.0
 11
255.4699999999999
 21
211.9499999999999
 31
0.0
  0
ARC
  5
362
330
2
100
AcDbEntity
  8
画層1
 62
     0
100
AcDbCircle
 10
244.5699999999999
 20
208.4499999999999
 30
0.0
 40
10.50674104301653
100
AcDbArc
 50
4.37
 51
19.46
  0
ARC
  5
363
330
2
100
AcDbEntity
  8
画層1
 62
     0
100
AcDbCircle
 10
253.6999999999999
 20
211.85
 30
0.0
 40
0.2
100
AcDbArc
 50
90.0
 51
180.0
  0
LINE
  5
364
330
2
100
AcDbEntity
  8
画層1
 62
     0
100
AcDbLine
 10
255.0399999999999
 20
209.25
 30
0.0
 11
254.47
 21
209.25
 31
0.0
  0
LINE
  5
365
330
2
100
AcDbEntity
  8
画層1
 62
     0
100
AcDbLine
 10
255.0399999999999
 20
207.65
 30
0.0
 11
254.47
 21
207.65
 31
0.0
  0
LINE
  5
366
330
2
100
AcDbEntity
  8
画層1
 62
     0
100
AcDbLine
 10
256.0
 20
212.05
 30
0.0
 11
256.0
 21
209.75
 31
0.0
  0
LINE
  5
367
330
2
100
AcDbEntity
  8
画層1
 62
     0
100
AcDbLine
 10
256.65
 20
211.36
 30
0.0
 11
257.47
 21
211.24
 31
0.0
  0
ARC
  5
368
330
2
100
AcDbEntity
  8
画層1
 62
     0
100
AcDbCircle
 10
256.57
 20
210.87
 30
0.0
 40
0.5
100
AcDbArc
 50
81.47
 51
180.0
  0
LINE
  5
369
330
2
100
AcDbEntity
  8
画層1
 62
     0
100
AcDbLine
 10
256.07
 20
209.05
 30
0.0
 11
255.6699999999999
 21
209.05
 31
0.0
  0
ARC
  5
36A
330
2
100
AcDbEntity
  8
画層1
 62
     0
100
AcDbCircle
 10
244.66
 20
208.1999999999999
 30
0.0
 40
11.44118730072771
100
AcDbArc
 50
4.259999999999999
 51
19.13
  0
LINE
  5
36B
330
2
100
AcDbEntity
  8
画層1
 62
     0
100
AcDbLine
 10
255.6699999999999
 20
207.85
 30
0.0
 11
256.07
 21
207.85
 31
0.0
  0
LINE
  5
36C
330
2
100
AcDbEntity
  8
画層1
 62
     0
100
AcDbLine
 10
255.6699999999999
 20
209.05
 30
0.0
 11
255.6699999999999
 21
207.85
 31
0.0
  0
ARC
  5
36D
330
2
100
AcDbEntity
  8
画層1
 62
     0
100
AcDbCircle
 10
257.3199999999999
 20
210.25
 30
0.0
 40
1.0
100
AcDbArc
 50
15.99
 51
81.47
  0
LINE
  5
36E
330
2
100
AcDbEntity
  8
画層1
 62
     0
100
AcDbLine
 10
257.5699999999999
 20
208.95
 30
0.0
 11
257.5699999999999
 21
207.9499999999999
 31
0.0
  0
LINE
  5
36F
330
2
100
AcDbEntity
  8
画層1
 62
     0
100
AcDbLine
 10
257.5699999999999
 20
207.9499999999999
 30
0.0
 11
258.5599999999999
 21
207.9499999999999
 31
0.0
  0
LINE
  5
370
330
2
100
AcDbEntity
  8
画層1
 62
     0
100
AcDbLine
 10
258.5599999999999
 20
208.95
 30
0.0
 11
257.5699999999999
 21
208.95
 31
0.0
  0
ARC
  5
371
330
2
100
AcDbEntity
  8
画層1
 62
     0
100
AcDbCircle
 10
251.0299999999999
 20
208.4499999999999
 30
0.0
 40
7.540000001812724
100
AcDbArc
 50
3.799999999999999
 51
15.99
  0
LINE
  5
372
330
2
100
AcDbEntity
  8
画層1
 62
     0
100
AcDbLine
 10
255.4699999999999
 20
213.2499999999999
 30
0.0
 11
253.5
 21
213.2499999999999
 31
0.0
  0
ARC
  5
373
330
2
100
AcDbEntity
  8
画層1
 62
     0
100
AcDbCircle
 10
244.5699999999999
 20
216.7499999999999
 30
0.0
 40
10.50674104301653
100
AcDbArc
 50
340.54
 51
355.63
  0
ARC
  5
374
330
2
100
AcDbEntity
  8
画層1
 62
     0
100
AcDbCircle
 10
253.6999999999999
 20
213.35
 30
0.0
 40
0.2
100
AcDbArc
 50
180.0
 51
270.0
  0
LINE
  5
375
330
2
100
AcDbEntity
  8
画層1
 62
     0
100
AcDbLine
 10
255.0399999999999
 20
215.9499999999999
 30
0.0
 11
254.47
 21
215.9499999999999
 31
0.0
  0
LINE
  5
376
330
2
100
AcDbEntity
  8
画層1
 62
     0
100
AcDbLine
 10
255.0399999999999
 20
217.5499999999999
 30
0.0
 11
254.47
 21
217.5499999999999
 31
0.0
  0
LINE
  5
377
330
2
100
AcDbEntity
  8
画層1
 62
     0
100
AcDbLine
 10
256.65
 20
213.84
 30
0.0
 11
257.47
 21
213.96
 31
0.0
  0
LINE
  5
378
330
2
100
AcDbEntity
  8
画層1
 62
     0
100
AcDbLine
 10
255.6699999999999
 20
217.35
 30
0.0
 11
255.6699999999999
 21
216.15
 31
0.0
  0
LINE
  5
379
330
2
100
AcDbEntity
  8
画層1
 62
     0
100
AcDbLine
 10
255.6699999999999
 20
216.15
 30
0.0
 11
256.07
 21
216.15
 31
0.0
  0
LINE
  5
37A
330
2
100
AcDbEntity
  8
画層1
 62
     0
100
AcDbLine
 10
256.07
 20
217.35
 30
0.0
 11
255.6699999999999
 21
217.35
 31
0.0
  0
ARC
  5
37B
330
2
100
AcDbEntity
  8
画層1
 62
     0
100
AcDbCircle
 10
256.57
 20
214.3299999999999
 30
0.0
 40
0.5
100
AcDbArc
 50
180.0
 51
278.5299999999999
  0
ARC
  5
37C
330
2
100
AcDbEntity
  8
画層1
 62
     0
100
AcDbCircle
 10
244.66
 20
217.0
 30
0.0
 40
11.44118729799423
100
AcDbArc
 50
340.87
 51
355.74
  0
LINE
  5
37D
330
2
100
AcDbEntity
  8
画層1
 62
     0
100
AcDbLine
 10
257.5699999999999
 20
217.2499999999999
 30
0.0
 11
257.5699999999999
 21
216.25
 31
0.0
  0
LINE
  5
37E
330
2
100
AcDbEntity
  8
画層1
 62
     0
100
AcDbLine
 10
257.5699999999999
 20
216.25
 30
0.0
 11
258.5599999999999
 21
216.25
 31
0.0
  0
LINE
  5
37F
330
2
100
AcDbEntity
  8
画層1
 62
     0
100
AcDbLine
 10
258.5599999999999
 20
217.2499999999999
 30
0.0
 11
257.5699999999999
 21
217.2499999999999
 31
0.0
  0
ARC
  5
380
330
2
100
AcDbEntity
  8
画層1
 62
     0
100
AcDbCircle
 10
257.3199999999999
 20
214.9499999999999
 30
0.0
 40
1.0
100
AcDbArc
 50
278.5299999999999
 51
344.01
  0
ARC
  5
381
330
2
100
AcDbEntity
  8
画層1
 62
     0
100
AcDbCircle
 10
251.0299999999999
 20
216.7499999999999
 30
0.0
 40
7.540000001812724
100
AcDbArc
 50
344.01
 51
356.1999999999999
  0
LINE
  5
382
330
2
100
AcDbEntity
  8
画層1
 62
     0
100
AcDbLine
 10
256.0
 20
215.45
 30
0.0
 11
256.0
 21
213.1499999999999
 31
0.0
  0
ARC
  5
383
330
2
100
AcDbEntity
  8
画層1
 62
     0
100
AcDbCircle
 10
261.6999999999999
 20
195.7499999999999
 30
0.0
 40
0.3
100
AcDbArc
 50
270.0
 51
0.0
  0
ARC
  5
384
330
2
100
AcDbEntity
  8
画層1
 62
     0
100
AcDbCircle
 10
261.6999999999999
 20
196.25
 30
0.0
 40
0.3
100
AcDbArc
 50
0.0
 51
90.0
  0
LINE
  5
385
330
2
100
AcDbEntity
  8
画層1
 62
     0
100
AcDbLine
 10
262.0
 20
196.25
 30
0.0
 11
262.0
 21
195.7499999999999
 31
0.0
  0
LINE
  5
386
330
2
100
AcDbEntity
  8
画層1
 62
     0
100
AcDbLine
 10
261.73
 20
196.4799999999999
 30
0.0
 11
261.9599999999999
 21
196.2599999999999
 31
0.0
  0
LINE
  5
387
330
2
100
AcDbEntity
  8
画層1
 62
     0
100
AcDbLine
 10
261.9599999999999
 20
196.2599999999999
 30
0.0
 11
261.9299999999999
 21
195.77
 31
0.0
  0
LINE
  5
388
330
2
100
AcDbEntity
  8
画層1
 62
     0
100
AcDbLine
 10
261.9299999999999
 20
195.77
 30
0.0
 11
261.8999999999999
 21
195.55
 31
0.0
  0
LINE
  5
389
330
2
100
AcDbEntity
  8
画層1
 62
     0
100
AcDbLine
 10
261.8999999999999
 20
195.55
 30
0.0
 11
261.6999999999999
 21
195.49
 31
0.0
  0
ARC
  5
38A
330
2
100
AcDbEntity
  8
画層1
 62
     0
100
AcDbCircle
 10
261.6999999999999
 20
204.05
 30
0.0
 40
0.3
100
AcDbArc
 50
270.0
 51
0.0
  0
ARC
  5
38B
330
2
100
AcDbEntity
  8
画層1
 62
     0
100
AcDbCircle
 10
261.6999999999999
 20
204.55
 30
0.0
 40
0.3
100
AcDbArc
 50
0.0
 51
90.0
  0
LINE
  5
38C
330
2
100
AcDbEntity
  8
画層1
 62
     0
100
AcDbLine
 10
262.0
 20
204.55
 30
0.0
 11
262.0
 21
204.05
 31
0.0
  0
LINE
  5
38D
330
2
100
AcDbEntity
  8
画層1
 62
     0
100
AcDbLine
 10
261.69
 20
204.77
 30
0.0
 11
261.9499999999999
 21
204.61
 31
0.0
  0
LINE
  5
38E
330
2
100
AcDbEntity
  8
画層1
 62
     0
100
AcDbLine
 10
261.9499999999999
 20
204.61
 30
0.0
 11
261.9499999999999
 21
204.0399999999999
 31
0.0
  0
LINE
  5
38F
330
2
100
AcDbEntity
  8
画層1
 62
     0
100
AcDbLine
 10
261.9499999999999
 20
204.0399999999999
 30
0.0
 11
261.7599999999999
 21
203.81
 31
0.0
  0
ARC
  5
390
330
2
100
AcDbEntity
  8
画層1
 62
     0
100
AcDbCircle
 10
261.6999999999999
 20
212.3499999999999
 30
0.0
 40
0.3
100
AcDbArc
 50
270.0
 51
0.0
  0
LINE
  5
391
330
2
100
AcDbEntity
  8
画層1
 62
     0
100
AcDbLine
 10
261.9299999999999
 20
212.3199999999999
 30
0.0
 11
261.7099999999999
 21
212.13
 31
0.0
  0
ARC
  5
392
330
2
100
AcDbEntity
  8
画層1
 62
     0
100
AcDbCircle
 10
261.6999999999999
 20
212.8499999999999
 30
0.0
 40
0.3
100
AcDbArc
 50
0.0
 51
90.0
  0
LINE
  5
393
330
2
100
AcDbEntity
  8
画層1
 62
     0
100
AcDbLine
 10
262.0
 20
212.8499999999999
 30
0.0
 11
262.0
 21
212.3499999999999
 31
0.0
  0
LINE
  5
394
330
2
100
AcDbEntity
  8
画層1
 62
     0
100
AcDbLine
 10
261.64
 20
213.07
 30
0.0
 11
261.9299999999999
 21
212.91
 31
0.0
  0
LINE
  5
395
330
2
100
AcDbEntity
  8
画層1
 62
     0
100
AcDbLine
 10
261.9299999999999
 20
212.91
 30
0.0
 11
261.9299999999999
 21
212.3199999999999
 31
0.0
  0
LINE
  5
396
330
2
100
AcDbEntity
  8
画層1
 62
     0
100
AcDbLine
 10
253.5
 20
221.45
 30
0.0
 11
261.6999999999999
 21
221.45
 31
0.0
  0
LINE
  5
397
330
2
100
AcDbEntity
  8
画層1
 62
     0
100
AcDbLine
 10
261.6999999999999
 20
220.35
 30
0.0
 11
253.5
 21
220.35
 31
0.0
  0
LINE
  5
398
330
2
100
AcDbEntity
  8
画層1
 62
     0
100
AcDbLine
 10
253.5
 20
228.65
 30
0.0
 11
261.6999999999999
 21
228.65
 31
0.0
  0
LINE
  5
399
330
2
100
AcDbEntity
  8
画層1
 62
     0
100
AcDbLine
 10
253.5
 20
229.7499999999999
 30
0.0
 11
261.6999999999999
 21
229.7499999999999
 31
0.0
  0
LINE
  5
39A
330
2
100
AcDbEntity
  8
画層1
 62
     0
100
AcDbLine
 10
261.6999999999999
 20
236.9499999999999
 30
0.0
 11
253.5
 21
236.9499999999999
 31
0.0
  0
LINE
  5
39B
330
2
100
AcDbEntity
  8
画層1
 62
     0
100
AcDbLine
 10
253.5
 20
240.0
 30
0.0
 11
261.2999999999999
 21
240.0
 31
0.0
  0
LINE
  5
39C
330
2
100
AcDbEntity
  8
画層1
 62
     0
100
AcDbLine
 10
253.4
 20
239.9
 30
0.0
 11
261.2799999999999
 21
239.9
 31
0.0
  0
LINE
  5
39D
330
2
100
AcDbEntity
  8
画層1
 62
     0
100
AcDbLine
 10
261.68
 20
237.02
 30
0.0
 11
253.4
 21
237.02
 31
0.0
  0
LINE
  5
39E
330
2
100
AcDbEntity
  8
画層1
 62
     0
100
AcDbLine
 10
253.5299999999999
 20
229.6899999999999
 30
0.0
 11
261.75
 21
229.7099999999999
 31
0.0
  0
LINE
  5
39F
330
2
100
AcDbEntity
  8
画層1
 62
     0
100
AcDbLine
 10
261.72
 20
228.69
 30
0.0
 11
253.5299999999999
 21
228.7199999999999
 31
0.0
  0
LINE
  5
3A0
330
2
100
AcDbEntity
  8
画層1
 62
     0
100
AcDbLine
 10
253.4899999999999
 20
221.36
 30
0.0
 11
261.7099999999999
 21
221.36
 31
0.0
  0
LINE
  5
3A1
330
2
100
AcDbEntity
  8
画層1
 62
     0
100
AcDbLine
 10
261.7099999999999
 20
220.4199999999999
 30
0.0
 11
253.5099999999999
 21
220.4199999999999
 31
0.0
  0
ARC
  5
3A2
330
2
100
AcDbEntity
  8
画層1
 62
     0
100
AcDbCircle
 10
253.6999999999999
 20
229.95
 30
0.0
 40
0.2
100
AcDbArc
 50
180.0
 51
270.0
  0
ARC
  5
3A3
330
2
100
AcDbEntity
  8
画層1
 62
     0
100
AcDbCircle
 10
250.7
 20
218.3
 30
0.0
 40
1.0
100
AcDbArc
 50
0.0
 51
89.99
  0
LINE
  5
3A4
330
2
100
AcDbEntity
  8
画層1
 62
     0
100
AcDbLine
 10
253.5
 20
228.65
 30
0.0
 11
253.5
 21
221.45
 31
0.0
  0
LINE
  5
3A5
330
2
100
AcDbEntity
  8
画層1
 62
     0
100
AcDbLine
 10
254.47
 20
228.55
 30
0.0
 11
254.47
 21
221.55
 31
0.0
  0
LINE
  5
3A6
330
2
100
AcDbEntity
  8
画層1
 62
     0
100
AcDbLine
 10
253.9699999999999
 20
221.55
 30
0.0
 11
253.9699999999999
 21
228.55
 31
0.0
  0
LINE
  5
3A7
330
2
100
AcDbEntity
  8
画層1
 62
     0
100
AcDbLine
 10
256.07
 20
227.47
 30
0.0
 11
256.07
 21
222.63
 31
0.0
  0
ARC
  5
3A8
330
2
100
AcDbEntity
  8
画層1
 62
     0
100
AcDbCircle
 10
244.66
 20
225.3
 30
0.0
 40
11.44118729799423
100
AcDbArc
 50
340.87
 51
355.74
  0
ARC
  5
3A9
330
2
100
AcDbEntity
  8
画層1
 62
     0
100
AcDbCircle
 10
244.5699999999999
 20
225.05
 30
0.0
 40
10.50674104301653
100
AcDbArc
 50
340.54
 51
355.63
  0
ARC
  5
3AA
330
2
100
AcDbEntity
  8
画層1
 62
     0
100
AcDbCircle
 10
251.0299999999999
 20
225.05
 30
0.0
 40
7.540000001812724
100
AcDbArc
 50
344.01
 51
356.1999999999999
  0
LINE
  5
3AB
330
2
100
AcDbEntity
  8
画層1
 62
     0
100
AcDbLine
 10
255.4699999999999
 20
221.55
 30
0.0
 11
253.5
 21
221.55
 31
0.0
  0
LINE
  5
3AC
330
2
100
AcDbEntity
  8
画層1
 62
     0
100
AcDbLine
 10
253.5
 20
220.25
 30
0.0
 11
255.4699999999999
 21
220.25
 31
0.0
  0
ARC
  5
3AD
330
2
100
AcDbEntity
  8
画層1
 62
     0
100
AcDbCircle
 10
253.6999999999999
 20
220.15
 30
0.0
 40
0.2
100
AcDbArc
 50
90.0
 51
180.0
  0
ARC
  5
3AE
330
2
100
AcDbEntity
  8
画層1
 62
     0
100
AcDbCircle
 10
253.6999999999999
 20
221.6499999999999
 30
0.0
 40
0.2
100
AcDbArc
 50
180.0
 51
270.0
  0
ARC
  5
3AF
330
2
100
AcDbEntity
  8
画層1
 62
     0
100
AcDbCircle
 10
257.3199999999999
 20
223.2499999999999
 30
0.0
 40
1.0
100
AcDbArc
 50
278.5299999999999
 51
344.01
  0
LINE
  5
3B0
330
2
100
AcDbEntity
  8
画層1
 62
     0
100
AcDbLine
 10
256.65
 20
222.14
 30
0.0
 11
257.47
 21
222.2599999999999
 31
0.0
  0
ARC
  5
3B1
330
2
100
AcDbEntity
  8
画層1
 62
     0
100
AcDbCircle
 10
256.57
 20
222.63
 30
0.0
 40
0.5
100
AcDbArc
 50
180.0
 51
278.5299999999999
  0
ARC
  5
3B2
330
2
100
AcDbEntity
  8
画層1
 62
     0
100
AcDbCircle
 10
257.3199999999999
 20
218.55
 30
0.0
 40
1.0
100
AcDbArc
 50
15.99
 51
81.47
  0
LINE
  5
3B3
330
2
100
AcDbEntity
  8
画層1
 62
     0
100
AcDbLine
 10
256.65
 20
219.66
 30
0.0
 11
257.47
 21
219.5399999999999
 31
0.0
  0
ARC
  5
3B4
330
2
100
AcDbEntity
  8
画層1
 62
     0
100
AcDbCircle
 10
256.57
 20
219.1699999999999
 30
0.0
 40
0.5
100
AcDbArc
 50
81.47
 51
180.0
  0
LINE
  5
3B5
330
2
100
AcDbEntity
  8
画層1
 62
     0
100
AcDbLine
 10
256.0
 20
223.75
 30
0.0
 11
256.0
 21
221.45
 31
0.0
  0
LINE
  5
3B6
330
2
100
AcDbEntity
  8
画層1
 62
     0
100
AcDbLine
 10
253.5
 20
228.55
 30
0.0
 11
255.4699999999999
 21
228.55
 31
0.0
  0
ARC
  5
3B7
330
2
100
AcDbEntity
  8
画層1
 62
     0
100
AcDbCircle
 10
244.5699999999999
 20
225.05
 30
0.0
 40
10.50674104301653
100
AcDbArc
 50
4.37
 51
19.46
  0
ARC
  5
3B8
330
2
100
AcDbEntity
  8
画層1
 62
     0
100
AcDbCircle
 10
253.6999999999999
 20
228.4499999999999
 30
0.0
 40
0.2
100
AcDbArc
 50
90.0
 51
180.0
  0
LINE
  5
3B9
330
2
100
AcDbEntity
  8
画層1
 62
     0
100
AcDbLine
 10
255.0399999999999
 20
224.25
 30
0.0
 11
254.47
 21
224.25
 31
0.0
  0
LINE
  5
3BA
330
2
100
AcDbEntity
  8
画層1
 62
     0
100
AcDbLine
 10
255.0399999999999
 20
225.85
 30
0.0
 11
254.47
 21
225.85
 31
0.0
  0
LINE
  5
3BB
330
2
100
AcDbEntity
  8
画層1
 62
     0
100
AcDbLine
 10
253.5299999999999
 20
228.7199999999999
 30
0.0
 11
253.5299999999999
 21
228.63
 31
0.0
  0
LINE
  5
3BC
330
2
100
AcDbEntity
  8
画層1
 62
     0
100
AcDbLine
 10
256.0
 20
228.65
 30
0.0
 11
256.0
 21
226.35
 31
0.0
  0
LINE
  5
3BD
330
2
100
AcDbEntity
  8
画層1
 62
     0
100
AcDbLine
 10
257.5699999999999
 20
225.55
 30
0.0
 11
257.5699999999999
 21
224.55
 31
0.0
  0
LINE
  5
3BE
330
2
100
AcDbEntity
  8
画層1
 62
     0
100
AcDbLine
 10
255.6699999999999
 20
225.6499999999999
 30
0.0
 11
255.6699999999999
 21
224.4499999999999
 31
0.0
  0
LINE
  5
3BF
330
2
100
AcDbEntity
  8
画層1
 62
     0
100
AcDbLine
 10
255.6699999999999
 20
224.4499999999999
 30
0.0
 11
256.07
 21
224.4499999999999
 31
0.0
  0
LINE
  5
3C0
330
2
100
AcDbEntity
  8
画層1
 62
     0
100
AcDbLine
 10
257.5699999999999
 20
224.55
 30
0.0
 11
258.5599999999999
 21
224.55
 31
0.0
  0
LINE
  5
3C1
330
2
100
AcDbEntity
  8
画層1
 62
     0
100
AcDbLine
 10
256.65
 20
227.96
 30
0.0
 11
257.47
 21
227.8399999999999
 31
0.0
  0
ARC
  5
3C2
330
2
100
AcDbEntity
  8
画層1
 62
     0
100
AcDbCircle
 10
256.57
 20
227.47
 30
0.0
 40
0.5
100
AcDbArc
 50
81.47
 51
180.0
  0
LINE
  5
3C3
330
2
100
AcDbEntity
  8
画層1
 62
     0
100
AcDbLine
 10
256.07
 20
225.6499999999999
 30
0.0
 11
255.6699999999999
 21
225.6499999999999
 31
0.0
  0
ARC
  5
3C4
330
2
100
AcDbEntity
  8
画層1
 62
     0
100
AcDbCircle
 10
244.66
 20
224.8
 30
0.0
 40
11.44118730072771
100
AcDbArc
 50
4.259999999999999
 51
19.13
  0
ARC
  5
3C5
330
2
100
AcDbEntity
  8
画層1
 62
     0
100
AcDbCircle
 10
257.3199999999999
 20
226.8499999999999
 30
0.0
 40
1.0
100
AcDbArc
 50
15.99
 51
81.47
  0
LINE
  5
3C6
330
2
100
AcDbEntity
  8
画層1
 62
     0
100
AcDbLine
 10
258.5599999999999
 20
225.55
 30
0.0
 11
257.5699999999999
 21
225.55
 31
0.0
  0
ARC
  5
3C7
330
2
100
AcDbEntity
  8
画層1
 62
     0
100
AcDbCircle
 10
251.0299999999999
 20
225.05
 30
0.0
 40
7.540000001812724
100
AcDbArc
 50
3.799999999999999
 51
15.99
  0
LINE
  5
3C8
330
2
100
AcDbEntity
  8
画層1
 62
     0
100
AcDbLine
 10
249.5
 20
237.8
 30
0.0
 11
253.5
 21
239.8
 31
0.0
  0
ARC
  5
3C9
330
2
100
AcDbEntity
  8
画層1
 62
     0
100
AcDbCircle
 10
251.0
 20
235.0
 30
0.0
 40
1.0
100
AcDbArc
 50
0.0
 51
90.0
  0
LINE
  5
3CA
330
2
100
AcDbEntity
  8
画層1
 62
     0
100
AcDbLine
 10
256.07
 20
235.77
 30
0.0
 11
256.07
 21
230.9299999999999
 31
0.0
  0
LINE
  5
3CB
330
2
100
AcDbEntity
  8
画層1
 62
     0
100
AcDbLine
 10
253.9699999999999
 20
229.85
 30
0.0
 11
253.9699999999999
 21
236.85
 31
0.0
  0
LINE
  5
3CC
330
2
100
AcDbEntity
  8
画層1
 62
     0
100
AcDbLine
 10
254.47
 20
236.85
 30
0.0
 11
254.47
 21
229.85
 31
0.0
  0
LINE
  5
3CD
330
2
100
AcDbEntity
  8
画層1
 62
     0
100
AcDbLine
 10
253.5
 20
236.9499999999999
 30
0.0
 11
253.5
 21
229.7499999999999
 31
0.0
  0
ARC
  5
3CE
330
2
100
AcDbEntity
  8
画層1
 62
     0
100
AcDbCircle
 10
244.5699999999999
 20
233.3499999999999
 30
0.0
 40
10.50674104301653
100
AcDbArc
 50
4.37
 51
19.46
  0
ARC
  5
3CF
330
2
100
AcDbEntity
  8
画層1
 62
     0
100
AcDbCircle
 10
257.3199999999999
 20
235.15
 30
0.0
 40
1.0
100
AcDbArc
 50
15.99
 51
81.47
  0
ARC
  5
3D0
330
2
100
AcDbEntity
  8
画層1
 62
     0
100
AcDbCircle
 10
244.66
 20
233.0999999999999
 30
0.0
 40
11.44118730072771
100
AcDbArc
 50
4.259999999999999
 51
19.13
  0
LINE
  5
3D1
330
2
100
AcDbEntity
  8
画層1
 62
     0
100
AcDbLine
 10
256.0
 20
236.9499999999999
 30
0.0
 11
256.0
 21
234.65
 31
0.0
  0
ARC
  5
3D2
330
2
100
AcDbEntity
  8
画層1
 62
     0
100
AcDbCircle
 10
244.5699999999999
 20
233.3499999999999
 30
0.0
 40
10.50674104301653
100
AcDbArc
 50
340.54
 51
355.63
  0
LINE
  5
3D3
330
2
100
AcDbEntity
  8
画層1
 62
     0
100
AcDbLine
 10
255.4699999999999
 20
229.85
 30
0.0
 11
253.5
 21
229.85
 31
0.0
  0
LINE
  5
3D4
330
2
100
AcDbEntity
  8
画層1
 62
     0
100
AcDbLine
 10
255.0399999999999
 20
234.1499999999999
 30
0.0
 11
254.47
 21
234.1499999999999
 31
0.0
  0
LINE
  5
3D5
330
2
100
AcDbEntity
  8
画層1
 62
     0
100
AcDbLine
 10
255.0399999999999
 20
232.55
 30
0.0
 11
254.47
 21
232.55
 31
0.0
  0
ARC
  5
3D6
330
2
100
AcDbEntity
  8
画層1
 62
     0
100
AcDbCircle
 10
251.0299999999999
 20
233.3499999999999
 30
0.0
 40
7.540000001812724
100
AcDbArc
 50
344.01
 51
356.1999999999999
  0
ARC
  5
3D7
330
2
100
AcDbEntity
  8
画層1
 62
     0
100
AcDbCircle
 10
244.66
 20
233.5999999999999
 30
0.0
 40
11.44118729799423
100
AcDbArc
 50
340.87
 51
355.74
  0
LINE
  5
3D8
330
2
100
AcDbEntity
  8
画層1
 62
     0
100
AcDbLine
 10
256.0
 20
232.05
 30
0.0
 11
256.0
 21
229.7499999999999
 31
0.0
  0
ARC
  5
3D9
330
2
100
AcDbEntity
  8
画層1
 62
     0
100
AcDbCircle
 10
256.57
 20
230.9299999999999
 30
0.0
 40
0.5
100
AcDbArc
 50
180.0
 51
278.5299999999999
  0
LINE
  5
3DA
330
2
100
AcDbEntity
  8
画層1
 62
     0
100
AcDbLine
 10
256.65
 20
230.44
 30
0.0
 11
257.47
 21
230.56
 31
0.0
  0
ARC
  5
3DB
330
2
100
AcDbEntity
  8
画層1
 62
     0
100
AcDbCircle
 10
257.3199999999999
 20
231.55
 30
0.0
 40
1.0
100
AcDbArc
 50
278.5299999999999
 51
344.01
  0
ARC
  5
3DC
330
2
100
AcDbEntity
  8
画層1
 62
     0
100
AcDbCircle
 10
251.0299999999999
 20
233.3499999999999
 30
0.0
 40
7.540000001812724
100
AcDbArc
 50
3.799999999999999
 51
15.99
  0
LINE
  5
3DD
330
2
100
AcDbEntity
  8
画層1
 62
     0
100
AcDbLine
 10
258.5599999999999
 20
233.8499999999999
 30
0.0
 11
257.5699999999999
 21
233.8499999999999
 31
0.0
  0
LINE
  5
3DE
330
2
100
AcDbEntity
  8
画層1
 62
     0
100
AcDbLine
 10
256.07
 20
233.95
 30
0.0
 11
255.6699999999999
 21
233.95
 31
0.0
  0
LINE
  5
3DF
330
2
100
AcDbEntity
  8
画層1
 62
     0
100
AcDbLine
 10
257.5699999999999
 20
232.85
 30
0.0
 11
258.5599999999999
 21
232.85
 31
0.0
  0
LINE
  5
3E0
330
2
100
AcDbEntity
  8
画層1
 62
     0
100
AcDbLine
 10
255.6699999999999
 20
232.75
 30
0.0
 11
256.07
 21
232.75
 31
0.0
  0
LINE
  5
3E1
330
2
100
AcDbEntity
  8
画層1
 62
     0
100
AcDbLine
 10
255.6699999999999
 20
233.95
 30
0.0
 11
255.6699999999999
 21
232.75
 31
0.0
  0
LINE
  5
3E2
330
2
100
AcDbEntity
  8
画層1
 62
     0
100
AcDbLine
 10
257.5699999999999
 20
233.8499999999999
 30
0.0
 11
257.5699999999999
 21
232.85
 31
0.0
  0
LINE
  5
3E3
330
2
100
AcDbEntity
  8
画層1
 62
     0
100
AcDbLine
 10
253.5
 20
240.2
 30
0.0
 11
257.6
 21
240.2
 31
0.0
  0
LINE
  5
3E4
330
2
100
AcDbEntity
  8
画層1
 62
     0
100
AcDbLine
 10
253.5
 20
236.85
 30
0.0
 11
255.4699999999999
 21
236.85
 31
0.0
  0
ARC
  5
3E5
330
2
100
AcDbEntity
  8
画層1
 62
     0
100
AcDbCircle
 10
253.6999999999999
 20
236.75
 30
0.0
 40
0.2
100
AcDbArc
 50
90.0
 51
180.0
  0
LINE
  5
3E6
330
2
100
AcDbEntity
  8
画層1
 62
     0
100
AcDbLine
 10
253.4
 20
237.02
 30
0.0
 11
253.44
 21
236.77
 31
0.0
  0
LINE
  5
3E7
330
2
100
AcDbEntity
  8
画層1
 62
     0
100
AcDbLine
 10
257.6
 20
240.2
 30
0.0
 11
257.6
 21
240.0
 31
0.0
  0
ARC
  5
3E8
330
2
100
AcDbEntity
  8
画層1
 62
     0
100
AcDbCircle
 10
256.57
 20
235.77
 30
0.0
 40
0.5
100
AcDbArc
 50
81.47
 51
180.0
  0
LINE
  5
3E9
330
2
100
AcDbEntity
  8
画層1
 62
     0
100
AcDbLine
 10
256.65
 20
236.26
 30
0.0
 11
257.47
 21
236.1399999999999
 31
0.0
  0
ARC
  5
3EA
330
2
100
AcDbEntity
  8
画層1
 62
     0
100
AcDbCircle
 10
261.6999999999999
 20
229.4499999999999
 30
0.0
 40
0.3
100
AcDbArc
 50
0.0
 51
90.0
  0
ARC
  5
3EB
330
2
100
AcDbEntity
  8
画層1
 62
     0
100
AcDbCircle
 10
261.6999999999999
 20
220.65
 30
0.0
 40
0.3
100
AcDbArc
 50
270.0
 51
0.0
  0
ARC
  5
3EC
330
2
100
AcDbEntity
  8
画層1
 62
     0
100
AcDbCircle
 10
261.6999999999999
 20
221.15
 30
0.0
 40
0.3
100
AcDbArc
 50
0.0
 51
90.0
  0
LINE
  5
3ED
330
2
100
AcDbEntity
  8
画層1
 62
     0
100
AcDbLine
 10
262.0
 20
221.15
 30
0.0
 11
262.0
 21
220.65
 31
0.0
  0
LINE
  5
3EE
330
2
100
AcDbEntity
  8
画層1
 62
     0
100
AcDbLine
 10
261.7099999999999
 20
221.36
 30
0.0
 11
261.9299999999999
 21
221.1699999999999
 31
0.0
  0
LINE
  5
3EF
330
2
100
AcDbEntity
  8
画層1
 62
     0
100
AcDbLine
 10
261.9299999999999
 20
221.1699999999999
 30
0.0
 11
261.9299999999999
 21
220.68
 31
0.0
  0
LINE
  5
3F0
330
2
100
AcDbEntity
  8
画層1
 62
     0
100
AcDbLine
 10
261.9299999999999
 20
220.68
 30
0.0
 11
261.7099999999999
 21
220.4199999999999
 31
0.0
  0
ARC
  5
3F1
330
2
100
AcDbEntity
  8
画層1
 62
     0
100
AcDbCircle
 10
261.6999999999999
 20
228.9499999999999
 30
0.0
 40
0.3
100
AcDbArc
 50
270.0
 51
0.0
  0
LINE
  5
3F2
330
2
100
AcDbEntity
  8
画層1
 62
     0
100
AcDbLine
 10
262.0
 20
229.4499999999999
 30
0.0
 11
262.0
 21
228.9499999999999
 31
0.0
  0
LINE
  5
3F3
330
2
100
AcDbEntity
  8
画層1
 62
     0
100
AcDbLine
 10
261.75
 20
229.7099999999999
 30
0.0
 11
261.9299999999999
 21
229.4799999999999
 31
0.0
  0
LINE
  5
3F4
330
2
100
AcDbEntity
  8
画層1
 62
     0
100
AcDbLine
 10
261.9299999999999
 20
229.4799999999999
 30
0.0
 11
261.9299999999999
 21
228.99
 31
0.0
  0
LINE
  5
3F5
330
2
100
AcDbEntity
  8
画層1
 62
     0
100
AcDbLine
 10
261.9299999999999
 20
228.99
 30
0.0
 11
261.72
 21
228.69
 31
0.0
  0
ARC
  5
3F6
330
2
100
AcDbEntity
  8
画層1
 62
     0
100
AcDbCircle
 10
261.6999999999999
 20
237.25
 30
0.0
 40
0.3
100
AcDbArc
 50
270.0
 51
0.0
  0
ARC
  5
3F7
330
2
100
AcDbEntity
  8
画層1
 62
     0
100
AcDbCircle
 10
261.2999999999999
 20
239.3
 30
0.0
 40
0.7
100
AcDbArc
 50
0.0
 51
90.0
  0
LINE
  5
3F8
330
2
100
AcDbEntity
  8
画層1
 62
     0
100
AcDbLine
 10
262.0
 20
239.3
 30
0.0
 11
262.0
 21
237.25
 31
0.0
  0
LINE
  5
3F9
330
2
100
AcDbEntity
  8
画層1
 62
     0
100
AcDbLine
 10
261.2799999999999
 20
239.9
 30
0.0
 11
261.7599999999999
 21
239.6599999999999
 31
0.0
  0
LINE
  5
3FA
330
2
100
AcDbEntity
  8
画層1
 62
     0
100
AcDbLine
 10
261.7599999999999
 20
239.6599999999999
 30
0.0
 11
261.94
 21
239.1599999999999
 31
0.0
  0
LINE
  5
3FB
330
2
100
AcDbEntity
  8
画層1
 62
     0
100
AcDbLine
 10
261.94
 20
239.1599999999999
 30
0.0
 11
261.92
 21
237.2599999999999
 31
0.0
  0
LINE
  5
3FC
330
2
100
AcDbEntity
  8
画層1
 62
     0
100
AcDbLine
 10
261.92
 20
237.2599999999999
 30
0.0
 11
261.68
 21
237.02
 31
0.0
  0
LWPOLYLINE
  5
3FD
330
2
100
AcDbEntity
  8
画層1
 62
     0
100
AcDbPolyline
 90
        4
 70
     1
 43
0.0
 10
281.6399999999999
 20
204.19
 10
313.64
 20
204.19
 10
313.64
 20
172.1899999999999
 10
281.6399999999999
 20
172.1899999999999
  0
LEADER
  5
3FE
330
2
100
AcDbEntity
  8
画層1
 62
     0
100
AcDbLeader
  3
STANDARD_WS
 76
     2
 10
322.05
 20
226.19
 30
0.0
 10
322.05
 20
193.1899999999999
 30
0.0
1001
ACAD
1000
DSTYLE
1002
{
1070
     6
1000
OPEN
1070
    47
1040
0.8
1070
    71
1070
     1
1070
    77
1070
     0
1070
   146
1040
0.5
1070
   147
1040
0.63
1070
   284
1070
     8
1070
   340
1005
2A
1002
}
  0
LEADER
  5
3FF
330
2
100
AcDbEntity
  8
画層1
 62
     0
100
AcDbLeader
  3
STANDARD_WS
 76
     2
 10
322.05
 20
188.1899999999999
 30
0.0
 10
322.05
 20
195.19
 30
0.0
1001
ACAD
1000
DSTYLE
1002
{
1070
     6
1000
OPEN
1070
    47
1040
0.8
1070
    71
1070
     1
1070
    77
1070
     0
1070
   146
1040
0.5
1070
   147
1040
0.63
1070
   284
1070
     8
1070
   340
1005
2A
1002
}
  0
LWPOLYLINE
  5
400
330
2
100
AcDbEntity
  8
画層1
 62
     0
100
AcDbPolyline
 90
        4
 70
     1
 43
0.0
 10
281.5299999999999
 20
204.1999999999999
 10
313.8
 20
204.1999999999999
 10
313.8
 20
172.1
 10
281.5299999999999
 20
172.1
  0
LINE
  5
401
330
2
100
AcDbEntity
  8
画層1
  6
CENTER
 62
     0
100
AcDbLine
 10
279.6399999999999
 20
188.1899999999999
 30
0.0
 11
323.6399999999999
 21
188.1899999999999
 31
0.0
  0
LEADER
  5
402
330
2
100
AcDbEntity
  8
画層1
 62
     0
100
AcDbLeader
  3
STANDARD_WS
 76
     2
 10
313.64
 20
213.75
 30
0.0
 10
303.6399999999999
 20
213.75
 30
0.0
1001
ACAD
1000
DSTYLE
1002
{
1070
     6
1000
OPEN
1070
    47
1040
0.8
1070
    71
1070
     1
1070
    77
1070
     0
1070
   146
1040
0.5
1070
   147
1040
0.63
1070
   284
1070
     8
1070
   340
1005
2A
1002
}
  0
TEXT
  5
403
330
2
100
AcDbEntity
  8
画層1
 62
     0
100
AcDbText
 10
300.12
 20
218.15
 30
0.0
 40
4.0
  1
＋0.8
  7
STYLE1
100
AcDbText
  0
TEXT
  5
404
330
2
100
AcDbEntity
  8
画層1
 62
     0
100
AcDbText
 10
294.54
 20
213.86
 30
0.0
 40
5.0
  1
92
  7
STYLE1
100
AcDbText
  0
TEXT
  5
405
330
2
100
AcDbEntity
  8
画層1
 62
     0
100
AcDbText
 10
305.0699999999999
 20
213.7199999999999
 30
0.0
 40
4.0
  1
0
  7
STYLE1
100
AcDbText
  0
LEADER
  5
406
330
2
100
AcDbEntity
  8
画層1
 62
     0
100
AcDbLeader
  3
STANDARD_WS
 76
     2
 10
281.6399999999999
 20
213.75
 30
0.0
 10
303.6399999999999
 20
213.75
 30
0.0
1001
ACAD
1000
DSTYLE
1002
{
1070
     6
1000
OPEN
1070
    47
1040
0.8
1070
    71
1070
     1
1070
    77
1070
     0
1070
   146
1040
0.5
1070
   147
1040
0.63
1070
   284
1070
     8
1070
   340
1005
2A
1002
}
  0
LEADER
  5
407
330
2
100
AcDbEntity
  8
画層1
 62
     0
100
AcDbLeader
  3
STANDARD_WS
 76
     2
 10
293.6399999999999
 20
210.19
 30
0.0
 10
293.6399999999999
 20
214.19
 30
0.0
1001
ACAD
1000
DSTYLE
1002
{
1070
     6
1000
OPEN
1070
    47
1040
0.8
1070
    71
1070
     1
1070
    77
1070
     0
1070
   146
1040
0.5
1070
   147
1040
0.63
1070
   284
1070
     8
1070
   340
1005
2A
1002
}
  0
TEXT
  5
408
330
2
100
AcDbEntity
  8
画層1
 62
     0
100
AcDbText
 10
293.3199999999999
 20
222.92
 30
0.0
 40
5.0
  1
92
 50
90.0
  7
STYLE1
100
AcDbText
  0
TEXT
  5
409
330
2
100
AcDbEntity
  8
画層1
 62
     0
100
AcDbText
 10
293.1499999999999
 20
233.63
 30
0.0
 40
4.0
  1
0
 50
90.0
  7
STYLE1
100
AcDbText
  0
TEXT
  5
40A
330
2
100
AcDbEntity
  8
画層1
 62
     0
100
AcDbText
 10
321.48
 20
206.9799999999999
 30
0.0
 40
5.0
  1
以上
 50
90.0
  7
STYLE1
100
AcDbText
  0
TEXT
  5
40B
330
2
100
AcDbEntity
  8
画層1
 62
     0
100
AcDbText
 10
321.95
 20
195.71
 30
0.0
 40
5.0
  1
130
 50
90.0
  7
STYLE1
100
AcDbText
  0
LINE
  5
40C
330
2
100
AcDbEntity
  8
画層1
 62
     0
100
AcDbLine
 10
233.82
 20
241.6599999999999
 30
0.0
 11
253.4
 21
241.6399999999999
 31
0.0
  0
LINE
  5
40D
330
2
100
AcDbEntity
  8
画層1
 62
     0
100
AcDbLine
 10
214.31
 20
241.6599999999999
 30
0.0
 11
233.84
 21
241.6599999999999
 31
0.0
  0
LINE
  5
40E
330
2
100
AcDbEntity
  8
画層1
 62
     0
100
AcDbLine
 10
255.0
 20
242.0
 30
0.0
 11
272.0
 21
242.0
 31
0.0
  0
LEADER
  5
40F
330
2
100
AcDbEntity
  8
画層1
 62
     0
100
AcDbLeader
  3
STANDARD_WS
 76
     2
 10
262.36
 20
251.99
 30
0.0
 10
256.36
 20
251.99
 30
0.0
1001
ACAD
1000
DSTYLE
1002
{
1070
     6
1000
OPEN
1070
    47
1040
0.8
1070
    71
1070
     1
1070
    77
1070
     0
1070
   146
1040
0.5
1070
   147
1040
0.63
1070
   284
1070
     8
1070
   340
1005
2A
1002
}
  0
LINE
  5
410
330
2
100
AcDbEntity
  8
画層1
 62
     0
100
AcDbLine
 10
262.0
 20
259.0
 30
0.0
 11
262.0
 21
242.0
 31
0.0
  0
LINE
  5
411
330
2
100
AcDbEntity
  8
画層1
 62
     0
100
AcDbLine
 10
272.0
 20
242.0
 30
0.0
 11
274.0
 21
242.0
 31
0.0
  0
LEADER
  5
412
330
2
100
AcDbEntity
  8
画層1
 62
     0
100
AcDbLeader
  3
STANDARD_WS
 76
     2
 10
297.6399999999999
 20
250.19
 30
0.0
 10
332.64
 20
250.19
 30
0.0
1001
ACAD
1000
DSTYLE
1002
{
1070
     6
1000
OPEN
1070
    47
1040
0.8
1070
    71
1070
     1
1070
    77
1070
     0
1070
   146
1040
0.5
1070
   147
1040
0.63
1070
   284
1070
     8
1070
   340
1005
2A
1002
}
  0
TEXT
  5
413
330
2
100
AcDbEntity
  8
画層1
 62
     0
100
AcDbText
 10
305.61
 20
250.87
 30
0.0
 40
5.0
  1
130
  7
STYLE1
100
AcDbText
  0
TEXT
  5
414
330
2
100
AcDbEntity
  8
画層1
 62
     0
100
AcDbText
 10
316.88
 20
251.34
 30
0.0
 40
5.0
  1
以上
  7
STYLE1
100
AcDbText
  0
LEADER
  5
415
330
2
100
AcDbEntity
  8
画層1
 62
     0
100
AcDbLeader
  3
STANDARD_WS
 76
     2
 10
339.6399999999999
 20
250.19
 30
0.0
 10
331.6399999999999
 20
250.19
 30
0.0
1001
ACAD
1000
DSTYLE
1002
{
1070
     6
1000
OPEN
1070
    47
1040
0.8
1070
    71
1070
     1
1070
    77
1070
     0
1070
   146
1040
0.5
1070
   147
1040
0.63
1070
   284
1070
     8
1070
   340
1005
2A
1002
}
  0
ENDSEC
  0
SECTION
  2
OBJECTS
  0
DICTIONARY
  5
7
330
0
100
AcDbDictionary
281
     1
  3
ACAD_GROUP
350
26
  3
ACAD_LAYOUT
350
B
  3
ACAD_MLINESTYLE
350
27
  3
ACAD_PLOTSETTINGS
350
28
  3
ACAD_PLOTSTYLENAME
350
6
  0
DICTIONARY
  5
437
330
2
100
AcDbDictionary
280
     1
281
     1
  3
ACAD_LAYOUTSELFREF
360
438
  0
DICTIONARY
  5
439
330
C
100
AcDbDictionary
280
     1
281
     1
  3
ACAD_LAYOUTSELFREF
360
43A
  0
DICTIONARY
  5
26
102
{ACAD_REACTORS
330
7
102
}
330
7
100
AcDbDictionary
281
     1
  0
DICTIONARY
  5
B
102
{ACAD_REACTORS
330
7
102
}
330
7
100
AcDbDictionary
281
     1
  3
Model
350
457
  3
ﾚｲｱｳﾄ1
350
458
  0
DICTIONARY
  5
27
102
{ACAD_REACTORS
330
7
102
}
330
7
100
AcDbDictionary
281
     1
  3
STANDARD
350
2B
  0
DICTIONARY
  5
28
102
{ACAD_REACTORS
330
7
102
}
330
7
100
AcDbDictionary
281
     1
  0
ACDBDICTIONARYWDFLT
  5
6
102
{ACAD_REACTORS
330
7
102
}
330
7
100
AcDbDictionary
281
     1
  3
Normal
350
5
100
AcDbDictionaryWithDefault
340
5
  0
XRECORD
  5
438
102
{ACAD_REACTORS
330
437
102
}
330
437
100
AcDbXrecord
280
     1
340
2
  0
XRECORD
  5
43A
102
{ACAD_REACTORS
330
439
102
}
330
439
100
AcDbXrecord
280
     1
340
C
  0
LAYOUT
  5
457
102
{ACAD_REACTORS
330
B
102
}
330
B
100
AcDbPlotSettings
  1

  2
EPSON MJ-6000C
  4

  6

 40
0.0
 41
0.0
 42
0.0
 43
0.0
 44
0.0
 45
0.0
 46
0.0
 47
0.0
 48
0.0
 49
0.0
140
0.0
141
0.0
142
1.0
143
1.0
 70
  1712
 72
     0
 73
     0
 74
     0
  7

 75
     0
147
1.0
148
0.0
149
0.0
100
AcDbLayout
  1
Model
 70
     1
 71
     0
 10
0.0
 20
0.0
 11
12.0
 21
9.0
 12
0.0
 22
0.0
 32
0.0
 14
0.0
 24
0.0
 34
0.0
 15
0.0
 25
0.0
 35
0.0
146
0.0
 13
0.0
 23
0.0
 33
0.0
 16
1.0
 26
0.0
 36
0.0
 17
0.0
 27
1.0
 37
0.0
 76
     0
330
2
  0
LAYOUT
  5
458
102
{ACAD_REACTORS
330
B
102
}
330
B
100
AcDbPlotSettings
  1

  2
EPSON MJ-6000C
  4

  6

 40
0.0
 41
0.0
 42
0.0
 43
0.0
 44
0.0
 45
0.0
 46
0.0
 47
0.0
 48
0.0
 49
0.0
140
0.0
141
0.0
142
1.0
143
1.0
 70
   688
 72
     0
 73
     0
 74
     5
  7

 75
    16
147
1.0
148
0.0
149
0.0
100
AcDbLayout
  1
ﾚｲｱｳﾄ1
 70
     1
 71
     1
 10
0.0
 20
0.0
 11
420.0
 21
297.0
 12
0.0
 22
0.0
 32
0.0
 14
1.000000000000000E+20
 24
1.000000000000000E+20
 34
1.000000000000000E+20
 15
-1.000000000000000E+20
 25
-1.000000000000000E+20
 35
-1.000000000000000E+20
146
0.0
 13
0.0
 23
0.0
 33
0.0
 16
1.0
 26
0.0
 36
0.0
 17
0.0
 27
1.0
 37
0.0
 76
     0
330
C
  0
MLINESTYLE
  5
2B
102
{ACAD_REACTORS
330
27
102
}
330
27
100
AcDbMlineStyle
  2
STANDARD
 70
     0
  3

 62
   256
 51
90.0
 52
90.0
 71
     2
 49
0.5
 62
   256
  6
BYLAYER
 49
-0.5
 62
   256
  6
BYLAYER
  0
ACDBPLACEHOLDER
  5
5
102
{ACAD_REACTORS
330
6
102
}
330
6
  0
ENDSEC
  0
EOF
