  0
SECTION
  2
HEADER
  9
$ACADVER
  1
AC1015
  9
$ACADMAINTVER
 70
     6
  9
$DWGCODEPAGE
  3
ANSI_932
  9
$INSBASE
 10
0.0
 20
0.0
 30
0.0
  9
$EXTMIN
 10
28.55
 20
59.0
 30
-0.00000001
  9
$EXTMAX
 10
267.0
 20
237.4218781725888
 30
0.00000001
  9
$LIMMIN
 10
0.0
 20
0.0
  9
$LIMMAX
 10
420.0
 20
297.0
  9
$ORTHOMODE
 70
     0
  9
$REGENMODE
 70
     1
  9
$FILLMODE
 70
     1
  9
$QTEXTMODE
 70
     0
  9
$MIRRTEXT
 70
     1
  9
$LTSCALE
 40
0.2
  9
$ATTMODE
 70
     1
  9
$TEXTSIZE
 40
2.5
  9
$TRACEWID
 40
1.0
  9
$TEXTSTYLE
  7
STYLE1
  9
$CLAYER
  8
画層1
  9
$CELTYPE
  6
BYLAYER
  9
$CECOLOR
 62
     0
  9
$CELTSCALE
 40
1.0
  9
$DISPSILH
 70
     0
  9
$DIMSCALE
 40
1.0
  9
$DIMASZ
 40
1.5
  9
$DIMEXO
 40
0.63
  9
$DIMDLI
 40
3.75
  9
$DIMRND
 40
0.0
  9
$DIMDLE
 40
0.0
  9
$DIMEXE
 40
1.25
  9
$DIMTP
 40
0.6
  9
$DIMTM
 40
0.0
  9
$DIMTXT
 40
2.5
  9
$DIMCEN
 40
2.5
  9
$DIMTSZ
 40
0.0
  9
$DIMTOL
 70
     0
  9
$DIMLIM
 70
     0
  9
$DIMTIH
 70
     0
  9
$DIMTOH
 70
     0
  9
$DIMSE1
 70
     0
  9
$DIMSE2
 70
     0
  9
$DIMTAD
 70
     1
  9
$DIMZIN
 70
     8
  9
$DIMBLK
  1

  9
$DIMASO
 70
     1
  9
$DIMSHO
 70
     1
  9
$DIMPOST
  1

  9
$DIMAPOST
  1

  9
$DIMALT
 70
     0
  9
$DIMALTD
 70
     4
  9
$DIMALTF
 40
0.04
  9
$DIMLFAC
 40
1.0
  9
$DIMTOFL
 70
     1
  9
$DIMTVP
 40
0.0
  9
$DIMTIX
 70
     0
  9
$DIMSOXD
 70
     0
  9
$DIMSAH
 70
     1
  9
$DIMBLK1
  1
OPEN
  9
$DIMBLK2
  1
OPEN
  9
$DIMSTYLE
  2
STANDARD_WS
  9
$DIMCLRD
 70
     0
  9
$DIMCLRE
 70
     0
  9
$DIMCLRT
 70
     0
  9
$DIMTFAC
 40
0.5
  9
$DIMGAP
 40
0.63
  9
$DIMJUST
 70
     0
  9
$DIMSD1
 70
     0
  9
$DIMSD2
 70
     0
  9
$DIMTOLJ
 70
     1
  9
$DIMTZIN
 70
     8
  9
$DIMALTZ
 70
     0
  9
$DIMALTTZ
 70
     0
  9
$DIMUPT
 70
     0
  9
$DIMDEC
 70
     4
  9
$DIMTDEC
 70
     4
  9
$DIMALTU
 70
     8
  9
$DIMALTTD
 70
     4
  9
$DIMTXSTY
  7
STYLE1
  9
$DIMAUNIT
 70
     0
  9
$DIMADEC
 70
     0
  9
$DIMALTRND
 40
0.0
  9
$DIMAZIN
 70
     0
  9
$DIMDSEP
 70
    46
  9
$DIMATFIT
 70
     3
  9
$DIMFRAC
 70
     0
  9
$DIMLDRBLK
  1
OPEN
  9
$DIMLUNIT
 70
     2
  9
$DIMLWD
 70
    -2
  9
$DIMLWE
 70
    -2
  9
$DIMTMOVE
 70
     0
  9
$LUNITS
 70
     2
  9
$LUPREC
 70
     4
  9
$SKETCHINC
 40
1.0
  9
$FILLETRAD
 40
0.2
  9
$AUNITS
 70
     0
  9
$AUPREC
 70
     0
  9
$MENU
  1
acad
  9
$ELEVATION
 40
0.0
  9
$PELEVATION
 40
0.0
  9
$THICKNESS
 40
0.0
  9
$LIMCHECK
 70
     0
  9
$CHAMFERA
 40
10.0
  9
$CHAMFERB
 40
10.0
  9
$CHAMFERC
 40
20.0
  9
$CHAMFERD
 40
0.0
  9
$SKPOLY
 70
     0
  9
$TDCREATE
 40
2450995.462150231
  9
$TDUCREATE
 40
2450995.087150231
  9
$TDUPDATE
 40
2454291.476563577
  9
$TDUUPDATE
 40
2454291.101563576
  9
$TDINDWG
 40
3.1164066782
  9
$TDUSRTIMER
 40
3.1164038079
  9
$USRTIMER
 70
     1
  9
$ANGBASE
 50
0.0
  9
$ANGDIR
 70
     0
  9
$PDMODE
 70
     0
  9
$PDSIZE
 40
0.0
  9
$PLINEWID
 40
10.0
  9
$SPLFRAME
 70
     0
  9
$SPLINETYPE
 70
     6
  9
$SPLINESEGS
 70
     8
  9
$HANDSEED
  5
23C
  9
$SURFTAB1
 70
     6
  9
$SURFTAB2
 70
     6
  9
$SURFTYPE
 70
     6
  9
$SURFU
 70
     6
  9
$SURFV
 70
     6
  9
$UCSBASE
  2

  9
$UCSNAME
  2

  9
$UCSORG
 10
0.0
 20
0.0
 30
0.0
  9
$UCSXDIR
 10
1.0
 20
0.0
 30
0.0
  9
$UCSYDIR
 10
0.0
 20
1.0
 30
0.0
  9
$UCSORTHOREF
  2

  9
$UCSORTHOVIEW
 70
     0
  9
$UCSORGTOP
 10
0.0
 20
0.0
 30
0.0
  9
$UCSORGBOTTOM
 10
0.0
 20
0.0
 30
0.0
  9
$UCSORGLEFT
 10
0.0
 20
0.0
 30
0.0
  9
$UCSORGRIGHT
 10
0.0
 20
0.0
 30
0.0
  9
$UCSORGFRONT
 10
0.0
 20
0.0
 30
0.0
  9
$UCSORGBACK
 10
0.0
 20
0.0
 30
0.0
  9
$PUCSBASE
  2

  9
$PUCSNAME
  2

  9
$PUCSORG
 10
0.0
 20
0.0
 30
0.0
  9
$PUCSXDIR
 10
1.0
 20
0.0
 30
0.0
  9
$PUCSYDIR
 10
0.0
 20
1.0
 30
0.0
  9
$PUCSORTHOREF
  2

  9
$PUCSORTHOVIEW
 70
     0
  9
$PUCSORGTOP
 10
0.0
 20
0.0
 30
0.0
  9
$PUCSORGBOTTOM
 10
0.0
 20
0.0
 30
0.0
  9
$PUCSORGLEFT
 10
0.0
 20
0.0
 30
0.0
  9
$PUCSORGRIGHT
 10
0.0
 20
0.0
 30
0.0
  9
$PUCSORGFRONT
 10
0.0
 20
0.0
 30
0.0
  9
$PUCSORGBACK
 10
0.0
 20
0.0
 30
0.0
  9
$USERI1
 70
     0
  9
$USERI2
 70
     0
  9
$USERI3
 70
     0
  9
$USERI4
 70
     0
  9
$USERI5
 70
     0
  9
$USERR1
 40
0.0
  9
$USERR2
 40
0.0
  9
$USERR3
 40
0.0
  9
$USERR4
 40
0.0
  9
$USERR5
 40
0.0
  9
$WORLDVIEW
 70
     1
  9
$SHADEDGE
 70
     3
  9
$SHADEDIF
 70
    70
  9
$TILEMODE
 70
     1
  9
$MAXACTVP
 70
    48
  9
$PINSBASE
 10
0.0
 20
0.0
 30
0.0
  9
$PLIMCHECK
 70
     0
  9
$PEXTMIN
 10
1.000000000000000E+20
 20
1.000000000000000E+20
 30
1.000000000000000E+20
  9
$PEXTMAX
 10
-1.000000000000000E+20
 20
-1.000000000000000E+20
 30
-1.000000000000000E+20
  9
$PLIMMIN
 10
0.0
 20
0.0
  9
$PLIMMAX
 10
420.0
 20
297.0
  9
$UNITMODE
 70
     0
  9
$VISRETAIN
 70
     1
  9
$PLINEGEN
 70
     0
  9
$PSLTSCALE
 70
     1
  9
$TREEDEPTH
 70
  3020
  9
$CMLSTYLE
  2
STANDARD
  9
$CMLJUST
 70
     0
  9
$CMLSCALE
 40
20.0
  9
$PROXYGRAPHICS
 70
     1
  9
$MEASUREMENT
 70
     1
  9
$CELWEIGHT
370
    -1
  9
$ENDCAPS
280
     0
  9
$JOINSTYLE
280
     0
  9
$LWDISPLAY
290
     0
  9
$INSUNITS
 70
     0
  9
$HYPERLINKBASE
  1

  9
$STYLESHEET
  1

  9
$XEDIT
290
     1
  9
$CEPSNTYPE
380
     0
  9
$PSTYLEMODE
290
     1
  9
$FINGERPRINTGUID
  2
{12426522-B208-11D3-A790-004026173390}
  9
$VERSIONGUID
  2
{56FDFD1A-73F6-472F-BCC5-4C098E438534}
  9
$EXTNAMES
290
     1
  9
$PSVPSCALE
 40
0.0
  9
$OLESTARTUP
290
     0
  0
ENDSEC
  0
SECTION
  2
CLASSES
  0
CLASS
  1
DICTIONARYVAR
  2
AcDbDictionaryVar
  3
AutoCAD 2000
 90
    32768
280
     0
281
     0
  0
CLASS
  1
LWPOLYLINE
  2
AcDbPolyline
  3
AutoCAD 2000
 90
    32768
280
     0
281
     1
  0
CLASS
  1
OLE2FRAME
  2
AcDbOle2Frame
  3
AutoCAD 2000
 90
    32768
280
     0
281
     1
  0
CLASS
  1
HATCH
  2
AcDbHatch
  3
AutoCAD 2000
 90
    32768
280
     0
281
     1
  0
CLASS
  1
ACDBDICTIONARYWDFLT
  2
AcDbDictionaryWithDefault
  3
AutoCAD 2000
 90
        0
280
     0
281
     0
  0
CLASS
  1
ACDBPLACEHOLDER
  2
AcDbPlaceHolder
  3
AutoCAD 2000
 90
        0
280
     0
281
     0
  0
CLASS
  1
LAYOUT
  2
AcDbLayout
  3
AutoCAD 2000
 90
        0
280
     0
281
     0
  0
CLASS
  1
LONG_TRANSACTION
  2
AcDbLongTransaction
  3
AutoCAD 2000
 90
    32768
280
     0
281
     0
  0
CLASS
  1
LWPOLYLINE
  2
AcDbPolyline
  3
AutoCAD 2000
 90
    32768
280
     0
281
     1
  0
CLASS
  1
HATCH
  2
AcDbHatch
  3
AutoCAD 2000
 90
    32768
280
     0
281
     1
  0
CLASS
  1
XRECORD
  2
AcDbXrecord
  3
AutoCAD 2000
 90
    32768
280
     0
281
     0
  0
CLASS
  1
LONG_TRANSACTION
  2
AcDbLongTransaction
  3
AutoCAD 2000
 90
    32768
280
     0
281
     0
  0
CLASS
  1
LWPOLYLINE
  2
AcDbPolyline
  3
AutoCAD 2000
 90
    32768
280
     0
281
     1
  0
CLASS
  1
HATCH
  2
AcDbHatch
  3
AutoCAD 2000
 90
    32768
280
     0
281
     1
  0
CLASS
  1
XRECORD
  2
AcDbXrecord
  3
AutoCAD 2000
 90
    32768
280
     0
281
     0
  0
ENDSEC
  0
SECTION
  2
TABLES
  0
TABLE
  2
VPORT
  5
1C
330
0
100
AcDbSymbolTable
 70
     2
  0
VPORT
  5
23B
330
1C
100
AcDbSymbolTableRecord
100
AcDbViewportTableRecord
  2
*Active
 70
     0
 10
0.0
 20
0.0
 11
1.0
 21
1.0
 12
115.4349563719749
 22
152.5711114199317
 13
0.0
 23
0.0
 14
1.0
 24
1.0
 15
2.0
 25
2.0
 16
0.0
 26
0.0
 36
1.0
 17
0.0
 27
0.0
 37
0.0
 40
146.6317831115054
 41
1.750922509225092
 42
50.0
 43
0.0
 44
0.0
 50
0.0
 51
0.0
 71
     0
 72
   100
 73
     1
 74
     1
 75
     0
 76
     0
 77
     0
 78
     0
281
     0
 65
     1
110
0.0
120
0.0
130
0.0
111
1.0
121
0.0
131
0.0
112
0.0
122
1.0
132
0.0
 79
     0
146
0.0
  0
ENDTAB
  0
TABLE
  2
LTYPE
  5
17
330
0
100
AcDbSymbolTable
 70
     2
  0
LTYPE
  5
18
330
17
100
AcDbSymbolTableRecord
100
AcDbLinetypeTableRecord
  2
BYBLOCK
 70
     0
  3

 72
    65
 73
     0
 40
0.0
  0
LTYPE
  5
19
330
17
100
AcDbSymbolTableRecord
100
AcDbLinetypeTableRecord
  2
BYLAYER
 70
     0
  3

 72
    65
 73
     0
 40
0.0
  0
LTYPE
  5
9
330
17
100
AcDbSymbolTableRecord
100
AcDbLinetypeTableRecord
  2
CONTINUOUS
 70
     0
  3
Solid line
 72
    65
 73
     0
 40
0.0
  0
LTYPE
  5
56
330
17
100
AcDbSymbolTableRecord
100
AcDbLinetypeTableRecord
  2
CENTER
 70
     0
  3
Center ____ _ ____ _ ____ _ ____ _ ____ _ ____
 72
    65
 73
     4
 40
50.8
 49
31.75
 74
     0
 49
-6.349999999999998
 74
     0
 49
6.349999999999998
 74
     0
 49
-6.349999999999998
 74
     0
  0
ENDTAB
  0
TABLE
  2
LAYER
  5
12
330
0
100
AcDbSymbolTable
 70
     4
  0
LAYER
  5
5
330
12
100
AcDbSymbolTableRecord
100
AcDbLayerTableRecord
  2
0
 70
     0
 62
     7
  6
CONTINUOUS
370
    -3
390
6
  0
LAYER
  5
3C
330
12
100
AcDbSymbolTableRecord
100
AcDbLayerTableRecord
  2
DEFPOINTS
 70
     0
 62
     7
  6
CONTINUOUS
290
     0
370
    -3
390
6
  0
LAYER
  5
24
330
12
100
AcDbSymbolTableRecord
100
AcDbLayerTableRecord
  2
画層1
 70
     0
 62
     7
  6
CONTINUOUS
370
    -3
390
6
  0
LAYER
  5
F3
330
12
100
AcDbSymbolTableRecord
100
AcDbLayerTableRecord
  2
画層2
 70
     0
 62
     7
  6
CONTINUOUS
370
    -3
390
6
  0
ENDTAB
  0
TABLE
  2
STYLE
  5
13
330
0
100
AcDbSymbolTable
 70
     2
  0
STYLE
  5
14
330
13
100
AcDbSymbolTableRecord
100
AcDbTextStyleTableRecord
  2
STANDARD
 70
     0
 40
2.5
 41
1.0
 50
0.0
 71
     0
 42
1.5
  3
MS PMincho.ttf
  4

1001
ACAD
1000
MS PMincho
1071
    32786
  0
STYLE
  5
25
330
13
100
AcDbSymbolTableRecord
100
AcDbTextStyleTableRecord
  2
STYLE1
 70
     0
 40
2.5
 41
1.0
 50
0.0
 71
     0
 42
2.5
  3
MS Gothic.ttf
  4

1001
ACAD
1000
MS Gothic
1071
    32817
  0
ENDTAB
  0
TABLE
  2
VIEW
  5
1A
330
0
100
AcDbSymbolTable
 70
     0
  0
ENDTAB
  0
TABLE
  2
UCS
  5
1B
330
0
100
AcDbSymbolTable
 70
     0
  0
ENDTAB
  0
TABLE
  2
APPID
  5
1E
330
0
100
AcDbSymbolTable
 70
     1
  0
APPID
  5
15
330
1E
100
AcDbSymbolTableRecord
100
AcDbRegAppTableRecord
  2
ACAD
 70
     0
  0
ENDTAB
  0
TABLE
  2
DIMSTYLE
  5
1F
330
0
100
AcDbSymbolTable
 70
     1
100
AcDbDimStyleTable
 71
     0
  0
DIMSTYLE
105
2D
102
{ACAD_REACTORS
330
E4
330
186
330
2E
330
57
330
77
330
66
330
96
102
}
330
1F
100
AcDbSymbolTableRecord
100
AcDbDimStyleTableRecord
  2
STANDARD_WS
 70
     0
 41
1.5
 42
0.63
 43
3.75
 44
1.25
 73
     0
 74
     0
 77
     1
 78
     8
140
2.5
141
2.5
143
0.04
147
0.63
171
     4
172
     1
173
     1
273
     8
274
     4
340
14
341
26
343
26
344
26
  0
ENDTAB
  0
TABLE
  2
BLOCK_RECORD
  5
1
330
0
100
AcDbSymbolTable
 70
    16
  0
BLOCK_RECORD
  5
2
102
{ACAD_XDICTIONARY
360
3
102
}
330
1
100
AcDbSymbolTableRecord
100
AcDbBlockTableRecord
  2
*MODEL_SPACE
340
1DD
  0
BLOCK_RECORD
  5
D
102
{ACAD_XDICTIONARY
360
E
102
}
330
1
100
AcDbSymbolTableRecord
100
AcDbBlockTableRecord
  2
*PAPER_SPACE
340
1DE
  0
BLOCK_RECORD
  5
26
330
1
100
AcDbSymbolTableRecord
100
AcDbBlockTableRecord
  2
_OPEN
340
0
  0
BLOCK_RECORD
  5
2F
330
1
100
AcDbSymbolTableRecord
100
AcDbBlockTableRecord
  2
_OPEN30
340
0
102
{BLKREFS
331
E9
331
EA
331
9B
331
9C
331
18B
331
18C
331
38
331
39
331
5C
331
5D
331
7C
331
7D
331
6B
331
6C
331
1D3
331
1D4
331
1E7
331
1E8
331
1F1
331
1F2
331
1FB
331
1FC
331
207
331
208
331
213
331
214
331
21F
331
220
331
22B
331
22C
102
}
  0
BLOCK_RECORD
  5
E5
330
1
100
AcDbSymbolTableRecord
100
AcDbBlockTableRecord
  2
*D2
340
0
  0
BLOCK_RECORD
  5
97
330
1
100
AcDbSymbolTableRecord
100
AcDbBlockTableRecord
  2
*D3
340
0
  0
BLOCK_RECORD
  5
187
330
1
100
AcDbSymbolTableRecord
100
AcDbBlockTableRecord
  2
*D4
340
0
  0
BLOCK_RECORD
  5
35
330
1
100
AcDbSymbolTableRecord
100
AcDbBlockTableRecord
  2
*D5
340
0
  0
BLOCK_RECORD
  5
58
330
1
100
AcDbSymbolTableRecord
100
AcDbBlockTableRecord
  2
*D6
340
0
  0
BLOCK_RECORD
  5
78
330
1
100
AcDbSymbolTableRecord
100
AcDbBlockTableRecord
  2
*D7
340
0
  0
BLOCK_RECORD
  5
67
330
1
100
AcDbSymbolTableRecord
100
AcDbBlockTableRecord
  2
*D8
340
0
  0
BLOCK_RECORD
  5
1D0
330
1
100
AcDbSymbolTableRecord
100
AcDbBlockTableRecord
  2
*D9
340
0
  0
BLOCK_RECORD
  5
1E3
330
1
100
AcDbSymbolTableRecord
100
AcDbBlockTableRecord
  2
*D10
340
0
  0
BLOCK_RECORD
  5
1F7
330
1
100
AcDbSymbolTableRecord
100
AcDbBlockTableRecord
  2
*D11
340
0
  0
BLOCK_RECORD
  5
203
330
1
100
AcDbSymbolTableRecord
100
AcDbBlockTableRecord
  2
*D12
340
0
  0
BLOCK_RECORD
  5
20F
330
1
100
AcDbSymbolTableRecord
100
AcDbBlockTableRecord
  2
*D13
340
0
  0
BLOCK_RECORD
  5
21B
330
1
100
AcDbSymbolTableRecord
100
AcDbBlockTableRecord
  2
*D14
340
0
  0
BLOCK_RECORD
  5
227
330
1
100
AcDbSymbolTableRecord
100
AcDbBlockTableRecord
  2
*D15
340
0
  0
ENDTAB
  0
ENDSEC
  0
SECTION
  2
BLOCKS
  0
BLOCK
  5
4
330
2
100
AcDbEntity
  8
0
100
AcDbBlockBegin
  2
*MODEL_SPACE
 70
     0
 10
0.0
 20
0.0
 30
0.0
  3
*MODEL_SPACE
  1

  0
ENDBLK
  5
A
330
2
100
AcDbEntity
  8
0
100
AcDbBlockEnd
  0
BLOCK
  5
F
330
D
100
AcDbEntity
 67
     1
  8
0
100
AcDbBlockBegin
  2
*PAPER_SPACE
 70
     0
 10
0.0
 20
0.0
 30
0.0
  3
*PAPER_SPACE
  1

  0
ENDBLK
  5
10
330
D
100
AcDbEntity
 67
     1
  8
0
100
AcDbBlockEnd
  0
BLOCK
  5
2A
330
26
100
AcDbEntity
  8
0
100
AcDbBlockBegin
  2
_OPEN
 70
     0
 10
0.0
 20
0.0
 30
0.0
  3
_OPEN
  1

  0
LINE
  5
27
330
26
100
AcDbEntity
  8
0
  6
ByBlock
 62
     0
100
AcDbLine
 10
-1.0
 20
0.17
 30
0.0
 11
0.0
 21
0.0
 31
0.0
  0
LINE
  5
28
330
26
100
AcDbEntity
  8
0
  6
ByBlock
 62
     0
100
AcDbLine
 10
0.0
 20
0.0
 30
0.0
 11
-1.0
 21
-0.17
 31
0.0
  0
LINE
  5
29
330
26
100
AcDbEntity
  8
0
  6
ByBlock
 62
     0
100
AcDbLine
 10
0.0
 20
0.0
 30
0.0
 11
-1.0
 21
0.0
 31
0.0
  0
ENDBLK
  5
2B
330
26
100
AcDbEntity
  8
0
100
AcDbBlockEnd
  0
BLOCK
  5
33
330
2F
100
AcDbEntity
  8
0
100
AcDbBlockBegin
  2
_OPEN30
 70
     0
 10
0.0
 20
0.0
 30
0.0
  3
_OPEN30
  1

  0
LINE
  5
30
330
2F
100
AcDbEntity
  8
0
  6
ByBlock
 62
     0
100
AcDbLine
 10
-1.0
 20
0.27
 30
0.0
 11
0.0
 21
0.0
 31
0.0
  0
LINE
  5
31
330
2F
100
AcDbEntity
  8
0
  6
ByBlock
 62
     0
100
AcDbLine
 10
0.0
 20
0.0
 30
0.0
 11
-1.0
 21
-0.27
 31
0.0
  0
LINE
  5
32
330
2F
100
AcDbEntity
  8
0
  6
ByBlock
 62
     0
100
AcDbLine
 10
0.0
 20
0.0
 30
0.0
 11
-1.0
 21
0.0
 31
0.0
  0
ENDBLK
  5
34
330
2F
100
AcDbEntity
  8
0
100
AcDbBlockEnd
  0
BLOCK
  5
EF
330
E5
100
AcDbEntity
  8
0
100
AcDbBlockBegin
  2
*D2
 70
     1
 10
0.0
 20
0.0
 30
0.0
  3
*D2
  1

  0
LINE
  5
E6
330
E5
100
AcDbEntity
  8
画層1
 62
     0
100
AcDbLine
 10
126.53
 20
220.0
 30
0.0
 11
135.25
 21
220.0
 31
0.0
  0
LINE
  5
E7
330
E5
100
AcDbEntity
  8
画層1
 62
     0
100
AcDbLine
 10
126.53
 20
172.0
 30
0.0
 11
135.25
 21
172.0
 31
0.0
  0
LINE
  5
E8
330
E5
100
AcDbEntity
  8
画層1
 62
     0
100
AcDbLine
 10
134.0
 20
218.5
 30
0.0
 11
134.0
 21
173.5
 31
0.0
  0
INSERT
  5
E9
330
E5
100
AcDbEntity
  8
画層1
 62
     0
100
AcDbBlockReference
  2
_OPEN30
 10
134.0
 20
220.0
 30
0.0
 41
1.5
 42
1.5
 43
1.5
 50
90.0
  0
INSERT
  5
EA
330
E5
100
AcDbEntity
  8
画層1
 62
     0
100
AcDbBlockReference
  2
_OPEN30
 10
134.0
 20
172.0
 30
0.0
 41
1.5
 42
1.5
 43
1.5
 50
270.0
  0
MTEXT
  5
EB
330
E5
100
AcDbEntity
  8
画層1
 62
     0
100
AcDbMText
 10
132.1299999999999
 20
196.0
 30
0.0
 40
2.5
 41
0.0
 71
     5
 72
     1
  1
\A1;48
  7
STYLE1
 11
0.0
 21
1.0
 31
0.0
 73
     1
 44
1.0
1001
ACAD
1000
MTEXTBEGIN
1070
    73
1070
     1
1070
    44
1040
1.0
1070
    74
1070
     0
1000
MTEXTEND
  0
POINT
  5
EC
330
E5
100
AcDbEntity
  8
DEFPOINTS
 62
     0
100
AcDbPoint
 10
125.9
 20
220.0
 30
0.0
  0
POINT
  5
ED
330
E5
100
AcDbEntity
  8
DEFPOINTS
 62
     0
100
AcDbPoint
 10
125.9
 20
172.0
 30
0.0
  0
POINT
  5
EE
330
E5
100
AcDbEntity
  8
DEFPOINTS
 62
     0
100
AcDbPoint
 10
134.0
 20
172.0
 30
0.0
  0
ENDBLK
  5
F0
330
E5
100
AcDbEntity
  8
0
100
AcDbBlockEnd
  0
BLOCK
  5
A1
330
97
100
AcDbEntity
  8
0
100
AcDbBlockBegin
  2
*D3
 70
     1
 10
0.0
 20
0.0
 30
0.0
  3
*D3
  1

  0
LINE
  5
98
330
97
100
AcDbEntity
  8
画層1
 62
     0
100
AcDbLine
 10
127.0
 20
218.9
 30
0.0
 11
127.0
 21
227.53
 31
0.0
  0
LINE
  5
99
330
97
100
AcDbEntity
  8
画層1
 62
     0
100
AcDbLine
 10
31.0
 20
218.9
 30
0.0
 11
31.0
 21
227.53
 31
0.0
  0
LINE
  5
9A
330
97
100
AcDbEntity
  8
画層1
 62
     0
100
AcDbLine
 10
125.5
 20
226.2799999999999
 30
0.0
 11
32.5
 21
226.2799999999999
 31
0.0
  0
INSERT
  5
9B
330
97
100
AcDbEntity
  8
画層1
 62
     0
100
AcDbBlockReference
  2
_OPEN30
 10
127.0
 20
226.2799999999999
 30
0.0
 41
1.5
 42
1.5
 43
1.5
  0
INSERT
  5
9C
330
97
100
AcDbEntity
  8
画層1
 62
     0
100
AcDbBlockReference
  2
_OPEN30
 10
31.0
 20
226.2799999999999
 30
0.0
 41
1.5
 42
1.5
 43
1.5
 50
180.0
  0
MTEXT
  5
9D
330
97
100
AcDbEntity
  8
画層1
 62
     0
100
AcDbMText
 10
79.0
 20
228.15
 30
0.0
 40
2.5
 41
0.0
 71
     5
 72
     1
  1
\A1;96
  7
STYLE1
 73
     1
 44
1.0
1001
ACAD
1000
MTEXTBEGIN
1070
    73
1070
     1
1070
    44
1040
1.0
1070
    74
1070
     0
1000
MTEXTEND
  0
POINT
  5
9E
330
97
100
AcDbEntity
  8
DEFPOINTS
 62
     0
100
AcDbPoint
 10
127.0
 20
218.2799999999999
 30
0.0
  0
POINT
  5
9F
330
97
100
AcDbEntity
  8
DEFPOINTS
 62
     0
100
AcDbPoint
 10
31.0
 20
218.2799999999999
 30
0.0
  0
POINT
  5
A0
330
97
100
AcDbEntity
  8
DEFPOINTS
 62
     0
100
AcDbPoint
 10
31.0
 20
226.2799999999999
 30
0.0
  0
ENDBLK
  5
A2
330
97
100
AcDbEntity
  8
0
100
AcDbBlockEnd
  0
BLOCK
  5
191
330
187
100
AcDbEntity
  8
0
100
AcDbBlockBegin
  2
*D4
 70
     1
 10
0.0
 20
0.0
 30
0.0
  3
*D4
  1

  0
LINE
  5
188
330
187
100
AcDbEntity
  8
画層1
 62
     0
100
AcDbLine
 10
151.0
 20
219.93
 30
0.0
 11
151.0
 21
228.25
 31
0.0
  0
LINE
  5
189
330
187
100
AcDbEntity
  8
画層1
 62
     0
100
AcDbLine
 10
162.0
 20
220.63
 30
0.0
 11
162.0
 21
228.25
 31
0.0
  0
LINE
  5
18A
330
187
100
AcDbEntity
  8
画層1
 62
     0
100
AcDbLine
 10
152.5
 20
227.0
 30
0.0
 11
160.4999999999999
 21
227.0
 31
0.0
  0
INSERT
  5
18B
330
187
100
AcDbEntity
  8
画層1
 62
     0
100
AcDbBlockReference
  2
_OPEN30
 10
151.0
 20
227.0
 30
0.0
 41
1.5
 42
1.5
 43
1.5
 50
180.0
  0
INSERT
  5
18C
330
187
100
AcDbEntity
  8
画層1
 62
     0
100
AcDbBlockReference
  2
_OPEN30
 10
162.0
 20
227.0
 30
0.0
 41
1.5
 42
1.5
 43
1.5
  0
MTEXT
  5
18D
330
187
100
AcDbEntity
  8
画層1
 62
     0
100
AcDbMText
 10
156.4999999999999
 20
228.88
 30
0.0
 40
2.5
 41
0.0
 71
     5
 72
     1
  1
\A1;11
  7
STYLE1
 73
     1
 44
1.0
1001
ACAD
1000
MTEXTBEGIN
1070
    73
1070
     1
1070
    44
1040
1.0
1070
    74
1070
     0
1000
MTEXTEND
  0
POINT
  5
18E
330
187
100
AcDbEntity
  8
DEFPOINTS
 62
     0
100
AcDbPoint
 10
151.0
 20
219.3
 30
0.0
  0
POINT
  5
18F
330
187
100
AcDbEntity
  8
DEFPOINTS
 62
     0
100
AcDbPoint
 10
162.0
 20
220.0
 30
0.0
  0
POINT
  5
190
330
187
100
AcDbEntity
  8
DEFPOINTS
 62
     0
100
AcDbPoint
 10
162.0
 20
227.0
 30
0.0
  0
ENDBLK
  5
192
330
187
100
AcDbEntity
  8
0
100
AcDbBlockEnd
  0
BLOCK
  5
3F
330
35
100
AcDbEntity
  8
0
100
AcDbBlockBegin
  2
*D5
 70
     1
 10
0.0
 20
0.0
 30
0.0
  3
*D5
  1

  0
LINE
  5
36
330
35
100
AcDbEntity
  8
画層1
 62
     0
100
AcDbLine
 10
262.0
 20
217.6299999999999
 30
0.0
 11
262.0
 21
228.25
 31
0.0
  0
LINE
  5
37
330
35
100
AcDbEntity
  8
画層1
 62
     0
100
AcDbLine
 10
163.4999999999999
 20
227.0
 30
0.0
 11
260.4999999999999
 21
227.0
 31
0.0
  0
INSERT
  5
38
330
35
100
AcDbEntity
  8
画層1
 62
     0
100
AcDbBlockReference
  2
_OPEN30
 10
162.0
 20
227.0
 30
0.0
 41
1.5
 42
1.5
 43
1.5
 50
180.0
  0
INSERT
  5
39
330
35
100
AcDbEntity
  8
画層1
 62
     0
100
AcDbBlockReference
  2
_OPEN30
 10
262.0
 20
227.0
 30
0.0
 41
1.5
 42
1.5
 43
1.5
  0
MTEXT
  5
3A
330
35
100
AcDbEntity
  8
画層1
 62
     0
100
AcDbMText
 10
212.0
 20
228.88
 30
0.0
 40
2.5
 41
0.0
 71
     5
 72
     1
  1
\A1;100
  7
STYLE1
 73
     1
 44
1.0
1001
ACAD
1000
MTEXTBEGIN
1070
    73
1070
     1
1070
    44
1040
1.0
1070
    74
1070
     0
1000
MTEXTEND
  0
POINT
  5
3B
330
35
100
AcDbEntity
  8
DEFPOINTS
 62
     0
100
AcDbPoint
 10
162.0
 20
220.0
 30
0.0
  0
POINT
  5
3D
330
35
100
AcDbEntity
  8
DEFPOINTS
 62
     0
100
AcDbPoint
 10
262.0
 20
217.0
 30
0.0
  0
POINT
  5
3E
330
35
100
AcDbEntity
  8
DEFPOINTS
 62
     0
100
AcDbPoint
 10
262.0
 20
227.0
 30
0.0
  0
ENDBLK
  5
40
330
35
100
AcDbEntity
  8
0
100
AcDbBlockEnd
  0
BLOCK
  5
62
330
58
100
AcDbEntity
  8
0
100
AcDbBlockBegin
  2
*D6
 70
     1
 10
0.0
 20
0.0
 30
0.0
  3
*D6
  1

  0
LINE
  5
59
330
58
100
AcDbEntity
  8
画層1
 62
     0
100
AcDbLine
 10
151.0
 20
227.6299999999999
 30
0.0
 11
151.0
 21
235.25
 31
0.0
  0
LINE
  5
5A
330
58
100
AcDbEntity
  8
画層1
 62
     0
100
AcDbLine
 10
262.0
 20
227.6299999999999
 30
0.0
 11
262.0
 21
235.25
 31
0.0
  0
LINE
  5
5B
330
58
100
AcDbEntity
  8
画層1
 62
     0
100
AcDbLine
 10
152.5
 20
234.0
 30
0.0
 11
260.4999999999999
 21
234.0
 31
0.0
  0
INSERT
  5
5C
330
58
100
AcDbEntity
  8
画層1
 62
     0
100
AcDbBlockReference
  2
_OPEN30
 10
151.0
 20
234.0
 30
0.0
 41
1.5
 42
1.5
 43
1.5
 50
180.0
  0
INSERT
  5
5D
330
58
100
AcDbEntity
  8
画層1
 62
     0
100
AcDbBlockReference
  2
_OPEN30
 10
262.0
 20
234.0
 30
0.0
 41
1.5
 42
1.5
 43
1.5
  0
MTEXT
  5
5E
330
58
100
AcDbEntity
  8
画層1
 62
     0
100
AcDbMText
 10
206.4999999999999
 20
235.88
 30
0.0
 40
2.5
 41
0.0
 71
     5
 72
     1
  1
\A1;111
  7
STYLE1
 73
     1
 44
1.0
1001
ACAD
1000
MTEXTBEGIN
1070
    73
1070
     1
1070
    44
1040
1.0
1070
    74
1070
     0
1000
MTEXTEND
  0
POINT
  5
5F
330
58
100
AcDbEntity
  8
DEFPOINTS
 62
     0
100
AcDbPoint
 10
151.0
 20
227.0
 30
0.0
  0
POINT
  5
60
330
58
100
AcDbEntity
  8
DEFPOINTS
 62
     0
100
AcDbPoint
 10
262.0
 20
227.0
 30
0.0
  0
POINT
  5
61
330
58
100
AcDbEntity
  8
DEFPOINTS
 62
     0
100
AcDbPoint
 10
262.0
 20
234.0
 30
0.0
  0
ENDBLK
  5
63
330
58
100
AcDbEntity
  8
0
100
AcDbBlockEnd
  0
BLOCK
  5
82
330
78
100
AcDbEntity
  8
0
100
AcDbBlockBegin
  2
*D7
 70
     1
 10
0.0
 20
0.0
 30
0.0
  3
*D7
  1

  0
LINE
  5
79
330
78
100
AcDbEntity
  8
画層1
 62
     0
100
AcDbLine
 10
125.6299999999999
 20
118.5
 30
0.0
 11
135.25
 21
118.5
 31
0.0
  0
LINE
  5
7A
330
78
100
AcDbEntity
  8
画層1
 62
     0
100
AcDbLine
 10
125.6299999999999
 20
73.5
 30
0.0
 11
135.25
 21
73.5
 31
0.0
  0
LINE
  5
7B
330
78
100
AcDbEntity
  8
画層1
 62
     0
100
AcDbLine
 10
134.0
 20
117.0
 30
0.0
 11
134.0
 21
75.0
 31
0.0
  0
INSERT
  5
7C
330
78
100
AcDbEntity
  8
画層1
 62
     0
100
AcDbBlockReference
  2
_OPEN30
 10
134.0
 20
118.5
 30
0.0
 41
1.5
 42
1.5
 43
1.5
 50
90.0
  0
INSERT
  5
7D
330
78
100
AcDbEntity
  8
画層1
 62
     0
100
AcDbBlockReference
  2
_OPEN30
 10
134.0
 20
73.5
 30
0.0
 41
1.5
 42
1.5
 43
1.5
 50
270.0
  0
MTEXT
  5
7E
330
78
100
AcDbEntity
  8
画層1
 62
     0
100
AcDbMText
 10
131.93
 20
96.0
 30
0.0
 40
2.5
 41
0.0
 71
     5
 72
     1
  1
\A1;45{\H1.250000;\S+0.6^  0;}
  7
STYLE1
 11
0.0
 21
1.0
 31
0.0
 73
     1
 44
1.0
1001
ACAD
1000
MTEXTBEGIN
1070
    73
1070
     1
1070
    44
1040
1.0
1070
    74
1070
     0
1000
MTEXTEND
  0
POINT
  5
7F
330
78
100
AcDbEntity
  8
DEFPOINTS
 62
     0
100
AcDbPoint
 10
125.0
 20
118.5
 30
0.0
  0
POINT
  5
80
330
78
100
AcDbEntity
  8
DEFPOINTS
 62
     0
100
AcDbPoint
 10
125.0
 20
73.5
 30
0.0
  0
POINT
  5
81
330
78
100
AcDbEntity
  8
DEFPOINTS
 62
     0
100
AcDbPoint
 10
134.0
 20
73.5
 30
0.0
  0
ENDBLK
  5
83
330
78
100
AcDbEntity
  8
0
100
AcDbBlockEnd
  0
BLOCK
  5
71
330
67
100
AcDbEntity
  8
0
100
AcDbBlockBegin
  2
*D8
 70
     1
 10
0.0
 20
0.0
 30
0.0
  3
*D8
  1

  0
LINE
  5
68
330
67
100
AcDbEntity
  8
画層1
 62
     0
100
AcDbLine
 10
33.0
 20
119.13
 30
0.0
 11
33.0
 21
128.75
 31
0.0
  0
LINE
  5
69
330
67
100
AcDbEntity
  8
画層1
 62
     0
100
AcDbLine
 10
125.0
 20
119.13
 30
0.0
 11
125.0
 21
128.75
 31
0.0
  0
LINE
  5
6A
330
67
100
AcDbEntity
  8
画層1
 62
     0
100
AcDbLine
 10
34.5
 20
127.5
 30
0.0
 11
123.5
 21
127.5
 31
0.0
  0
INSERT
  5
6B
330
67
100
AcDbEntity
  8
画層1
 62
     0
100
AcDbBlockReference
  2
_OPEN30
 10
33.0
 20
127.5
 30
0.0
 41
1.5
 42
1.5
 43
1.5
 50
180.0
  0
INSERT
  5
6C
330
67
100
AcDbEntity
  8
画層1
 62
     0
100
AcDbBlockReference
  2
_OPEN30
 10
125.0
 20
127.5
 30
0.0
 41
1.5
 42
1.5
 43
1.5
  0
MTEXT
  5
6D
330
67
100
AcDbEntity
  8
画層1
 62
     0
100
AcDbMText
 10
79.0
 20
129.5699999999999
 30
0.0
 40
2.5
 41
0.0
 71
     5
 72
     1
  1
\A1;92{\H1.250000;\S+0.8^  0;}
  7
STYLE1
 73
     1
 44
1.0
1001
ACAD
1000
MTEXTBEGIN
1070
    73
1070
     1
1070
    44
1040
1.0
1070
    74
1070
     0
1000
MTEXTEND
  0
POINT
  5
6E
330
67
100
AcDbEntity
  8
DEFPOINTS
 62
     0
100
AcDbPoint
 10
33.0
 20
118.5
 30
0.0
  0
POINT
  5
6F
330
67
100
AcDbEntity
  8
DEFPOINTS
 62
     0
100
AcDbPoint
 10
125.0
 20
118.5
 30
0.0
  0
POINT
  5
70
330
67
100
AcDbEntity
  8
DEFPOINTS
 62
     0
100
AcDbPoint
 10
125.0
 20
127.5
 30
0.0
  0
ENDBLK
  5
72
330
67
100
AcDbEntity
  8
0
100
AcDbBlockEnd
  0
BLOCK
  5
1D9
330
1D0
100
AcDbEntity
  8
0
 62
     1
100
AcDbBlockBegin
  2
*D9
 70
     1
 10
0.0
 20
0.0
 30
0.0
  3
*D9
  1

  0
LINE
  5
1EF
330
1D0
100
AcDbEntity
  8
画層1
 62
     0
370
    -2
100
AcDbLine
 10
262.0
 20
217.6299999999999
 30
0.0
 11
262.0
 21
228.25
 31
0.0
  0
LINE
  5
1F0
330
1D0
100
AcDbEntity
  8
画層1
 62
     0
370
    -2
100
AcDbLine
 10
163.4999999999999
 20
227.0
 30
0.0
 11
260.4999999999999
 21
227.0
 31
0.0
  0
INSERT
  5
1F1
330
1D0
100
AcDbEntity
  8
画層1
 62
     0
370
    -2
100
AcDbBlockReference
  2
_OPEN30
 10
162.0
 20
227.0
 30
0.0
 41
1.5
 42
1.5
 43
1.5
 50
180.0
  0
INSERT
  5
1F2
330
1D0
100
AcDbEntity
  8
画層1
 62
     0
370
    -2
100
AcDbBlockReference
  2
_OPEN30
 10
262.0
 20
227.0
 30
0.0
 41
1.5
 42
1.5
 43
1.5
  0
MTEXT
  5
1F3
330
1D0
100
AcDbEntity
  8
画層1
 62
     0
100
AcDbMText
 10
212.0
 20
228.88
 30
0.0
 40
2.5
 41
0.0
 71
     5
 72
     1
  1
\A1;100
  7
STYLE1
 73
     1
 44
1.0
  0
POINT
  5
1F4
330
1D0
100
AcDbEntity
  8
DEFPOINTS
 62
     0
100
AcDbPoint
 10
162.0
 20
220.0
 30
0.0
  0
POINT
  5
1F5
330
1D0
100
AcDbEntity
  8
DEFPOINTS
 62
     0
100
AcDbPoint
 10
262.0
 20
217.0
 30
0.0
  0
POINT
  5
1F6
330
1D0
100
AcDbEntity
  8
DEFPOINTS
 62
     0
100
AcDbPoint
 10
262.0
 20
227.0
 30
0.0
  0
ENDBLK
  5
1DA
330
1D0
100
AcDbEntity
  8
0
 62
     1
100
AcDbBlockEnd
  0
BLOCK
  5
1ED
330
1E3
100
AcDbEntity
  8
0
 62
     1
100
AcDbBlockBegin
  2
*D10
 70
     1
 10
0.0
 20
0.0
 30
0.0
  3
*D10
  1

  0
LINE
  5
1E4
330
1E3
100
AcDbEntity
  8
画層1
 62
     0
370
    -2
100
AcDbLine
 10
151.0
 20
227.6299999999999
 30
0.0
 11
151.0
 21
235.25
 31
0.0
  0
LINE
  5
1E5
330
1E3
100
AcDbEntity
  8
画層1
 62
     0
370
    -2
100
AcDbLine
 10
262.0
 20
227.6299999999999
 30
0.0
 11
262.0
 21
235.25
 31
0.0
  0
LINE
  5
1E6
330
1E3
100
AcDbEntity
  8
画層1
 62
     0
370
    -2
100
AcDbLine
 10
152.5
 20
234.0
 30
0.0
 11
260.4999999999999
 21
234.0
 31
0.0
  0
INSERT
  5
1E7
330
1E3
100
AcDbEntity
  8
画層1
 62
     0
370
    -2
100
AcDbBlockReference
  2
_OPEN30
 10
151.0
 20
234.0
 30
0.0
 41
1.5
 42
1.5
 43
1.5
 50
180.0
  0
INSERT
  5
1E8
330
1E3
100
AcDbEntity
  8
画層1
 62
     0
370
    -2
100
AcDbBlockReference
  2
_OPEN30
 10
262.0
 20
234.0
 30
0.0
 41
1.5
 42
1.5
 43
1.5
  0
MTEXT
  5
1E9
330
1E3
100
AcDbEntity
  8
画層1
 62
     0
100
AcDbMText
 10
206.4999999999999
 20
235.88
 30
0.0
 40
2.5
 41
0.0
 71
     5
 72
     1
  1
\A1;111
  7
STYLE1
 73
     1
 44
1.0
  0
POINT
  5
1EA
330
1E3
100
AcDbEntity
  8
DEFPOINTS
 62
     0
100
AcDbPoint
 10
151.0
 20
227.0
 30
0.0
  0
POINT
  5
1EB
330
1E3
100
AcDbEntity
  8
DEFPOINTS
 62
     0
100
AcDbPoint
 10
262.0
 20
227.0
 30
0.0
  0
POINT
  5
1EC
330
1E3
100
AcDbEntity
  8
DEFPOINTS
 62
     0
100
AcDbPoint
 10
262.0
 20
234.0
 30
0.0
  0
ENDBLK
  5
1EE
330
1E3
100
AcDbEntity
  8
0
 62
     1
100
AcDbBlockEnd
  0
BLOCK
  5
201
330
1F7
100
AcDbEntity
  8
0
 62
     1
100
AcDbBlockBegin
  2
*D11
 70
     1
 10
0.0
 20
0.0
 30
0.0
  3
*D11
  1

  0
LINE
  5
1F8
330
1F7
100
AcDbEntity
  8
画層1
 62
     0
370
    -2
100
AcDbLine
 10
33.0
 20
119.13
 30
0.0
 11
33.0
 21
128.75
 31
0.0
  0
LINE
  5
1F9
330
1F7
100
AcDbEntity
  8
画層1
 62
     0
370
    -2
100
AcDbLine
 10
125.0
 20
119.13
 30
0.0
 11
125.0
 21
128.75
 31
0.0
  0
LINE
  5
1FA
330
1F7
100
AcDbEntity
  8
画層1
 62
     0
370
    -2
100
AcDbLine
 10
34.5
 20
127.5
 30
0.0
 11
123.5
 21
127.5
 31
0.0
  0
INSERT
  5
1FB
330
1F7
100
AcDbEntity
  8
画層1
 62
     0
370
    -2
100
AcDbBlockReference
  2
_OPEN30
 10
33.0
 20
127.5
 30
0.0
 41
1.5
 42
1.5
 43
1.5
 50
180.0
  0
INSERT
  5
1FC
330
1F7
100
AcDbEntity
  8
画層1
 62
     0
370
    -2
100
AcDbBlockReference
  2
_OPEN30
 10
125.0
 20
127.5
 30
0.0
 41
1.5
 42
1.5
 43
1.5
  0
MTEXT
  5
1FD
330
1F7
100
AcDbEntity
  8
画層1
 62
     0
100
AcDbMText
 10
79.0
 20
129.5756429780032
 30
0.0
 40
2.5
 41
0.0
 71
     5
 72
     1
  1
\A1;92{\H1.250000;\S+0.8^  0;}
  7
STYLE1
 73
     1
 44
1.0
  0
POINT
  5
1FE
330
1F7
100
AcDbEntity
  8
DEFPOINTS
 62
     0
100
AcDbPoint
 10
33.0
 20
118.5
 30
0.0
  0
POINT
  5
1FF
330
1F7
100
AcDbEntity
  8
DEFPOINTS
 62
     0
100
AcDbPoint
 10
125.0
 20
118.5
 30
0.0
  0
POINT
  5
200
330
1F7
100
AcDbEntity
  8
DEFPOINTS
 62
     0
100
AcDbPoint
 10
125.0
 20
127.5
 30
0.0
  0
ENDBLK
  5
202
330
1F7
100
AcDbEntity
  8
0
 62
     1
100
AcDbBlockEnd
  0
BLOCK
  5
20D
330
203
100
AcDbEntity
  8
0
 62
     1
100
AcDbBlockBegin
  2
*D12
 70
     1
 10
0.0
 20
0.0
 30
0.0
  3
*D12
  1

  0
LINE
  5
204
330
203
100
AcDbEntity
  8
画層1
 62
     0
370
    -2
100
AcDbLine
 10
125.6299999999999
 20
118.5
 30
0.0
 11
135.25
 21
118.5
 31
0.0
  0
LINE
  5
205
330
203
100
AcDbEntity
  8
画層1
 62
     0
370
    -2
100
AcDbLine
 10
125.6299999999999
 20
73.5
 30
0.0
 11
135.25
 21
73.5
 31
0.0
  0
LINE
  5
206
330
203
100
AcDbEntity
  8
画層1
 62
     0
370
    -2
100
AcDbLine
 10
134.0
 20
117.0
 30
0.0
 11
134.0
 21
75.0
 31
0.0
  0
INSERT
  5
207
330
203
100
AcDbEntity
  8
画層1
 62
     0
370
    -2
100
AcDbBlockReference
  2
_OPEN30
 10
134.0
 20
118.5
 30
0.0
 41
1.5
 42
1.5
 43
1.5
 50
90.0
  0
INSERT
  5
208
330
203
100
AcDbEntity
  8
画層1
 62
     0
370
    -2
100
AcDbBlockReference
  2
_OPEN30
 10
134.0
 20
73.5
 30
0.0
 41
1.5
 42
1.5
 43
1.5
 50
270.0
  0
MTEXT
  5
209
330
203
100
AcDbEntity
  8
画層1
 62
     0
100
AcDbMText
 10
131.9243570219966
 20
96.0
 30
0.0
 40
2.5
 41
0.0
 71
     5
 72
     1
  1
\A1;45{\H1.250000;\S+0.6^  0;}
  7
STYLE1
 11
0.0000000000000001
 21
1.0
 31
0.0
 73
     1
 44
1.0
  0
POINT
  5
20A
330
203
100
AcDbEntity
  8
DEFPOINTS
 62
     0
100
AcDbPoint
 10
125.0
 20
118.5
 30
0.0
  0
POINT
  5
20B
330
203
100
AcDbEntity
  8
DEFPOINTS
 62
     0
100
AcDbPoint
 10
125.0
 20
73.5
 30
0.0
  0
POINT
  5
20C
330
203
100
AcDbEntity
  8
DEFPOINTS
 62
     0
100
AcDbPoint
 10
134.0
 20
73.5
 30
0.0
  0
ENDBLK
  5
20E
330
203
100
AcDbEntity
  8
0
 62
     1
100
AcDbBlockEnd
  0
BLOCK
  5
219
330
20F
100
AcDbEntity
  8
0
 62
     1
100
AcDbBlockBegin
  2
*D13
 70
     1
 10
0.0
 20
0.0
 30
0.0
  3
*D13
  1

  0
LINE
  5
210
330
20F
100
AcDbEntity
  8
画層1
 62
     0
370
    -2
100
AcDbLine
 10
127.0
 20
218.9099999999999
 30
0.0
 11
127.0
 21
227.53
 31
0.0
  0
LINE
  5
211
330
20F
100
AcDbEntity
  8
画層1
 62
     0
370
    -2
100
AcDbLine
 10
31.0
 20
218.9099999999999
 30
0.0
 11
31.0
 21
227.53
 31
0.0
  0
LINE
  5
212
330
20F
100
AcDbEntity
  8
画層1
 62
     0
370
    -2
100
AcDbLine
 10
125.5
 20
226.2799999999999
 30
0.0
 11
32.5
 21
226.2799999999999
 31
0.0
  0
INSERT
  5
213
330
20F
100
AcDbEntity
  8
画層1
 62
     0
370
    -2
100
AcDbBlockReference
  2
_OPEN30
 10
127.0
 20
226.2799999999999
 30
0.0
 41
1.5
 42
1.5
 43
1.5
  0
INSERT
  5
214
330
20F
100
AcDbEntity
  8
画層1
 62
     0
370
    -2
100
AcDbBlockReference
  2
_OPEN30
 10
31.0
 20
226.2799999999999
 30
0.0
 41
1.5
 42
1.5
 43
1.5
 50
180.0
  0
MTEXT
  5
215
330
20F
100
AcDbEntity
  8
画層1
 62
     0
100
AcDbMText
 10
79.0
 20
228.16
 30
0.0
 40
2.5
 41
0.0
 71
     5
 72
     1
  1
\A1;96
  7
STYLE1
 73
     1
 44
1.0
  0
POINT
  5
216
330
20F
100
AcDbEntity
  8
DEFPOINTS
 62
     0
100
AcDbPoint
 10
127.0
 20
218.2799999999999
 30
0.0
  0
POINT
  5
217
330
20F
100
AcDbEntity
  8
DEFPOINTS
 62
     0
100
AcDbPoint
 10
31.0
 20
218.2799999999999
 30
0.0
  0
POINT
  5
218
330
20F
100
AcDbEntity
  8
DEFPOINTS
 62
     0
100
AcDbPoint
 10
31.0
 20
226.2799999999999
 30
0.0
  0
ENDBLK
  5
21A
330
20F
100
AcDbEntity
  8
0
 62
     1
100
AcDbBlockEnd
  0
BLOCK
  5
225
330
21B
100
AcDbEntity
  8
0
 62
     1
100
AcDbBlockBegin
  2
*D14
 70
     1
 10
0.0
 20
0.0
 30
0.0
  3
*D14
  1

  0
LINE
  5
21C
330
21B
100
AcDbEntity
  8
画層1
 62
     0
370
    -2
100
AcDbLine
 10
126.53
 20
220.0
 30
0.0
 11
135.25
 21
220.0
 31
0.0
  0
LINE
  5
21D
330
21B
100
AcDbEntity
  8
画層1
 62
     0
370
    -2
100
AcDbLine
 10
126.53
 20
172.0
 30
0.0
 11
135.25
 21
172.0
 31
0.0
  0
LINE
  5
21E
330
21B
100
AcDbEntity
  8
画層1
 62
     0
370
    -2
100
AcDbLine
 10
134.0
 20
218.5
 30
0.0
 11
134.0
 21
173.5
 31
0.0
  0
INSERT
  5
21F
330
21B
100
AcDbEntity
  8
画層1
 62
     0
370
    -2
100
AcDbBlockReference
  2
_OPEN30
 10
134.0
 20
220.0
 30
0.0
 41
1.5
 42
1.5
 43
1.5
 50
90.0
  0
INSERT
  5
220
330
21B
100
AcDbEntity
  8
画層1
 62
     0
370
    -2
100
AcDbBlockReference
  2
_OPEN30
 10
134.0
 20
172.0
 30
0.0
 41
1.5
 42
1.5
 43
1.5
 50
270.0
  0
MTEXT
  5
221
330
21B
100
AcDbEntity
  8
画層1
 62
     0
100
AcDbMText
 10
132.1199999999999
 20
196.0
 30
0.0
 40
2.5
 41
0.0
 71
     5
 72
     1
  1
\A1;48
  7
STYLE1
 11
0.0000000000000001
 21
1.0
 31
0.0
 73
     1
 44
1.0
  0
POINT
  5
222
330
21B
100
AcDbEntity
  8
DEFPOINTS
 62
     0
100
AcDbPoint
 10
125.9
 20
220.0
 30
0.0
  0
POINT
  5
223
330
21B
100
AcDbEntity
  8
DEFPOINTS
 62
     0
100
AcDbPoint
 10
125.9
 20
172.0
 30
0.0
  0
POINT
  5
224
330
21B
100
AcDbEntity
  8
DEFPOINTS
 62
     0
100
AcDbPoint
 10
134.0
 20
172.0
 30
0.0
  0
ENDBLK
  5
226
330
21B
100
AcDbEntity
  8
0
 62
     1
100
AcDbBlockEnd
  0
BLOCK
  5
231
330
227
100
AcDbEntity
  8
0
 62
     1
100
AcDbBlockBegin
  2
*D15
 70
     1
 10
0.0
 20
0.0
 30
0.0
  3
*D15
  1

  0
LINE
  5
228
330
227
100
AcDbEntity
  8
画層1
 62
     0
370
    -2
100
AcDbLine
 10
151.0
 20
219.93
 30
0.0
 11
151.0
 21
228.25
 31
0.0
  0
LINE
  5
229
330
227
100
AcDbEntity
  8
画層1
 62
     0
370
    -2
100
AcDbLine
 10
162.0
 20
220.63
 30
0.0
 11
162.0
 21
228.25
 31
0.0
  0
LINE
  5
22A
330
227
100
AcDbEntity
  8
画層1
 62
     0
370
    -2
100
AcDbLine
 10
152.5
 20
227.0
 30
0.0
 11
160.4999999999999
 21
227.0
 31
0.0
  0
INSERT
  5
22B
330
227
100
AcDbEntity
  8
画層1
 62
     0
370
    -2
100
AcDbBlockReference
  2
_OPEN30
 10
151.0
 20
227.0
 30
0.0
 41
1.5
 42
1.5
 43
1.5
 50
180.0
  0
INSERT
  5
22C
330
227
100
AcDbEntity
  8
画層1
 62
     0
370
    -2
100
AcDbBlockReference
  2
_OPEN30
 10
162.0
 20
227.0
 30
0.0
 41
1.5
 42
1.5
 43
1.5
  0
MTEXT
  5
22D
330
227
100
AcDbEntity
  8
画層1
 62
     0
100
AcDbMText
 10
156.4999999999999
 20
228.88
 30
0.0
 40
2.5
 41
0.0
 71
     5
 72
     1
  1
\A1;11
  7
STYLE1
 73
     1
 44
1.0
  0
POINT
  5
22E
330
227
100
AcDbEntity
  8
DEFPOINTS
 62
     0
100
AcDbPoint
 10
151.0
 20
219.3
 30
0.0
  0
POINT
  5
22F
330
227
100
AcDbEntity
  8
DEFPOINTS
 62
     0
100
AcDbPoint
 10
162.0
 20
220.0
 30
0.0
  0
POINT
  5
230
330
227
100
AcDbEntity
  8
DEFPOINTS
 62
     0
100
AcDbPoint
 10
162.0
 20
227.0
 30
0.0
  0
ENDBLK
  5
232
330
227
100
AcDbEntity
  8
0
 62
     1
100
AcDbBlockEnd
  0
ENDSEC
  0
SECTION
  2
ENTITIES
  0
DIMENSION
  5
2E
330
2
100
AcDbEntity
  8
画層1
 62
     0
100
AcDbDimension
  2
*D9
 10
262.0
 20
227.0
 30
0.0
 11
212.0
 21
228.88
 31
0.0
 70
    32
 71
     5
 42
100.0
  3
STANDARD_WS
100
AcDbAlignedDimension
 13
162.0
 23
220.0
 33
0.0
 14
262.0
 24
217.0
 34
0.0
100
AcDbRotatedDimension
1001
ACAD
1000
DSTYLE
1002
{
1070
   287
1070
     4
1070
   287
1070
     4
1070
     7
1000
OPEN30
1070
     6
1000
OPEN30
1070
    75
1070
     1
1070
   279
1070
     1
1070
   340
1005
25
1002
}
  0
MTEXT
  5
41
330
2
100
AcDbEntity
  8
画層1
 62
     0
100
AcDbMText
 10
70.0
 20
63.0
 30
0.0
 40
2.5
 41
20.0
 71
     1
 72
     5
  1
取付穴寸法
  7
STYLE1
 73
     1
 44
1.0
1001
ACAD
1000
MTEXTBEGIN
1070
    73
1070
     1
1070
    44
1040
1.0
1070
    74
1070
     0
1000
MTEXTEND
1000
MTEXTBEGIN
1070
    73
1070
     1
1070
    44
1040
1.0
1070
    74
1070
     0
1000
MTEXTEND
  0
MTEXT
  5
42
330
2
100
AcDbEntity
  8
画層1
 62
     0
100
AcDbMText
 10
39.38
 20
193.14
 30
0.0
 40
1.6
 41
5.0
 71
     1
 72
     5
  1
COM
  7
STYLE1
 73
     1
 44
1.0
1001
ACAD
1000
MTEXTBEGIN
1070
    73
1070
     1
1070
    44
1040
1.0
1070
    74
1070
     0
1000
MTEXTEND
1000
MTEXTBEGIN
1070
    73
1070
     1
1070
    44
1040
1.0
1070
    74
1070
     0
1000
MTEXTEND
  0
MTEXT
  5
43
330
2
100
AcDbEntity
  8
画層1
 62
     0
100
AcDbMText
 10
35.93999999999999
 20
177.05
 30
0.0
 40
2.0
 41
11.18999999999999
 71
     1
 72
     5
  1
{\fＭＳ Ｐゴシック|b0|i0|c128|p50;ＳＤ１６Ａ}
  7
STYLE1
 73
     1
 44
1.0
1001
ACAD
1000
MTEXTBEGIN
1070
    73
1070
     1
1070
    44
1040
1.0
1070
    74
1070
     0
1000
MTEXTEND
1000
MTEXTBEGIN
1070
    73
1070
     1
1070
    44
1040
1.0
1070
    74
1070
     0
1000
MTEXTEND
  0
MTEXT
  5
44
330
2
100
AcDbEntity
  8
画層1
 62
     0
100
AcDbMText
 10
39.45
 20
200.1599999999998
 30
0.0
 40
1.6
 41
3.87
 71
     1
 72
     5
  1
SET
  7
STYLE1
 73
     1
 44
1.0
1001
ACAD
1000
MTEXTBEGIN
1070
    73
1070
     1
1070
    44
1040
1.0
1070
    74
1070
     0
1000
MTEXTEND
1000
MTEXTBEGIN
1070
    73
1070
     1
1070
    44
1040
1.0
1070
    74
1070
     0
1000
MTEXTEND
  0
MTEXT
  5
45
330
2
100
AcDbEntity
  8
画層1
 62
     0
100
AcDbMText
 10
39.51
 20
214.1599999999999
 30
0.0
 40
1.6
 41
3.87
 71
     1
 72
     5
  1
AL1
  7
STYLE1
 73
     1
 44
1.0
1001
ACAD
1000
MTEXTBEGIN
1070
    73
1070
     1
1070
    44
1040
1.0
1070
    74
1070
     0
1000
MTEXTEND
1000
MTEXTBEGIN
1070
    73
1070
     1
1070
    44
1040
1.0
1070
    74
1070
     0
1000
MTEXTEND
  0
MTEXT
  5
46
330
2
100
AcDbEntity
  8
画層1
 62
     0
100
AcDbMText
 10
39.38
 20
207.16
 30
0.0
 40
1.6
 41
3.87
 71
     1
 72
     5
  1
AL2
  7
STYLE1
 73
     1
 44
1.0
1001
ACAD
1000
MTEXTBEGIN
1070
    73
1070
     1
1070
    44
1040
1.0
1070
    74
1070
     0
1000
MTEXTEND
1000
MTEXTBEGIN
1070
    73
1070
     1
1070
    44
1040
1.0
1070
    74
1070
     0
1000
MTEXTEND
  0
MTEXT
  5
47
330
2
100
AcDbEntity
  8
画層1
 62
     0
100
AcDbMText
 10
106.0599999999999
 20
182.5099999999999
 30
0.0
 40
2.2
 41
6.219999999999998
 71
     1
 72
     5
  1
ENT
  7
STYLE1
 73
     1
 44
1.0
1001
ACAD
1000
MTEXTBEGIN
1070
    73
1070
     1
1070
    44
1040
1.0
1070
    74
1070
     0
1000
MTEXTEND
1000
MTEXTBEGIN
1070
    73
1070
     1
1070
    44
1040
1.0
1070
    74
1070
     0
1000
MTEXTEND
  0
MTEXT
  5
48
330
2
100
AcDbEntity
  8
画層1
 62
     0
100
AcDbMText
 10
166.43
 20
90.12999999999999
 30
0.0
 40
2.5
 41
63.28
 71
     1
 72
     5
  1
ＳＤ１６Ａシリーズ
  7
STYLE1
 73
     1
 44
1.0
1001
ACAD
1000
MTEXTBEGIN
1070
    73
1070
     1
1070
    44
1040
1.0
1070
    74
1070
     0
1000
MTEXTEND
  0
LWPOLYLINE
  5
49
330
2
100
AcDbEntity
  8
画層1
 62
     0
100
AcDbPolyline
 90
        4
 70
     1
 43
0.0
 10
197.0
 20
207.6
 10
216.0
 20
207.6
 10
216.0
 20
209.6
 10
197.0
 20
209.6
  0
LWPOLYLINE
  5
4A
330
2
100
AcDbEntity
  8
画層1
 62
     0
100
AcDbPolyline
 90
        4
 70
     1
 43
0.0
 10
197.0
 20
189.5999999999999
 10
216.0
 20
189.5999999999999
 10
216.0
 20
191.6
 10
197.0
 20
191.6
  0
LWPOLYLINE
  5
4B
330
2
100
AcDbEntity
  8
画層1
 62
     0
100
AcDbPolyline
 90
        4
 70
     1
 43
0.0
 10
197.0
 20
200.4
 10
216.0
 20
200.4
 10
216.0
 20
202.4
 10
197.0
 20
202.4
  0
LWPOLYLINE
  5
4C
330
2
100
AcDbEntity
  8
画層1
 62
     0
100
AcDbPolyline
 90
        4
 70
     1
 43
0.0
 10
197.0
 20
186.0
 10
216.0
 20
186.0
 10
216.0
 20
188.0
 10
197.0
 20
188.0
  0
LWPOLYLINE
  5
4D
330
2
100
AcDbEntity
  8
画層1
 62
     0
100
AcDbPolyline
 90
        4
 70
     1
 43
0.0
 10
197.0
 20
182.4
 10
216.0
 20
182.4
 10
216.0
 20
184.4
 10
197.0
 20
184.4
  0
LWPOLYLINE
  5
4E
330
2
100
AcDbEntity
  8
画層1
 62
     0
100
AcDbPolyline
 90
        4
 70
     1
 43
0.0
 10
197.0
 20
204.0
 10
216.0
 20
204.0
 10
216.0
 20
206.0
 10
197.0
 20
206.0
  0
LINE
  5
4F
330
2
100
AcDbEntity
  8
画層1
 62
     0
100
AcDbLine
 10
261.2999999999999
 20
173.6999999999999
 30
0.0
 11
162.0999999999999
 21
173.6999999999999
 31
0.0
  0
LINE
  5
50
330
2
100
AcDbEntity
  8
画層1
 62
     0
100
AcDbLine
 10
162.0999999999999
 20
218.3
 30
0.0
 11
261.2999999999999
 21
218.3
 31
0.0
  0
LINE
  5
51
330
2
100
AcDbEntity
  8
画層1
 62
     0
100
AcDbLine
 10
192.5
 20
214.8
 30
0.0
 11
253.5
 21
214.8
 31
0.0
  0
LINE
  5
52
330
2
100
AcDbEntity
  8
画層1
 62
     0
100
AcDbLine
 10
172.0
 20
180.0
 30
0.0
 11
241.0
 21
180.0
 31
0.0
  0
LINE
  5
53
330
2
100
AcDbEntity
  8
画層1
 62
     0
100
AcDbLine
 10
172.0
 20
212.0
 30
0.0
 11
241.0
 21
212.0
 31
0.0
  0
LINE
  5
54
330
2
100
AcDbEntity
  8
画層1
 62
     0
100
AcDbLine
 10
192.5
 20
177.2
 30
0.0
 11
253.5
 21
177.2
 31
0.0
  0
LINE
  5
55
330
2
100
AcDbEntity
  8
画層1
  6
CENTER
 62
     0
100
AcDbLine
 10
151.0
 20
196.0
 30
0.0
 11
264.0
 21
196.0
 31
0.0
  0
DIMENSION
  5
57
330
2
100
AcDbEntity
  8
画層1
 62
     0
100
AcDbDimension
  2
*D10
 10
262.0
 20
234.0
 30
0.0
 11
206.4999999999999
 21
235.88
 31
0.0
 70
    32
 71
     5
 42
111.0
  3
STANDARD_WS
100
AcDbAlignedDimension
 13
151.0
 23
227.0
 33
0.0
 14
262.0
 24
227.0
 34
0.0
100
AcDbRotatedDimension
1001
ACAD
1000
DSTYLE
1002
{
1070
     7
1000
OPEN30
1070
     6
1000
OPEN30
1070
   340
1005
25
1002
}
  0
LINE
  5
64
330
2
100
AcDbEntity
  8
画層1
  6
CENTER
 62
     0
100
AcDbLine
 10
147.0
 20
196.0
 30
0.0
 11
267.0
 21
196.0
 31
0.0
  0
LINE
  5
65
330
2
100
AcDbEntity
  8
画層1
 62
     0
100
AcDbLine
 10
70.0
 20
59.0
 30
0.0
 11
88.0
 21
59.0
 31
0.0
  0
DIMENSION
  5
66
330
2
100
AcDbEntity
  8
画層1
 62
     0
100
AcDbDimension
  2
*D11
 10
125.0
 20
127.5
 30
0.0
 11
79.0
 21
129.5756429780032
 31
0.0
 70
    32
 71
     5
 42
92.0
  3
STANDARD_WS
100
AcDbAlignedDimension
 13
33.0
 23
118.5
 33
0.0
 14
125.0
 24
118.5
 34
0.0
 50
180.0
100
AcDbRotatedDimension
1001
ACAD
1000
DSTYLE
1002
{
1070
     7
1000
OPEN30
1070
     6
1000
OPEN30
1070
   284
1070
     8
1070
   340
1005
25
1070
    47
1040
0.8
1070
    71
1070
     1
1070
   146
1040
0.5
1002
}
  0
LINE
  5
73
330
2
100
AcDbEntity
  8
画層1
  6
CENTER
 62
     0
100
AcDbLine
 10
30.0
 20
96.0
 30
0.0
 11
128.0
 21
96.0
 31
0.0
  0
LINE
  5
74
330
2
100
AcDbEntity
  8
画層1
 62
     0
100
AcDbLine
 10
33.0
 20
118.5
 30
0.0
 11
125.0
 21
118.5
 31
0.0
  0
LINE
  5
75
330
2
100
AcDbEntity
  8
画層1
 62
     0
100
AcDbLine
 10
125.0
 20
73.5
 30
0.0
 11
33.0
 21
73.5
 31
0.0
  0
LINE
  5
76
330
2
100
AcDbEntity
  8
画層1
 62
     0
100
AcDbLine
 10
33.0
 20
73.5
 30
0.0
 11
33.0
 21
118.5
 31
0.0
  0
DIMENSION
  5
77
330
2
100
AcDbEntity
  8
画層1
 62
     0
100
AcDbDimension
  2
*D12
 10
134.0
 20
73.5
 30
0.0
 11
131.9243570219966
 21
96.0
 31
0.0
 70
    32
 71
     5
 42
45.0
  3
STANDARD_WS
100
AcDbAlignedDimension
 13
125.0
 23
118.5
 33
0.0
 14
125.0
 24
73.5
 34
0.0
 50
270.0
100
AcDbRotatedDimension
1001
ACAD
1000
DSTYLE
1002
{
1070
     7
1000
OPEN30
1070
     6
1000
OPEN30
1070
   284
1070
     8
1070
   340
1005
25
1070
    47
1040
0.6
1070
    71
1070
     1
1070
   146
1040
0.5
1002
}
  0
LINE
  5
84
330
2
100
AcDbEntity
  8
画層1
  6
CENTER
 62
     0
100
AcDbLine
 10
79.0
 20
70.5
 30
0.0
 11
79.0
 21
121.5
 31
0.0
  0
LINE
  5
85
330
2
100
AcDbEntity
  8
画層1
 62
     0
100
AcDbLine
 10
125.0
 20
118.5
 30
0.0
 11
125.0
 21
73.5
 31
0.0
  0
ELLIPSE
  5
86
330
2
100
AcDbEntity
  8
画層1
 62
     0
100
AcDbEllipse
 10
84.0
 20
181.4999999999999
 30
0.0
 11
-4.5
 21
0.0
 31
0.0
210
0.0
220
0.0
230
1.0
 40
0.69
 41
0.0
 42
6.283185307179584
  0
ELLIPSE
  5
87
330
2
100
AcDbEntity
  8
画層1
 62
     0
100
AcDbEllipse
 10
72.0
 20
181.4999999999999
 30
0.0
 11
-4.5
 21
0.0
 31
0.0
210
0.0
220
0.0
230
1.0
 40
0.69
 41
0.0
 42
6.283185307179584
  0
ELLIPSE
  5
88
330
2
100
AcDbEntity
  8
画層1
 62
     0
100
AcDbEllipse
 10
96.0
 20
181.4999999999999
 30
0.0
 11
-4.5
 21
0.0
 31
0.0
210
0.0
220
0.0
230
1.0
 40
0.69
 41
0.0
 42
6.283185307179584
  0
ELLIPSE
  5
89
330
2
100
AcDbEntity
  8
画層1
 62
     0
100
AcDbEllipse
 10
108.0
 20
181.4999999999999
 30
0.0
 11
-4.5
 21
0.0
 31
0.0
210
0.0
220
0.0
230
1.0
 40
0.69
 41
0.0
 42
6.283185307179584
  0
LINE
  5
8A
330
2
100
AcDbEntity
  8
画層1
 62
     0
100
AcDbLine
 10
116.0
 20
189.4999999999999
 30
0.0
 11
46.5
 21
189.4999999999999
 31
0.0
  0
LINE
  5
8B
330
2
100
AcDbEntity
  8
画層1
 62
     0
100
AcDbLine
 10
46.5
 20
212.5
 30
0.0
 11
116.0
 21
212.5
 31
0.0
  0
LINE
  5
8C
330
2
100
AcDbEntity
  8
画層1
 62
     0
100
AcDbLine
 10
33.1
 20
178.0
 30
0.0
 11
124.9
 21
178.0
 31
0.0
  0
LINE
  5
8D
330
2
100
AcDbEntity
  8
画層1
 62
     0
100
AcDbLine
 10
33.1
 20
188.0
 30
0.0
 11
124.9
 21
188.0
 31
0.0
  0
LINE
  5
8E
330
2
100
AcDbEntity
  8
画層1
 62
     0
100
AcDbLine
 10
124.3999999999999
 20
174.0999999999999
 30
0.0
 11
33.6
 21
174.0999999999999
 31
0.0
  0
LINE
  5
8F
330
2
100
AcDbEntity
  8
画層1
 62
     0
100
AcDbLine
 10
33.6
 20
217.9
 30
0.0
 11
124.3999999999999
 21
217.9
 31
0.0
  0
LINE
  5
90
330
2
100
AcDbEntity
  8
画層1
 62
     0
100
AcDbLine
 10
124.5
 20
173.9
 30
0.0
 11
33.5
 21
173.9
 31
0.0
  0
LINE
  5
91
330
2
100
AcDbEntity
  8
画層1
 62
     0
100
AcDbLine
 10
33.5
 20
218.1
 30
0.0
 11
124.5
 21
218.1
 31
0.0
  0
LINE
  5
92
330
2
100
AcDbEntity
  8
画層1
 62
     0
100
AcDbLine
 10
125.9
 20
172.1
 30
0.0
 11
32.1
 21
172.1
 31
0.0
  0
LINE
  5
93
330
2
100
AcDbEntity
  8
画層1
 62
     0
100
AcDbLine
 10
32.1
 20
219.9
 30
0.0
 11
125.9
 21
219.9
 31
0.0
  0
LINE
  5
94
330
2
100
AcDbEntity
  8
画層1
 62
     0
100
AcDbLine
 10
125.9
 20
172.0
 30
0.0
 11
32.1
 21
172.0
 31
0.0
  0
LINE
  5
95
330
2
100
AcDbEntity
  8
画層1
 62
     0
100
AcDbLine
 10
32.1
 20
220.0
 30
0.0
 11
125.9
 21
220.0
 31
0.0
  0
DIMENSION
  5
96
330
2
100
AcDbEntity
  8
画層1
 62
     0
100
AcDbDimension
  2
*D13
 10
31.0
 20
226.2799999999999
 30
0.0
 11
79.0
 21
228.16
 31
0.0
 70
    32
 71
     5
 42
96.0
  3
STANDARD_WS
100
AcDbAlignedDimension
 13
127.0
 23
218.2799999999999
 33
0.0
 14
31.0
 24
218.2799999999999
 34
0.0
 50
180.0
100
AcDbRotatedDimension
1001
ACAD
1000
DSTYLE
1002
{
1070
     7
1000
OPEN30
1070
     6
1000
OPEN30
1070
   340
1005
25
1002
}
  0
LINE
  5
A3
330
2
100
AcDbEntity
  8
画層1
  6
CENTER
 62
     0
100
AcDbLine
 10
29.0
 20
196.0
 30
0.0
 11
129.0
 21
196.0
 31
0.0
  0
LINE
  5
A4
330
2
100
AcDbEntity
  8
画層1
 62
     0
100
AcDbLine
 10
45.49999999999999
 20
190.5
 30
0.0
 11
45.49999999999999
 21
211.5
 31
0.0
  0
LINE
  5
A5
330
2
100
AcDbEntity
  8
画層1
 62
     0
100
AcDbLine
 10
33.1
 20
174.5999999999999
 30
0.0
 11
33.1
 21
217.3999999999999
 31
0.0
  0
LINE
  5
A6
330
2
100
AcDbEntity
  8
画層1
 62
     0
100
AcDbLine
 10
32.9
 20
174.5
 30
0.0
 11
32.9
 21
217.5
 31
0.0
  0
LINE
  5
A7
330
2
100
AcDbEntity
  8
画層1
 62
     0
100
AcDbLine
 10
31.1
 20
173.0999999999999
 30
0.0
 11
31.1
 21
218.9
 31
0.0
  0
LINE
  5
A8
330
2
100
AcDbEntity
  8
画層1
 62
     0
100
AcDbLine
 10
31.0
 20
173.0999999999999
 30
0.0
 11
31.0
 21
218.9
 31
0.0
  0
ARC
  5
A9
330
2
100
AcDbEntity
  8
画層1
 62
     0
100
AcDbCircle
 10
46.5
 20
190.5
 30
0.0
 40
1.0
100
AcDbArc
 50
180.0
 51
270.0
  0
LINE
  5
AA
330
2
100
AcDbEntity
  8
画層1
 62
     0
100
AcDbLine
 10
28.55
 20
176.1699999999999
 30
0.0
 11
31.0
 21
176.1699999999999
 31
0.0
  0
LINE
  5
AB
330
2
100
AcDbEntity
  8
画層1
 62
     0
100
AcDbLine
 10
28.55
 20
173.6999999999999
 30
0.0
 11
31.0
 21
173.6999999999999
 31
0.0
  0
LINE
  5
AC
330
2
100
AcDbEntity
  8
画層1
 62
     0
100
AcDbLine
 10
28.55
 20
173.6999999999999
 30
0.0
 11
28.55
 21
176.1699999999999
 31
0.0
  0
LINE
  5
AD
330
2
100
AcDbEntity
  8
画層1
 62
     0
100
AcDbLine
 10
29.25
 20
176.1699999999999
 30
0.0
 11
29.25
 21
173.6999999999999
 31
0.0
  0
LINE
  5
AE
330
2
100
AcDbEntity
  8
画層1
 62
     0
100
AcDbLine
 10
28.9
 20
176.1699999999999
 30
0.0
 11
28.9
 21
173.6999999999999
 31
0.0
  0
ARC
  5
AF
330
2
100
AcDbEntity
  8
画層1
 62
     0
100
AcDbCircle
 10
33.6
 20
174.5999999999999
 30
0.0
 40
0.5
100
AcDbArc
 50
180.0
 51
270.0
  0
ARC
  5
B0
330
2
100
AcDbEntity
  8
画層1
 62
     0
100
AcDbCircle
 10
33.5
 20
174.5
 30
0.0
 40
0.6
100
AcDbArc
 50
180.0
 51
270.0
  0
ARC
  5
B1
330
2
100
AcDbEntity
  8
画層1
 62
     0
100
AcDbCircle
 10
32.1
 20
173.0999999999999
 30
0.0
 40
1.0
100
AcDbArc
 50
180.0
 51
270.0
  0
LINE
  5
B2
330
2
100
AcDbEntity
  8
画層1
 62
     0
100
AcDbLine
 10
31.0
 20
177.0
 30
0.0
 11
31.1
 21
177.0
 31
0.0
  0
LINE
  5
B3
330
2
100
AcDbEntity
  8
画層1
 62
     0
100
AcDbLine
 10
31.0
 20
175.0
 30
0.0
 11
31.1
 21
175.0
 31
0.0
  0
ARC
  5
B4
330
2
100
AcDbEntity
  8
画層1
 62
     0
100
AcDbCircle
 10
32.1
 20
173.0999999999999
 30
0.0
 40
1.1
100
AcDbArc
 50
180.0
 51
270.0
  0
LINE
  5
B5
330
2
100
AcDbEntity
  8
画層1
 62
     0
100
AcDbLine
 10
30.64999999999999
 20
176.1699999999999
 30
0.0
 11
30.64999999999999
 21
173.6999999999999
 31
0.0
  0
LINE
  5
B6
330
2
100
AcDbEntity
  8
画層1
 62
     0
100
AcDbLine
 10
29.95
 20
176.1699999999999
 30
0.0
 11
29.95
 21
173.6999999999999
 31
0.0
  0
LINE
  5
B7
330
2
100
AcDbEntity
  8
画層1
 62
     0
100
AcDbLine
 10
30.3
 20
176.1699999999999
 30
0.0
 11
30.3
 21
173.6999999999999
 31
0.0
  0
LINE
  5
B8
330
2
100
AcDbEntity
  8
画層1
 62
     0
100
AcDbLine
 10
29.6
 20
176.1699999999999
 30
0.0
 11
29.6
 21
173.6999999999999
 31
0.0
  0
LINE
  5
B9
330
2
100
AcDbEntity
  8
画層1
 62
     0
100
AcDbLine
 10
31.0
 20
189.0
 30
0.0
 11
31.1
 21
189.0
 31
0.0
  0
LINE
  5
BA
330
2
100
AcDbEntity
  8
画層1
 62
     0
100
AcDbLine
 10
31.0
 20
187.0
 30
0.0
 11
31.1
 21
187.0
 31
0.0
  0
LINE
  5
BB
330
2
100
AcDbEntity
  8
画層1
 62
     0
100
AcDbLine
 10
42.5
 20
189.4
 30
0.0
 11
39.5
 21
189.4
 31
0.0
  0
LINE
  5
BC
330
2
100
AcDbEntity
  8
画層1
 62
     0
100
AcDbLine
 10
39.5
 20
190.5999999999999
 30
0.0
 11
42.5
 21
190.5999999999999
 31
0.0
  0
LINE
  5
BD
330
2
100
AcDbEntity
  8
画層1
 62
     0
100
AcDbLine
 10
39.5
 20
189.4
 30
0.0
 11
39.5
 21
190.5999999999999
 31
0.0
  0
LINE
  5
BE
330
2
100
AcDbEntity
  8
画層1
 62
     0
100
AcDbLine
 10
42.5
 20
190.5999999999999
 30
0.0
 11
42.5
 21
189.4
 31
0.0
  0
HATCH
  5
BF
330
2
100
AcDbEntity
  8
画層1
 62
     0
100
AcDbHatch
 10
0.0
 20
0.0
 30
0.0
210
0.0
220
0.0
230
1.0
  2
SOLID
 70
     1
 71
     0
 91
        1
 92
        5
 93
        5
 72
     3
 10
72.00000000000009
 20
181.4937961216368
 11
-3.179765130984643
 21
0.0
 40
0.5400000000000005
 50
102.6170915574608
 51
437.3829084425389
 73
     1
 72
     1
 10
71.61842818428192
 20
179.7891307076314
 11
71.61842818428192
 21
180.297878630242
 72
     3
 10
72.00000000000009
 20
181.4937961216368
 11
-2.671002710027102
 21
0.0
 40
0.4523809523809537
 50
-72.30409342292334
 51
209.8520372589858
 73
     0
 72
     1
 10
73.65347786811219
 20
180.5448451026103
 11
73.14471544715464
 21
181.3030102137775
 72
     1
 10
73.14471544715456
 20
181.3030102137775
 11
72.38157181571825
 21
179.7891307076314
 97
        0
 75
     0
 76
     1
 47
0.05
 98
        1
 10
72.47862695880654
 20
182.9379671463804
  0
ARC
  5
C0
330
2
100
AcDbEntity
  8
画層1
 62
     0
100
AcDbCircle
 10
46.5
 20
211.5
 30
0.0
 40
1.0
100
AcDbArc
 50
90.0
 51
180.0
  0
ARC
  5
C1
330
2
100
AcDbEntity
  8
画層1
 62
     0
100
AcDbCircle
 10
33.5
 20
217.5
 30
0.0
 40
0.6
100
AcDbArc
 50
90.0
 51
180.0
  0
LINE
  5
C2
330
2
100
AcDbEntity
  8
画層1
 62
     0
100
AcDbLine
 10
28.55
 20
218.3
 30
0.0
 11
28.55
 21
215.8
 31
0.0
  0
LINE
  5
C3
330
2
100
AcDbEntity
  8
画層1
 62
     0
100
AcDbLine
 10
28.9
 20
218.3
 30
0.0
 11
28.9
 21
215.8
 31
0.0
  0
LINE
  5
C4
330
2
100
AcDbEntity
  8
画層1
 62
     0
100
AcDbLine
 10
29.25
 20
218.3
 30
0.0
 11
29.25
 21
215.8
 31
0.0
  0
LINE
  5
C5
330
2
100
AcDbEntity
  8
画層1
 62
     0
100
AcDbLine
 10
29.6
 20
218.3
 30
0.0
 11
29.6
 21
215.8
 31
0.0
  0
LINE
  5
C6
330
2
100
AcDbEntity
  8
画層1
 62
     0
100
AcDbLine
 10
29.95
 20
218.3
 30
0.0
 11
29.95
 21
215.8
 31
0.0
  0
LINE
  5
C7
330
2
100
AcDbEntity
  8
画層1
 62
     0
100
AcDbLine
 10
30.3
 20
218.3
 30
0.0
 11
30.3
 21
215.8
 31
0.0
  0
LINE
  5
C8
330
2
100
AcDbEntity
  8
画層1
 62
     0
100
AcDbLine
 10
30.64999999999999
 20
218.3
 30
0.0
 11
30.64999999999999
 21
215.8
 31
0.0
  0
LINE
  5
C9
330
2
100
AcDbEntity
  8
画層1
 62
     0
100
AcDbLine
 10
28.55
 20
215.8
 30
0.0
 11
31.0
 21
215.8
 31
0.0
  0
LINE
  5
CA
330
2
100
AcDbEntity
  8
画層1
 62
     0
100
AcDbLine
 10
31.0
 20
203.0
 30
0.0
 11
31.1
 21
203.0
 31
0.0
  0
LINE
  5
CB
330
2
100
AcDbEntity
  8
画層1
 62
     0
100
AcDbLine
 10
31.0
 20
205.0
 30
0.0
 11
31.1
 21
205.0
 31
0.0
  0
LINE
  5
CC
330
2
100
AcDbEntity
  8
画層1
 62
     0
100
AcDbLine
 10
39.5
 20
197.5999999999999
 30
0.0
 11
42.5
 21
197.5999999999999
 31
0.0
  0
LINE
  5
CD
330
2
100
AcDbEntity
  8
画層1
 62
     0
100
AcDbLine
 10
42.5
 20
196.4
 30
0.0
 11
39.5
 21
196.4
 31
0.0
  0
LINE
  5
CE
330
2
100
AcDbEntity
  8
画層1
 62
     0
100
AcDbLine
 10
39.5
 20
196.4
 30
0.0
 11
39.5
 21
197.5999999999999
 31
0.0
  0
LINE
  5
CF
330
2
100
AcDbEntity
  8
画層1
 62
     0
100
AcDbLine
 10
42.5
 20
197.5999999999999
 30
0.0
 11
42.5
 21
196.4
 31
0.0
  0
LINE
  5
D0
330
2
100
AcDbEntity
  8
画層1
 62
     0
100
AcDbLine
 10
39.5
 20
204.5999999999999
 30
0.0
 11
42.5
 21
204.5999999999999
 31
0.0
  0
LINE
  5
D1
330
2
100
AcDbEntity
  8
画層1
 62
     0
100
AcDbLine
 10
42.5
 20
203.4
 30
0.0
 11
39.5
 21
203.4
 31
0.0
  0
LINE
  5
D2
330
2
100
AcDbEntity
  8
画層1
 62
     0
100
AcDbLine
 10
39.5
 20
203.4
 30
0.0
 11
39.5
 21
204.5999999999999
 31
0.0
  0
LINE
  5
D3
330
2
100
AcDbEntity
  8
画層1
 62
     0
100
AcDbLine
 10
42.5
 20
204.5999999999999
 30
0.0
 11
42.5
 21
203.4
 31
0.0
  0
ARC
  5
D4
330
2
100
AcDbEntity
  8
画層1
 62
     0
100
AcDbCircle
 10
33.6
 20
217.3999999999999
 30
0.0
 40
0.5
100
AcDbArc
 50
90.0
 51
180.0
  0
LINE
  5
D5
330
2
100
AcDbEntity
  8
画層1
 62
     0
100
AcDbLine
 10
31.0
 20
217.0
 30
0.0
 11
31.1
 21
217.0
 31
0.0
  0
LINE
  5
D6
330
2
100
AcDbEntity
  8
画層1
 62
     0
100
AcDbLine
 10
31.0
 20
215.0
 30
0.0
 11
31.1
 21
215.0
 31
0.0
  0
LINE
  5
D7
330
2
100
AcDbEntity
  8
画層1
 62
     0
100
AcDbLine
 10
42.5
 20
210.4
 30
0.0
 11
39.5
 21
210.4
 31
0.0
  0
LINE
  5
D8
330
2
100
AcDbEntity
  8
画層1
 62
     0
100
AcDbLine
 10
39.5
 20
211.6
 30
0.0
 11
42.5
 21
211.6
 31
0.0
  0
LINE
  5
D9
330
2
100
AcDbEntity
  8
画層1
 62
     0
100
AcDbLine
 10
39.5
 20
210.4
 30
0.0
 11
39.5
 21
211.6
 31
0.0
  0
LINE
  5
DA
330
2
100
AcDbEntity
  8
画層1
 62
     0
100
AcDbLine
 10
42.5
 20
211.6
 30
0.0
 11
42.5
 21
210.4
 31
0.0
  0
LINE
  5
DB
330
2
100
AcDbEntity
  8
画層1
 62
     0
100
AcDbLine
 10
28.55
 20
218.3
 30
0.0
 11
31.0
 21
218.3
 31
0.0
  0
ARC
  5
DC
330
2
100
AcDbEntity
  8
画層1
 62
     0
100
AcDbCircle
 10
32.1
 20
218.9
 30
0.0
 40
1.0
100
AcDbArc
 50
90.0
 51
180.0
  0
ARC
  5
DD
330
2
100
AcDbEntity
  8
画層1
 62
     0
100
AcDbCircle
 10
32.1
 20
218.9
 30
0.0
 40
1.1
100
AcDbArc
 50
90.0
 51
180.0
  0
HATCH
  5
DE
330
2
100
AcDbEntity
  8
画層1
 62
     0
100
AcDbHatch
 10
0.0
 20
0.0
 30
0.0
210
0.0
220
0.0
230
1.0
  2
SOLID
 70
     1
 71
     0
 91
        3
 92
        7
 72
     1
 73
     1
 93
        2
 10
119.2597438632589
 20
195.1715835229753
 42
1.0
 10
117.6889454497159
 20
195.1715835229753
 42
1.0
 97
        0
 92
       22
 72
     1
 73
     1
 93
        2
 10
118.0616768604578
 20
195.1715835229753
 42
-1.0
 10
118.8870124525168
 20
195.1715835229753
 42
-1.0
 97
        0
 92
        7
 72
     1
 73
     1
 93
        4
 10
122.6981114223373
 20
195.004822699041
 42
0.0
 10
122.6981114223373
 20
195.8073563214899
 42
1.533941497875936
 10
122.6981114223373
 20
191.154600895017
 42
0.0
 10
122.6981114223373
 20
191.957134517466
 42
-1.87880039970397
 97
        0
 75
     0
 76
     1
 47
0.01
 98
        3
 10
118.5676139075491
 20
194.6524211329725
 10
118.5676139075491
 20
194.6524211329725
 10
119.4070371671056
 20
193.2546768494308
  0
LINE
  5
DF
330
2
100
AcDbEntity
  8
画層1
 62
     0
100
AcDbLine
 10
117.0
 20
211.5
 30
0.0
 11
117.0
 21
190.5
 31
0.0
  0
LINE
  5
E0
330
2
100
AcDbEntity
  8
画層1
 62
     0
100
AcDbLine
 10
124.9
 20
217.3999999999999
 30
0.0
 11
124.9
 21
174.5999999999999
 31
0.0
  0
LINE
  5
E1
330
2
100
AcDbEntity
  8
画層1
 62
     0
100
AcDbLine
 10
125.0999999999999
 20
217.5
 30
0.0
 11
125.0999999999999
 21
174.5
 31
0.0
  0
LINE
  5
E2
330
2
100
AcDbEntity
  8
画層1
 62
     0
100
AcDbLine
 10
126.9
 20
218.9
 30
0.0
 11
126.9
 21
173.0999999999999
 31
0.0
  0
LINE
  5
E3
330
2
100
AcDbEntity
  8
画層1
 62
     0
100
AcDbLine
 10
127.0
 20
218.9
 30
0.0
 11
127.0
 21
173.0999999999999
 31
0.0
  0
DIMENSION
  5
E4
330
2
100
AcDbEntity
  8
画層1
 62
     0
100
AcDbDimension
  2
*D14
 10
134.0
 20
172.0
 30
0.0
 11
132.1199999999999
 21
196.0
 31
0.0
 70
    32
 71
     5
 42
48.0
  3
STANDARD_WS
100
AcDbAlignedDimension
 13
125.9
 23
220.0
 33
0.0
 14
125.9
 24
172.0
 34
0.0
 50
270.0
100
AcDbRotatedDimension
1001
ACAD
1000
DSTYLE
1002
{
1070
     7
1000
OPEN30
1070
     6
1000
OPEN30
1070
   340
1005
25
1002
}
  0
LINE
  5
F1
330
2
100
AcDbEntity
  8
画層1
  6
CENTER
 62
     0
100
AcDbLine
 10
79.0
 20
170.0
 30
0.0
 11
79.0
 21
222.0
 31
0.0
  0
LWPOLYLINE
  5
F2
330
2
100
AcDbEntity
  8
画層2
 62
     0
100
AcDbPolyline
 90
        4
 70
     1
 43
0.0
 10
100.34
 20
177.4099999999999
 10
121.33
 20
177.4099999999999
 10
121.33
 20
174.7799999999999
 10
100.34
 20
174.7799999999999
  0
HATCH
  5
F4
330
2
100
AcDbEntity
  8
画層1
 62
     0
100
AcDbHatch
 10
0.0
 20
0.0
 30
0.0
210
0.0
220
0.0
230
1.0
  2
SOLID
 70
     1
 71
     0
 91
       10
 92
        5
 93
       10
 72
     3
 10
101.8842795299363
 20
175.7143663497885
 11
-0.982456140350877
 21
0.0
 40
0.6607142857142858
 50
90.0
 51
270.0
 73
     1
 72
     2
 10
101.8842795299363
 20
176.468752314701
 40
0.1052631578947376
 50
89.99999999999628
 51
269.9999999999955
 73
     0
 72
     2
 10
101.9473375641857
 20
175.2200323633508
 40
1.355450691026425
 50
267.3335335883713
 51
296.4437824908838
 73
     0
 72
     1
 10
102.5509461966028
 20
176.4336645954028
 11
102.6912970737959
 21
176.7494540690869
 72
     2
 10
101.8327522483525
 20
175.1049325010843
 40
1.855141613171803
 50
62.43257811529774
 51
90.5759553231079
 73
     1
 72
     3
 10
101.8141040913397
 20
176.3108575778589
 11
0.9558248242604051
 21
0.0
 40
0.6791231934364329
 50
90.0
 51
270.0
 73
     1
 72
     2
 10
101.8141040913397
 20
175.5564716129465
 40
0.1052631578947376
 50
270.0000000000023
 51
450.0000000000031
 73
     0
 72
     2
 10
101.7244303729484
 20
177.2835416174821
 40
1.834526149694269
 50
87.1982008190587
 51
115.4216641289815
 73
     0
 72
     1
 10
100.9369111088834
 20
175.626647051543
 11
100.7614725123924
 21
175.3108575778589
 72
     2
 10
101.8088038766649
 20
177.4094350426044
 40
2.3454062253961
 50
243.4777171338575
 51
271.8441083094921
 73
     1
 97
        0
 92
        7
 72
     0
 73
     1
 93
       12
 10
105.4632268983572
 20
176.9248926655782
 10
104.5509461966029
 20
176.9248926655782
 10
104.5509461966029
 20
176.2582259989116
 10
103.989542687831
 20
176.2582259989116
 10
103.989542687831
 20
176.9248926655782
 10
103.0772619860766
 20
176.9248926655782
 10
103.0772619860766
 20
175.1003312620695
 10
103.989542687831
 20
175.1003312620695
 10
103.989542687831
 20
175.766997928736
 10
104.5509461966029
 20
175.766997928736
 10
104.5509461966029
 20
175.1003312620695
 10
105.4632268983572
 20
175.1003312620694
 97
        0
 92
        7
 72
     0
 73
     1
 93
        4
 10
106.6562093544977
 20
176.9248926655782
 10
105.7439286527433
 20
176.9248926655782
 10
105.7439286527433
 20
175.1003312620695
 10
106.6562093544977
 20
175.1003312620694
 97
        0
 92
        7
 72
     0
 73
     1
 93
       13
 10
109.7439286527433
 20
176.9248926655782
 10
108.9018233895854
 20
176.9248926655782
 10
108.5158584773047
 20
176.1529628410166
 10
108.2000690036204
 20
176.9248926655782
 10
107.2176128632696
 20
176.9248926655782
 10
106.9018233895855
 20
175.1003312620695
 10
107.7790163720415
 20
175.1003312620695
 10
107.8842795299362
 20
175.6968224901395
 10
108.2000690036204
 20
175.1003312620695
 10
108.7614725123924
 20
175.1003312620695
 10
109.0421742667784
 20
175.6968224901395
 10
109.1825251439712
 20
175.1003312620695
 10
110.0597181264274
 20
175.1003312620695
 97
        0
 92
        7
 72
     0
 73
     1
 93
        8
 10
112.2000690036204
 20
176.9248926655782
 10
111.1474374246731
 20
176.9248926655782
 10
110.3053321615151
 20
175.1003312620694
 10
111.2176128632694
 20
175.1003312620695
 10
111.3696596468953
 20
175.4512084550519
 10
112.0246304071292
 20
175.4512084550519
 10
112.2000690036204
 20
175.1003312620695
 10
113.0421742667784
 20
175.1003312620695
 97
        0
 92
       22
 72
     0
 73
     1
 93
        3
 10
111.5065017521585
 20
175.766997928736
 10
111.6737532141468
 20
176.1529628410166
 10
111.8667356702871
 20
175.766997928736
 97
        0
 92
        7
 72
     1
 73
     1
 93
        4
 10
114.9018233895855
 20
176.9248926655782
 42
0.0
 10
113.287788301866
 20
176.9248926655782
 42
0.0
 10
113.287788301866
 20
175.1003312620695
 42
0.0
 10
114.9018233895855
 20
175.1003312620695
 42
1.0
 97
        0
 92
       22
 72
     1
 73
     1
 93
        4
 10
114.2000690036204
 20
176.468752314701
 42
0.0
 10
114.41059531941
 20
176.468752314701
 42
-1.0
 10
114.41059531941
 20
175.5564716129465
 42
0.0
 10
114.2000690036204
 20
175.5564716129465
 42
0.0
 97
        0
 92
        7
 72
     0
 73
     1
 93
       12
 10
116.9719988281817
 20
175.766997928736
 10
117.7790163720414
 20
175.766997928736
 10
117.7790163720414
 20
176.2582259989116
 10
116.9719988281817
 20
176.2582259989116
 10
116.9719988281817
 20
176.5389277532975
 10
117.9193672492345
 20
176.5389277532975
 10
117.9193672492345
 20
176.9248926655782
 10
116.0246304071292
 20
176.9248926655782
 10
116.0246304071292
 20
175.1003312620695
 10
117.9193672492345
 20
175.1003312620694
 10
117.9193672492345
 20
175.4862961743502
 10
116.9719988281817
 20
175.4862961743502
 97
        0
 92
        7
 72
     0
 73
     1
 93
       10
 10
119.0772619860765
 20
175.9424365252273
 10
119.9193672492345
 20
175.1003312620694
 10
120.9018233895855
 20
175.1003312620695
 10
120.9018233895855
 20
176.9248926655782
 10
119.9895426878309
 20
176.9248926655782
 10
119.9895426878309
 20
176.1529628410166
 10
119.2176128632695
 20
176.9248926655782
 10
118.1649812843222
 20
176.9248926655782
 10
118.1649812843222
 20
175.1003312620695
 10
119.0772619860765
 20
175.1003312620695
 97
        0
 75
     0
 76
     1
 47
0.31
 98
       10
 10
102.0864305555665
 20
175.7897459212395
 10
103.384352613285
 20
175.939367532907
 10
106.4294775473926
 20
175.8894936416431
 10
107.4777992271265
 20
175.7398720299758
 10
110.8723646443126
 20
175.6899981387119
 10
110.8723646443126
 20
175.6899981387119
 10
113.7178092529827
 20
175.6401243095726
 10
113.7178092529827
 20
175.6401243095726
 10
116.3136533684195
 20
175.6899981387119
 10
118.6099770533245
 20
175.6899981387119
  0
HATCH
  5
F5
330
2
100
AcDbEntity
  8
画層1
 62
     0
100
AcDbHatch
 10
0.0
 20
0.0
 30
0.0
210
0.0
220
0.0
230
1.0
  2
SOLID
 70
     1
 71
     0
 91
        1
 92
        7
 72
     1
 73
     1
 93
        6
 10
97.39708235453043
 20
180.4948717264764
 42
-0.5575365158350519
 10
97.29097274826166
 20
180.3231827770005
 42
0.0
 10
94.70902725173868
 20
180.3231827770005
 42
-0.5575365158350514
 10
94.6029176454698
 20
180.4948717264764
 42
0.0
 10
95.89389039373134
 20
183.0768172229994
 42
-0.6180339887498949
 10
96.106109606269
 20
183.0768172229994
 42
0.0
 97
        0
 75
     0
 76
     1
 47
0.07
 98
        1
 10
96.21376906601723
 20
181.1347743758344
  0
HATCH
  5
F6
330
2
100
AcDbEntity
  8
画層1
 62
     0
100
AcDbHatch
 10
0.0
 20
0.0
 30
0.0
210
0.0
220
0.0
230
1.0
  2
SOLID
 70
     1
 71
     0
 91
        1
 92
        7
 72
     1
 73
     1
 93
        6
 10
85.39708235453042
 20
182.5051282735234
 42
0.5575365158350519
 10
85.29097274826165
 20
182.6768172229994
 42
0.0
 10
82.70902725173868
 20
182.6768172229994
 42
0.5575365158350514
 10
82.6029176454698
 20
182.5051282735234
 42
0.0
 10
83.89389039373133
 20
179.9231827770005
 42
0.6180339887498949
 10
84.106109606269
 20
179.9231827770005
 42
0.0
 97
        0
 75
     0
 76
     1
 47
0.07
 98
        1
 10
84.21376906601722
 20
181.8652256241653
  0
LINE
  5
F7
330
2
100
AcDbEntity
  8
画層1
 62
     0
100
AcDbLine
 10
129.4499999999999
 20
173.6999999999999
 30
0.0
 11
127.0
 21
173.6999999999999
 31
0.0
  0
LINE
  5
F8
330
2
100
AcDbEntity
  8
画層1
 62
     0
100
AcDbLine
 10
129.4499999999999
 20
176.2
 30
0.0
 11
127.0
 21
176.2
 31
0.0
  0
ARC
  5
F9
330
2
100
AcDbEntity
  8
画層1
 62
     0
100
AcDbCircle
 10
124.3999999999999
 20
174.5999999999999
 30
0.0
 40
0.5
100
AcDbArc
 50
270.0
 51
0.0
  0
ARC
  5
FA
330
2
100
AcDbEntity
  8
画層1
 62
     0
100
AcDbCircle
 10
124.5
 20
174.5
 30
0.0
 40
0.6
100
AcDbArc
 50
270.0
 51
0.0
  0
ARC
  5
FB
330
2
100
AcDbEntity
  8
画層1
 62
     0
100
AcDbCircle
 10
125.9
 20
173.0999999999999
 30
0.0
 40
1.0
100
AcDbArc
 50
270.0
 51
0.0
  0
ARC
  5
FC
330
2
100
AcDbEntity
  8
画層1
 62
     0
100
AcDbCircle
 10
125.9
 20
173.0999999999999
 30
0.0
 40
1.1
100
AcDbArc
 50
270.0
 51
0.0
  0
LINE
  5
FD
330
2
100
AcDbEntity
  8
画層1
 62
     0
100
AcDbLine
 10
127.35
 20
176.2
 30
0.0
 11
127.35
 21
173.6999999999999
 31
0.0
  0
LINE
  5
FE
330
2
100
AcDbEntity
  8
画層1
 62
     0
100
AcDbLine
 10
127.7
 20
176.2
 30
0.0
 11
127.7
 21
173.6999999999999
 31
0.0
  0
LINE
  5
FF
330
2
100
AcDbEntity
  8
画層1
 62
     0
100
AcDbLine
 10
127.0
 20
177.0
 30
0.0
 11
126.9
 21
177.0
 31
0.0
  0
LINE
  5
100
330
2
100
AcDbEntity
  8
画層1
 62
     0
100
AcDbLine
 10
127.0
 20
175.0
 30
0.0
 11
126.9
 21
175.0
 31
0.0
  0
ARC
  5
101
330
2
100
AcDbEntity
  8
画層1
 62
     0
100
AcDbCircle
 10
116.0
 20
190.5
 30
0.0
 40
1.0
100
AcDbArc
 50
270.0
 51
0.0
  0
LINE
  5
102
330
2
100
AcDbEntity
  8
画層1
 62
     0
100
AcDbLine
 10
127.0
 20
189.0
 30
0.0
 11
126.9
 21
189.0
 31
0.0
  0
LINE
  5
103
330
2
100
AcDbEntity
  8
画層1
 62
     0
100
AcDbLine
 10
127.0
 20
187.0
 30
0.0
 11
126.9
 21
187.0
 31
0.0
  0
LINE
  5
104
330
2
100
AcDbEntity
  8
画層1
 62
     0
100
AcDbLine
 10
129.4499999999999
 20
173.6999999999999
 30
0.0
 11
129.4499999999999
 21
176.2
 31
0.0
  0
LINE
  5
105
330
2
100
AcDbEntity
  8
画層1
 62
     0
100
AcDbLine
 10
128.05
 20
176.2
 30
0.0
 11
128.05
 21
173.6999999999999
 31
0.0
  0
LINE
  5
106
330
2
100
AcDbEntity
  8
画層1
 62
     0
100
AcDbLine
 10
128.4
 20
176.2
 30
0.0
 11
128.4
 21
173.6999999999999
 31
0.0
  0
LINE
  5
107
330
2
100
AcDbEntity
  8
画層1
 62
     0
100
AcDbLine
 10
128.75
 20
176.2
 30
0.0
 11
128.75
 21
173.6999999999999
 31
0.0
  0
LINE
  5
108
330
2
100
AcDbEntity
  8
画層1
 62
     0
100
AcDbLine
 10
129.0999999999999
 20
176.2
 30
0.0
 11
129.0999999999999
 21
173.6999999999999
 31
0.0
  0
ARC
  5
109
330
2
100
AcDbEntity
  8
画層1
 62
     0
100
AcDbCircle
 10
124.5
 20
217.5
 30
0.0
 40
0.6
100
AcDbArc
 50
0.0
 51
90.0
  0
LINE
  5
10A
330
2
100
AcDbEntity
  8
画層1
 62
     0
100
AcDbLine
 10
129.4499999999999
 20
215.8
 30
0.0
 11
129.4499999999999
 21
218.3
 31
0.0
  0
LINE
  5
10B
330
2
100
AcDbEntity
  8
画層1
 62
     0
100
AcDbLine
 10
127.35
 20
218.3
 30
0.0
 11
127.35
 21
215.8
 31
0.0
  0
LINE
  5
10C
330
2
100
AcDbEntity
  8
画層1
 62
     0
100
AcDbLine
 10
127.7
 20
218.3
 30
0.0
 11
127.7
 21
215.8
 31
0.0
  0
LINE
  5
10D
330
2
100
AcDbEntity
  8
画層1
 62
     0
100
AcDbLine
 10
128.05
 20
218.3
 30
0.0
 11
128.05
 21
215.8
 31
0.0
  0
LINE
  5
10E
330
2
100
AcDbEntity
  8
画層1
 62
     0
100
AcDbLine
 10
128.4
 20
218.3
 30
0.0
 11
128.4
 21
215.8
 31
0.0
  0
LINE
  5
10F
330
2
100
AcDbEntity
  8
画層1
 62
     0
100
AcDbLine
 10
128.75
 20
218.3
 30
0.0
 11
128.75
 21
215.8
 31
0.0
  0
LINE
  5
110
330
2
100
AcDbEntity
  8
画層1
 62
     0
100
AcDbLine
 10
129.0999999999999
 20
218.3
 30
0.0
 11
129.0999999999999
 21
215.8
 31
0.0
  0
LINE
  5
111
330
2
100
AcDbEntity
  8
画層1
 62
     0
100
AcDbLine
 10
127.0
 20
215.8
 30
0.0
 11
129.4499999999999
 21
215.8
 31
0.0
  0
LINE
  5
112
330
2
100
AcDbEntity
  8
画層1
 62
     0
100
AcDbLine
 10
127.0
 20
205.0
 30
0.0
 11
126.9
 21
205.0
 31
0.0
  0
LINE
  5
113
330
2
100
AcDbEntity
  8
画層1
 62
     0
100
AcDbLine
 10
127.0
 20
203.0
 30
0.0
 11
126.9
 21
203.0
 31
0.0
  0
ARC
  5
114
330
2
100
AcDbEntity
  8
画層1
 62
     0
100
AcDbCircle
 10
116.0
 20
211.5
 30
0.0
 40
1.0
100
AcDbArc
 50
0.0
 51
90.0
  0
ARC
  5
115
330
2
100
AcDbEntity
  8
画層1
 62
     0
100
AcDbCircle
 10
124.3999999999999
 20
217.3999999999999
 30
0.0
 40
0.5
100
AcDbArc
 50
0.0
 51
90.0
  0
LINE
  5
116
330
2
100
AcDbEntity
  8
画層1
 62
     0
100
AcDbLine
 10
127.0
 20
217.0
 30
0.0
 11
126.9
 21
217.0
 31
0.0
  0
LINE
  5
117
330
2
100
AcDbEntity
  8
画層1
 62
     0
100
AcDbLine
 10
127.0
 20
215.0
 30
0.0
 11
126.9
 21
215.0
 31
0.0
  0
LINE
  5
118
330
2
100
AcDbEntity
  8
画層1
 62
     0
100
AcDbLine
 10
127.0
 20
218.3
 30
0.0
 11
129.4499999999999
 21
218.3
 31
0.0
  0
ARC
  5
119
330
2
100
AcDbEntity
  8
画層1
 62
     0
100
AcDbCircle
 10
125.9
 20
218.9
 30
0.0
 40
1.0
100
AcDbArc
 50
0.0
 51
90.0
  0
ARC
  5
11A
330
2
100
AcDbEntity
  8
画層1
 62
     0
100
AcDbCircle
 10
125.9
 20
218.9
 30
0.0
 40
1.1
100
AcDbArc
 50
0.0
 51
90.0
  0
LINE
  5
11B
330
2
100
AcDbEntity
  8
画層1
 62
     0
100
AcDbLine
 10
162.0
 20
172.0
 30
0.0
 11
162.0
 21
220.0
 31
0.0
  0
LINE
  5
11C
330
2
100
AcDbEntity
  8
画層1
 62
     0
100
AcDbLine
 10
154.0
 20
202.8999999999999
 30
0.0
 11
154.0
 21
189.1
 31
0.0
  0
LINE
  5
11D
330
2
100
AcDbEntity
  8
画層1
 62
     0
100
AcDbLine
 10
151.0
 20
218.6999999999999
 30
0.0
 11
151.0
 21
173.3
 31
0.0
  0
LINE
  5
11E
330
2
100
AcDbEntity
  8
画層1
 62
     0
100
AcDbLine
 10
201.0
 20
193.5
 30
0.0
 11
201.0
 21
198.5
 31
0.0
  0
LINE
  5
11F
330
2
100
AcDbEntity
  8
画層1
 62
     0
100
AcDbLine
 10
199.0
 20
198.5
 30
0.0
 11
199.0
 21
193.5
 31
0.0
  0
LINE
  5
120
330
2
100
AcDbEntity
  8
画層1
 62
     0
100
AcDbLine
 10
196.5
 20
193.5
 30
0.0
 11
196.5
 21
198.5
 31
0.0
  0
LINE
  5
121
330
2
100
AcDbEntity
  8
画層1
 62
     0
100
AcDbLine
 10
203.5
 20
198.5
 30
0.0
 11
203.5
 21
193.5
 31
0.0
  0
LINE
  5
122
330
2
100
AcDbEntity
  8
画層1
 62
     0
100
AcDbLine
 10
178.0
 20
193.5
 30
0.0
 11
178.0
 21
198.5
 31
0.0
  0
LINE
  5
123
330
2
100
AcDbEntity
  8
画層1
 62
     0
100
AcDbLine
 10
173.5
 20
193.5
 30
0.0
 11
173.5
 21
198.5
 31
0.0
  0
LINE
  5
124
330
2
100
AcDbEntity
  8
画層1
 62
     0
100
AcDbLine
 10
176.0
 20
198.5
 30
0.0
 11
176.0
 21
193.5
 31
0.0
  0
LINE
  5
125
330
2
100
AcDbEntity
  8
画層1
 62
     0
100
AcDbLine
 10
180.4999999999999
 20
198.5
 30
0.0
 11
180.4999999999999
 21
193.5
 31
0.0
  0
LINE
  5
126
330
2
100
AcDbEntity
  8
画層1
 62
     0
100
AcDbLine
 10
154.0
 20
203.0
 30
0.0
 11
154.0
 21
189.0
 31
0.0
  0
LINE
  5
127
330
2
100
AcDbEntity
  8
画層1
 62
     0
100
AcDbLine
 10
162.0999999999999
 20
173.6999999999999
 30
0.0
 11
162.0999999999999
 21
218.3
 31
0.0
  0
LINE
  5
128
330
2
100
AcDbEntity
  8
画層1
 62
     0
100
AcDbLine
 10
160.0
 20
172.0
 30
0.0
 11
160.0
 21
220.0
 31
0.0
  0
LINE
  5
129
330
2
100
AcDbEntity
  8
画層1
 62
     0
100
AcDbLine
 10
171.0
 20
211.0
 30
0.0
 11
171.0
 21
181.0
 31
0.0
  0
LWPOLYLINE
  5
12A
330
2
100
AcDbEntity
  8
画層1
 62
     0
100
AcDbPolyline
 90
        4
 70
     1
 43
0.0
 10
174.0
 20
189.5999999999999
 10
193.0
 20
189.5999999999999
 10
193.0
 20
191.6
 10
174.0
 20
191.6
  0
LWPOLYLINE
  5
12B
330
2
100
AcDbEntity
  8
画層1
 62
     0
100
AcDbPolyline
 90
        4
 70
     1
 43
0.0
 10
174.0
 20
186.0
 10
193.0
 20
186.0
 10
193.0
 20
188.0
 10
174.0
 20
188.0
  0
LWPOLYLINE
  5
12C
330
2
100
AcDbEntity
  8
画層1
 62
     0
100
AcDbPolyline
 90
        4
 70
     1
 43
0.0
 10
174.0
 20
182.4
 10
193.0
 20
182.4
 10
193.0
 20
184.4
 10
174.0
 20
184.4
  0
LINE
  5
12D
330
2
100
AcDbEntity
  8
画層1
 62
     0
100
AcDbLine
 10
185.0
 20
177.6999999999999
 30
0.0
 11
171.0
 21
177.6999999999999
 31
0.0
  0
LINE
  5
12E
330
2
100
AcDbEntity
  8
画層1
 62
     0
100
AcDbLine
 10
185.0
 20
178.5
 30
0.0
 11
171.0
 21
178.5
 31
0.0
  0
LINE
  5
12F
330
2
100
AcDbEntity
  8
画層1
 62
     0
100
AcDbLine
 10
162.5999999999999
 20
177.2
 30
0.0
 11
185.0
 21
177.2
 31
0.0
  0
LINE
  5
130
330
2
100
AcDbEntity
  8
画層1
 62
     0
100
AcDbLine
 10
185.0
 20
177.4
 30
0.0
 11
162.0999999999999
 21
177.4
 31
0.0
  0
LINE
  5
131
330
2
100
AcDbEntity
  8
画層1
 62
     0
100
AcDbLine
 10
154.0
 20
172.0
 30
0.0
 11
162.0
 21
172.0
 31
0.0
  0
LINE
  5
132
330
2
100
AcDbEntity
  8
画層1
 62
     0
100
AcDbLine
 10
155.0999999999999
 20
179.4999999999999
 30
0.0
 11
155.0999999999999
 21
184.4999999999999
 31
0.0
  0
LINE
  5
133
330
2
100
AcDbEntity
  8
画層1
 62
     0
100
AcDbLine
 10
156.1999999999999
 20
184.4999999999999
 30
0.0
 11
156.1999999999999
 21
179.4999999999999
 31
0.0
  0
LINE
  5
134
330
2
100
AcDbEntity
  8
画層1
 62
     0
100
AcDbLine
 10
154.6
 20
179.4999999999999
 30
0.0
 11
154.6
 21
184.4999999999999
 31
0.0
  0
LINE
  5
135
330
2
100
AcDbEntity
  8
画層1
 62
     0
100
AcDbLine
 10
152.5999999999999
 20
184.4999999999999
 30
0.0
 11
152.5999999999999
 21
179.4999999999999
 31
0.0
  0
LINE
  5
136
330
2
100
AcDbEntity
  8
画層1
 62
     0
100
AcDbLine
 10
154.4999999999999
 20
179.0
 30
0.0
 11
154.4999999999999
 21
185.0
 31
0.0
  0
LINE
  5
137
330
2
100
AcDbEntity
  8
画層1
 62
     0
100
AcDbLine
 10
156.1999999999999
 20
185.0
 30
0.0
 11
156.1999999999999
 21
179.0
 31
0.0
  0
LINE
  5
138
330
2
100
AcDbEntity
  8
画層1
 62
     0
100
AcDbLine
 10
153.0
 20
187.0
 30
0.0
 11
153.0
 21
177.0
 31
0.0
  0
LINE
  5
139
330
2
100
AcDbEntity
  8
画層1
 62
     0
100
AcDbLine
 10
154.0
 20
172.1
 30
0.0
 11
152.2
 21
172.1
 31
0.0
  0
ARC
  5
13A
330
2
100
AcDbEntity
  8
画層1
 62
     0
100
AcDbCircle
 10
152.2
 20
173.3
 30
0.0
 40
1.199999999999999
100
AcDbArc
 50
180.0
 51
270.0
  0
LINE
  5
13B
330
2
100
AcDbEntity
  8
画層1
 62
     0
100
AcDbLine
 10
153.0
 20
179.4999999999999
 30
0.0
 11
153.0
 21
176.9
 31
0.0
  0
LINE
  5
13C
330
2
100
AcDbEntity
  8
画層1
 62
     0
100
AcDbLine
 10
154.0
 20
174.9
 30
0.0
 11
154.0
 21
172.1
 31
0.0
  0
LINE
  5
13D
330
2
100
AcDbEntity
  8
画層1
 62
     0
100
AcDbLine
 10
153.0
 20
176.9
 30
0.0
 11
154.0
 21
174.9
 31
0.0
  0
LINE
  5
13E
330
2
100
AcDbEntity
  8
画層1
 62
     0
100
AcDbLine
 10
153.0
 20
177.0
 30
0.0
 11
154.0
 21
175.0
 31
0.0
  0
LINE
  5
13F
330
2
100
AcDbEntity
  8
画層1
 62
     0
100
AcDbLine
 10
154.0
 20
175.0
 30
0.0
 11
154.0
 21
172.0
 31
0.0
  0
LINE
  5
140
330
2
100
AcDbEntity
  8
画層1
 62
     0
100
AcDbLine
 10
156.1999999999999
 20
179.4999999999999
 30
0.0
 11
154.6
 21
179.4999999999999
 31
0.0
  0
LINE
  5
141
330
2
100
AcDbEntity
  8
画層1
 62
     0
100
AcDbLine
 10
152.5999999999999
 20
179.4999999999999
 30
0.0
 11
153.0
 21
179.4999999999999
 31
0.0
  0
LINE
  5
142
330
2
100
AcDbEntity
  8
画層1
 62
     0
100
AcDbLine
 10
156.1999999999999
 20
179.0
 30
0.0
 11
154.4999999999999
 21
179.0
 31
0.0
  0
LINE
  5
143
330
2
100
AcDbEntity
  8
画層1
 62
     0
100
AcDbLine
 10
154.6
 20
184.4999999999999
 30
0.0
 11
156.1999999999999
 21
184.4999999999999
 31
0.0
  0
LINE
  5
144
330
2
100
AcDbEntity
  8
画層1
 62
     0
100
AcDbLine
 10
153.0
 20
187.1
 30
0.0
 11
153.0
 21
184.4999999999999
 31
0.0
  0
LINE
  5
145
330
2
100
AcDbEntity
  8
画層1
 62
     0
100
AcDbLine
 10
154.0
 20
189.1
 30
0.0
 11
153.0
 21
187.1
 31
0.0
  0
LINE
  5
146
330
2
100
AcDbEntity
  8
画層1
 62
     0
100
AcDbLine
 10
153.0
 20
184.4999999999999
 30
0.0
 11
152.5999999999999
 21
184.4999999999999
 31
0.0
  0
LINE
  5
147
330
2
100
AcDbEntity
  8
画層1
 62
     0
100
AcDbLine
 10
154.0
 20
189.0
 30
0.0
 11
153.0
 21
187.0
 31
0.0
  0
LINE
  5
148
330
2
100
AcDbEntity
  8
画層1
 62
     0
100
AcDbLine
 10
154.4999999999999
 20
185.0
 30
0.0
 11
156.1999999999999
 21
185.0
 31
0.0
  0
LINE
  5
149
330
2
100
AcDbEntity
  8
画層1
 62
     0
100
AcDbLine
 10
164.4
 20
173.6999999999999
 30
0.0
 11
164.4
 21
177.2
 31
0.0
  0
LINE
  5
14A
330
2
100
AcDbEntity
  8
画層1
 62
     0
100
AcDbLine
 10
163.8
 20
173.6999999999999
 30
0.0
 11
163.8
 21
177.2
 31
0.0
  0
LINE
  5
14B
330
2
100
AcDbEntity
  8
画層1
 62
     0
100
AcDbLine
 10
163.1999999999998
 20
173.6999999999999
 30
0.0
 11
163.1999999999998
 21
177.2
 31
0.0
  0
LINE
  5
14C
330
2
100
AcDbEntity
  8
画層1
 62
     0
100
AcDbLine
 10
162.5999999999999
 20
173.6999999999999
 30
0.0
 11
162.5999999999999
 21
177.2
 31
0.0
  0
LINE
  5
14D
330
2
100
AcDbEntity
  8
画層1
 62
     0
100
AcDbLine
 10
162.0
 20
173.9
 30
0.0
 11
162.0999999999999
 21
173.9
 31
0.0
  0
LINE
  5
14E
330
2
100
AcDbEntity
  8
画層1
 62
     0
100
AcDbLine
 10
167.5
 20
173.6999999999999
 30
0.0
 11
167.5
 21
177.2
 31
0.0
  0
LINE
  5
14F
330
2
100
AcDbEntity
  8
画層1
 62
     0
100
AcDbLine
 10
167.1999999999998
 20
173.6999999999999
 30
0.0
 11
167.1999999999998
 21
177.2
 31
0.0
  0
LINE
  5
150
330
2
100
AcDbEntity
  8
画層1
 62
     0
100
AcDbLine
 10
166.4
 20
173.6999999999999
 30
0.0
 11
166.4
 21
177.2
 31
0.0
  0
LINE
  5
151
330
2
100
AcDbEntity
  8
画層1
 62
     0
100
AcDbLine
 10
165.8
 20
173.6999999999999
 30
0.0
 11
165.8
 21
177.2
 31
0.0
  0
LINE
  5
152
330
2
100
AcDbEntity
  8
画層1
 62
     0
100
AcDbLine
 10
165.0
 20
173.6999999999999
 30
0.0
 11
165.0
 21
177.2
 31
0.0
  0
LINE
  5
153
330
2
100
AcDbEntity
  8
画層1
 62
     0
100
AcDbLine
 10
171.0
 20
178.5
 30
0.0
 11
171.0
 21
177.4
 31
0.0
  0
ARC
  5
154
330
2
100
AcDbEntity
  8
画層1
 62
     0
100
AcDbCircle
 10
172.0
 20
181.0
 30
0.0
 40
1.0
100
AcDbArc
 50
180.0
 51
270.0
  0
LINE
  5
155
330
2
100
AcDbEntity
  8
画層1
 62
     0
100
AcDbLine
 10
176.0
 20
193.5
 30
0.0
 11
173.5
 21
193.5
 31
0.0
  0
LINE
  5
156
330
2
100
AcDbEntity
  8
画層1
 62
     0
100
AcDbLine
 10
185.0
 20
177.2
 30
0.0
 11
185.0
 21
178.5
 31
0.0
  0
LINE
  5
157
330
2
100
AcDbEntity
  8
画層1
 62
     0
100
AcDbLine
 10
192.5
 20
173.6999999999999
 30
0.0
 11
192.5
 21
177.2
 31
0.0
  0
LINE
  5
158
330
2
100
AcDbEntity
  8
画層1
 62
     0
100
AcDbLine
 10
192.5
 20
177.2
 30
0.0
 11
190.0
 21
173.6999999999999
 31
0.0
  0
LINE
  5
159
330
2
100
AcDbEntity
  8
画層1
 62
     0
100
AcDbLine
 10
180.4999999999999
 20
193.5
 30
0.0
 11
178.0
 21
193.5
 31
0.0
  0
LINE
  5
15A
330
2
100
AcDbEntity
  8
画層1
 62
     0
100
AcDbLine
 10
203.5
 20
193.5
 30
0.0
 11
201.0
 21
193.5
 31
0.0
  0
LINE
  5
15B
330
2
100
AcDbEntity
  8
画層1
 62
     0
100
AcDbLine
 10
199.0
 20
193.5
 30
0.0
 11
196.5
 21
193.5
 31
0.0
  0
LWPOLYLINE
  5
15C
330
2
100
AcDbEntity
  8
画層1
 62
     0
100
AcDbPolyline
 90
        4
 70
     1
 43
0.0
 10
174.0
 20
207.6
 10
193.0
 20
207.6
 10
193.0
 20
209.6
 10
174.0
 20
209.6
  0
LINE
  5
15D
330
2
100
AcDbEntity
  8
画層1
 62
     0
100
AcDbLine
 10
185.0
 20
215.0999999999999
 30
0.0
 11
162.0999999999999
 21
215.0999999999999
 31
0.0
  0
LINE
  5
15E
330
2
100
AcDbEntity
  8
画層1
 62
     0
100
AcDbLine
 10
162.5999999999999
 20
215.3
 30
0.0
 11
185.0
 21
215.3
 31
0.0
  0
LINE
  5
15F
330
2
100
AcDbEntity
  8
画層1
 62
     0
100
AcDbLine
 10
185.0
 20
214.0
 30
0.0
 11
171.0
 21
214.0
 31
0.0
  0
LINE
  5
160
330
2
100
AcDbEntity
  8
画層1
 62
     0
100
AcDbLine
 10
185.0
 20
214.8
 30
0.0
 11
171.0
 21
214.8
 31
0.0
  0
LWPOLYLINE
  5
161
330
2
100
AcDbEntity
  8
画層1
 62
     0
100
AcDbPolyline
 90
        4
 70
     1
 43
0.0
 10
174.0
 20
200.4
 10
193.0
 20
200.4
 10
193.0
 20
202.4
 10
174.0
 20
202.4
  0
LWPOLYLINE
  5
162
330
2
100
AcDbEntity
  8
画層1
 62
     0
100
AcDbPolyline
 90
        4
 70
     1
 43
0.0
 10
174.0
 20
204.0
 10
193.0
 20
204.0
 10
193.0
 20
206.0
 10
174.0
 20
206.0
  0
LINE
  5
163
330
2
100
AcDbEntity
  8
画層1
 62
     0
100
AcDbLine
 10
154.0
 20
217.0999999999999
 30
0.0
 11
154.0
 21
219.9
 31
0.0
  0
LINE
  5
164
330
2
100
AcDbEntity
  8
画層1
 62
     0
100
AcDbLine
 10
167.1999999999998
 20
218.3
 30
0.0
 11
167.1999999999998
 21
215.3
 31
0.0
  0
LINE
  5
165
330
2
100
AcDbEntity
  8
画層1
 62
     0
100
AcDbLine
 10
167.5
 20
218.3
 30
0.0
 11
167.5
 21
215.3
 31
0.0
  0
LINE
  5
166
330
2
100
AcDbEntity
  8
画層1
 62
     0
100
AcDbLine
 10
162.5999999999999
 20
218.3
 30
0.0
 11
162.5999999999999
 21
215.3
 31
0.0
  0
LINE
  5
167
330
2
100
AcDbEntity
  8
画層1
 62
     0
100
AcDbLine
 10
163.1999999999998
 20
218.3
 30
0.0
 11
163.1999999999998
 21
215.3
 31
0.0
  0
LINE
  5
168
330
2
100
AcDbEntity
  8
画層1
 62
     0
100
AcDbLine
 10
163.8
 20
218.3
 30
0.0
 11
163.8
 21
215.3
 31
0.0
  0
LINE
  5
169
330
2
100
AcDbEntity
  8
画層1
 62
     0
100
AcDbLine
 10
164.4
 20
218.3
 30
0.0
 11
164.4
 21
215.3
 31
0.0
  0
LINE
  5
16A
330
2
100
AcDbEntity
  8
画層1
 62
     0
100
AcDbLine
 10
165.0
 20
218.3
 30
0.0
 11
165.0
 21
215.3
 31
0.0
  0
LINE
  5
16B
330
2
100
AcDbEntity
  8
画層1
 62
     0
100
AcDbLine
 10
165.8
 20
218.3
 30
0.0
 11
165.8
 21
215.3
 31
0.0
  0
LINE
  5
16C
330
2
100
AcDbEntity
  8
画層1
 62
     0
100
AcDbLine
 10
166.4
 20
218.3
 30
0.0
 11
166.4
 21
215.3
 31
0.0
  0
LINE
  5
16D
330
2
100
AcDbEntity
  8
画層1
 62
     0
100
AcDbLine
 10
154.0
 20
220.0
 30
0.0
 11
154.0
 21
217.0
 31
0.0
  0
LINE
  5
16E
330
2
100
AcDbEntity
  8
画層1
 62
     0
100
AcDbLine
 10
153.0
 20
204.8999999999999
 30
0.0
 11
153.0
 21
207.5
 31
0.0
  0
LINE
  5
16F
330
2
100
AcDbEntity
  8
画層1
 62
     0
100
AcDbLine
 10
153.0
 20
215.0
 30
0.0
 11
153.0
 21
205.0
 31
0.0
  0
LINE
  5
170
330
2
100
AcDbEntity
  8
画層1
 62
     0
100
AcDbLine
 10
154.0
 20
202.8999999999999
 30
0.0
 11
153.0
 21
204.8999999999999
 31
0.0
  0
LINE
  5
171
330
2
100
AcDbEntity
  8
画層1
 62
     0
100
AcDbLine
 10
153.0
 20
205.0
 30
0.0
 11
154.0
 21
203.0
 31
0.0
  0
LINE
  5
172
330
2
100
AcDbEntity
  8
画層1
 62
     0
100
AcDbLine
 10
155.0999999999999
 20
212.5
 30
0.0
 11
155.0999999999999
 21
207.5
 31
0.0
  0
LINE
  5
173
330
2
100
AcDbEntity
  8
画層1
 62
     0
100
AcDbLine
 10
156.1999999999999
 20
207.5
 30
0.0
 11
156.1999999999999
 21
212.5
 31
0.0
  0
LINE
  5
174
330
2
100
AcDbEntity
  8
画層1
 62
     0
100
AcDbLine
 10
154.6
 20
212.5
 30
0.0
 11
154.6
 21
207.5
 31
0.0
  0
LINE
  5
175
330
2
100
AcDbEntity
  8
画層1
 62
     0
100
AcDbLine
 10
152.5999999999999
 20
207.5
 30
0.0
 11
152.5999999999999
 21
212.5
 31
0.0
  0
LINE
  5
176
330
2
100
AcDbEntity
  8
画層1
 62
     0
100
AcDbLine
 10
156.1999999999999
 20
213.0
 30
0.0
 11
156.1999999999999
 21
207.0
 31
0.0
  0
LINE
  5
177
330
2
100
AcDbEntity
  8
画層1
 62
     0
100
AcDbLine
 10
154.4999999999999
 20
207.0
 30
0.0
 11
154.4999999999999
 21
213.0
 31
0.0
  0
LINE
  5
178
330
2
100
AcDbEntity
  8
画層1
 62
     0
100
AcDbLine
 10
154.6
 20
207.5
 30
0.0
 11
156.1999999999999
 21
207.5
 31
0.0
  0
LINE
  5
179
330
2
100
AcDbEntity
  8
画層1
 62
     0
100
AcDbLine
 10
153.0
 20
207.5
 30
0.0
 11
152.5999999999999
 21
207.5
 31
0.0
  0
LINE
  5
17A
330
2
100
AcDbEntity
  8
画層1
 62
     0
100
AcDbLine
 10
156.1999999999999
 20
207.0
 30
0.0
 11
154.4999999999999
 21
207.0
 31
0.0
  0
LINE
  5
17B
330
2
100
AcDbEntity
  8
画層1
 62
     0
100
AcDbLine
 10
156.1999999999999
 20
212.5
 30
0.0
 11
154.6
 21
212.5
 31
0.0
  0
LINE
  5
17C
330
2
100
AcDbEntity
  8
画層1
 62
     0
100
AcDbLine
 10
153.0
 20
215.0999999999999
 30
0.0
 11
154.0
 21
217.0999999999999
 31
0.0
  0
LINE
  5
17D
330
2
100
AcDbEntity
  8
画層1
 62
     0
100
AcDbLine
 10
153.0
 20
212.5
 30
0.0
 11
153.0
 21
215.0999999999999
 31
0.0
  0
LINE
  5
17E
330
2
100
AcDbEntity
  8
画層1
 62
     0
100
AcDbLine
 10
152.5999999999999
 20
212.5
 30
0.0
 11
153.0
 21
212.5
 31
0.0
  0
LINE
  5
17F
330
2
100
AcDbEntity
  8
画層1
 62
     0
100
AcDbLine
 10
154.0
 20
217.0
 30
0.0
 11
153.0
 21
215.0
 31
0.0
  0
LINE
  5
180
330
2
100
AcDbEntity
  8
画層1
 62
     0
100
AcDbLine
 10
154.4999999999999
 20
213.0
 30
0.0
 11
156.1999999999999
 21
213.0
 31
0.0
  0
LINE
  5
181
330
2
100
AcDbEntity
  8
画層1
 62
     0
100
AcDbLine
 10
173.5
 20
198.5
 30
0.0
 11
176.0
 21
198.5
 31
0.0
  0
LINE
  5
182
330
2
100
AcDbEntity
  8
画層1
 62
     0
100
AcDbLine
 10
162.0
 20
218.1
 30
0.0
 11
162.0999999999999
 21
218.1
 31
0.0
  0
ARC
  5
183
330
2
100
AcDbEntity
  8
画層1
 62
     0
100
AcDbCircle
 10
172.0
 20
211.0
 30
0.0
 40
1.0
100
AcDbArc
 50
90.0
 51
180.0
  0
LINE
  5
184
330
2
100
AcDbEntity
  8
画層1
 62
     0
100
AcDbLine
 10
171.0
 20
214.0
 30
0.0
 11
171.0
 21
215.0999999999999
 31
0.0
  0
LINE
  5
185
330
2
100
AcDbEntity
  8
画層1
 62
     0
100
AcDbLine
 10
162.0
 20
220.0
 30
0.0
 11
154.0
 21
220.0
 31
0.0
  0
DIMENSION
  5
186
330
2
100
AcDbEntity
  8
画層1
 62
     0
100
AcDbDimension
  2
*D15
 10
162.0
 20
227.0
 30
0.0
 11
156.4999999999999
 21
228.88
 31
0.0
 70
    32
 71
     5
 42
11.0
  3
STANDARD_WS
100
AcDbAlignedDimension
 13
151.0
 23
219.3
 33
0.0
 14
162.0
 24
220.0
 34
0.0
100
AcDbRotatedDimension
1001
ACAD
1000
DSTYLE
1002
{
1070
     7
1000
OPEN30
1070
     6
1000
OPEN30
1070
   340
1005
25
1002
}
  0
LINE
  5
193
330
2
100
AcDbEntity
  8
画層1
 62
     0
100
AcDbLine
 10
154.0
 20
219.9
 30
0.0
 11
152.2
 21
219.9
 31
0.0
  0
ARC
  5
194
330
2
100
AcDbEntity
  8
画層1
 62
     0
100
AcDbCircle
 10
152.2
 20
218.6999999999999
 30
0.0
 40
1.199999999999999
100
AcDbArc
 50
90.0
 51
180.0
  0
LINE
  5
195
330
2
100
AcDbEntity
  8
画層1
 62
     0
100
AcDbLine
 10
192.5
 20
218.3
 30
0.0
 11
192.5
 21
214.8
 31
0.0
  0
LINE
  5
196
330
2
100
AcDbEntity
  8
画層1
 62
     0
100
AcDbLine
 10
192.5
 20
214.8
 30
0.0
 11
190.0
 21
218.3
 31
0.0
  0
LINE
  5
197
330
2
100
AcDbEntity
  8
画層1
 62
     0
100
AcDbLine
 10
178.0
 20
198.5
 30
0.0
 11
180.4999999999999
 21
198.5
 31
0.0
  0
LINE
  5
198
330
2
100
AcDbEntity
  8
画層1
 62
     0
100
AcDbLine
 10
185.0
 20
215.3
 30
0.0
 11
185.0
 21
214.0
 31
0.0
  0
LINE
  5
199
330
2
100
AcDbEntity
  8
画層1
 62
     0
100
AcDbLine
 10
201.0
 20
198.5
 30
0.0
 11
203.5
 21
198.5
 31
0.0
  0
LINE
  5
19A
330
2
100
AcDbEntity
  8
画層1
 62
     0
100
AcDbLine
 10
196.5
 20
198.5
 30
0.0
 11
199.0
 21
198.5
 31
0.0
  0
LWPOLYLINE
  5
19B
330
2
100
AcDbEntity
  8
画層1
 62
     0
100
AcDbPolyline
 90
        4
 70
     1
 43
0.0
 10
220.0
 20
193.2
 10
239.0
 20
193.2
 10
239.0
 20
195.1999999999999
 10
220.0
 20
195.1999999999999
  0
LINE
  5
19C
330
2
100
AcDbEntity
  8
画層1
 62
     0
100
AcDbLine
 10
262.0
 20
217.6
 30
0.0
 11
262.0
 21
174.3999999999999
 31
0.0
  0
LINE
  5
19D
330
2
100
AcDbEntity
  8
画層1
 62
     0
100
AcDbLine
 10
253.5
 20
218.3
 30
0.0
 11
253.5
 21
173.6999999999999
 31
0.0
  0
LINE
  5
19E
330
2
100
AcDbEntity
  8
画層1
 62
     0
100
AcDbLine
 10
242.0
 20
211.0
 30
0.0
 11
242.0
 21
181.0
 31
0.0
  0
LWPOLYLINE
  5
19F
330
2
100
AcDbEntity
  8
画層1
 62
     0
100
AcDbPolyline
 90
        4
 70
     1
 43
0.0
 10
220.0
 20
189.5999999999999
 10
239.0
 20
189.5999999999999
 10
239.0
 20
191.6
 10
220.0
 20
191.6
  0
LWPOLYLINE
  5
1A0
330
2
100
AcDbEntity
  8
画層1
 62
     0
100
AcDbPolyline
 90
        4
 70
     1
 43
0.0
 10
220.0
 20
186.0
 10
239.0
 20
186.0
 10
239.0
 20
188.0
 10
220.0
 20
188.0
  0
ARC
  5
1A1
330
2
100
AcDbEntity
  8
画層1
 62
     0
100
AcDbCircle
 10
241.0
 20
181.0
 30
0.0
 40
1.0
100
AcDbArc
 50
270.0
 51
0.0
  0
LINE
  5
1A2
330
2
100
AcDbEntity
  8
画層1
 62
     0
100
AcDbLine
 10
253.5
 20
183.0
 30
0.0
 11
262.0
 21
183.0
 31
0.0
  0
LINE
  5
1A3
330
2
100
AcDbEntity
  8
画層1
 62
     0
100
AcDbLine
 10
253.5
 20
179.0
 30
0.0
 11
262.0
 21
179.0
 31
0.0
  0
ARC
  5
1A4
330
2
100
AcDbEntity
  8
画層1
 62
     0
100
AcDbCircle
 10
261.2999999999999
 20
174.3999999999999
 30
0.0
 40
0.7
100
AcDbArc
 50
270.0
 51
0.0
  0
LWPOLYLINE
  5
1A5
330
2
100
AcDbEntity
  8
画層1
 62
     0
100
AcDbPolyline
 90
        4
 70
     1
 43
0.0
 10
220.0
 20
200.4
 10
239.0
 20
200.4
 10
239.0
 20
202.4
 10
220.0
 20
202.4
  0
LWPOLYLINE
  5
1A6
330
2
100
AcDbEntity
  8
画層1
 62
     0
100
AcDbPolyline
 90
        4
 70
     1
 43
0.0
 10
220.0
 20
196.8
 10
239.0
 20
196.8
 10
239.0
 20
198.8
 10
220.0
 20
198.8
  0
LWPOLYLINE
  5
1A7
330
2
100
AcDbEntity
  8
画層1
 62
     0
100
AcDbPolyline
 90
        4
 70
     1
 43
0.0
 10
220.0
 20
204.0
 10
239.0
 20
204.0
 10
239.0
 20
206.0
 10
220.0
 20
206.0
  0
ARC
  5
1A8
330
2
100
AcDbEntity
  8
画層1
 62
     0
100
AcDbCircle
 10
241.0
 20
211.0
 30
0.0
 40
1.0
100
AcDbArc
 50
0.0
 51
90.0
  0
ARC
  5
1A9
330
2
100
AcDbEntity
  8
画層1
 62
     0
100
AcDbCircle
 10
261.2999999999999
 20
217.6
 30
0.0
 40
0.7
100
AcDbArc
 50
0.0
 51
90.0
  0
LINE
  5
1AA
330
2
100
AcDbEntity
  8
画層1
 62
     0
100
AcDbLine
 10
253.5
 20
213.0
 30
0.0
 11
262.0
 21
213.0
 31
0.0
  0
LINE
  5
1AB
330
2
100
AcDbEntity
  8
画層1
 62
     0
100
AcDbLine
 10
253.5
 20
209.0
 30
0.0
 11
262.0
 21
209.0
 31
0.0
  0
ENDSEC
  0
SECTION
  2
OBJECTS
  0
DICTIONARY
  5
8
330
0
100
AcDbDictionary
281
     1
  3
ACAD_GROUP
350
21
  3
ACAD_LAYOUT
350
C
  3
ACAD_MLINESTYLE
350
22
  3
ACAD_PLOTSETTINGS
350
23
  3
ACAD_PLOTSTYLENAME
350
7
  3
DWGPROPS
350
233
  0
DICTIONARY
  5
3
330
2
100
AcDbDictionary
280
     1
281
     1
  3
ACAD_LAYOUTSELFREF
360
1CD
  0
DICTIONARY
  5
E
330
D
100
AcDbDictionary
280
     1
281
     1
  3
ACAD_LAYOUTSELFREF
360
1CE
  0
DICTIONARY
  5
21
102
{ACAD_REACTORS
330
8
102
}
330
8
100
AcDbDictionary
281
     1
  0
DICTIONARY
  5
C
102
{ACAD_REACTORS
330
8
102
}
330
8
100
AcDbDictionary
281
     1
  3
Model
350
1DD
  3
ﾚｲｱｳﾄ1
350
1DE
  0
DICTIONARY
  5
22
102
{ACAD_REACTORS
330
8
102
}
330
8
100
AcDbDictionary
281
     1
  3
STANDARD
350
2C
  0
DICTIONARY
  5
23
102
{ACAD_REACTORS
330
8
102
}
330
8
100
AcDbDictionary
281
     1
  0
ACDBDICTIONARYWDFLT
  5
7
102
{ACAD_REACTORS
330
8
102
}
330
8
100
AcDbDictionary
281
     1
  3
Normal
350
6
100
AcDbDictionaryWithDefault
340
6
  0
XRECORD
  5
233
102
{ACAD_REACTORS
330
8
102
}
330
8
100
AcDbXrecord
280
     1
  1
DWGPROPS COOKIE
  2

  3

  4

  6

  7

  8

  9

300
=
301
=
302
=
303
=
304
=
305
=
306
=
307
=
308
=
309
=
 40
3.114535648148148
 41
2450995.462150231
 42
2451964.749456365
  1

 90
        0
  0
XRECORD
  5
1CD
102
{ACAD_REACTORS
330
3
102
}
330
3
100
AcDbXrecord
280
     1
340
2
  0
XRECORD
  5
1CE
102
{ACAD_REACTORS
330
E
102
}
330
E
100
AcDbXrecord
280
     1
340
D
  0
LAYOUT
  5
1DD
102
{ACAD_REACTORS
330
C
102
}
330
C
100
AcDbPlotSettings
  1

  2
EPSON MJ-6000C
  4

  6

 40
0.0
 41
0.0
 42
0.0
 43
0.0
 44
0.0
 45
0.0
 46
0.0
 47
0.0
 48
0.0
 49
0.0
140
0.0
141
0.0
142
1.0
143
1.0
 70
  1712
 72
     0
 73
     0
 74
     0
  7

 75
     0
147
1.0
148
0.0
149
0.0
100
AcDbLayout
  1
Model
 70
     1
 71
     0
 10
0.0
 20
0.0
 11
12.0
 21
9.0
 12
0.0
 22
0.0
 32
0.0
 14
0.0
 24
0.0
 34
0.0
 15
0.0
 25
0.0
 35
0.0
146
0.0
 13
0.0
 23
0.0
 33
0.0
 16
1.0
 26
0.0
 36
0.0
 17
0.0
 27
1.0
 37
0.0
 76
     0
330
2
  0
LAYOUT
  5
1DE
102
{ACAD_REACTORS
330
C
102
}
330
C
100
AcDbPlotSettings
  1

  2
EPSON MJ-6000C
  4

  6

 40
0.0
 41
0.0
 42
0.0
 43
0.0
 44
0.0
 45
0.0
 46
0.0
 47
0.0
 48
0.0
 49
0.0
140
0.0
141
0.0
142
1.0
143
1.0
 70
   688
 72
     0
 73
     0
 74
     5
  7

 75
    16
147
1.0
148
0.0
149
0.0
100
AcDbLayout
  1
ﾚｲｱｳﾄ1
 70
     1
 71
     1
 10
0.0
 20
0.0
 11
420.0
 21
297.0
 12
0.0
 22
0.0
 32
0.0
 14
1.000000000000000E+20
 24
1.000000000000000E+20
 34
1.000000000000000E+20
 15
-1.000000000000000E+20
 25
-1.000000000000000E+20
 35
-1.000000000000000E+20
146
0.0
 13
0.0
 23
0.0
 33
0.0
 16
1.0
 26
0.0
 36
0.0
 17
0.0
 27
1.0
 37
0.0
 76
     0
330
D
  0
MLINESTYLE
  5
2C
102
{ACAD_REACTORS
330
22
102
}
330
22
100
AcDbMlineStyle
  2
STANDARD
 70
     0
  3

 62
   256
 51
90.0
 52
90.0
 71
     2
 49
0.5
 62
   256
  6
BYLAYER
 49
-0.5
 62
   256
  6
BYLAYER
  0
ACDBPLACEHOLDER
  5
6
102
{ACAD_REACTORS
330
7
102
}
330
7
  0
ENDSEC
  0
EOF
