  0
SECTION
  2
HEADER
  9
$ACADVER
  1
AC1015
  9
$ACADMAINTVER
 70
     6
  9
$DWGCODEPAGE
  3
ANSI_932
  9
$INSBASE
 10
0.0
 20
0.0
 30
0.0
  9
$EXTMIN
 10
-226.9403009156646
 20
88.79445973508209
 30
0.0
  9
$EXTMAX
 10
52.0596990843353
 20
211.1289315652209
 30
0.0
  9
$LIMMIN
 10
0.0
 20
0.0
  9
$LIMMAX
 10
420.0
 20
297.0
  9
$ORTHOMODE
 70
     0
  9
$REGENMODE
 70
     1
  9
$FILLMODE
 70
     1
  9
$QTEXTMODE
 70
     0
  9
$MIRRTEXT
 70
     1
  9
$LTSCALE
 40
0.2
  9
$ATTMODE
 70
     1
  9
$TEXTSIZE
 40
2.5
  9
$TRACEWID
 40
1.0
  9
$TEXTSTYLE
  7
STYLE1
  9
$CLAYER
  8
画層1
  9
$CELTYPE
  6
BYLAYER
  9
$CECOLOR
 62
     1
  9
$CELTSCALE
 40
1.0
  9
$DISPSILH
 70
     0
  9
$DIMSCALE
 40
0.0
  9
$DIMASZ
 40
1.5
  9
$DIMEXO
 40
0.625
  9
$DIMDLI
 40
3.75
  9
$DIMRND
 40
0.0
  9
$DIMDLE
 40
0.0
  9
$DIMEXE
 40
1.25
  9
$DIMTP
 40
0.0
  9
$DIMTM
 40
0.0
  9
$DIMTXT
 40
2.5
  9
$DIMCEN
 40
2.5
  9
$DIMTSZ
 40
0.0
  9
$DIMTOL
 70
     0
  9
$DIMLIM
 70
     0
  9
$DIMTIH
 70
     0
  9
$DIMTOH
 70
     0
  9
$DIMSE1
 70
     0
  9
$DIMSE2
 70
     0
  9
$DIMTAD
 70
     1
  9
$DIMZIN
 70
     8
  9
$DIMBLK
  1

  9
$DIMASO
 70
     1
  9
$DIMSHO
 70
     1
  9
$DIMPOST
  1

  9
$DIMAPOST
  1

  9
$DIMALT
 70
     0
  9
$DIMALTD
 70
     4
  9
$DIMALTF
 40
0.0394
  9
$DIMLFAC
 40
1.0
  9
$DIMTOFL
 70
     1
  9
$DIMTVP
 40
0.0
  9
$DIMTIX
 70
     0
  9
$DIMSOXD
 70
     0
  9
$DIMSAH
 70
     1
  9
$DIMBLK1
  1
OPEN30
  9
$DIMBLK2
  1
OPEN30
  9
$DIMSTYLE
  2
STANDARD_WS
  9
$DIMCLRD
 70
     0
  9
$DIMCLRE
 70
     0
  9
$DIMCLRT
 70
     0
  9
$DIMTFAC
 40
1.0
  9
$DIMGAP
 40
0.625
  9
$DIMJUST
 70
     0
  9
$DIMSD1
 70
     0
  9
$DIMSD2
 70
     0
  9
$DIMTOLJ
 70
     1
  9
$DIMTZIN
 70
     0
  9
$DIMALTZ
 70
     0
  9
$DIMALTTZ
 70
     0
  9
$DIMUPT
 70
     0
  9
$DIMDEC
 70
     4
  9
$DIMTDEC
 70
     4
  9
$DIMALTU
 70
     8
  9
$DIMALTTD
 70
     4
  9
$DIMTXSTY
  7
STYLE1
  9
$DIMAUNIT
 70
     0
  9
$DIMADEC
 70
     0
  9
$DIMALTRND
 40
0.0
  9
$DIMAZIN
 70
     0
  9
$DIMDSEP
 70
    46
  9
$DIMATFIT
 70
     3
  9
$DIMFRAC
 70
     0
  9
$DIMLDRBLK
  1
OPEN30
  9
$DIMLUNIT
 70
     2
  9
$DIMLWD
 70
    -2
  9
$DIMLWE
 70
    -2
  9
$DIMTMOVE
 70
     0
  9
$LUNITS
 70
     2
  9
$LUPREC
 70
     4
  9
$SKETCHINC
 40
1.0
  9
$FILLETRAD
 40
0.5
  9
$AUNITS
 70
     0
  9
$AUPREC
 70
     0
  9
$MENU
  1
acad
  9
$ELEVATION
 40
0.0
  9
$PELEVATION
 40
0.0
  9
$THICKNESS
 40
0.0
  9
$LIMCHECK
 70
     0
  9
$CHAMFERA
 40
10.0
  9
$CHAMFERB
 40
10.0
  9
$CHAMFERC
 40
20.0
  9
$CHAMFERD
 40
0.0
  9
$SKPOLY
 70
     0
  9
$TDCREATE
 40
2450995.462150231
  9
$TDUCREATE
 40
2450995.087150231
  9
$TDUPDATE
 40
2456997.673530822
  9
$TDUUPDATE
 40
2456997.298530821
  9
$TDINDWG
 40
1.0687663773
  9
$TDUSRTIMER
 40
1.0687660185
  9
$USRTIMER
 70
     1
  9
$ANGBASE
 50
0.0
  9
$ANGDIR
 70
     0
  9
$PDMODE
 70
     0
  9
$PDSIZE
 40
0.0
  9
$PLINEWID
 40
0.6
  9
$SPLFRAME
 70
     0
  9
$SPLINETYPE
 70
     6
  9
$SPLINESEGS
 70
     8
  9
$HANDSEED
  5
1C74
  9
$SURFTAB1
 70
     6
  9
$SURFTAB2
 70
     6
  9
$SURFTYPE
 70
     6
  9
$SURFU
 70
     6
  9
$SURFV
 70
     6
  9
$UCSBASE
  2

  9
$UCSNAME
  2

  9
$UCSORG
 10
0.0
 20
0.0
 30
0.0
  9
$UCSXDIR
 10
1.0
 20
0.0
 30
0.0
  9
$UCSYDIR
 10
0.0
 20
1.0
 30
0.0
  9
$UCSORTHOREF
  2

  9
$UCSORTHOVIEW
 70
     0
  9
$UCSORGTOP
 10
0.0
 20
0.0
 30
0.0
  9
$UCSORGBOTTOM
 10
0.0
 20
0.0
 30
0.0
  9
$UCSORGLEFT
 10
0.0
 20
0.0
 30
0.0
  9
$UCSORGRIGHT
 10
0.0
 20
0.0
 30
0.0
  9
$UCSORGFRONT
 10
0.0
 20
0.0
 30
0.0
  9
$UCSORGBACK
 10
0.0
 20
0.0
 30
0.0
  9
$PUCSBASE
  2

  9
$PUCSNAME
  2

  9
$PUCSORG
 10
0.0
 20
0.0
 30
0.0
  9
$PUCSXDIR
 10
1.0
 20
0.0
 30
0.0
  9
$PUCSYDIR
 10
0.0
 20
1.0
 30
0.0
  9
$PUCSORTHOREF
  2

  9
$PUCSORTHOVIEW
 70
     0
  9
$PUCSORGTOP
 10
0.0
 20
0.0
 30
0.0
  9
$PUCSORGBOTTOM
 10
0.0
 20
0.0
 30
0.0
  9
$PUCSORGLEFT
 10
0.0
 20
0.0
 30
0.0
  9
$PUCSORGRIGHT
 10
0.0
 20
0.0
 30
0.0
  9
$PUCSORGFRONT
 10
0.0
 20
0.0
 30
0.0
  9
$PUCSORGBACK
 10
0.0
 20
0.0
 30
0.0
  9
$USERI1
 70
     0
  9
$USERI2
 70
     0
  9
$USERI3
 70
     0
  9
$USERI4
 70
     0
  9
$USERI5
 70
     0
  9
$USERR1
 40
0.0
  9
$USERR2
 40
0.0
  9
$USERR3
 40
0.0
  9
$USERR4
 40
0.0
  9
$USERR5
 40
0.0
  9
$WORLDVIEW
 70
     1
  9
$SHADEDGE
 70
     3
  9
$SHADEDIF
 70
    70
  9
$TILEMODE
 70
     1
  9
$MAXACTVP
 70
    48
  9
$PINSBASE
 10
0.0
 20
0.0
 30
0.0
  9
$PLIMCHECK
 70
     0
  9
$PEXTMIN
 10
1.000000000000000E+20
 20
1.000000000000000E+20
 30
1.000000000000000E+20
  9
$PEXTMAX
 10
-1.000000000000000E+20
 20
-1.000000000000000E+20
 30
-1.000000000000000E+20
  9
$PLIMMIN
 10
0.0
 20
0.0
  9
$PLIMMAX
 10
420.0
 20
297.0
  9
$UNITMODE
 70
     0
  9
$VISRETAIN
 70
     1
  9
$PLINEGEN
 70
     0
  9
$PSLTSCALE
 70
     1
  9
$TREEDEPTH
 70
  3020
  9
$CMLSTYLE
  2
STANDARD
  9
$CMLJUST
 70
     0
  9
$CMLSCALE
 40
20.0
  9
$PROXYGRAPHICS
 70
     1
  9
$MEASUREMENT
 70
     1
  9
$CELWEIGHT
370
    -1
  9
$ENDCAPS
280
     0
  9
$JOINSTYLE
280
     0
  9
$LWDISPLAY
290
     0
  9
$INSUNITS
 70
     0
  9
$HYPERLINKBASE
  1

  9
$STYLESHEET
  1
RYU.CTB
  9
$XEDIT
290
     1
  9
$CEPSNTYPE
380
     0
  9
$PSTYLEMODE
290
     1
  9
$FINGERPRINTGUID
  2
{1080B328-95B7-11D3-A790-004026173390}
  9
$VERSIONGUID
  2
{A76071FF-2412-4E53-B5A6-F4C5B046B37D}
  9
$EXTNAMES
290
     1
  9
$PSVPSCALE
 40
0.0
  9
$OLESTARTUP
290
     0
  0
ENDSEC
  0
SECTION
  2
CLASSES
  0
CLASS
  1
DICTIONARYVAR
  2
AcDbDictionaryVar
  3
AutoCAD 2000
 90
        0
280
     0
281
     0
  0
CLASS
  1
LWPOLYLINE
  2
AcDbPolyline
  3
AutoCAD 2000
 90
    32768
280
     0
281
     1
  0
CLASS
  1
OLE2FRAME
  2
AcDbOle2Frame
  3
AutoCAD 2000
 90
    32768
280
     0
281
     1
  0
CLASS
  1
HATCH
  2
AcDbHatch
  3
AutoCAD 2000
 90
    32768
280
     0
281
     1
  0
CLASS
  1
ACDBDICTIONARYWDFLT
  2
AcDbDictionaryWithDefault
  3
AutoCAD 2000
 90
        0
280
     0
281
     0
  0
CLASS
  1
ACDBPLACEHOLDER
  2
AcDbPlaceHolder
  3
AutoCAD 2000
 90
        0
280
     0
281
     0
  0
CLASS
  1
LAYOUT
  2
AcDbLayout
  3
AutoCAD 2000
 90
        0
280
     0
281
     0
  0
ENDSEC
  0
SECTION
  2
TABLES
  0
TABLE
  2
VPORT
  5
8
330
0
100
AcDbSymbolTable
 70
     2
  0
VPORT
  5
1C73
330
8
100
AcDbSymbolTableRecord
100
AcDbViewportTableRecord
  2
*Active
 70
     0
 10
0.0
 20
0.0
 11
1.0
 21
1.0
 12
-197.2693013235342
 22
148.5093004510832
 13
0.0
 23
0.0
 14
0.5
 24
0.5
 15
0.5
 25
0.5
 16
0.0
 26
0.0
 36
1.0
 17
0.0
 27
0.0
 37
0.0
 40
79.4006007906664
 41
1.791666666666666
 42
50.0
 43
0.0
 44
0.0
 50
0.0
 51
0.0
 71
     0
 72
   100
 73
     1
 74
     1
 75
     0
 76
     0
 77
     0
 78
     0
281
     0
 65
     1
110
0.0
120
0.0
130
0.0
111
1.0
121
0.0
131
0.0
112
0.0
122
1.0
132
0.0
 79
     0
146
0.0
  0
ENDTAB
  0
TABLE
  2
LTYPE
  5
5
330
0
100
AcDbSymbolTable
 70
     4
  0
LTYPE
  5
12
330
5
100
AcDbSymbolTableRecord
100
AcDbLinetypeTableRecord
  2
BYBLOCK
 70
     0
  3

 72
    65
 73
     0
 40
0.0
  0
LTYPE
  5
13
330
5
100
AcDbSymbolTableRecord
100
AcDbLinetypeTableRecord
  2
BYLAYER
 70
     0
  3

 72
    65
 73
     0
 40
0.0
  0
LTYPE
  5
14
330
5
100
AcDbSymbolTableRecord
100
AcDbLinetypeTableRecord
  2
CONTINUOUS
 70
     0
  3
Solid line
 72
    65
 73
     0
 40
0.0
  0
LTYPE
  5
1DA
330
5
100
AcDbSymbolTableRecord
100
AcDbLinetypeTableRecord
  2
DASHED2
 70
     0
  3
Dashed (.5x) _ _ _ _ _ _ _ _ _ _ _ _ _ _ _ _ _
 72
    65
 73
     2
 40
9.524999999999996
 49
6.349999999999998
 74
     0
 49
-3.174999999999998
 74
     0
  0
LTYPE
  5
1E1
330
5
100
AcDbSymbolTableRecord
100
AcDbLinetypeTableRecord
  2
CENTER
 70
     0
  3
Center ____ _ ____ _ ____ _ ____ _ ____ _ ____
 72
    65
 73
     4
 40
50.8
 49
31.75
 74
     0
 49
-6.349999999999998
 74
     0
 49
6.349999999999998
 74
     0
 49
-6.349999999999998
 74
     0
  0
LTYPE
  5
116F
330
5
100
AcDbSymbolTableRecord
100
AcDbLinetypeTableRecord
  2
C6CONTINUOUS
 70
     0
  3
----------------
 72
    65
 73
     0
 40
0.0
  0
ENDTAB
  0
TABLE
  2
LAYER
  5
2
330
0
100
AcDbSymbolTable
 70
     5
  0
LAYER
  5
E
330
2
100
AcDbSymbolTableRecord
100
AcDbLayerTableRecord
  2
0
 70
     0
 62
     7
  6
CONTINUOUS
370
    -3
390
482
  0
LAYER
  5
DC
330
2
100
AcDbSymbolTableRecord
100
AcDbLayerTableRecord
  2
DEFPOINTS
 70
     0
 62
     7
  6
CONTINUOUS
290
     0
370
    -3
390
482
  0
LAYER
  5
168
330
2
100
AcDbSymbolTableRecord
100
AcDbLayerTableRecord
  2
画層1
 70
     0
 62
     7
  6
CONTINUOUS
370
    -3
390
482
  0
LAYER
  5
645
330
2
100
AcDbSymbolTableRecord
100
AcDbLayerTableRecord
  2
画層2
 70
     0
 62
     7
  6
CONTINUOUS
290
     0
370
    -3
390
482
  0
LAYER
  5
1170
330
2
100
AcDbSymbolTableRecord
100
AcDbLayerTableRecord
  2
1
 70
     0
 62
     7
  6
C6CONTINUOUS
370
    -3
390
482
  0
ENDTAB
  0
TABLE
  2
STYLE
  5
3
330
0
100
AcDbSymbolTable
 70
     3
  0
STYLE
  5
F
330
3
100
AcDbSymbolTableRecord
100
AcDbTextStyleTableRecord
  2
STANDARD
 70
     0
 40
1.5
 41
1.0
 50
0.0
 71
     0
 42
1.5
  3
MS PMincho.ttf
  4

1001
ACAD
1000
MS PMincho
1071
    32786
  0
STYLE
  5
169
330
3
100
AcDbSymbolTableRecord
100
AcDbTextStyleTableRecord
  2
STYLE1
 70
     0
 40
2.5
 41
1.0
 50
0.0
 71
     0
 42
2.5
  3
MS Gothic.ttf
  4

1001
ACAD
1000
MS Gothic
1071
    32817
  0
STYLE
  5
1D8
330
3
100
AcDbSymbolTableRecord
100
AcDbTextStyleTableRecord
  2

 70
     1
 40
0.0
 41
1.0
 50
0.0
 71
     0
 42
1.5
  3
ltypeshp.shx
  4

  0
ENDTAB
  0
TABLE
  2
VIEW
  5
6
330
0
100
AcDbSymbolTable
 70
     0
  0
ENDTAB
  0
TABLE
  2
UCS
  5
7
330
0
100
AcDbSymbolTable
 70
     0
  0
ENDTAB
  0
TABLE
  2
APPID
  5
9
330
0
100
AcDbSymbolTable
 70
     4
  0
APPID
  5
10
330
9
100
AcDbSymbolTableRecord
100
AcDbRegAppTableRecord
  2
ACAD
 70
     0
  0
APPID
  5
24
330
9
100
AcDbSymbolTableRecord
100
AcDbRegAppTableRecord
  2
CONTENTTABDATA
 70
     0
  0
APPID
  5
25
330
9
100
AcDbSymbolTableRecord
100
AcDbRegAppTableRecord
  2
CONTENTCURRENTTAB
 70
     0
  0
APPID
  5
421
330
9
100
AcDbSymbolTableRecord
100
AcDbRegAppTableRecord
  2
CONTENTBLOCKICON
 70
     0
  0
ENDTAB
  0
TABLE
  2
DIMSTYLE
  5
A
330
0
100
AcDbSymbolTable
 70
     4
100
AcDbDimStyleTable
 71
     1
340
35
  0
DIMSTYLE
105
1D
330
A
100
AcDbSymbolTableRecord
100
AcDbDimStyleTableRecord
  2
STANDARD
 70
     0
340
F
  0
DIMSTYLE
105
35
102
{ACAD_REACTORS
330
251
330
27A
330
198E
330
19A4
330
19BA
330
19C7
330
19D4
330
19E3
330
19F0
330
1A7C
330
1A89
330
1A96
330
1AAB
102
}
330
A
100
AcDbSymbolTableRecord
100
AcDbDimStyleTableRecord
  2
STANDARD_WS
 70
     0
 41
2.5
 42
0.625
 43
3.75
 44
1.25
 73
     0
 74
     0
 77
     1
 78
     8
140
2.5
141
2.5
143
0.0394
147
0.625
171
     4
172
     1
273
     8
274
     4
340
F
  0
DIMSTYLE
105
48D
330
A
100
AcDbSymbolTableRecord
100
AcDbDimStyleTableRecord
  2
ｺﾋﾟｰ - STANDARD_WS
 70
     0
 40
0.0
 41
1.5
 42
0.625
 43
3.75
 44
1.25
 73
     0
 74
     0
 77
     1
 78
     8
140
2.5
141
2.5
143
0.0394
146
0.5
147
0.625
171
     4
172
     1
173
     1
273
     8
274
     4
340
169
341
217
343
217
344
217
  0
DIMSTYLE
105
1171
330
A
100
AcDbSymbolTableRecord
100
AcDbDimStyleTableRecord
  2
ISO-25
 70
     0
 41
2.5
 42
0.625
 43
3.75
 44
1.25
 73
     0
 74
     0
 77
     1
 78
     8
140
2.5
141
2.5
143
0.03937007874016
147
0.625
171
     3
172
     1
271
     2
272
     2
274
     3
283
     0
284
     8
340
F
  0
ENDTAB
  0
TABLE
  2
BLOCK_RECORD
  5
1
330
0
100
AcDbSymbolTable
 70
    21
  0
BLOCK_RECORD
  5
18
330
1
100
AcDbSymbolTableRecord
100
AcDbBlockTableRecord
  2
*MODEL_SPACE
340
485
  0
BLOCK_RECORD
  5
15
330
1
100
AcDbSymbolTableRecord
100
AcDbBlockTableRecord
  2
*PAPER_SPACE
340
486
  0
BLOCK_RECORD
  5
14A
330
1
100
AcDbSymbolTableRecord
100
AcDbBlockTableRecord
  2
_OPEN
340
0
102
{BLKREFS
331
239
331
23A
331
245
331
246
102
}
  0
BLOCK_RECORD
  5
171
330
1
100
AcDbSymbolTableRecord
100
AcDbBlockTableRecord
  2
A$C7298027A
340
0
  0
BLOCK_RECORD
  5
1F4
330
1
100
AcDbSymbolTableRecord
100
AcDbBlockTableRecord
  2
A$C4E83561F
340
0
  0
BLOCK_RECORD
  5
217
330
1
100
AcDbSymbolTableRecord
100
AcDbBlockTableRecord
  2
_OPEN30
340
0
102
{BLKREFS
331
199E
331
199F
331
1AB0
331
1AB1
331
1B62
331
1B63
331
1B6B
331
1B6C
331
1B74
331
1B75
331
1B7D
331
1B7E
331
1BD3
331
1BD4
331
1BDC
331
1BDD
331
1BE5
331
1BE6
331
1BF0
331
1BF1
331
1BFA
331
1BFB
102
}
  0
BLOCK_RECORD
  5
21D
330
1
100
AcDbSymbolTableRecord
100
AcDbBlockTableRecord
  2
A$C0B5F4613
340
0
  0
BLOCK_RECORD
  5
235
330
1
100
AcDbSymbolTableRecord
100
AcDbBlockTableRecord
  2
*D5
340
0
  0
BLOCK_RECORD
  5
241
330
1
100
AcDbSymbolTableRecord
100
AcDbBlockTableRecord
  2
*D6
340
0
  0
BLOCK_RECORD
  5
24D
330
1
100
AcDbSymbolTableRecord
100
AcDbBlockTableRecord
  2
A$C349638BA
340
0
  0
BLOCK_RECORD
  5
422
330
1
100
AcDbSymbolTableRecord
100
AcDbBlockTableRecord
  2
A$C578C2886
340
0
  0
BLOCK_RECORD
  5
198F
330
1
100
AcDbSymbolTableRecord
100
AcDbBlockTableRecord
  2
*D9
340
0
  0
BLOCK_RECORD
  5
19A5
330
1
100
AcDbSymbolTableRecord
100
AcDbBlockTableRecord
  2
*D10
340
0
  0
BLOCK_RECORD
  5
19BB
330
1
100
AcDbSymbolTableRecord
100
AcDbBlockTableRecord
  2
*D11
340
0
  0
BLOCK_RECORD
  5
19C8
330
1
100
AcDbSymbolTableRecord
100
AcDbBlockTableRecord
  2
*D12
340
0
  0
BLOCK_RECORD
  5
19D5
330
1
100
AcDbSymbolTableRecord
100
AcDbBlockTableRecord
  2
*D13
340
0
  0
BLOCK_RECORD
  5
19E4
330
1
100
AcDbSymbolTableRecord
100
AcDbBlockTableRecord
  2
*D14
340
0
  0
BLOCK_RECORD
  5
19F1
330
1
100
AcDbSymbolTableRecord
100
AcDbBlockTableRecord
  2
*D15
340
0
  0
BLOCK_RECORD
  5
1A7D
330
1
100
AcDbSymbolTableRecord
100
AcDbBlockTableRecord
  2
*D16
340
0
  0
BLOCK_RECORD
  5
1A8A
330
1
100
AcDbSymbolTableRecord
100
AcDbBlockTableRecord
  2
*D17
340
0
  0
BLOCK_RECORD
  5
1A97
330
1
100
AcDbSymbolTableRecord
100
AcDbBlockTableRecord
  2
*D18
340
0
  0
BLOCK_RECORD
  5
1AAC
330
1
100
AcDbSymbolTableRecord
100
AcDbBlockTableRecord
  2
*D19
340
0
  0
BLOCK_RECORD
  5
1AB8
330
1
100
AcDbSymbolTableRecord
100
AcDbBlockTableRecord
  2
_DotSmall
340
0
  0
ENDTAB
  0
ENDSEC
  0
SECTION
  2
BLOCKS
  0
BLOCK
  5
19
330
18
100
AcDbEntity
  8
0
100
AcDbBlockBegin
  2
*MODEL_SPACE
 70
     0
 10
0.0
 20
0.0
 30
0.0
  3
*MODEL_SPACE
  1

  0
ENDBLK
  5
1A
330
18
100
AcDbEntity
  8
0
100
AcDbBlockEnd
  0
BLOCK
  5
16
330
15
100
AcDbEntity
 67
     1
  8
0
100
AcDbBlockBegin
  2
*PAPER_SPACE
 70
     0
 10
0.0
 20
0.0
 30
0.0
  3
*PAPER_SPACE
  1

  0
ENDBLK
  5
17
330
15
100
AcDbEntity
 67
     1
  8
0
100
AcDbBlockEnd
  0
BLOCK
  5
14B
330
14A
100
AcDbEntity
  8
0
100
AcDbBlockBegin
  2
_OPEN
 70
     0
 10
0.0
 20
0.0
 30
0.0
  3
_OPEN
  1

  0
LINE
  5
14C
330
14A
100
AcDbEntity
  8
0
  6
ByBlock
 62
     0
100
AcDbLine
 10
-1.0
 20
0.1666666666666666
 30
0.0
 11
0.0
 21
0.0
 31
0.0
  0
LINE
  5
14D
330
14A
100
AcDbEntity
  8
0
  6
ByBlock
 62
     0
100
AcDbLine
 10
0.0
 20
0.0
 30
0.0
 11
-1.0
 21
-0.1666666666666666
 31
0.0
  0
LINE
  5
14E
330
14A
100
AcDbEntity
  8
0
  6
ByBlock
 62
     0
100
AcDbLine
 10
0.0
 20
0.0
 30
0.0
 11
-1.0
 21
0.0
 31
0.0
  0
ENDBLK
  5
14F
330
14A
100
AcDbEntity
  8
0
100
AcDbBlockEnd
  0
BLOCK
  5
19F
330
171
100
AcDbEntity
  8
0
 62
     0
100
AcDbBlockBegin
  2
A$C7298027A
 70
     0
 10
0.0
 20
0.0
 30
0.0
  3
A$C7298027A
  1

  0
MTEXT
  5
172
330
171
100
AcDbEntity
  8
0
100
AcDbMText
 10
110.2999997960161
 20
36.0000001124572
 30
0.0
 40
1.5
 41
7.0
 71
     1
 72
     5
  1
SCALE
 73
     1
 44
1.0
  0
MTEXT
  5
173
330
171
100
AcDbEntity
  8
0
100
AcDbMText
 10
108.7999997960162
 20
40.00000011245719
 30
0.0
 40
2.5
 41
10.5
 71
     1
 72
     5
  1
尺　度
 73
     1
 44
1.0
  0
LWPOLYLINE
  5
174
330
171
100
AcDbEntity
  8
0
100
AcDbPolyline
 90
        2
 70
     0
 43
0.6
 10
65.29999979601621
 20
33.5000001124572
 10
175.2999997960162
 20
33.5000001124572
  0
LWPOLYLINE
  5
175
330
171
100
AcDbEntity
  8
0
100
AcDbPolyline
 90
        2
 70
     0
 43
0.6
 10
0.2999997960162091
 20
13.50000011245719
 10
175.2999997960162
 20
13.50000011245719
  0
LWPOLYLINE
  5
176
330
171
100
AcDbEntity
  8
0
100
AcDbPolyline
 90
        2
 70
     0
 43
0.6
 10
0.2999997960162091
 20
21.00000011245719
 10
175.2999997960162
 20
21.00000011245719
  0
LWPOLYLINE
  5
177
330
171
100
AcDbEntity
  8
0
100
AcDbPolyline
 90
        3
 70
     0
 43
0.6
 10
0.2999997960162091
 20
0.0000001124572009
 10
0.2999997960162091
 20
41.0000001124572
 10
175.2999997960162
 20
41.0000001124572
  0
MTEXT
  5
178
330
171
100
AcDbEntity
  8
0
100
AcDbMText
 10
31.2999997960162
 20
19.50000011245719
 30
0.0
 40
2.5
 41
17.5
 71
     1
 72
     5
  1
変 更 事 項
 73
     1
 44
1.0
  0
LWPOLYLINE
  5
179
330
171
100
AcDbEntity
  8
0
100
AcDbPolyline
 90
        2
 70
     0
 43
0.18
 10
0.2999997960162091
 20
26.00000011245719
 10
65.29999979601621
 20
26.00000011245719
  0
LWPOLYLINE
  5
17A
330
171
100
AcDbEntity
  8
0
100
AcDbPolyline
 90
        2
 70
     0
 43
0.18
 10
0.2999997960162091
 20
31.00000011245719
 10
65.29999979601621
 20
31.00000011245719
  0
LWPOLYLINE
  5
17B
330
171
100
AcDbEntity
  8
0
100
AcDbPolyline
 90
        2
 70
     0
 43
0.18
 10
0.2999997960162091
 20
36.0000001124572
 10
65.29999979601621
 20
36.0000001124572
  0
MTEXT
  5
17C
330
171
100
AcDbEntity
  8
0
100
AcDbMText
 10
12.79999979601621
 20
19.50000011245719
 30
0.0
 40
2.5
 41
11.0
 71
     1
 72
     5
  1
日　付
 73
     1
 44
1.0
  0
LWPOLYLINE
  5
17D
330
171
100
AcDbEntity
  8
0
100
AcDbPolyline
 90
        2
 70
     0
 43
0.18
 10
10.29999979601621
 20
13.50000011245719
 10
10.29999979601621
 20
41.0000001124572
  0
LWPOLYLINE
  5
17E
330
171
100
AcDbEntity
  8
0
100
AcDbPolyline
 90
        3
 70
     1
 43
0.18
 10
1.299999796016209
 20
26.50000011245719
 10
9.299999796016207
 20
26.50000011245719
 10
5.299999796016209
 20
30.00000011245719
  0
MTEXT
  5
17F
330
171
100
AcDbEntity
  8
0
100
AcDbMText
 10
0.7999997960162091
 20
19.50000011245719
 30
0.0
 40
2.5
 41
10.5
 71
     1
 72
     5
  1
符 号
 73
     1
 44
1.0
  0
MTEXT
  5
180
330
171
100
AcDbEntity
  8
0
100
AcDbMText
 10
2.299999796016209
 20
16.00000011245719
 30
0.0
 40
1.5
 41
6.0
 71
     1
 72
     5
  1
MARK
 73
     1
 44
1.0
  0
LWPOLYLINE
  5
181
330
171
100
AcDbEntity
  8
0
100
AcDbPolyline
 90
        3
 70
     1
 43
0.18
 10
1.299999796016209
 20
21.50000011245719
 10
9.299999796016207
 20
21.50000011245719
 10
5.299999796016209
 20
25.00000011245719
  0
LWPOLYLINE
  5
182
330
171
100
AcDbEntity
  8
0
100
AcDbPolyline
 90
        3
 70
     1
 43
0.18
 10
1.299999796016209
 20
36.5000001124572
 10
9.299999796016207
 20
36.5000001124572
 10
5.299999796016209
 20
40.00000011245719
  0
LWPOLYLINE
  5
183
330
171
100
AcDbEntity
  8
0
100
AcDbPolyline
 90
        3
 70
     1
 43
0.18
 10
1.299999796016209
 20
31.50000011245719
 10
9.299999796016207
 20
31.50000011245719
 10
5.299999796016209
 20
35.0000001124572
  0
LWPOLYLINE
  5
184
330
171
100
AcDbEntity
  8
0
100
AcDbPolyline
 90
        2
 70
     0
 43
0.18
 10
25.29999979601621
 20
13.50000011245719
 10
25.29999979601621
 20
41.0000001124572
  0
MTEXT
  5
185
330
171
100
AcDbEntity
  8
0
100
AcDbMText
 10
15.29999979601621
 20
16.00000011245719
 30
0.0
 40
1.5
 41
6.0
 71
     1
 72
     5
  1
DATE
 73
     1
 44
1.0
  0
MTEXT
  5
186
330
171
100
AcDbEntity
  8
0
100
AcDbMText
 10
34.79999979601619
 20
16.00000011245719
 30
0.0
 40
1.5
 41
10.5
 71
     1
 72
     5
  1
REVISIONS
 73
     1
 44
1.0
  0
LWPOLYLINE
  5
187
330
171
100
AcDbEntity
  8
0
100
AcDbPolyline
 90
        2
 70
     0
 43
0.18
 10
97.29999979601622
 20
0.0000001124572009
 10
97.29999979601622
 20
21.00000011245719
  0
LWPOLYLINE
  5
188
330
171
100
AcDbEntity
  8
0
100
AcDbPolyline
 90
        2
 70
     0
 43
0.18
 10
81.2999997960162
 20
0.0000001124572009
 10
81.2999997960162
 20
21.00000011245719
  0
LWPOLYLINE
  5
189
330
171
100
AcDbEntity
  8
0
100
AcDbPolyline
 90
        2
 70
     0
 43
0.6
 10
65.29999979601621
 20
0.0000001124572009
 10
65.29999979601621
 20
41.0000001124572
  0
MTEXT
  5
18A
330
171
100
AcDbEntity
  8
0
100
AcDbMText
 10
74.79999979601621
 20
24.5000001124572
 30
0.0
 40
1.5
 41
6.0
 71
     1
 72
     5
  1
TITLE
 73
     1
 44
1.0
  0
MTEXT
  5
18B
330
171
100
AcDbEntity
  8
0
100
AcDbMText
 10
70.79999979601621
 20
30.00000011245719
 30
0.0
 40
3.5
 41
15.0
 71
     1
 72
     5
  1
名　称
 73
     1
 44
1.0
  0
LWPOLYLINE
  5
18C
330
171
100
AcDbEntity
  8
0
100
AcDbPolyline
 90
        2
 70
     0
 43
0.18
 10
55.29999979601621
 20
13.50000011245719
 10
55.29999979601621
 20
41.0000001124572
  0
MTEXT
  5
18D
330
171
100
AcDbEntity
  8
0
100
AcDbMText
 10
56.79999979601621
 20
19.50000011245719
 30
0.0
 40
2.5
 41
7.0
 71
     1
 72
     5
  1
承認
 73
     1
 44
1.0
  0
MTEXT
  5
18E
330
171
100
AcDbEntity
  8
0
100
AcDbMText
 10
58.29999979601621
 20
16.00000011245719
 30
0.0
 40
1.5
 41
5.0
 71
     1
 72
     5
  1
APP.
 73
     1
 44
1.0
  0
MTEXT
  5
18F
330
171
100
AcDbEntity
  8
0
100
AcDbMText
 10
68.7999997960162
 20
19.50000011245719
 30
0.0
 40
2.5
 41
11.0
 71
     1
 72
     5
  1
承　認
 73
     1
 44
1.0
  0
MTEXT
  5
190
330
171
100
AcDbEntity
  8
0
100
AcDbMText
 10
67.79999979601621
 20
16.00000011245719
 30
0.0
 40
1.5
 41
11.0
 71
     1
 72
     5
  1
APPROVED
 73
     1
 44
1.0
  0
MTEXT
  5
191
330
171
100
AcDbEntity
  8
0
100
AcDbMText
 10
68.7999997960162
 20
40.00000011245719
 30
0.0
 40
2.5
 41
11.0
 71
     1
 72
     5
  1
日　付
 73
     1
 44
1.0
  0
MTEXT
  5
192
330
171
100
AcDbEntity
  8
0
100
AcDbMText
 10
70.79999979601621
 20
36.0000001124572
 30
0.0
 40
1.5
 41
6.0
 71
     1
 72
     5
  1
DATE
 73
     1
 44
1.0
  0
LWPOLYLINE
  5
193
330
171
100
AcDbEntity
  8
0
100
AcDbPolyline
 90
        2
 70
     0
 43
0.18
 10
89.29999979601619
 20
21.00000011245719
 10
89.29999979601619
 20
33.5000001124572
  0
LWPOLYLINE
  5
194
330
171
100
AcDbEntity
  8
0
100
AcDbPolyline
 90
        2
 70
     0
 43
0.18
 10
81.2999997960162
 20
33.5000001124572
 10
81.2999997960162
 20
41.0000001124572
  0
LWPOLYLINE
  5
195
330
171
100
AcDbEntity
  8
0
100
AcDbPolyline
 90
        2
 70
     0
 43
0.6
 10
106.2999997960161
 20
33.5000001124572
 10
106.2999997960161
 20
41.0000001124572
  0
MTEXT
  5
196
330
171
100
AcDbEntity
  8
0
100
AcDbMText
 10
116.2999997960161
 20
5.000000112457199
 30
0.0
 40
1.5
 41
15.5
 71
     1
 72
     5
  1
DRAWING No.
 73
     1
 44
1.0
  0
LWPOLYLINE
  5
197
330
171
100
AcDbEntity
  8
0
100
AcDbPolyline
 90
        2
 70
     0
 43
0.18
 10
132.2999997960162
 20
0.0000001124572009
 10
132.2999997960162
 20
13.50000011245719
  0
LWPOLYLINE
  5
198
330
171
100
AcDbEntity
  8
0
100
AcDbPolyline
 90
        2
 70
     0
 43
0.6
 10
113.2999997960161
 20
0.0000001124572009
 10
113.2999997960161
 20
21.00000011245719
  0
MTEXT
  5
199
330
171
100
AcDbEntity
  8
0
100
AcDbMText
 10
142.2999997960161
 20
36.5000001124572
 30
0.0
 40
1.5
 41
28.0
 71
     1
 72
     5
  1
THIRD ANGLE PROJECTION
 73
     1
 44
1.0
  0
MTEXT
  5
19A
330
171
100
AcDbEntity
  8
0
100
AcDbMText
 10
145.2999997960161
 20
40.00000011245719
 30
0.0
 40
2.5
 41
25.0
 71
     1
 72
     5
  1
第　三　角　法
 73
     1
 44
1.0
  0
MTEXT
  5
19B
330
171
100
AcDbEntity
  8
0
100
AcDbMText
 10
117.2999997960161
 20
10.00000011245719
 30
0.0
 40
3.0
 41
13.0
 71
     1
 72
     5
  1
図　番
 73
     1
 44
1.0
  0
LWPOLYLINE
  5
19C
330
171
100
AcDbEntity
  8
0
100
AcDbPolyline
 90
        2
 70
     0
 43
0.18
 10
126.2999997960162
 20
34.5000001124572
 10
132.2999997960162
 20
40.00000011245719
  0
LWPOLYLINE
  5
19D
330
171
100
AcDbEntity
  8
0
100
AcDbPolyline
 90
        2
 70
     0
 43
0.18
 10
121.2999997960162
 20
33.5000001124572
 10
121.2999997960162
 20
41.0000001124572
  0
LWPOLYLINE
  5
19E
330
171
100
AcDbEntity
  8
0
100
AcDbPolyline
 90
        2
 70
     0
 43
0.6
 10
137.2999997960162
 20
33.5000001124572
 10
137.2999997960162
 20
41.0000001124572
  0
ENDBLK
  5
1A0
330
171
100
AcDbEntity
  8
0
 62
     0
100
AcDbBlockEnd
  0
BLOCK
  5
1F9
330
1F4
100
AcDbEntity
  8
0
 62
     0
100
AcDbBlockBegin
  2
A$C4E83561F
 70
     0
 10
0.0
 20
0.0
 30
0.0
  3
A$C4E83561F
  1

  0
MTEXT
  5
1F5
330
1F4
100
AcDbEntity
  8
0
100
AcDbMText
 10
0.8134074052909452
 20
5.423014417937679
 30
0.0
 40
2.5
 41
11.0
 71
     1
 72
     5
  1
審　査
 73
     1
 44
1.0
  0
MTEXT
  5
1F6
330
1F4
100
AcDbEntity
  8
0
100
AcDbMText
 10
0.3134074052909455
 20
1.923014417937678
 30
0.0
 40
1.5
 41
10.5
 71
     1
 72
     5
  1
EXAMINED
 73
     1
 44
1.0
  0
MTEXT
  5
1F7
330
1F4
100
AcDbEntity
  8
0
100
AcDbMText
 10
16.81340740529093
 20
5.423014417937679
 30
0.0
 40
2.5
 41
11.0
 71
     1
 72
     5
  1
作　成
 73
     1
 44
1.0
  0
MTEXT
  5
1F8
330
1F4
100
AcDbEntity
  8
0
100
AcDbMText
 10
18.31340740529094
 20
1.923014417937678
 30
0.0
 40
1.5
 41
8.5
 71
     1
 72
     5
  1
MAKED
 73
     1
 44
1.0
  0
ENDBLK
  5
1FA
330
1F4
100
AcDbEntity
  8
0
 62
     0
100
AcDbBlockEnd
  0
BLOCK
  5
21B
330
217
100
AcDbEntity
  8
0
100
AcDbBlockBegin
  2
_OPEN30
 70
     0
 10
0.0
 20
0.0
 30
0.0
  3
_OPEN30
  1

  0
LINE
  5
218
330
217
100
AcDbEntity
  8
0
  6
ByBlock
 62
     0
100
AcDbLine
 10
-1.0
 20
0.26794919
 30
0.0
 11
0.0
 21
0.0
 31
0.0
  0
LINE
  5
219
330
217
100
AcDbEntity
  8
0
  6
ByBlock
 62
     0
100
AcDbLine
 10
0.0
 20
0.0
 30
0.0
 11
-1.0
 21
-0.26794919
 31
0.0
  0
LINE
  5
21A
330
217
100
AcDbEntity
  8
0
  6
ByBlock
 62
     0
100
AcDbLine
 10
0.0
 20
0.0
 30
0.0
 11
-1.0
 21
0.0
 31
0.0
  0
ENDBLK
  5
21C
330
217
100
AcDbEntity
  8
0
100
AcDbBlockEnd
  0
BLOCK
  5
21F
330
21D
100
AcDbEntity
  8
0
 62
     0
100
AcDbBlockBegin
  2
A$C0B5F4613
 70
     0
 10
0.0
 20
0.0
 30
0.0
  3
A$C0B5F4613
  1

  0
MTEXT
  5
21E
330
21D
100
AcDbEntity
  8
0
100
AcDbMText
 10
0.2860331286174187
 20
3.559908721023588
 30
0.0
 40
2.5
 41
16.5
 71
     1
 72
     5
  1
初版日付
 73
     1
 44
1.0
  0
ENDBLK
  5
220
330
21D
100
AcDbEntity
  8
0
 62
     0
100
AcDbBlockEnd
  0
BLOCK
  5
23F
330
235
100
AcDbEntity
  8
0
100
AcDbBlockBegin
  2
*D5
 70
     1
 10
0.0
 20
0.0
 30
0.0
  3
*D5
  1

  0
LINE
  5
236
330
235
100
AcDbEntity
  8
0
  6
ByBlock
 62
     0
100
AcDbLine
 10
31.00000000000005
 20
243.625
 30
0.0
 11
31.00000000000005
 21
252.2499999999999
 31
0.0
  0
LINE
  5
237
330
235
100
AcDbEntity
  8
0
  6
ByBlock
 62
     0
100
AcDbLine
 10
127.0
 20
243.625
 30
0.0
 11
127.0
 21
252.2499999999999
 31
0.0
  0
LINE
  5
238
330
235
100
AcDbEntity
  8
0
  6
ByBlock
 62
     0
100
AcDbLine
 10
32.50000000000005
 20
251.0
 30
0.0
 11
125.5
 21
251.0
 31
0.0
  0
INSERT
  5
239
330
235
100
AcDbEntity
  8
0
  6
ByBlock
 62
     0
100
AcDbBlockReference
  2
_OPEN
 10
31.00000000000005
 20
251.0
 30
0.0
 41
1.5
 42
1.5
 43
1.5
 50
180.0
  0
INSERT
  5
23A
330
235
100
AcDbEntity
  8
0
  6
ByBlock
 62
     0
100
AcDbBlockReference
  2
_OPEN
 10
127.0
 20
251.0
 30
0.0
 41
1.5
 42
1.5
 43
1.5
  0
MTEXT
  5
23B
330
235
100
AcDbEntity
  8
0
  6
ByBlock
 62
     0
100
AcDbMText
 10
79.00000000000004
 20
252.875
 30
0.0
 40
2.5
 41
0.0
 71
     5
 72
     1
  1
\A1;96
  7
STYLE1
 73
     1
 44
1.0
  0
POINT
  5
23C
330
235
100
AcDbEntity
  8
DEFPOINTS
  6
ByBlock
 62
     0
100
AcDbPoint
 10
31.00000000000005
 20
243.0
 30
0.0
  0
POINT
  5
23D
330
235
100
AcDbEntity
  8
DEFPOINTS
  6
ByBlock
 62
     0
100
AcDbPoint
 10
127.0
 20
243.0
 30
0.0
  0
POINT
  5
23E
330
235
100
AcDbEntity
  8
DEFPOINTS
  6
ByBlock
 62
     0
100
AcDbPoint
 10
127.0
 20
251.0
 30
0.0
  0
ENDBLK
  5
240
330
235
100
AcDbEntity
  8
0
100
AcDbBlockEnd
  0
BLOCK
  5
24B
330
241
100
AcDbEntity
  8
0
100
AcDbBlockBegin
  2
*D6
 70
     1
 10
0.0
 20
0.0
 30
0.0
  3
*D6
  1

  0
LINE
  5
242
330
241
100
AcDbEntity
  8
0
  6
ByBlock
 62
     0
100
AcDbLine
 10
126.625
 20
148.0
 30
0.0
 11
135.2499999999999
 21
148.0
 31
0.0
  0
LINE
  5
243
330
241
100
AcDbEntity
  8
0
  6
ByBlock
 62
     0
100
AcDbLine
 10
126.625
 20
244.0
 30
0.0
 11
135.25
 21
244.0
 31
0.0
  0
LINE
  5
244
330
241
100
AcDbEntity
  8
0
  6
ByBlock
 62
     0
100
AcDbLine
 10
133.9999999999999
 20
149.5
 30
0.0
 11
134.0
 21
242.5
 31
0.0
  0
INSERT
  5
245
330
241
100
AcDbEntity
  8
0
  6
ByBlock
 62
     0
100
AcDbBlockReference
  2
_OPEN
 10
133.9999999999999
 20
148.0
 30
0.0
 41
1.5
 42
1.5
 43
1.5
 50
270.0
  0
INSERT
  5
246
330
241
100
AcDbEntity
  8
0
  6
ByBlock
 62
     0
100
AcDbBlockReference
  2
_OPEN
 10
134.0
 20
244.0
 30
0.0
 41
1.5
 42
1.5
 43
1.5
 50
90.0
  0
MTEXT
  5
247
330
241
100
AcDbEntity
  8
0
  6
ByBlock
 62
     0
100
AcDbMText
 10
132.1249999999999
 20
196.0
 30
0.0
 40
2.5
 41
0.0
 71
     5
 72
     1
  1
\A1;96
  7
STYLE1
 11
0.0000000000000001
 21
1.0
 31
0.0
 73
     1
 44
1.0
  0
POINT
  5
248
330
241
100
AcDbEntity
  8
DEFPOINTS
  6
ByBlock
 62
     0
100
AcDbPoint
 10
126.0
 20
148.0
 30
0.0
  0
POINT
  5
249
330
241
100
AcDbEntity
  8
DEFPOINTS
  6
ByBlock
 62
     0
100
AcDbPoint
 10
126.0
 20
244.0
 30
0.0
  0
POINT
  5
24A
330
241
100
AcDbEntity
  8
DEFPOINTS
  6
ByBlock
 62
     0
100
AcDbPoint
 10
134.0
 20
244.0
 30
0.0
  0
ENDBLK
  5
24C
330
241
100
AcDbEntity
  8
0
100
AcDbBlockEnd
  0
BLOCK
  5
31E
330
24D
100
AcDbEntity
  8
0
 62
     0
100
AcDbBlockBegin
  2
A$C349638BA
 70
     0
 10
0.0
 20
0.0
 30
0.0
  3
A$C349638BA
  1

  0
LWPOLYLINE
  5
24E
330
24D
100
AcDbEntity
  8
画層1
 62
     3
100
AcDbPolyline
 90
        8
 70
     1
 43
0.0
 10
4.999999968299391
 20
97.99999969696344
 10
94.9999999682994
 20
97.99999969696344
 42
-0.4142135623730951
 10
97.9999999682994
 20
94.99999969696339
 10
97.9999999682994
 20
4.999999696963413
 42
-0.4142135623730951
 10
94.9999999682994
 20
1.999999696963413
 10
4.999999968299391
 20
1.999999696963413
 42
-0.4142135623730951
 10
1.99999996829939
 20
4.999999696963413
 10
1.99999996829939
 20
94.99999969696339
 42
-0.4142135623730951
  0
ARC
  5
24F
330
24D
100
AcDbEntity
  8
画層1
 62
     3
100
AcDbCircle
 10
94.99999996829942
 20
4.999999696963469
 30
0.0
 40
2.9
100
AcDbArc
 50
270.0
 51
0.0
  0
ARC
  5
250
330
24D
100
AcDbEntity
  8
画層1
 62
     3
100
AcDbCircle
 10
4.999999968299391
 20
4.999999696963469
 30
0.0
 40
2.9
100
AcDbArc
 50
180.0
 51
270.0
  0
DIMENSION
  5
251
330
24D
100
AcDbEntity
  8
画層1
 62
     1
100
AcDbDimension
  2
*D6
 10
104.9999999682992
 20
97.99999969696344
 30
0.0
 11
103.1249999682992
 21
49.9999996969634
 31
0.0
 12
-29.00000003170065
 22
-146.0000003030365
 32
0.0
 71
     5
 42
-1.0
  3
STANDARD_WS
100
AcDbAlignedDimension
 13
96.99999996829941
 23
1.999999696963413
 33
0.0
 14
96.99999996829941
 24
97.99999969696344
 34
0.0
 50
90.0
100
AcDbRotatedDimension
1001
ACAD
1000
DSTYLE
1002
{
1070
   340
1005
169
1002
}
  0
LINE
  5
252
330
24D
100
AcDbEntity
  8
画層1
  6
CENTER
 62
     1
100
AcDbLine
 10
49.99999996829939
 20
99.99999969696345
 30
0.0
 11
49.99999996829939
 21
-0.0000003030365576
 31
0.0
  0
LINE
  5
253
330
24D
100
AcDbEntity
  8
画層1
 62
     3
100
AcDbLine
 10
40.99999996829938
 20
1.599999696963465
 30
0.0
 11
58.99999996829939
 21
1.599999696963465
 31
0.0
  0
LINE
  5
254
330
24D
100
AcDbEntity
  8
画層1
 62
     3
100
AcDbLine
 10
94.99999996829942
 20
2.099999696963465
 30
0.0
 11
4.999999968299391
 21
2.099999696963465
 31
0.0
  0
LINE
  5
255
330
24D
100
AcDbEntity
  8
画層1
 62
     3
100
AcDbLine
 10
4.199999968299407
 20
0.7999996969633685
 30
0.0
 11
7.199999968299406
 21
0.7999996969633685
 31
0.0
  0
LINE
  5
256
330
24D
100
AcDbEntity
  8
画層1
 62
     3
100
AcDbLine
 10
4.199999968299393
 20
1.099999696963379
 30
0.0
 11
7.199999968299393
 21
1.099999696963379
 31
0.0
  0
LINE
  5
257
330
24D
100
AcDbEntity
  8
画層1
 62
     3
100
AcDbLine
 10
4.199999968299393
 20
1.399999696963391
 30
0.0
 11
7.199999968299393
 21
1.399999696963391
 31
0.0
  0
LINE
  5
258
330
24D
100
AcDbEntity
  8
画層1
 62
     3
100
AcDbLine
 10
4.199999968299393
 20
1.699999696963401
 30
0.0
 11
7.199999968299393
 21
1.699999696963401
 31
0.0
  0
LINE
  5
259
330
24D
100
AcDbEntity
  8
画層1
 62
     3
100
AcDbLine
 10
4.19999996829938
 20
1.999999696963413
 30
0.0
 11
4.999999968299391
 21
1.999999696963413
 31
0.0
  0
LINE
  5
25A
330
24D
100
AcDbEntity
  8
画層1
 62
     3
100
AcDbLine
 10
4.199999968299393
 20
0.4999996969634141
 30
0.0
 11
7.199999968299393
 21
0.4999996969634141
 31
0.0
  0
LINE
  5
25B
330
24D
100
AcDbEntity
  8
画層1
 62
     3
100
AcDbLine
 10
4.199999968299393
 20
2.10863323800322
 30
0.0
 11
4.199999968299393
 21
0.4999996969634141
 31
0.0
  0
LINE
  5
25C
330
24D
100
AcDbEntity
  8
画層1
 62
     3
100
AcDbLine
 10
7.199999968299393
 20
0.4999996969634141
 30
0.0
 11
7.199999968299393
 21
1.999999696963413
 31
0.0
  0
LINE
  5
25D
330
24D
100
AcDbEntity
  8
画層1
 62
     3
100
AcDbLine
 10
40.19999996829949
 20
1.999999696963413
 30
0.0
 11
40.99999996829938
 21
1.599999696963465
 31
0.0
  0
LINE
  5
25E
330
24D
100
AcDbEntity
  8
画層1
 62
     3
100
AcDbLine
 10
58.99999996829939
 20
1.599999696963465
 30
0.0
 11
59.79999996829929
 21
1.999999696963413
 31
0.0
  0
LINE
  5
25F
330
24D
100
AcDbEntity
  8
画層1
 62
     3
100
AcDbLine
 10
92.79999996829941
 20
0.7999996969633685
 30
0.0
 11
95.79999996829938
 21
0.7999996969633685
 31
0.0
  0
LINE
  5
260
330
24D
100
AcDbEntity
  8
画層1
 62
     3
100
AcDbLine
 10
92.79999996829941
 20
1.099999696963379
 30
0.0
 11
95.79999996829938
 21
1.099999696963379
 31
0.0
  0
LINE
  5
261
330
24D
100
AcDbEntity
  8
画層1
 62
     3
100
AcDbLine
 10
92.79999996829941
 20
1.399999696963391
 30
0.0
 11
95.79999996829938
 21
1.399999696963391
 31
0.0
  0
LINE
  5
262
330
24D
100
AcDbEntity
  8
画層1
 62
     3
100
AcDbLine
 10
92.79999996829941
 20
1.699999696963401
 30
0.0
 11
95.79999996829938
 21
1.699999696963401
 31
0.0
  0
LINE
  5
263
330
24D
100
AcDbEntity
  8
画層1
 62
     3
100
AcDbLine
 10
92.79999996829941
 20
0.4999996969634141
 30
0.0
 11
95.79999996829938
 21
0.4999996969634141
 31
0.0
  0
LINE
  5
264
330
24D
100
AcDbEntity
  8
画層1
 62
     3
100
AcDbLine
 10
92.79999996829941
 20
1.999999696963413
 30
0.0
 11
92.79999996829941
 21
0.4999996969634141
 31
0.0
  0
LINE
  5
265
330
24D
100
AcDbEntity
  8
画層1
 62
     3
100
AcDbLine
 10
95.79999996829938
 20
1.999999696963413
 30
0.0
 11
94.9999999682994
 21
1.999999696963413
 31
0.0
  0
LINE
  5
266
330
24D
100
AcDbEntity
  8
画層1
 62
     3
100
AcDbLine
 10
95.79999996829938
 20
0.4999996969634141
 30
0.0
 11
95.79999996829938
 21
2.10863323800322
 31
0.0
  0
LINE
  5
267
330
24D
100
AcDbEntity
  8
画層1
 62
     3
100
AcDbLine
 10
4.999999968299391
 20
97.89999969696342
 30
0.0
 11
94.9999999682994
 21
97.89999969696346
 31
0.0
  0
LINE
  5
268
330
24D
100
AcDbEntity
  8
画層1
 62
     3
100
AcDbLine
 10
4.899999968299396
 20
96.09999969696344
 30
0.0
 11
95.09999996829938
 21
96.09999969696341
 31
0.0
  0
LINE
  5
269
330
24D
100
AcDbEntity
  8
画層1
 62
     3
100
AcDbLine
 10
95.09999996829938
 20
3.899999696963448
 30
0.0
 11
4.899999968299396
 21
3.899999696963448
 31
0.0
  0
LWPOLYLINE
  5
26A
330
24D
100
AcDbEntity
  8
画層1
 62
     3
100
AcDbPolyline
 90
        8
 70
     1
 43
0.0
 10
35.49999996829939
 20
71.19999969696343
 10
74.49999996829939
 20
71.19999969696343
 42
-0.4142135623730959
 10
75.49999996829939
 20
70.19999969696343
 10
75.49999996829936
 20
59.79999969696343
 42
-0.4142135623730951
 10
74.49999996829936
 20
58.79999969696342
 10
35.4999999682994
 20
58.79999969696342
 42
-0.4142135623730951
 10
34.49999996829939
 20
59.79999969696343
 10
34.49999996829939
 20
70.19999969696343
 42
-0.4142135623730951
  0
LWPOLYLINE
  5
26B
330
24D
100
AcDbEntity
  8
画層1
 62
     3
100
AcDbPolyline
 90
        8
 70
     1
 43
0.0
 10
35.49999996829939
 20
54.69999969696343
 10
74.49999996829939
 20
54.69999969696343
 42
-0.4142135623730951
 10
75.49999996829939
 20
53.69999969696343
 10
75.49999996829939
 20
43.29999969696342
 42
-0.4142135623730951
 10
74.49999996829939
 20
42.29999969696343
 10
35.49999996829939
 20
42.29999969696339
 42
-0.4142135623730951
 10
34.49999996829939
 20
43.2999996969634
 10
34.49999996829939
 20
53.69999969696343
 42
-0.4142135623730951
  0
LWPOLYLINE
  5
26C
330
24D
100
AcDbEntity
  8
画層1
 62
     3
100
AcDbPolyline
 90
        8
 70
     1
 43
0.0
 10
45.49999996829939
 20
38.09999969696339
 10
74.49999996829939
 20
38.09999969696339
 42
-0.4142135623730951
 10
75.49999996829939
 20
37.09999969696339
 10
75.49999996829936
 20
28.89999969696342
 42
-0.4142135623730951
 10
74.49999996829936
 20
27.89999969696342
 10
45.49999996829939
 20
27.89999969696339
 42
-0.4142135623730951
 10
44.49999996829939
 20
28.89999969696339
 10
44.49999996829939
 20
37.09999969696339
 42
-0.4142135623730951
  0
LINE
  5
26D
330
24D
100
AcDbEntity
  8
画層1
 62
     3
100
AcDbLine
 10
28.49999996829939
 20
88.59999969696344
 30
0.0
 11
75.39999996829941
 21
88.59999969696344
 31
0.0
  0
LINE
  5
26E
330
24D
100
AcDbEntity
  8
画層1
 62
     3
100
AcDbLine
 10
75.39999996829938
 20
74.39999969696342
 30
0.0
 11
28.49999996829939
 21
74.39999969696342
 31
0.0
  0
LINE
  5
26F
330
24D
100
AcDbEntity
  8
画層1
 62
     3
100
AcDbLine
 10
28.49999996829938
 20
72.0999996969634
 30
0.0
 11
75.39999996829941
 21
72.0999996969634
 31
0.0
  0
LINE
  5
270
330
24D
100
AcDbEntity
  8
画層1
 62
     3
100
AcDbLine
 10
75.39999996829938
 20
57.89999969696342
 30
0.0
 11
28.49999996829938
 21
57.89999969696339
 31
0.0
  0
LINE
  5
271
330
24D
100
AcDbEntity
  8
画層1
 62
     3
100
AcDbLine
 10
28.49999996829939
 20
55.59999969696338
 30
0.0
 11
75.39999996829945
 21
55.59999969696341
 31
0.0
  0
LINE
  5
272
330
24D
100
AcDbEntity
  8
画層1
 62
     3
100
AcDbLine
 10
75.39999996829941
 20
41.39999969696339
 30
0.0
 11
28.49999996829939
 21
41.39999969696339
 31
0.0
  0
LINE
  5
273
330
24D
100
AcDbEntity
  8
画層1
 62
     3
100
AcDbLine
 10
40.49999996829939
 20
38.9999996969634
 30
0.0
 11
75.39999996829941
 21
38.9999996969634
 31
0.0
  0
LINE
  5
274
330
24D
100
AcDbEntity
  8
画層1
 62
     3
100
AcDbLine
 10
75.39999996829941
 20
26.99999969696344
 30
0.0
 11
40.49999996829939
 21
26.99999969696337
 31
0.0
  0
LINE
  5
275
330
24D
100
AcDbEntity
  8
画層1
 62
     3
100
AcDbLine
 10
35.49999996829939
 20
87.69999969696344
 30
0.0
 11
74.49999996829939
 21
87.69999969696344
 31
0.0
  0
LINE
  5
276
330
24D
100
AcDbEntity
  8
画層1
 62
     3
100
AcDbLine
 10
74.49999996829936
 20
75.29999969696338
 30
0.0
 11
35.4999999682994
 21
75.29999969696348
 31
0.0
  0
LINE
  5
277
330
24D
100
AcDbEntity
  8
画層1
 62
     3
100
AcDbLine
 10
4.599999968299413
 20
95.89999969696341
 30
0.0
 11
95.39999996829935
 21
95.89999969696341
 31
0.0
  0
LINE
  5
278
330
24D
100
AcDbEntity
  8
画層1
 62
     3
100
AcDbLine
 10
4.099999968299413
 20
25.99999969696341
 30
0.0
 11
95.89999996829943
 21
25.99999969696341
 31
0.0
  0
LINE
  5
279
330
24D
100
AcDbEntity
  8
画層1
 62
     3
100
AcDbLine
 10
95.39999996829942
 20
4.099999696963435
 30
0.0
 11
4.599999968299413
 21
4.099999696963408
 31
0.0
  0
DIMENSION
  5
27A
330
24D
100
AcDbEntity
  8
画層1
 62
     1
100
AcDbDimension
  2
*D5
 10
97.9999999682994
 20
104.9999996969634
 30
0.0
 11
49.99999996829939
 21
106.8749996969634
 31
0.0
 12
-29.00000003170065
 22
-146.0000003030365
 32
0.0
 71
     5
 42
-1.0
  3
STANDARD_WS
100
AcDbAlignedDimension
 13
1.99999996829939
 23
96.99999969696342
 33
0.0
 14
97.9999999682994
 24
96.99999969696342
 34
0.0
100
AcDbRotatedDimension
1001
ACAD
1000
DSTYLE
1002
{
1070
   340
1005
169
1002
}
  0
LINE
  5
27B
330
24D
100
AcDbEntity
  8
画層1
  6
CENTER
 62
     1
100
AcDbLine
 10
-0.0000000317006084
 20
49.9999996969634
 30
0.0
 11
99.99999996829942
 21
49.9999996969634
 31
0.0
  0
ARC
  5
27C
330
24D
100
AcDbEntity
  8
画層1
 62
     3
100
AcDbCircle
 10
4.999999968299391
 20
94.99999969696339
 30
0.0
 40
2.9
100
AcDbArc
 50
90.0
 51
180.0
  0
ARC
  5
27D
330
24D
100
AcDbEntity
  8
画層1
 62
     3
100
AcDbCircle
 10
4.899999968299396
 20
95.09999969696343
 30
0.0
 40
1.0
100
AcDbArc
 50
90.0
 51
180.0
  0
LINE
  5
27E
330
24D
100
AcDbEntity
  8
画層1
 62
     3
100
AcDbLine
 10
4.099999968299413
 20
4.599999696963408
 30
0.0
 11
4.099999968299413
 21
95.3999996969634
 31
0.0
  0
LINE
  5
27F
330
24D
100
AcDbEntity
  8
画層1
 62
     3
100
AcDbLine
 10
2.099999968299413
 20
4.999999696963469
 30
0.0
 11
2.099999968299385
 21
94.99999969696339
 31
0.0
  0
LINE
  5
280
330
24D
100
AcDbEntity
  8
画層1
 62
     3
100
AcDbLine
 10
3.899999968299397
 20
4.899999696963448
 30
0.0
 11
3.899999968299397
 21
95.09999969696343
 31
0.0
  0
MTEXT
  5
281
330
24D
100
AcDbEntity
  8
画層1
 62
     1
100
AcDbMText
 10
10.95515423351855
 20
48.66133769650787
 30
0.0
 40
1.7
 41
6.543626546017208
 71
     1
 72
     5
  1
\fＭＳ Ｐゴシック|b0|i0|c128|p50;OUT\H1; \H1.7;3
  7
STYLE1
 73
     1
 44
1.0
  0
MTEXT
  5
282
330
24D
100
AcDbEntity
  8
画層1
 62
     1
100
AcDbMText
 10
20.82884094065831
 20
48.66688113802478
 30
0.0
 40
1.7
 41
4.625854083502304
 71
     1
 72
     5
  1
\fＭＳ Ｐゴシック|b0|i0|c128|p50;AL\H1; \H1.7;3
  7
STYLE1
 73
     1
 44
1.0
  0
LINE
  5
283
330
24D
100
AcDbEntity
  8
画層1
 62
     3
100
AcDbLine
 10
27.4999999682994
 20
42.39999969696339
 30
0.0
 11
27.4999999682994
 21
54.59999969696339
 31
0.0
  0
LINE
  5
284
330
24D
100
AcDbEntity
  8
画層1
 62
     3
100
AcDbLine
 10
21.99999996829932
 20
22.99999969696341
 30
0.0
 11
12.99999996829932
 21
22.99999969696341
 31
0.0
  0
MTEXT
  5
285
330
24D
100
AcDbEntity
  8
画層1
 62
     1
100
AcDbMText
 10
14.39148532958063
 20
18.61076259890353
 30
0.0
 40
2.2
 41
3.621999999999998
 71
     1
 72
     5
  1
\fＭＳ Ｐゴシック|b0|i0|c128|p50;DISP
  7
STYLE1
 73
     1
 44
1.0
  0
CIRCLE
  5
286
330
24D
100
AcDbEntity
  8
画層1
 62
     3
100
AcDbCircle
 10
17.4999999682994
 20
17.49999969696341
 30
0.0
 40
4.0
  0
LINE
  5
287
330
24D
100
AcDbEntity
  8
画層1
 62
     3
100
AcDbLine
 10
12.99999996829932
 20
11.99999969696341
 30
0.0
 11
21.99999996829932
 21
11.99999969696341
 31
0.0
  0
LINE
  5
288
330
24D
100
AcDbEntity
  8
画層1
 62
     3
100
AcDbLine
 10
11.99999996829933
 20
21.99999969696341
 30
0.0
 11
11.99999996829933
 21
12.99999969696341
 31
0.0
  0
MTEXT
  5
289
330
24D
100
AcDbEntity
  8
画層1
 62
     1
100
AcDbMText
 10
6.805689885877312
 20
8.601157245196532
 30
0.0
 40
2.0
 41
11.1767
 71
     1
 72
     5
  1
\fＭＳ Ｐゴシック|b0|i0|c128|p50;ＭＲ１３
  7
STYLE1
 73
     1
 44
1.0
  0
ARC
  5
28A
330
24D
100
AcDbEntity
  8
画層1
 62
     3
100
AcDbCircle
 10
4.899999968299396
 20
4.899999696963448
 30
0.0
 40
1.0
100
AcDbArc
 50
180.0
 51
270.0
  0
ARC
  5
28B
330
24D
100
AcDbEntity
  8
画層1
 62
     3
100
AcDbCircle
 10
4.599999968299413
 20
4.599999696963408
 30
0.0
 40
0.5
100
AcDbArc
 50
180.0
 51
270.0
  0
ARC
  5
28C
330
24D
100
AcDbEntity
  8
画層1
 62
     3
100
AcDbCircle
 10
12.99999996829932
 20
12.99999969696341
 30
0.0
 40
1.0
100
AcDbArc
 50
180.0
 51
270.0
  0
ARC
  5
28D
330
24D
100
AcDbEntity
  8
画層1
 62
     3
100
AcDbCircle
 10
12.99999996829932
 20
21.99999969696341
 30
0.0
 40
1.0
100
AcDbArc
 50
90.0
 51
180.0
  0
CIRCLE
  5
28E
330
24D
100
AcDbEntity
  8
画層1
 62
     3
100
AcDbCircle
 10
13.99999996829939
 20
44.9999996969634
 30
0.0
 40
1.0
  0
LINE
  5
28F
330
24D
100
AcDbEntity
  8
画層1
 62
     3
100
AcDbLine
 10
34.99999996829933
 20
22.99999969696341
 30
0.0
 11
25.99999996829932
 21
22.99999969696341
 31
0.0
  0
CIRCLE
  5
290
330
24D
100
AcDbEntity
  8
画層1
 62
     3
100
AcDbCircle
 10
30.4999999682994
 20
17.49999969696341
 30
0.0
 40
4.0
  0
LINE
  5
291
330
24D
100
AcDbEntity
  8
画層1
 62
     3
100
AcDbLine
 10
25.99999996829932
 20
11.99999969696341
 30
0.0
 11
34.99999996829933
 21
11.99999969696341
 31
0.0
  0
LINE
  5
292
330
24D
100
AcDbEntity
  8
画層1
 62
     3
100
AcDbLine
 10
22.99999996829932
 20
12.99999969696341
 30
0.0
 11
22.99999996829932
 21
21.99999969696341
 31
0.0
  0
LINE
  5
293
330
24D
100
AcDbEntity
  8
画層1
 62
     3
100
AcDbLine
 10
24.99999996829933
 20
21.99999969696341
 30
0.0
 11
24.99999996829933
 21
12.99999969696341
 31
0.0
  0
ARC
  5
294
330
24D
100
AcDbEntity
  8
画層1
 62
     3
100
AcDbCircle
 10
25.99999996829932
 20
12.99999969696341
 30
0.0
 40
1.0
100
AcDbArc
 50
180.0
 51
270.0
  0
ARC
  5
295
330
24D
100
AcDbEntity
  8
画層1
 62
     3
100
AcDbCircle
 10
21.99999996829932
 20
12.99999969696341
 30
0.0
 40
1.0
100
AcDbArc
 50
270.0
 51
0.0
  0
ARC
  5
296
330
24D
100
AcDbEntity
  8
画層1
 62
     3
100
AcDbCircle
 10
25.99999996829932
 20
21.99999969696341
 30
0.0
 40
1.0
100
AcDbArc
 50
90.0
 51
180.0
  0
ARC
  5
297
330
24D
100
AcDbEntity
  8
画層1
 62
     3
100
AcDbCircle
 10
21.99999996829932
 20
21.99999969696341
 30
0.0
 40
1.0
100
AcDbArc
 50
0.0
 51
90.0
  0
MTEXT
  5
298
330
24D
100
AcDbEntity
  8
画層1
 62
     1
100
AcDbMText
 10
28.60845773175867
 20
18.61076259890353
 30
0.0
 40
2.2
 41
3.621999999999998
 71
     1
 72
     5
  1
\fＭＳ Ｐゴシック|b0|i0|c128|p50;CH
  7
STYLE1
 73
     1
 44
1.0
  0
LINE
  5
299
330
24D
100
AcDbEntity
  8
画層1
 62
     3
100
AcDbLine
 10
48.99999996829933
 20
12.99999969696341
 30
0.0
 11
48.99999996829933
 21
21.99999969696341
 31
0.0
  0
LINE
  5
29A
330
24D
100
AcDbEntity
  8
画層1
 62
     3
100
AcDbLine
 10
37.99999996829932
 20
21.99999969696341
 30
0.0
 11
37.99999996829932
 21
12.99999969696341
 31
0.0
  0
CIRCLE
  5
29B
330
24D
100
AcDbEntity
  8
画層1
 62
     3
100
AcDbCircle
 10
43.49999996829939
 20
17.49999969696341
 30
0.0
 40
4.0
  0
LINE
  5
29C
330
24D
100
AcDbEntity
  8
画層1
 62
     3
100
AcDbLine
 10
35.99999996829932
 20
12.99999969696341
 30
0.0
 11
35.99999996829932
 21
21.99999969696341
 31
0.0
  0
LINE
  5
29D
330
24D
100
AcDbEntity
  8
画層1
 62
     3
100
AcDbLine
 10
38.99999996829933
 20
11.99999969696341
 30
0.0
 11
47.99999996829933
 21
11.99999969696341
 31
0.0
  0
ARC
  5
29E
330
24D
100
AcDbEntity
  8
画層1
 62
     3
100
AcDbCircle
 10
34.99999996829933
 20
12.99999969696341
 30
0.0
 40
1.0
100
AcDbArc
 50
270.0
 51
0.0
  0
ARC
  5
29F
330
24D
100
AcDbEntity
  8
画層1
 62
     3
100
AcDbCircle
 10
38.99999996829933
 20
12.99999969696341
 30
0.0
 40
1.0
100
AcDbArc
 50
180.0
 51
270.0
  0
ARC
  5
2A0
330
24D
100
AcDbEntity
  8
画層1
 62
     3
100
AcDbCircle
 10
47.99999996829933
 20
12.99999969696341
 30
0.0
 40
1.0
100
AcDbArc
 50
270.0
 51
0.0
  0
LINE
  5
2A1
330
24D
100
AcDbEntity
  8
画層1
 62
     3
100
AcDbLine
 10
47.99999996829933
 20
22.99999969696341
 30
0.0
 11
38.99999996829933
 21
22.99999969696341
 31
0.0
  0
MTEXT
  5
2A2
330
24D
100
AcDbEntity
  8
画層1
 62
     1
100
AcDbMText
 10
40.60737578769942
 20
18.91853840023793
 30
0.0
 40
2.0
 41
6.888863505338797
 71
     1
 72
     5
  1

  7
STYLE1
 73
     1
 44
1.0
  0
ARC
  5
2A3
330
24D
100
AcDbEntity
  8
画層1
 62
     3
100
AcDbCircle
 10
34.99999996829933
 20
21.99999969696341
 30
0.0
 40
1.0
100
AcDbArc
 50
0.0
 51
90.0
  0
ARC
  5
2A4
330
24D
100
AcDbEntity
  8
画層1
 62
     3
100
AcDbCircle
 10
38.99999996829933
 20
21.99999969696341
 30
0.0
 40
1.0
100
AcDbArc
 50
90.0
 51
180.0
  0
ARC
  5
2A5
330
24D
100
AcDbEntity
  8
画層1
 62
     3
100
AcDbCircle
 10
47.99999996829933
 20
21.99999969696341
 30
0.0
 40
1.0
100
AcDbArc
 50
0.0
 51
90.0
  0
LINE
  5
2A6
330
24D
100
AcDbEntity
  8
画層1
 62
     3
100
AcDbLine
 10
24.99999996829938
 20
38.9999996969634
 30
0.0
 11
36.89999996829942
 21
38.99999969696335
 31
0.0
  0
LINE
  5
2A7
330
24D
100
AcDbEntity
  8
画層1
 62
     3
100
AcDbLine
 10
36.89999996829936
 20
26.99999969696337
 30
0.0
 11
24.99999996829938
 21
26.99999969696344
 31
0.0
  0
LWPOLYLINE
  5
2A8
330
24D
100
AcDbEntity
  8
画層1
 62
     3
100
AcDbPolyline
 90
        8
 70
     1
 43
0.0
 10
29.99999996829938
 20
38.09999969696339
 10
35.99999996829939
 20
38.09999969696339
 42
-0.4142135623730951
 10
36.99999996829939
 20
37.09999969696339
 10
36.99999996829939
 20
28.89999969696342
 42
-0.4142135623730946
 10
35.99999996829939
 20
27.89999969696342
 10
29.99999996829938
 20
27.89999969696339
 42
-0.4142135623730951
 10
28.99999996829938
 20
28.89999969696339
 10
28.99999996829938
 20
37.09999969696339
 42
-0.4142135623730951
  0
MTEXT
  5
2A9
330
24D
100
AcDbEntity
  8
画層1
 62
     1
100
AcDbMText
 10
24.78343451585454
 20
38.0011616375931
 30
0.0
 40
2.5
 41
5.226209312566873
 71
     1
 72
     5
  1
\fＪＳＰゴシック|b0|i0|c128|p50;CH
  7
STYLE1
 73
     1
 44
1.0
  0
LINE
  5
2AA
330
24D
100
AcDbEntity
  8
画層1
 62
     3
100
AcDbLine
 10
23.99999996829938
 20
27.99999969696344
 30
0.0
 11
23.99999996829938
 21
37.9999996969634
 31
0.0
  0
ARC
  5
2AB
330
24D
100
AcDbEntity
  8
画層1
 62
     3
100
AcDbCircle
 10
24.99999996829938
 20
27.99999969696344
 30
0.0
 40
1.0
100
AcDbArc
 50
180.0
 51
269.9999999999998
  0
ARC
  5
2AC
330
24D
100
AcDbEntity
  8
画層1
 62
     3
100
AcDbCircle
 10
24.99999996829938
 20
37.9999996969634
 30
0.0
 40
1.0
100
AcDbArc
 50
89.99999999999976
 51
180.0
  0
CIRCLE
  5
2AD
330
24D
100
AcDbEntity
  8
画層1
 62
     3
100
AcDbCircle
 10
22.99999996829938
 20
44.9999996969634
 30
0.0
 40
1.0
  0
ARC
  5
2AE
330
24D
100
AcDbEntity
  8
画層1
 62
     3
100
AcDbCircle
 10
28.49999996829939
 20
42.39999969696339
 30
0.0
 40
1.0
100
AcDbArc
 50
179.9999999999999
 51
270.0
  0
MTEXT
  5
2AF
330
24D
100
AcDbEntity
  8
画層1
 62
     1
100
AcDbMText
 10
40.17915170529215
 20
38.0011616375931
 30
0.0
 40
2.5
 41
5.226209312566873
 71
     1
 72
     5
  1
\fＪＳＰゴシック|b0|i0|c128|p50;SV
  7
STYLE1
 73
     1
 44
1.0
  0
LINE
  5
2B0
330
24D
100
AcDbEntity
  8
画層1
 62
     3
100
AcDbLine
 10
39.49999996829939
 20
27.99999969696338
 30
0.0
 11
39.49999996829939
 21
37.9999996969634
 31
0.0
  0
LINE
  5
2B1
330
24D
100
AcDbEntity
  8
画層1
 62
     3
100
AcDbLine
 10
37.89999996829942
 20
37.99999969696335
 30
0.0
 11
37.89999996829936
 21
27.99999969696338
 31
0.0
  0
ARC
  5
2B2
330
24D
100
AcDbEntity
  8
画層1
 62
     3
100
AcDbCircle
 10
36.89999996829936
 20
27.99999969696338
 30
0.0
 40
1.0
100
AcDbArc
 50
270.0
 51
359.9999999999997
  0
ARC
  5
2B3
330
24D
100
AcDbEntity
  8
画層1
 62
     3
100
AcDbCircle
 10
40.49999996829939
 20
27.99999969696338
 30
0.0
 40
1.0
100
AcDbArc
 50
180.0
 51
270.0
  0
ARC
  5
2B4
330
24D
100
AcDbEntity
  8
画層1
 62
     3
100
AcDbCircle
 10
36.89999996829942
 20
37.99999969696335
 30
0.0
 40
1.0
100
AcDbArc
 50
359.9999999999997
 51
89.99999999999987
  0
ARC
  5
2B5
330
24D
100
AcDbEntity
  8
画層1
 62
     3
100
AcDbCircle
 10
40.49999996829939
 20
37.9999996969634
 30
0.0
 40
1.0
100
AcDbArc
 50
90.0
 51
180.0
  0
MTEXT
  5
2B6
330
24D
100
AcDbEntity
  8
画層1
 62
     1
100
AcDbMText
 10
11.15826949955646
 20
64.56685560982112
 30
0.0
 40
1.7
 41
6.125528284368899
 71
     1
 72
     5
  1
\fＭＳ Ｐゴシック|b0|i0|c128|p50;OUT\H1; \H1.7;1
  7
STYLE1
 73
     1
 44
1.0
  0
MTEXT
  5
2B7
330
24D
100
AcDbEntity
  8
画層1
 62
     1
100
AcDbMText
 10
10.96189883307272
 20
56.62757569644099
 30
0.0
 40
1.7
 41
6.405238470343534
 71
     1
 72
     5
  1
\fＭＳ Ｐゴシック|b0|i0|c128|p50;OUT\H1; \H1.7;2
  7
STYLE1
 73
     1
 44
1.0
  0
MTEXT
  5
2B8
330
24D
100
AcDbEntity
  8
画層1
 62
     1
100
AcDbMText
 10
12.60238996838131
 20
72.65094051418623
 30
0.0
 40
1.7
 41
2.7414
 71
     1
 72
     5
  1
\fＭＳ Ｐゴシック|b0|i0|c128|p50;SB
  7
STYLE1
 73
     1
 44
1.0
  0
CIRCLE
  5
2B9
330
24D
100
AcDbEntity
  8
画層1
 62
     3
100
AcDbCircle
 10
13.99999996829939
 20
60.99999969696341
 30
0.0
 40
1.0
  0
CIRCLE
  5
2BA
330
24D
100
AcDbEntity
  8
画層1
 62
     3
100
AcDbCircle
 10
13.99999996829939
 20
52.9999996969634
 30
0.0
 40
1.0
  0
CIRCLE
  5
2BB
330
24D
100
AcDbEntity
  8
画層1
 62
     3
100
AcDbCircle
 10
13.99999996829939
 20
68.99999969696342
 30
0.0
 40
1.0
  0
CIRCLE
  5
2BC
330
24D
100
AcDbEntity
  8
画層1
 62
     3
100
AcDbCircle
 10
13.99999996829939
 20
76.9999996969634
 30
0.0
 40
1.0
  0
MTEXT
  5
2BD
330
24D
100
AcDbEntity
  8
画層1
 62
     1
100
AcDbMText
 10
12.62936836659798
 20
80.60804849115674
 30
0.0
 40
1.7
 41
2.7414
 71
     1
 72
     5
  1
\fＭＳ Ｐゴシック|b0|i0|c128|p50;SV
  7
STYLE1
 73
     1
 44
1.0
  0
MTEXT
  5
2BE
330
24D
100
AcDbEntity
  8
画層1
 62
     1
100
AcDbMText
 10
12.55647918480906
 20
88.64625567711264
 30
0.0
 40
1.7
 41
3.211983946606211
 71
     1
 72
     5
  1
\fＭＳ Ｐゴシック|b0|i0|c128|p50;AT
  7
STYLE1
 73
     1
 44
1.0
  0
CIRCLE
  5
2BF
330
24D
100
AcDbEntity
  8
画層1
 62
     3
100
AcDbCircle
 10
13.99999996829939
 20
84.99999969696339
 30
0.0
 40
1.0
  0
ARC
  5
2C0
330
24D
100
AcDbEntity
  8
画層1
 62
     3
100
AcDbCircle
 10
28.49999996829938
 20
71.09999969696341
 30
0.0
 40
1.0
100
AcDbArc
 50
90.0
 51
180.0
  0
MTEXT
  5
2C1
330
24D
100
AcDbEntity
  8
画層1
 62
     1
100
AcDbMText
 10
28.26994752913503
 20
54.49999969696341
 30
0.0
 40
2.5
 41
6.281396782994187
 71
     1
 72
     5
  1
\fＪＳＰゴシック|b0|i0|c128|p50;PV\H1; \H2.5;3
  7
STYLE1
 73
     1
 44
1.0
  0
MTEXT
  5
2C2
330
24D
100
AcDbEntity
  8
画層1
 62
     1
100
AcDbMText
 10
28.23739658396528
 20
70.9999996969634
 30
0.0
 40
2.5
 41
6.313947728163953
 71
     1
 72
     5
  1
\fＪＳＰゴシック|b0|i0|c128|p50;PV\H1; \H2.5;2
  7
STYLE1
 73
     1
 44
1.0
  0
CIRCLE
  5
2C3
330
24D
100
AcDbEntity
  8
画層1
 62
     3
100
AcDbCircle
 10
22.99999996829938
 20
60.99999969696341
 30
0.0
 40
1.0
  0
LINE
  5
2C4
330
24D
100
AcDbEntity
  8
画層1
 62
     3
100
AcDbLine
 10
27.49999996829938
 20
58.89999969696338
 30
0.0
 11
27.49999996829938
 21
71.09999969696341
 31
0.0
  0
MTEXT
  5
2C5
330
24D
100
AcDbEntity
  8
画層1
 62
     1
100
AcDbMText
 10
20.78129865094376
 20
56.63311980152514
 30
0.0
 40
1.7
 41
4.449394929095547
 71
     1
 72
     5
  1
\fＭＳ Ｐゴシック|b0|i0|c128|p50;AL\H1; \H1.7;2
  7
STYLE1
 73
     1
 44
1.0
  0
CIRCLE
  5
2C6
330
24D
100
AcDbEntity
  8
画層1
 62
     3
100
AcDbCircle
 10
22.99999996829938
 20
52.9999996969634
 30
0.0
 40
1.0
  0
ARC
  5
2C7
330
24D
100
AcDbEntity
  8
画層1
 62
     3
100
AcDbCircle
 10
28.49999996829939
 20
54.59999969696339
 30
0.0
 40
1.0
100
AcDbArc
 50
90.00000000000005
 51
180.0
  0
ARC
  5
2C8
330
24D
100
AcDbEntity
  8
画層1
 62
     3
100
AcDbCircle
 10
28.49999996829938
 20
58.89999969696338
 30
0.0
 40
1.0
100
AcDbArc
 50
180.0
 51
270.0
  0
MTEXT
  5
2C9
330
24D
100
AcDbEntity
  8
画層1
 62
     1
100
AcDbMText
 10
20.98245566353978
 20
64.62305909953091
 30
0.0
 40
1.7
 41
4.42393540399246
 71
     1
 72
     5
  1
\fＭＳ Ｐゴシック|b0|i0|c128|p50;AL\H1; \H1.7;1
  7
STYLE1
 73
     1
 44
1.0
  0
MTEXT
  5
2CA
330
24D
100
AcDbEntity
  8
画層1
 62
     1
100
AcDbMText
 10
28.27279792537512
 20
87.54335567160547
 30
0.0
 40
2.5
 41
7.529156621942206
 71
     1
 72
     5
  1
\fＪＳＰゴシック|b0|i0|c128|p50;PV\H1; \H2.5;1
  7
STYLE1
 73
     1
 44
1.0
  0
LINE
  5
2CB
330
24D
100
AcDbEntity
  8
画層1
 62
     3
100
AcDbLine
 10
27.4999999682994
 20
75.39999969696339
 30
0.0
 11
27.4999999682994
 21
87.59999969696343
 31
0.0
  0
MTEXT
  5
2CC
330
24D
100
AcDbEntity
  8
画層1
 62
     1
100
AcDbMText
 10
20.50300585683987
 20
80.61598342934905
 30
0.0
 40
1.7
 41
2.7414
 71
     1
 72
     5
  1
\fＭＳ Ｐゴシック|b0|i0|c128|p50;COM
  7
STYLE1
 73
     1
 44
1.0
  0
CIRCLE
  5
2CD
330
24D
100
AcDbEntity
  8
画層1
 62
     3
100
AcDbCircle
 10
22.99999996829938
 20
76.9999996969634
 30
0.0
 40
1.0
  0
ARC
  5
2CE
330
24D
100
AcDbEntity
  8
画層1
 62
     3
100
AcDbCircle
 10
28.49999996829939
 20
75.39999969696339
 30
0.0
 40
1.0
100
AcDbArc
 50
180.0
 51
270.0
  0
MTEXT
  5
2CF
330
24D
100
AcDbEntity
  8
画層1
 62
     1
100
AcDbMText
 10
20.81056651061647
 20
88.60592206378738
 30
0.0
 40
1.7
 41
2.7414
 71
     1
 72
     5
  1
\fＭＳ Ｐゴシック|b0|i0|c128|p50;REM
  7
STYLE1
 73
     1
 44
1.0
  0
CIRCLE
  5
2D0
330
24D
100
AcDbEntity
  8
画層1
 62
     3
100
AcDbCircle
 10
22.99999996829938
 20
84.99999969696339
 30
0.0
 40
1.0
  0
ARC
  5
2D1
330
24D
100
AcDbEntity
  8
画層1
 62
     3
100
AcDbCircle
 10
28.49999996829939
 20
87.59999969696343
 30
0.0
 40
1.0
100
AcDbArc
 50
90.00000000000005
 51
180.0
  0
HATCH
  5
2D2
330
24D
100
AcDbEntity
  8
画層1
 62
     1
100
AcDbHatch
 10
0.0
 20
0.0
 30
0.0
210
0.0
220
0.0
230
1.0
  2
AR-SAND
 70
     0
 71
     0
 91
        1
 92
        7
 72
     1
 73
     1
 93
        6
 10
34.49999996829939
 20
76.29999969696348
 42
0.4142135623730951
 10
35.4999999682994
 20
75.29999969696348
 42
0.0
 10
49.99999996829939
 20
75.29999969696345
 42
0.0
 10
49.99999996829939
 20
87.69999969696344
 42
0.0
 10
35.49999996829939
 20
87.69999969696344
 42
0.4142135623730951
 10
34.49999996829939
 20
86.69999969696347
 42
0.0
 97
        0
 75
     0
 76
     1
 52
0.0
 41
0.5
 77
     0
 78
     4
 53
37.5
 43
-74.00000003170067
 44
-126.0000003030365
 45
-0.8000156479920228
 46
24.4706618664671
 79
     6
 49
0.0
 49
-19.304
 49
0.0
 49
-21.59
 49
0.0
 49
-20.6375
 53
7.499999999999999
 43
-74.00000003170067
 44
-126.0000003030365
 45
22.47616415690012
 46
35.84125502841771
 79
     6
 49
0.0
 49
-10.414
 49
0.0
 49
-17.399
 49
0.0
 49
-6.6675
 53
327.4999999999999
 43
-89.62100003170064
 44
-126.0000003030365
 45
39.5496185120729
 46
0.0718592339272846
 79
     6
 49
0.0
 49
-6.349999999999998
 49
0.0
 49
-22.86
 49
0.0
 49
-29.845
 53
317.5
 43
-89.62100003170064
 44
-126.0000003030365
 45
38.17782262361486
 46
11.14646616286081
 79
     6
 49
0.0
 49
-3.174999999999998
 49
0.0
 49
-14.98599999999998
 49
0.0
 49
-17.145
 47
0.1900342009509423
 98
        1
 10
38.99999996829933
 20
79.99999969696339
  0
LINE
  5
2D3
330
24D
100
AcDbEntity
  8
画層1
 62
     3
100
AcDbLine
 10
34.49999996829939
 20
76.29999969696348
 30
0.0
 11
34.49999996829939
 21
86.69999969696347
 31
0.0
  0
ARC
  5
2D4
330
24D
100
AcDbEntity
  8
画層1
 62
     3
100
AcDbCircle
 10
35.4999999682994
 20
76.29999969696348
 30
0.0
 40
1.0
100
AcDbArc
 50
180.0
 51
270.0
  0
ARC
  5
2D5
330
24D
100
AcDbEntity
  8
画層1
 62
     3
100
AcDbCircle
 10
35.49999996829939
 20
86.69999969696347
 30
0.0
 40
1.0
100
AcDbArc
 50
90.0
 51
180.0
  0
LINE
  5
2D6
330
24D
100
AcDbEntity
  8
画層1
 62
     3
100
AcDbLine
 10
7.199999968299393
 20
99.19999969696348
 30
0.0
 11
4.199999968299407
 21
99.19999969696348
 31
0.0
  0
LINE
  5
2D7
330
24D
100
AcDbEntity
  8
画層1
 62
     3
100
AcDbLine
 10
7.199999968299393
 20
98.89999969696345
 30
0.0
 11
4.19999996829938
 21
98.89999969696345
 31
0.0
  0
LINE
  5
2D8
330
24D
100
AcDbEntity
  8
画層1
 62
     3
100
AcDbLine
 10
7.199999968299393
 20
98.59999969696344
 30
0.0
 11
4.199999968299393
 21
98.59999969696344
 31
0.0
  0
LINE
  5
2D9
330
24D
100
AcDbEntity
  8
画層1
 62
     3
100
AcDbLine
 10
7.199999968299393
 20
98.29999969696345
 30
0.0
 11
4.19999996829938
 21
98.29999969696345
 31
0.0
  0
LINE
  5
2DA
330
24D
100
AcDbEntity
  8
画層1
 62
     3
100
AcDbLine
 10
4.999999968298773
 20
97.99999969696344
 30
0.0
 11
4.19999996829938
 21
97.99999969696344
 31
0.0
  0
LINE
  5
2DB
330
24D
100
AcDbEntity
  8
画層1
 62
     3
100
AcDbLine
 10
7.199999968299393
 20
99.49999969696342
 30
0.0
 11
4.199999968299393
 21
99.49999969696342
 31
0.0
  0
LINE
  5
2DC
330
24D
100
AcDbEntity
  8
画層1
 62
     3
100
AcDbLine
 10
4.199999968299393
 20
99.49999969696342
 30
0.0
 11
4.199999968299393
 21
97.89136615592363
 31
0.0
  0
ARC
  5
2DD
330
24D
100
AcDbEntity
  8
画層1
 62
     3
100
AcDbCircle
 10
4.599999968299413
 20
95.3999996969634
 30
0.0
 40
0.5
100
AcDbArc
 50
90.0
 51
180.0
  0
LINE
  5
2DE
330
24D
100
AcDbEntity
  8
画層1
 62
     3
100
AcDbLine
 10
7.199999968299393
 20
97.99999969696344
 30
0.0
 11
7.199999968299393
 21
99.49999969696342
 31
0.0
  0
ARC
  5
2DF
330
24D
100
AcDbEntity
  8
画層1
 62
     3
100
AcDbCircle
 10
95.09999996829938
 20
95.09999969696336
 30
0.0
 40
1.0
100
AcDbArc
 50
0.0
 51
89.99999999999998
  0
ARC
  5
2E0
330
24D
100
AcDbEntity
  8
画層1
 62
     3
100
AcDbCircle
 10
94.9999999682994
 20
94.99999969696345
 30
0.0
 40
2.9
100
AcDbArc
 50
0.0
 51
90.0
  0
LINE
  5
2E1
330
24D
100
AcDbEntity
  8
画層1
 62
     3
100
AcDbLine
 10
95.89999996829936
 20
95.3999996969634
 30
0.0
 11
95.89999996829943
 21
4.599999696963436
 31
0.0
  0
LINE
  5
2E2
330
24D
100
AcDbEntity
  8
画層1
 62
     3
100
AcDbLine
 10
97.89999996829941
 20
94.99999969696345
 30
0.0
 11
97.89999996829942
 21
4.999999696963469
 31
0.0
  0
LINE
  5
2E3
330
24D
100
AcDbEntity
  8
画層1
 62
     3
100
AcDbLine
 10
96.09999996829941
 20
95.09999969696336
 30
0.0
 11
96.09999996829941
 21
4.899999696963448
 31
0.0
  0
LINE
  5
2E4
330
24D
100
AcDbEntity
  8
画層1
 62
     3
100
AcDbLine
 10
76.39999996829946
 20
54.59999969696339
 30
0.0
 11
76.39999996829939
 21
42.39999969696339
 31
0.0
  0
LINE
  5
2E5
330
24D
100
AcDbEntity
  8
画層1
 62
     3
100
AcDbLine
 10
86.99999996829935
 20
22.99999969696341
 30
0.0
 11
77.99999996829933
 21
22.99999969696341
 31
0.0
  0
MTEXT
  5
2E6
330
24D
100
AcDbEntity
  8
画層1
 62
     1
100
AcDbMText
 10
79.90253912052333
 20
18.4943045409035
 30
0.0
 40
2.2
 41
3.621999999999998
 71
     1
 72
     5
  1
\fＭＳ Ｐゴシック|b0|i0|c128|p50;ENT
  7
STYLE1
 73
     1
 44
1.0
  0
CIRCLE
  5
2E7
330
24D
100
AcDbEntity
  8
画層1
 62
     3
100
AcDbCircle
 10
82.4999999682994
 20
17.49999969696341
 30
0.0
 40
4.0
  0
MTEXT
  5
2E8
330
24D
100
AcDbEntity
  8
画層1
 62
     1
100
AcDbMText
 10
71.05639621180228
 20
8.565302047815293
 30
0.0
 40
1.6
 41
26.39601748031292
 71
     1
 72
     5
  1

  7
STYLE1
 73
     1
 44
1.0
  0
LINE
  5
2E9
330
24D
100
AcDbEntity
  8
画層1
 62
     3
100
AcDbLine
 10
77.99999996829933
 20
11.99999969696341
 30
0.0
 11
86.99999996829935
 21
11.99999969696341
 31
0.0
  0
LINE
  5
2EA
330
24D
100
AcDbEntity
  8
画層1
 62
     3
100
AcDbLine
 10
73.99999996829933
 20
22.99999969696341
 30
0.0
 11
64.99999996829934
 21
22.99999969696341
 31
0.0
  0
CIRCLE
  5
2EB
330
24D
100
AcDbEntity
  8
画層1
 62
     3
100
AcDbCircle
 10
69.49999996829939
 20
17.49999969696341
 30
0.0
 40
4.0
  0
LINE
  5
2EC
330
24D
100
AcDbEntity
  8
画層1
 62
     3
100
AcDbLine
 10
64.99999996829934
 20
11.99999969696341
 30
0.0
 11
73.99999996829933
 21
11.99999969696341
 31
0.0
  0
LINE
  5
2ED
330
24D
100
AcDbEntity
  8
画層1
 62
     3
100
AcDbLine
 10
63.99999996829933
 20
21.99999969696341
 30
0.0
 11
63.99999996829933
 21
12.99999969696341
 31
0.0
  0
LINE
  5
2EE
330
24D
100
AcDbEntity
  8
画層1
 62
     3
100
AcDbLine
 10
61.99999996829934
 20
12.99999969696341
 30
0.0
 11
61.99999996829934
 21
21.99999969696341
 31
0.0
  0
LINE
  5
2EF
330
24D
100
AcDbEntity
  8
画層1
 62
     3
100
AcDbLine
 10
50.99999996829933
 20
21.99999969696341
 30
0.0
 11
50.99999996829933
 21
12.99999969696341
 31
0.0
  0
CIRCLE
  5
2F0
330
24D
100
AcDbEntity
  8
画層1
 62
     3
100
AcDbCircle
 10
56.49999996829939
 20
17.49999969696341
 30
0.0
 40
4.0
  0
LINE
  5
2F1
330
24D
100
AcDbEntity
  8
画層1
 62
     3
100
AcDbLine
 10
51.99999996829934
 20
11.99999969696341
 30
0.0
 11
60.99999996829933
 21
11.99999969696341
 31
0.0
  0
ARC
  5
2F2
330
24D
100
AcDbEntity
  8
画層1
 62
     3
100
AcDbCircle
 10
51.99999996829934
 20
12.99999969696341
 30
0.0
 40
1.0
100
AcDbArc
 50
180.0
 51
270.0
  0
ARC
  5
2F3
330
24D
100
AcDbEntity
  8
画層1
 62
     3
100
AcDbCircle
 10
60.99999996829933
 20
12.99999969696341
 30
0.0
 40
1.0
100
AcDbArc
 50
270.0
 51
0.0
  0
ARC
  5
2F4
330
24D
100
AcDbEntity
  8
画層1
 62
     3
100
AcDbCircle
 10
64.99999996829934
 20
12.99999969696341
 30
0.0
 40
1.0
100
AcDbArc
 50
180.0
 51
270.0
  0
LINE
  5
2F5
330
24D
100
AcDbEntity
  8
画層1
 62
     3
100
AcDbLine
 10
60.99999996829933
 20
22.99999969696341
 30
0.0
 11
51.99999996829934
 21
22.99999969696341
 31
0.0
  0
MTEXT
  5
2F6
330
24D
100
AcDbEntity
  8
画層1
 62
     1
100
AcDbMText
 10
54.92003942640883
 20
19.12222570226412
 30
0.0
 40
2.2
 41
3.62197932128992
 71
     1
 72
     5
  1

  7
STYLE1
 73
     1
 44
1.0
  0
ARC
  5
2F7
330
24D
100
AcDbEntity
  8
画層1
 62
     3
100
AcDbCircle
 10
51.99999996829934
 20
21.99999969696341
 30
0.0
 40
1.0
100
AcDbArc
 50
90.0
 51
180.0
  0
ARC
  5
2F8
330
24D
100
AcDbEntity
  8
画層1
 62
     3
100
AcDbCircle
 10
60.99999996829933
 20
21.99999969696341
 30
0.0
 40
1.0
100
AcDbArc
 50
0.0
 51
90.0
  0
ARC
  5
2F9
330
24D
100
AcDbEntity
  8
画層1
 62
     3
100
AcDbCircle
 10
64.99999996829934
 20
21.99999969696341
 30
0.0
 40
1.0
100
AcDbArc
 50
90.0
 51
180.0
  0
LINE
  5
2FA
330
24D
100
AcDbEntity
  8
画層1
 62
     3
100
AcDbLine
 10
76.99999996829934
 20
21.99999969696341
 30
0.0
 11
76.99999996829934
 21
12.99999969696341
 31
0.0
  0
LINE
  5
2FB
330
24D
100
AcDbEntity
  8
画層1
 62
     3
100
AcDbLine
 10
74.99999996829934
 20
12.99999969696341
 30
0.0
 11
74.99999996829934
 21
21.99999969696341
 31
0.0
  0
ARC
  5
2FC
330
24D
100
AcDbEntity
  8
画層1
 62
     3
100
AcDbCircle
 10
73.99999996829933
 20
12.99999969696341
 30
0.0
 40
1.0
100
AcDbArc
 50
270.0
 51
0.0
  0
ARC
  5
2FD
330
24D
100
AcDbEntity
  8
画層1
 62
     3
100
AcDbCircle
 10
77.99999996829933
 20
12.99999969696341
 30
0.0
 40
1.0
100
AcDbArc
 50
180.0
 51
270.0
  0
ARC
  5
2FE
330
24D
100
AcDbEntity
  8
画層1
 62
     3
100
AcDbCircle
 10
73.99999996829933
 20
21.99999969696341
 30
0.0
 40
1.0
100
AcDbArc
 50
0.0
 51
90.0
  0
MTEXT
  5
2FF
330
24D
100
AcDbEntity
  8
画層1
 62
     1
100
AcDbMText
 10
67.96785646122919
 20
19.09659408681409
 30
0.0
 40
2.2
 41
3.62197932128992
 71
     1
 72
     5
  1

  7
STYLE1
 73
     1
 44
1.0
  0
ARC
  5
300
330
24D
100
AcDbEntity
  8
画層1
 62
     3
100
AcDbCircle
 10
77.99999996829933
 20
21.99999969696341
 30
0.0
 40
1.0
100
AcDbArc
 50
90.0
 51
180.0
  0
LINE
  5
301
330
24D
100
AcDbEntity
  8
画層1
 62
     3
100
AcDbLine
 10
76.39999996829939
 20
37.9999996969634
 30
0.0
 11
76.39999996829939
 21
27.99999969696344
 31
0.0
  0
ARC
  5
302
330
24D
100
AcDbEntity
  8
画層1
 62
     3
100
AcDbCircle
 10
75.39999996829941
 20
27.99999969696344
 30
0.0
 40
1.0
100
AcDbArc
 50
270.0
 51
0.0
  0
ARC
  5
303
330
24D
100
AcDbEntity
  8
画層1
 62
     3
100
AcDbCircle
 10
75.39999996829941
 20
42.39999969696339
 30
0.0
 40
1.0
100
AcDbArc
 50
270.0
 51
359.9999999999997
  0
ARC
  5
304
330
24D
100
AcDbEntity
  8
画層1
 62
     3
100
AcDbCircle
 10
75.39999996829941
 20
37.9999996969634
 30
0.0
 40
1.0
100
AcDbArc
 50
0.0
 51
90.0
  0
LINE
  5
305
330
24D
100
AcDbEntity
  8
画層1
 62
     3
100
AcDbLine
 10
87.99999996829933
 20
12.99999969696341
 30
0.0
 11
87.99999996829933
 21
21.99999969696341
 31
0.0
  0
ARC
  5
306
330
24D
100
AcDbEntity
  8
画層1
 62
     3
100
AcDbCircle
 10
86.99999996829935
 20
12.99999969696341
 30
0.0
 40
1.0
100
AcDbArc
 50
270.0
 51
0.0
  0
ARC
  5
307
330
24D
100
AcDbEntity
  8
画層1
 62
     3
100
AcDbCircle
 10
95.09999996829938
 20
4.899999696963448
 30
0.0
 40
1.0
100
AcDbArc
 50
270.0
 51
0.0
  0
ARC
  5
308
330
24D
100
AcDbEntity
  8
画層1
 62
     3
100
AcDbCircle
 10
95.39999996829942
 20
4.599999696963436
 30
0.0
 40
0.5
100
AcDbArc
 50
270.0
 51
0.0
  0
ARC
  5
309
330
24D
100
AcDbEntity
  8
画層1
 62
     3
100
AcDbCircle
 10
86.99999996829935
 20
21.99999969696341
 30
0.0
 40
1.0
100
AcDbArc
 50
0.0
 51
90.0
  0
MTEXT
  5
30A
330
24D
100
AcDbEntity
  8
画層1
 62
     1
100
AcDbMText
 10
80.04450628706321
 20
80.29936041011557
 30
0.0
 40
3.5
 41
6.125459143302231
 71
     1
 72
     5
  1

  7
STYLE1
 73
     1
 44
1.0
  0
ARC
  5
30B
330
24D
100
AcDbEntity
  8
画層1
 62
     3
100
AcDbCircle
 10
75.39999996829941
 20
71.09999969696341
 30
0.0
 40
1.0
100
AcDbArc
 50
359.9999999999998
 51
89.99999999999998
  0
LINE
  5
30C
330
24D
100
AcDbEntity
  8
画層1
 62
     3
100
AcDbLine
 10
76.39999996829941
 20
71.09999969696341
 30
0.0
 11
76.39999996829939
 21
58.89999969696343
 31
0.0
  0
ARC
  5
30D
330
24D
100
AcDbEntity
  8
画層1
 62
     3
100
AcDbCircle
 10
75.39999996829945
 20
54.59999969696339
 30
0.0
 40
1.0
100
AcDbArc
 50
359.9999999999998
 51
90.0000000000001
  0
ARC
  5
30E
330
24D
100
AcDbEntity
  8
画層1
 62
     3
100
AcDbCircle
 10
75.39999996829938
 20
58.89999969696343
 30
0.0
 40
1.0
100
AcDbArc
 50
270.0
 51
359.9999999999998
  0
LINE
  5
30F
330
24D
100
AcDbEntity
  8
画層1
 62
     3
100
AcDbLine
 10
76.39999996829941
 20
87.59999969696343
 30
0.0
 11
76.39999996829939
 21
75.39999969696339
 31
0.0
  0
LINE
  5
310
330
24D
100
AcDbEntity
  8
画層1
 62
     3
100
AcDbLine
 10
75.49999996829939
 20
86.69999969696347
 30
0.0
 11
75.49999996829936
 21
76.29999969696338
 31
0.0
  0
ARC
  5
311
330
24D
100
AcDbEntity
  8
画層1
 62
     3
100
AcDbCircle
 10
74.49999996829936
 20
76.29999969696338
 30
0.0
 40
1.0
100
AcDbArc
 50
270.0
 51
0.0
  0
ARC
  5
312
330
24D
100
AcDbEntity
  8
画層1
 62
     3
100
AcDbCircle
 10
75.39999996829938
 20
75.39999969696339
 30
0.0
 40
1.0
100
AcDbArc
 50
270.0
 51
359.9999999999998
  0
ARC
  5
313
330
24D
100
AcDbEntity
  8
画層1
 62
     3
100
AcDbCircle
 10
75.39999996829941
 20
87.59999969696343
 30
0.0
 40
1.0
100
AcDbArc
 50
359.9999999999998
 51
90.0
  0
ARC
  5
314
330
24D
100
AcDbEntity
  8
画層1
 62
     3
100
AcDbCircle
 10
74.49999996829939
 20
86.69999969696347
 30
0.0
 40
1.0
100
AcDbArc
 50
0.0
 51
90.0
  0
LINE
  5
315
330
24D
100
AcDbEntity
  8
画層1
 62
     3
100
AcDbLine
 10
92.79999996829941
 20
98.29999969696345
 30
0.0
 11
95.79999996829938
 21
98.29999969696345
 31
0.0
  0
LINE
  5
316
330
24D
100
AcDbEntity
  8
画層1
 62
     3
100
AcDbLine
 10
92.79999996829941
 20
98.59999969696344
 30
0.0
 11
95.79999996829938
 21
98.59999969696344
 31
0.0
  0
LINE
  5
317
330
24D
100
AcDbEntity
  8
画層1
 62
     3
100
AcDbLine
 10
92.79999996829941
 20
98.89999969696345
 30
0.0
 11
95.79999996829938
 21
98.89999969696345
 31
0.0
  0
LINE
  5
318
330
24D
100
AcDbEntity
  8
画層1
 62
     3
100
AcDbLine
 10
92.79999996829941
 20
99.19999969696348
 30
0.0
 11
95.79999996829938
 21
99.19999969696348
 31
0.0
  0
LINE
  5
319
330
24D
100
AcDbEntity
  8
画層1
 62
     3
100
AcDbLine
 10
92.79999996829941
 20
99.49999969696342
 30
0.0
 11
95.79999996829938
 21
99.49999969696342
 31
0.0
  0
LINE
  5
31A
330
24D
100
AcDbEntity
  8
画層1
 62
     3
100
AcDbLine
 10
92.79999996829941
 20
97.99999969696344
 30
0.0
 11
92.79999996829941
 21
99.49999969696342
 31
0.0
  0
LINE
  5
31B
330
24D
100
AcDbEntity
  8
画層1
 62
     3
100
AcDbLine
 10
94.9999999682994
 20
97.99999969696344
 30
0.0
 11
95.79999996829938
 21
97.99999969696344
 31
0.0
  0
LINE
  5
31C
330
24D
100
AcDbEntity
  8
画層1
 62
     3
100
AcDbLine
 10
95.79999996829938
 20
99.49999969696342
 30
0.0
 11
95.79999996829938
 21
97.89136615592363
 31
0.0
  0
ARC
  5
31D
330
24D
100
AcDbEntity
  8
画層1
 62
     3
100
AcDbCircle
 10
95.39999996829935
 20
95.3999996969634
 30
0.0
 40
0.5
100
AcDbArc
 50
0.0000000000000127
 51
90.0
  0
ENDBLK
  5
31F
330
24D
100
AcDbEntity
  8
0
 62
     0
100
AcDbBlockEnd
  0
BLOCK
  5
427
330
422
100
AcDbEntity
  8
0
 62
     0
100
AcDbBlockBegin
  2
A$C578C2886
 70
     0
 10
0.0
 20
0.0
 30
0.0
  3
A$C578C2886
  1

  0
MTEXT
  5
423
330
422
100
AcDbEntity
  8
画層1
 62
     1
100
AcDbMText
 10
0.4049724247884116
 20
27.8926812580496
 30
0.0
 40
3.5
 41
18.00656679492955
 71
     1
 72
     5
  1
ＭＲ１３
  7
STYLE1
 73
     1
 44
1.0
  0
MTEXT
  5
424
330
422
100
AcDbEntity
  8
画層1
 62
     1
100
AcDbMText
 10
24.02326058342976
 20
22.5793419311302
 30
0.0
 40
3.5
 41
70.79068911240745
 71
     1
 72
     5
  1
端子ネームプレート（貼）
  7
STYLE1
 73
     1
 44
1.0
  0
MTEXT
  5
425
330
422
100
AcDbEntity
  8
画層1
 62
     1
100
AcDbMText
 10
44.83815347707014
 20
5.869019989539765
 30
0.0
 40
4.5
 41
31.2253
 71
     1
 72
     5
  1
ZMR013-H6-61
  7
STYLE1
 73
     1
 44
1.0
  0
MTEXT
  5
426
330
422
100
AcDbEntity
  8
画層1
 62
     1
100
AcDbMText
 10
33.81394969583721
 20
34.98597992305473
 30
0.0
 40
2.5
 41
18.0
 71
     1
 72
     5
  1
1998-12-04
  7
STYLE1
 73
     1
 44
1.0
  0
ENDBLK
  5
428
330
422
100
AcDbEntity
  8
0
 62
     0
100
AcDbBlockEnd
  0
BLOCK
  5
1999
330
198F
100
AcDbEntity
  8
0
 62
     3
100
AcDbBlockBegin
  2
*D9
 70
     1
 10
0.0
 20
0.0
 30
0.0
  3
*D9
  1

  0
LINE
  5
199B
330
198F
100
AcDbEntity
  8
画層1
 62
     0
370
    -2
100
AcDbLine
 10
-224.9403009156646
 20
188.7757313520653
 30
0.0
 11
-224.9403009156646
 21
201.3187885409969
 31
0.0
  0
LINE
  5
199C
330
198F
100
AcDbEntity
  8
画層1
 62
     0
370
    -2
100
AcDbLine
 10
-174.9403009156646
 20
188.7757313520653
 30
0.0
 11
-174.9403009156646
 21
201.3187885409969
 31
0.0
  0
LINE
  5
199D
330
198F
100
AcDbEntity
  8
画層1
 62
     0
370
    -2
100
AcDbLine
 10
-223.4403009156646
 20
200.0687885409969
 30
0.0
 11
-176.4403009156646
 21
200.0687885409969
 31
0.0
  0
INSERT
  5
199E
330
198F
100
AcDbEntity
  8
画層1
 62
     0
370
    -2
100
AcDbBlockReference
  2
_OPEN30
 10
-224.9403009156646
 20
200.0687885409969
 30
0.0
 41
1.5
 42
1.5
 43
1.5
 50
180.0
  0
INSERT
  5
199F
330
198F
100
AcDbEntity
  8
画層1
 62
     0
370
    -2
100
AcDbBlockReference
  2
_OPEN30
 10
-174.9403009156646
 20
200.0687885409969
 30
0.0
 41
1.5
 42
1.5
 43
1.5
  0
MTEXT
  5
19A0
330
198F
100
AcDbEntity
  8
画層1
 62
     0
100
AcDbMText
 10
-199.9403009156646
 20
201.9437885409969
 30
0.0
 40
2.5
 41
0.0
 71
     5
 72
     1
  1
\A1;50
  7
STYLE1
 73
     1
 44
1.0
  0
POINT
  5
19A1
330
198F
100
AcDbEntity
  8
DEFPOINTS
 62
     0
100
AcDbPoint
 10
-224.9403009156646
 20
188.1507313520653
 30
0.0
  0
POINT
  5
19A2
330
198F
100
AcDbEntity
  8
DEFPOINTS
 62
     0
100
AcDbPoint
 10
-174.9403009156646
 20
188.1507313520653
 30
0.0
  0
POINT
  5
19A3
330
198F
100
AcDbEntity
  8
DEFPOINTS
 62
     0
100
AcDbPoint
 10
-174.9403009156646
 20
200.0687885409969
 30
0.0
  0
ENDBLK
  5
199A
330
198F
100
AcDbEntity
  8
0
 62
     3
100
AcDbBlockEnd
  0
BLOCK
  5
19AF
330
19A5
100
AcDbEntity
  8
0
 62
     3
100
AcDbBlockBegin
  2
*D10
 70
     1
 10
0.0
 20
0.0
 30
0.0
  3
*D10
  1

  0
LINE
  5
1B71
330
19A5
100
AcDbEntity
  8
画層1
 62
     0
370
    -2
100
AcDbLine
 10
-154.9403009156646
 20
187.7757313520653
 30
0.0
 11
-154.9403009156646
 21
201.3187885409969
 31
0.0
  0
LINE
  5
1B72
330
19A5
100
AcDbEntity
  8
画層1
 62
     0
370
    -2
100
AcDbLine
 10
-54.94030091566469
 20
189.7757313520653
 30
0.0
 11
-54.94030091566469
 21
201.3187885409969
 31
0.0
  0
LINE
  5
1B73
330
19A5
100
AcDbEntity
  8
画層1
 62
     0
370
    -2
100
AcDbLine
 10
-153.4403009156647
 20
200.0687885409969
 30
0.0
 11
-56.44030091566469
 21
200.0687885409969
 31
0.0
  0
INSERT
  5
1B74
330
19A5
100
AcDbEntity
  8
画層1
 62
     0
370
    -2
100
AcDbBlockReference
  2
_OPEN30
 10
-154.9403009156646
 20
200.0687885409969
 30
0.0
 41
1.5
 42
1.5
 43
1.5
 50
180.0
  0
INSERT
  5
1B75
330
19A5
100
AcDbEntity
  8
画層1
 62
     0
370
    -2
100
AcDbBlockReference
  2
_OPEN30
 10
-54.94030091566469
 20
200.0687885409969
 30
0.0
 41
1.5
 42
1.5
 43
1.5
  0
MTEXT
  5
1B76
330
19A5
100
AcDbEntity
  8
画層1
 62
     0
100
AcDbMText
 10
-104.9403009156645
 20
201.9437885409969
 30
0.0
 40
2.5
 41
0.0
 71
     5
 72
     1
  1
\A1;100
  7
STYLE1
 73
     1
 44
1.0
  0
POINT
  5
1B77
330
19A5
100
AcDbEntity
  8
DEFPOINTS
 62
     0
100
AcDbPoint
 10
-154.9403009156646
 20
187.1507313520653
 30
0.0
  0
POINT
  5
1B78
330
19A5
100
AcDbEntity
  8
DEFPOINTS
 62
     0
100
AcDbPoint
 10
-54.94030091566469
 20
189.1507313520653
 30
0.0
  0
POINT
  5
1B79
330
19A5
100
AcDbEntity
  8
DEFPOINTS
 62
     0
100
AcDbPoint
 10
-54.94030091566469
 20
200.0687885409969
 30
0.0
  0
ENDBLK
  5
19B0
330
19A5
100
AcDbEntity
  8
0
 62
     3
100
AcDbBlockEnd
  0
BLOCK
  5
19C5
330
19BB
100
AcDbEntity
  8
0
 62
     1
100
AcDbBlockBegin
  2
*D11
 70
     1
 10
0.0
 20
0.0
 30
0.0
  3
*D11
  1

  0
LINE
  5
1B7A
330
19BB
100
AcDbEntity
  8
画層1
 62
     0
370
    -2
100
AcDbLine
 10
-54.94030091566469
 20
189.7757313520653
 30
0.0
 11
-54.94030091566469
 21
201.3187885409969
 31
0.0
  0
LINE
  5
1B7B
330
19BB
100
AcDbEntity
  8
画層1
 62
     0
370
    -2
100
AcDbLine
 10
-34.9403009156647
 20
189.7757313520653
 30
0.0
 11
-34.9403009156647
 21
201.3187885409969
 31
0.0
  0
LINE
  5
1B7C
330
19BB
100
AcDbEntity
  8
画層1
 62
     0
370
    -2
100
AcDbLine
 10
-53.4403009156647
 20
200.0687885409969
 30
0.0
 11
-36.4403009156647
 21
200.0687885409969
 31
0.0
  0
INSERT
  5
1B7D
330
19BB
100
AcDbEntity
  8
画層1
 62
     0
370
    -2
100
AcDbBlockReference
  2
_OPEN30
 10
-54.94030091566469
 20
200.0687885409969
 30
0.0
 41
1.5
 42
1.5
 43
1.5
 50
180.0
  0
INSERT
  5
1B7E
330
19BB
100
AcDbEntity
  8
画層1
 62
     0
370
    -2
100
AcDbBlockReference
  2
_OPEN30
 10
-34.9403009156647
 20
200.0687885409969
 30
0.0
 41
1.5
 42
1.5
 43
1.5
  0
MTEXT
  5
1B7F
330
19BB
100
AcDbEntity
  8
画層1
 62
     0
100
AcDbMText
 10
-44.9403009156647
 20
201.9437885409969
 30
0.0
 40
2.5
 41
0.0
 71
     5
 72
     1
  1
\A1;20
  7
STYLE1
 73
     1
 44
1.0
  0
POINT
  5
1B80
330
19BB
100
AcDbEntity
  8
DEFPOINTS
 62
     0
100
AcDbPoint
 10
-54.94030091566469
 20
189.1507313520653
 30
0.0
  0
POINT
  5
1B81
330
19BB
100
AcDbEntity
  8
DEFPOINTS
 62
     0
100
AcDbPoint
 10
-34.9403009156647
 20
189.1507313520653
 30
0.0
  0
POINT
  5
1B82
330
19BB
100
AcDbEntity
  8
DEFPOINTS
 62
     0
100
AcDbPoint
 10
-34.9403009156647
 20
200.0687885409969
 30
0.0
  0
ENDBLK
  5
19C6
330
19BB
100
AcDbEntity
  8
0
 62
     1
100
AcDbBlockEnd
  0
BLOCK
  5
19D2
330
19C8
100
AcDbEntity
  8
0
 62
     1
100
AcDbBlockBegin
  2
*D12
 70
     1
 10
0.0
 20
0.0
 30
0.0
  3
*D12
  1

  0
LINE
  5
1B68
330
19C8
100
AcDbEntity
  8
画層1
 62
     0
370
    -2
100
AcDbLine
 10
-154.9403009156646
 20
187.7757313520653
 30
0.0
 11
-154.9403009156646
 21
208.962053392632
 31
0.0
  0
LINE
  5
1B69
330
19C8
100
AcDbEntity
  8
画層1
 62
     0
370
    -2
100
AcDbLine
 10
-34.9403009156647
 20
189.7757313520653
 30
0.0
 11
-34.9403009156647
 21
208.962053392632
 31
0.0
  0
LINE
  5
1B6A
330
19C8
100
AcDbEntity
  8
画層1
 62
     0
370
    -2
100
AcDbLine
 10
-153.4403009156647
 20
207.7120533926321
 30
0.0
 11
-36.4403009156647
 21
207.7120533926321
 31
0.0
  0
INSERT
  5
1B6B
330
19C8
100
AcDbEntity
  8
画層1
 62
     0
370
    -2
100
AcDbBlockReference
  2
_OPEN30
 10
-154.9403009156646
 20
207.7120533926321
 30
0.0
 41
1.5
 42
1.5
 43
1.5
 50
180.0
  0
INSERT
  5
1B6C
330
19C8
100
AcDbEntity
  8
画層1
 62
     0
370
    -2
100
AcDbBlockReference
  2
_OPEN30
 10
-34.9403009156647
 20
207.7120533926321
 30
0.0
 41
1.5
 42
1.5
 43
1.5
  0
MTEXT
  5
1B6D
330
19C8
100
AcDbEntity
  8
画層1
 62
     0
100
AcDbMText
 10
-94.9403009156647
 20
209.5870533926321
 30
0.0
 40
2.5
 41
0.0
 71
     5
 72
     1
  1
\A1;120
  7
STYLE1
 73
     1
 44
1.0
  0
POINT
  5
1B6E
330
19C8
100
AcDbEntity
  8
DEFPOINTS
 62
     0
100
AcDbPoint
 10
-154.9403009156646
 20
187.1507313520653
 30
0.0
  0
POINT
  5
1B6F
330
19C8
100
AcDbEntity
  8
DEFPOINTS
 62
     0
100
AcDbPoint
 10
-34.9403009156647
 20
189.1507313520653
 30
0.0
  0
POINT
  5
1B70
330
19C8
100
AcDbEntity
  8
DEFPOINTS
 62
     0
100
AcDbPoint
 10
-34.9403009156647
 20
207.7120533926321
 30
0.0
  0
ENDBLK
  5
19D3
330
19C8
100
AcDbEntity
  8
0
 62
     1
100
AcDbBlockEnd
  0
BLOCK
  5
19DF
330
19D5
100
AcDbEntity
  8
0
 62
     1
100
AcDbBlockBegin
  2
*D13
 70
     1
 10
0.0
 20
0.0
 30
0.0
  3
*D13
  1

  0
LINE
  5
1B5F
330
19D5
100
AcDbEntity
  8
画層1
 62
     0
370
    -2
100
AcDbLine
 10
-34.31530091566469
 20
131.4507313520654
 30
0.0
 11
-22.9069228312618
 21
131.4507313520654
 31
0.0
  0
LINE
  5
1B60
330
19D5
100
AcDbEntity
  8
画層1
 62
     0
370
    -2
100
AcDbLine
 10
-34.31530091566469
 20
166.8507313520654
 30
0.0
 11
-22.90692283126178
 21
166.8507313520654
 31
0.0
  0
LINE
  5
1B61
330
19D5
100
AcDbEntity
  8
画層1
 62
     0
370
    -2
100
AcDbLine
 10
-24.1569228312618
 20
132.9507313520654
 30
0.0
 11
-24.15692283126178
 21
165.3507313520654
 31
0.0
  0
INSERT
  5
1B62
330
19D5
100
AcDbEntity
  8
画層1
 62
     0
370
    -2
100
AcDbBlockReference
  2
_OPEN30
 10
-24.1569228312618
 20
131.4507313520654
 30
0.0
 41
1.5
 42
1.5
 43
1.5
 50
270.0
  0
INSERT
  5
1B63
330
19D5
100
AcDbEntity
  8
画層1
 62
     0
370
    -2
100
AcDbBlockReference
  2
_OPEN30
 10
-24.15692283126178
 20
166.8507313520654
 30
0.0
 41
1.5
 42
1.5
 43
1.5
 50
90.0
  0
MTEXT
  5
1B64
330
19D5
100
AcDbEntity
  8
画層1
 62
     0
100
AcDbMText
 10
-26.03192283126182
 20
149.1507313520654
 30
0.0
 40
2.5
 41
0.0
 71
     5
 72
     1
  1
\A1;35.4
  7
STYLE1
 11
0.0000000000000001
 21
1.0
 31
0.0
 73
     1
 44
1.0
  0
POINT
  5
1B65
330
19D5
100
AcDbEntity
  8
DEFPOINTS
 62
     0
100
AcDbPoint
 10
-34.94030091566469
 20
131.4507313520654
 30
0.0
  0
POINT
  5
1B66
330
19D5
100
AcDbEntity
  8
DEFPOINTS
 62
     0
100
AcDbPoint
 10
-34.94030091566469
 20
166.8507313520654
 30
0.0
  0
POINT
  5
1B67
330
19D5
100
AcDbEntity
  8
DEFPOINTS
 62
     0
100
AcDbPoint
 10
-24.15692283126178
 20
166.8507313520654
 30
0.0
  0
ENDBLK
  5
19E0
330
19D5
100
AcDbEntity
  8
0
 62
     1
100
AcDbBlockEnd
  0
BLOCK
  5
19EE
330
19E4
100
AcDbEntity
  8
0
 62
     1
100
AcDbBlockBegin
  2
*D14
 70
     1
 10
0.0
 20
0.0
 30
0.0
  3
*D14
  1

  0
LINE
  5
1BD0
330
19E4
100
AcDbEntity
  8
画層1
 62
     0
370
    -2
100
AcDbLine
 10
20.4346990843353
 20
189.1507313520653
 30
0.0
 11
-10.25604273006397
 21
189.1507313520653
 31
0.0
  0
LINE
  5
1BD1
330
19E4
100
AcDbEntity
  8
画層1
 62
     0
370
    -2
100
AcDbLine
 10
11.9346990843353
 20
109.1507313520654
 30
0.0
 11
-10.25604273006399
 21
109.1507313520654
 31
0.0
  0
LINE
  5
1BD2
330
19E4
100
AcDbEntity
  8
画層1
 62
     0
370
    -2
100
AcDbLine
 10
-9.006042730063978
 20
187.6507313520653
 30
0.0
 11
-9.006042730063994
 21
110.6507313520654
 31
0.0
  0
INSERT
  5
1BD3
330
19E4
100
AcDbEntity
  8
画層1
 62
     0
370
    -2
100
AcDbBlockReference
  2
_OPEN30
 10
-9.006042730063976
 20
189.1507313520653
 30
0.0
 41
1.5
 42
1.5
 43
1.5
 50
90.0
  0
INSERT
  5
1BD4
330
19E4
100
AcDbEntity
  8
画層1
 62
     0
370
    -2
100
AcDbBlockReference
  2
_OPEN30
 10
-9.006042730063994
 20
109.1507313520654
 30
0.0
 41
1.5
 42
1.5
 43
1.5
 50
270.0
  0
MTEXT
  5
1BD5
330
19E4
100
AcDbEntity
  8
画層1
 62
     0
100
AcDbMText
 10
-11.00160110569852
 20
149.1507313520654
 30
0.0
 40
2.5
 41
0.0
 71
     5
 72
     1
  1
\A1;81以下
  7
STYLE1
 11
0.0000000000000001
 21
1.0
 31
0.0
 73
     1
 44
1.0
  0
POINT
  5
1BD6
330
19E4
100
AcDbEntity
  8
DEFPOINTS
 62
     0
100
AcDbPoint
 10
21.0596990843353
 20
189.1507313520653
 30
0.0
  0
POINT
  5
1BD7
330
19E4
100
AcDbEntity
  8
DEFPOINTS
 62
     0
100
AcDbPoint
 10
12.5596990843353
 20
109.1507313520654
 30
0.0
  0
POINT
  5
1BD8
330
19E4
100
AcDbEntity
  8
DEFPOINTS
 62
     0
100
AcDbPoint
 10
-9.006042730063994
 20
109.1507313520654
 30
0.0
  0
ENDBLK
  5
19EF
330
19E4
100
AcDbEntity
  8
0
 62
     1
100
AcDbBlockEnd
  0
BLOCK
  5
19FD
330
19F1
100
AcDbEntity
  8
0
 62
     1
100
AcDbBlockBegin
  2
*D15
 70
     1
 10
0.0
 20
0.0
 30
0.0
  3
*D15
  1

  0
LINE
  5
1BEB
330
19F1
100
AcDbEntity
  8
画層1
 62
     0
370
    -2
100
AcDbLine
 10
11.9346990843353
 20
109.1507313520654
 30
0.0
 11
-10.25604273006399
 21
109.1507313520654
 31
0.0
  0
LINE
  5
1BEC
330
19F1
100
AcDbEntity
  8
画層1
 62
     0
370
    -2
100
AcDbLine
 10
21.9346990843353
 20
105.1507313520654
 30
0.0
 11
-10.25604273006399
 21
105.1507313520654
 31
0.0
  0
LINE
  5
1BED
330
19F1
100
AcDbEntity
  8
画層1
 62
     0
370
    -2
100
AcDbLine
 10
-9.006042730063994
 20
110.6507313520654
 30
0.0
 11
-9.006042730063994
 21
112.1507313520654
 31
0.0
  0
LINE
  5
1BEE
330
19F1
100
AcDbEntity
  8
画層1
 62
     0
370
    -2
100
AcDbLine
 10
-9.006042730063994
 20
103.6507313520654
 30
0.0
 11
-9.006042730063994
 21
102.1507313520654
 31
0.0
  0
LINE
  5
1BEF
330
19F1
100
AcDbEntity
  8
画層1
 62
     0
370
    -2
100
AcDbLine
 10
-9.006042730063994
 20
109.1507313520654
 30
0.0
 11
-9.006042730063994
 21
105.1507313520654
 31
0.0
  0
INSERT
  5
1BF0
330
19F1
100
AcDbEntity
  8
画層1
 62
     0
370
    -2
100
AcDbBlockReference
  2
_OPEN30
 10
-9.006042730063994
 20
109.1507313520654
 30
0.0
 41
1.5
 42
1.5
 43
1.5
 50
270.0
  0
INSERT
  5
1BF1
330
19F1
100
AcDbEntity
  8
画層1
 62
     0
370
    -2
100
AcDbBlockReference
  2
_OPEN30
 10
-9.006042730063994
 20
105.1507313520654
 30
0.0
 41
1.5
 42
1.5
 43
1.5
 50
90.0
  0
MTEXT
  5
1BF2
330
19F1
100
AcDbEntity
  8
画層1
 62
     0
100
AcDbMText
 10
-10.88104273006401
 20
107.1507313520654
 30
0.0
 40
2.5
 41
0.0
 71
     5
 72
     1
  1
\A1;4
  7
STYLE1
 11
0.0000000000000001
 21
1.0
 31
0.0
 73
     1
 44
1.0
  0
POINT
  5
1BF3
330
19F1
100
AcDbEntity
  8
DEFPOINTS
 62
     0
100
AcDbPoint
 10
12.5596990843353
 20
109.1507313520654
 30
0.0
  0
POINT
  5
1BF4
330
19F1
100
AcDbEntity
  8
DEFPOINTS
 62
     0
100
AcDbPoint
 10
22.5596990843353
 20
105.1507313520654
 30
0.0
  0
POINT
  5
1BF5
330
19F1
100
AcDbEntity
  8
DEFPOINTS
 62
     0
100
AcDbPoint
 10
-9.006042730063994
 20
105.1507313520654
 30
0.0
  0
ENDBLK
  5
19FE
330
19F1
100
AcDbEntity
  8
0
 62
     1
100
AcDbBlockEnd
  0
BLOCK
  5
1A87
330
1A7D
100
AcDbEntity
  8
0
 62
     1
100
AcDbBlockBegin
  2
*D16
 70
     1
 10
0.0
 20
0.0
 30
0.0
  3
*D16
  1

  0
LINE
  5
1BD9
330
1A7D
100
AcDbEntity
  8
画層1
 62
     0
370
    -2
100
AcDbLine
 10
5.059699084335311
 20
148.5257313520654
 30
0.0
 11
5.059699084335306
 21
96.51992490413412
 31
0.0
  0
LINE
  5
1BDA
330
1A7D
100
AcDbEntity
  8
画層1
 62
     0
370
    -2
100
AcDbLine
 10
45.0596990843353
 20
148.5257313520654
 30
0.0
 11
45.0596990843353
 21
96.51992490413412
 31
0.0
  0
LINE
  5
1BDB
330
1A7D
100
AcDbEntity
  8
画層1
 62
     0
370
    -2
100
AcDbLine
 10
6.559699084335307
 20
97.76992490413412
 30
0.0
 11
43.55969908433531
 21
97.76992490413412
 31
0.0
  0
INSERT
  5
1BDC
330
1A7D
100
AcDbEntity
  8
画層1
 62
     0
370
    -2
100
AcDbBlockReference
  2
_OPEN30
 10
5.059699084335306
 20
97.76992490413412
 30
0.0
 41
1.5
 42
1.5
 43
1.5
 50
180.0
  0
INSERT
  5
1BDD
330
1A7D
100
AcDbEntity
  8
画層1
 62
     0
370
    -2
100
AcDbBlockReference
  2
_OPEN30
 10
45.0596990843353
 20
97.76992490413412
 30
0.0
 41
1.5
 42
1.5
 43
1.5
  0
MTEXT
  5
1BDE
330
1A7D
100
AcDbEntity
  8
画層1
 62
     0
100
AcDbMText
 10
25.0596990843353
 20
99.64492490413412
 30
0.0
 40
2.5
 41
0.0
 71
     5
 72
     1
  1
\A2;40{\H1.500000;±0.2}
  7
STYLE1
 73
     1
 44
1.0
  0
POINT
  5
1BDF
330
1A7D
100
AcDbEntity
  8
DEFPOINTS
 62
     0
100
AcDbPoint
 10
5.059699084335311
 20
149.1507313520654
 30
0.0
  0
POINT
  5
1BE0
330
1A7D
100
AcDbEntity
  8
DEFPOINTS
 62
     0
100
AcDbPoint
 10
45.0596990843353
 20
149.1507313520654
 30
0.0
  0
POINT
  5
1BE1
330
1A7D
100
AcDbEntity
  8
DEFPOINTS
 62
     0
100
AcDbPoint
 10
45.0596990843353
 20
97.76992490413412
 30
0.0
  0
ENDBLK
  5
1A88
330
1A7D
100
AcDbEntity
  8
0
 62
     1
100
AcDbBlockEnd
  0
BLOCK
  5
1A94
330
1A8A
100
AcDbEntity
  8
0
 62
     1
100
AcDbBlockBegin
  2
*D17
 70
     1
 10
0.0
 20
0.0
 30
0.0
  3
*D17
  1

  0
LINE
  5
1BE2
330
1A8A
100
AcDbEntity
  8
画層1
 62
     0
370
    -2
100
AcDbLine
 10
0.0596990843353078
 20
110.5257313520654
 30
0.0
 11
0.0596990843353064
 21
88.79445973508209
 31
0.0
  0
LINE
  5
1BE3
330
1A8A
100
AcDbEntity
  8
画層1
 62
     0
370
    -2
100
AcDbLine
 10
50.05969908433531
 20
110.5257313520654
 30
0.0
 11
50.05969908433531
 21
88.79445973508209
 31
0.0
  0
LINE
  5
1BE4
330
1A8A
100
AcDbEntity
  8
画層1
 62
     0
370
    -2
100
AcDbLine
 10
1.559699084335306
 20
90.04445973508209
 30
0.0
 11
48.55969908433531
 21
90.04445973508209
 31
0.0
  0
INSERT
  5
1BE5
330
1A8A
100
AcDbEntity
  8
画層1
 62
     0
370
    -2
100
AcDbBlockReference
  2
_OPEN30
 10
0.0596990843353065
 20
90.04445973508209
 30
0.0
 41
1.5
 42
1.5
 43
1.5
 50
180.0
  0
INSERT
  5
1BE6
330
1A8A
100
AcDbEntity
  8
画層1
 62
     0
370
    -2
100
AcDbBlockReference
  2
_OPEN30
 10
50.05969908433531
 20
90.04445973508209
 30
0.0
 41
1.5
 42
1.5
 43
1.5
  0
MTEXT
  5
1BE7
330
1A8A
100
AcDbEntity
  8
画層1
 62
     0
100
AcDbMText
 10
25.0596990843353
 20
92.04001811071659
 30
0.0
 40
2.5
 41
0.0
 71
     5
 72
     1
  1
\A1;51以下
  7
STYLE1
 73
     1
 44
1.0
  0
POINT
  5
1BE8
330
1A8A
100
AcDbEntity
  8
DEFPOINTS
 62
     0
100
AcDbPoint
 10
0.0596990843353078
 20
111.1507313520654
 30
0.0
  0
POINT
  5
1BE9
330
1A8A
100
AcDbEntity
  8
DEFPOINTS
 62
     0
100
AcDbPoint
 10
50.05969908433531
 20
111.1507313520654
 30
0.0
  0
POINT
  5
1BEA
330
1A8A
100
AcDbEntity
  8
DEFPOINTS
 62
     0
100
AcDbPoint
 10
50.05969908433531
 20
90.04445973508209
 30
0.0
  0
ENDBLK
  5
1A95
330
1A8A
100
AcDbEntity
  8
0
 62
     1
100
AcDbBlockEnd
  0
BLOCK
  5
1AA1
330
1A97
100
AcDbEntity
  8
0
 62
     1
100
AcDbBlockBegin
  2
*D18
 70
     1
 10
0.0
 20
0.0
 30
0.0
  3
*D18
  1

  0
LINE
  5
1BF6
330
1A97
100
AcDbEntity
  8
画層1
 62
     0
370
    -2
100
AcDbLine
 10
39.35969908433529
 20
187.7757313520653
 30
0.0
 11
39.35969908433529
 21
201.2752950918033
 31
0.0
  0
LINE
  5
1BF7
330
1A97
100
AcDbEntity
  8
画層1
 62
     0
370
    -2
100
AcDbLine
 10
47.15969908433527
 20
187.7757313520653
 30
0.0
 11
47.15969908433527
 21
201.2752950918033
 31
0.0
  0
LINE
  5
1BF8
330
1A97
100
AcDbEntity
  8
画層1
 62
     0
370
    -2
100
AcDbLine
 10
45.65969908433529
 20
200.0252950918034
 30
0.0
 11
40.85969908433528
 21
200.0252950918034
 31
0.0
  0
LINE
  5
1BF9
330
1A97
100
AcDbEntity
  8
画層1
 62
     0
370
    -2
100
AcDbLine
 10
39.35969908433529
 20
200.0252950918034
 30
0.0
 11
27.17315086098503
 21
200.0252950918034
 31
0.0
  0
INSERT
  5
1BFA
330
1A97
100
AcDbEntity
  8
画層1
 62
     0
370
    -2
100
AcDbBlockReference
  2
_OPEN30
 10
47.15969908433527
 20
200.0252950918034
 30
0.0
 41
1.5
 42
1.5
 43
1.5
  0
INSERT
  5
1BFB
330
1A97
100
AcDbEntity
  8
画層1
 62
     0
370
    -2
100
AcDbBlockReference
  2
_OPEN30
 10
39.35969908433529
 20
200.0252950918034
 30
0.0
 41
1.5
 42
1.5
 43
1.5
 50
180.0
  0
MTEXT
  5
1BFC
330
1A97
100
AcDbEntity
  8
画層1
 62
     0
100
AcDbMText
 10
32.51642497266016
 20
201.9002950918034
 30
0.0
 40
2.5
 41
0.0
 71
     5
 72
     1
  1
\A2;7.8{\H1.500000;±0.2}
  7
STYLE1
 73
     1
 44
1.0
  0
POINT
  5
1BFD
330
1A97
100
AcDbEntity
  8
DEFPOINTS
 62
     0
100
AcDbPoint
 10
39.35969908433529
 20
187.1507313520653
 30
0.0
  0
POINT
  5
1BFE
330
1A97
100
AcDbEntity
  8
DEFPOINTS
 62
     0
100
AcDbPoint
 10
47.15969908433527
 20
187.1507313520653
 30
0.0
  0
POINT
  5
1BFF
330
1A97
100
AcDbEntity
  8
DEFPOINTS
 62
     0
100
AcDbPoint
 10
47.15969908433527
 20
200.0252950918034
 30
0.0
  0
ENDBLK
  5
1AA2
330
1A97
100
AcDbEntity
  8
0
 62
     1
100
AcDbBlockEnd
  0
BLOCK
  5
1AB6
330
1AAC
100
AcDbEntity
  8
0
 62
     1
100
AcDbBlockBegin
  2
*D19
 70
     1
 10
0.0
 20
0.0
 30
0.0
  3
*D19
  1

  0
LINE
  5
1AAD
330
1AAC
100
AcDbEntity
  8
画層1
 62
     0
370
    -2
100
AcDbLine
 10
-175.3153009156646
 20
189.1507313520653
 30
0.0
 11
-163.9194554256249
 21
189.1507313520653
 31
0.0
  0
LINE
  5
1AAE
330
1AAC
100
AcDbEntity
  8
画層1
 62
     0
370
    -2
100
AcDbLine
 10
-175.3153009156646
 20
109.1507313520654
 30
0.0
 11
-163.9194554256249
 21
109.1507313520654
 31
0.0
  0
LINE
  5
1AAF
330
1AAC
100
AcDbEntity
  8
画層1
 62
     0
370
    -2
100
AcDbLine
 10
-165.1694554256249
 20
187.6507313520653
 30
0.0
 11
-165.1694554256249
 21
110.6507313520654
 31
0.0
  0
INSERT
  5
1AB0
330
1AAC
100
AcDbEntity
  8
画層1
 62
     0
370
    -2
100
AcDbBlockReference
  2
_OPEN30
 10
-165.1694554256249
 20
189.1507313520653
 30
0.0
 41
1.5
 42
1.5
 43
1.5
 50
90.0
  0
INSERT
  5
1AB1
330
1AAC
100
AcDbEntity
  8
画層1
 62
     0
370
    -2
100
AcDbBlockReference
  2
_OPEN30
 10
-165.1694554256249
 20
109.1507313520654
 30
0.0
 41
1.5
 42
1.5
 43
1.5
 50
270.0
  0
MTEXT
  5
1AB2
330
1AAC
100
AcDbEntity
  8
画層1
 62
     0
100
AcDbMText
 10
-167.0444554256249
 20
149.1507313520654
 30
0.0
 40
2.5
 41
0.0
 71
     5
 72
     1
  1
\A1;80
  7
STYLE1
 11
0.0000000000000001
 21
1.0
 31
0.0
 73
     1
 44
1.0
  0
POINT
  5
1AB3
330
1AAC
100
AcDbEntity
  8
DEFPOINTS
 62
     0
100
AcDbPoint
 10
-175.9403009156646
 20
189.1507313520653
 30
0.0
  0
POINT
  5
1AB4
330
1AAC
100
AcDbEntity
  8
DEFPOINTS
 62
     0
100
AcDbPoint
 10
-175.9403009156646
 20
109.1507313520654
 30
0.0
  0
POINT
  5
1AB5
330
1AAC
100
AcDbEntity
  8
DEFPOINTS
 62
     0
100
AcDbPoint
 10
-165.1694554256249
 20
109.1507313520654
 30
0.0
  0
ENDBLK
  5
1AB7
330
1AAC
100
AcDbEntity
  8
0
 62
     1
100
AcDbBlockEnd
  0
BLOCK
  5
1ABA
330
1AB8
100
AcDbEntity
  8
0
 62
     1
100
AcDbBlockBegin
  2
_DotSmall
 70
     0
 10
0.0
 20
0.0
 30
0.0
  3
_DotSmall
  1

  0
LWPOLYLINE
  5
1AB9
330
1AB8
100
AcDbEntity
  8
画層1
 62
     0
100
AcDbPolyline
 90
        2
 70
     1
 43
0.5
 10
-0.0625
 20
0.0
 42
1.0
 10
0.0625
 20
0.0
 42
1.0
  0
ENDBLK
  5
1ABB
330
1AB8
100
AcDbEntity
  8
0
 62
     1
100
AcDbBlockEnd
  0
ENDSEC
  0
SECTION
  2
ENTITIES
  0
MTEXT
  5
6D
330
18
100
AcDbEntity
  8
0
100
AcDbMText
 10
-11.0
 20
49.0
 30
0.0
 40
2.5
 41
9.0
 71
     1
 72
     5
  1

 73
     1
 44
1.0
  0
MTEXT
  5
E2
330
18
100
AcDbEntity
  8
0
100
AcDbMText
 10
85.5
 20
244.4999999999999
 30
0.0
 40
2.5
 41
5.5
 71
     1
 72
     5
  1

 73
     1
 44
1.0
  0
LINE
  5
1654
330
18
100
AcDbEntity
  8
画層1
 62
     3
100
AcDbLine
 10
-223.9403009156645
 20
189.1507313520653
 30
0.0
 11
-175.9403009156646
 21
189.1507313520653
 31
0.0
  0
LINE
  5
1655
330
18
100
AcDbEntity
  8
画層1
 62
     3
100
AcDbLine
 10
-174.9403009156646
 20
188.1507313520653
 30
0.0
 11
-174.9403009156646
 21
110.1507313520654
 31
0.0
  0
LINE
  5
1656
330
18
100
AcDbEntity
  8
画層1
 62
     3
100
AcDbLine
 10
-175.9403009156646
 20
109.1507313520654
 30
0.0
 11
-223.9403009156646
 21
109.1507313520654
 31
0.0
  0
LINE
  5
1657
330
18
100
AcDbEntity
  8
画層1
 62
     3
100
AcDbLine
 10
-224.9403009156646
 20
110.1507313520654
 30
0.0
 11
-224.9403009156646
 21
188.1507313520653
 31
0.0
  0
LINE
  5
1658
330
18
100
AcDbEntity
  8
画層1
 62
     3
100
AcDbLine
 10
-222.9403009156646
 20
188.1507313520653
 30
0.0
 11
-176.9403009156646
 21
188.1507313520653
 31
0.0
  0
LINE
  5
1659
330
18
100
AcDbEntity
  8
画層1
 62
     3
100
AcDbLine
 10
-175.9403009156646
 20
187.1507313520653
 30
0.0
 11
-175.9403009156646
 21
111.1507313520654
 31
0.0
  0
LINE
  5
165A
330
18
100
AcDbEntity
  8
画層1
 62
     3
100
AcDbLine
 10
-176.9403009156646
 20
110.1507313520654
 30
0.0
 11
-222.9403009156646
 21
110.1507313520654
 31
0.0
  0
LINE
  5
165B
330
18
100
AcDbEntity
  8
画層1
 62
     3
100
AcDbLine
 10
-223.9403009156645
 20
111.1507313520654
 30
0.0
 11
-223.9403009156645
 21
187.1507313520653
 31
0.0
  0
LINE
  5
165C
330
18
100
AcDbEntity
  8
画層1
 62
     3
100
AcDbLine
 10
-221.9403009156646
 20
187.1507313520655
 30
0.0
 11
-177.9403009156646
 21
187.1507313520653
 31
0.0
  0
LINE
  5
165E
330
18
100
AcDbEntity
  8
画層1
 62
     3
100
AcDbLine
 10
-176.9403009156646
 20
186.1507313520653
 30
0.0
 11
-176.9403009156646
 21
112.1507313520654
 31
0.0
  0
LINE
  5
165F
330
18
100
AcDbEntity
  8
画層1
 62
     3
100
AcDbLine
 10
-177.9403009156646
 20
111.1507313520654
 30
0.0
 11
-221.9403009156646
 21
111.1507313520654
 31
0.0
  0
LINE
  5
1661
330
18
100
AcDbEntity
  8
画層1
 62
     3
100
AcDbLine
 10
-222.9403009156646
 20
112.1507313520654
 30
0.0
 11
-222.9403009156646
 21
186.1507313520655
 31
0.0
  0
LINE
  5
1668
330
18
100
AcDbEntity
  8
画層1
 62
     3
100
AcDbLine
 10
-221.6903009156645
 20
185.9007313520653
 30
0.0
 11
-178.1903009156646
 21
185.9007313520653
 31
0.0
  0
LINE
  5
1669
330
18
100
AcDbEntity
  8
画層1
 62
     3
100
AcDbLine
 10
-178.1903009156646
 20
185.9007313520653
 30
0.0
 11
-178.1903009156646
 21
112.4007313520654
 31
0.0
  0
LINE
  5
166A
330
18
100
AcDbEntity
  8
画層1
 62
     3
100
AcDbLine
 10
-178.1903009156646
 20
112.4007313520654
 30
0.0
 11
-221.6903009156645
 21
112.4007313520654
 31
0.0
  0
LINE
  5
166B
330
18
100
AcDbEntity
  8
画層1
 62
     3
100
AcDbLine
 10
-221.6903009156645
 20
112.4007313520654
 30
0.0
 11
-221.6903009156645
 21
185.9007313520653
 31
0.0
  0
LINE
  5
166E
330
18
100
AcDbEntity
  8
画層1
 62
     3
100
AcDbLine
 10
-221.6903009156645
 20
178.1507313520653
 30
0.0
 11
-178.1903009156646
 21
178.1507313520653
 31
0.0
  0
LINE
  5
166F
330
18
100
AcDbEntity
  8
画層1
 62
     3
100
AcDbLine
 10
-221.6903009156645
 20
120.1507313520653
 30
0.0
 11
-178.1903009156646
 21
120.1507313520653
 31
0.0
  0
LINE
  5
1681
330
18
100
AcDbEntity
  8
画層1
 62
     3
100
AcDbLine
 10
-220.1903009156646
 20
184.6507313520653
 30
0.0
 11
-218.1903009156646
 21
184.6507313520653
 31
0.0
  0
LINE
  5
1682
330
18
100
AcDbEntity
  8
画層1
 62
     3
100
AcDbLine
 10
-218.1903009156646
 20
184.6507313520653
 30
0.0
 11
-218.1903009156646
 21
182.3507313520654
 31
0.0
  0
LINE
  5
1683
330
18
100
AcDbEntity
  8
画層1
 62
     3
100
AcDbLine
 10
-218.1903009156646
 20
182.3507313520654
 30
0.0
 11
-220.1903009156646
 21
182.3507313520654
 31
0.0
  0
LINE
  5
1684
330
18
100
AcDbEntity
  8
画層1
 62
     3
100
AcDbLine
 10
-220.1903009156646
 20
182.3507313520654
 30
0.0
 11
-220.1903009156646
 21
184.6507313520653
 31
0.0
  0
LINE
  5
1685
330
18
100
AcDbEntity
  8
画層1
 62
     3
100
AcDbLine
 10
-220.1903009156646
 20
181.3507313520654
 30
0.0
 11
-218.1903009156646
 21
181.3507313520654
 31
0.0
  0
LINE
  5
1686
330
18
100
AcDbEntity
  8
画層1
 62
     3
100
AcDbLine
 10
-218.1903009156646
 20
181.3507313520654
 30
0.0
 11
-218.1903009156646
 21
179.1507313520653
 31
0.0
  0
LINE
  5
1687
330
18
100
AcDbEntity
  8
画層1
 62
     3
100
AcDbLine
 10
-218.1903009156646
 20
179.1507313520653
 30
0.0
 11
-220.1903009156646
 21
179.1507313520653
 31
0.0
  0
LINE
  5
1688
330
18
100
AcDbEntity
  8
画層1
 62
     3
100
AcDbLine
 10
-220.1903009156646
 20
179.1507313520653
 30
0.0
 11
-220.1903009156646
 21
181.3507313520654
 31
0.0
  0
LINE
  5
1689
330
18
100
AcDbEntity
  8
画層1
 62
     3
100
AcDbLine
 10
-216.6903009156646
 20
184.6507313520653
 30
0.0
 11
-214.6903009156646
 21
184.6507313520653
 31
0.0
  0
LINE
  5
168A
330
18
100
AcDbEntity
  8
画層1
 62
     3
100
AcDbLine
 10
-214.6903009156646
 20
184.6507313520653
 30
0.0
 11
-214.6903009156646
 21
182.3507313520654
 31
0.0
  0
LINE
  5
168B
330
18
100
AcDbEntity
  8
画層1
 62
     3
100
AcDbLine
 10
-214.6903009156646
 20
182.3507313520654
 30
0.0
 11
-216.6903009156646
 21
182.3507313520654
 31
0.0
  0
LINE
  5
168C
330
18
100
AcDbEntity
  8
画層1
 62
     3
100
AcDbLine
 10
-216.6903009156646
 20
182.3507313520654
 30
0.0
 11
-216.6903009156646
 21
184.6507313520653
 31
0.0
  0
LINE
  5
168D
330
18
100
AcDbEntity
  8
画層1
 62
     3
100
AcDbLine
 10
-216.6903009156646
 20
181.3507313520654
 30
0.0
 11
-214.6903009156646
 21
181.3507313520654
 31
0.0
  0
LINE
  5
168E
330
18
100
AcDbEntity
  8
画層1
 62
     3
100
AcDbLine
 10
-214.6903009156646
 20
181.3507313520654
 30
0.0
 11
-214.6903009156646
 21
179.1507313520653
 31
0.0
  0
LINE
  5
168F
330
18
100
AcDbEntity
  8
画層1
 62
     3
100
AcDbLine
 10
-214.6903009156646
 20
179.1507313520653
 30
0.0
 11
-216.6903009156646
 21
179.1507313520653
 31
0.0
  0
LINE
  5
1690
330
18
100
AcDbEntity
  8
画層1
 62
     3
100
AcDbLine
 10
-216.6903009156646
 20
179.1507313520653
 30
0.0
 11
-216.6903009156646
 21
181.3507313520654
 31
0.0
  0
LINE
  5
1691
330
18
100
AcDbEntity
  8
画層1
 62
     3
100
AcDbLine
 10
-213.1903009156645
 20
184.6507313520653
 30
0.0
 11
-211.1903009156645
 21
184.6507313520653
 31
0.0
  0
LINE
  5
1692
330
18
100
AcDbEntity
  8
画層1
 62
     3
100
AcDbLine
 10
-211.1903009156645
 20
184.6507313520653
 30
0.0
 11
-211.1903009156645
 21
182.3507313520654
 31
0.0
  0
LINE
  5
1693
330
18
100
AcDbEntity
  8
画層1
 62
     3
100
AcDbLine
 10
-211.1903009156645
 20
182.3507313520654
 30
0.0
 11
-213.1903009156645
 21
182.3507313520654
 31
0.0
  0
LINE
  5
1694
330
18
100
AcDbEntity
  8
画層1
 62
     3
100
AcDbLine
 10
-213.1903009156645
 20
182.3507313520654
 30
0.0
 11
-213.1903009156645
 21
184.6507313520653
 31
0.0
  0
LINE
  5
1695
330
18
100
AcDbEntity
  8
画層1
 62
     3
100
AcDbLine
 10
-213.1903009156645
 20
181.3507313520654
 30
0.0
 11
-211.1903009156645
 21
181.3507313520654
 31
0.0
  0
LINE
  5
1696
330
18
100
AcDbEntity
  8
画層1
 62
     3
100
AcDbLine
 10
-211.1903009156645
 20
181.3507313520654
 30
0.0
 11
-211.1903009156645
 21
179.1507313520653
 31
0.0
  0
LINE
  5
1697
330
18
100
AcDbEntity
  8
画層1
 62
     3
100
AcDbLine
 10
-211.1903009156645
 20
179.1507313520653
 30
0.0
 11
-213.1903009156645
 21
179.1507313520653
 31
0.0
  0
LINE
  5
1698
330
18
100
AcDbEntity
  8
画層1
 62
     3
100
AcDbLine
 10
-213.1903009156645
 20
179.1507313520653
 30
0.0
 11
-213.1903009156645
 21
181.3507313520654
 31
0.0
  0
LINE
  5
1699
330
18
100
AcDbEntity
  8
画層1
 62
     3
100
AcDbLine
 10
-209.6903009156646
 20
184.6507313520653
 30
0.0
 11
-207.6903009156646
 21
184.6507313520653
 31
0.0
  0
LINE
  5
169A
330
18
100
AcDbEntity
  8
画層1
 62
     3
100
AcDbLine
 10
-207.6903009156646
 20
184.6507313520653
 30
0.0
 11
-207.6903009156646
 21
182.3507313520654
 31
0.0
  0
LINE
  5
169B
330
18
100
AcDbEntity
  8
画層1
 62
     3
100
AcDbLine
 10
-207.6903009156646
 20
182.3507313520654
 30
0.0
 11
-209.6903009156646
 21
182.3507313520654
 31
0.0
  0
LINE
  5
169C
330
18
100
AcDbEntity
  8
画層1
 62
     3
100
AcDbLine
 10
-209.6903009156646
 20
182.3507313520654
 30
0.0
 11
-209.6903009156646
 21
184.6507313520653
 31
0.0
  0
LINE
  5
169D
330
18
100
AcDbEntity
  8
画層1
 62
     3
100
AcDbLine
 10
-209.6903009156646
 20
181.3507313520654
 30
0.0
 11
-207.6903009156646
 21
181.3507313520654
 31
0.0
  0
LINE
  5
169E
330
18
100
AcDbEntity
  8
画層1
 62
     3
100
AcDbLine
 10
-207.6903009156646
 20
181.3507313520654
 30
0.0
 11
-207.6903009156646
 21
179.1507313520653
 31
0.0
  0
LINE
  5
169F
330
18
100
AcDbEntity
  8
画層1
 62
     3
100
AcDbLine
 10
-207.6903009156646
 20
179.1507313520653
 30
0.0
 11
-209.6903009156646
 21
179.1507313520653
 31
0.0
  0
LINE
  5
16A0
330
18
100
AcDbEntity
  8
画層1
 62
     3
100
AcDbLine
 10
-209.6903009156646
 20
179.1507313520653
 30
0.0
 11
-209.6903009156646
 21
181.3507313520654
 31
0.0
  0
LINE
  5
16A1
330
18
100
AcDbEntity
  8
画層1
 62
     3
100
AcDbLine
 10
-206.1903009156646
 20
184.6507313520653
 30
0.0
 11
-204.1903009156646
 21
184.6507313520653
 31
0.0
  0
LINE
  5
16A2
330
18
100
AcDbEntity
  8
画層1
 62
     3
100
AcDbLine
 10
-204.1903009156646
 20
184.6507313520653
 30
0.0
 11
-204.1903009156646
 21
182.3507313520654
 31
0.0
  0
LINE
  5
16A3
330
18
100
AcDbEntity
  8
画層1
 62
     3
100
AcDbLine
 10
-204.1903009156646
 20
182.3507313520654
 30
0.0
 11
-206.1903009156646
 21
182.3507313520654
 31
0.0
  0
LINE
  5
16A4
330
18
100
AcDbEntity
  8
画層1
 62
     3
100
AcDbLine
 10
-206.1903009156646
 20
182.3507313520654
 30
0.0
 11
-206.1903009156646
 21
184.6507313520653
 31
0.0
  0
LINE
  5
16A5
330
18
100
AcDbEntity
  8
画層1
 62
     3
100
AcDbLine
 10
-206.1903009156646
 20
181.3507313520654
 30
0.0
 11
-204.1903009156646
 21
181.3507313520654
 31
0.0
  0
LINE
  5
16A6
330
18
100
AcDbEntity
  8
画層1
 62
     3
100
AcDbLine
 10
-204.1903009156646
 20
181.3507313520654
 30
0.0
 11
-204.1903009156646
 21
179.1507313520653
 31
0.0
  0
LINE
  5
16A7
330
18
100
AcDbEntity
  8
画層1
 62
     3
100
AcDbLine
 10
-204.1903009156646
 20
179.1507313520653
 30
0.0
 11
-206.1903009156646
 21
179.1507313520653
 31
0.0
  0
LINE
  5
16A8
330
18
100
AcDbEntity
  8
画層1
 62
     3
100
AcDbLine
 10
-206.1903009156646
 20
179.1507313520653
 30
0.0
 11
-206.1903009156646
 21
181.3507313520654
 31
0.0
  0
LINE
  5
16A9
330
18
100
AcDbEntity
  8
画層1
 62
     3
100
AcDbLine
 10
-202.6903009156646
 20
184.6507313520653
 30
0.0
 11
-200.6903009156645
 21
184.6507313520653
 31
0.0
  0
LINE
  5
16AA
330
18
100
AcDbEntity
  8
画層1
 62
     3
100
AcDbLine
 10
-200.6903009156645
 20
184.6507313520653
 30
0.0
 11
-200.6903009156645
 21
182.3507313520654
 31
0.0
  0
LINE
  5
16AB
330
18
100
AcDbEntity
  8
画層1
 62
     3
100
AcDbLine
 10
-200.6903009156645
 20
182.3507313520654
 30
0.0
 11
-202.6903009156646
 21
182.3507313520654
 31
0.0
  0
LINE
  5
16AC
330
18
100
AcDbEntity
  8
画層1
 62
     3
100
AcDbLine
 10
-202.6903009156646
 20
182.3507313520654
 30
0.0
 11
-202.6903009156646
 21
184.6507313520653
 31
0.0
  0
LINE
  5
16AD
330
18
100
AcDbEntity
  8
画層1
 62
     3
100
AcDbLine
 10
-202.6903009156646
 20
181.3507313520654
 30
0.0
 11
-200.6903009156645
 21
181.3507313520654
 31
0.0
  0
LINE
  5
16AE
330
18
100
AcDbEntity
  8
画層1
 62
     3
100
AcDbLine
 10
-200.6903009156645
 20
181.3507313520654
 30
0.0
 11
-200.6903009156645
 21
179.1507313520653
 31
0.0
  0
LINE
  5
16AF
330
18
100
AcDbEntity
  8
画層1
 62
     3
100
AcDbLine
 10
-200.6903009156645
 20
179.1507313520653
 30
0.0
 11
-202.6903009156646
 21
179.1507313520653
 31
0.0
  0
LINE
  5
16B0
330
18
100
AcDbEntity
  8
画層1
 62
     3
100
AcDbLine
 10
-202.6903009156646
 20
179.1507313520653
 30
0.0
 11
-202.6903009156646
 21
181.3507313520654
 31
0.0
  0
LINE
  5
16B1
330
18
100
AcDbEntity
  8
画層1
 62
     3
100
AcDbLine
 10
-192.1903009156646
 20
179.1507313520653
 30
0.0
 11
-190.1903009156646
 21
179.1507313520653
 31
0.0
  0
LINE
  5
16B2
330
18
100
AcDbEntity
  8
画層1
 62
     3
100
AcDbLine
 10
-190.1903009156646
 20
181.3507313520654
 30
0.0
 11
-192.1903009156646
 21
181.3507313520654
 31
0.0
  0
LINE
  5
16B3
330
18
100
AcDbEntity
  8
画層1
 62
     3
100
AcDbLine
 10
-192.1903009156646
 20
182.3507313520654
 30
0.0
 11
-190.1903009156646
 21
182.3507313520654
 31
0.0
  0
LINE
  5
16B4
330
18
100
AcDbEntity
  8
画層1
 62
     3
100
AcDbLine
 10
-190.1903009156646
 20
184.6507313520653
 30
0.0
 11
-192.1903009156646
 21
184.6507313520653
 31
0.0
  0
LINE
  5
16B5
330
18
100
AcDbEntity
  8
画層1
 62
     3
100
AcDbLine
 10
-190.1903009156646
 20
182.3507313520654
 30
0.0
 11
-190.1903009156646
 21
184.6507313520653
 31
0.0
  0
LINE
  5
16B6
330
18
100
AcDbEntity
  8
画層1
 62
     3
100
AcDbLine
 10
-186.6903009156646
 20
182.3507313520654
 30
0.0
 11
-186.6903009156646
 21
184.6507313520653
 31
0.0
  0
LINE
  5
16B7
330
18
100
AcDbEntity
  8
画層1
 62
     3
100
AcDbLine
 10
-188.6903009156646
 20
184.6507313520653
 30
0.0
 11
-188.6903009156646
 21
182.3507313520654
 31
0.0
  0
LINE
  5
16B8
330
18
100
AcDbEntity
  8
画層1
 62
     3
100
AcDbLine
 10
-183.1903009156646
 20
182.3507313520654
 30
0.0
 11
-183.1903009156646
 21
184.6507313520653
 31
0.0
  0
LINE
  5
16B9
330
18
100
AcDbEntity
  8
画層1
 62
     3
100
AcDbLine
 10
-185.1903009156646
 20
184.6507313520653
 30
0.0
 11
-185.1903009156646
 21
182.3507313520654
 31
0.0
  0
LINE
  5
16BA
330
18
100
AcDbEntity
  8
画層1
 62
     3
100
AcDbLine
 10
-179.6903009156646
 20
182.3507313520654
 30
0.0
 11
-179.6903009156646
 21
184.6507313520653
 31
0.0
  0
LINE
  5
16BB
330
18
100
AcDbEntity
  8
画層1
 62
     3
100
AcDbLine
 10
-181.6903009156646
 20
184.6507313520653
 30
0.0
 11
-181.6903009156646
 21
182.3507313520654
 31
0.0
  0
LINE
  5
16BC
330
18
100
AcDbEntity
  8
画層1
 62
     3
100
AcDbLine
 10
-181.6903009156646
 20
179.1507313520653
 30
0.0
 11
-179.6903009156646
 21
179.1507313520653
 31
0.0
  0
LINE
  5
16BD
330
18
100
AcDbEntity
  8
画層1
 62
     3
100
AcDbLine
 10
-179.6903009156646
 20
181.3507313520654
 30
0.0
 11
-181.6903009156646
 21
181.3507313520654
 31
0.0
  0
LINE
  5
16BE
330
18
100
AcDbEntity
  8
画層1
 62
     3
100
AcDbLine
 10
-181.6903009156646
 20
182.3507313520654
 30
0.0
 11
-179.6903009156646
 21
182.3507313520654
 31
0.0
  0
LINE
  5
16BF
330
18
100
AcDbEntity
  8
画層1
 62
     3
100
AcDbLine
 10
-179.6903009156646
 20
179.1507313520653
 30
0.0
 11
-179.6903009156646
 21
181.3507313520654
 31
0.0
  0
LINE
  5
16C0
330
18
100
AcDbEntity
  8
画層1
 62
     3
100
AcDbLine
 10
-183.1903009156646
 20
179.1507313520653
 30
0.0
 11
-183.1903009156646
 21
181.3507313520654
 31
0.0
  0
LINE
  5
16C1
330
18
100
AcDbEntity
  8
画層1
 62
     3
100
AcDbLine
 10
-185.1903009156646
 20
179.1507313520653
 30
0.0
 11
-183.1903009156646
 21
179.1507313520653
 31
0.0
  0
LINE
  5
16C2
330
18
100
AcDbEntity
  8
画層1
 62
     3
100
AcDbLine
 10
-185.1903009156646
 20
181.3507313520654
 30
0.0
 11
-185.1903009156646
 21
179.1507313520653
 31
0.0
  0
LINE
  5
16C3
330
18
100
AcDbEntity
  8
画層1
 62
     3
100
AcDbLine
 10
-183.1903009156646
 20
181.3507313520654
 30
0.0
 11
-185.1903009156646
 21
181.3507313520654
 31
0.0
  0
LINE
  5
16C4
330
18
100
AcDbEntity
  8
画層1
 62
     3
100
AcDbLine
 10
-185.1903009156646
 20
182.3507313520654
 30
0.0
 11
-183.1903009156646
 21
182.3507313520654
 31
0.0
  0
LINE
  5
16C5
330
18
100
AcDbEntity
  8
画層1
 62
     3
100
AcDbLine
 10
-181.6903009156646
 20
181.3507313520654
 30
0.0
 11
-181.6903009156646
 21
179.1507313520653
 31
0.0
  0
LINE
  5
16C6
330
18
100
AcDbEntity
  8
画層1
 62
     3
100
AcDbLine
 10
-190.1903009156646
 20
179.1507313520653
 30
0.0
 11
-190.1903009156646
 21
181.3507313520654
 31
0.0
  0
LINE
  5
16C7
330
18
100
AcDbEntity
  8
画層1
 62
     3
100
AcDbLine
 10
-186.6903009156646
 20
179.1507313520653
 30
0.0
 11
-186.6903009156646
 21
181.3507313520654
 31
0.0
  0
LINE
  5
16C8
330
18
100
AcDbEntity
  8
画層1
 62
     3
100
AcDbLine
 10
-188.6903009156646
 20
179.1507313520653
 30
0.0
 11
-186.6903009156646
 21
179.1507313520653
 31
0.0
  0
LINE
  5
16C9
330
18
100
AcDbEntity
  8
画層1
 62
     3
100
AcDbLine
 10
-188.6903009156646
 20
181.3507313520654
 30
0.0
 11
-188.6903009156646
 21
179.1507313520653
 31
0.0
  0
LINE
  5
16CA
330
18
100
AcDbEntity
  8
画層1
 62
     3
100
AcDbLine
 10
-186.6903009156646
 20
181.3507313520654
 30
0.0
 11
-188.6903009156646
 21
181.3507313520654
 31
0.0
  0
LINE
  5
16CB
330
18
100
AcDbEntity
  8
画層1
 62
     3
100
AcDbLine
 10
-188.6903009156646
 20
182.3507313520654
 30
0.0
 11
-186.6903009156646
 21
182.3507313520654
 31
0.0
  0
LINE
  5
16CC
330
18
100
AcDbEntity
  8
画層1
 62
     3
100
AcDbLine
 10
-179.6903009156646
 20
184.6507313520653
 30
0.0
 11
-181.6903009156646
 21
184.6507313520653
 31
0.0
  0
LINE
  5
16CD
330
18
100
AcDbEntity
  8
画層1
 62
     3
100
AcDbLine
 10
-183.1903009156646
 20
184.6507313520653
 30
0.0
 11
-185.1903009156646
 21
184.6507313520653
 31
0.0
  0
LINE
  5
16CE
330
18
100
AcDbEntity
  8
画層1
 62
     3
100
AcDbLine
 10
-186.6903009156646
 20
184.6507313520653
 30
0.0
 11
-188.6903009156646
 21
184.6507313520653
 31
0.0
  0
LINE
  5
16CF
330
18
100
AcDbEntity
  8
画層1
 62
     3
100
AcDbLine
 10
-197.1903009156646
 20
182.3507313520654
 30
0.0
 11
-197.1903009156646
 21
184.6507313520653
 31
0.0
  0
LINE
  5
16D0
330
18
100
AcDbEntity
  8
画層1
 62
     3
100
AcDbLine
 10
-199.1903009156646
 20
184.6507313520653
 30
0.0
 11
-199.1903009156646
 21
182.3507313520654
 31
0.0
  0
LINE
  5
16D1
330
18
100
AcDbEntity
  8
画層1
 62
     3
100
AcDbLine
 10
-193.6903009156646
 20
182.3507313520654
 30
0.0
 11
-193.6903009156646
 21
184.6507313520653
 31
0.0
  0
LINE
  5
16D2
330
18
100
AcDbEntity
  8
画層1
 62
     3
100
AcDbLine
 10
-195.6903009156646
 20
184.6507313520653
 30
0.0
 11
-195.6903009156646
 21
182.3507313520654
 31
0.0
  0
LINE
  5
16D3
330
18
100
AcDbEntity
  8
画層1
 62
     3
100
AcDbLine
 10
-192.1903009156646
 20
184.6507313520653
 30
0.0
 11
-192.1903009156646
 21
182.3507313520654
 31
0.0
  0
LINE
  5
16D4
330
18
100
AcDbEntity
  8
画層1
 62
     3
100
AcDbLine
 10
-193.6903009156646
 20
179.1507313520653
 30
0.0
 11
-193.6903009156646
 21
181.3507313520654
 31
0.0
  0
LINE
  5
16D5
330
18
100
AcDbEntity
  8
画層1
 62
     3
100
AcDbLine
 10
-195.6903009156646
 20
179.1507313520653
 30
0.0
 11
-193.6903009156646
 21
179.1507313520653
 31
0.0
  0
LINE
  5
16D6
330
18
100
AcDbEntity
  8
画層1
 62
     3
100
AcDbLine
 10
-195.6903009156646
 20
181.3507313520654
 30
0.0
 11
-195.6903009156646
 21
179.1507313520653
 31
0.0
  0
LINE
  5
16D7
330
18
100
AcDbEntity
  8
画層1
 62
     3
100
AcDbLine
 10
-193.6903009156646
 20
181.3507313520654
 30
0.0
 11
-195.6903009156646
 21
181.3507313520654
 31
0.0
  0
LINE
  5
16D8
330
18
100
AcDbEntity
  8
画層1
 62
     3
100
AcDbLine
 10
-195.6903009156646
 20
182.3507313520654
 30
0.0
 11
-193.6903009156646
 21
182.3507313520654
 31
0.0
  0
LINE
  5
16D9
330
18
100
AcDbEntity
  8
画層1
 62
     3
100
AcDbLine
 10
-192.1903009156646
 20
181.3507313520654
 30
0.0
 11
-192.1903009156646
 21
179.1507313520653
 31
0.0
  0
LINE
  5
16DA
330
18
100
AcDbEntity
  8
画層1
 62
     3
100
AcDbLine
 10
-197.1903009156646
 20
179.1507313520653
 30
0.0
 11
-197.1903009156646
 21
181.3507313520654
 31
0.0
  0
LINE
  5
16DB
330
18
100
AcDbEntity
  8
画層1
 62
     3
100
AcDbLine
 10
-199.1903009156646
 20
179.1507313520653
 30
0.0
 11
-197.1903009156646
 21
179.1507313520653
 31
0.0
  0
LINE
  5
16DC
330
18
100
AcDbEntity
  8
画層1
 62
     3
100
AcDbLine
 10
-199.1903009156646
 20
181.3507313520654
 30
0.0
 11
-199.1903009156646
 21
179.1507313520653
 31
0.0
  0
LINE
  5
16DD
330
18
100
AcDbEntity
  8
画層1
 62
     3
100
AcDbLine
 10
-197.1903009156646
 20
181.3507313520654
 30
0.0
 11
-199.1903009156646
 21
181.3507313520654
 31
0.0
  0
LINE
  5
16DE
330
18
100
AcDbEntity
  8
画層1
 62
     3
100
AcDbLine
 10
-199.1903009156646
 20
182.3507313520654
 30
0.0
 11
-197.1903009156646
 21
182.3507313520654
 31
0.0
  0
LINE
  5
16DF
330
18
100
AcDbEntity
  8
画層1
 62
     3
100
AcDbLine
 10
-193.6903009156646
 20
184.6507313520653
 30
0.0
 11
-195.6903009156646
 21
184.6507313520653
 31
0.0
  0
LINE
  5
16E0
330
18
100
AcDbEntity
  8
画層1
 62
     3
100
AcDbLine
 10
-197.1903009156646
 20
184.6507313520653
 30
0.0
 11
-199.1903009156646
 21
184.6507313520653
 31
0.0
  0
LINE
  5
16E1
330
18
100
AcDbEntity
  8
画層1
 62
     3
100
AcDbLine
 10
-186.6903009156646
 20
113.6507313520654
 30
0.0
 11
-188.6903009156646
 21
113.6507313520654
 31
0.0
  0
LINE
  5
16E2
330
18
100
AcDbEntity
  8
画層1
 62
     3
100
AcDbLine
 10
-188.6903009156646
 20
115.9507313520654
 30
0.0
 11
-186.6903009156646
 21
115.9507313520654
 31
0.0
  0
LINE
  5
16E3
330
18
100
AcDbEntity
  8
画層1
 62
     3
100
AcDbLine
 10
-186.6903009156646
 20
116.9507313520653
 30
0.0
 11
-188.6903009156646
 21
116.9507313520653
 31
0.0
  0
LINE
  5
16E4
330
18
100
AcDbEntity
  8
画層1
 62
     3
100
AcDbLine
 10
-188.6903009156646
 20
119.1507313520654
 30
0.0
 11
-186.6903009156646
 21
119.1507313520654
 31
0.0
  0
LINE
  5
16E5
330
18
100
AcDbEntity
  8
画層1
 62
     3
100
AcDbLine
 10
-207.6903009156646
 20
119.1507313520654
 30
0.0
 11
-209.6903009156646
 21
119.1507313520654
 31
0.0
  0
LINE
  5
16E6
330
18
100
AcDbEntity
  8
画層1
 62
     3
100
AcDbLine
 10
-209.6903009156646
 20
116.9507313520653
 30
0.0
 11
-207.6903009156646
 21
116.9507313520653
 31
0.0
  0
LINE
  5
16E7
330
18
100
AcDbEntity
  8
画層1
 62
     3
100
AcDbLine
 10
-207.6903009156646
 20
115.9507313520654
 30
0.0
 11
-209.6903009156646
 21
115.9507313520654
 31
0.0
  0
LINE
  5
16E8
330
18
100
AcDbEntity
  8
画層1
 62
     3
100
AcDbLine
 10
-209.6903009156646
 20
113.6507313520654
 30
0.0
 11
-207.6903009156646
 21
113.6507313520654
 31
0.0
  0
LINE
  5
16E9
330
18
100
AcDbEntity
  8
画層1
 62
     3
100
AcDbLine
 10
-209.6903009156646
 20
115.9507313520654
 30
0.0
 11
-209.6903009156646
 21
113.6507313520654
 31
0.0
  0
LINE
  5
16EA
330
18
100
AcDbEntity
  8
画層1
 62
     3
100
AcDbLine
 10
-213.1903009156645
 20
115.9507313520654
 30
0.0
 11
-213.1903009156645
 21
113.6507313520654
 31
0.0
  0
LINE
  5
16EB
330
18
100
AcDbEntity
  8
画層1
 62
     3
100
AcDbLine
 10
-211.1903009156645
 20
113.6507313520654
 30
0.0
 11
-211.1903009156645
 21
115.9507313520654
 31
0.0
  0
LINE
  5
16EC
330
18
100
AcDbEntity
  8
画層1
 62
     3
100
AcDbLine
 10
-216.6903009156646
 20
115.9507313520654
 30
0.0
 11
-216.6903009156646
 21
113.6507313520654
 31
0.0
  0
LINE
  5
16ED
330
18
100
AcDbEntity
  8
画層1
 62
     3
100
AcDbLine
 10
-214.6903009156646
 20
113.6507313520654
 30
0.0
 11
-214.6903009156646
 21
115.9507313520654
 31
0.0
  0
LINE
  5
16EE
330
18
100
AcDbEntity
  8
画層1
 62
     3
100
AcDbLine
 10
-220.1903009156646
 20
115.9507313520654
 30
0.0
 11
-220.1903009156646
 21
113.6507313520654
 31
0.0
  0
LINE
  5
16EF
330
18
100
AcDbEntity
  8
画層1
 62
     3
100
AcDbLine
 10
-218.1903009156646
 20
113.6507313520654
 30
0.0
 11
-218.1903009156646
 21
115.9507313520654
 31
0.0
  0
LINE
  5
16F0
330
18
100
AcDbEntity
  8
画層1
 62
     3
100
AcDbLine
 10
-218.1903009156646
 20
119.1507313520654
 30
0.0
 11
-220.1903009156646
 21
119.1507313520654
 31
0.0
  0
LINE
  5
16F1
330
18
100
AcDbEntity
  8
画層1
 62
     3
100
AcDbLine
 10
-220.1903009156646
 20
116.9507313520653
 30
0.0
 11
-218.1903009156646
 21
116.9507313520653
 31
0.0
  0
LINE
  5
16F2
330
18
100
AcDbEntity
  8
画層1
 62
     3
100
AcDbLine
 10
-218.1903009156646
 20
115.9507313520654
 30
0.0
 11
-220.1903009156646
 21
115.9507313520654
 31
0.0
  0
LINE
  5
16F3
330
18
100
AcDbEntity
  8
画層1
 62
     3
100
AcDbLine
 10
-220.1903009156646
 20
119.1507313520654
 30
0.0
 11
-220.1903009156646
 21
116.9507313520653
 31
0.0
  0
LINE
  5
16F4
330
18
100
AcDbEntity
  8
画層1
 62
     3
100
AcDbLine
 10
-216.6903009156646
 20
119.1507313520654
 30
0.0
 11
-216.6903009156646
 21
116.9507313520653
 31
0.0
  0
LINE
  5
16F5
330
18
100
AcDbEntity
  8
画層1
 62
     3
100
AcDbLine
 10
-214.6903009156646
 20
119.1507313520654
 30
0.0
 11
-216.6903009156646
 21
119.1507313520654
 31
0.0
  0
LINE
  5
16F6
330
18
100
AcDbEntity
  8
画層1
 62
     3
100
AcDbLine
 10
-214.6903009156646
 20
116.9507313520653
 30
0.0
 11
-214.6903009156646
 21
119.1507313520654
 31
0.0
  0
LINE
  5
16F7
330
18
100
AcDbEntity
  8
画層1
 62
     3
100
AcDbLine
 10
-216.6903009156646
 20
116.9507313520653
 30
0.0
 11
-214.6903009156646
 21
116.9507313520653
 31
0.0
  0
LINE
  5
16F8
330
18
100
AcDbEntity
  8
画層1
 62
     3
100
AcDbLine
 10
-214.6903009156646
 20
115.9507313520654
 30
0.0
 11
-216.6903009156646
 21
115.9507313520654
 31
0.0
  0
LINE
  5
16F9
330
18
100
AcDbEntity
  8
画層1
 62
     3
100
AcDbLine
 10
-218.1903009156646
 20
116.9507313520653
 30
0.0
 11
-218.1903009156646
 21
119.1507313520654
 31
0.0
  0
LINE
  5
16FA
330
18
100
AcDbEntity
  8
画層1
 62
     3
100
AcDbLine
 10
-209.6903009156646
 20
119.1507313520654
 30
0.0
 11
-209.6903009156646
 21
116.9507313520653
 31
0.0
  0
LINE
  5
16FB
330
18
100
AcDbEntity
  8
画層1
 62
     3
100
AcDbLine
 10
-213.1903009156645
 20
119.1507313520654
 30
0.0
 11
-213.1903009156645
 21
116.9507313520653
 31
0.0
  0
LINE
  5
16FC
330
18
100
AcDbEntity
  8
画層1
 62
     3
100
AcDbLine
 10
-211.1903009156645
 20
119.1507313520654
 30
0.0
 11
-213.1903009156645
 21
119.1507313520654
 31
0.0
  0
LINE
  5
16FD
330
18
100
AcDbEntity
  8
画層1
 62
     3
100
AcDbLine
 10
-211.1903009156645
 20
116.9507313520653
 30
0.0
 11
-211.1903009156645
 21
119.1507313520654
 31
0.0
  0
LINE
  5
16FE
330
18
100
AcDbEntity
  8
画層1
 62
     3
100
AcDbLine
 10
-213.1903009156645
 20
116.9507313520653
 30
0.0
 11
-211.1903009156645
 21
116.9507313520653
 31
0.0
  0
LINE
  5
16FF
330
18
100
AcDbEntity
  8
画層1
 62
     3
100
AcDbLine
 10
-211.1903009156645
 20
115.9507313520654
 30
0.0
 11
-213.1903009156645
 21
115.9507313520654
 31
0.0
  0
LINE
  5
1700
330
18
100
AcDbEntity
  8
画層1
 62
     3
100
AcDbLine
 10
-220.1903009156646
 20
113.6507313520654
 30
0.0
 11
-218.1903009156646
 21
113.6507313520654
 31
0.0
  0
LINE
  5
1701
330
18
100
AcDbEntity
  8
画層1
 62
     3
100
AcDbLine
 10
-216.6903009156646
 20
113.6507313520654
 30
0.0
 11
-214.6903009156646
 21
113.6507313520654
 31
0.0
  0
LINE
  5
1702
330
18
100
AcDbEntity
  8
画層1
 62
     3
100
AcDbLine
 10
-213.1903009156645
 20
113.6507313520654
 30
0.0
 11
-211.1903009156645
 21
113.6507313520654
 31
0.0
  0
LINE
  5
1703
330
18
100
AcDbEntity
  8
画層1
 62
     3
100
AcDbLine
 10
-192.1903009156646
 20
113.6507313520654
 30
0.0
 11
-192.1903009156646
 21
115.9507313520654
 31
0.0
  0
LINE
  5
1704
330
18
100
AcDbEntity
  8
画層1
 62
     3
100
AcDbLine
 10
-195.6903009156646
 20
113.6507313520654
 30
0.0
 11
-195.6903009156646
 21
115.9507313520654
 31
0.0
  0
LINE
  5
1705
330
18
100
AcDbEntity
  8
画層1
 62
     3
100
AcDbLine
 10
-193.6903009156646
 20
115.9507313520654
 30
0.0
 11
-193.6903009156646
 21
113.6507313520654
 31
0.0
  0
LINE
  5
1706
330
18
100
AcDbEntity
  8
画層1
 62
     3
100
AcDbLine
 10
-199.1903009156646
 20
113.6507313520654
 30
0.0
 11
-199.1903009156646
 21
115.9507313520654
 31
0.0
  0
LINE
  5
1707
330
18
100
AcDbEntity
  8
画層1
 62
     3
100
AcDbLine
 10
-197.1903009156646
 20
115.9507313520654
 30
0.0
 11
-197.1903009156646
 21
113.6507313520654
 31
0.0
  0
LINE
  5
1708
330
18
100
AcDbEntity
  8
画層1
 62
     3
100
AcDbLine
 10
-188.6903009156646
 20
113.6507313520654
 30
0.0
 11
-188.6903009156646
 21
115.9507313520654
 31
0.0
  0
LINE
  5
1709
330
18
100
AcDbEntity
  8
画層1
 62
     3
100
AcDbLine
 10
-190.1903009156646
 20
115.9507313520654
 30
0.0
 11
-190.1903009156646
 21
113.6507313520654
 31
0.0
  0
LINE
  5
170A
330
18
100
AcDbEntity
  8
画層1
 62
     3
100
AcDbLine
 10
-202.6903009156646
 20
115.9507313520654
 30
0.0
 11
-202.6903009156646
 21
113.6507313520654
 31
0.0
  0
LINE
  5
170B
330
18
100
AcDbEntity
  8
画層1
 62
     3
100
AcDbLine
 10
-200.6903009156645
 20
113.6507313520654
 30
0.0
 11
-200.6903009156645
 21
115.9507313520654
 31
0.0
  0
LINE
  5
170C
330
18
100
AcDbEntity
  8
画層1
 62
     3
100
AcDbLine
 10
-206.1903009156646
 20
115.9507313520654
 30
0.0
 11
-206.1903009156646
 21
113.6507313520654
 31
0.0
  0
LINE
  5
170D
330
18
100
AcDbEntity
  8
画層1
 62
     3
100
AcDbLine
 10
-204.1903009156646
 20
113.6507313520654
 30
0.0
 11
-204.1903009156646
 21
115.9507313520654
 31
0.0
  0
LINE
  5
170E
330
18
100
AcDbEntity
  8
画層1
 62
     3
100
AcDbLine
 10
-207.6903009156646
 20
113.6507313520654
 30
0.0
 11
-207.6903009156646
 21
115.9507313520654
 31
0.0
  0
LINE
  5
170F
330
18
100
AcDbEntity
  8
画層1
 62
     3
100
AcDbLine
 10
-199.1903009156646
 20
115.9507313520654
 30
0.0
 11
-197.1903009156646
 21
115.9507313520654
 31
0.0
  0
LINE
  5
1710
330
18
100
AcDbEntity
  8
画層1
 62
     3
100
AcDbLine
 10
-197.1903009156646
 20
116.9507313520653
 30
0.0
 11
-199.1903009156646
 21
116.9507313520653
 31
0.0
  0
LINE
  5
1711
330
18
100
AcDbEntity
  8
画層1
 62
     3
100
AcDbLine
 10
-199.1903009156646
 20
119.1507313520654
 30
0.0
 11
-197.1903009156646
 21
119.1507313520654
 31
0.0
  0
LINE
  5
1712
330
18
100
AcDbEntity
  8
画層1
 62
     3
100
AcDbLine
 10
-206.1903009156646
 20
119.1507313520654
 30
0.0
 11
-206.1903009156646
 21
116.9507313520653
 31
0.0
  0
LINE
  5
1713
330
18
100
AcDbEntity
  8
画層1
 62
     3
100
AcDbLine
 10
-204.1903009156646
 20
119.1507313520654
 30
0.0
 11
-206.1903009156646
 21
119.1507313520654
 31
0.0
  0
LINE
  5
1714
330
18
100
AcDbEntity
  8
画層1
 62
     3
100
AcDbLine
 10
-204.1903009156646
 20
116.9507313520653
 30
0.0
 11
-204.1903009156646
 21
119.1507313520654
 31
0.0
  0
LINE
  5
1715
330
18
100
AcDbEntity
  8
画層1
 62
     3
100
AcDbLine
 10
-206.1903009156646
 20
116.9507313520653
 30
0.0
 11
-204.1903009156646
 21
116.9507313520653
 31
0.0
  0
LINE
  5
1716
330
18
100
AcDbEntity
  8
画層1
 62
     3
100
AcDbLine
 10
-204.1903009156646
 20
115.9507313520654
 30
0.0
 11
-206.1903009156646
 21
115.9507313520654
 31
0.0
  0
LINE
  5
1717
330
18
100
AcDbEntity
  8
画層1
 62
     3
100
AcDbLine
 10
-207.6903009156646
 20
116.9507313520653
 30
0.0
 11
-207.6903009156646
 21
119.1507313520654
 31
0.0
  0
LINE
  5
1718
330
18
100
AcDbEntity
  8
画層1
 62
     3
100
AcDbLine
 10
-199.1903009156646
 20
116.9507313520653
 30
0.0
 11
-199.1903009156646
 21
119.1507313520654
 31
0.0
  0
LINE
  5
1719
330
18
100
AcDbEntity
  8
画層1
 62
     3
100
AcDbLine
 10
-202.6903009156646
 20
119.1507313520654
 30
0.0
 11
-202.6903009156646
 21
116.9507313520653
 31
0.0
  0
LINE
  5
171A
330
18
100
AcDbEntity
  8
画層1
 62
     3
100
AcDbLine
 10
-200.6903009156645
 20
119.1507313520654
 30
0.0
 11
-202.6903009156646
 21
119.1507313520654
 31
0.0
  0
LINE
  5
171B
330
18
100
AcDbEntity
  8
画層1
 62
     3
100
AcDbLine
 10
-200.6903009156645
 20
116.9507313520653
 30
0.0
 11
-200.6903009156645
 21
119.1507313520654
 31
0.0
  0
LINE
  5
171C
330
18
100
AcDbEntity
  8
画層1
 62
     3
100
AcDbLine
 10
-202.6903009156646
 20
116.9507313520653
 30
0.0
 11
-200.6903009156645
 21
116.9507313520653
 31
0.0
  0
LINE
  5
171D
330
18
100
AcDbEntity
  8
画層1
 62
     3
100
AcDbLine
 10
-200.6903009156645
 20
115.9507313520654
 30
0.0
 11
-202.6903009156646
 21
115.9507313520654
 31
0.0
  0
LINE
  5
171E
330
18
100
AcDbEntity
  8
画層1
 62
     3
100
AcDbLine
 10
-197.1903009156646
 20
119.1507313520654
 30
0.0
 11
-197.1903009156646
 21
116.9507313520653
 31
0.0
  0
LINE
  5
171F
330
18
100
AcDbEntity
  8
画層1
 62
     3
100
AcDbLine
 10
-195.6903009156646
 20
115.9507313520654
 30
0.0
 11
-193.6903009156646
 21
115.9507313520654
 31
0.0
  0
LINE
  5
1720
330
18
100
AcDbEntity
  8
画層1
 62
     3
100
AcDbLine
 10
-193.6903009156646
 20
116.9507313520653
 30
0.0
 11
-195.6903009156646
 21
116.9507313520653
 31
0.0
  0
LINE
  5
1721
330
18
100
AcDbEntity
  8
画層1
 62
     3
100
AcDbLine
 10
-195.6903009156646
 20
116.9507313520653
 30
0.0
 11
-195.6903009156646
 21
119.1507313520654
 31
0.0
  0
LINE
  5
1722
330
18
100
AcDbEntity
  8
画層1
 62
     3
100
AcDbLine
 10
-195.6903009156646
 20
119.1507313520654
 30
0.0
 11
-193.6903009156646
 21
119.1507313520654
 31
0.0
  0
LINE
  5
1723
330
18
100
AcDbEntity
  8
画層1
 62
     3
100
AcDbLine
 10
-193.6903009156646
 20
119.1507313520654
 30
0.0
 11
-193.6903009156646
 21
116.9507313520653
 31
0.0
  0
LINE
  5
1724
330
18
100
AcDbEntity
  8
画層1
 62
     3
100
AcDbLine
 10
-192.1903009156646
 20
116.9507313520653
 30
0.0
 11
-192.1903009156646
 21
119.1507313520654
 31
0.0
  0
LINE
  5
1725
330
18
100
AcDbEntity
  8
画層1
 62
     3
100
AcDbLine
 10
-188.6903009156646
 20
116.9507313520653
 30
0.0
 11
-188.6903009156646
 21
119.1507313520654
 31
0.0
  0
LINE
  5
1726
330
18
100
AcDbEntity
  8
画層1
 62
     3
100
AcDbLine
 10
-190.1903009156646
 20
119.1507313520654
 30
0.0
 11
-190.1903009156646
 21
116.9507313520653
 31
0.0
  0
LINE
  5
1727
330
18
100
AcDbEntity
  8
画層1
 62
     3
100
AcDbLine
 10
-192.1903009156646
 20
115.9507313520654
 30
0.0
 11
-190.1903009156646
 21
115.9507313520654
 31
0.0
  0
LINE
  5
1728
330
18
100
AcDbEntity
  8
画層1
 62
     3
100
AcDbLine
 10
-190.1903009156646
 20
116.9507313520653
 30
0.0
 11
-192.1903009156646
 21
116.9507313520653
 31
0.0
  0
LINE
  5
1729
330
18
100
AcDbEntity
  8
画層1
 62
     3
100
AcDbLine
 10
-192.1903009156646
 20
119.1507313520654
 30
0.0
 11
-190.1903009156646
 21
119.1507313520654
 31
0.0
  0
LINE
  5
172A
330
18
100
AcDbEntity
  8
画層1
 62
     3
100
AcDbLine
 10
-197.1903009156646
 20
113.6507313520654
 30
0.0
 11
-199.1903009156646
 21
113.6507313520654
 31
0.0
  0
LINE
  5
172B
330
18
100
AcDbEntity
  8
画層1
 62
     3
100
AcDbLine
 10
-206.1903009156646
 20
113.6507313520654
 30
0.0
 11
-204.1903009156646
 21
113.6507313520654
 31
0.0
  0
LINE
  5
172C
330
18
100
AcDbEntity
  8
画層1
 62
     3
100
AcDbLine
 10
-202.6903009156646
 20
113.6507313520654
 30
0.0
 11
-200.6903009156645
 21
113.6507313520654
 31
0.0
  0
LINE
  5
172D
330
18
100
AcDbEntity
  8
画層1
 62
     3
100
AcDbLine
 10
-193.6903009156646
 20
113.6507313520654
 30
0.0
 11
-195.6903009156646
 21
113.6507313520654
 31
0.0
  0
LINE
  5
172E
330
18
100
AcDbEntity
  8
画層1
 62
     3
100
AcDbLine
 10
-190.1903009156646
 20
113.6507313520654
 30
0.0
 11
-192.1903009156646
 21
113.6507313520654
 31
0.0
  0
LINE
  5
172F
330
18
100
AcDbEntity
  8
画層1
 62
     3
100
AcDbLine
 10
-181.6903009156646
 20
113.6507313520654
 30
0.0
 11
-181.6903009156646
 21
115.9507313520654
 31
0.0
  0
LINE
  5
1730
330
18
100
AcDbEntity
  8
画層1
 62
     3
100
AcDbLine
 10
-179.6903009156646
 20
115.9507313520654
 30
0.0
 11
-179.6903009156646
 21
113.6507313520654
 31
0.0
  0
LINE
  5
1731
330
18
100
AcDbEntity
  8
画層1
 62
     3
100
AcDbLine
 10
-185.1903009156646
 20
113.6507313520654
 30
0.0
 11
-185.1903009156646
 21
115.9507313520654
 31
0.0
  0
LINE
  5
1732
330
18
100
AcDbEntity
  8
画層1
 62
     3
100
AcDbLine
 10
-183.1903009156646
 20
115.9507313520654
 30
0.0
 11
-183.1903009156646
 21
113.6507313520654
 31
0.0
  0
LINE
  5
1733
330
18
100
AcDbEntity
  8
画層1
 62
     3
100
AcDbLine
 10
-186.6903009156646
 20
115.9507313520654
 30
0.0
 11
-186.6903009156646
 21
113.6507313520654
 31
0.0
  0
LINE
  5
1734
330
18
100
AcDbEntity
  8
画層1
 62
     3
100
AcDbLine
 10
-186.6903009156646
 20
119.1507313520654
 30
0.0
 11
-186.6903009156646
 21
116.9507313520653
 31
0.0
  0
LINE
  5
1735
330
18
100
AcDbEntity
  8
画層1
 62
     3
100
AcDbLine
 10
-185.1903009156646
 20
115.9507313520654
 30
0.0
 11
-183.1903009156646
 21
115.9507313520654
 31
0.0
  0
LINE
  5
1736
330
18
100
AcDbEntity
  8
画層1
 62
     3
100
AcDbLine
 10
-183.1903009156646
 20
116.9507313520653
 30
0.0
 11
-185.1903009156646
 21
116.9507313520653
 31
0.0
  0
LINE
  5
1737
330
18
100
AcDbEntity
  8
画層1
 62
     3
100
AcDbLine
 10
-185.1903009156646
 20
116.9507313520653
 30
0.0
 11
-185.1903009156646
 21
119.1507313520654
 31
0.0
  0
LINE
  5
1738
330
18
100
AcDbEntity
  8
画層1
 62
     3
100
AcDbLine
 10
-185.1903009156646
 20
119.1507313520654
 30
0.0
 11
-183.1903009156646
 21
119.1507313520654
 31
0.0
  0
LINE
  5
1739
330
18
100
AcDbEntity
  8
画層1
 62
     3
100
AcDbLine
 10
-183.1903009156646
 20
119.1507313520654
 30
0.0
 11
-183.1903009156646
 21
116.9507313520653
 31
0.0
  0
LINE
  5
173A
330
18
100
AcDbEntity
  8
画層1
 62
     3
100
AcDbLine
 10
-181.6903009156646
 20
116.9507313520653
 30
0.0
 11
-181.6903009156646
 21
119.1507313520654
 31
0.0
  0
LINE
  5
173B
330
18
100
AcDbEntity
  8
画層1
 62
     3
100
AcDbLine
 10
-179.6903009156646
 20
119.1507313520654
 30
0.0
 11
-179.6903009156646
 21
116.9507313520653
 31
0.0
  0
LINE
  5
173C
330
18
100
AcDbEntity
  8
画層1
 62
     3
100
AcDbLine
 10
-181.6903009156646
 20
115.9507313520654
 30
0.0
 11
-179.6903009156646
 21
115.9507313520654
 31
0.0
  0
LINE
  5
173D
330
18
100
AcDbEntity
  8
画層1
 62
     3
100
AcDbLine
 10
-179.6903009156646
 20
116.9507313520653
 30
0.0
 11
-181.6903009156646
 21
116.9507313520653
 31
0.0
  0
LINE
  5
173E
330
18
100
AcDbEntity
  8
画層1
 62
     3
100
AcDbLine
 10
-181.6903009156646
 20
119.1507313520654
 30
0.0
 11
-179.6903009156646
 21
119.1507313520654
 31
0.0
  0
LINE
  5
173F
330
18
100
AcDbEntity
  8
画層1
 62
     3
100
AcDbLine
 10
-183.1903009156646
 20
113.6507313520654
 30
0.0
 11
-185.1903009156646
 21
113.6507313520654
 31
0.0
  0
LINE
  5
1740
330
18
100
AcDbEntity
  8
画層1
 62
     3
100
AcDbLine
 10
-179.6903009156646
 20
113.6507313520654
 30
0.0
 11
-181.6903009156646
 21
113.6507313520654
 31
0.0
  0
ARC
  5
1741
330
18
100
AcDbEntity
  8
画層1
 62
     3
100
AcDbCircle
 10
-223.9403009156645
 20
188.1507313520653
 30
0.0
 40
1.0
100
AcDbArc
 50
90.0
 51
180.0
  0
ARC
  5
1742
330
18
100
AcDbEntity
  8
画層1
 62
     3
100
AcDbCircle
 10
-222.9403009156646
 20
187.1507313520653
 30
0.0
 40
1.0
100
AcDbArc
 50
90.0
 51
180.0
  0
ARC
  5
1743
330
18
100
AcDbEntity
  8
画層1
 62
     3
100
AcDbCircle
 10
-221.9403009156646
 20
186.1507313520655
 30
0.0
 40
1.0
100
AcDbArc
 50
90.0
 51
180.0
  0
ARC
  5
1744
330
18
100
AcDbEntity
  8
画層1
 62
     3
100
AcDbCircle
 10
-175.9403009156646
 20
188.1507313520653
 30
0.0
 40
1.0
100
AcDbArc
 50
0.0
 51
90.0
  0
ARC
  5
1745
330
18
100
AcDbEntity
  8
画層1
 62
     3
100
AcDbCircle
 10
-176.9403009156646
 20
187.1507313520653
 30
0.0
 40
1.0
100
AcDbArc
 50
0.0
 51
90.0
  0
ARC
  5
1746
330
18
100
AcDbEntity
  8
画層1
 62
     3
100
AcDbCircle
 10
-177.9403009156646
 20
186.1507313520653
 30
0.0
 40
1.0
100
AcDbArc
 50
0.0
 51
89.99999999999998
  0
ARC
  5
1747
330
18
100
AcDbEntity
  8
画層1
 62
     3
100
AcDbCircle
 10
-177.9403009156646
 20
112.1507313520654
 30
0.0
 40
1.0
100
AcDbArc
 50
270.0
 51
0.0
  0
ARC
  5
1748
330
18
100
AcDbEntity
  8
画層1
 62
     3
100
AcDbCircle
 10
-176.9403009156646
 20
111.1507313520654
 30
0.0
 40
1.0
100
AcDbArc
 50
270.0
 51
0.0
  0
ARC
  5
1749
330
18
100
AcDbEntity
  8
画層1
 62
     3
100
AcDbCircle
 10
-175.9403009156646
 20
110.1507313520654
 30
0.0
 40
1.0
100
AcDbArc
 50
270.0
 51
0.0
  0
ARC
  5
174A
330
18
100
AcDbEntity
  8
画層1
 62
     3
100
AcDbCircle
 10
-221.9403009156646
 20
112.1507313520654
 30
0.0
 40
1.0
100
AcDbArc
 50
180.0
 51
270.0
  0
ARC
  5
174B
330
18
100
AcDbEntity
  8
画層1
 62
     3
100
AcDbCircle
 10
-222.9403009156646
 20
111.1507313520654
 30
0.0
 40
1.0
100
AcDbArc
 50
180.0
 51
270.0
  0
ARC
  5
174C
330
18
100
AcDbEntity
  8
画層1
 62
     3
100
AcDbCircle
 10
-223.9403009156646
 20
110.1507313520654
 30
0.0
 40
1.0
100
AcDbArc
 50
180.0
 51
270.0
  0
LINE
  5
1751
330
18
100
AcDbEntity
  8
画層1
 62
     1
100
AcDbLine
 10
-220.9403009156646
 20
177.8507313520653
 30
0.0
 11
-178.9403009156646
 21
177.8507313520653
 31
0.0
  0
LINE
  5
1752
330
18
100
AcDbEntity
  8
画層1
 62
     1
100
AcDbLine
 10
-178.4403009156646
 20
177.3507313520654
 30
0.0
 11
-178.4403009156646
 21
120.9507313520653
 31
0.0
  0
LINE
  5
1753
330
18
100
AcDbEntity
  8
画層1
 62
     1
100
AcDbLine
 10
-178.9403009156646
 20
120.4507313520654
 30
0.0
 11
-220.9403009156646
 21
120.4507313520654
 31
0.0
  0
LINE
  5
1754
330
18
100
AcDbEntity
  8
画層1
 62
     1
100
AcDbLine
 10
-221.4403009156646
 20
120.9507313520653
 30
0.0
 11
-221.4403009156646
 21
177.3507313520654
 31
0.0
  0
ARC
  5
1755
330
18
100
AcDbEntity
  8
画層1
 62
     1
100
AcDbCircle
 10
-220.9403009156646
 20
177.3507313520654
 30
0.0
 40
0.5
100
AcDbArc
 50
90.0
 51
180.0
  0
ARC
  5
1756
330
18
100
AcDbEntity
  8
画層1
 62
     1
100
AcDbCircle
 10
-178.9403009156646
 20
177.3507313520654
 30
0.0
 40
0.5
100
AcDbArc
 50
0.0
 51
90.0
  0
ARC
  5
1757
330
18
100
AcDbEntity
  8
画層1
 62
     1
100
AcDbCircle
 10
-178.9403009156646
 20
120.9507313520653
 30
0.0
 40
0.5
100
AcDbArc
 50
270.0
 51
0.0
  0
ARC
  5
1758
330
18
100
AcDbEntity
  8
画層1
 62
     1
100
AcDbCircle
 10
-220.9403009156646
 20
120.9507313520653
 30
0.0
 40
0.5
100
AcDbArc
 50
180.0
 51
270.0
  0
LINE
  5
175A
330
18
100
AcDbEntity
  8
画層1
 62
     3
100
AcDbLine
 10
-221.4403009156646
 20
171.6507313520654
 30
0.0
 11
-178.4403009156646
 21
171.6507313520654
 31
0.0
  0
LINE
  5
175F
330
18
100
AcDbEntity
  8
画層1
 62
     1
100
AcDbLine
 10
-204.9403009156645
 20
170.6507313520654
 30
0.0
 11
-182.9403009156646
 21
170.6507313520654
 31
0.0
  0
LINE
  5
1760
330
18
100
AcDbEntity
  8
画層1
 62
     1
100
AcDbLine
 10
-182.9403009156646
 20
170.6507313520654
 30
0.0
 11
-182.9403009156646
 21
167.1507313520654
 31
0.0
  0
LINE
  5
1761
330
18
100
AcDbEntity
  8
画層1
 62
     1
100
AcDbLine
 10
-182.9403009156646
 20
167.1507313520654
 30
0.0
 11
-204.9403009156645
 21
167.1507313520654
 31
0.0
  0
LINE
  5
1762
330
18
100
AcDbEntity
  8
画層1
 62
     1
100
AcDbLine
 10
-204.9403009156645
 20
167.1507313520654
 30
0.0
 11
-204.9403009156645
 21
170.6507313520654
 31
0.0
  0
LINE
  5
176D
330
18
100
AcDbEntity
  8
画層1
 62
     3
100
AcDbLine
 10
-211.9403009156646
 20
161.1507313520654
 30
0.0
 11
-187.9403009156646
 21
161.1507313520654
 31
0.0
  0
LINE
  5
176E
330
18
100
AcDbEntity
  8
画層1
 62
     3
100
AcDbLine
 10
-187.9403009156646
 20
161.1507313520654
 30
0.0
 11
-187.9403009156646
 21
137.1507313520654
 31
0.0
  0
LINE
  5
176F
330
18
100
AcDbEntity
  8
画層1
 62
     3
100
AcDbLine
 10
-187.9403009156646
 20
137.1507313520654
 30
0.0
 11
-211.9403009156646
 21
137.1507313520654
 31
0.0
  0
LINE
  5
1770
330
18
100
AcDbEntity
  8
画層1
 62
     3
100
AcDbLine
 10
-211.9403009156646
 20
137.1507313520654
 30
0.0
 11
-211.9403009156646
 21
161.1507313520654
 31
0.0
  0
LINE
  5
1771
330
18
100
AcDbEntity
  8
画層1
 62
     3
100
AcDbLine
 10
-211.9403009156646
 20
159.1507313520654
 30
0.0
 11
-187.9403009156646
 21
159.1507313520654
 31
0.0
  0
LINE
  5
1772
330
18
100
AcDbEntity
  8
画層1
 62
     3
100
AcDbLine
 10
-187.9403009156646
 20
155.1507313520654
 30
0.0
 11
-211.9403009156646
 21
155.1507313520654
 31
0.0
  0
LINE
  5
1773
330
18
100
AcDbEntity
  8
画層1
 62
     3
100
AcDbLine
 10
-211.9403009156646
 20
139.1507313520654
 30
0.0
 11
-187.9403009156646
 21
139.1507313520654
 31
0.0
  0
LINE
  5
1774
330
18
100
AcDbEntity
  8
画層1
 62
     3
100
AcDbLine
 10
-187.9403009156646
 20
143.1507313520654
 30
0.0
 11
-211.9403009156646
 21
143.1507313520654
 31
0.0
  0
LINE
  5
1775
330
18
100
AcDbEntity
  8
画層1
 62
     3
100
AcDbLine
 10
-205.9403009156646
 20
161.1507313520654
 30
0.0
 11
-205.9403009156646
 21
155.1507313520654
 31
0.0
  0
LINE
  5
1776
330
18
100
AcDbEntity
  8
画層1
 62
     3
100
AcDbLine
 10
-199.9403009156646
 20
161.1507313520654
 30
0.0
 11
-199.9403009156646
 21
155.1507313520654
 31
0.0
  0
LINE
  5
1777
330
18
100
AcDbEntity
  8
画層1
 62
     3
100
AcDbLine
 10
-193.9403009156646
 20
161.1507313520654
 30
0.0
 11
-193.9403009156646
 21
155.1507313520654
 31
0.0
  0
LINE
  5
1778
330
18
100
AcDbEntity
  8
画層1
 62
     3
100
AcDbLine
 10
-205.9403009156646
 20
143.1507313520654
 30
0.0
 11
-205.9403009156646
 21
137.1507313520654
 31
0.0
  0
LINE
  5
1779
330
18
100
AcDbEntity
  8
画層1
 62
     3
100
AcDbLine
 10
-199.9403009156646
 20
143.1507313520654
 30
0.0
 11
-199.9403009156646
 21
137.1507313520654
 31
0.0
  0
LINE
  5
177A
330
18
100
AcDbEntity
  8
画層1
 62
     3
100
AcDbLine
 10
-193.9403009156646
 20
143.1507313520654
 30
0.0
 11
-193.9403009156646
 21
137.1507313520654
 31
0.0
  0
LINE
  5
177F
330
18
100
AcDbEntity
  8
画層1
 62
     3
100
AcDbLine
 10
-196.9403009156646
 20
162.1507313520654
 30
0.0
 11
-196.9403009156646
 21
161.4007313520654
 31
0.0
  0
LINE
  5
1780
330
18
100
AcDbEntity
  8
画層1
 62
     3
100
AcDbLine
 10
-196.9403009156646
 20
162.1507313520654
 30
0.0
 11
-195.4403009156646
 21
162.1507313520654
 31
0.0
  0
LINE
  5
1782
330
18
100
AcDbEntity
  8
画層1
 62
     3
100
AcDbLine
 10
-190.9403009156646
 20
162.1507313520654
 30
0.0
 11
-190.9403009156646
 21
161.4007313520654
 31
0.0
  0
LINE
  5
1783
330
18
100
AcDbEntity
  8
画層1
 62
     3
100
AcDbLine
 10
-190.9403009156646
 20
162.1507313520654
 30
0.0
 11
-192.4403009156646
 21
162.1507313520654
 31
0.0
  0
LINE
  5
1784
330
18
100
AcDbEntity
  8
画層1
 62
     3
100
AcDbLine
 10
-190.9403009156646
 20
136.1507313520654
 30
0.0
 11
-190.9403009156646
 21
136.9007313520654
 31
0.0
  0
LINE
  5
1785
330
18
100
AcDbEntity
  8
画層1
 62
     3
100
AcDbLine
 10
-190.9403009156646
 20
136.1507313520654
 30
0.0
 11
-192.4403009156646
 21
136.1507313520654
 31
0.0
  0
LINE
  5
1786
330
18
100
AcDbEntity
  8
画層1
 62
     3
100
AcDbLine
 10
-196.9403009156646
 20
136.1507313520654
 30
0.0
 11
-196.9403009156646
 21
136.9007313520654
 31
0.0
  0
LINE
  5
1787
330
18
100
AcDbEntity
  8
画層1
 62
     3
100
AcDbLine
 10
-196.9403009156646
 20
136.1507313520654
 30
0.0
 11
-195.4403009156646
 21
136.1507313520654
 31
0.0
  0
LINE
  5
1788
330
18
100
AcDbEntity
  8
画層1
 62
     3
100
AcDbLine
 10
-202.9403009156645
 20
136.1507313520654
 30
0.0
 11
-202.9403009156645
 21
136.9007313520654
 31
0.0
  0
LINE
  5
1789
330
18
100
AcDbEntity
  8
画層1
 62
     3
100
AcDbLine
 10
-202.9403009156645
 20
136.1507313520654
 30
0.0
 11
-204.4403009156646
 21
136.1507313520654
 31
0.0
  0
LINE
  5
178A
330
18
100
AcDbEntity
  8
画層1
 62
     3
100
AcDbLine
 10
-208.9403009156646
 20
136.1507313520654
 30
0.0
 11
-208.9403009156646
 21
136.9007313520654
 31
0.0
  0
LINE
  5
178B
330
18
100
AcDbEntity
  8
画層1
 62
     3
100
AcDbLine
 10
-208.9403009156646
 20
136.1507313520654
 30
0.0
 11
-207.4403009156646
 21
136.1507313520654
 31
0.0
  0
MTEXT
  5
17A0
330
18
100
AcDbEntity
  8
画層1
 62
     1
100
AcDbMText
 10
-206.1230629677886
 20
174.996105393531
 30
0.0
 40
2.7
 41
25.81609999999999
 71
     1
 72
     5
  1
{\fＭＳ Ｐゴシック|b0|i0|c128|p50;CONVERTER}
  7
STYLE1
 73
     1
 44
1.0
  0
MTEXT
  5
17A1
330
18
100
AcDbEntity
  8
画層1
 62
     1
100
AcDbMText
 10
-182.9874072880318
 20
177.3430425311373
 30
0.0
 40
1.0
 41
4.459138793454934
 71
     1
 72
     5
  1
CP2314
  7
STYLE1
 73
     1
 44
1.0
  0
MTEXT
  5
17A2
330
18
100
AcDbEntity
  8
画層1
 62
     1
100
AcDbMText
 10
-217.1676774193878
 20
169.8515113127431
 30
0.0
 40
2.0
 41
12.22737650372322
 71
     1
 72
     5
  1
{\fＭＳ Ｐゴシック|b0|i0|c128|p50;ＭＯＤＥＬ}
  7
STYLE1
 73
     1
 44
1.0
  0
MTEXT
  5
17A3
330
18
100
AcDbEntity
  8
画層1
 62
     1
100
AcDbMText
 10
-202.5202819771533
 20
169.8515113127431
 30
0.0
 40
2.0
 41
13.69229999999999
 71
     1
 72
     5
  1
{\fＭＳ Ｐゴシック|b0|i0|c128|p50;ＣＰ２EH－}
  7
STYLE1
 73
     1
 44
1.0
  0
MTEXT
  5
17A4
330
18
100
AcDbEntity
  8
画層1
 62
     1
100
AcDbMText
 10
-204.6359397426448
 20
150.3916507089899
 30
0.0
 40
2.5
 41
4.4591
 71
     1
 72
     5
  1
SOCKET
  7
STYLE1
 73
     1
 44
1.0
  0
MTEXT
  5
17A5
330
18
100
AcDbEntity
  8
画層1
 62
     1
100
AcDbMText
 10
-210.1063179307676
 20
158.3188636503822
 30
0.0
 40
2.5
 41
2.992590040814103
 71
     1
 72
     5
  1
{\fＭＳ Ｐゴシック|b0|i0|c128|p50;６}
  7
STYLE1
 73
     1
 44
1.0
  0
MTEXT
  5
17A6
330
18
100
AcDbEntity
  8
画層1
 62
     1
100
AcDbMText
 10
-204.1063179307676
 20
158.3188636503822
 30
0.0
 40
2.5
 41
2.992599999999998
 71
     1
 72
     5
  1
{\fＭＳ Ｐゴシック|b0|i0|c128|p50;５}
  7
STYLE1
 73
     1
 44
1.0
  0
MTEXT
  5
17A7
330
18
100
AcDbEntity
  8
画層1
 62
     1
100
AcDbMText
 10
-192.1063179307676
 20
158.3188636503822
 30
0.0
 40
2.5
 41
2.992599999999998
 71
     1
 72
     5
  1
{\fＭＳ Ｐゴシック|b0|i0|c128|p50;３}
  7
STYLE1
 73
     1
 44
1.0
  0
MTEXT
  5
17A8
330
18
100
AcDbEntity
  8
画層1
 62
     1
100
AcDbMText
 10
-198.1063179307676
 20
158.3188636503822
 30
0.0
 40
2.5
 41
2.992599999999998
 71
     1
 72
     5
  1
{\fＭＳ Ｐゴシック|b0|i0|c128|p50;４}
  7
STYLE1
 73
     1
 44
1.0
  0
MTEXT
  5
17A9
330
18
100
AcDbEntity
  8
画層1
 62
     1
100
AcDbMText
 10
-192.1063179307676
 20
142.3188636503823
 30
0.0
 40
2.5
 41
2.992599999999998
 71
     1
 72
     5
  1
{\fＭＳ Ｐゴシック|b0|i0|c128|p50;２}
  7
STYLE1
 73
     1
 44
1.0
  0
MTEXT
  5
17AA
330
18
100
AcDbEntity
  8
画層1
 62
     1
100
AcDbMText
 10
-198.1063179307676
 20
142.3188636503823
 30
0.0
 40
2.5
 41
2.992599999999998
 71
     1
 72
     5
  1
{\fＭＳ Ｐゴシック|b0|i0|c128|p50;１}
  7
STYLE1
 73
     1
 44
1.0
  0
MTEXT
  5
17AB
330
18
100
AcDbEntity
  8
画層1
 62
     1
100
AcDbMText
 10
-204.1063179307676
 20
142.3188636503823
 30
0.0
 40
2.5
 41
2.992599999999998
 71
     1
 72
     5
  1
{\fＭＳ Ｐゴシック|b0|i0|c128|p50;８}
  7
STYLE1
 73
     1
 44
1.0
  0
MTEXT
  5
17AC
330
18
100
AcDbEntity
  8
画層1
 62
     1
100
AcDbMText
 10
-210.1063179307676
 20
142.3188636503823
 30
0.0
 40
2.5
 41
2.992599999999998
 71
     1
 72
     5
  1
{\fＭＳ Ｐゴシック|b0|i0|c128|p50;７}
  7
STYLE1
 73
     1
 44
1.0
  0
MTEXT
  5
17BE
330
18
100
AcDbEntity
  8
画層1
 62
     1
100
AcDbMText
 10
-208.8962215982835
 20
144.8091098140544
 30
0.0
 40
0.8
 41
3.2231
 71
     1
 72
     5
  1
{\fＭＳ Ｐゴシック|b0|i0|c128|p50;〔＋〕}
  7
STYLE1
 73
     1
 44
1.0
  0
MTEXT
  5
17BF
330
18
100
AcDbEntity
  8
画層1
 62
     1
100
AcDbMText
 10
-210.7679955486207
 20
145.0833197253134
 30
0.0
 40
1.5
 41
4.989799999999998
 71
     1
 72
     5
  1
{\fＭＳ Ｐゴシック|b0|i0|c128|p50;Ｕ}
  7
STYLE1
 73
     1
 44
1.0
  0
MTEXT
  5
17C0
330
18
100
AcDbEntity
  8
画層1
 62
     1
100
AcDbMText
 10
-202.8962215982835
 20
144.8091098140544
 30
0.0
 40
0.8
 41
3.2231
 71
     1
 72
     5
  1
{\fＭＳ Ｐゴシック|b0|i0|c128|p50;〔－〕}
  7
STYLE1
 73
     1
 44
1.0
  0
MTEXT
  5
17C1
330
18
100
AcDbEntity
  8
画層1
 62
     1
100
AcDbMText
 10
-204.7679955486207
 20
145.0833197253134
 30
0.0
 40
1.5
 41
4.989799999999998
 71
     1
 72
     5
  1
{\fＭＳ Ｐゴシック|b0|i0|c128|p50;Ｖ}
  7
STYLE1
 73
     1
 44
1.0
  0
MTEXT
  5
17C2
330
18
100
AcDbEntity
  8
画層1
 62
     1
100
AcDbMText
 10
-197.9791670995911
 20
145.0833197253134
 30
0.0
 40
1.5
 41
4.989799999999998
 71
     1
 72
     5
  1
{\fＭＳ Ｐゴシック|b0|i0|c128|p50;＋}
  7
STYLE1
 73
     1
 44
1.0
  0
MTEXT
  5
17C3
330
18
100
AcDbEntity
  8
画層1
 62
     1
100
AcDbMText
 10
-191.9791670995911
 20
145.0833197253134
 30
0.0
 40
1.5
 41
4.989799999999998
 71
     1
 72
     5
  1
{\fＭＳ Ｐゴシック|b0|i0|c128|p50;－}
  7
STYLE1
 73
     1
 44
1.0
  0
MTEXT
  5
17C4
330
18
100
AcDbEntity
  8
画層1
 62
     1
100
AcDbMText
 10
-197.9607487285067
 20
164.3586143232961
 30
0.0
 40
1.7
 41
9.400469307446982
 71
     1
 72
     5
  1
{\fＭＳ Ｐゴシック|b0|i0|c128|p50;ＩＮＰＵＴ 1}
  7
STYLE1
 73
     1
 44
1.0
  0
MTEXT
  5
17C5
330
18
100
AcDbEntity
  8
画層1
 62
     1
100
AcDbMText
 10
-210.863596819066
 20
135.6983614917363
 30
0.0
 40
1.7
 41
9.93593253145319
 71
     1
 72
     5
  1
{\fＭＳ Ｐゴシック|b0|i0|c128|p50;ＰＯＷＥＲ}
  7
STYLE1
 73
     1
 44
1.0
  0
MTEXT
  5
17C6
330
18
100
AcDbEntity
  8
画層1
 62
     1
100
AcDbMText
 10
-199.1263478155856
 20
135.6983614917363
 30
0.0
 40
1.7
 41
11.29459449970931
 71
     1
 72
     5
  1
{\fＭＳ Ｐゴシック|b0|i0|c128|p50;ＯＵＴＰＵＴ}
  7
STYLE1
 73
     1
 44
1.0
  0
HATCH
  5
17CE
330
18
100
AcDbEntity
  8
画層1
 62
     1
100
AcDbHatch
 10
0.0
 20
0.0
 30
0.0
210
0.0
220
0.0
230
1.0
  2
SOLID
 70
     1
 71
     0
 91
       10
 92
        5
 93
       10
 72
     3
 10
-217.5538742377571
 20
124.6131968542407
 11
-0.7756232686980609
 21
0.0
 40
0.6607142857142858
 50
90.0
 51
270.0
 73
     1
 72
     2
 10
-217.5538742377571
 20
125.2087647212767
 40
0.0831024930747928
 50
89.99999999999628
 51
269.9999999999955
 73
     0
 72
     2
 10
-217.5040915791391
 20
124.2229331807372
 40
1.070092650810335
 50
267.3335335883713
 51
296.4437824908838
 73
     0
 72
     1
 10
-217.0275584482835
 20
125.1810638902517
 11
-216.9167551241837
 21
125.4303713694763
 72
     2
 10
-217.5945536705865
 20
124.1320648684214
 40
1.464585484083003
 50
62.43257811529774
 51
90.5759553231079
 73
     1
 72
     3
 10
-217.6092758998071
 20
125.0841109816645
 11
0.754598545468741
 21
0.0
 40
0.679123193436433
 50
90.0
 51
270.0
 73
     1
 72
     2
 10
-217.6092758998071
 20
124.4885431146286
 40
0.0831024930747928
 50
270.0000000000023
 51
450.0000000000031
 73
     0
 72
     2
 10
-217.680070940642
 20
125.8520194339987
 40
1.448310118179685
 50
87.1982008190587
 51
115.4216641289815
 73
     0
 72
     1
 10
-218.3017966754302
 20
124.5439447766784
 11
-218.4403008305549
 21
124.294637297454
 72
     2
 10
-217.6134602798132
 20
125.9514089801478
 40
1.851636493733764
 50
243.4777171338575
 51
271.8441083094921
 73
     1
 97
        0
 92
        7
 72
     0
 73
     1
 93
       12
 10
-214.7283894732141
 20
125.5688755246009
 10
-215.4486110798624
 20
125.5688755246009
 10
-215.4486110798624
 20
125.0425597351272
 10
-215.8918243762613
 20
125.0425597351272
 10
-215.8918243762613
 20
125.5688755246009
 10
-216.6120459829095
 20
125.5688755246009
 10
-216.6120459829095
 20
124.1284323113045
 10
-215.8918243762613
 20
124.1284323113045
 10
-215.8918243762613
 20
124.6547481007781
 10
-215.4486110798624
 20
124.6547481007781
 10
-215.4486110798624
 20
124.1284323113045
 10
-214.7283894732141
 20
124.1284323113045
 97
        0
 92
        7
 72
     0
 73
     1
 93
        4
 10
-213.7865612183666
 20
125.5688755246009
 10
-214.5067828250148
 20
125.5688755246009
 10
-214.5067828250148
 20
124.1284323113045
 10
-213.7865612183666
 20
124.1284323113045
 97
        0
 92
        7
 72
     0
 73
     1
 93
       13
 10
-211.3488880881726
 20
125.5688755246009
 10
-212.0137080327709
 20
125.5688755246009
 10
-212.3184171740453
 20
124.9594572420524
 10
-212.5677246532695
 20
125.5688755246009
 10
-213.3433479219676
 20
125.5688755246009
 10
-213.5926554011921
 20
124.1284323113045
 10
-212.9001346255687
 20
124.1284323113045
 10
-212.8170321324939
 20
124.5993464387282
 10
-212.5677246532695
 20
124.1284323113045
 10
-212.1245113568706
 20
124.1284323113045
 10
-211.9029047086713
 20
124.5993464387282
 10
-211.7921013845716
 20
124.1284323113045
 10
-211.0995806089483
 20
124.1284323113045
 97
        0
 92
        7
 72
     0
 73
     1
 93
        8
 10
-209.4098299164274
 20
125.5688755246009
 10
-210.2408548471753
 20
125.5688755246009
 10
-210.9056747917738
 20
124.1284323113045
 10
-210.1854531851255
 20
124.1284323113045
 10
-210.0654162506843
 20
124.4054406215538
 10
-209.5483340715522
 20
124.4054406215538
 10
-209.4098299164274
 20
124.1284323113045
 10
-208.7450099718291
 20
124.1284323113045
 97
        0
 92
       22
 72
     0
 73
     1
 93
        3
 10
-209.9573830096869
 20
124.6547481007781
 10
-209.8253423818014
 20
124.9594572420524
 10
-209.6729878111644
 20
124.6547481007781
 97
        0
 92
        7
 72
     1
 73
     1
 93
        4
 10
-207.2768659275078
 20
125.5688755246009
 42
0.0
 10
-208.5511041546545
 20
125.5688755246009
 42
0.0
 10
-208.5511041546545
 20
124.1284323113045
 42
0.0
 10
-207.2768659275078
 20
124.1284323113045
 42
1.0
 97
        0
 92
       22
 72
     1
 73
     1
 93
        4
 10
-207.8308825480065
 20
125.2087647212767
 42
0.0
 10
-207.6646775618569
 20
125.2087647212767
 42
-1.0
 10
-207.6646775618569
 20
124.4885431146286
 42
0.0
 10
-207.8308825480065
 20
124.4885431146286
 42
0.0
 97
        0
 92
        7
 72
     0
 73
     1
 93
       12
 10
-205.642516897037
 20
124.6547481007781
 10
-205.0053977834636
 20
124.6547481007781
 10
-205.0053977834636
 20
125.0425597351272
 10
-205.642516897037
 20
125.0425597351272
 10
-205.642516897037
 20
125.2641663833266
 10
-204.8945944593638
 20
125.2641663833266
 10
-204.8945944593638
 20
125.5688755246009
 10
-206.3904393347101
 20
125.5688755246009
 10
-206.3904393347101
 20
124.1284323113045
 10
-204.8945944593638
 20
124.1284323113045
 10
-204.8945944593638
 20
124.4331414525786
 10
-205.642516897037
 20
124.4331414525786
 97
        0
 92
        7
 72
     0
 73
     1
 93
       10
 10
-203.980467035541
 20
124.7932522559028
 10
-203.3156470909427
 20
124.1284323113045
 10
-202.5400238222446
 20
124.1284323113045
 10
-202.5400238222446
 20
125.5688755246009
 10
-203.2602454288928
 20
125.5688755246009
 10
-203.2602454288928
 20
124.9594572420524
 10
-203.8696637114413
 20
125.5688755246009
 10
-204.7006886421891
 20
125.5688755246009
 10
-204.7006886421891
 20
124.1284323113045
 10
-203.980467035541
 20
124.1284323113045
 97
        0
 75
     0
 76
     1
 47
0.3117117095827506
 98
       10
 10
-217.3942813227857
 20
124.6727070422284
 10
-216.3696060140608
 20
124.7908293672288
 10
-213.9655600134495
 20
124.7514552425468
 10
-213.1379376347123
 20
124.6333329175463
 10
-210.4580175685128
 20
124.5939587928643
 10
-210.4580175685128
 20
124.5939587928643
 10
-208.2116139300889
 20
124.554584717228
 10
-208.2116139300889
 20
124.554584717228
 10
-206.1622633126388
 20
124.5939587928643
 10
-204.3493761929769
 20
124.5939587928643
  0
MTEXT
  5
17CF
330
18
100
AcDbEntity
  8
画層1
 62
     1
100
AcDbMText
 10
-217.2803511643222
 20
123.6245700226859
 30
0.0
 40
1.0
 41
14.51342714612831
 71
     1
 72
     5
  1
{\fＭＳ Ｐゴシック|b0|i0|c128|p50;ＭＡＤＥ　ＩＮ　ＪＡＰＡＮ}
  7
STYLE1
 73
     1
 44
1.0
  0
HATCH
  5
17D8
330
18
100
AcDbEntity
  8
画層1
 62
     1
100
AcDbHatch
 10
0.0
 20
0.0
 30
0.0
210
0.0
220
0.0
230
1.0
  2
SOLID
 70
     1
 71
     0
 91
        1
 92
        7
 72
     0
 73
     1
 93
        3
 10
-194.9403009156646
 20
161.1507313520654
 10
-198.9403009156646
 20
161.1507313520654
 10
-196.9403009156646
 20
159.1507313520654
 97
        0
 75
     0
 76
     1
 47
0.0724659212988218
 98
        1
 10
-197.0607040513072
 20
159.950526623242
  0
HATCH
  5
17DC
330
18
100
AcDbEntity
  8
画層1
 62
     1
100
AcDbHatch
 10
0.0
 20
0.0
 30
0.0
210
0.0
220
0.0
230
1.0
  2
SOLID
 70
     1
 71
     0
 91
        1
 92
        7
 72
     0
 73
     1
 93
        3
 10
-188.9403009156646
 20
161.1507313520654
 10
-192.9403009156646
 20
161.1507313520654
 10
-190.9403009156646
 20
159.1507313520654
 97
        0
 75
     0
 76
     1
 47
0.0724659212988218
 98
        1
 10
-191.1887179329441
 20
160.1679238899778
  0
HATCH
  5
17E0
330
18
100
AcDbEntity
  8
画層1
 62
     1
100
AcDbHatch
 10
0.0
 20
0.0
 30
0.0
210
0.0
220
0.0
230
1.0
  2
SOLID
 70
     1
 71
     0
 91
        1
 92
        7
 72
     0
 73
     1
 93
        3
 10
-208.9403009156646
 20
139.1507313520654
 10
-210.9403009156646
 20
137.1507313520654
 10
-206.9403009156645
 20
137.1507313520654
 97
        0
 75
     0
 76
     1
 47
0.0724659212988218
 98
        1
 10
-208.4422068429073
 20
138.3556812509016
  0
HATCH
  5
17E4
330
18
100
AcDbEntity
  8
画層1
 62
     1
100
AcDbHatch
 10
0.0
 20
0.0
 30
0.0
210
0.0
220
0.0
230
1.0
  2
SOLID
 70
     1
 71
     0
 91
        1
 92
        7
 72
     0
 73
     1
 93
        3
 10
-202.9403009156645
 20
139.1507313520654
 10
-204.9403009156645
 20
137.1507313520654
 10
-200.9403009156645
 20
137.1507313520654
 97
        0
 75
     0
 76
     1
 47
0.0724659212988218
 98
        1
 10
-202.8601956645796
 20
137.9208860538628
  0
HATCH
  5
17E8
330
18
100
AcDbEntity
  8
画層1
 62
     1
100
AcDbHatch
 10
0.0
 20
0.0
 30
0.0
210
0.0
220
0.0
230
1.0
  2
SOLID
 70
     1
 71
     0
 91
        1
 92
        7
 72
     0
 73
     1
 93
        3
 10
-194.9403009156646
 20
139.1507313520654
 10
-198.9403009156646
 20
139.1507313520654
 10
-196.9403009156646
 20
137.1507313520654
 97
        0
 75
     0
 76
     1
 47
0.0724659212988218
 98
        1
 10
-197.133197529622
 20
138.1382839841658
  0
HATCH
  5
17EC
330
18
100
AcDbEntity
  8
画層1
 62
     1
100
AcDbHatch
 10
0.0
 20
0.0
 30
0.0
210
0.0
220
0.0
230
1.0
  2
SOLID
 70
     1
 71
     0
 91
        1
 92
        7
 72
     0
 73
     1
 93
        3
 10
-188.9403009156646
 20
139.1507313520654
 10
-192.9403009156646
 20
139.1507313520654
 10
-190.9403009156646
 20
137.1507313520654
 97
        0
 75
     0
 76
     1
 47
0.0724659212988218
 98
        1
 10
-190.6812625579646
 20
138.1382839841658
  0
LINE
  5
17FF
330
18
100
AcDbEntity
  8
画層1
 62
     3
100
AcDbLine
 10
-201.4403009156646
 20
189.1507313520653
 30
0.0
 11
-201.4403009156646
 21
191.1507313520653
 31
0.0
  0
LINE
  5
1800
330
18
100
AcDbEntity
  8
画層1
 62
     3
100
AcDbLine
 10
-201.4403009156646
 20
191.1507313520653
 30
0.0
 11
-198.4403009156646
 21
191.1507313520653
 31
0.0
  0
LINE
  5
1801
330
18
100
AcDbEntity
  8
画層1
 62
     3
100
AcDbLine
 10
-198.4403009156646
 20
191.1507313520653
 30
0.0
 11
-198.4403009156646
 21
189.1507313520653
 31
0.0
  0
LINE
  5
1802
330
18
100
AcDbEntity
  8
画層1
 62
     3
100
AcDbLine
 10
-198.4403009156646
 20
107.1507313520654
 30
0.0
 11
-198.4403009156646
 21
109.1507313520654
 31
0.0
  0
LINE
  5
1803
330
18
100
AcDbEntity
  8
画層1
 62
     3
100
AcDbLine
 10
-201.4403009156646
 20
107.1507313520654
 30
0.0
 11
-198.4403009156646
 21
107.1507313520654
 31
0.0
  0
LINE
  5
1804
330
18
100
AcDbEntity
  8
画層1
 62
     3
100
AcDbLine
 10
-201.4403009156646
 20
109.1507313520654
 30
0.0
 11
-201.4403009156646
 21
107.1507313520654
 31
0.0
  0
LINE
  5
1805
330
18
100
AcDbEntity
  8
画層1
 62
     3
100
AcDbLine
 10
-202.4403009156646
 20
105.1507313520654
 30
0.0
 11
-197.4403009156645
 21
105.1507313520654
 31
0.0
  0
LINE
  5
1806
330
18
100
AcDbEntity
  8
画層1
 62
     3
100
AcDbLine
 10
-194.4403009156646
 20
107.1507313520654
 30
0.0
 11
-194.4403009156646
 21
109.1507313520654
 31
0.0
  0
LINE
  5
1807
330
18
100
AcDbEntity
  8
画層1
 62
     3
100
AcDbLine
 10
-205.4403009156646
 20
109.1507313520654
 30
0.0
 11
-205.4403009156646
 21
107.1507313520654
 31
0.0
  0
LINE
  5
1808
330
18
100
AcDbEntity
  8
画層1
 62
     3
100
AcDbLine
 10
-205.4403009156646
 20
107.1507313520654
 30
0.0
 11
-202.4403009156646
 21
105.1507313520654
 31
0.0
  0
LINE
  5
1809
330
18
100
AcDbEntity
  8
画層1
 62
     3
100
AcDbLine
 10
-194.4403009156646
 20
107.1507313520654
 30
0.0
 11
-197.4403009156645
 21
105.1507313520654
 31
0.0
  0
LINE
  5
1813
330
18
100
AcDbEntity
  8
画層1
 62
     3
100
AcDbLine
 10
-54.94030091566469
 20
189.1507313520653
 30
0.0
 11
-153.7423210146316
 21
188.1527311490454
 31
0.0
  0
LINE
  5
1814
330
18
100
AcDbEntity
  8
画層1
 62
     3
100
AcDbLine
 10
-153.9403009156647
 20
187.9527413513053
 30
0.0
 11
-153.9403009156647
 21
110.3487213528255
 31
0.0
  0
LINE
  5
1815
330
18
100
AcDbEntity
  8
画層1
 62
     3
100
AcDbLine
 10
-153.7423210146316
 20
110.1487315550852
 30
0.0
 11
-54.94030091566469
 21
109.1507313520654
 31
0.0
  0
LINE
  5
1816
330
18
100
AcDbEntity
  8
画層1
 62
     3
100
AcDbLine
 10
-54.94030091566469
 20
109.1507313520654
 30
0.0
 11
-54.94030091566472
 21
189.1507313520653
 31
0.0
  0
LINE
  5
1817
330
18
100
AcDbEntity
  8
画層1
 62
     3
100
AcDbLine
 10
-153.9403009156647
 20
187.1507313520653
 30
0.0
 11
-154.9403009156646
 21
187.1507313520653
 31
0.0
  0
LINE
  5
1818
330
18
100
AcDbEntity
  8
画層1
 62
     3
100
AcDbLine
 10
-154.9403009156646
 20
187.1507313520653
 30
0.0
 11
-154.9403009156646
 21
111.1507313520654
 31
0.0
  0
LINE
  5
1819
330
18
100
AcDbEntity
  8
画層1
 62
     3
100
AcDbLine
 10
-154.9403009156646
 20
111.1507313520654
 30
0.0
 11
-153.9403009156647
 21
111.1507313520654
 31
0.0
  0
LINE
  5
181E
330
18
100
AcDbEntity
  8
画層1
 62
     3
100
AcDbLine
 10
-62.04030091566473
 20
157.1507313520654
 30
0.0
 11
-59.94030091566469
 21
157.1507313520654
 31
0.0
  0
LINE
  5
181F
330
18
100
AcDbEntity
  8
画層1
 62
     3
100
AcDbLine
 10
-59.94030091566469
 20
157.1507313520654
 30
0.0
 11
-59.94030091566469
 21
141.1507313520654
 31
0.0
  0
LINE
  5
1820
330
18
100
AcDbEntity
  8
画層1
 62
     3
100
AcDbLine
 10
-59.94030091566469
 20
141.1507313520654
 30
0.0
 11
-62.04030091566473
 21
141.1507313520654
 31
0.0
  0
LINE
  5
1821
330
18
100
AcDbEntity
  8
画層1
 62
     3
100
AcDbLine
 10
-62.04030091566473
 20
141.1507313520654
 30
0.0
 11
-62.04030091566473
 21
157.1507313520654
 31
0.0
  0
LINE
  5
1823
330
18
100
AcDbEntity
  8
画層1
 62
     3
100
AcDbLine
 10
-59.94030091566469
 20
156.9007313520654
 30
0.0
 11
-61.94030091566469
 21
156.9007313520654
 31
0.0
  0
LINE
  5
1824
330
18
100
AcDbEntity
  8
画層1
 62
     3
100
AcDbLine
 10
-61.94030091566469
 20
156.9007313520654
 30
0.0
 11
-61.94030091566469
 21
141.4007313520654
 31
0.0
  0
LINE
  5
1825
330
18
100
AcDbEntity
  8
画層1
 62
     3
100
AcDbLine
 10
-61.94030091566469
 20
141.4007313520654
 30
0.0
 11
-59.94030091566469
 21
141.4007313520654
 31
0.0
  0
LINE
  5
1826
330
18
100
AcDbEntity
  8
画層1
 62
     3
100
AcDbLine
 10
-61.4403009156647
 20
141.4007313520654
 30
0.0
 11
-61.44030091566469
 21
156.9007313520654
 31
0.0
  0
ARC
  5
1827
330
18
100
AcDbEntity
  8
画層1
 62
     3
100
AcDbCircle
 10
-153.7403009156647
 20
187.9527413513053
 30
0.0
 40
0.2
100
AcDbArc
 50
90.57872556560775
 51
180.0
  0
ARC
  5
1828
330
18
100
AcDbEntity
  8
画層1
 62
     3
100
AcDbCircle
 10
-153.7403009156647
 20
110.3487213528255
 30
0.0
 40
0.2
100
AcDbArc
 50
180.0
 51
269.4212744343922
  0
LINE
  5
1830
330
18
100
AcDbEntity
  8
画層1
 62
     3
100
AcDbLine
 10
-51.94030091566471
 20
189.1507313520653
 30
0.0
 11
-53.4403009156647
 21
187.6507313520653
 31
0.0
  0
LINE
  5
1831
330
18
100
AcDbEntity
  8
画層1
 62
     3
100
AcDbLine
 10
-51.94030091566471
 20
187.1507313520653
 30
0.0
 11
-53.4403009156647
 21
185.6507313520653
 31
0.0
  0
LINE
  5
1832
330
18
100
AcDbEntity
  8
画層1
 62
     3
100
AcDbLine
 10
-51.94030091566471
 20
189.1507313520653
 30
0.0
 11
-34.9403009156647
 21
189.1507313520653
 31
0.0
  0
LINE
  5
1833
330
18
100
AcDbEntity
  8
画層1
 62
     3
100
AcDbLine
 10
-51.94030091566471
 20
187.1507313520653
 30
0.0
 11
-34.9403009156647
 21
187.1507313520653
 31
0.0
  0
LINE
  5
1836
330
18
100
AcDbEntity
  8
画層1
 62
     3
100
AcDbLine
 10
-51.4403009156647
 20
189.1507313520653
 30
0.0
 11
-52.44030091566472
 21
191.1507313520653
 31
0.0
  0
ARC
  5
183A
330
18
100
AcDbEntity
  8
画層1
 62
     3
100
AcDbCircle
 10
-63.9403009156647
 20
190.1507313520653
 30
0.0
 40
1.0
100
AcDbArc
 50
90.0
 51
270.0
  0
LINE
  5
183B
330
18
100
AcDbEntity
  8
画層1
 62
     3
100
AcDbLine
 10
-63.9403009156647
 20
191.1507313520653
 30
0.0
 11
-52.44030091566472
 21
191.1507313520653
 31
0.0
  0
LINE
  5
183C
330
18
100
AcDbEntity
  8
画層1
 62
     3
100
AcDbLine
 10
-63.9403009156647
 20
189.1507313520653
 30
0.0
 11
-54.94030091566469
 21
189.1507313520653
 31
0.0
  0
LINE
  5
1841
330
18
100
AcDbEntity
  8
画層1
 62
     3
100
AcDbLine
 10
-53.4403009156647
 20
187.6507313520653
 30
0.0
 11
-53.4403009156647
 21
171.1507313520653
 31
0.0
  0
LINE
  5
1842
330
18
100
AcDbEntity
  8
画層1
 62
     3
100
AcDbLine
 10
-53.4403009156647
 20
171.1507313520653
 30
0.0
 11
-54.94030091566469
 21
171.1507313520653
 31
0.0
  0
LINE
  5
1843
330
18
100
AcDbEntity
  8
画層1
 62
     3
100
AcDbLine
 10
-54.94030091566469
 20
166.1507313520654
 30
0.0
 11
-53.4403009156647
 21
166.1507313520654
 31
0.0
  0
LINE
  5
1844
330
18
100
AcDbEntity
  8
画層1
 62
     3
100
AcDbLine
 10
-53.4403009156647
 20
166.1507313520654
 30
0.0
 11
-53.4403009156647
 21
132.1507313520654
 31
0.0
  0
LINE
  5
1845
330
18
100
AcDbEntity
  8
画層1
 62
     3
100
AcDbLine
 10
-53.4403009156647
 20
184.6507313520653
 30
0.0
 11
-54.94030091566472
 21
184.6507313520653
 31
0.0
  0
LINE
  5
1847
330
18
100
AcDbEntity
  8
画層1
 62
     3
100
AcDbLine
 10
-54.94030091566469
 20
163.6507313520653
 30
0.0
 11
-53.4403009156647
 21
163.6507313520653
 31
0.0
  0
LINE
  5
1848
330
18
100
AcDbEntity
  8
画層1
 62
     3
100
AcDbLine
 10
-53.4403009156647
 20
110.6507313520654
 30
0.0
 11
-53.4403009156647
 21
127.1507313520654
 31
0.0
  0
LINE
  5
1849
330
18
100
AcDbEntity
  8
画層1
 62
     3
100
AcDbLine
 10
-54.94030091566469
 20
134.6507313520654
 30
0.0
 11
-53.4403009156647
 21
134.6507313520654
 31
0.0
  0
LINE
  5
184A
330
18
100
AcDbEntity
  8
画層1
 62
     3
100
AcDbLine
 10
-54.94030091566469
 20
132.1507313520654
 30
0.0
 11
-53.4403009156647
 21
132.1507313520654
 31
0.0
  0
LINE
  5
184B
330
18
100
AcDbEntity
  8
画層1
 62
     3
100
AcDbLine
 10
-53.4403009156647
 20
127.1507313520654
 30
0.0
 11
-54.94030091566469
 21
127.1507313520654
 31
0.0
  0
LINE
  5
184C
330
18
100
AcDbEntity
  8
画層1
 62
     3
100
AcDbLine
 10
-51.94030091566471
 20
111.1507313520654
 30
0.0
 11
-34.9403009156647
 21
111.1507313520654
 31
0.0
  0
LINE
  5
184D
330
18
100
AcDbEntity
  8
画層1
 62
     3
100
AcDbLine
 10
-51.94030091566471
 20
109.1507313520654
 30
0.0
 11
-34.9403009156647
 21
109.1507313520654
 31
0.0
  0
LINE
  5
184E
330
18
100
AcDbEntity
  8
画層1
 62
     3
100
AcDbLine
 10
-63.9403009156647
 20
109.1507313520654
 30
0.0
 11
-54.94030091566469
 21
109.1507313520654
 31
0.0
  0
LINE
  5
184F
330
18
100
AcDbEntity
  8
画層1
 62
     3
100
AcDbLine
 10
-63.9403009156647
 20
107.1507313520654
 30
0.0
 11
-52.44030091566472
 21
107.1507313520654
 31
0.0
  0
ARC
  5
1850
330
18
100
AcDbEntity
  8
画層1
 62
     3
100
AcDbCircle
 10
-63.9403009156647
 20
108.1507313520654
 30
0.0
 40
1.0
100
AcDbArc
 50
90.00000000000005
 51
270.0
  0
LINE
  5
1851
330
18
100
AcDbEntity
  8
画層1
 62
     3
100
AcDbLine
 10
-51.94030091566471
 20
109.1507313520654
 30
0.0
 11
-53.4403009156647
 21
110.6507313520654
 31
0.0
  0
LINE
  5
1852
330
18
100
AcDbEntity
  8
画層1
 62
     3
100
AcDbLine
 10
-53.4403009156647
 20
113.6507313520654
 30
0.0
 11
-54.94030091566472
 21
113.6507313520654
 31
0.0
  0
LINE
  5
1853
330
18
100
AcDbEntity
  8
画層1
 62
     3
100
AcDbLine
 10
-51.94030091566471
 20
111.1507313520654
 30
0.0
 11
-53.4403009156647
 21
112.6507313520654
 31
0.0
  0
LINE
  5
1854
330
18
100
AcDbEntity
  8
画層1
 62
     3
100
AcDbLine
 10
-51.4403009156647
 20
109.1507313520654
 30
0.0
 11
-52.44030091566472
 21
107.1507313520654
 31
0.0
  0
LINE
  5
1857
330
18
100
AcDbEntity
  8
画層1
 62
     3
100
AcDbLine
 10
-38.9403009156647
 20
111.1507313520654
 30
0.0
 11
-38.94030091566468
 21
105.1507313520654
 31
0.0
  0
LINE
  5
1858
330
18
100
AcDbEntity
  8
画層1
 62
     3
100
AcDbLine
 10
-38.94030091566468
 20
105.1507313520654
 30
0.0
 11
-34.9403009156647
 21
105.1507313520654
 31
0.0
  0
LINE
  5
1859
330
18
100
AcDbEntity
  8
画層1
 62
     3
100
AcDbLine
 10
-38.94030091566468
 20
107.1507313520654
 30
0.0
 11
-34.94030091566469
 21
107.1507313520654
 31
0.0
  0
LINE
  5
185A
330
18
100
AcDbEntity
  8
画層1
 62
     3
100
AcDbLine
 10
-38.9403009156647
 20
110.6507313520654
 30
0.0
 11
-34.9403009156647
 21
110.6507313520654
 31
0.0
  0
LINE
  5
1860
330
18
100
AcDbEntity
  8
画層1
 62
     3
100
AcDbLine
 10
-34.94030091566469
 20
166.8507313520654
 30
0.0
 11
-38.44030091566468
 21
166.8507313520654
 31
0.0
  0
LINE
  5
1861
330
18
100
AcDbEntity
  8
画層1
 62
     3
100
AcDbLine
 10
-34.94030091566469
 20
131.4507313520654
 30
0.0
 11
-38.44030091566468
 21
131.4507313520654
 31
0.0
  0
LINE
  5
1862
330
18
100
AcDbEntity
  8
画層1
 62
     3
100
AcDbLine
 10
-34.94030091566469
 20
169.3507313520654
 30
0.0
 11
-38.44030091566468
 21
169.3507313520654
 31
0.0
  0
LINE
  5
1863
330
18
100
AcDbEntity
  8
画層1
 62
     3
100
AcDbLine
 10
-34.94030091566469
 20
128.9507313520654
 30
0.0
 11
-38.44030091566468
 21
128.9507313520654
 31
0.0
  0
LINE
  5
1869
330
18
100
AcDbEntity
  8
画層1
 62
     3
100
AcDbLine
 10
-37.4403009156647
 20
166.8507313520654
 30
0.0
 11
-37.44030091566468
 21
164.8507313520654
 31
0.0
  0
LINE
  5
186A
330
18
100
AcDbEntity
  8
画層1
 62
     3
100
AcDbLine
 10
-37.44030091566468
 20
164.8507313520654
 30
0.0
 11
-36.44030091566468
 21
164.8507313520654
 31
0.0
  0
LINE
  5
186B
330
18
100
AcDbEntity
  8
画層1
 62
     3
100
AcDbLine
 10
-36.44030091566468
 20
164.8507313520654
 30
0.0
 11
-34.94030091566469
 21
166.8507313520654
 31
0.0
  0
LINE
  5
186C
330
18
100
AcDbEntity
  8
画層1
 62
     3
100
AcDbLine
 10
-37.4403009156647
 20
131.4507313520654
 30
0.0
 11
-37.44030091566468
 21
132.9507313520654
 31
0.0
  0
LINE
  5
186D
330
18
100
AcDbEntity
  8
画層1
 62
     3
100
AcDbLine
 10
-37.44030091566468
 20
132.9507313520654
 30
0.0
 11
-36.69030091566468
 21
132.9507313520654
 31
0.0
  0
LINE
  5
186E
330
18
100
AcDbEntity
  8
画層1
 62
     3
100
AcDbLine
 10
-36.69030091566468
 20
132.9507313520654
 30
0.0
 11
-34.9403009156647
 21
131.4507313520654
 31
0.0
  0
LINE
  5
1871
330
18
100
AcDbEntity
  8
画層1
 62
     3
100
AcDbLine
 10
-38.44030091566468
 20
158.1507313520654
 30
0.0
 11
-34.94030091566469
 21
158.1507313520654
 31
0.0
  0
LINE
  5
1872
330
18
100
AcDbEntity
  8
画層1
 62
     3
100
AcDbLine
 10
-34.94030091566469
 20
158.1507313520654
 30
0.0
 11
-34.94030091566469
 21
154.1507313520654
 31
0.0
  0
LINE
  5
1873
330
18
100
AcDbEntity
  8
画層1
 62
     3
100
AcDbLine
 10
-34.94030091566469
 20
154.1507313520654
 30
0.0
 11
-38.44030091566468
 21
154.1507313520654
 31
0.0
  0
LINE
  5
1874
330
18
100
AcDbEntity
  8
画層1
 62
     3
100
AcDbLine
 10
-34.94030091566469
 20
140.1507313520654
 30
0.0
 11
-34.94030091566469
 21
144.1507313520654
 31
0.0
  0
LINE
  5
1875
330
18
100
AcDbEntity
  8
画層1
 62
     3
100
AcDbLine
 10
-34.94030091566469
 20
144.1507313520654
 30
0.0
 11
-38.44030091566468
 21
144.1507313520654
 31
0.0
  0
LINE
  5
1876
330
18
100
AcDbEntity
  8
画層1
 62
     3
100
AcDbLine
 10
-38.44030091566468
 20
140.1507313520654
 30
0.0
 11
-34.94030091566469
 21
140.1507313520654
 31
0.0
  0
LINE
  5
1877
330
18
100
AcDbEntity
  8
画層1
 62
     3
100
AcDbLine
 10
-34.9403009156647
 20
189.1507313520653
 30
0.0
 11
-34.94030091566469
 21
166.8507313520654
 31
0.0
  0
LINE
  5
1878
330
18
100
AcDbEntity
  8
画層1
 62
     3
100
AcDbLine
 10
-38.44030091566468
 20
169.3507313520654
 30
0.0
 11
-38.44030091566468
 21
158.1507313520654
 31
0.0
  0
LINE
  5
1879
330
18
100
AcDbEntity
  8
画層1
 62
     3
100
AcDbLine
 10
-38.44030091566468
 20
154.1507313520654
 30
0.0
 11
-38.44030091566468
 21
144.1507313520654
 31
0.0
  0
LINE
  5
187A
330
18
100
AcDbEntity
  8
画層1
 62
     3
100
AcDbLine
 10
-38.44030091566468
 20
140.1507313520654
 30
0.0
 11
-38.44030091566468
 21
128.9507313520654
 31
0.0
  0
LINE
  5
187B
330
18
100
AcDbEntity
  8
画層1
 62
     3
100
AcDbLine
 10
-34.94030091566469
 20
131.4507313520654
 30
0.0
 11
-34.94030091566469
 21
105.1507313520654
 31
0.0
  0
LINE
  5
188B
330
18
100
AcDbEntity
  8
画層1
 62
     3
100
AcDbLine
 10
26.55969908433529
 20
191.1507313520653
 30
0.0
 11
26.55969908433529
 21
166.1507313520654
 31
0.0
  0
LINE
  5
188C
330
18
100
AcDbEntity
  8
画層1
 62
     3
100
AcDbLine
 10
23.5596990843353
 20
191.1507313520653
 30
0.0
 11
26.55969908433529
 21
191.1507313520653
 31
0.0
  0
LINE
  5
188D
330
18
100
AcDbEntity
  8
画層1
 62
     3
100
AcDbLine
 10
23.5596990843353
 20
166.1507313520654
 30
0.0
 11
23.5596990843353
 21
191.1507313520653
 31
0.0
  0
LINE
  5
188E
330
18
100
AcDbEntity
  8
画層1
 62
     3
100
AcDbLine
 10
22.5596990843353
 20
105.1507313520654
 30
0.0
 11
27.5596990843353
 21
105.1507313520654
 31
0.0
  0
LINE
  5
188F
330
18
100
AcDbEntity
  8
画層1
 62
     3
100
AcDbLine
 10
19.55969908433529
 20
109.1507313520654
 30
0.0
 11
19.55969908433529
 21
107.1507313520654
 31
0.0
  0
LINE
  5
1890
330
18
100
AcDbEntity
  8
画層1
 62
     3
100
AcDbLine
 10
19.55969908433529
 20
107.1507313520654
 30
0.0
 11
22.5596990843353
 21
105.1507313520654
 31
0.0
  0
LINE
  5
1891
330
18
100
AcDbEntity
  8
画層1
 62
     3
100
AcDbLine
 10
30.5596990843353
 20
107.1507313520654
 30
0.0
 11
30.5596990843353
 21
109.1507313520654
 31
0.0
  0
LINE
  5
1894
330
18
100
AcDbEntity
  8
画層1
 62
     3
100
AcDbLine
 10
30.5596990843353
 20
107.1507313520654
 30
0.0
 11
27.5596990843353
 21
105.1507313520654
 31
0.0
  0
LINE
  5
1895
330
18
100
AcDbEntity
  8
画層1
 62
     3
100
AcDbLine
 10
23.5596990843353
 20
107.1507313520654
 30
0.0
 11
26.55969908433529
 21
107.1507313520654
 31
0.0
  0
LINE
  5
1898
330
18
100
AcDbEntity
  8
画層1
 62
     3
100
AcDbLine
 10
21.0596990843353
 20
189.1507313520653
 30
0.0
 11
29.05969908433529
 21
189.1507313520653
 31
0.0
  0
LINE
  5
1899
330
18
100
AcDbEntity
  8
画層1
 62
     3
100
AcDbLine
 10
29.05969908433529
 20
189.1507313520653
 30
0.0
 11
29.05969908433529
 21
171.1507313520653
 31
0.0
  0
LINE
  5
189A
330
18
100
AcDbEntity
  8
画層1
 62
     3
100
AcDbLine
 10
29.05969908433529
 20
171.1507313520653
 30
0.0
 11
36.85969908433529
 21
171.1507313520653
 31
0.0
  0
LINE
  5
189B
330
18
100
AcDbEntity
  8
画層1
 62
     3
100
AcDbLine
 10
36.85969908433529
 20
171.1507313520653
 30
0.0
 11
36.85969908433529
 21
187.1507313520653
 31
0.0
  0
LINE
  5
189C
330
18
100
AcDbEntity
  8
画層1
 62
     3
100
AcDbLine
 10
29.05969908433529
 20
187.1507313520653
 30
0.0
 11
50.05969908433531
 21
187.1507313520653
 31
0.0
  0
LINE
  5
189D
330
18
100
AcDbEntity
  8
画層1
 62
     3
100
AcDbLine
 10
39.35969908433529
 20
171.1507313520653
 30
0.0
 11
39.35969908433529
 21
187.1507313520653
 31
0.0
  0
LINE
  5
189E
330
18
100
AcDbEntity
  8
画層1
 62
     3
100
AcDbLine
 10
47.1596990843353
 20
171.1507313520653
 30
0.0
 11
47.15969908433527
 21
187.1507313520653
 31
0.0
  0
LINE
  5
189F
330
18
100
AcDbEntity
  8
画層1
 62
     3
100
AcDbLine
 10
39.35969908433529
 20
171.1507313520653
 30
0.0
 11
47.1596990843353
 21
171.1507313520653
 31
0.0
  0
LINE
  5
18A0
330
18
100
AcDbEntity
  8
画層1
 62
     3
100
AcDbLine
 10
21.0596990843353
 20
171.1507313520653
 30
0.0
 11
21.0596990843353
 21
189.1507313520653
 31
0.0
  0
LINE
  5
18A6
330
18
100
AcDbEntity
  8
画層1
 62
     3
100
AcDbLine
 10
21.0596990843353
 20
187.1507313520653
 30
0.0
 11
0.0596990843353078
 21
187.1507313520653
 31
0.0
  0
LINE
  5
18A7
330
18
100
AcDbEntity
  8
画層1
 62
     3
100
AcDbLine
 10
23.5596990843353
 20
166.1507313520654
 30
0.0
 11
26.55969908433529
 21
166.1507313520654
 31
0.0
  0
LINE
  5
18A8
330
18
100
AcDbEntity
  8
画層1
 62
     3
100
AcDbLine
 10
21.0596990843353
 20
183.6507313520653
 30
0.0
 11
29.05969908433529
 21
183.6507313520653
 31
0.0
  0
LINE
  5
18AC
330
18
100
AcDbEntity
  8
画層1
 62
     3
100
AcDbLine
 10
21.05969908433532
 20
187.6507313520653
 30
0.0
 11
23.5596990843353
 21
187.6507313520653
 31
0.0
  0
LINE
  5
18AD
330
18
100
AcDbEntity
  8
画層1
 62
     3
100
AcDbLine
 10
26.55969908433529
 20
187.6507313520653
 30
0.0
 11
29.05969908433529
 21
187.6507313520653
 31
0.0
  0
LINE
  5
18B0
330
18
100
AcDbEntity
  8
画層1
 62
     3
100
AcDbLine
 10
36.85969908433529
 20
185.6507313520653
 30
0.0
 11
39.35969908433529
 21
185.6507313520653
 31
0.0
  0
LINE
  5
18B1
330
18
100
AcDbEntity
  8
画層1
 62
     3
100
AcDbLine
 10
47.15969908433527
 20
185.6507313520653
 30
0.0
 11
50.05969908433531
 21
185.6507313520653
 31
0.0
  0
LINE
  5
18B5
330
18
100
AcDbEntity
  8
画層1
 62
     3
100
AcDbLine
 10
11.0596990843353
 20
111.1507313520654
 30
0.0
 11
11.0596990843353
 21
110.6507313520654
 31
0.0
  0
LINE
  5
18B7
330
18
100
AcDbEntity
  8
画層1
 62
     3
100
AcDbLine
 10
11.0596990843353
 20
110.6507313520654
 30
0.0
 11
12.5596990843353
 21
109.1507313520654
 31
0.0
  0
LINE
  5
18B8
330
18
100
AcDbEntity
  8
画層1
 62
     3
100
AcDbLine
 10
12.5596990843353
 20
109.1507313520654
 30
0.0
 11
19.55969908433529
 21
109.1507313520654
 31
0.0
  0
LINE
  5
18B9
330
18
100
AcDbEntity
  8
画層1
 62
     3
100
AcDbLine
 10
39.05969908433529
 20
111.1507313520654
 30
0.0
 11
39.05969908433529
 21
110.6507313520654
 31
0.0
  0
LINE
  5
18BA
330
18
100
AcDbEntity
  8
画層1
 62
     3
100
AcDbLine
 10
39.05969908433529
 20
110.6507313520654
 30
0.0
 11
37.5596990843353
 21
109.1507313520654
 31
0.0
  0
LINE
  5
18BB
330
18
100
AcDbEntity
  8
画層1
 62
     3
100
AcDbLine
 10
37.5596990843353
 20
109.1507313520654
 30
0.0
 11
30.5596990843353
 21
109.1507313520654
 31
0.0
  0
LINE
  5
18BC
330
18
100
AcDbEntity
  8
画層1
 62
     3
100
AcDbLine
 10
26.55969908433529
 20
107.1507313520654
 30
0.0
 11
26.55969908433529
 21
132.1507313520654
 31
0.0
  0
LINE
  5
18C0
330
18
100
AcDbEntity
  8
画層1
 62
     3
100
AcDbLine
 10
29.05969908433529
 20
109.1507313520654
 30
0.0
 11
29.05969908433529
 21
127.1507313520654
 31
0.0
  0
LINE
  5
18C3
330
18
100
AcDbEntity
  8
画層1
 62
     3
100
AcDbLine
 10
23.5596990843353
 20
132.1507313520654
 30
0.0
 11
26.55969908433529
 21
132.1507313520654
 31
0.0
  0
LINE
  5
18C4
330
18
100
AcDbEntity
  8
画層1
 62
     3
100
AcDbLine
 10
29.05969908433529
 20
111.1507313520654
 30
0.0
 11
50.05969908433531
 21
111.1507313520654
 31
0.0
  0
LINE
  5
18C5
330
18
100
AcDbEntity
  8
画層1
 62
     3
100
AcDbLine
 10
26.55969908433529
 20
110.6507313520654
 30
0.0
 11
29.05969908433529
 21
110.6507313520654
 31
0.0
  0
LINE
  5
18C6
330
18
100
AcDbEntity
  8
画層1
 62
     3
100
AcDbLine
 10
21.0596990843353
 20
114.6507313520654
 30
0.0
 11
29.05969908433529
 21
114.6507313520654
 31
0.0
  0
LINE
  5
18C7
330
18
100
AcDbEntity
  8
画層1
 62
     3
100
AcDbLine
 10
21.0596990843353
 20
109.1507313520654
 30
0.0
 11
29.05969908433529
 21
109.1507313520654
 31
0.0
  0
LINE
  5
18CA
330
18
100
AcDbEntity
  8
画層1
 62
     3
100
AcDbLine
 10
21.0596990843353
 20
111.1507313520654
 30
0.0
 11
0.0596990843353078
 21
111.1507313520654
 31
0.0
  0
LINE
  5
18D2
330
18
100
AcDbEntity
  8
画層1
 62
     3
100
AcDbLine
 10
23.5596990843353
 20
132.1507313520654
 30
0.0
 11
23.5596990843353
 21
107.1507313520654
 31
0.0
  0
LINE
  5
18D3
330
18
100
AcDbEntity
  8
画層1
 62
     3
100
AcDbLine
 10
21.0596990843353
 20
127.1507313520654
 30
0.0
 11
21.0596990843353
 21
109.1507313520654
 31
0.0
  0
LINE
  5
18D4
330
18
100
AcDbEntity
  8
画層1
 62
     3
100
AcDbLine
 10
21.05969908433532
 20
110.6507313520654
 30
0.0
 11
23.5596990843353
 21
110.6507313520654
 31
0.0
  0
LINE
  5
18FA
330
18
100
AcDbEntity
  8
画層1
 62
     3
100
AcDbLine
 10
39.35969908433529
 20
181.1507313520653
 30
0.0
 11
47.15969908433527
 21
181.1507313520653
 31
0.0
  0
LINE
  5
18FB
330
18
100
AcDbEntity
  8
画層1
 62
     3
100
AcDbLine
 10
39.35969908433529
 20
182.1507313520653
 30
0.0
 11
47.15969908433527
 21
182.1507313520653
 31
0.0
  0
CIRCLE
  5
18FC
330
18
100
AcDbEntity
  8
画層1
 62
     3
100
AcDbCircle
 10
43.25969908433529
 20
175.6507313520653
 30
0.0
 40
3.0
  0
ARC
  5
18FD
330
18
100
AcDbEntity
  8
画層1
 62
     3
100
AcDbCircle
 10
44.1596990843353
 20
176.5507313520653
 30
0.0
 40
0.4
100
AcDbArc
 50
180.0
 51
270.0
  0
LINE
  5
18FE
330
18
100
AcDbEntity
  8
画層1
 62
     3
100
AcDbLine
 10
43.75969908433531
 20
177.1507313520653
 30
0.0
 11
43.75969908433531
 21
176.5507313520653
 31
0.0
  0
ARC
  5
18FF
330
18
100
AcDbEntity
  8
画層1
 62
     3
100
AcDbCircle
 10
44.1596990843353
 20
174.7507313520654
 30
0.0
 40
0.4
100
AcDbArc
 50
90.0
 51
180.0
  0
LINE
  5
1900
330
18
100
AcDbEntity
  8
画層1
 62
     3
100
AcDbLine
 10
43.75969908433531
 20
174.7507313520654
 30
0.0
 11
43.75969908433531
 21
174.1507313520653
 31
0.0
  0
LINE
  5
1901
330
18
100
AcDbEntity
  8
画層1
 62
     3
100
AcDbLine
 10
44.1596990843353
 20
176.1507313520653
 30
0.0
 11
46.2177389758851
 21
176.1507313520653
 31
0.0
  0
LINE
  5
1902
330
18
100
AcDbEntity
  8
画層1
 62
     3
100
AcDbLine
 10
44.1596990843353
 20
175.1507313520653
 30
0.0
 11
46.2177389758851
 21
175.1507313520653
 31
0.0
  0
ARC
  5
1903
330
18
100
AcDbEntity
  8
画層1
 62
     3
100
AcDbCircle
 10
42.3596990843353
 20
176.5507313520653
 30
0.0
 40
0.4
100
AcDbArc
 50
270.0
 51
0.0
  0
LINE
  5
1904
330
18
100
AcDbEntity
  8
画層1
 62
     3
100
AcDbLine
 10
42.7596990843353
 20
177.1507313520653
 30
0.0
 11
42.7596990843353
 21
176.5507313520653
 31
0.0
  0
ARC
  5
1905
330
18
100
AcDbEntity
  8
画層1
 62
     3
100
AcDbCircle
 10
42.3596990843353
 20
174.7507313520654
 30
0.0
 40
0.4
100
AcDbArc
 50
0.0
 51
90.0
  0
LINE
  5
1906
330
18
100
AcDbEntity
  8
画層1
 62
     3
100
AcDbLine
 10
42.7596990843353
 20
174.7507313520654
 30
0.0
 11
42.7596990843353
 21
174.1507313520653
 31
0.0
  0
LINE
  5
1907
330
18
100
AcDbEntity
  8
画層1
 62
     3
100
AcDbLine
 10
40.30165919278549
 20
175.1507313520653
 30
0.0
 11
42.3596990843353
 21
175.1507313520653
 31
0.0
  0
LINE
  5
1908
330
18
100
AcDbEntity
  8
画層1
 62
     3
100
AcDbLine
 10
40.30165919278549
 20
176.1507313520653
 30
0.0
 11
42.3596990843353
 21
176.1507313520653
 31
0.0
  0
LINE
  5
1909
330
18
100
AcDbEntity
  8
画層1
 62
     3
100
AcDbLine
 10
42.7596990843353
 20
177.1507313520653
 30
0.0
 11
43.75969908433531
 21
177.1507313520653
 31
0.0
  0
LINE
  5
190A
330
18
100
AcDbEntity
  8
画層1
 62
     3
100
AcDbLine
 10
42.7596990843353
 20
174.1507313520653
 30
0.0
 11
43.75969908433531
 21
174.1507313520653
 31
0.0
  0
LINE
  5
190B
330
18
100
AcDbEntity
  8
画層1
 62
     3
100
AcDbLine
 10
32.45969908433529
 20
174.1507313520653
 30
0.0
 11
33.45969908433529
 21
174.1507313520653
 31
0.0
  0
LINE
  5
190C
330
18
100
AcDbEntity
  8
画層1
 62
     3
100
AcDbLine
 10
32.45969908433529
 20
177.1507313520653
 30
0.0
 11
33.45969908433529
 21
177.1507313520653
 31
0.0
  0
CIRCLE
  5
190D
330
18
100
AcDbEntity
  8
画層1
 62
     3
100
AcDbCircle
 10
32.9596990843353
 20
175.6507313520653
 30
0.0
 40
3.0
  0
LINE
  5
190E
330
18
100
AcDbEntity
  8
画層1
 62
     3
100
AcDbLine
 10
29.05969908433529
 20
182.1507313520653
 30
0.0
 11
36.85969908433529
 21
182.1507313520653
 31
0.0
  0
LINE
  5
190F
330
18
100
AcDbEntity
  8
画層1
 62
     3
100
AcDbLine
 10
29.05969908433529
 20
181.1507313520653
 30
0.0
 11
36.85969908433529
 21
181.1507313520653
 31
0.0
  0
LINE
  5
1910
330
18
100
AcDbEntity
  8
画層1
 62
     3
100
AcDbLine
 10
30.00165919278548
 20
176.1507313520653
 30
0.0
 11
32.0596990843353
 21
176.1507313520653
 31
0.0
  0
LINE
  5
1911
330
18
100
AcDbEntity
  8
画層1
 62
     3
100
AcDbLine
 10
30.0016591927855
 20
175.1507313520653
 30
0.0
 11
32.0596990843353
 21
175.1507313520653
 31
0.0
  0
LINE
  5
1912
330
18
100
AcDbEntity
  8
画層1
 62
     3
100
AcDbLine
 10
32.45969908433529
 20
174.7507313520654
 30
0.0
 11
32.45969908433529
 21
174.1507313520653
 31
0.0
  0
ARC
  5
1913
330
18
100
AcDbEntity
  8
画層1
 62
     3
100
AcDbCircle
 10
32.0596990843353
 20
174.7507313520654
 30
0.0
 40
0.4
100
AcDbArc
 50
0.0
 51
90.0
  0
LINE
  5
1914
330
18
100
AcDbEntity
  8
画層1
 62
     3
100
AcDbLine
 10
32.45969908433529
 20
177.1507313520653
 30
0.0
 11
32.45969908433529
 21
176.5507313520653
 31
0.0
  0
ARC
  5
1915
330
18
100
AcDbEntity
  8
画層1
 62
     3
100
AcDbCircle
 10
32.0596990843353
 20
176.5507313520653
 30
0.0
 40
0.4
100
AcDbArc
 50
270.0
 51
0.0
  0
LINE
  5
1916
330
18
100
AcDbEntity
  8
画層1
 62
     3
100
AcDbLine
 10
33.85969908433529
 20
175.1507313520653
 30
0.0
 11
35.9177389758851
 21
175.1507313520653
 31
0.0
  0
LINE
  5
1917
330
18
100
AcDbEntity
  8
画層1
 62
     3
100
AcDbLine
 10
33.85969908433529
 20
176.1507313520653
 30
0.0
 11
35.9177389758851
 21
176.1507313520653
 31
0.0
  0
LINE
  5
1918
330
18
100
AcDbEntity
  8
画層1
 62
     3
100
AcDbLine
 10
33.45969908433529
 20
174.7507313520654
 30
0.0
 11
33.45969908433529
 21
174.1507313520653
 31
0.0
  0
ARC
  5
1919
330
18
100
AcDbEntity
  8
画層1
 62
     3
100
AcDbCircle
 10
33.85969908433529
 20
174.7507313520654
 30
0.0
 40
0.4
100
AcDbArc
 50
90.0
 51
180.0
  0
LINE
  5
191A
330
18
100
AcDbEntity
  8
画層1
 62
     3
100
AcDbLine
 10
33.45969908433529
 20
177.1507313520653
 30
0.0
 11
33.45969908433529
 21
176.5507313520653
 31
0.0
  0
ARC
  5
191B
330
18
100
AcDbEntity
  8
画層1
 62
     3
100
AcDbCircle
 10
33.85969908433529
 20
176.5507313520653
 30
0.0
 40
0.4
100
AcDbArc
 50
180.0
 51
270.0
  0
CIRCLE
  5
1960
330
18
100
AcDbEntity
  8
画層1
 62
     3
100
AcDbCircle
 10
25.0596990843353
 20
149.1507313520654
 30
0.0
 40
14.5
  0
CIRCLE
  5
1962
330
18
100
AcDbEntity
  8
画層1
 62
     3
100
AcDbCircle
 10
21.6155481930495
 20
157.465647144667
 30
0.0
 40
1.5
  0
CIRCLE
  5
196A
330
18
100
AcDbEntity
  8
画層1
 62
     3
100
AcDbCircle
 10
16.74478329173374
 20
152.5948822433511
 30
0.0
 40
1.5
  0
CIRCLE
  5
196B
330
18
100
AcDbEntity
  8
画層1
 62
     3
100
AcDbCircle
 10
16.74478329173375
 20
145.7065804607795
 30
0.0
 40
1.5
  0
CIRCLE
  5
196C
330
18
100
AcDbEntity
  8
画層1
 62
     3
100
AcDbCircle
 10
21.61554819304948
 20
140.8358155594638
 30
0.0
 40
1.5
  0
CIRCLE
  5
196D
330
18
100
AcDbEntity
  8
画層1
 62
     3
100
AcDbCircle
 10
28.5038499756211
 20
140.8358155594638
 30
0.0
 40
1.5
  0
CIRCLE
  5
196E
330
18
100
AcDbEntity
  8
画層1
 62
     3
100
AcDbCircle
 10
33.37461487693685
 20
145.7065804607795
 30
0.0
 40
1.5
  0
CIRCLE
  5
196F
330
18
100
AcDbEntity
  8
画層1
 62
     3
100
AcDbCircle
 10
33.37461487693687
 20
152.5948822433511
 30
0.0
 40
1.5
  0
CIRCLE
  5
1970
330
18
100
AcDbEntity
  8
画層1
 62
     3
100
AcDbCircle
 10
28.50384997562112
 20
157.465647144667
 30
0.0
 40
1.5
  0
CIRCLE
  5
1971
330
18
100
AcDbEntity
  8
画層1
 62
     3
100
AcDbCircle
 10
25.0596990843353
 20
149.1507313520654
 30
0.0
 40
5.5
  0
ARC
  5
1972
330
18
100
AcDbEntity
  8
画層1
 62
     3
100
AcDbCircle
 10
25.0596990843353
 20
149.1507313520654
 30
0.0
 40
4.0
100
AcDbArc
 50
292.0243128370421
 51
247.9756871629577
  0
ARC
  5
1973
330
18
100
AcDbEntity
  8
画層1
 62
     3
100
AcDbCircle
 10
25.0596990843353
 20
145.1507313520654
 30
0.0
 40
1.5
100
AcDbArc
 50
180.0
 51
0.0
  0
LINE
  5
1974
330
18
100
AcDbEntity
  8
画層1
 62
     3
100
AcDbLine
 10
23.5596990843353
 20
145.1507313520654
 30
0.0
 11
23.5596990843353
 21
145.4426321085175
 31
0.0
  0
LINE
  5
1975
330
18
100
AcDbEntity
  8
画層1
 62
     3
100
AcDbLine
 10
26.55969908433529
 20
145.1507313520654
 30
0.0
 11
26.55969908433529
 21
145.4426321085175
 31
0.0
  0
LINE
  5
1978
330
18
100
AcDbEntity
  8
画層1
 62
     3
100
AcDbLine
 10
0.0596990843353078
 20
187.1507313520653
 30
0.0
 11
0.0596990843353078
 21
111.1507313520654
 31
0.0
  0
LINE
  5
1979
330
18
100
AcDbEntity
  8
画層1
 62
     3
100
AcDbLine
 10
50.05969908433531
 20
187.1507313520653
 30
0.0
 11
50.05969908433531
 21
111.1507313520654
 31
0.0
  0
LINE
  5
197A
330
18
100
AcDbEntity
  8
画層1
 62
     3
100
AcDbLine
 10
0.0596990843353078
 20
153.1507313520654
 30
0.0
 11
8.559699084335306
 21
153.1507313520654
 31
0.0
  0
LINE
  5
197B
330
18
100
AcDbEntity
  8
画層1
 62
     3
100
AcDbLine
 10
9.059699084335306
 20
152.6507313520654
 30
0.0
 11
9.059699084335306
 21
145.6507313520654
 31
0.0
  0
LINE
  5
197C
330
18
100
AcDbEntity
  8
画層1
 62
     3
100
AcDbLine
 10
8.559699084335306
 20
145.1507313520654
 30
0.0
 11
0.0596990843353078
 21
145.1507313520654
 31
0.0
  0
LINE
  5
197D
330
18
100
AcDbEntity
  8
画層1
 62
     3
100
AcDbLine
 10
50.05969908433531
 20
153.1507313520654
 30
0.0
 11
41.55969908433529
 21
153.1507313520654
 31
0.0
  0
LINE
  5
197E
330
18
100
AcDbEntity
  8
画層1
 62
     3
100
AcDbLine
 10
41.05969908433531
 20
152.6507313520655
 30
0.0
 11
41.05969908433528
 21
145.6507313520654
 31
0.0
  0
LINE
  5
197F
330
18
100
AcDbEntity
  8
画層1
 62
     3
100
AcDbLine
 10
41.55969908433528
 20
145.1507313520654
 30
0.0
 11
50.05969908433531
 21
145.1507313520654
 31
0.0
  0
CIRCLE
  5
1982
330
18
100
AcDbEntity
  8
画層1
 62
     3
100
AcDbCircle
 10
5.059699084335311
 20
149.1507313520654
 30
0.0
 40
2.25
  0
CIRCLE
  5
1983
330
18
100
AcDbEntity
  8
画層1
 62
     3
100
AcDbCircle
 10
45.0596990843353
 20
149.1507313520654
 30
0.0
 40
2.25
  0
ARC
  5
1984
330
18
100
AcDbEntity
  8
画層1
 62
     3
100
AcDbCircle
 10
8.559699084335306
 20
152.6507313520654
 30
0.0
 40
0.5
100
AcDbArc
 50
0.0
 51
90.0
  0
ARC
  5
1985
330
18
100
AcDbEntity
  8
画層1
 62
     3
100
AcDbCircle
 10
8.559699084335306
 20
145.6507313520654
 30
0.0
 40
0.5
100
AcDbArc
 50
270.0
 51
0.0
  0
ARC
  5
1986
330
18
100
AcDbEntity
  8
画層1
 62
     3
100
AcDbCircle
 10
41.55969908433528
 20
145.6507313520654
 30
0.0
 40
0.5
100
AcDbArc
 50
179.9999999999998
 51
270.0
  0
ARC
  5
1987
330
18
100
AcDbEntity
  8
画層1
 62
     3
100
AcDbCircle
 10
41.55969908433529
 20
152.6507313520655
 30
0.0
 40
0.5
100
AcDbArc
 50
90.0
 51
179.9999999999998
  0
LINE
  5
1988
330
18
100
AcDbEntity
  8
画層1
  6
CENTER
 62
     1
100
AcDbLine
 10
-226.9403009156646
 20
149.1507313520654
 30
0.0
 11
-172.9403009156646
 21
149.1507313520654
 31
0.0
  0
LINE
  5
1989
330
18
100
AcDbEntity
  8
画層1
  6
CENTER
 62
     1
100
AcDbLine
 10
-199.9403009156646
 20
193.1507313520653
 30
0.0
 11
-199.9403009156646
 21
103.1507313520654
 31
0.0
  0
LINE
  5
198A
330
18
100
AcDbEntity
  8
画層1
  6
CENTER
 62
     1
100
AcDbLine
 10
-156.9403009156646
 20
149.1507313520654
 30
0.0
 11
-32.94030091566469
 21
149.1507313520654
 31
0.0
  0
LINE
  5
198B
330
18
100
AcDbEntity
  8
画層1
  6
CENTER
 62
     1
100
AcDbLine
 10
-1.940300915664692
 20
149.1507313520654
 30
0.0
 11
52.0596990843353
 21
149.1507313520654
 31
0.0
  0
LINE
  5
198C
330
18
100
AcDbEntity
  8
画層1
  6
CENTER
 62
     1
100
AcDbLine
 10
25.0596990843353
 20
193.1507313520653
 30
0.0
 11
25.0596990843353
 21
103.1507313520654
 31
0.0
  0
DIMENSION
  5
198E
330
18
100
AcDbEntity
  8
画層1
 62
     1
100
AcDbDimension
  2
*D9
 10
-174.9403009156646
 20
200.0687885409969
 30
0.0
 11
-199.9403009156646
 21
201.9437885409969
 31
0.0
 70
    32
 71
     5
 42
50.0
  3
STANDARD_WS
100
AcDbAlignedDimension
 13
-224.9403009156646
 23
188.1507313520653
 33
0.0
 14
-174.9403009156646
 24
188.1507313520653
 34
0.0
100
AcDbRotatedDimension
1001
ACAD
1000
DSTYLE
1002
{
1070
    41
1040
1.5
1070
   173
1070
     1
1070
   340
1005
169
1070
   341
1005
217
1070
   343
1005
217
1070
   344
1005
217
1002
}
  0
DIMENSION
  5
19A4
330
18
100
AcDbEntity
  8
画層1
 62
     1
100
AcDbDimension
  2
*D10
 10
-54.94030091566469
 20
200.0687885409969
 30
0.0
 11
-104.9403009156645
 21
201.9437885409969
 31
0.0
 70
    32
 71
     5
 42
100.0
  3
STANDARD_WS
100
AcDbAlignedDimension
 13
-154.9403009156646
 23
187.1507313520653
 33
0.0
 14
-54.94030091566469
 24
189.1507313520653
 34
0.0
100
AcDbRotatedDimension
1001
ACAD
1000
DSTYLE
1002
{
1070
    41
1040
1.5
1070
   173
1070
     1
1070
   340
1005
169
1070
   341
1005
217
1070
   343
1005
217
1070
   344
1005
217
1002
}
  0
DIMENSION
  5
19BA
330
18
100
AcDbEntity
  8
画層1
 62
     1
100
AcDbDimension
  2
*D11
 10
-34.9403009156647
 20
200.0687885409969
 30
0.0
 11
-44.9403009156647
 21
201.9437885409969
 31
0.0
 70
    32
 71
     5
 42
19.99999999999998
  3
STANDARD_WS
100
AcDbAlignedDimension
 13
-54.94030091566469
 23
189.1507313520653
 33
0.0
 14
-34.9403009156647
 24
189.1507313520653
 34
0.0
100
AcDbRotatedDimension
1001
ACAD
1000
DSTYLE
1002
{
1070
    41
1040
1.5
1070
   173
1070
     1
1070
   279
1070
     1
1070
   340
1005
169
1070
   341
1005
217
1070
   343
1005
217
1070
   344
1005
217
1002
}
  0
DIMENSION
  5
19C7
330
18
100
AcDbEntity
  8
画層1
 62
     1
100
AcDbDimension
  2
*D12
 10
-34.9403009156647
 20
207.7120533926321
 30
0.0
 11
-94.9403009156647
 21
209.5870533926321
 31
0.0
 70
    32
 71
     5
 42
119.9999999999999
  3
STANDARD_WS
100
AcDbAlignedDimension
 13
-154.9403009156646
 23
187.1507313520653
 33
0.0
 14
-34.9403009156647
 24
189.1507313520653
 34
0.0
100
AcDbRotatedDimension
1001
ACAD
1000
DSTYLE
1002
{
1070
    41
1040
1.5
1070
   173
1070
     1
1070
   340
1005
169
1070
   341
1005
217
1070
   343
1005
217
1070
   344
1005
217
1002
}
  0
DIMENSION
  5
19D4
330
18
100
AcDbEntity
  8
画層1
 62
     1
100
AcDbDimension
  2
*D13
 10
-24.15692283126178
 20
166.8507313520654
 30
0.0
 11
-26.03192283126182
 21
149.1507313520654
 31
0.0
 70
    32
 71
     5
 42
35.39999999999997
  3
STANDARD_WS
100
AcDbAlignedDimension
 13
-34.94030091566469
 23
131.4507313520654
 33
0.0
 14
-34.94030091566469
 24
166.8507313520654
 34
0.0
 50
90.0
100
AcDbRotatedDimension
1001
ACAD
1000
DSTYLE
1002
{
1070
    41
1040
1.5
1070
   173
1070
     1
1070
   340
1005
169
1070
   341
1005
217
1070
   343
1005
217
1070
   344
1005
217
1002
}
  0
MTEXT
  5
19E1
330
18
100
AcDbEntity
  8
画層1
 62
     1
100
AcDbMText
 10
-27.26202259104707
 20
167.5182156708156
 30
0.0
 40
2.5
 41
29.3003
 71
     1
 72
     5
  1
レール取付適合
  7
STYLE1
 11
0.0000000000000001
 21
1.0
 31
0.0
 73
     1
 44
1.0
  0
LINE
  5
19E2
330
18
100
AcDbEntity
  8
画層1
 62
     1
100
AcDbLine
 10
-24.15692283126178
 20
166.8507313520654
 30
0.0
 11
-24.15692283126178
 21
190.5893229654323
 31
0.0
  0
DIMENSION
  5
19E3
330
18
100
AcDbEntity
  8
画層1
 62
     1
100
AcDbDimension
  2
*D14
 10
-9.006042730063994
 20
109.1507313520654
 30
0.0
 11
-11.00160110569852
 21
149.1507313520654
 31
0.0
 70
    32
  1
81以下
 71
     5
 42
80.0
  3
STANDARD_WS
100
AcDbAlignedDimension
 13
21.0596990843353
 23
189.1507313520653
 33
0.0
 14
12.5596990843353
 24
109.1507313520654
 34
0.0
 50
90.0
100
AcDbRotatedDimension
1001
ACAD
1000
DSTYLE
1002
{
1070
    41
1040
1.5
1070
   173
1070
     1
1070
   340
1005
169
1070
   341
1005
217
1070
   343
1005
217
1070
   344
1005
217
1002
}
  0
DIMENSION
  5
19F0
330
18
100
AcDbEntity
  8
画層1
 62
     1
100
AcDbDimension
  2
*D15
 10
-9.006042730063994
 20
105.1507313520654
 30
0.0
 11
-10.88104273006401
 21
107.1507313520654
 31
0.0
 70
    32
 71
     5
 42
4.0
  3
STANDARD_WS
100
AcDbAlignedDimension
 13
12.5596990843353
 23
109.1507313520654
 33
0.0
 14
22.5596990843353
 24
105.1507313520654
 34
0.0
 50
90.0
100
AcDbRotatedDimension
1001
ACAD
1000
DSTYLE
1002
{
1070
    41
1040
1.5
1070
   173
1070
     1
1070
   279
1070
     1
1070
   340
1005
169
1070
   341
1005
217
1070
   343
1005
217
1070
   344
1005
217
1002
}
  0
LINE
  5
19FF
330
18
100
AcDbEntity
  8
画層1
 62
     3
100
AcDbLine
 10
2.959699084335312
 20
171.1507313520653
 30
0.0
 11
2.959699084335326
 21
187.1507313520653
 31
0.0
  0
LINE
  5
1A00
330
18
100
AcDbEntity
  8
画層1
 62
     3
100
AcDbLine
 10
10.75969908433531
 20
171.1507313520653
 30
0.0
 11
10.75969908433532
 21
187.1507313520653
 31
0.0
  0
LINE
  5
1A01
330
18
100
AcDbEntity
  8
画層1
 62
     3
100
AcDbLine
 10
13.25969908433531
 20
171.1507313520653
 30
0.0
 11
13.25969908433532
 21
187.1507313520653
 31
0.0
  0
LINE
  5
1A02
330
18
100
AcDbEntity
  8
画層1
 62
     3
100
AcDbLine
 10
10.75969908433531
 20
171.1507313520653
 30
0.0
 11
2.959699084335312
 21
171.1507313520653
 31
0.0
  0
LINE
  5
1A03
330
18
100
AcDbEntity
  8
画層1
 62
     3
100
AcDbLine
 10
21.0596990843353
 20
171.1507313520653
 30
0.0
 11
13.25969908433531
 21
171.1507313520653
 31
0.0
  0
LINE
  5
1A04
330
18
100
AcDbEntity
  8
画層1
 62
     3
100
AcDbLine
 10
10.75969908433531
 20
181.1507313520653
 30
0.0
 11
2.959699084335326
 21
181.1507313520653
 31
0.0
  0
LINE
  5
1A05
330
18
100
AcDbEntity
  8
画層1
 62
     3
100
AcDbLine
 10
10.75969908433531
 20
182.1507313520653
 30
0.0
 11
2.959699084335326
 21
182.1507313520653
 31
0.0
  0
CIRCLE
  5
1A06
330
18
100
AcDbEntity
  8
画層1
 62
     3
100
AcDbCircle
 10
17.1596990843353
 20
175.6507313520653
 30
0.0
 40
3.0
  0
ARC
  5
1A07
330
18
100
AcDbEntity
  8
画層1
 62
     3
100
AcDbCircle
 10
16.25969908433531
 20
176.5507313520653
 30
0.0
 40
0.4
100
AcDbArc
 50
270.0
 51
0.000000000000007
  0
ARC
  5
1A08
330
18
100
AcDbEntity
  8
画層1
 62
     3
100
AcDbCircle
 10
16.25969908433531
 20
174.7507313520654
 30
0.0
 40
0.4
100
AcDbArc
 50
0.000000000000007
 51
90.0
  0
LINE
  5
1A09
330
18
100
AcDbEntity
  8
画層1
 62
     3
100
AcDbLine
 10
16.6596990843353
 20
177.1507313520653
 30
0.0
 11
16.6596990843353
 21
176.5507313520653
 31
0.0
  0
LINE
  5
1A0A
330
18
100
AcDbEntity
  8
画層1
 62
     3
100
AcDbLine
 10
16.6596990843353
 20
174.7507313520654
 30
0.0
 11
16.6596990843353
 21
174.1507313520653
 31
0.0
  0
ARC
  5
1A0B
330
18
100
AcDbEntity
  8
画層1
 62
     3
100
AcDbCircle
 10
18.0596990843353
 20
176.5507313520653
 30
0.0
 40
0.4
100
AcDbArc
 50
180.0
 51
270.0
  0
LINE
  5
1A0C
330
18
100
AcDbEntity
  8
画層1
 62
     3
100
AcDbLine
 10
17.65969908433531
 20
177.1507313520653
 30
0.0
 11
17.65969908433531
 21
176.5507313520653
 31
0.0
  0
ARC
  5
1A0D
330
18
100
AcDbEntity
  8
画層1
 62
     3
100
AcDbCircle
 10
18.0596990843353
 20
174.7507313520654
 30
0.0
 40
0.4
100
AcDbArc
 50
90.0
 51
180.0
  0
LINE
  5
1A0E
330
18
100
AcDbEntity
  8
画層1
 62
     3
100
AcDbLine
 10
17.65969908433531
 20
174.7507313520654
 30
0.0
 11
17.65969908433531
 21
174.1507313520653
 31
0.0
  0
LINE
  5
1A0F
330
18
100
AcDbEntity
  8
画層1
 62
     3
100
AcDbLine
 10
20.11773897588511
 20
175.1507313520653
 30
0.0
 11
18.0596990843353
 21
175.1507313520653
 31
0.0
  0
LINE
  5
1A10
330
18
100
AcDbEntity
  8
画層1
 62
     3
100
AcDbLine
 10
20.11773897588511
 20
176.1507313520653
 30
0.0
 11
18.0596990843353
 21
176.1507313520653
 31
0.0
  0
LINE
  5
1A11
330
18
100
AcDbEntity
  8
画層1
 62
     3
100
AcDbLine
 10
17.65969908433531
 20
177.1507313520653
 30
0.0
 11
16.6596990843353
 21
177.1507313520653
 31
0.0
  0
LINE
  5
1A12
330
18
100
AcDbEntity
  8
画層1
 62
     3
100
AcDbLine
 10
17.65969908433531
 20
174.1507313520653
 30
0.0
 11
16.6596990843353
 21
174.1507313520653
 31
0.0
  0
LINE
  5
1A13
330
18
100
AcDbEntity
  8
画層1
 62
     3
100
AcDbLine
 10
16.25969908433531
 20
176.1507313520653
 30
0.0
 11
14.2016591927855
 21
176.1507313520653
 31
0.0
  0
LINE
  5
1A14
330
18
100
AcDbEntity
  8
画層1
 62
     3
100
AcDbLine
 10
16.25969908433531
 20
175.1507313520653
 30
0.0
 11
14.2016591927855
 21
175.1507313520653
 31
0.0
  0
LINE
  5
1A15
330
18
100
AcDbEntity
  8
画層1
 62
     3
100
AcDbLine
 10
21.0596990843353
 20
181.1507313520653
 30
0.0
 11
13.25969908433532
 21
181.1507313520653
 31
0.0
  0
LINE
  5
1A16
330
18
100
AcDbEntity
  8
画層1
 62
     3
100
AcDbLine
 10
21.0596990843353
 20
182.1507313520653
 30
0.0
 11
13.25969908433532
 21
182.1507313520653
 31
0.0
  0
CIRCLE
  5
1A17
330
18
100
AcDbEntity
  8
画層1
 62
     3
100
AcDbCircle
 10
6.859699084335303
 20
175.6507313520653
 30
0.0
 40
3.0
  0
ARC
  5
1A18
330
18
100
AcDbEntity
  8
画層1
 62
     3
100
AcDbCircle
 10
5.959699084335312
 20
176.5507313520653
 30
0.0
 40
0.4
100
AcDbArc
 50
270.0
 51
0.000000000000007
  0
LINE
  5
1A19
330
18
100
AcDbEntity
  8
画層1
 62
     3
100
AcDbLine
 10
6.359699084335303
 20
177.1507313520653
 30
0.0
 11
6.359699084335303
 21
176.5507313520653
 31
0.0
  0
ARC
  5
1A1A
330
18
100
AcDbEntity
  8
画層1
 62
     3
100
AcDbCircle
 10
5.959699084335312
 20
174.7507313520654
 30
0.0
 40
0.4
100
AcDbArc
 50
0.000000000000007
 51
90.0
  0
LINE
  5
1A1B
330
18
100
AcDbEntity
  8
画層1
 62
     3
100
AcDbLine
 10
6.359699084335303
 20
174.7507313520654
 30
0.0
 11
6.359699084335303
 21
174.1507313520653
 31
0.0
  0
LINE
  5
1A1C
330
18
100
AcDbEntity
  8
画層1
 62
     3
100
AcDbLine
 10
5.959699084335312
 20
176.1507313520653
 30
0.0
 11
3.901659192785502
 21
176.1507313520653
 31
0.0
  0
LINE
  5
1A1D
330
18
100
AcDbEntity
  8
画層1
 62
     3
100
AcDbLine
 10
5.959699084335312
 20
175.1507313520653
 30
0.0
 11
3.901659192785502
 21
175.1507313520653
 31
0.0
  0
ARC
  5
1A1E
330
18
100
AcDbEntity
  8
画層1
 62
     3
100
AcDbCircle
 10
7.759699084335308
 20
176.5507313520653
 30
0.0
 40
0.4
100
AcDbArc
 50
180.0
 51
270.0
  0
LINE
  5
1A1F
330
18
100
AcDbEntity
  8
画層1
 62
     3
100
AcDbLine
 10
7.359699084335303
 20
177.1507313520653
 30
0.0
 11
7.359699084335303
 21
176.5507313520653
 31
0.0
  0
ARC
  5
1A20
330
18
100
AcDbEntity
  8
画層1
 62
     3
100
AcDbCircle
 10
7.759699084335308
 20
174.7507313520654
 30
0.0
 40
0.4
100
AcDbArc
 50
90.0
 51
180.0
  0
LINE
  5
1A21
330
18
100
AcDbEntity
  8
画層1
 62
     3
100
AcDbLine
 10
7.359699084335303
 20
174.7507313520654
 30
0.0
 11
7.359699084335303
 21
174.1507313520653
 31
0.0
  0
LINE
  5
1A22
330
18
100
AcDbEntity
  8
画層1
 62
     3
100
AcDbLine
 10
9.817738975885118
 20
175.1507313520653
 30
0.0
 11
7.759699084335308
 21
175.1507313520653
 31
0.0
  0
LINE
  5
1A23
330
18
100
AcDbEntity
  8
画層1
 62
     3
100
AcDbLine
 10
9.817738975885118
 20
176.1507313520653
 30
0.0
 11
7.759699084335308
 21
176.1507313520653
 31
0.0
  0
LINE
  5
1A24
330
18
100
AcDbEntity
  8
画層1
 62
     3
100
AcDbLine
 10
7.359699084335303
 20
177.1507313520653
 30
0.0
 11
6.359699084335303
 21
177.1507313520653
 31
0.0
  0
LINE
  5
1A25
330
18
100
AcDbEntity
  8
画層1
 62
     3
100
AcDbLine
 10
7.359699084335303
 20
174.1507313520653
 30
0.0
 11
6.359699084335303
 21
174.1507313520653
 31
0.0
  0
LINE
  5
1A26
330
18
100
AcDbEntity
  8
画層1
 62
     3
100
AcDbLine
 10
13.25969908433532
 20
185.6507313520653
 30
0.0
 11
10.75969908433532
 21
185.6507313520653
 31
0.0
  0
LINE
  5
1A27
330
18
100
AcDbEntity
  8
画層1
 62
     3
100
AcDbLine
 10
2.959699084335326
 20
185.6507313520653
 30
0.0
 11
0.0596990843353078
 21
185.6507313520653
 31
0.0
  0
LINE
  5
1A28
330
18
100
AcDbEntity
  8
画層1
 62
     3
100
AcDbLine
 10
2.959699084335326
 20
112.6507313520654
 30
0.0
 11
0.0596990843353078
 21
112.6507313520654
 31
0.0
  0
LINE
  5
1A29
330
18
100
AcDbEntity
  8
画層1
 62
     3
100
AcDbLine
 10
13.25969908433531
 20
127.1507313520654
 30
0.0
 11
13.25969908433532
 21
111.1507313520654
 31
0.0
  0
LINE
  5
1A2A
330
18
100
AcDbEntity
  8
画層1
 62
     3
100
AcDbLine
 10
10.75969908433531
 20
127.1507313520654
 30
0.0
 11
10.75969908433532
 21
111.1507313520654
 31
0.0
  0
LINE
  5
1A2B
330
18
100
AcDbEntity
  8
画層1
 62
     3
100
AcDbLine
 10
2.959699084335312
 20
127.1507313520654
 30
0.0
 11
2.959699084335326
 21
111.1507313520654
 31
0.0
  0
LINE
  5
1A2C
330
18
100
AcDbEntity
  8
画層1
 62
     3
100
AcDbLine
 10
21.0596990843353
 20
127.1507313520654
 30
0.0
 11
13.25969908433531
 21
127.1507313520654
 31
0.0
  0
LINE
  5
1A2D
330
18
100
AcDbEntity
  8
画層1
 62
     3
100
AcDbLine
 10
10.75969908433531
 20
127.1507313520654
 30
0.0
 11
2.959699084335312
 21
127.1507313520654
 31
0.0
  0
LINE
  5
1A2E
330
18
100
AcDbEntity
  8
画層1
 62
     3
100
AcDbLine
 10
21.0596990843353
 20
116.1507313520654
 30
0.0
 11
13.25969908433532
 21
116.1507313520654
 31
0.0
  0
LINE
  5
1A2F
330
18
100
AcDbEntity
  8
画層1
 62
     3
100
AcDbLine
 10
21.0596990843353
 20
117.1507313520654
 30
0.0
 11
13.25969908433532
 21
117.1507313520654
 31
0.0
  0
CIRCLE
  5
1A30
330
18
100
AcDbEntity
  8
画層1
 62
     3
100
AcDbCircle
 10
6.859699084335303
 20
122.6507313520654
 30
0.0
 40
3.0
  0
LINE
  5
1A31
330
18
100
AcDbEntity
  8
画層1
 62
     3
100
AcDbLine
 10
7.359699084335303
 20
124.1507313520654
 30
0.0
 11
6.359699084335303
 21
124.1507313520654
 31
0.0
  0
LINE
  5
1A32
330
18
100
AcDbEntity
  8
画層1
 62
     3
100
AcDbLine
 10
7.359699084335303
 20
121.1507313520653
 30
0.0
 11
6.359699084335303
 21
121.1507313520653
 31
0.0
  0
LINE
  5
1A33
330
18
100
AcDbEntity
  8
画層1
 62
     3
100
AcDbLine
 10
5.959699084335312
 20
123.1507313520654
 30
0.0
 11
3.901659192785502
 21
123.1507313520654
 31
0.0
  0
LINE
  5
1A34
330
18
100
AcDbEntity
  8
画層1
 62
     3
100
AcDbLine
 10
5.959699084335312
 20
122.1507313520654
 30
0.0
 11
3.901659192785502
 21
122.1507313520654
 31
0.0
  0
LINE
  5
1A35
330
18
100
AcDbEntity
  8
画層1
 62
     3
100
AcDbLine
 10
6.359699084335303
 20
123.5507313520654
 30
0.0
 11
6.359699084335303
 21
124.1507313520654
 31
0.0
  0
ARC
  5
1A36
330
18
100
AcDbEntity
  8
画層1
 62
     3
100
AcDbCircle
 10
5.959699084335312
 20
123.5507313520654
 30
0.0
 40
0.4
100
AcDbArc
 50
270.0
 51
0.0
  0
LINE
  5
1A37
330
18
100
AcDbEntity
  8
画層1
 62
     3
100
AcDbLine
 10
6.359699084335303
 20
121.1507313520653
 30
0.0
 11
6.359699084335303
 21
121.7507313520654
 31
0.0
  0
ARC
  5
1A38
330
18
100
AcDbEntity
  8
画層1
 62
     3
100
AcDbCircle
 10
5.959699084335312
 20
121.7507313520654
 30
0.0
 40
0.4
100
AcDbArc
 50
0.0
 51
90.00000000000005
  0
LINE
  5
1A39
330
18
100
AcDbEntity
  8
画層1
 62
     3
100
AcDbLine
 10
9.817738975885118
 20
122.1507313520654
 30
0.0
 11
7.759699084335308
 21
122.1507313520654
 31
0.0
  0
LINE
  5
1A3A
330
18
100
AcDbEntity
  8
画層1
 62
     3
100
AcDbLine
 10
9.817738975885118
 20
123.1507313520654
 30
0.0
 11
7.759699084335308
 21
123.1507313520654
 31
0.0
  0
LINE
  5
1A3B
330
18
100
AcDbEntity
  8
画層1
 62
     3
100
AcDbLine
 10
7.359699084335303
 20
123.5507313520654
 30
0.0
 11
7.359699084335303
 21
124.1507313520654
 31
0.0
  0
ARC
  5
1A3C
330
18
100
AcDbEntity
  8
画層1
 62
     3
100
AcDbCircle
 10
7.759699084335308
 20
123.5507313520654
 30
0.0
 40
0.4
100
AcDbArc
 50
180.0
 51
270.0
  0
LINE
  5
1A3D
330
18
100
AcDbEntity
  8
画層1
 62
     3
100
AcDbLine
 10
7.359699084335303
 20
121.1507313520653
 30
0.0
 11
7.359699084335303
 21
121.7507313520654
 31
0.0
  0
ARC
  5
1A3E
330
18
100
AcDbEntity
  8
画層1
 62
     3
100
AcDbCircle
 10
7.759699084335308
 20
121.7507313520654
 30
0.0
 40
0.4
100
AcDbArc
 50
90.00000000000005
 51
180.0
  0
LINE
  5
1A3F
330
18
100
AcDbEntity
  8
画層1
 62
     3
100
AcDbLine
 10
10.75969908433531
 20
116.1507313520654
 30
0.0
 11
2.959699084335326
 21
116.1507313520654
 31
0.0
  0
LINE
  5
1A40
330
18
100
AcDbEntity
  8
画層1
 62
     3
100
AcDbLine
 10
10.75969908433531
 20
117.1507313520654
 30
0.0
 11
2.959699084335326
 21
117.1507313520654
 31
0.0
  0
CIRCLE
  5
1A41
330
18
100
AcDbEntity
  8
画層1
 62
     3
100
AcDbCircle
 10
17.1596990843353
 20
122.6507313520654
 30
0.0
 40
3.0
  0
LINE
  5
1A42
330
18
100
AcDbEntity
  8
画層1
 62
     3
100
AcDbLine
 10
16.25969908433531
 20
123.1507313520654
 30
0.0
 11
14.2016591927855
 21
123.1507313520654
 31
0.0
  0
LINE
  5
1A43
330
18
100
AcDbEntity
  8
画層1
 62
     3
100
AcDbLine
 10
16.25969908433531
 20
122.1507313520654
 30
0.0
 11
14.2016591927855
 21
122.1507313520654
 31
0.0
  0
LINE
  5
1A44
330
18
100
AcDbEntity
  8
画層1
 62
     3
100
AcDbLine
 10
17.65969908433531
 20
124.1507313520654
 30
0.0
 11
16.6596990843353
 21
124.1507313520654
 31
0.0
  0
LINE
  5
1A45
330
18
100
AcDbEntity
  8
画層1
 62
     3
100
AcDbLine
 10
17.65969908433531
 20
121.1507313520653
 30
0.0
 11
16.6596990843353
 21
121.1507313520653
 31
0.0
  0
LINE
  5
1A46
330
18
100
AcDbEntity
  8
画層1
 62
     3
100
AcDbLine
 10
20.11773897588511
 20
122.1507313520654
 30
0.0
 11
18.0596990843353
 21
122.1507313520654
 31
0.0
  0
LINE
  5
1A47
330
18
100
AcDbEntity
  8
画層1
 62
     3
100
AcDbLine
 10
20.11773897588511
 20
123.1507313520654
 30
0.0
 11
18.0596990843353
 21
123.1507313520654
 31
0.0
  0
LINE
  5
1A48
330
18
100
AcDbEntity
  8
画層1
 62
     3
100
AcDbLine
 10
17.65969908433531
 20
123.5507313520654
 30
0.0
 11
17.65969908433531
 21
124.1507313520654
 31
0.0
  0
ARC
  5
1A49
330
18
100
AcDbEntity
  8
画層1
 62
     3
100
AcDbCircle
 10
18.0596990843353
 20
123.5507313520654
 30
0.0
 40
0.4
100
AcDbArc
 50
180.0
 51
270.0
  0
LINE
  5
1A4A
330
18
100
AcDbEntity
  8
画層1
 62
     3
100
AcDbLine
 10
17.65969908433531
 20
121.1507313520653
 30
0.0
 11
17.65969908433531
 21
121.7507313520654
 31
0.0
  0
ARC
  5
1A4B
330
18
100
AcDbEntity
  8
画層1
 62
     3
100
AcDbCircle
 10
18.0596990843353
 20
121.7507313520654
 30
0.0
 40
0.4
100
AcDbArc
 50
90.00000000000005
 51
180.0
  0
LINE
  5
1A4C
330
18
100
AcDbEntity
  8
画層1
 62
     3
100
AcDbLine
 10
16.6596990843353
 20
123.5507313520654
 30
0.0
 11
16.6596990843353
 21
124.1507313520654
 31
0.0
  0
LINE
  5
1A4D
330
18
100
AcDbEntity
  8
画層1
 62
     3
100
AcDbLine
 10
16.6596990843353
 20
121.1507313520653
 30
0.0
 11
16.6596990843353
 21
121.7507313520654
 31
0.0
  0
ARC
  5
1A4E
330
18
100
AcDbEntity
  8
画層1
 62
     3
100
AcDbCircle
 10
16.25969908433531
 20
123.5507313520654
 30
0.0
 40
0.4
100
AcDbArc
 50
270.0
 51
0.0
  0
ARC
  5
1A4F
330
18
100
AcDbEntity
  8
画層1
 62
     3
100
AcDbCircle
 10
16.25969908433531
 20
121.7507313520654
 30
0.0
 40
0.4
100
AcDbArc
 50
0.0
 51
90.00000000000005
  0
LINE
  5
1A50
330
18
100
AcDbEntity
  8
画層1
 62
     3
100
AcDbLine
 10
13.25969908433532
 20
112.6507313520654
 30
0.0
 11
10.75969908433532
 21
112.6507313520654
 31
0.0
  0
LINE
  5
1A51
330
18
100
AcDbEntity
  8
画層1
 62
     3
100
AcDbLine
 10
47.1596990843353
 20
127.1507313520654
 30
0.0
 11
47.15969908433527
 21
111.1507313520654
 31
0.0
  0
LINE
  5
1A52
330
18
100
AcDbEntity
  8
画層1
 62
     3
100
AcDbLine
 10
39.35969908433529
 20
127.1507313520654
 30
0.0
 11
39.35969908433529
 21
111.1507313520654
 31
0.0
  0
LINE
  5
1A53
330
18
100
AcDbEntity
  8
画層1
 62
     3
100
AcDbLine
 10
36.85969908433529
 20
127.1507313520654
 30
0.0
 11
36.85969908433529
 21
111.1507313520654
 31
0.0
  0
LINE
  5
1A54
330
18
100
AcDbEntity
  8
画層1
 62
     3
100
AcDbLine
 10
39.35969908433529
 20
127.1507313520654
 30
0.0
 11
47.1596990843353
 21
127.1507313520654
 31
0.0
  0
LINE
  5
1A55
330
18
100
AcDbEntity
  8
画層1
 62
     3
100
AcDbLine
 10
29.05969908433529
 20
127.1507313520654
 30
0.0
 11
36.85969908433529
 21
127.1507313520654
 31
0.0
  0
LINE
  5
1A56
330
18
100
AcDbEntity
  8
画層1
 62
     3
100
AcDbLine
 10
39.35969908433529
 20
117.1507313520654
 30
0.0
 11
47.15969908433527
 21
117.1507313520654
 31
0.0
  0
LINE
  5
1A57
330
18
100
AcDbEntity
  8
画層1
 62
     3
100
AcDbLine
 10
39.35969908433529
 20
116.1507313520654
 30
0.0
 11
47.15969908433527
 21
116.1507313520654
 31
0.0
  0
CIRCLE
  5
1A58
330
18
100
AcDbEntity
  8
画層1
 62
     3
100
AcDbCircle
 10
32.9596990843353
 20
122.6507313520654
 30
0.0
 40
3.0
  0
ARC
  5
1A59
330
18
100
AcDbEntity
  8
画層1
 62
     3
100
AcDbCircle
 10
33.85969908433529
 20
121.7507313520654
 30
0.0
 40
0.4
100
AcDbArc
 50
90.00000000000005
 51
180.0
  0
ARC
  5
1A5A
330
18
100
AcDbEntity
  8
画層1
 62
     3
100
AcDbCircle
 10
33.85969908433529
 20
123.5507313520654
 30
0.0
 40
0.4
100
AcDbArc
 50
180.0
 51
270.0
  0
LINE
  5
1A5B
330
18
100
AcDbEntity
  8
画層1
 62
     3
100
AcDbLine
 10
33.45969908433529
 20
121.1507313520653
 30
0.0
 11
33.45969908433529
 21
121.7507313520654
 31
0.0
  0
LINE
  5
1A5C
330
18
100
AcDbEntity
  8
画層1
 62
     3
100
AcDbLine
 10
33.45969908433529
 20
123.5507313520654
 30
0.0
 11
33.45969908433529
 21
124.1507313520654
 31
0.0
  0
ARC
  5
1A5D
330
18
100
AcDbEntity
  8
画層1
 62
     3
100
AcDbCircle
 10
32.0596990843353
 20
121.7507313520654
 30
0.0
 40
0.4
100
AcDbArc
 50
0.0
 51
90.00000000000005
  0
LINE
  5
1A5E
330
18
100
AcDbEntity
  8
画層1
 62
     3
100
AcDbLine
 10
32.45969908433529
 20
121.1507313520653
 30
0.0
 11
32.45969908433529
 21
121.7507313520654
 31
0.0
  0
ARC
  5
1A5F
330
18
100
AcDbEntity
  8
画層1
 62
     3
100
AcDbCircle
 10
32.0596990843353
 20
123.5507313520654
 30
0.0
 40
0.4
100
AcDbArc
 50
270.0
 51
0.0
  0
LINE
  5
1A60
330
18
100
AcDbEntity
  8
画層1
 62
     3
100
AcDbLine
 10
32.45969908433529
 20
123.5507313520654
 30
0.0
 11
32.45969908433529
 21
124.1507313520654
 31
0.0
  0
LINE
  5
1A61
330
18
100
AcDbEntity
  8
画層1
 62
     3
100
AcDbLine
 10
30.0016591927855
 20
123.1507313520654
 30
0.0
 11
32.0596990843353
 21
123.1507313520654
 31
0.0
  0
LINE
  5
1A62
330
18
100
AcDbEntity
  8
画層1
 62
     3
100
AcDbLine
 10
30.00165919278548
 20
122.1507313520654
 30
0.0
 11
32.0596990843353
 21
122.1507313520654
 31
0.0
  0
LINE
  5
1A63
330
18
100
AcDbEntity
  8
画層1
 62
     3
100
AcDbLine
 10
32.45969908433529
 20
121.1507313520653
 30
0.0
 11
33.45969908433529
 21
121.1507313520653
 31
0.0
  0
LINE
  5
1A64
330
18
100
AcDbEntity
  8
画層1
 62
     3
100
AcDbLine
 10
32.45969908433529
 20
124.1507313520654
 30
0.0
 11
33.45969908433529
 21
124.1507313520654
 31
0.0
  0
LINE
  5
1A65
330
18
100
AcDbEntity
  8
画層1
 62
     3
100
AcDbLine
 10
33.85969908433529
 20
122.1507313520654
 30
0.0
 11
35.9177389758851
 21
122.1507313520654
 31
0.0
  0
LINE
  5
1A66
330
18
100
AcDbEntity
  8
画層1
 62
     3
100
AcDbLine
 10
33.85969908433529
 20
123.1507313520654
 30
0.0
 11
35.9177389758851
 21
123.1507313520654
 31
0.0
  0
LINE
  5
1A67
330
18
100
AcDbEntity
  8
画層1
 62
     3
100
AcDbLine
 10
29.05969908433529
 20
117.1507313520654
 30
0.0
 11
36.85969908433529
 21
117.1507313520654
 31
0.0
  0
LINE
  5
1A68
330
18
100
AcDbEntity
  8
画層1
 62
     3
100
AcDbLine
 10
29.05969908433529
 20
116.1507313520654
 30
0.0
 11
36.85969908433529
 21
116.1507313520654
 31
0.0
  0
CIRCLE
  5
1A69
330
18
100
AcDbEntity
  8
画層1
 62
     3
100
AcDbCircle
 10
43.25969908433529
 20
122.6507313520654
 30
0.0
 40
3.0
  0
ARC
  5
1A6A
330
18
100
AcDbEntity
  8
画層1
 62
     3
100
AcDbCircle
 10
44.1596990843353
 20
121.7507313520654
 30
0.0
 40
0.4
100
AcDbArc
 50
90.00000000000005
 51
180.0
  0
LINE
  5
1A6B
330
18
100
AcDbEntity
  8
画層1
 62
     3
100
AcDbLine
 10
43.75969908433531
 20
121.1507313520653
 30
0.0
 11
43.75969908433531
 21
121.7507313520654
 31
0.0
  0
ARC
  5
1A6C
330
18
100
AcDbEntity
  8
画層1
 62
     3
100
AcDbCircle
 10
44.1596990843353
 20
123.5507313520654
 30
0.0
 40
0.4
100
AcDbArc
 50
180.0
 51
270.0
  0
LINE
  5
1A6D
330
18
100
AcDbEntity
  8
画層1
 62
     3
100
AcDbLine
 10
43.75969908433531
 20
123.5507313520654
 30
0.0
 11
43.75969908433531
 21
124.1507313520654
 31
0.0
  0
LINE
  5
1A6E
330
18
100
AcDbEntity
  8
画層1
 62
     3
100
AcDbLine
 10
44.1596990843353
 20
122.1507313520654
 30
0.0
 11
46.2177389758851
 21
122.1507313520654
 31
0.0
  0
LINE
  5
1A6F
330
18
100
AcDbEntity
  8
画層1
 62
     3
100
AcDbLine
 10
44.1596990843353
 20
123.1507313520654
 30
0.0
 11
46.2177389758851
 21
123.1507313520654
 31
0.0
  0
ARC
  5
1A70
330
18
100
AcDbEntity
  8
画層1
 62
     3
100
AcDbCircle
 10
42.3596990843353
 20
121.7507313520654
 30
0.0
 40
0.4
100
AcDbArc
 50
0.0
 51
90.00000000000005
  0
LINE
  5
1A71
330
18
100
AcDbEntity
  8
画層1
 62
     3
100
AcDbLine
 10
42.7596990843353
 20
121.1507313520653
 30
0.0
 11
42.7596990843353
 21
121.7507313520654
 31
0.0
  0
ARC
  5
1A72
330
18
100
AcDbEntity
  8
画層1
 62
     3
100
AcDbCircle
 10
42.3596990843353
 20
123.5507313520654
 30
0.0
 40
0.4
100
AcDbArc
 50
270.0
 51
0.0
  0
LINE
  5
1A73
330
18
100
AcDbEntity
  8
画層1
 62
     3
100
AcDbLine
 10
42.7596990843353
 20
123.5507313520654
 30
0.0
 11
42.7596990843353
 21
124.1507313520654
 31
0.0
  0
LINE
  5
1A74
330
18
100
AcDbEntity
  8
画層1
 62
     3
100
AcDbLine
 10
40.30165919278549
 20
123.1507313520654
 30
0.0
 11
42.3596990843353
 21
123.1507313520654
 31
0.0
  0
LINE
  5
1A75
330
18
100
AcDbEntity
  8
画層1
 62
     3
100
AcDbLine
 10
40.30165919278549
 20
122.1507313520654
 30
0.0
 11
42.3596990843353
 21
122.1507313520654
 31
0.0
  0
LINE
  5
1A76
330
18
100
AcDbEntity
  8
画層1
 62
     3
100
AcDbLine
 10
42.7596990843353
 20
121.1507313520653
 30
0.0
 11
43.75969908433531
 21
121.1507313520653
 31
0.0
  0
LINE
  5
1A77
330
18
100
AcDbEntity
  8
画層1
 62
     3
100
AcDbLine
 10
42.7596990843353
 20
124.1507313520654
 30
0.0
 11
43.75969908433531
 21
124.1507313520654
 31
0.0
  0
LINE
  5
1A78
330
18
100
AcDbEntity
  8
画層1
 62
     3
100
AcDbLine
 10
36.85969908433529
 20
112.6507313520654
 30
0.0
 11
39.35969908433529
 21
112.6507313520654
 31
0.0
  0
LINE
  5
1A79
330
18
100
AcDbEntity
  8
画層1
 62
     3
100
AcDbLine
 10
47.15969908433527
 20
112.6507313520654
 30
0.0
 11
50.05969908433531
 21
112.6507313520654
 31
0.0
  0
LINE
  5
1A7A
330
18
100
AcDbEntity
  8
画層1
  6
CENTER
 62
     1
100
AcDbLine
 10
5.059699084335311
 20
152.4007313520653
 30
0.0
 11
5.059699084335311
 21
145.9007313520654
 31
0.0
  0
LINE
  5
1A7B
330
18
100
AcDbEntity
  8
画層1
  6
CENTER
 62
     1
100
AcDbLine
 10
45.0596990843353
 20
152.4007313520653
 30
0.0
 11
45.0596990843353
 21
145.9007313520654
 31
0.0
  0
DIMENSION
  5
1A7C
330
18
100
AcDbEntity
  8
画層1
 62
     1
100
AcDbDimension
  2
*D16
 10
45.0596990843353
 20
97.76992490413412
 30
0.0
 11
25.0596990843353
 21
99.64492490413412
 31
0.0
 70
    32
 71
     5
 42
39.99999999999999
  3
STANDARD_WS
100
AcDbAlignedDimension
 13
5.059699084335311
 23
149.1507313520654
 33
0.0
 14
45.0596990843353
 24
149.1507313520654
 34
0.0
100
AcDbRotatedDimension
1001
ACAD
1000
DSTYLE
1002
{
1070
   284
1070
     8
1070
   146
1040
0.6
1070
    47
1040
0.2
1070
   283
1070
     2
1070
   147
1040
0.625
1070
    48
1040
0.2
1070
    72
1070
     0
1070
    71
1070
     1
1070
    41
1040
1.5
1070
   173
1070
     1
1070
   340
1005
169
1070
   341
1005
217
1070
   343
1005
217
1070
   344
1005
217
1002
}
  0
DIMENSION
  5
1A89
330
18
100
AcDbEntity
  8
画層1
 62
     1
100
AcDbDimension
  2
*D17
 10
50.05969908433531
 20
90.04445973508209
 30
0.0
 11
25.0596990843353
 21
92.04001811071659
 31
0.0
 70
    32
  1
51以下
 71
     5
 42
50.0
  3
STANDARD_WS
100
AcDbAlignedDimension
 13
0.0596990843353078
 23
111.1507313520654
 33
0.0
 14
50.05969908433531
 24
111.1507313520654
 34
0.0
100
AcDbRotatedDimension
1001
ACAD
1000
DSTYLE
1002
{
1070
    41
1040
1.5
1070
   173
1070
     1
1070
   340
1005
169
1070
   341
1005
217
1070
   343
1005
217
1070
   344
1005
217
1002
}
  0
DIMENSION
  5
1A96
330
18
100
AcDbEntity
  8
画層1
 62
     1
100
AcDbDimension
  2
*D18
 10
47.15969908433527
 20
200.0252950918034
 30
0.0
 11
32.51642497266016
 21
200.0252950918034
 31
0.0
 70
   160
 71
     5
 42
7.799999999999998
  3
STANDARD_WS
100
AcDbAlignedDimension
 13
39.35969908433529
 23
187.1507313520653
 33
0.0
 14
47.15969908433527
 24
187.1507313520653
 34
0.0
100
AcDbRotatedDimension
1001
ACAD
1000
DSTYLE
1002
{
1070
   284
1070
     8
1070
   146
1040
0.6
1070
    47
1040
0.2
1070
   283
1070
     2
1070
   147
1040
0.625
1070
    48
1040
0.2
1070
    72
1070
     0
1070
    71
1070
     1
1070
    41
1040
1.5
1070
   173
1070
     1
1070
   340
1005
169
1070
   341
1005
217
1070
   343
1005
217
1070
   344
1005
217
1002
}
  0
LEADER
  5
1AA9
330
18
100
AcDbEntity
  8
画層1
 62
     1
100
AcDbLeader
  3
STANDARD_WS
 73
     0
 75
     1
 40
2.5
 41
14.26395939086294
 76
     3
 10
5.456067151370576
 20
177.0718405656678
 30
0.0
 10
-6.654918374523063
 20
200.0687885409969
 30
0.0
 10
-9.154918374523063
 20
200.0687885409969
 30
0.0
340
1AAA
1001
ACAD
1000
DSTYLE
1002
{
1070
   341
1005
1AB8
1070
    47
1040
0.05
1070
    48
1040
0.05
1070
    71
1070
     1
1070
   146
1040
0.5
1070
   283
1070
     2
1070
   284
1070
     8
1070
   340
1005
169
1070
   343
1005
217
1070
   344
1005
217
1002
}
  0
MTEXT
  5
1AAA
102
{ACAD_REACTORS
330
1AA9
102
}
330
18
100
AcDbEntity
  8
画層1
 62
     1
100
AcDbMText
 10
-9.779918374523063
 20
201.9437885409969
 30
0.0
 40
2.5
 41
0.0
 71
     6
 72
     1
  1
8-M3.5×7
  7
STYLE1
 73
     1
 44
1.0
  0
DIMENSION
  5
1AAB
330
18
100
AcDbEntity
  8
画層1
 62
     1
100
AcDbDimension
  2
*D19
 10
-165.1694554256249
 20
109.1507313520654
 30
0.0
 11
-167.0444554256249
 21
149.1507313520654
 31
0.0
 70
    32
 71
     5
 42
80.00000000000003
  3
STANDARD_WS
100
AcDbAlignedDimension
 13
-175.9403009156646
 23
189.1507313520653
 33
0.0
 14
-175.9403009156646
 24
109.1507313520654
 34
0.0
 50
90.0
100
AcDbRotatedDimension
1001
ACAD
1000
DSTYLE
1002
{
1070
    41
1040
1.5
1070
   173
1070
     1
1070
   340
1005
169
1070
   341
1005
217
1070
   343
1005
217
1070
   344
1005
217
1002
}
  0
LEADER
  5
1ABC
330
18
100
AcDbEntity
  8
画層1
 62
     1
100
AcDbLeader
  3
STANDARD_WS
 73
     0
 75
     1
 40
3.020304568527917
 41
14.46700507614212
 76
     3
 10
3.819834584823712
 20
147.2731701618904
 30
0.0
 10
-11.23134216641692
 20
124.4807558732939
 30
0.0
 10
-13.73134216641692
 20
124.4807558732939
 30
0.0
340
1ABD
1001
ACAD
1000
DSTYLE
1002
{
1070
   341
1005
217
1070
    47
1040
0.05
1070
    48
1040
0.05
1070
    71
1070
     1
1070
   146
1040
0.5
1070
   283
1070
     2
1070
   284
1070
     8
1070
   340
1005
169
1070
   343
1005
217
1070
   344
1005
217
1002
}
  0
MTEXT
  5
1ABD
102
{ACAD_REACTORS
330
1ABC
102
}
330
18
100
AcDbEntity
  8
画層1
 62
     1
100
AcDbMText
 10
-14.35634216641692
 20
126.6159081575579
 30
0.0
 40
2.5
 41
0.0
 71
     6
 72
     1
  1
2-φ4.5穴
  7
STYLE1
 73
     1
 44
1.0
  0
MTEXT
  5
1C11
330
18
100
AcDbEntity
  8
画層1
 62
     1
100
AcDbMText
 10
-218.5857092418726
 20
177.058348743015
 30
0.0
 40
1.7
 41
24.85458326200001
 71
     1
 72
     5
  1
{\fＭＳ Ｐゴシック|b0|i0|c128|p50;TWO-INPUT AVERAGE}
  7
STYLE1
 73
     1
 44
1.0
  0
MTEXT
  5
1C26
330
18
100
AcDbEntity
  8
画層1
 62
     1
100
AcDbMText
 10
-191.9791670995911
 20
154.8499497339849
 30
0.0
 40
1.5
 41
4.989799999999998
 71
     1
 72
     5
  1
{\fＭＳ Ｐゴシック|b0|i0|c128|p50;＋}
  7
STYLE1
 73
     1
 44
1.0
  0
MTEXT
  5
1C27
330
18
100
AcDbEntity
  8
画層1
 62
     1
100
AcDbMText
 10
-197.9791670995911
 20
154.8499497339849
 30
0.0
 40
1.5
 41
4.989799999999998
 71
     1
 72
     5
  1
{\fＭＳ Ｐゴシック|b0|i0|c128|p50;－}
  7
STYLE1
 73
     1
 44
1.0
  0
MTEXT
  5
1C3F
330
18
100
AcDbEntity
  8
画層1
 62
     1
100
AcDbMText
 10
-209.9791670995911
 20
154.8499497339849
 30
0.0
 40
1.5
 41
4.989799999999998
 71
     1
 72
     5
  1
{\fＭＳ Ｐゴシック|b0|i0|c128|p50;－}
  7
STYLE1
 73
     1
 44
1.0
  0
MTEXT
  5
1C40
330
18
100
AcDbEntity
  8
画層1
 62
     1
100
AcDbMText
 10
-203.9791670995911
 20
154.8499497339849
 30
0.0
 40
1.5
 41
4.989799999999998
 71
     1
 72
     5
  1
{\fＭＳ Ｐゴシック|b0|i0|c128|p50;＋}
  7
STYLE1
 73
     1
 44
1.0
  0
LINE
  5
1C49
330
18
100
AcDbEntity
  8
画層1
 62
     1
100
AcDbLine
 10
-211.9403009156646
 20
161.1507313520654
 30
0.0
 11
-211.9403009156646
 21
167.8515113127431
 31
0.0
  0
LINE
  5
1C4A
330
18
100
AcDbEntity
  8
画層1
 62
     3
100
AcDbLine
 10
-208.9403009156646
 20
162.1507313520654
 30
0.0
 11
-208.9403009156646
 21
161.4007313520654
 31
0.0
  0
LINE
  5
1C4B
330
18
100
AcDbEntity
  8
画層1
 62
     3
100
AcDbLine
 10
-208.9403009156646
 20
162.1507313520654
 30
0.0
 11
-207.4403009156646
 21
162.1507313520654
 31
0.0
  0
LINE
  5
1C4C
330
18
100
AcDbEntity
  8
画層1
 62
     3
100
AcDbLine
 10
-202.9403009156646
 20
162.1507313520654
 30
0.0
 11
-204.4403009156646
 21
162.1507313520654
 31
0.0
  0
LINE
  5
1C4D
330
18
100
AcDbEntity
  8
画層1
 62
     3
100
AcDbLine
 10
-202.9403009156646
 20
162.1507313520654
 30
0.0
 11
-202.9403009156646
 21
161.4007313520654
 31
0.0
  0
MTEXT
  5
1C4F
330
18
100
AcDbEntity
  8
画層1
 62
     1
100
AcDbMText
 10
-210.5452044020108
 20
164.5011213324043
 30
0.0
 40
1.7
 41
10.60490348634622
 71
     1
 72
     5
  1
{\fＭＳ Ｐゴシック|b0|i0|c128|p50;ＩＮＰＵＴ 2}
  7
STYLE1
 73
     1
 44
1.0
  0
HATCH
  5
1C50
330
18
100
AcDbEntity
  8
画層1
 62
     1
100
AcDbHatch
 10
0.0
 20
0.0
 30
0.0
210
0.0
220
0.0
230
1.0
  2
SOLID
 70
     1
 71
     0
 91
        1
 92
        7
 72
     0
 73
     1
 93
        3
 10
-206.9403009156646
 20
161.1507313520654
 10
-210.9403009156646
 20
161.1507313520654
 10
-208.9403009156646
 20
159.1507313520654
 97
        0
 75
     0
 76
     1
 47
0.0724659212988218
 98
        1
 10
-209.0607040513073
 20
159.950526623242
  0
HATCH
  5
1C51
330
18
100
AcDbEntity
  8
画層1
 62
     1
100
AcDbHatch
 10
0.0
 20
0.0
 30
0.0
210
0.0
220
0.0
230
1.0
  2
SOLID
 70
     1
 71
     0
 91
        1
 92
        7
 72
     0
 73
     1
 93
        3
 10
-200.9403009156646
 20
161.1507313520654
 10
-204.9403009156646
 20
161.1507313520654
 10
-202.9403009156646
 20
159.1507313520654
 97
        0
 75
     0
 76
     1
 47
0.0724659212988218
 98
        1
 10
-203.1887179329442
 20
160.1679238899778
  0
MTEXT
  5
1C66
330
18
100
AcDbEntity
  8
画層1
 62
     1
100
AcDbMText
 10
-197.4334268833214
 20
130.8456744842191
 30
0.0
 40
1.5
 41
6.495275194022941
 71
     1
 72
     5
  1
{\fＭＳ Ｐゴシック|b0|i0|c128|p50;ＺＥＲＯ}
  7
STYLE1
 73
     1
 44
1.0
  0
MTEXT
  5
1C67
330
18
100
AcDbEntity
  8
画層1
 62
     1
100
AcDbMText
 10
-186.9334268833214
 20
130.8456744842191
 30
0.0
 40
1.5
 41
6.4953
 71
     1
 72
     5
  1
{\fＭＳ Ｐゴシック|b0|i0|c128|p50;ＳＰＡＮ}
  7
STYLE1
 73
     1
 44
1.0
  0
HATCH
  5
1C68
330
18
100
AcDbEntity
  8
画層1
 62
     1
100
AcDbHatch
 10
0.0
 20
0.0
 30
0.0
210
0.0
220
0.0
230
1.0
  2
SOLID
 70
     1
 71
     0
 91
        1
 92
        7
 72
     1
 73
     1
 93
        4
 10
-187.4403009156646
 20
124.8507313520655
 42
-1.0
 10
-180.4403009156646
 20
124.8507313520654
 42
0.0
 10
-179.6903009156646
 20
128.1007313520654
 42
0.0
 10
-180.535563406009
 20
127.6007313520654
 42
0.6781170744954049
 97
        0
 75
     0
 76
     1
 47
0.0307134633676822
 98
        1
 10
-183.1021706916246
 20
128.6086521459357
  0
HATCH
  5
1C69
330
18
100
AcDbEntity
  8
画層1
 62
     1
100
AcDbHatch
 10
0.0
 20
0.0
 30
0.0
210
0.0
220
0.0
230
1.0
  2
SOLID
 70
     1
 71
     0
 91
        1
 92
        7
 72
     1
 73
     1
 93
        4
 10
-197.9403009156649
 20
124.8507313520655
 42
-1.0
 10
-190.9403009156646
 20
124.8507313520654
 42
0.0
 10
-190.1903009156646
 20
128.1007313520653
 42
0.0
 10
-191.035563406009
 20
127.6007313520654
 42
0.6781170744954572
 97
        0
 75
     0
 76
     1
 47
0.0158440041390693
 98
        1
 10
-193.6830355194376
 20
128.698533005033
  0
CIRCLE
  5
1C6A
330
18
100
AcDbEntity
  8
画層1
 62
     3
100
AcDbCircle
 10
-194.4403009156646
 20
124.8507313520654
 30
0.0
 40
2.5
  0
CIRCLE
  5
1C6B
330
18
100
AcDbEntity
  8
画層1
 62
     3
100
AcDbCircle
 10
-183.9403009156646
 20
124.8507313520654
 30
0.0
 40
2.5
  0
ENDSEC
  0
SECTION
  2
OBJECTS
  0
DICTIONARY
  5
C
330
0
100
AcDbDictionary
281
     1
  3
ACAD_GROUP
350
D
  3
ACAD_LAYOUT
350
483
  3
ACAD_MLINESTYLE
350
1B
  3
ACAD_PLOTSETTINGS
350
484
  3
ACAD_PLOTSTYLENAME
350
481
  3
ACDBVARIABLEDICTIONARY
350
33
  3
CONTENTDICTIONARY
350
23
  0
DICTIONARY
  5
D
102
{ACAD_REACTORS
330
C
102
}
330
C
100
AcDbDictionary
281
     1
  0
DICTIONARY
  5
483
102
{ACAD_REACTORS
330
C
102
}
330
C
100
AcDbDictionary
281
     1
  3
Model
350
485
  3
ﾚｲｱｳﾄ1
350
486
  0
DICTIONARY
  5
1B
102
{ACAD_REACTORS
330
C
102
}
330
C
100
AcDbDictionary
281
     1
  3
STANDARD
350
1C
  0
DICTIONARY
  5
484
102
{ACAD_REACTORS
330
C
102
}
330
C
100
AcDbDictionary
281
     1
  0
ACDBDICTIONARYWDFLT
  5
481
102
{ACAD_REACTORS
330
C
102
}
330
C
100
AcDbDictionary
281
     1
  3
Normal
350
482
100
AcDbDictionaryWithDefault
340
482
  0
DICTIONARY
  5
33
102
{ACAD_REACTORS
330
C
102
}
330
C
100
AcDbDictionary
281
     1
  3
DIMADEC
350
34
  3
SORTENTS
350
17D0
  0
DICTIONARY
  5
23
102
{ACAD_REACTORS
330
C
102
}
330
C
100
AcDbDictionary
281
     1
  0
LAYOUT
  5
485
102
{ACAD_REACTORS
330
483
102
}
330
483
100
AcDbPlotSettings
  1

  2
Acrobat PDFWriter
  4
A4
  6

 40
7.143749713897705
 41
7.143756389617919
 42
7.14373779296875
 43
7.14373779296875
 44
209.9733276367186
 45
297.0530090332031
 46
40.0
 47
0.0
 48
0.0
 49
0.0
140
0.0
141
0.0
142
1.0
143
1.0
 70
 11952
 72
     1
 73
     1
 74
     1
  7
ryu.ctb
 75
    16
147
1.0
148
226.9595151830007
149
-88.78638716649925
100
AcDbLayout
  1
Model
 70
     1
 71
     0
 10
0.0
 20
0.0
 11
12.0
 21
9.0
 12
0.0
 22
0.0
 32
0.0
 14
0.0
 24
0.0
 34
0.0
 15
0.0
 25
0.0
 35
0.0
146
0.0
 13
0.0
 23
0.0
 33
0.0
 16
1.0
 26
0.0
 36
0.0
 17
0.0
 27
1.0
 37
0.0
 76
     0
330
18
  0
LAYOUT
  5
486
102
{ACAD_REACTORS
330
483
102
}
330
483
100
AcDbPlotSettings
  1

  2
Canon LASER SHOT LBP-740
  4

  6

 40
0.0
 41
0.0
 42
0.0
 43
0.0
 44
0.0
 45
0.0
 46
0.0
 47
0.0
 48
0.0
 49
0.0
140
0.0
141
0.0
142
1.0
143
1.0
 70
   688
 72
     0
 73
     0
 74
     5
  7
ryu.ctb
 75
    16
147
1.0
148
0.0
149
0.0
100
AcDbLayout
  1
ﾚｲｱｳﾄ1
 70
     1
 71
     1
 10
0.0
 20
0.0
 11
420.0
 21
297.0
 12
0.0
 22
0.0
 32
0.0
 14
1.000000000000000E+20
 24
1.000000000000000E+20
 34
1.000000000000000E+20
 15
-1.000000000000000E+20
 25
-1.000000000000000E+20
 35
-1.000000000000000E+20
146
0.0
 13
0.0
 23
0.0
 33
0.0
 16
1.0
 26
0.0
 36
0.0
 17
0.0
 27
1.0
 37
0.0
 76
     0
330
15
  0
MLINESTYLE
  5
1C
102
{ACAD_REACTORS
330
1B
102
}
330
1B
100
AcDbMlineStyle
  2
STANDARD
 70
     0
  3

 62
   256
 51
90.0
 52
90.0
 71
     2
 49
0.5
 62
   256
  6
BYLAYER
 49
-0.5
 62
   256
  6
BYLAYER
  0
ACDBPLACEHOLDER
  5
482
102
{ACAD_REACTORS
330
481
102
}
330
481
  0
DICTIONARYVAR
  5
34
102
{ACAD_REACTORS
330
33
102
}
330
33
100
DictionaryVariables
280
     0
  1
0
  0
DICTIONARYVAR
  5
17D0
102
{ACAD_REACTORS
330
33
102
}
330
33
100
DictionaryVariables
280
     0
  1
96
  0
ENDSEC
  0
EOF
