  0
SECTION
  2
HEADER
  9
$ACADVER
  1
AC1015
  9
$ACADMAINTVER
 70
     6
  9
$DWGCODEPAGE
  3
ANSI_932
  9
$INSBASE
 10
0.0
 20
0.0
 30
0.0
  9
$EXTMIN
 10
234.5413564935972
 20
145.8915439571474
 30
0.0
  9
$EXTMAX
 10
381.3042870678735
 20
276.1760272965735
 30
0.0
  9
$LIMMIN
 10
0.0
 20
0.0
  9
$LIMMAX
 10
420.0
 20
297.0
  9
$ORTHOMODE
 70
     1
  9
$REGENMODE
 70
     1
  9
$FILLMODE
 70
     1
  9
$QTEXTMODE
 70
     0
  9
$MIRRTEXT
 70
     1
  9
$LTSCALE
 40
1.0
  9
$ATTMODE
 70
     1
  9
$TEXTSIZE
 40
2.5
  9
$TRACEWID
 40
1.0
  9
$TEXTSTYLE
  7
Standard
  9
$CLAYER
  8
0
  9
$CELTYPE
  6
ByLayer
  9
$CECOLOR
 62
     1
  9
$CELTSCALE
 40
1.0
  9
$DISPSILH
 70
     0
  9
$DIMSCALE
 40
1.0
  9
$DIMASZ
 40
2.5
  9
$DIMEXO
 40
0.625
  9
$DIMDLI
 40
3.75
  9
$DIMRND
 40
0.0
  9
$DIMDLE
 40
0.0
  9
$DIMEXE
 40
1.25
  9
$DIMTP
 40
0.0
  9
$DIMTM
 40
0.0
  9
$DIMTXT
 40
5.0
  9
$DIMCEN
 40
2.5
  9
$DIMTSZ
 40
0.0
  9
$DIMTOL
 70
     0
  9
$DIMLIM
 70
     0
  9
$DIMTIH
 70
     0
  9
$DIMTOH
 70
     0
  9
$DIMSE1
 70
     0
  9
$DIMSE2
 70
     0
  9
$DIMTAD
 70
     1
  9
$DIMZIN
 70
     8
  9
$DIMBLK
  1

  9
$DIMASO
 70
     1
  9
$DIMSHO
 70
     1
  9
$DIMPOST
  1

  9
$DIMAPOST
  1

  9
$DIMALT
 70
     0
  9
$DIMALTD
 70
     3
  9
$DIMALTF
 40
0.03937007874016
  9
$DIMLFAC
 40
1.0
  9
$DIMTOFL
 70
     1
  9
$DIMTVP
 40
0.0
  9
$DIMTIX
 70
     0
  9
$DIMSOXD
 70
     0
  9
$DIMSAH
 70
     0
  9
$DIMBLK1
  1

  9
$DIMBLK2
  1

  9
$DIMSTYLE
  2
ISO-25
  9
$DIMCLRD
 70
     0
  9
$DIMCLRE
 70
     0
  9
$DIMCLRT
 70
     0
  9
$DIMTFAC
 40
1.0
  9
$DIMGAP
 40
0.625
  9
$DIMJUST
 70
     0
  9
$DIMSD1
 70
     0
  9
$DIMSD2
 70
     0
  9
$DIMTOLJ
 70
     0
  9
$DIMTZIN
 70
     8
  9
$DIMALTZ
 70
     0
  9
$DIMALTTZ
 70
     0
  9
$DIMUPT
 70
     0
  9
$DIMDEC
 70
     0
  9
$DIMTDEC
 70
     0
  9
$DIMALTU
 70
     2
  9
$DIMALTTD
 70
     3
  9
$DIMTXSTY
  7
Standard
  9
$DIMAUNIT
 70
     0
  9
$DIMADEC
 70
     0
  9
$DIMALTRND
 40
0.0
  9
$DIMAZIN
 70
     0
  9
$DIMDSEP
 70
    44
  9
$DIMATFIT
 70
     3
  9
$DIMFRAC
 70
     0
  9
$DIMLDRBLK
  1

  9
$DIMLUNIT
 70
     2
  9
$DIMLWD
 70
    -2
  9
$DIMLWE
 70
    -2
  9
$DIMTMOVE
 70
     0
  9
$LUNITS
 70
     2
  9
$LUPREC
 70
     4
  9
$SKETCHINC
 40
1.0
  9
$FILLETRAD
 40
2.0
  9
$AUNITS
 70
     0
  9
$AUPREC
 70
     0
  9
$MENU
  1
.
  9
$ELEVATION
 40
0.0
  9
$PELEVATION
 40
0.0
  9
$THICKNESS
 40
0.0
  9
$LIMCHECK
 70
     0
  9
$CHAMFERA
 40
10.0
  9
$CHAMFERB
 40
10.0
  9
$CHAMFERC
 40
20.0
  9
$CHAMFERD
 40
0.0
  9
$SKPOLY
 70
     0
  9
$TDCREATE
 40
2453921.428927037
  9
$TDUCREATE
 40
2453921.053927037
  9
$TDUPDATE
 40
2457000.650229386
  9
$TDUUPDATE
 40
2457000.275229386
  9
$TDINDWG
 40
1.1581331250
  9
$TDUSRTIMER
 40
1.1581331250
  9
$USRTIMER
 70
     1
  9
$ANGBASE
 50
0.0
  9
$ANGDIR
 70
     0
  9
$PDMODE
 70
     0
  9
$PDSIZE
 40
0.0
  9
$PLINEWID
 40
0.0
  9
$SPLFRAME
 70
     0
  9
$SPLINETYPE
 70
     6
  9
$SPLINESEGS
 70
     8
  9
$HANDSEED
  5
14CD
  9
$SURFTAB1
 70
     6
  9
$SURFTAB2
 70
     6
  9
$SURFTYPE
 70
     6
  9
$SURFU
 70
     6
  9
$SURFV
 70
     6
  9
$UCSBASE
  2

  9
$UCSNAME
  2

  9
$UCSORG
 10
0.0
 20
0.0
 30
0.0
  9
$UCSXDIR
 10
1.0
 20
0.0
 30
0.0
  9
$UCSYDIR
 10
0.0
 20
1.0
 30
0.0
  9
$UCSORTHOREF
  2

  9
$UCSORTHOVIEW
 70
     0
  9
$UCSORGTOP
 10
0.0
 20
0.0
 30
0.0
  9
$UCSORGBOTTOM
 10
0.0
 20
0.0
 30
0.0
  9
$UCSORGLEFT
 10
0.0
 20
0.0
 30
0.0
  9
$UCSORGRIGHT
 10
0.0
 20
0.0
 30
0.0
  9
$UCSORGFRONT
 10
0.0
 20
0.0
 30
0.0
  9
$UCSORGBACK
 10
0.0
 20
0.0
 30
0.0
  9
$PUCSBASE
  2

  9
$PUCSNAME
  2

  9
$PUCSORG
 10
0.0
 20
0.0
 30
0.0
  9
$PUCSXDIR
 10
1.0
 20
0.0
 30
0.0
  9
$PUCSYDIR
 10
0.0
 20
1.0
 30
0.0
  9
$PUCSORTHOREF
  2

  9
$PUCSORTHOVIEW
 70
     0
  9
$PUCSORGTOP
 10
0.0
 20
0.0
 30
0.0
  9
$PUCSORGBOTTOM
 10
0.0
 20
0.0
 30
0.0
  9
$PUCSORGLEFT
 10
0.0
 20
0.0
 30
0.0
  9
$PUCSORGRIGHT
 10
0.0
 20
0.0
 30
0.0
  9
$PUCSORGFRONT
 10
0.0
 20
0.0
 30
0.0
  9
$PUCSORGBACK
 10
0.0
 20
0.0
 30
0.0
  9
$USERI1
 70
     0
  9
$USERI2
 70
     0
  9
$USERI3
 70
     0
  9
$USERI4
 70
     0
  9
$USERI5
 70
     0
  9
$USERR1
 40
0.0
  9
$USERR2
 40
0.0
  9
$USERR3
 40
0.0
  9
$USERR4
 40
0.0
  9
$USERR5
 40
0.0
  9
$WORLDVIEW
 70
     1
  9
$SHADEDGE
 70
     3
  9
$SHADEDIF
 70
    70
  9
$TILEMODE
 70
     1
  9
$MAXACTVP
 70
    48
  9
$PINSBASE
 10
0.0
 20
0.0
 30
0.0
  9
$PLIMCHECK
 70
     0
  9
$PEXTMIN
 10
1.000000000000000E+20
 20
1.000000000000000E+20
 30
1.000000000000000E+20
  9
$PEXTMAX
 10
-1.000000000000000E+20
 20
-1.000000000000000E+20
 30
-1.000000000000000E+20
  9
$PLIMMIN
 10
0.0
 20
0.0
  9
$PLIMMAX
 10
420.0
 20
297.0
  9
$UNITMODE
 70
     0
  9
$VISRETAIN
 70
     1
  9
$PLINEGEN
 70
     0
  9
$PSLTSCALE
 70
     1
  9
$TREEDEPTH
 70
  3020
  9
$CMLSTYLE
  2
Standard
  9
$CMLJUST
 70
     0
  9
$CMLSCALE
 40
20.0
  9
$PROXYGRAPHICS
 70
     1
  9
$MEASUREMENT
 70
     1
  9
$CELWEIGHT
370
    -1
  9
$ENDCAPS
280
     0
  9
$JOINSTYLE
280
     0
  9
$LWDISPLAY
290
     0
  9
$INSUNITS
 70
     4
  9
$HYPERLINKBASE
  1

  9
$STYLESHEET
  1
ryu.ctb
  9
$XEDIT
290
     1
  9
$CEPSNTYPE
380
     0
  9
$PSTYLEMODE
290
     1
  9
$FINGERPRINTGUID
  2
{FDEAD578-A652-11D2-9A35-0060089B3A3F}
  9
$VERSIONGUID
  2
{789B4F58-8D89-4A87-8CD7-253DF0A6BC4E}
  9
$EXTNAMES
290
     1
  9
$PSVPSCALE
 40
0.0
  9
$OLESTARTUP
290
     0
  0
ENDSEC
  0
SECTION
  2
CLASSES
  0
CLASS
  1
ACDBDICTIONARYWDFLT
  2
AcDbDictionaryWithDefault
  3
AutoCAD 2000
 90
        0
280
     0
281
     0
  0
CLASS
  1
ACDBPLACEHOLDER
  2
AcDbPlaceHolder
  3
AutoCAD 2000
 90
        0
280
     0
281
     0
  0
CLASS
  1
LAYOUT
  2
AcDbLayout
  3
AutoCAD 2000
 90
        0
280
     0
281
     0
  0
CLASS
  1
DICTIONARYVAR
  2
AcDbDictionaryVar
  3
AutoCAD 2000
 90
        0
280
     0
281
     0
  0
CLASS
  1
LONG_TRANSACTION
  2
AcDbLongTransaction
  3
AutoCAD 2000
 90
    32768
280
     0
281
     0
  0
CLASS
  1
LWPOLYLINE
  2
AcDbPolyline
  3
AutoCAD 2000
 90
    32768
280
     0
281
     1
  0
CLASS
  1
HATCH
  2
AcDbHatch
  3
AutoCAD 2000
 90
    32768
280
     0
281
     1
  0
CLASS
  1
XRECORD
  2
AcDbXrecord
  3
AutoCAD 2000
 90
    32768
280
     0
281
     0
  0
CLASS
  1
LONG_TRANSACTION
  2
AcDbLongTransaction
  3
AutoCAD 2000
 90
    32768
280
     0
281
     0
  0
CLASS
  1
LWPOLYLINE
  2
AcDbPolyline
  3
AutoCAD 2000
 90
    32768
280
     0
281
     1
  0
CLASS
  1
HATCH
  2
AcDbHatch
  3
AutoCAD 2000
 90
    32768
280
     0
281
     1
  0
CLASS
  1
XRECORD
  2
AcDbXrecord
  3
AutoCAD 2000
 90
    32768
280
     0
281
     0
  0
CLASS
  1
LONG_TRANSACTION
  2
AcDbLongTransaction
  3
AutoCAD 2000
 90
    32768
280
     0
281
     0
  0
CLASS
  1
LWPOLYLINE
  2
AcDbPolyline
  3
AutoCAD 2000
 90
    32768
280
     0
281
     1
  0
CLASS
  1
HATCH
  2
AcDbHatch
  3
AutoCAD 2000
 90
    32768
280
     0
281
     1
  0
CLASS
  1
XRECORD
  2
AcDbXrecord
  3
AutoCAD 2000
 90
    32768
280
     0
281
     0
  0
CLASS
  1
LONG_TRANSACTION
  2
AcDbLongTransaction
  3
AutoCAD 2000
 90
    32768
280
     0
281
     0
  0
CLASS
  1
LWPOLYLINE
  2
AcDbPolyline
  3
AutoCAD 2000
 90
    32768
280
     0
281
     1
  0
CLASS
  1
HATCH
  2
AcDbHatch
  3
AutoCAD 2000
 90
    32768
280
     0
281
     1
  0
CLASS
  1
XRECORD
  2
AcDbXrecord
  3
AutoCAD 2000
 90
    32768
280
     0
281
     0
  0
ENDSEC
  0
SECTION
  2
TABLES
  0
TABLE
  2
VPORT
  5
8
330
0
100
AcDbSymbolTable
 70
     6
  0
VPORT
  5
14CC
330
8
100
AcDbSymbolTableRecord
100
AcDbViewportTableRecord
  2
*Active
 70
     0
 10
0.0
 20
0.0
 11
1.0
 21
1.0
 12
317.7912901785145
 22
178.0251216969195
 13
0.0
 23
0.0
 14
10.0
 24
10.0
 15
10.0
 25
10.0
 16
0.0
 26
0.0
 36
1.0
 17
0.0
 27
0.0
 37
0.0
 40
272.270008555965
 41
1.371212121212121
 42
50.0
 43
0.0
 44
0.0
 50
0.0
 51
0.0
 71
     0
 72
   100
 73
     1
 74
     3
 75
     0
 76
     0
 77
     0
 78
     0
281
     0
 65
     1
110
0.0
120
0.0
130
0.0
111
1.0
121
0.0
131
0.0
112
0.0
122
1.0
132
0.0
 79
     0
146
0.0
  0
ENDTAB
  0
TABLE
  2
LTYPE
  5
5
330
0
100
AcDbSymbolTable
 70
     4
  0
LTYPE
  5
14
330
5
100
AcDbSymbolTableRecord
100
AcDbLinetypeTableRecord
  2
ByBlock
 70
     0
  3

 72
    65
 73
     0
 40
0.0
  0
LTYPE
  5
15
330
5
100
AcDbSymbolTableRecord
100
AcDbLinetypeTableRecord
  2
ByLayer
 70
     0
  3

 72
    65
 73
     0
 40
0.0
  0
LTYPE
  5
16
330
5
100
AcDbSymbolTableRecord
100
AcDbLinetypeTableRecord
  2
Continuous
 70
     0
  3
Solid line
 72
    65
 73
     0
 40
0.0
  0
LTYPE
  5
FB3
330
5
100
AcDbSymbolTableRecord
100
AcDbLinetypeTableRecord
  2
CENTER
 70
     0
  3
Center ____ _ ____ _ ____ _ ____ _ ____ _ ____
 72
    65
 73
     4
 40
50.8
 49
31.75
 74
     0
 49
-6.349999999999999
 74
     0
 49
6.349999999999999
 74
     0
 49
-6.349999999999999
 74
     0
  0
LTYPE
  5
1282
330
5
100
AcDbSymbolTableRecord
100
AcDbLinetypeTableRecord
  2
ACAD_ISO02W100
 70
     0
  3
ISO dash __ __ __ __ __ __ __ __ __ __ __ __ __
 72
    65
 73
     2
 40
15.0
 49
12.0
 74
     0
 49
-3.0
 74
     0
  0
LTYPE
  5
1294
330
5
100
AcDbSymbolTableRecord
100
AcDbLinetypeTableRecord
  2
DASHED2
 70
     0
  3
Dashed (.5x) _ _ _ _ _ _ _ _ _ _ _ _ _ _ _ _ _
 72
    65
 73
     2
 40
9.524999999999998
 49
6.349999999999999
 74
     0
 49
-3.174999999999999
 74
     0
  0
ENDTAB
  0
TABLE
  2
LAYER
  5
2
330
0
100
AcDbSymbolTable
 70
     3
  0
LAYER
  5
10
330
2
100
AcDbSymbolTableRecord
100
AcDbLayerTableRecord
  2
0
 70
     0
 62
     7
  6
Continuous
370
    -3
390
F
  0
LAYER
  5
4A
330
2
100
AcDbSymbolTableRecord
100
AcDbLayerTableRecord
  2
画層1
 70
     0
 62
     7
  6
Continuous
370
    -3
390
F
  0
LAYER
  5
D56
330
2
100
AcDbSymbolTableRecord
100
AcDbLayerTableRecord
  2
Defpoints
 70
     0
 62
     7
  6
Continuous
290
     0
370
    -3
390
F
  0
ENDTAB
  0
TABLE
  2
STYLE
  5
3
330
0
100
AcDbSymbolTable
 70
     3
  0
STYLE
  5
11
330
3
100
AcDbSymbolTableRecord
100
AcDbTextStyleTableRecord
  2
Standard
 70
     0
 40
0.0
 41
1.0
 50
0.0
 71
     0
 42
2.5
  3
txt
  4

  0
STYLE
  5
4B
330
3
100
AcDbSymbolTableRecord
100
AcDbTextStyleTableRecord
  2
STYLE1
 70
     0
 40
2.5
 41
1.0
 50
0.0
 71
     0
 42
1.5
  3
MS Gothic.ttf
  4

1001
ACAD
1000
MS Gothic
1071
    32817
  0
STYLE
  5
FB2
330
3
100
AcDbSymbolTableRecord
100
AcDbTextStyleTableRecord
  2

 70
     1
 40
0.0
 41
1.0
 50
0.0
 71
     0
 42
2.5
  3
ltypeshp.shx
  4

  0
ENDTAB
  0
TABLE
  2
VIEW
  5
6
330
0
100
AcDbSymbolTable
 70
     0
  0
ENDTAB
  0
TABLE
  2
UCS
  5
7
330
0
100
AcDbSymbolTable
 70
     0
  0
ENDTAB
  0
TABLE
  2
APPID
  5
9
330
0
100
AcDbSymbolTable
 70
     1
  0
APPID
  5
12
330
9
100
AcDbSymbolTableRecord
100
AcDbRegAppTableRecord
  2
ACAD
 70
     0
  0
ENDTAB
  0
TABLE
  2
DIMSTYLE
  5
A
330
0
100
AcDbSymbolTable
 70
     2
100
AcDbDimStyleTable
 71
     1
340
27
  0
DIMSTYLE
105
27
102
{ACAD_REACTORS
330
1366
330
1359
330
12AC
330
12B9
330
12FD
330
12D8
330
1380
330
1373
330
144B
330
1458
330
1465
330
1472
330
148F
102
}
330
A
100
AcDbSymbolTableRecord
100
AcDbDimStyleTableRecord
  2
ISO-25
 70
     0
 41
2.5
 42
0.625
 43
3.75
 44
1.25
 73
     0
 74
     0
 77
     1
 78
     8
140
5.0
141
2.5
143
0.03937007874016
147
0.625
171
     3
172
     1
271
     0
272
     0
274
     3
278
    44
283
     0
284
     8
340
11
  0
DIMSTYLE
105
4C
330
A
100
AcDbSymbolTableRecord
100
AcDbDimStyleTableRecord
  2
STANDARD_WS
 70
     0
 41
2.5
 42
0.625
 43
3.75
 44
1.25
 73
     0
 74
     0
 77
     1
 78
     8
140
2.5
141
2.5
143
0.0394
147
0.625
171
     4
172
     1
273
     8
274
     4
340
11
  0
ENDTAB
  0
TABLE
  2
BLOCK_RECORD
  5
1
330
0
100
AcDbSymbolTable
 70
    18
  0
BLOCK_RECORD
  5
1F
102
{ACAD_XDICTIONARY
360
E11
102
}
330
1
100
AcDbSymbolTableRecord
100
AcDbBlockTableRecord
  2
*Model_Space
340
22
  0
BLOCK_RECORD
  5
1B
102
{ACAD_XDICTIONARY
360
E13
102
}
330
1
100
AcDbSymbolTableRecord
100
AcDbBlockTableRecord
  2
*Paper_Space
340
1E
  0
BLOCK_RECORD
  5
23
102
{ACAD_XDICTIONARY
360
E15
102
}
330
1
100
AcDbSymbolTableRecord
100
AcDbBlockTableRecord
  2
*Paper_Space0
340
26
  0
BLOCK_RECORD
  5
44
330
1
100
AcDbSymbolTableRecord
100
AcDbBlockTableRecord
  2
_OPEN30
340
0
  0
BLOCK_RECORD
  5
12AD
330
1
100
AcDbSymbolTableRecord
100
AcDbBlockTableRecord
  2
*D5
340
0
  0
BLOCK_RECORD
  5
12BA
330
1
100
AcDbSymbolTableRecord
100
AcDbBlockTableRecord
  2
*D6
340
0
  0
BLOCK_RECORD
  5
12D9
330
1
100
AcDbSymbolTableRecord
100
AcDbBlockTableRecord
  2
*D7
340
0
  0
BLOCK_RECORD
  5
12FE
330
1
100
AcDbSymbolTableRecord
100
AcDbBlockTableRecord
  2
*D8
340
0
  0
BLOCK_RECORD
  5
135A
330
1
100
AcDbSymbolTableRecord
100
AcDbBlockTableRecord
  2
*D9
340
0
  0
BLOCK_RECORD
  5
1367
330
1
100
AcDbSymbolTableRecord
100
AcDbBlockTableRecord
  2
*D10
340
0
  0
BLOCK_RECORD
  5
1374
330
1
100
AcDbSymbolTableRecord
100
AcDbBlockTableRecord
  2
*D11
340
0
  0
BLOCK_RECORD
  5
1381
330
1
100
AcDbSymbolTableRecord
100
AcDbBlockTableRecord
  2
*D12
340
0
  0
BLOCK_RECORD
  5
144C
330
1
100
AcDbSymbolTableRecord
100
AcDbBlockTableRecord
  2
*D13
340
0
  0
BLOCK_RECORD
  5
1459
330
1
100
AcDbSymbolTableRecord
100
AcDbBlockTableRecord
  2
*D14
340
0
  0
BLOCK_RECORD
  5
1466
330
1
100
AcDbSymbolTableRecord
100
AcDbBlockTableRecord
  2
*D15
340
0
  0
BLOCK_RECORD
  5
1473
330
1
100
AcDbSymbolTableRecord
100
AcDbBlockTableRecord
  2
*D16
340
0
  0
BLOCK_RECORD
  5
1490
330
1
100
AcDbSymbolTableRecord
100
AcDbBlockTableRecord
  2
*D17
340
0
  0
ENDTAB
  0
ENDSEC
  0
SECTION
  2
BLOCKS
  0
BLOCK
  5
20
330
1F
100
AcDbEntity
  8
0
100
AcDbBlockBegin
  2
*Model_Space
 70
     0
 10
0.0
 20
0.0
 30
0.0
  3
*Model_Space
  1

  0
ENDBLK
  5
21
330
1F
100
AcDbEntity
  8
0
100
AcDbBlockEnd
  0
BLOCK
  5
1C
330
1B
100
AcDbEntity
 67
     1
  8
0
100
AcDbBlockBegin
  2
*Paper_Space
 70
     0
 10
0.0
 20
0.0
 30
0.0
  3
*Paper_Space
  1

  0
ENDBLK
  5
1D
330
1B
100
AcDbEntity
 67
     1
  8
0
100
AcDbBlockEnd
  0
BLOCK
  5
24
330
23
100
AcDbEntity
  8
0
100
AcDbBlockBegin
  2
*Paper_Space0
 70
     0
 10
0.0
 20
0.0
 30
0.0
  3
*Paper_Space0
  1

  0
ENDBLK
  5
25
330
23
100
AcDbEntity
  8
0
100
AcDbBlockEnd
  0
BLOCK
  5
48
330
44
100
AcDbEntity
  8
0
100
AcDbBlockBegin
  2
_OPEN30
 70
     0
 10
0.0
 20
0.0
 30
0.0
  3
_OPEN30
  1

  0
LINE
  5
45
330
44
100
AcDbEntity
  8
0
  6
ByBlock
 62
     0
100
AcDbLine
 10
-1.0
 20
0.26794919
 30
0.0
 11
0.0
 21
0.0
 31
0.0
  0
LINE
  5
46
330
44
100
AcDbEntity
  8
0
  6
ByBlock
 62
     0
100
AcDbLine
 10
0.0
 20
0.0
 30
0.0
 11
-1.0
 21
-0.26794919
 31
0.0
  0
LINE
  5
47
330
44
100
AcDbEntity
  8
0
  6
ByBlock
 62
     0
100
AcDbLine
 10
0.0
 20
0.0
 30
0.0
 11
-1.0
 21
0.0
 31
0.0
  0
ENDBLK
  5
49
330
44
100
AcDbEntity
  8
0
100
AcDbBlockEnd
  0
BLOCK
  5
12B7
330
12AD
100
AcDbEntity
  8
0
 62
     1
100
AcDbBlockBegin
  2
*D5
 70
     1
 10
0.0
 20
0.0
 30
0.0
  3
*D5
  1

  0
LINE
  5
13EC
330
12AD
100
AcDbEntity
  8
0
 62
     0
370
    -2
100
AcDbLine
 10
336.5692102919301
 20
220.9143936671063
 30
0.0
 11
336.5692102919301
 21
200.7330964258041
 31
0.0
  0
LINE
  5
13ED
330
12AD
100
AcDbEntity
  8
0
 62
     0
370
    -2
100
AcDbLine
 10
346.5692102919301
 20
220.9143936671063
 30
0.0
 11
346.5692102919301
 21
200.7330964258041
 31
0.0
  0
LINE
  5
13EE
330
12AD
100
AcDbEntity
  8
0
 62
     0
370
    -2
100
AcDbLine
 10
339.0692102919302
 20
201.983096425804
 30
0.0
 11
344.0692102919301
 21
201.983096425804
 31
0.0
  0
SOLID
  5
13EF
330
12AD
100
AcDbEntity
  8
0
 62
     0
100
AcDbTrace
 10
339.0692102919302
 20
202.3997630924707
 30
0.0
 11
339.0692102919302
 21
201.5664297591374
 31
0.0
 12
336.5692102919301
 22
201.983096425804
 32
0.0
 13
336.5692102919301
 23
201.983096425804
 33
0.0
  0
SOLID
  5
13F0
330
12AD
100
AcDbEntity
  8
0
 62
     0
100
AcDbTrace
 10
344.0692102919301
 20
202.3997630924707
 30
0.0
 11
344.0692102919301
 21
201.5664297591374
 31
0.0
 12
346.5692102919301
 22
201.983096425804
 32
0.0
 13
346.5692102919301
 23
201.983096425804
 33
0.0
  0
MTEXT
  5
13F1
330
12AD
100
AcDbEntity
  8
0
 62
     0
100
AcDbMText
 10
341.5692102919301
 20
205.108096425804
 30
0.0
 40
5.0
 41
0.0
 71
     5
 72
     1
  1
10
 73
     1
 44
1.0
  0
POINT
  5
13F2
330
12AD
100
AcDbEntity
  8
Defpoints
 62
     0
100
AcDbPoint
 10
336.5692102919301
 20
221.5393936671063
 30
0.0
  0
POINT
  5
13F3
330
12AD
100
AcDbEntity
  8
Defpoints
 62
     0
100
AcDbPoint
 10
346.5692102919301
 20
221.5393936671063
 30
0.0
  0
POINT
  5
13F4
330
12AD
100
AcDbEntity
  8
Defpoints
 62
     0
100
AcDbPoint
 10
346.5692102919301
 20
201.983096425804
 30
0.0
  0
ENDBLK
  5
12B8
330
12AD
100
AcDbEntity
  8
0
 62
     1
100
AcDbBlockEnd
  0
BLOCK
  5
12C4
330
12BA
100
AcDbEntity
  8
0
 62
     1
100
AcDbBlockBegin
  2
*D6
 70
     1
 10
0.0
 20
0.0
 30
0.0
  3
*D6
  1

  0
LINE
  5
13BC
330
12BA
100
AcDbEntity
  8
0
 62
     0
370
    -2
100
AcDbLine
 10
302.0986224239688
 20
221.5393936671063
 30
0.0
 11
321.2351420224429
 21
221.5393936671062
 31
0.0
  0
LINE
  5
13BD
330
12BA
100
AcDbEntity
  8
0
 62
     0
370
    -2
100
AcDbLine
 10
292.5986224239689
 20
246.5393936671063
 30
0.0
 11
321.2351420224429
 21
246.5393936671062
 31
0.0
  0
LINE
  5
13BE
330
12BA
100
AcDbEntity
  8
0
 62
     0
370
    -2
100
AcDbLine
 10
319.9851420224429
 20
224.0393936671063
 30
0.0
 11
319.9851420224429
 21
244.0393936671063
 31
0.0
  0
SOLID
  5
13BF
330
12BA
100
AcDbEntity
  8
0
 62
     0
100
AcDbTrace
 10
319.5684753557762
 20
224.0393936671063
 30
0.0
 11
320.4018086891096
 21
224.0393936671063
 31
0.0
 12
319.9851420224429
 22
221.5393936671063
 32
0.0
 13
319.9851420224429
 23
221.5393936671063
 33
0.0
  0
SOLID
  5
13C0
330
12BA
100
AcDbEntity
  8
0
 62
     0
100
AcDbTrace
 10
319.5684753557762
 20
244.0393936671063
 30
0.0
 11
320.4018086891096
 21
244.0393936671062
 31
0.0
 12
319.9851420224429
 22
246.5393936671063
 32
0.0
 13
319.9851420224429
 23
246.5393936671063
 33
0.0
  0
MTEXT
  5
13C1
330
12BA
100
AcDbEntity
  8
0
 62
     0
100
AcDbMText
 10
316.8601420224428
 20
234.0393936671063
 30
0.0
 40
5.0
 41
0.0
 71
     5
 72
     1
  1
25
 11
0.0000000000000001
 21
1.0
 31
0.0
 73
     1
 44
1.0
  0
POINT
  5
13C2
330
12BA
100
AcDbEntity
  8
Defpoints
 62
     0
100
AcDbPoint
 10
301.4736224239689
 20
221.5393936671063
 30
0.0
  0
POINT
  5
13C3
330
12BA
100
AcDbEntity
  8
Defpoints
 62
     0
100
AcDbPoint
 10
291.9736224239688
 20
246.5393936671063
 30
0.0
  0
POINT
  5
13C4
330
12BA
100
AcDbEntity
  8
Defpoints
 62
     0
100
AcDbPoint
 10
319.9851420224429
 20
246.5393936671063
 30
0.0
  0
ENDBLK
  5
12C5
330
12BA
100
AcDbEntity
  8
0
 62
     1
100
AcDbBlockEnd
  0
BLOCK
  5
12E5
330
12D9
100
AcDbEntity
  8
0
 62
     1
100
AcDbBlockBegin
  2
*D7
 70
     1
 10
0.0
 20
0.0
 30
0.0
  3
*D7
  1

  0
LINE
  5
13E1
330
12D9
100
AcDbEntity
  8
0
 62
     0
370
    -2
100
AcDbLine
 10
302.0986224239688
 20
224.0393936671063
 30
0.0
 11
304.7899507300574
 21
224.0393936671063
 31
0.0
  0
LINE
  5
13E2
330
12D9
100
AcDbEntity
  8
0
 62
     0
370
    -2
100
AcDbLine
 10
302.0986224239688
 20
221.5393936671063
 30
0.0
 11
304.7899507300574
 21
221.5393936671063
 31
0.0
  0
LINE
  5
13E3
330
12D9
100
AcDbEntity
  8
0
 62
     0
370
    -2
100
AcDbLine
 10
303.5399507300574
 20
219.0393936671063
 30
0.0
 11
303.5399507300574
 21
216.5393936671063
 31
0.0
  0
LINE
  5
13E4
330
12D9
100
AcDbEntity
  8
0
 62
     0
370
    -2
100
AcDbLine
 10
303.5399507300574
 20
226.5393936671063
 30
0.0
 11
303.5399507300574
 21
240.2893936671063
 31
0.0
  0
LINE
  5
13E5
330
12D9
100
AcDbEntity
  8
0
 62
     0
370
    -2
100
AcDbLine
 10
303.5399507300574
 20
221.5393936671063
 30
0.0
 11
303.5399507300574
 21
224.0393936671063
 31
0.0
  0
SOLID
  5
13E6
330
12D9
100
AcDbEntity
  8
0
 62
     0
100
AcDbTrace
 10
303.1232840633907
 20
219.0393936671063
 30
0.0
 11
303.9566173967241
 21
219.0393936671063
 31
0.0
 12
303.5399507300574
 22
221.5393936671063
 32
0.0
 13
303.5399507300574
 23
221.5393936671063
 33
0.0
  0
SOLID
  5
13E7
330
12D9
100
AcDbEntity
  8
0
 62
     0
100
AcDbTrace
 10
303.1232840633907
 20
226.5393936671063
 30
0.0
 11
303.9566173967241
 21
226.5393936671063
 31
0.0
 12
303.5399507300574
 22
224.0393936671063
 32
0.0
 13
303.5399507300574
 23
224.0393936671063
 33
0.0
  0
MTEXT
  5
13E8
330
12D9
100
AcDbEntity
  8
0
 62
     0
100
AcDbMText
 10
300.4149507300573
 20
234.6643936671063
 30
0.0
 40
5.0
 41
0.0
 71
     5
 72
     1
  1
2.5
 11
0.0000000000000001
 21
1.0
 31
0.0
 73
     1
 44
1.0
  0
POINT
  5
13E9
330
12D9
100
AcDbEntity
  8
Defpoints
 62
     0
100
AcDbPoint
 10
301.4736224239689
 20
224.0393936671063
 30
0.0
  0
POINT
  5
13EA
330
12D9
100
AcDbEntity
  8
Defpoints
 62
     0
100
AcDbPoint
 10
301.4736224239689
 20
221.5393936671063
 30
0.0
  0
POINT
  5
13EB
330
12D9
100
AcDbEntity
  8
Defpoints
 62
     0
100
AcDbPoint
 10
303.5399507300574
 20
221.5393936671063
 30
0.0
  0
ENDBLK
  5
12E6
330
12D9
100
AcDbEntity
  8
0
 62
     1
100
AcDbBlockEnd
  0
BLOCK
  5
1309
330
12FE
100
AcDbEntity
  8
0
 62
     1
100
AcDbBlockBegin
  2
*D8
 70
     1
 10
0.0
 20
0.0
 30
0.0
  3
*D8
  1

  0
LINE
  5
13D7
330
12FE
100
AcDbEntity
  8
0
 62
     0
370
    -2
100
AcDbLine
 10
302.0986224239688
 20
221.5393936671063
 30
0.0
 11
313.6586615133774
 21
221.5393936671063
 31
0.0
  0
LINE
  5
13D8
330
12FE
100
AcDbEntity
  8
0
 62
     0
370
    -2
100
AcDbLine
 10
282.0986224239689
 20
232.0393936671063
 30
0.0
 11
313.6586615133774
 21
232.0393936671063
 31
0.0
  0
LINE
  5
13D9
330
12FE
100
AcDbEntity
  8
0
 62
     0
370
    -2
100
AcDbLine
 10
312.4086615133774
 20
229.5393936671063
 30
0.0
 11
312.4086615133774
 21
224.0393936671063
 31
0.0
  0
LINE
  5
13DA
330
12FE
100
AcDbEntity
  8
0
 62
     0
370
    -2
100
AcDbLine
 10
312.4086615133774
 20
221.5393936671063
 30
0.0
 11
312.4086615133774
 21
208.6227270004396
 31
0.0
  0
SOLID
  5
13DB
330
12FE
100
AcDbEntity
  8
0
 62
     0
100
AcDbTrace
 10
311.9919948467107
 20
229.5393936671063
 30
0.0
 11
312.8253281800441
 21
229.5393936671063
 31
0.0
 12
312.4086615133774
 22
232.0393936671063
 32
0.0
 13
312.4086615133774
 23
232.0393936671063
 33
0.0
  0
SOLID
  5
13DC
330
12FE
100
AcDbEntity
  8
0
 62
     0
100
AcDbTrace
 10
311.9919948467107
 20
224.0393936671063
 30
0.0
 11
312.8253281800441
 21
224.0393936671063
 31
0.0
 12
312.4086615133774
 22
221.5393936671063
 32
0.0
 13
312.4086615133774
 23
221.5393936671063
 33
0.0
  0
MTEXT
  5
13DD
330
12FE
100
AcDbEntity
  8
0
 62
     0
100
AcDbMText
 10
309.2836615133773
 20
211.7477270004396
 30
0.0
 40
5.0
 41
0.0
 71
     5
 72
     1
  1
11
 11
0.0000000000000001
 21
1.0
 31
0.0
 73
     1
 44
1.0
  0
POINT
  5
13DE
330
12FE
100
AcDbEntity
  8
Defpoints
 62
     0
100
AcDbPoint
 10
301.4736224239689
 20
221.5393936671063
 30
0.0
  0
POINT
  5
13DF
330
12FE
100
AcDbEntity
  8
Defpoints
 62
     0
100
AcDbPoint
 10
281.4736224239688
 20
232.0393936671063
 30
0.0
  0
POINT
  5
13E0
330
12FE
100
AcDbEntity
  8
Defpoints
 62
     0
100
AcDbPoint
 10
312.4086615133774
 20
232.0393936671063
 30
0.0
  0
ENDBLK
  5
130A
330
12FE
100
AcDbEntity
  8
0
 62
     1
100
AcDbBlockEnd
  0
BLOCK
  5
1364
330
135A
100
AcDbEntity
  8
0
 62
     1
100
AcDbBlockBegin
  2
*D9
 70
     1
 10
0.0
 20
0.0
 30
0.0
  3
*D9
  1

  0
LINE
  5
13CE
330
135A
100
AcDbEntity
  8
0
 62
     0
370
    -2
100
AcDbLine
 10
266.4736224239689
 20
215.9143936671063
 30
0.0
 11
266.4736224239689
 21
202.7033669833026
 31
0.0
  0
LINE
  5
13CF
330
135A
100
AcDbEntity
  8
0
 62
     0
370
    -2
100
AcDbLine
 10
296.4736224239688
 20
215.9143936671063
 30
0.0
 11
296.4736224239688
 21
202.7033669833026
 31
0.0
  0
LINE
  5
13D0
330
135A
100
AcDbEntity
  8
0
 62
     0
370
    -2
100
AcDbLine
 10
268.9736224239688
 20
203.9533669833026
 30
0.0
 11
293.9736224239688
 21
203.9533669833026
 31
0.0
  0
SOLID
  5
13D1
330
135A
100
AcDbEntity
  8
0
 62
     0
100
AcDbTrace
 10
268.9736224239688
 20
204.3700336499693
 30
0.0
 11
268.9736224239688
 21
203.5367003166359
 31
0.0
 12
266.4736224239689
 22
203.9533669833026
 32
0.0
 13
266.4736224239689
 23
203.9533669833026
 33
0.0
  0
SOLID
  5
13D2
330
135A
100
AcDbEntity
  8
0
 62
     0
100
AcDbTrace
 10
293.9736224239688
 20
204.3700336499693
 30
0.0
 11
293.9736224239688
 21
203.5367003166359
 31
0.0
 12
296.4736224239688
 22
203.9533669833026
 32
0.0
 13
296.4736224239688
 23
203.9533669833026
 33
0.0
  0
MTEXT
  5
13D3
330
135A
100
AcDbEntity
  8
0
 62
     0
100
AcDbMText
 10
281.4736224239688
 20
207.0783669833026
 30
0.0
 40
5.0
 41
0.0
 71
     5
 72
     1
  1
30
 73
     1
 44
1.0
  0
POINT
  5
13D4
330
135A
100
AcDbEntity
  8
Defpoints
 62
     0
100
AcDbPoint
 10
266.4736224239689
 20
216.5393936671063
 30
0.0
  0
POINT
  5
13D5
330
135A
100
AcDbEntity
  8
Defpoints
 62
     0
100
AcDbPoint
 10
296.4736224239688
 20
216.5393936671063
 30
0.0
  0
POINT
  5
13D6
330
135A
100
AcDbEntity
  8
Defpoints
 62
     0
100
AcDbPoint
 10
296.4736224239688
 20
203.9533669833026
 30
0.0
  0
ENDBLK
  5
1365
330
135A
100
AcDbEntity
  8
0
 62
     1
100
AcDbBlockEnd
  0
BLOCK
  5
1371
330
1367
100
AcDbEntity
  8
0
 62
     1
100
AcDbBlockBegin
  2
*D10
 70
     1
 10
0.0
 20
0.0
 30
0.0
  3
*D10
  1

  0
LINE
  5
13C5
330
1367
100
AcDbEntity
  8
0
 62
     0
370
    -2
100
AcDbLine
 10
261.4736224239688
 20
220.9143936671063
 30
0.0
 11
261.4736224239688
 21
195.3945708027396
 31
0.0
  0
LINE
  5
13C6
330
1367
100
AcDbEntity
  8
0
 62
     0
370
    -2
100
AcDbLine
 10
301.4736224239689
 20
220.9143936671063
 30
0.0
 11
301.4736224239689
 21
195.3945708027396
 31
0.0
  0
LINE
  5
13C7
330
1367
100
AcDbEntity
  8
0
 62
     0
370
    -2
100
AcDbLine
 10
263.9736224239689
 20
196.6445708027396
 30
0.0
 11
298.9736224239688
 21
196.6445708027396
 31
0.0
  0
SOLID
  5
13C8
330
1367
100
AcDbEntity
  8
0
 62
     0
100
AcDbTrace
 10
263.9736224239689
 20
197.0612374694063
 30
0.0
 11
263.9736224239689
 21
196.2279041360729
 31
0.0
 12
261.4736224239688
 22
196.6445708027396
 32
0.0
 13
261.4736224239688
 23
196.6445708027396
 33
0.0
  0
SOLID
  5
13C9
330
1367
100
AcDbEntity
  8
0
 62
     0
100
AcDbTrace
 10
298.9736224239688
 20
197.0612374694063
 30
0.0
 11
298.9736224239688
 21
196.2279041360729
 31
0.0
 12
301.4736224239689
 22
196.6445708027396
 32
0.0
 13
301.4736224239689
 23
196.6445708027396
 33
0.0
  0
MTEXT
  5
13CA
330
1367
100
AcDbEntity
  8
0
 62
     0
100
AcDbMText
 10
281.4736224239688
 20
199.7695708027396
 30
0.0
 40
5.0
 41
0.0
 71
     5
 72
     1
  1
40
 73
     1
 44
1.0
  0
POINT
  5
13CB
330
1367
100
AcDbEntity
  8
Defpoints
 62
     0
100
AcDbPoint
 10
261.4736224239688
 20
221.5393936671063
 30
0.0
  0
POINT
  5
13CC
330
1367
100
AcDbEntity
  8
Defpoints
 62
     0
100
AcDbPoint
 10
301.4736224239689
 20
221.5393936671063
 30
0.0
  0
POINT
  5
13CD
330
1367
100
AcDbEntity
  8
Defpoints
 62
     0
100
AcDbPoint
 10
301.4736224239689
 20
196.6445708027396
 30
0.0
  0
ENDBLK
  5
1372
330
1367
100
AcDbEntity
  8
0
 62
     1
100
AcDbBlockEnd
  0
BLOCK
  5
137E
330
1374
100
AcDbEntity
  8
0
 62
     1
100
AcDbBlockBegin
  2
*D11
 70
     1
 10
0.0
 20
0.0
 30
0.0
  3
*D11
  1

  0
LINE
  5
13FE
330
1374
100
AcDbEntity
  8
0
 62
     0
370
    -2
100
AcDbLine
 10
273.9736224239688
 20
254.1643936671063
 30
0.0
 11
273.9736224239688
 21
260.4938159680918
 31
0.0
  0
LINE
  5
13FF
330
1374
100
AcDbEntity
  8
0
 62
     0
370
    -2
100
AcDbLine
 10
288.9736224239689
 20
254.1643936671063
 30
0.0
 11
288.9736224239689
 21
260.4938159680918
 31
0.0
  0
LINE
  5
1400
330
1374
100
AcDbEntity
  8
0
 62
     0
370
    -2
100
AcDbLine
 10
276.4736224239689
 20
259.2438159680917
 30
0.0
 11
286.4736224239688
 21
259.2438159680917
 31
0.0
  0
SOLID
  5
1401
330
1374
100
AcDbEntity
  8
0
 62
     0
100
AcDbTrace
 10
276.4736224239689
 20
259.6604826347584
 30
0.0
 11
276.4736224239689
 21
258.827149301425
 31
0.0
 12
273.9736224239688
 22
259.2438159680917
 32
0.0
 13
273.9736224239688
 23
259.2438159680917
 33
0.0
  0
SOLID
  5
1402
330
1374
100
AcDbEntity
  8
0
 62
     0
100
AcDbTrace
 10
286.4736224239688
 20
259.6604826347584
 30
0.0
 11
286.4736224239688
 21
258.827149301425
 31
0.0
 12
288.9736224239689
 22
259.2438159680917
 32
0.0
 13
288.9736224239689
 23
259.2438159680917
 33
0.0
  0
MTEXT
  5
1403
330
1374
100
AcDbEntity
  8
0
 62
     0
100
AcDbMText
 10
281.4736224239688
 20
262.3688159680917
 30
0.0
 40
5.0
 41
0.0
 71
     5
 72
     1
  1
15
 73
     1
 44
1.0
  0
POINT
  5
1404
330
1374
100
AcDbEntity
  8
Defpoints
 62
     0
100
AcDbPoint
 10
273.9736224239688
 20
253.5393936671062
 30
0.0
  0
POINT
  5
1405
330
1374
100
AcDbEntity
  8
Defpoints
 62
     0
100
AcDbPoint
 10
288.9736224239689
 20
253.5393936671062
 30
0.0
  0
POINT
  5
1406
330
1374
100
AcDbEntity
  8
Defpoints
 62
     0
100
AcDbPoint
 10
288.9736224239689
 20
259.2438159680917
 30
0.0
  0
ENDBLK
  5
137F
330
1374
100
AcDbEntity
  8
0
 62
     1
100
AcDbBlockEnd
  0
BLOCK
  5
138B
330
1381
100
AcDbEntity
  8
0
 62
     1
100
AcDbBlockBegin
  2
*D12
 70
     1
 10
0.0
 20
0.0
 30
0.0
  3
*D12
  1

  0
LINE
  5
13F5
330
1381
100
AcDbEntity
  8
0
 62
     0
370
    -2
100
AcDbLine
 10
270.9736224239688
 20
247.1643936671063
 30
0.0
 11
270.9736224239688
 21
268.519490941626
 31
0.0
  0
LINE
  5
13F6
330
1381
100
AcDbEntity
  8
0
 62
     0
370
    -2
100
AcDbLine
 10
291.9736224239688
 20
247.1643936671063
 30
0.0
 11
291.9736224239688
 21
268.519490941626
 31
0.0
  0
LINE
  5
13F7
330
1381
100
AcDbEntity
  8
0
 62
     0
370
    -2
100
AcDbLine
 10
273.4736224239688
 20
267.269490941626
 30
0.0
 11
289.4736224239689
 21
267.269490941626
 31
0.0
  0
SOLID
  5
13F8
330
1381
100
AcDbEntity
  8
0
 62
     0
100
AcDbTrace
 10
273.4736224239688
 20
267.6861576082927
 30
0.0
 11
273.4736224239688
 21
266.8528242749593
 31
0.0
 12
270.9736224239688
 22
267.269490941626
 32
0.0
 13
270.9736224239688
 23
267.269490941626
 33
0.0
  0
SOLID
  5
13F9
330
1381
100
AcDbEntity
  8
0
 62
     0
100
AcDbTrace
 10
289.4736224239689
 20
267.6861576082927
 30
0.0
 11
289.4736224239689
 21
266.8528242749593
 31
0.0
 12
291.9736224239688
 22
267.269490941626
 32
0.0
 13
291.9736224239688
 23
267.269490941626
 33
0.0
  0
MTEXT
  5
13FA
330
1381
100
AcDbEntity
  8
0
 62
     0
100
AcDbMText
 10
281.4736224239688
 20
270.394490941626
 30
0.0
 40
5.0
 41
0.0
 71
     5
 72
     1
  1
21
 73
     1
 44
1.0
  0
POINT
  5
13FB
330
1381
100
AcDbEntity
  8
Defpoints
 62
     0
100
AcDbPoint
 10
270.9736224239688
 20
246.5393936671063
 30
0.0
  0
POINT
  5
13FC
330
1381
100
AcDbEntity
  8
Defpoints
 62
     0
100
AcDbPoint
 10
291.9736224239688
 20
246.5393936671063
 30
0.0
  0
POINT
  5
13FD
330
1381
100
AcDbEntity
  8
Defpoints
 62
     0
100
AcDbPoint
 10
291.9736224239688
 20
267.269490941626
 30
0.0
  0
ENDBLK
  5
138C
330
1381
100
AcDbEntity
  8
0
 62
     1
100
AcDbBlockEnd
  0
BLOCK
  5
1456
330
144C
100
AcDbEntity
  8
0
 62
     1
100
AcDbBlockBegin
  2
*D13
 70
     1
 10
0.0
 20
0.0
 30
0.0
  3
*D13
  1

  0
LINE
  5
149E
330
144C
100
AcDbEntity
  8
0
 62
     0
370
    -2
100
AcDbLine
 10
334.0692102919301
 20
213.4143936671063
 30
0.0
 11
334.0692102919301
 21
195.2872817207953
 31
0.0
  0
LINE
  5
149F
330
144C
100
AcDbEntity
  8
0
 62
     0
370
    -2
100
AcDbLine
 10
349.0692102919301
 20
213.4143936671063
 30
0.0
 11
349.0692102919301
 21
195.2872817207953
 31
0.0
  0
LINE
  5
14A0
330
144C
100
AcDbEntity
  8
0
 62
     0
370
    -2
100
AcDbLine
 10
336.5692102919301
 20
196.5372817207953
 30
0.0
 11
346.5692102919301
 21
196.5372817207953
 31
0.0
  0
SOLID
  5
14A1
330
144C
100
AcDbEntity
  8
0
 62
     0
100
AcDbTrace
 10
336.5692102919301
 20
196.9539483874619
 30
0.0
 11
336.5692102919301
 21
196.1206150541286
 31
0.0
 12
334.0692102919301
 22
196.5372817207953
 32
0.0
 13
334.0692102919301
 23
196.5372817207953
 33
0.0
  0
SOLID
  5
14A2
330
144C
100
AcDbEntity
  8
0
 62
     0
100
AcDbTrace
 10
346.5692102919301
 20
196.9539483874619
 30
0.0
 11
346.5692102919301
 21
196.1206150541286
 31
0.0
 12
349.0692102919301
 22
196.5372817207953
 32
0.0
 13
349.0692102919301
 23
196.5372817207953
 33
0.0
  0
MTEXT
  5
14A3
330
144C
100
AcDbEntity
  8
0
 62
     0
100
AcDbMText
 10
341.5692102919301
 20
199.6622817207953
 30
0.0
 40
5.0
 41
0.0
 71
     5
 72
     1
  1
15
 73
     1
 44
1.0
  0
POINT
  5
14A4
330
144C
100
AcDbEntity
  8
Defpoints
 62
     0
100
AcDbPoint
 10
334.0692102919301
 20
214.0393936671063
 30
0.0
  0
POINT
  5
14A5
330
144C
100
AcDbEntity
  8
Defpoints
 62
     0
100
AcDbPoint
 10
349.0692102919301
 20
214.0393936671063
 30
0.0
  0
POINT
  5
14A6
330
144C
100
AcDbEntity
  8
Defpoints
 62
     0
100
AcDbPoint
 10
349.0692102919301
 20
196.5372817207953
 30
0.0
  0
ENDBLK
  5
1457
330
144C
100
AcDbEntity
  8
0
 62
     1
100
AcDbBlockEnd
  0
BLOCK
  5
1463
330
1459
100
AcDbEntity
  8
0
 62
     1
100
AcDbBlockBegin
  2
*D14
 70
     1
 10
0.0
 20
0.0
 30
0.0
  3
*D14
  1

  0
LINE
  5
14B9
330
1459
100
AcDbEntity
  8
0
 62
     0
370
    -2
100
AcDbLine
 10
266.4936224239688
 20
261.6643936671063
 30
0.0
 11
266.4936224239688
 21
271.8010272965734
 31
0.0
  0
LINE
  5
14BA
330
1459
100
AcDbEntity
  8
0
 62
     0
370
    -2
100
AcDbLine
 10
296.4936224239544
 20
261.6643936671063
 30
0.0
 11
296.4936224239544
 21
271.8010272965734
 31
0.0
  0
LINE
  5
14BB
330
1459
100
AcDbEntity
  8
0
 62
     0
370
    -2
100
AcDbLine
 10
268.9936224239688
 20
270.5510272965734
 30
0.0
 11
293.9936224239545
 21
270.5510272965734
 31
0.0
  0
SOLID
  5
14BC
330
1459
100
AcDbEntity
  8
0
 62
     0
100
AcDbTrace
 10
268.9936224239688
 20
270.9676939632401
 30
0.0
 11
268.9936224239688
 21
270.1343606299067
 31
0.0
 12
266.4936224239688
 22
270.5510272965734
 32
0.0
 13
266.4936224239688
 23
270.5510272965734
 33
0.0
  0
SOLID
  5
14BD
330
1459
100
AcDbEntity
  8
0
 62
     0
100
AcDbTrace
 10
293.9936224239545
 20
270.9676939632401
 30
0.0
 11
293.9936224239545
 21
270.1343606299067
 31
0.0
 12
296.4936224239544
 22
270.5510272965734
 32
0.0
 13
296.4936224239544
 23
270.5510272965734
 33
0.0
  0
MTEXT
  5
14BE
330
1459
100
AcDbEntity
  8
0
 62
     0
100
AcDbMText
 10
281.4936224239616
 20
273.6760272965734
 30
0.0
 40
5.0
 41
0.0
 71
     5
 72
     1
  1
30
 73
     1
 44
1.0
  0
POINT
  5
14BF
330
1459
100
AcDbEntity
  8
Defpoints
 62
     0
100
AcDbPoint
 10
266.4936224239688
 20
261.0393936671063
 30
0.0
  0
POINT
  5
14C0
330
1459
100
AcDbEntity
  8
Defpoints
 62
     0
100
AcDbPoint
 10
296.4936224239544
 20
261.0393936671063
 30
0.0
  0
POINT
  5
14C1
330
1459
100
AcDbEntity
  8
Defpoints
 62
     0
100
AcDbPoint
 10
296.4936224239544
 20
270.5510272965734
 30
0.0
  0
ENDBLK
  5
1464
330
1459
100
AcDbEntity
  8
0
 62
     1
100
AcDbBlockEnd
  0
BLOCK
  5
1470
330
1466
100
AcDbEntity
  8
0
 62
     1
100
AcDbBlockBegin
  2
*D15
 70
     1
 10
0.0
 20
0.0
 30
0.0
  3
*D15
  1

  0
LINE
  5
14A7
330
1466
100
AcDbEntity
  8
0
 62
     0
370
    -2
100
AcDbLine
 10
300.0986224239689
 20
212.0393936671063
 30
0.0
 11
317.1968025716703
 21
212.0393936671063
 31
0.0
  0
LINE
  5
14A8
330
1466
100
AcDbEntity
  8
0
 62
     0
370
    -2
100
AcDbLine
 10
300.0986224239689
 20
252.0393936671063
 30
0.0
 11
317.1968025716703
 21
252.0393936671063
 31
0.0
  0
LINE
  5
14A9
330
1466
100
AcDbEntity
  8
0
 62
     0
370
    -2
100
AcDbLine
 10
315.9468025716703
 20
214.5393936671063
 30
0.0
 11
315.9468025716703
 21
249.5393936671063
 31
0.0
  0
SOLID
  5
14AA
330
1466
100
AcDbEntity
  8
0
 62
     0
100
AcDbTrace
 10
315.5301359050036
 20
214.5393936671063
 30
0.0
 11
316.363469238337
 21
214.5393936671063
 31
0.0
 12
315.9468025716703
 22
212.0393936671063
 32
0.0
 13
315.9468025716703
 23
212.0393936671063
 33
0.0
  0
SOLID
  5
14AB
330
1466
100
AcDbEntity
  8
0
 62
     0
100
AcDbTrace
 10
315.5301359050036
 20
249.5393936671063
 30
0.0
 11
316.363469238337
 21
249.5393936671063
 31
0.0
 12
315.9468025716703
 22
252.0393936671063
 32
0.0
 13
315.9468025716703
 23
252.0393936671063
 33
0.0
  0
MTEXT
  5
14AC
330
1466
100
AcDbEntity
  8
0
 62
     0
100
AcDbMText
 10
312.8218025716703
 20
232.0393936671063
 30
0.0
 40
5.0
 41
0.0
 71
     5
 72
     1
  1
40
 11
0.0000000000000001
 21
1.0
 31
0.0
 73
     1
 44
1.0
  0
POINT
  5
14AD
330
1466
100
AcDbEntity
  8
Defpoints
 62
     0
100
AcDbPoint
 10
299.4736224239689
 20
212.0393936671063
 30
0.0
  0
POINT
  5
14AE
330
1466
100
AcDbEntity
  8
Defpoints
 62
     0
100
AcDbPoint
 10
299.4736224239689
 20
252.0393936671063
 30
0.0
  0
POINT
  5
14AF
330
1466
100
AcDbEntity
  8
Defpoints
 62
     0
100
AcDbPoint
 10
315.9468025716703
 20
252.0393936671063
 30
0.0
  0
ENDBLK
  5
1471
330
1466
100
AcDbEntity
  8
0
 62
     1
100
AcDbBlockEnd
  0
BLOCK
  5
147D
330
1473
100
AcDbEntity
  8
0
 62
     1
100
AcDbBlockBegin
  2
*D16
 70
     1
 10
0.0
 20
0.0
 30
0.0
  3
*D16
  1

  0
LINE
  5
14B0
330
1473
100
AcDbEntity
  8
0
 62
     0
370
    -2
100
AcDbLine
 10
261.4736224239688
 20
213.4143936671062
 30
0.0
 11
261.4736224239688
 21
196.9207163253303
 31
0.0
  0
LINE
  5
14B1
330
1473
100
AcDbEntity
  8
0
 62
     0
370
    -2
100
AcDbLine
 10
301.4736224239689
 20
213.4143936671063
 30
0.0
 11
301.4736224239689
 21
196.9207163253303
 31
0.0
  0
LINE
  5
14B2
330
1473
100
AcDbEntity
  8
0
 62
     0
370
    -2
100
AcDbLine
 10
263.9736224239689
 20
198.1707163253303
 30
0.0
 11
298.9736224239688
 21
198.1707163253303
 31
0.0
  0
SOLID
  5
14B3
330
1473
100
AcDbEntity
  8
0
 62
     0
100
AcDbTrace
 10
263.9736224239689
 20
198.587382991997
 30
0.0
 11
263.9736224239689
 21
197.7540496586637
 31
0.0
 12
261.4736224239688
 22
198.1707163253303
 32
0.0
 13
261.4736224239688
 23
198.1707163253303
 33
0.0
  0
SOLID
  5
14B4
330
1473
100
AcDbEntity
  8
0
 62
     0
100
AcDbTrace
 10
298.9736224239688
 20
198.587382991997
 30
0.0
 11
298.9736224239688
 21
197.7540496586637
 31
0.0
 12
301.4736224239689
 22
198.1707163253303
 32
0.0
 13
301.4736224239689
 23
198.1707163253303
 33
0.0
  0
MTEXT
  5
14B5
330
1473
100
AcDbEntity
  8
0
 62
     0
100
AcDbMText
 10
281.4736224239688
 20
201.2957163253303
 30
0.0
 40
5.0
 41
0.0
 71
     5
 72
     1
  1
40
 73
     1
 44
1.0
  0
POINT
  5
14B6
330
1473
100
AcDbEntity
  8
Defpoints
 62
     0
100
AcDbPoint
 10
261.4736224239688
 20
214.0393936671062
 30
0.0
  0
POINT
  5
14B7
330
1473
100
AcDbEntity
  8
Defpoints
 62
     0
100
AcDbPoint
 10
301.4736224239689
 20
214.0393936671063
 30
0.0
  0
POINT
  5
14B8
330
1473
100
AcDbEntity
  8
Defpoints
 62
     0
100
AcDbPoint
 10
301.4736224239689
 20
198.1707163253303
 30
0.0
  0
ENDBLK
  5
147E
330
1473
100
AcDbEntity
  8
0
 62
     1
100
AcDbBlockEnd
  0
BLOCK
  5
149A
330
1490
100
AcDbEntity
  8
0
 62
     1
100
AcDbBlockBegin
  2
*D17
 70
     1
 10
0.0
 20
0.0
 30
0.0
  3
*D17
  1

  0
LINE
  5
14C2
330
1490
100
AcDbEntity
  8
0
 62
     0
370
    -2
100
AcDbLine
 10
300.7236224239688
 20
252.0393936671063
 30
0.0
 11
317.1968025716703
 21
252.0393936671063
 31
0.0
  0
LINE
  5
14C3
330
1490
100
AcDbEntity
  8
0
 62
     0
370
    -2
100
AcDbLine
 10
297.1186224239689
 20
261.0393936671063
 30
0.0
 11
317.1968025716703
 21
261.0393936671063
 31
0.0
  0
LINE
  5
14C4
330
1490
100
AcDbEntity
  8
0
 62
     0
370
    -2
100
AcDbLine
 10
315.9468025716703
 20
254.5393936671063
 30
0.0
 11
315.9468025716703
 21
258.5393936671063
 31
0.0
  0
SOLID
  5
14C5
330
1490
100
AcDbEntity
  8
0
 62
     0
100
AcDbTrace
 10
315.5301359050036
 20
254.5393936671063
 30
0.0
 11
316.363469238337
 21
254.5393936671063
 31
0.0
 12
315.9468025716703
 22
252.0393936671063
 32
0.0
 13
315.9468025716703
 23
252.0393936671063
 33
0.0
  0
SOLID
  5
14C6
330
1490
100
AcDbEntity
  8
0
 62
     0
100
AcDbTrace
 10
315.5301359050036
 20
258.5393936671063
 30
0.0
 11
316.363469238337
 21
258.5393936671063
 31
0.0
 12
315.9468025716703
 22
261.0393936671063
 32
0.0
 13
315.9468025716703
 23
261.0393936671063
 33
0.0
  0
MTEXT
  5
14C7
330
1490
100
AcDbEntity
  8
0
 62
     0
100
AcDbMText
 10
312.8218025716703
 20
256.5393936671064
 30
0.0
 40
5.0
 41
0.0
 71
     5
 72
     1
  1
9
 11
0.0000000000000001
 21
1.0
 31
0.0
 73
     1
 44
1.0
  0
POINT
  5
14C8
330
1490
100
AcDbEntity
  8
Defpoints
 62
     0
100
AcDbPoint
 10
300.0986224239689
 20
252.0393936671063
 30
0.0
  0
POINT
  5
14C9
330
1490
100
AcDbEntity
  8
Defpoints
 62
     0
100
AcDbPoint
 10
296.4936224239688
 20
261.0393936671063
 30
0.0
  0
POINT
  5
14CA
330
1490
100
AcDbEntity
  8
Defpoints
 62
     0
100
AcDbPoint
 10
315.9468025716703
 20
261.0393936671063
 30
0.0
  0
ENDBLK
  5
149B
330
1490
100
AcDbEntity
  8
0
 62
     1
100
AcDbBlockEnd
  0
ENDSEC
  0
SECTION
  2
ENTITIES
  0
LINE
  5
1295
330
1F
100
AcDbEntity
  8
0
100
AcDbLine
 10
256.4736224239688
 20
232.0393936671063
 30
0.0
 11
306.4736224239688
 21
232.0393936671063
 31
0.0
  0
LINE
  5
1296
330
1F
100
AcDbEntity
  8
0
100
AcDbLine
 10
326.513527762594
 20
232.0393936671063
 30
0.0
 11
356.5135277625941
 21
232.0393936671063
 31
0.0
  0
LINE
  5
1297
330
1F
100
AcDbEntity
  8
0
100
AcDbLine
 10
281.4736224239688
 20
256.5393936671063
 30
0.0
 11
281.4736224239688
 21
207.0393936671063
 31
0.0
  0
LINE
  5
129A
330
1F
100
AcDbEntity
  8
0
100
AcDbLine
 10
341.5692102919158
 20
266.0393936671064
 30
0.0
 11
341.5692102919301
 21
207.0393936671063
 31
0.0
  0
LEADER
  5
13B8
330
1F
100
AcDbEntity
  8
0
100
AcDbLeader
  3
ISO-25
 76
     3
 10
275.4736224239688
 20
232.0393936671063
 30
0.0
 10
263.8643017724027
 20
242.8777153133894
 30
0.0
 10
246.7692584604656
 20
242.8777153133894
 30
0.0
1001
ACAD
1000
DSTYLE
1002
{
1070
   147
1040
0.625
1070
    77
1070
     0
1002
}
  0
MTEXT
  5
13B9
330
1F
100
AcDbEntity
  8
0
100
AcDbMText
 10
249.8310561598848
 20
247.5955728264934
 30
0.0
 40
2.5
 41
11.3542
 71
     1
 72
     5
  1
{\fMS UI Gothic|b0|i0|c128|p17;φ１２}
 73
     1
 44
1.0
  0
CIRCLE
  5
1411
330
1F
100
AcDbEntity
  8
0
100
AcDbCircle
 10
281.4736224239688
 20
232.0393936671063
 30
0.0
 40
6.0
  0
LINE
  5
1416
330
1F
100
AcDbEntity
  8
0
100
AcDbLine
 10
261.4736224239688
 20
214.0393936671062
 30
0.0
 11
261.4736224239688
 21
250.0393936671062
 31
0.0
  0
LINE
  5
1417
330
1F
100
AcDbEntity
  8
0
100
AcDbLine
 10
263.4736224239688
 20
252.0393936671062
 30
0.0
 11
299.4736224239689
 21
252.0393936671063
 31
0.0
  0
LINE
  5
1418
330
1F
100
AcDbEntity
  8
0
100
AcDbLine
 10
301.4736224239689
 20
250.0393936671063
 30
0.0
 11
301.4736224239689
 21
214.0393936671063
 31
0.0
  0
LINE
  5
1419
330
1F
100
AcDbEntity
  8
0
100
AcDbLine
 10
299.4736224239689
 20
212.0393936671063
 30
0.0
 11
263.4736224239688
 21
212.0393936671062
 31
0.0
  0
ARC
  5
141A
330
1F
100
AcDbEntity
  8
0
100
AcDbCircle
 10
263.4736224239688
 20
214.0393936671062
 30
0.0
 40
2.0
100
AcDbArc
 50
180.0
 51
270.0
  0
ARC
  5
141B
330
1F
100
AcDbEntity
  8
0
100
AcDbCircle
 10
263.4736224239688
 20
250.0393936671062
 30
0.0
 40
2.0
100
AcDbArc
 50
90.0
 51
180.0
  0
ARC
  5
141C
330
1F
100
AcDbEntity
  8
0
100
AcDbCircle
 10
299.4736224239689
 20
250.0393936671063
 30
0.0
 40
2.0
100
AcDbArc
 50
0.0
 51
90.00000000000005
  0
ARC
  5
141D
330
1F
100
AcDbEntity
  8
0
100
AcDbCircle
 10
299.4736224239689
 20
214.0393936671063
 30
0.0
 40
2.0
100
AcDbArc
 50
270.0
 51
0.0
  0
LINE
  5
1423
330
1F
100
AcDbEntity
  8
0
100
AcDbLine
 10
265.2936224239689
 20
252.0393936671062
 30
0.0
 11
265.2936224239689
 21
259.8393936671063
 31
0.0
  0
LINE
  5
1425
330
1F
100
AcDbEntity
  8
0
100
AcDbLine
 10
267.6882772651795
 20
259.8340722119036
 30
0.0
 11
267.6882772651795
 21
252.0393936671062
 31
0.0
  0
ARC
  5
1426
330
1F
100
AcDbEntity
  8
0
100
AcDbCircle
 10
266.4936224239688
 20
259.8393936671063
 30
0.0
 40
1.199999999999999
100
AcDbArc
 50
90.0
 51
180.0
  0
ARC
  5
1428
330
1F
100
AcDbEntity
  8
0
100
AcDbCircle
 10
266.4882891169728
 20
259.8394055188996
 30
0.0
 40
1.199999999999999
100
AcDbArc
 50
359.7453525102254
 51
89.74535251022549
  0
LINE
  5
1432
330
1F
100
AcDbEntity
  8
0
100
AcDbLine
 10
334.0692102919301
 20
214.0393936671063
 30
0.0
 11
334.0692102919301
 21
250.0393936671064
 31
0.0
  0
LINE
  5
1433
330
1F
100
AcDbEntity
  8
0
100
AcDbLine
 10
336.0692102919301
 20
252.0393936671064
 30
0.0
 11
347.0692102919301
 21
252.0393936671064
 31
0.0
  0
LINE
  5
1434
330
1F
100
AcDbEntity
  8
0
100
AcDbLine
 10
349.0692102919301
 20
250.0393936671064
 30
0.0
 11
349.0692102919301
 21
214.0393936671063
 31
0.0
  0
LINE
  5
1435
330
1F
100
AcDbEntity
  8
0
100
AcDbLine
 10
347.0692102919301
 20
212.0393936671063
 30
0.0
 11
336.0692102919301
 21
212.0393936671063
 31
0.0
  0
ARC
  5
1436
330
1F
100
AcDbEntity
  8
0
100
AcDbCircle
 10
336.0692102919301
 20
214.0393936671063
 30
0.0
 40
2.0
100
AcDbArc
 50
180.0
 51
270.0
  0
ARC
  5
1437
330
1F
100
AcDbEntity
  8
0
100
AcDbCircle
 10
336.0692102919301
 20
250.0393936671064
 30
0.0
 40
2.0
100
AcDbArc
 50
90.0
 51
180.0
  0
ARC
  5
1438
330
1F
100
AcDbEntity
  8
0
100
AcDbCircle
 10
347.0692102919301
 20
250.0393936671064
 30
0.0
 40
2.0
100
AcDbArc
 50
0.0
 51
89.99999999999987
  0
ARC
  5
1439
330
1F
100
AcDbEntity
  8
0
100
AcDbCircle
 10
347.0692102919301
 20
214.0393936671063
 30
0.0
 40
2.0
100
AcDbArc
 50
270.0
 51
0.0
  0
LINE
  5
143E
330
1F
100
AcDbEntity
  8
0
100
AcDbLine
 10
297.6882772651795
 20
259.8340722119036
 30
0.0
 11
297.6882772651795
 21
252.0393936671063
 31
0.0
  0
LINE
  5
143F
330
1F
100
AcDbEntity
  8
0
100
AcDbLine
 10
295.2936224239688
 20
252.0393936671063
 30
0.0
 11
295.2936224239688
 21
259.8393936671063
 31
0.0
  0
ARC
  5
1440
330
1F
100
AcDbEntity
  8
0
100
AcDbCircle
 10
296.4882891169728
 20
259.8394055188996
 30
0.0
 40
1.199999999999999
100
AcDbArc
 50
359.7453525102254
 51
89.74535251022549
  0
ARC
  5
1441
330
1F
100
AcDbEntity
  8
0
100
AcDbCircle
 10
296.4936224239688
 20
259.8393936671063
 30
0.0
 40
1.199999999999999
100
AcDbArc
 50
90.0
 51
180.0
  0
LINE
  5
1442
330
1F
100
AcDbEntity
  8
0
100
AcDbLine
 10
340.3692102919301
 20
252.0393936671064
 30
0.0
 11
340.3692102919301
 21
259.8393936671064
 31
0.0
  0
LINE
  5
1443
330
1F
100
AcDbEntity
  8
0
100
AcDbLine
 10
342.7638651331408
 20
259.8340722119037
 30
0.0
 11
342.7638651331408
 21
252.0393936671064
 31
0.0
  0
ARC
  5
1444
330
1F
100
AcDbEntity
  8
0
100
AcDbCircle
 10
341.5692102919301
 20
259.8393936671064
 30
0.0
 40
1.199999999999999
100
AcDbArc
 50
90.0
 51
180.0
  0
ARC
  5
1445
330
1F
100
AcDbEntity
  8
0
100
AcDbCircle
 10
341.5638769849341
 20
259.8394055188997
 30
0.0
 40
1.199999999999999
100
AcDbArc
 50
359.7453525102254
 51
89.74535251022549
  0
LINE
  5
1449
330
1F
100
AcDbEntity
  8
0
  6
DASHED2
100
AcDbLine
 10
334.0692102919301
 20
238.0393936671063
 30
0.0
 11
349.0692102919301
 21
238.0393936671063
 31
0.0
  0
LINE
  5
144A
330
1F
100
AcDbEntity
  8
0
  6
DASHED2
100
AcDbLine
 10
334.0692102919301
 20
226.0393936671063
 30
0.0
 11
349.0692102919301
 21
226.0393936671063
 31
0.0
  0
DIMENSION
  5
144B
330
1F
100
AcDbEntity
  8
0
100
AcDbDimension
  2
*D13
 10
349.0692102919301
 20
196.5372817207953
 30
0.0
 11
341.5692102919301
 21
199.6622817207953
 31
0.0
 70
    32
 71
     5
 42
15.00000000000005
  3
ISO-25
100
AcDbAlignedDimension
 13
334.0692102919301
 23
214.0393936671063
 33
0.0
 14
349.0692102919301
 24
214.0393936671063
 34
0.0
100
AcDbRotatedDimension
  0
DIMENSION
  5
1458
330
1F
100
AcDbEntity
  8
0
100
AcDbDimension
  2
*D14
 10
296.4936224239544
 20
270.5510272965734
 30
0.0
 11
281.4936224239616
 21
273.6760272965734
 31
0.0
 70
    32
 71
     5
 42
29.99999999998562
  3
ISO-25
100
AcDbAlignedDimension
 13
266.4936224239688
 23
261.0393936671063
 33
0.0
 14
296.4936224239544
 24
261.0393936671063
 34
0.0
100
AcDbRotatedDimension
  0
DIMENSION
  5
1465
330
1F
100
AcDbEntity
  8
0
100
AcDbDimension
  2
*D15
 10
315.9468025716703
 20
252.0393936671063
 30
0.0
 11
312.8218025716703
 21
232.0393936671063
 31
0.0
 70
    32
 71
     5
 42
40.00000000000002
  3
ISO-25
100
AcDbAlignedDimension
 13
299.4736224239689
 23
212.0393936671063
 33
0.0
 14
299.4736224239689
 24
252.0393936671063
 34
0.0
 50
90.0
100
AcDbRotatedDimension
  0
DIMENSION
  5
1472
330
1F
100
AcDbEntity
  8
0
100
AcDbDimension
  2
*D16
 10
301.4736224239689
 20
198.1707163253303
 30
0.0
 11
281.4736224239688
 21
201.2957163253303
 31
0.0
 70
    32
 71
     5
 42
40.0
  3
ISO-25
100
AcDbAlignedDimension
 13
261.4736224239688
 23
214.0393936671062
 33
0.0
 14
301.4736224239689
 24
214.0393936671063
 34
0.0
100
AcDbRotatedDimension
  0
LINE
  5
1484
330
1F
100
AcDbEntity
  8
0
  6
DASHED2
100
AcDbLine
 10
264.9736224239688
 20
212.0393936671062
 30
0.0
 11
264.9736224239688
 21
216.0393936671062
 31
0.0
  0
LINE
  5
1485
330
1F
100
AcDbEntity
  8
0
  6
DASHED2
100
AcDbLine
 10
264.9736224239688
 20
216.0393936671062
 30
0.0
 11
267.9736224239689
 21
216.0393936671062
 31
0.0
  0
LINE
  5
1486
330
1F
100
AcDbEntity
  8
0
  6
DASHED2
100
AcDbLine
 10
267.9736224239689
 20
216.0393936671062
 30
0.0
 11
267.9736224239689
 21
212.0393936671062
 31
0.0
  0
LINE
  5
1487
330
1F
100
AcDbEntity
  8
0
  6
DASHED2
100
AcDbLine
 10
340.0692102919289
 20
216.0393936671063
 30
0.0
 11
343.069210291929
 21
216.0393936671063
 31
0.0
  0
LINE
  5
1488
330
1F
100
AcDbEntity
  8
0
  6
DASHED2
100
AcDbLine
 10
340.0692102919289
 20
212.0393936671063
 30
0.0
 11
340.0692102919289
 21
216.0393936671063
 31
0.0
  0
LINE
  5
1489
330
1F
100
AcDbEntity
  8
0
  6
DASHED2
100
AcDbLine
 10
343.069210291929
 20
216.0393936671063
 30
0.0
 11
343.069210291929
 21
212.0393936671063
 31
0.0
  0
LEADER
  5
148A
330
1F
100
AcDbEntity
  8
0
100
AcDbLeader
  3
ISO-25
 76
     3
 10
264.9736224239688
 20
216.0393936671062
 30
0.0
 10
253.3643017724027
 20
226.8777153133894
 30
0.0
 10
236.2692584604656
 20
226.8777153133894
 30
0.0
1001
ACAD
1000
DSTYLE
1002
{
1070
   147
1040
0.625
1070
    77
1070
     0
1002
}
  0
MTEXT
  5
148B
330
1F
100
AcDbEntity
  8
0
100
AcDbMText
 10
237.2834172845228
 20
235.229042937365
 30
0.0
 40
2.5
 41
15.71340650269434
 71
     1
 72
     5
  1
{\fMS UI Gothic|b0|i0|c128|p17;取付ネジ\P２－M3\P深さMax4}
 73
     1
 44
1.0
  0
LINE
  5
148C
330
1F
100
AcDbEntity
  8
0
  6
DASHED2
100
AcDbLine
 10
294.9736224239689
 20
216.0393936671063
 30
0.0
 11
297.9736224239688
 21
216.0393936671063
 31
0.0
  0
LINE
  5
148D
330
1F
100
AcDbEntity
  8
0
  6
DASHED2
100
AcDbLine
 10
294.9736224239689
 20
212.0393936671063
 30
0.0
 11
294.9736224239689
 21
216.0393936671063
 31
0.0
  0
LINE
  5
148E
330
1F
100
AcDbEntity
  8
0
  6
DASHED2
100
AcDbLine
 10
297.9736224239688
 20
216.0393936671063
 30
0.0
 11
297.9736224239688
 21
212.0393936671063
 31
0.0
  0
DIMENSION
  5
148F
330
1F
100
AcDbEntity
  8
0
100
AcDbDimension
  2
*D17
 10
315.9468025716703
 20
261.0393936671063
 30
0.0
 11
312.8218025716703
 21
256.5393936671064
 31
0.0
 70
    32
 71
     5
 42
8.999999999999943
  3
ISO-25
100
AcDbAlignedDimension
 13
300.0986224239689
 23
252.0393936671063
 33
0.0
 14
296.4936224239688
 24
261.0393936671063
 34
0.0
 50
90.0
100
AcDbRotatedDimension
  0
LEADER
  5
149C
330
1F
100
AcDbEntity
  8
0
100
AcDbLeader
  3
ISO-25
 76
     3
 10
342.7638651331408
 20
259.8340722118996
 30
0.0
 10
348.1812472761908
 20
267.189748822931
 30
0.0
 10
358.4151686810577
 20
267.189748822931
 30
0.0
1001
ACAD
1000
DSTYLE
1002
{
1070
   147
1040
0.625
1070
    77
1070
     0
1002
}
  0
MTEXT
  5
149D
330
1F
100
AcDbEntity
  8
0
100
AcDbMText
 10
348.965552555555
 20
271.6748389923147
 30
0.0
 40
2.5
 41
16.59915935318066
 71
     1
 72
     5
  1
{\fMS UI Gothic|b0|i0|c128|p17;φ２．３６}
 73
     1
 44
1.0
  0
ENDSEC
  0
SECTION
  2
OBJECTS
  0
DICTIONARY
  5
C
330
0
100
AcDbDictionary
281
     1
  3
ACAD_GROUP
350
D
  3
ACAD_LAYOUT
350
1A
  3
ACAD_MLINESTYLE
350
17
  3
ACAD_PLOTSETTINGS
350
19
  3
ACAD_PLOTSTYLENAME
350
E
  3
AcDbVariableDictionary
350
AF4
  0
DICTIONARY
  5
E11
330
1F
100
AcDbDictionary
280
     1
281
     1
  3
ACAD_LAYOUTSELFREF
360
1258
  0
DICTIONARY
  5
E13
330
1B
100
AcDbDictionary
280
     1
281
     1
  3
ACAD_LAYOUTSELFREF
360
1257
  0
DICTIONARY
  5
E15
330
23
100
AcDbDictionary
280
     1
281
     1
  3
ACAD_LAYOUTSELFREF
360
1259
  0
DICTIONARY
  5
D
102
{ACAD_REACTORS
330
C
102
}
330
C
100
AcDbDictionary
281
     1
  0
DICTIONARY
  5
1A
102
{ACAD_REACTORS
330
C
102
}
330
C
100
AcDbDictionary
281
     1
  3
Layout1
350
1E
  3
Layout2
350
26
  3
Model
350
22
  0
DICTIONARY
  5
17
102
{ACAD_REACTORS
330
C
102
}
330
C
100
AcDbDictionary
281
     1
  3
Standard
350
18
  0
DICTIONARY
  5
19
102
{ACAD_REACTORS
330
C
102
}
330
C
100
AcDbDictionary
281
     1
  0
ACDBDICTIONARYWDFLT
  5
E
102
{ACAD_REACTORS
330
C
102
}
330
C
100
AcDbDictionary
281
     1
  3
Normal
350
F
100
AcDbDictionaryWithDefault
340
F
  0
DICTIONARY
  5
AF4
102
{ACAD_REACTORS
330
C
102
}
330
C
100
AcDbDictionary
281
     1
  3
DIMASSOC
350
AF5
  0
XRECORD
  5
1258
102
{ACAD_REACTORS
330
E11
102
}
330
E11
100
AcDbXrecord
280
     1
340
1F
  0
XRECORD
  5
1257
102
{ACAD_REACTORS
330
E13
102
}
330
E13
100
AcDbXrecord
280
     1
340
1B
  0
XRECORD
  5
1259
102
{ACAD_REACTORS
330
E15
102
}
330
E15
100
AcDbXrecord
280
     1
340
23
  0
LAYOUT
  5
1E
102
{ACAD_REACTORS
330
1A
102
}
330
1A
100
AcDbPlotSettings
  1

  2

  4

  6

 40
0.0
 41
0.0
 42
0.0
 43
0.0
 44
0.0
 45
0.0
 46
0.0
 47
0.0
 48
0.0
 49
0.0
140
0.0
141
0.0
142
1.0
143
1.0
 70
   688
 72
     0
 73
     0
 74
     5
  7
ryu.ctb
 75
    16
147
1.0
148
0.0
149
0.0
100
AcDbLayout
  1
Layout1
 70
     1
 71
     1
 10
0.0
 20
0.0
 11
420.0
 21
297.0
 12
0.0
 22
0.0
 32
0.0
 14
1.000000000000000E+20
 24
1.000000000000000E+20
 34
1.000000000000000E+20
 15
-1.000000000000000E+20
 25
-1.000000000000000E+20
 35
-1.000000000000000E+20
146
0.0
 13
0.0
 23
0.0
 33
0.0
 16
1.0
 26
0.0
 36
0.0
 17
0.0
 27
1.0
 37
0.0
 76
     0
330
1B
  0
LAYOUT
  5
26
102
{ACAD_REACTORS
330
1A
102
}
330
1A
100
AcDbPlotSettings
  1

  2

  4

  6

 40
0.0
 41
0.0
 42
0.0
 43
0.0
 44
0.0
 45
0.0
 46
0.0
 47
0.0
 48
0.0
 49
0.0
140
0.0
141
0.0
142
1.0
143
1.0
 70
   688
 72
     0
 73
     0
 74
     5
  7
ryu.ctb
 75
    16
147
1.0
148
0.0
149
0.0
100
AcDbLayout
  1
Layout2
 70
     1
 71
     2
 10
0.0
 20
0.0
 11
12.0
 21
9.0
 12
0.0
 22
0.0
 32
0.0
 14
0.0
 24
0.0
 34
0.0
 15
0.0
 25
0.0
 35
0.0
146
0.0
 13
0.0
 23
0.0
 33
0.0
 16
1.0
 26
0.0
 36
0.0
 17
0.0
 27
1.0
 37
0.0
 76
     0
330
23
  0
LAYOUT
  5
22
102
{ACAD_REACTORS
330
1A
102
}
330
1A
100
AcDbPlotSettings
  1

  2
DocuPrint 360
  4
A3
  6

 40
5.238749980926513
 41
5.238728046417236
 42
5.32342529296875
 43
5.238739013671875
 44
296.9683227539062
 45
419.9889831542968
 46
100.2
 47
93.37000000000001
 48
0.0
 49
0.0
140
0.0
141
0.0
142
1.0
143
1.0
 70
 11956
 72
     1
 73
     1
 74
     1
  7
ryu.ctb
 75
    16
147
1.0
148
-265.0833402293108
149
-179.0673989712579
100
AcDbLayout
  1
Model
 70
     1
 71
     0
 10
0.0
 20
0.0
 11
12.0
 21
9.0
 12
0.0
 22
0.0
 32
0.0
 14
0.0
 24
0.0
 34
0.0
 15
0.0
 25
0.0
 35
0.0
146
0.0
 13
0.0
 23
0.0
 33
0.0
 16
1.0
 26
0.0
 36
0.0
 17
0.0
 27
1.0
 37
0.0
 76
     0
330
1F
  0
MLINESTYLE
  5
18
102
{ACAD_REACTORS
330
17
102
}
330
17
100
AcDbMlineStyle
  2
STANDARD
 70
     0
  3

 62
   256
 51
90.0
 52
90.0
 71
     2
 49
0.5
 62
   256
  6
BYLAYER
 49
-0.5
 62
   256
  6
BYLAYER
  0
ACDBPLACEHOLDER
  5
F
102
{ACAD_REACTORS
330
E
102
}
330
E
  0
DICTIONARYVAR
  5
AF5
102
{ACAD_REACTORS
330
AF4
102
}
330
AF4
100
DictionaryVariables
280
     0
  1
1
  0
ENDSEC
  0
EOF
