  0
SECTION
  2
HEADER
  9
$ACADVER
  1
AC1015
  9
$ACADMAINTVER
 70
     6
  9
$DWGCODEPAGE
  3
ANSI_932
  9
$INSBASE
 10
0.0
 20
0.0
 30
0.0
  9
$EXTMIN
 10
19.4
 20
0.7
 30
0.0
  9
$EXTMAX
 10
364.25
 20
261.54
 30
0.0
  9
$LIMMIN
 10
0.0
 20
0.0
  9
$LIMMAX
 10
420.0
 20
297.0
  9
$ORTHOMODE
 70
     0
  9
$REGENMODE
 70
     1
  9
$FILLMODE
 70
     1
  9
$QTEXTMODE
 70
     0
  9
$MIRRTEXT
 70
     1
  9
$LTSCALE
 40
0.2
  9
$ATTMODE
 70
     1
  9
$TEXTSIZE
 40
2.5
  9
$TRACEWID
 40
1.0
  9
$TEXTSTYLE
  7
STYLE1
  9
$CLAYER
  8
画層1
  9
$CELTYPE
  6
BYLAYER
  9
$CECOLOR
 62
     1
  9
$CELTSCALE
 40
1.0
  9
$DISPSILH
 70
     0
  9
$DIMSCALE
 40
1.0
  9
$DIMASZ
 40
1.5
  9
$DIMEXO
 40
0.63
  9
$DIMDLI
 40
3.75
  9
$DIMRND
 40
0.0
  9
$DIMDLE
 40
0.0
  9
$DIMEXE
 40
1.25
  9
$DIMTP
 40
0.6
  9
$DIMTM
 40
0.0
  9
$DIMTXT
 40
2.5
  9
$DIMCEN
 40
2.5
  9
$DIMTSZ
 40
0.0
  9
$DIMTOL
 70
     0
  9
$DIMLIM
 70
     0
  9
$DIMTIH
 70
     0
  9
$DIMTOH
 70
     0
  9
$DIMSE1
 70
     0
  9
$DIMSE2
 70
     0
  9
$DIMTAD
 70
     1
  9
$DIMZIN
 70
     8
  9
$DIMBLK
  1

  9
$DIMASO
 70
     1
  9
$DIMSHO
 70
     1
  9
$DIMPOST
  1

  9
$DIMAPOST
  1

  9
$DIMALT
 70
     0
  9
$DIMALTD
 70
     4
  9
$DIMALTF
 40
0.04
  9
$DIMLFAC
 40
1.0
  9
$DIMTOFL
 70
     1
  9
$DIMTVP
 40
0.0
  9
$DIMTIX
 70
     0
  9
$DIMSOXD
 70
     0
  9
$DIMSAH
 70
     1
  9
$DIMBLK1
  1
OPEN
  9
$DIMBLK2
  1
OPEN
  9
$DIMSTYLE
  2
STANDARD_WS
  9
$DIMCLRD
 70
     0
  9
$DIMCLRE
 70
     0
  9
$DIMCLRT
 70
     0
  9
$DIMTFAC
 40
0.5
  9
$DIMGAP
 40
0.63
  9
$DIMJUST
 70
     0
  9
$DIMSD1
 70
     0
  9
$DIMSD2
 70
     0
  9
$DIMTOLJ
 70
     1
  9
$DIMTZIN
 70
     8
  9
$DIMALTZ
 70
     0
  9
$DIMALTTZ
 70
     0
  9
$DIMUPT
 70
     0
  9
$DIMDEC
 70
     4
  9
$DIMTDEC
 70
     4
  9
$DIMALTU
 70
     8
  9
$DIMALTTD
 70
     4
  9
$DIMTXSTY
  7
STYLE1
  9
$DIMAUNIT
 70
     0
  9
$DIMADEC
 70
     0
  9
$DIMALTRND
 40
0.0
  9
$DIMAZIN
 70
     0
  9
$DIMDSEP
 70
    46
  9
$DIMATFIT
 70
     3
  9
$DIMFRAC
 70
     0
  9
$DIMLDRBLK
  1
OPEN
  9
$DIMLUNIT
 70
     2
  9
$DIMLWD
 70
    -2
  9
$DIMLWE
 70
    -2
  9
$DIMTMOVE
 70
     0
  9
$LUNITS
 70
     2
  9
$LUPREC
 70
     4
  9
$SKETCHINC
 40
1.0
  9
$FILLETRAD
 40
1.0
  9
$AUNITS
 70
     0
  9
$AUPREC
 70
     0
  9
$MENU
  1
acad
  9
$ELEVATION
 40
0.0
  9
$PELEVATION
 40
0.0
  9
$THICKNESS
 40
0.0
  9
$LIMCHECK
 70
     0
  9
$CHAMFERA
 40
10.0
  9
$CHAMFERB
 40
10.0
  9
$CHAMFERC
 40
20.0
  9
$CHAMFERD
 40
0.0
  9
$SKPOLY
 70
     0
  9
$TDCREATE
 40
2450995.462150231
  9
$TDUCREATE
 40
2450995.087150231
  9
$TDUPDATE
 40
2452265.492316088
  9
$TDUUPDATE
 40
2452265.117316088
  9
$TDINDWG
 40
1.6131304398
  9
$TDUSRTIMER
 40
1.6131304398
  9
$USRTIMER
 70
     1
  9
$ANGBASE
 50
0.0
  9
$ANGDIR
 70
     0
  9
$PDMODE
 70
     0
  9
$PDSIZE
 40
0.0
  9
$PLINEWID
 40
10.0
  9
$SPLFRAME
 70
     0
  9
$SPLINETYPE
 70
     6
  9
$SPLINESEGS
 70
     8
  9
$HANDSEED
  5
301
  9
$SURFTAB1
 70
     6
  9
$SURFTAB2
 70
     6
  9
$SURFTYPE
 70
     6
  9
$SURFU
 70
     6
  9
$SURFV
 70
     6
  9
$UCSBASE
  2

  9
$UCSNAME
  2

  9
$UCSORG
 10
0.0
 20
0.0
 30
0.0
  9
$UCSXDIR
 10
1.0
 20
0.0
 30
0.0
  9
$UCSYDIR
 10
0.0
 20
1.0
 30
0.0
  9
$UCSORTHOREF
  2

  9
$UCSORTHOVIEW
 70
     0
  9
$UCSORGTOP
 10
0.0
 20
0.0
 30
0.0
  9
$UCSORGBOTTOM
 10
0.0
 20
0.0
 30
0.0
  9
$UCSORGLEFT
 10
0.0
 20
0.0
 30
0.0
  9
$UCSORGRIGHT
 10
0.0
 20
0.0
 30
0.0
  9
$UCSORGFRONT
 10
0.0
 20
0.0
 30
0.0
  9
$UCSORGBACK
 10
0.0
 20
0.0
 30
0.0
  9
$PUCSBASE
  2

  9
$PUCSNAME
  2

  9
$PUCSORG
 10
0.0
 20
0.0
 30
0.0
  9
$PUCSXDIR
 10
1.0
 20
0.0
 30
0.0
  9
$PUCSYDIR
 10
0.0
 20
1.0
 30
0.0
  9
$PUCSORTHOREF
  2

  9
$PUCSORTHOVIEW
 70
     0
  9
$PUCSORGTOP
 10
0.0
 20
0.0
 30
0.0
  9
$PUCSORGBOTTOM
 10
0.0
 20
0.0
 30
0.0
  9
$PUCSORGLEFT
 10
0.0
 20
0.0
 30
0.0
  9
$PUCSORGRIGHT
 10
0.0
 20
0.0
 30
0.0
  9
$PUCSORGFRONT
 10
0.0
 20
0.0
 30
0.0
  9
$PUCSORGBACK
 10
0.0
 20
0.0
 30
0.0
  9
$USERI1
 70
     0
  9
$USERI2
 70
     0
  9
$USERI3
 70
     0
  9
$USERI4
 70
     0
  9
$USERI5
 70
     0
  9
$USERR1
 40
0.0
  9
$USERR2
 40
0.0
  9
$USERR3
 40
0.0
  9
$USERR4
 40
0.0
  9
$USERR5
 40
0.0
  9
$WORLDVIEW
 70
     1
  9
$SHADEDGE
 70
     3
  9
$SHADEDIF
 70
    70
  9
$TILEMODE
 70
     1
  9
$MAXACTVP
 70
    48
  9
$PINSBASE
 10
0.0
 20
0.0
 30
0.0
  9
$PLIMCHECK
 70
     0
  9
$PEXTMIN
 10
1.00E+20
 20
1.00E+20
 30
1.00E+20
  9
$PEXTMAX
 10
-1.00E+20
 20
-1.00E+20
 30
-1.00E+20
  9
$PLIMMIN
 10
0.0
 20
0.0
  9
$PLIMMAX
 10
420.0
 20
297.0
  9
$UNITMODE
 70
     0
  9
$VISRETAIN
 70
     1
  9
$PLINEGEN
 70
     0
  9
$PSLTSCALE
 70
     1
  9
$TREEDEPTH
 70
  3020
  9
$CMLSTYLE
  2
STANDARD
  9
$CMLJUST
 70
     0
  9
$CMLSCALE
 40
20.0
  9
$PROXYGRAPHICS
 70
     1
  9
$MEASUREMENT
 70
     0
  9
$CELWEIGHT
370
    -1
  9
$ENDCAPS
280
     0
  9
$JOINSTYLE
280
     0
  9
$LWDISPLAY
290
     0
  9
$INSUNITS
 70
     0
  9
$HYPERLINKBASE
  1

  9
$STYLESHEET
  1

  9
$XEDIT
290
     1
  9
$CEPSNTYPE
380
     0
  9
$PSTYLEMODE
290
     1
  9
$FINGERPRINTGUID
  2
{128F3933-9681-11D3-A790-004026173390}
  9
$VERSIONGUID
  2
{B8B3A47A-F5EE-11D5-9CC8-0040267E1ECE}
  9
$EXTNAMES
290
     1
  9
$PSVPSCALE
 40
0.0
  9
$OLESTARTUP
290
     0
  0
ENDSEC
  0
SECTION
  2
CLASSES
  0
CLASS
  1
DICTIONARYVAR
  2
AcDbDictionaryVar
  3
AutoCAD 2000
 90
    32768
280
     0
281
     0
  0
CLASS
  1
LWPOLYLINE
  2
AcDbPolyline
  3
AutoCAD 2000
 90
    32768
280
     0
281
     1
  0
CLASS
  1
OLE2FRAME
  2
AcDbOle2Frame
  3
AutoCAD 2000
 90
    32768
280
     0
281
     1
  0
CLASS
  1
HATCH
  2
AcDbHatch
  3
AutoCAD 2000
 90
    32768
280
     0
281
     1
  0
CLASS
  1
ACDBDICTIONARYWDFLT
  2
AcDbDictionaryWithDefault
  3
AutoCAD 2000
 90
        0
280
     0
281
     0
  0
CLASS
  1
ACDBPLACEHOLDER
  2
AcDbPlaceHolder
  3
AutoCAD 2000
 90
        0
280
     0
281
     0
  0
CLASS
  1
LAYOUT
  2
AcDbLayout
  3
AutoCAD 2000
 90
        0
280
     0
281
     0
  0
ENDSEC
  0
SECTION
  2
TABLES
  0
TABLE
  2
VPORT
  5
1A
330
0
100
AcDbSymbolTable
 70
     1
  0
VPORT
  5
1B
330
1A
100
AcDbSymbolTableRecord
100
AcDbViewportTableRecord
  2
*Active
 70
     0
 10
0.0
 20
0.0
 11
1.0
 21
1.0
 12
233.2
 22
142.51
 13
0.0
 23
0.0
 14
1.0
 24
1.0
 15
2.0
 25
2.0
 16
0.0
 26
0.0
 36
1.0
 17
0.0
 27
0.0
 37
0.0
 40
286.78
 41
1.75
 42
50.0
 43
0.0
 44
0.0
 50
0.0
 51
0.0
 71
     0
 72
   100
 73
     1
 74
     1
 75
     0
 76
     0
 77
     0
 78
     0
281
     0
 65
     1
110
0.0
120
0.0
130
0.0
111
1.0
121
0.0
131
0.0
112
0.0
122
1.0
132
0.0
 79
     0
146
0.0
  0
ENDTAB
  0
TABLE
  2
LTYPE
  5
15
330
0
100
AcDbSymbolTable
 70
     1
  0
LTYPE
  5
16
330
15
100
AcDbSymbolTableRecord
100
AcDbLinetypeTableRecord
  2
BYBLOCK
 70
     0
  3

 72
    65
 73
     0
 40
0.0
  0
LTYPE
  5
17
330
15
100
AcDbSymbolTableRecord
100
AcDbLinetypeTableRecord
  2
BYLAYER
 70
     0
  3

 72
    65
 73
     0
 40
0.0
  0
LTYPE
  5
8
330
15
100
AcDbSymbolTableRecord
100
AcDbLinetypeTableRecord
  2
CONTINUOUS
 70
     0
  3
Solid line
 72
    65
 73
     0
 40
0.0
  0
ENDTAB
  0
TABLE
  2
LAYER
  5
10
330
0
100
AcDbSymbolTable
 70
     3
  0
LAYER
  5
4
330
10
100
AcDbSymbolTableRecord
100
AcDbLayerTableRecord
  2
0
 70
     0
 62
     7
  6
CONTINUOUS
370
    -3
390
5
  0
LAYER
  5
3F
330
10
100
AcDbSymbolTableRecord
100
AcDbLayerTableRecord
  2
DEFPOINTS
 70
     0
 62
     7
  6
CONTINUOUS
290
     0
370
    -3
390
5
  0
LAYER
  5
22
330
10
100
AcDbSymbolTableRecord
100
AcDbLayerTableRecord
  2
画層1
 70
     0
 62
     7
  6
CONTINUOUS
370
    -3
390
5
  0
ENDTAB
  0
TABLE
  2
STYLE
  5
11
330
0
100
AcDbSymbolTable
 70
     2
  0
STYLE
  5
12
330
11
100
AcDbSymbolTableRecord
100
AcDbTextStyleTableRecord
  2
STANDARD
 70
     0
 40
2.5
 41
1.0
 50
0.0
 71
     0
 42
1.5
  3
MS PMincho.ttf
  4

1001
ACAD
1000
MS PMincho
1071
    32786
  0
STYLE
  5
23
330
11
100
AcDbSymbolTableRecord
100
AcDbTextStyleTableRecord
  2
STYLE1
 70
     0
 40
2.5
 41
1.0
 50
0.0
 71
     0
 42
2.5
  3
MS Gothic.ttf
  4

1001
ACAD
1000
MS Gothic
1071
    32817
  0
ENDTAB
  0
TABLE
  2
VIEW
  5
18
330
0
100
AcDbSymbolTable
 70
     0
  0
ENDTAB
  0
TABLE
  2
UCS
  5
19
330
0
100
AcDbSymbolTable
 70
     0
  0
ENDTAB
  0
TABLE
  2
APPID
  5
1C
330
0
100
AcDbSymbolTable
 70
     1
  0
APPID
  5
13
330
1C
100
AcDbSymbolTableRecord
100
AcDbRegAppTableRecord
  2
ACAD
 70
     0
  0
ENDTAB
  0
TABLE
  2
DIMSTYLE
  5
1D
330
0
100
AcDbSymbolTable
 70
     1
100
AcDbDimStyleTable
 71
     0
  0
DIMSTYLE
105
2B
102
{ACAD_REACTORS
330
D8
330
19A
330
78
330
96
330
66
330
44
330
31
330
174
102
}
330
1D
100
AcDbSymbolTableRecord
100
AcDbDimStyleTableRecord
  2
STANDARD_WS
 70
     0
 41
1.5
 42
0.63
 43
3.75
 44
1.25
 73
     0
 74
     0
 77
     1
 78
     8
140
2.5
141
2.5
143
0.04
147
0.63
171
     4
172
     1
173
     1
273
     8
274
     4
340
12
341
24
343
24
344
24
  0
ENDTAB
  0
TABLE
  2
BLOCK_RECORD
  5
1
330
0
100
AcDbSymbolTable
 70
    10
  0
BLOCK_RECORD
  5
2
330
1
100
AcDbSymbolTableRecord
100
AcDbBlockTableRecord
  2
*MODEL_SPACE
340
A
  0
BLOCK_RECORD
  5
C
330
1
100
AcDbSymbolTableRecord
100
AcDbBlockTableRecord
  2
*PAPER_SPACE
340
F
  0
BLOCK_RECORD
  5
24
330
1
100
AcDbSymbolTableRecord
100
AcDbBlockTableRecord
  2
_OPEN
340
0
  0
BLOCK_RECORD
  5
32
330
1
100
AcDbSymbolTableRecord
100
AcDbBlockTableRecord
  2
_OPEN30
340
0
102
{BLKREFS
331
3B
331
3C
331
49
331
4A
331
6B
331
6C
331
7D
331
7E
331
9B
331
9C
331
DD
331
DE
331
179
331
17A
331
19F
331
1A0
102
}
  0
BLOCK_RECORD
  5
D9
330
1
100
AcDbSymbolTableRecord
100
AcDbBlockTableRecord
  2
*D2
340
0
  0
BLOCK_RECORD
  5
67
330
1
100
AcDbSymbolTableRecord
100
AcDbBlockTableRecord
  2
*D3
340
0
  0
BLOCK_RECORD
  5
19B
330
1
100
AcDbSymbolTableRecord
100
AcDbBlockTableRecord
  2
*D4
340
0
  0
BLOCK_RECORD
  5
79
330
1
100
AcDbSymbolTableRecord
100
AcDbBlockTableRecord
  2
*D5
340
0
  0
BLOCK_RECORD
  5
97
330
1
100
AcDbSymbolTableRecord
100
AcDbBlockTableRecord
  2
*D6
340
0
  0
BLOCK_RECORD
  5
45
330
1
100
AcDbSymbolTableRecord
100
AcDbBlockTableRecord
  2
*D7
340
0
  0
BLOCK_RECORD
  5
38
330
1
100
AcDbSymbolTableRecord
100
AcDbBlockTableRecord
  2
*D8
340
0
  0
BLOCK_RECORD
  5
175
330
1
100
AcDbSymbolTableRecord
100
AcDbBlockTableRecord
  2
*D9
340
0
  0
ENDTAB
  0
ENDSEC
  0
SECTION
  2
BLOCKS
  0
BLOCK
  5
3
330
2
100
AcDbEntity
  8
0
100
AcDbBlockBegin
  2
*MODEL_SPACE
 70
     0
 10
0.0
 20
0.0
 30
0.0
  3
*MODEL_SPACE
  1

  0
ENDBLK
  5
9
330
2
100
AcDbEntity
  8
0
100
AcDbBlockEnd
  0
BLOCK
  5
D
330
C
100
AcDbEntity
 67
     1
  8
0
100
AcDbBlockBegin
  2
*PAPER_SPACE
 70
     0
 10
0.0
 20
0.0
 30
0.0
  3
*PAPER_SPACE
  1

  0
ENDBLK
  5
E
330
C
100
AcDbEntity
 67
     1
  8
0
100
AcDbBlockEnd
  0
BLOCK
  5
28
330
24
100
AcDbEntity
  8
0
100
AcDbBlockBegin
  2
_OPEN
 70
     0
 10
0.0
 20
0.0
 30
0.0
  3
_OPEN
  1

  0
LINE
  5
25
330
24
100
AcDbEntity
  8
0
  6
ByBlock
 62
     0
100
AcDbLine
 10
-1.0
 20
0.17
 30
0.0
 11
0.0
 21
0.0
 31
0.0
  0
LINE
  5
26
330
24
100
AcDbEntity
  8
0
  6
ByBlock
 62
     0
100
AcDbLine
 10
0.0
 20
0.0
 30
0.0
 11
-1.0
 21
-0.17
 31
0.0
  0
LINE
  5
27
330
24
100
AcDbEntity
  8
0
  6
ByBlock
 62
     0
100
AcDbLine
 10
0.0
 20
0.0
 30
0.0
 11
-1.0
 21
0.0
 31
0.0
  0
ENDBLK
  5
29
330
24
100
AcDbEntity
  8
0
100
AcDbBlockEnd
  0
BLOCK
  5
36
330
32
100
AcDbEntity
  8
0
100
AcDbBlockBegin
  2
_OPEN30
 70
     0
 10
0.0
 20
0.0
 30
0.0
  3
_OPEN30
  1

  0
LINE
  5
33
330
32
100
AcDbEntity
  8
0
  6
ByBlock
 62
     0
100
AcDbLine
 10
-1.0
 20
0.27
 30
0.0
 11
0.0
 21
0.0
 31
0.0
  0
LINE
  5
34
330
32
100
AcDbEntity
  8
0
  6
ByBlock
 62
     0
100
AcDbLine
 10
0.0
 20
0.0
 30
0.0
 11
-1.0
 21
-0.27
 31
0.0
  0
LINE
  5
35
330
32
100
AcDbEntity
  8
0
  6
ByBlock
 62
     0
100
AcDbLine
 10
0.0
 20
0.0
 30
0.0
 11
-1.0
 21
0.0
 31
0.0
  0
ENDBLK
  5
37
330
32
100
AcDbEntity
  8
0
100
AcDbBlockEnd
  0
BLOCK
  5
E3
330
D9
100
AcDbEntity
  8
0
100
AcDbBlockBegin
  2
*D2
 70
     1
 10
0.0
 20
0.0
 30
0.0
  3
*D2
  1

  0
LINE
  5
DA
330
D9
100
AcDbEntity
  8
画層1
  6
ByBlock
 62
     0
370
    -2
100
AcDbLine
 10
55.0
 20
243.53
 30
0.0
 11
55.0
 21
252.25
 31
0.0
  0
LINE
  5
DB
330
D9
100
AcDbEntity
  8
画層1
  6
ByBlock
 62
     0
370
    -2
100
AcDbLine
 10
103.0
 20
243.53
 30
0.0
 11
103.0
 21
252.25
 31
0.0
  0
LINE
  5
DC
330
D9
100
AcDbEntity
  8
画層1
  6
ByBlock
 62
     0
370
    -2
100
AcDbLine
 10
56.5
 20
251.0
 30
0.0
 11
101.5
 21
251.0
 31
0.0
  0
INSERT
  5
DD
330
D9
100
AcDbEntity
  8
画層1
  6
ByBlock
 62
     0
370
    -2
100
AcDbBlockReference
  2
_OPEN30
 10
55.0
 20
251.0
 30
0.0
 41
1.5
 42
1.5
 43
1.5
 50
180.0
  0
INSERT
  5
DE
330
D9
100
AcDbEntity
  8
画層1
  6
ByBlock
 62
     0
370
    -2
100
AcDbBlockReference
  2
_OPEN30
 10
103.0
 20
251.0
 30
0.0
 41
1.5
 42
1.5
 43
1.5
  0
MTEXT
  5
DF
330
D9
100
AcDbEntity
  8
画層1
  6
ByBlock
 62
     0
370
    -2
100
AcDbMText
 10
79.0
 20
252.88
 30
0.0
 40
2.5
 41
0.0
 71
     5
 72
     1
  1
\A1;48
  7
STYLE1
 73
     1
 44
1.0
  0
POINT
  5
E0
330
D9
100
AcDbEntity
  8
DEFPOINTS
  6
ByBlock
 62
     0
100
AcDbPoint
 10
55.0
 20
242.9
 30
0.0
  0
POINT
  5
E1
330
D9
100
AcDbEntity
  8
DEFPOINTS
  6
ByBlock
 62
     0
100
AcDbPoint
 10
103.0
 20
242.9
 30
0.0
  0
POINT
  5
E2
330
D9
100
AcDbEntity
  8
DEFPOINTS
  6
ByBlock
 62
     0
100
AcDbPoint
 10
103.0
 20
251.0
 30
0.0
  0
ENDBLK
  5
E4
330
D9
100
AcDbEntity
  8
0
100
AcDbBlockEnd
  0
BLOCK
  5
71
330
67
100
AcDbEntity
  8
0
100
AcDbBlockBegin
  2
*D3
 70
     1
 10
0.0
 20
0.0
 30
0.0
  3
*D3
  1

  0
LINE
  5
68
330
67
100
AcDbEntity
  8
画層1
  6
ByBlock
 62
     0
370
    -2
100
AcDbLine
 10
101.9
 20
148.0
 30
0.0
 11
110.53
 21
148.0
 31
0.0
  0
LINE
  5
69
330
67
100
AcDbEntity
  8
画層1
  6
ByBlock
 62
     0
370
    -2
100
AcDbLine
 10
101.9
 20
244.0
 30
0.0
 11
110.53
 21
244.0
 31
0.0
  0
LINE
  5
6A
330
67
100
AcDbEntity
  8
画層1
  6
ByBlock
 62
     0
370
    -2
100
AcDbLine
 10
109.28
 20
149.5
 30
0.0
 11
109.28
 21
242.5
 31
0.0
  0
INSERT
  5
6B
330
67
100
AcDbEntity
  8
画層1
  6
ByBlock
 62
     0
370
    -2
100
AcDbBlockReference
  2
_OPEN30
 10
109.28
 20
148.0
 30
0.0
 41
1.5
 42
1.5
 43
1.5
 50
270.0
  0
INSERT
  5
6C
330
67
100
AcDbEntity
  8
画層1
  6
ByBlock
 62
     0
370
    -2
100
AcDbBlockReference
  2
_OPEN30
 10
109.28
 20
244.0
 30
0.0
 41
1.5
 42
1.5
 43
1.5
 50
90.0
  0
MTEXT
  5
6D
330
67
100
AcDbEntity
  8
画層1
  6
ByBlock
 62
     0
370
    -2
100
AcDbMText
 10
107.4
 20
196.0
 30
0.0
 40
2.5
 41
0.0
 71
     5
 72
     1
  1
\A1;96
  7
STYLE1
 11
0.0
 21
1.0
 31
0.0
 73
     1
 44
1.0
  0
POINT
  5
6E
330
67
100
AcDbEntity
  8
DEFPOINTS
  6
ByBlock
 62
     0
100
AcDbPoint
 10
101.28
 20
148.0
 30
0.0
  0
POINT
  5
6F
330
67
100
AcDbEntity
  8
DEFPOINTS
  6
ByBlock
 62
     0
100
AcDbPoint
 10
101.28
 20
244.0
 30
0.0
  0
POINT
  5
70
330
67
100
AcDbEntity
  8
DEFPOINTS
  6
ByBlock
 62
     0
100
AcDbPoint
 10
109.28
 20
244.0
 30
0.0
  0
ENDBLK
  5
72
330
67
100
AcDbEntity
  8
0
100
AcDbBlockEnd
  0
BLOCK
  5
1A5
330
19B
100
AcDbEntity
  8
0
100
AcDbBlockBegin
  2
*D4
 70
     1
 10
0.0
 20
0.0
 30
0.0
  3
*D4
  1

  0
LINE
  5
19C
330
19B
100
AcDbEntity
  8
画層1
  6
ByBlock
 62
     0
370
    -2
100
AcDbLine
 10
243.83
 20
241.8
 30
0.0
 11
253.78
 21
241.8
 31
0.0
  0
LINE
  5
19D
330
19B
100
AcDbEntity
  8
画層1
  6
ByBlock
 62
     0
370
    -2
100
AcDbLine
 10
243.83
 20
150.2
 30
0.0
 11
253.78
 21
150.2
 31
0.0
  0
LINE
  5
19E
330
19B
100
AcDbEntity
  8
画層1
  6
ByBlock
 62
     0
370
    -2
100
AcDbLine
 10
252.53
 20
240.3
 30
0.0
 11
252.53
 21
151.7
 31
0.0
  0
INSERT
  5
19F
330
19B
100
AcDbEntity
  8
画層1
  6
ByBlock
 62
     0
370
    -2
100
AcDbBlockReference
  2
_OPEN30
 10
252.53
 20
241.8
 30
0.0
 41
1.5
 42
1.5
 43
1.5
 50
90.0
  0
INSERT
  5
1A0
330
19B
100
AcDbEntity
  8
画層1
  6
ByBlock
 62
     0
370
    -2
100
AcDbBlockReference
  2
_OPEN30
 10
252.53
 20
150.2
 30
0.0
 41
1.5
 42
1.5
 43
1.5
 50
270.0
  0
MTEXT
  5
1A1
330
19B
100
AcDbEntity
  8
画層1
  6
ByBlock
 62
     0
370
    -2
100
AcDbMText
 10
250.65
 20
196.0
 30
0.0
 40
2.5
 41
0.0
 71
     5
 72
     1
  1
\A1;91.6
  7
STYLE1
 11
0.0
 21
1.0
 31
0.0
 73
     1
 44
1.0
  0
POINT
  5
1A2
330
19B
100
AcDbEntity
  8
DEFPOINTS
  6
ByBlock
 62
     0
100
AcDbPoint
 10
243.2
 20
241.8
 30
0.0
  0
POINT
  5
1A3
330
19B
100
AcDbEntity
  8
DEFPOINTS
  6
ByBlock
 62
     0
100
AcDbPoint
 10
243.2
 20
150.2
 30
0.0
  0
POINT
  5
1A4
330
19B
100
AcDbEntity
  8
DEFPOINTS
  6
ByBlock
 62
     0
100
AcDbPoint
 10
252.53
 20
150.2
 30
0.0
  0
ENDBLK
  5
1A6
330
19B
100
AcDbEntity
  8
0
100
AcDbBlockEnd
  0
BLOCK
  5
83
330
79
100
AcDbEntity
  8
0
100
AcDbBlockBegin
  2
*D5
 70
     1
 10
0.0
 20
0.0
 30
0.0
  3
*D5
  1

  0
LINE
  5
7A
330
79
100
AcDbEntity
  8
画層1
  6
ByBlock
 62
     0
370
    -2
100
AcDbLine
 10
56.5
 20
117.63
 30
0.0
 11
56.5
 21
127.25
 31
0.0
  0
LINE
  5
7B
330
79
100
AcDbEntity
  8
画層1
  6
ByBlock
 62
     0
370
    -2
100
AcDbLine
 10
101.5
 20
117.63
 30
0.0
 11
101.5
 21
127.25
 31
0.0
  0
LINE
  5
7C
330
79
100
AcDbEntity
  8
画層1
  6
ByBlock
 62
     0
370
    -2
100
AcDbLine
 10
58.0
 20
126.0
 30
0.0
 11
100.0
 21
126.0
 31
0.0
  0
INSERT
  5
7D
330
79
100
AcDbEntity
  8
画層1
  6
ByBlock
 62
     0
370
    -2
100
AcDbBlockReference
  2
_OPEN30
 10
56.5
 20
126.0
 30
0.0
 41
1.5
 42
1.5
 43
1.5
 50
180.0
  0
INSERT
  5
7E
330
79
100
AcDbEntity
  8
画層1
  6
ByBlock
 62
     0
370
    -2
100
AcDbBlockReference
  2
_OPEN30
 10
101.5
 20
126.0
 30
0.0
 41
1.5
 42
1.5
 43
1.5
  0
MTEXT
  5
7F
330
79
100
AcDbEntity
  8
画層1
  6
ByBlock
 62
     0
370
    -2
100
AcDbMText
 10
79.0
 20
128.07
 30
0.0
 40
2.5
 41
0.0
 71
     5
 72
     1
  1
\A1;45{\H1.250000;\S+0.6^ -0;}
  7
STYLE1
 73
     1
 44
1.0
  0
POINT
  5
80
330
79
100
AcDbEntity
  8
DEFPOINTS
  6
ByBlock
 62
     0
100
AcDbPoint
 10
56.5
 20
117.0
 30
0.0
  0
POINT
  5
81
330
79
100
AcDbEntity
  8
DEFPOINTS
  6
ByBlock
 62
     0
100
AcDbPoint
 10
101.5
 20
117.0
 30
0.0
  0
POINT
  5
82
330
79
100
AcDbEntity
  8
DEFPOINTS
  6
ByBlock
 62
     0
100
AcDbPoint
 10
101.5
 20
126.0
 30
0.0
  0
ENDBLK
  5
84
330
79
100
AcDbEntity
  8
0
100
AcDbBlockEnd
  0
BLOCK
  5
A1
330
97
100
AcDbEntity
  8
0
100
AcDbBlockBegin
  2
*D6
 70
     1
 10
0.0
 20
0.0
 30
0.0
  3
*D6
  1

  0
LINE
  5
98
330
97
100
AcDbEntity
  8
画層1
  6
ByBlock
 62
     0
370
    -2
100
AcDbLine
 10
102.13
 20
117.0
 30
0.0
 11
111.75
 21
117.0
 31
0.0
  0
LINE
  5
99
330
97
100
AcDbEntity
  8
画層1
  6
ByBlock
 62
     0
370
    -2
100
AcDbLine
 10
102.13
 20
25.0
 30
0.0
 11
111.75
 21
25.0
 31
0.0
  0
LINE
  5
9A
330
97
100
AcDbEntity
  8
画層1
  6
ByBlock
 62
     0
370
    -2
100
AcDbLine
 10
110.5
 20
115.5
 30
0.0
 11
110.5
 21
26.5
 31
0.0
  0
INSERT
  5
9B
330
97
100
AcDbEntity
  8
画層1
  6
ByBlock
 62
     0
370
    -2
100
AcDbBlockReference
  2
_OPEN30
 10
110.5
 20
117.0
 30
0.0
 41
1.5
 42
1.5
 43
1.5
 50
90.0
  0
INSERT
  5
9C
330
97
100
AcDbEntity
  8
画層1
  6
ByBlock
 62
     0
370
    -2
100
AcDbBlockReference
  2
_OPEN30
 10
110.5
 20
25.0
 30
0.0
 41
1.5
 42
1.5
 43
1.5
 50
270.0
  0
MTEXT
  5
9D
330
97
100
AcDbEntity
  8
画層1
  6
ByBlock
 62
     0
370
    -2
100
AcDbMText
 10
108.43
 20
71.0
 30
0.0
 40
2.5
 41
0.0
 71
     5
 72
     1
  1
\A1;92{\H1.250000;\S+0.8^ -0;}
  7
STYLE1
 11
0.0
 21
1.0
 31
0.0
 73
     1
 44
1.0
  0
POINT
  5
9E
330
97
100
AcDbEntity
  8
DEFPOINTS
  6
ByBlock
 62
     0
100
AcDbPoint
 10
101.5
 20
117.0
 30
0.0
  0
POINT
  5
9F
330
97
100
AcDbEntity
  8
DEFPOINTS
  6
ByBlock
 62
     0
100
AcDbPoint
 10
101.5
 20
25.0
 30
0.0
  0
POINT
  5
A0
330
97
100
AcDbEntity
  8
DEFPOINTS
  6
ByBlock
 62
     0
100
AcDbPoint
 10
110.5
 20
25.0
 30
0.0
  0
ENDBLK
  5
A2
330
97
100
AcDbEntity
  8
0
100
AcDbBlockEnd
  0
BLOCK
  5
4F
330
45
100
AcDbEntity
  8
0
 62
     1
100
AcDbBlockBegin
  2
*D7
 70
     1
 10
0.0
 20
0.0
 30
0.0
  3
*D7
  1

  0
LINE
  5
46
330
45
100
AcDbEntity
  8
画層1
  6
ByBlock
 62
     0
370
    -2
100
AcDbLine
 10
127.52
 20
251.75
 30
0.0
 11
127.52
 21
259.38
 31
0.0
  0
LINE
  5
47
330
45
100
AcDbEntity
  8
画層1
  6
ByBlock
 62
     0
370
    -2
100
AcDbLine
 10
238.52
 20
251.75
 30
0.0
 11
238.52
 21
259.38
 31
0.0
  0
LINE
  5
48
330
45
100
AcDbEntity
  8
画層1
  6
ByBlock
 62
     0
370
    -2
100
AcDbLine
 10
129.02
 20
258.13
 30
0.0
 11
237.02
 21
258.13
 31
0.0
  0
INSERT
  5
49
330
45
100
AcDbEntity
  8
画層1
  6
ByBlock
 62
     0
370
    -2
100
AcDbBlockReference
  2
_OPEN30
 10
127.52
 20
258.13
 30
0.0
 41
1.5
 42
1.5
 43
1.5
 50
180.0
  0
INSERT
  5
4A
330
45
100
AcDbEntity
  8
画層1
  6
ByBlock
 62
     0
370
    -2
100
AcDbBlockReference
  2
_OPEN30
 10
238.52
 20
258.13
 30
0.0
 41
1.5
 42
1.5
 43
1.5
  0
MTEXT
  5
4B
330
45
100
AcDbEntity
  8
画層1
  6
ByBlock
 62
     0
370
    -2
100
AcDbMText
 10
183.02
 20
260.0
 30
0.0
 40
2.5
 41
0.0
 71
     5
 72
     1
  1
\A1;111
  7
STYLE1
 73
     1
 44
1.0
  0
POINT
  5
4C
330
45
100
AcDbEntity
  8
DEFPOINTS
  6
ByBlock
 62
     0
100
AcDbPoint
 10
127.52
 20
251.13
 30
0.0
  0
POINT
  5
4D
330
45
100
AcDbEntity
  8
DEFPOINTS
  6
ByBlock
 62
     0
100
AcDbPoint
 10
238.52
 20
251.13
 30
0.0
  0
POINT
  5
4E
330
45
100
AcDbEntity
  8
DEFPOINTS
  6
ByBlock
 62
     0
100
AcDbPoint
 10
238.52
 20
258.13
 30
0.0
  0
ENDBLK
  5
50
330
45
100
AcDbEntity
  8
0
 62
     1
100
AcDbBlockEnd
  0
BLOCK
  5
42
330
38
100
AcDbEntity
  8
0
 62
     1
100
AcDbBlockBegin
  2
*D8
 70
     1
 10
0.0
 20
0.0
 30
0.0
  3
*D8
  1

  0
LINE
  5
39
330
38
100
AcDbEntity
  8
画層1
  6
ByBlock
 62
     0
370
    -2
100
AcDbLine
 10
238.52
 20
241.75
 30
0.0
 11
238.52
 21
252.38
 31
0.0
  0
LINE
  5
3A
330
38
100
AcDbEntity
  8
画層1
  6
ByBlock
 62
     0
370
    -2
100
AcDbLine
 10
140.02
 20
251.13
 30
0.0
 11
237.02
 21
251.13
 31
0.0
  0
INSERT
  5
3B
330
38
100
AcDbEntity
  8
画層1
  6
ByBlock
 62
     0
370
    -2
100
AcDbBlockReference
  2
_OPEN30
 10
138.52
 20
251.13
 30
0.0
 41
1.5
 42
1.5
 43
1.5
 50
180.0
  0
INSERT
  5
3C
330
38
100
AcDbEntity
  8
画層1
  6
ByBlock
 62
     0
370
    -2
100
AcDbBlockReference
  2
_OPEN30
 10
238.52
 20
251.13
 30
0.0
 41
1.5
 42
1.5
 43
1.5
  0
MTEXT
  5
3D
330
38
100
AcDbEntity
  8
画層1
  6
ByBlock
 62
     0
370
    -2
100
AcDbMText
 10
188.52
 20
253.0
 30
0.0
 40
2.5
 41
0.0
 71
     5
 72
     1
  1
\A1;100
  7
STYLE1
 73
     1
 44
1.0
  0
POINT
  5
3E
330
38
100
AcDbEntity
  8
DEFPOINTS
  6
ByBlock
 62
     0
100
AcDbPoint
 10
138.52
 20
244.13
 30
0.0
  0
POINT
  5
40
330
38
100
AcDbEntity
  8
DEFPOINTS
  6
ByBlock
 62
     0
100
AcDbPoint
 10
238.52
 20
241.13
 30
0.0
  0
POINT
  5
41
330
38
100
AcDbEntity
  8
DEFPOINTS
  6
ByBlock
 62
     0
100
AcDbPoint
 10
238.52
 20
251.13
 30
0.0
  0
ENDBLK
  5
43
330
38
100
AcDbEntity
  8
0
 62
     1
100
AcDbBlockEnd
  0
BLOCK
  5
17F
330
175
100
AcDbEntity
  8
0
 62
     1
100
AcDbBlockBegin
  2
*D9
 70
     1
 10
0.0
 20
0.0
 30
0.0
  3
*D9
  1

  0
LINE
  5
176
330
175
100
AcDbEntity
  8
画層1
  6
ByBlock
 62
     0
370
    -2
100
AcDbLine
 10
127.52
 20
244.05
 30
0.0
 11
127.52
 21
252.38
 31
0.0
  0
LINE
  5
177
330
175
100
AcDbEntity
  8
画層1
  6
ByBlock
 62
     0
370
    -2
100
AcDbLine
 10
138.52
 20
244.75
 30
0.0
 11
138.52
 21
252.38
 31
0.0
  0
LINE
  5
178
330
175
100
AcDbEntity
  8
画層1
  6
ByBlock
 62
     0
370
    -2
100
AcDbLine
 10
129.02
 20
251.13
 30
0.0
 11
137.02
 21
251.13
 31
0.0
  0
INSERT
  5
179
330
175
100
AcDbEntity
  8
画層1
  6
ByBlock
 62
     0
370
    -2
100
AcDbBlockReference
  2
_OPEN30
 10
127.52
 20
251.13
 30
0.0
 41
1.5
 42
1.5
 43
1.5
 50
180.0
  0
INSERT
  5
17A
330
175
100
AcDbEntity
  8
画層1
  6
ByBlock
 62
     0
370
    -2
100
AcDbBlockReference
  2
_OPEN30
 10
138.52
 20
251.13
 30
0.0
 41
1.5
 42
1.5
 43
1.5
  0
MTEXT
  5
17B
330
175
100
AcDbEntity
  8
画層1
  6
ByBlock
 62
     0
370
    -2
100
AcDbMText
 10
133.02
 20
253.0
 30
0.0
 40
2.5
 41
0.0
 71
     5
 72
     1
  1
\A1;11
  7
STYLE1
 73
     1
 44
1.0
  0
POINT
  5
17C
330
175
100
AcDbEntity
  8
DEFPOINTS
  6
ByBlock
 62
     0
100
AcDbPoint
 10
127.52
 20
243.43
 30
0.0
  0
POINT
  5
17D
330
175
100
AcDbEntity
  8
DEFPOINTS
  6
ByBlock
 62
     0
100
AcDbPoint
 10
138.52
 20
244.13
 30
0.0
  0
POINT
  5
17E
330
175
100
AcDbEntity
  8
DEFPOINTS
  6
ByBlock
 62
     0
100
AcDbPoint
 10
138.52
 20
251.13
 30
0.0
  0
ENDBLK
  5
180
330
175
100
AcDbEntity
  8
0
 62
     1
100
AcDbBlockEnd
  0
ENDSEC
  0
SECTION
  2
ENTITIES
  0
LWPOLYLINE
  5
2C
330
2
100
AcDbEntity
  8
画層1
  6
ByBlock
 62
     0
370
    -2
100
AcDbPolyline
 90
        4
 70
     1
 43
0.0
 10
192.02
 20
230.03
 10
214.02
 20
230.03
 10
214.02
 20
228.23
 10
192.02
 20
228.23
  0
LWPOLYLINE
  5
2D
330
2
100
AcDbEntity
  8
画層1
  6
ByBlock
 62
     0
370
    -2
100
AcDbPolyline
 90
        4
 70
     1
 43
0.0
 10
192.02
 20
233.33
 10
214.02
 20
233.33
 10
214.02
 20
231.53
 10
192.02
 20
231.53
  0
LWPOLYLINE
  5
2E
330
2
100
AcDbEntity
  8
画層1
  6
ByBlock
 62
     0
370
    -2
100
AcDbPolyline
 90
        4
 70
     1
 43
0.0
 10
192.02
 20
226.73
 10
214.02
 20
226.73
 10
214.02
 20
224.93
 10
192.02
 20
224.93
  0
LWPOLYLINE
  5
2F
330
2
100
AcDbEntity
  8
画層1
  6
ByBlock
 62
     0
370
    -2
100
AcDbPolyline
 90
        4
 70
     1
 43
0.0
 10
192.02
 20
223.43
 10
214.02
 20
223.43
 10
214.02
 20
221.63
 10
192.02
 20
221.63
  0
LINE
  5
30
330
2
100
AcDbEntity
  8
画層1
  6
ByBlock
 62
     0
370
    -2
100
AcDbLine
 10
123.52
 20
196.13
 30
0.0
 11
243.52
 21
196.13
 31
0.0
  0
DIMENSION
  5
31
330
2
100
AcDbEntity
  8
画層1
  6
ByBlock
 62
     0
370
    -2
100
AcDbDimension
  2
*D8
 10
238.52
 20
251.13
 30
0.0
 11
188.52
 21
253.0
 31
0.0
 71
     5
 42
100.0
  3
STANDARD_WS
100
AcDbAlignedDimension
 13
138.52
 23
244.13
 33
0.0
 14
238.52
 24
241.13
 34
0.0
100
AcDbRotatedDimension
1001
ACAD
1000
DSTYLE
1002
{
1070
   344
1005
32
1070
   343
1005
32
1070
    75
1070
     1
1070
   279
1070
     1
1070
   340
1005
23
1002
}
  0
DIMENSION
  5
44
330
2
100
AcDbEntity
  8
画層1
  6
ByBlock
 62
     0
370
    -2
100
AcDbDimension
  2
*D7
 10
238.52
 20
258.13
 30
0.0
 11
183.02
 21
260.0
 31
0.0
 71
     5
 42
111.0
  3
STANDARD_WS
100
AcDbAlignedDimension
 13
127.52
 23
251.13
 33
0.0
 14
238.52
 24
251.13
 34
0.0
100
AcDbRotatedDimension
1001
ACAD
1000
DSTYLE
1002
{
1070
   344
1005
32
1070
   343
1005
32
1070
   340
1005
23
1002
}
  0
LINE
  5
51
330
2
100
AcDbEntity
  8
画層1
  6
ByBlock
 62
     0
370
    -2
100
AcDbLine
 10
127.52
 20
196.13
 30
0.0
 11
240.52
 21
196.13
 31
0.0
  0
LINE
  5
52
330
2
100
AcDbEntity
  8
画層1
  6
ByBlock
 62
     0
370
    -2
100
AcDbLine
 10
142.52
 20
236.13
 30
0.0
 11
227.52
 21
236.13
 31
0.0
  0
LINE
  5
53
330
2
100
AcDbEntity
  8
画層1
  6
ByBlock
 62
     0
370
    -2
100
AcDbLine
 10
160.12
 20
241.93
 30
0.0
 11
230.02
 21
241.93
 31
0.0
  0
LINE
  5
54
330
2
100
AcDbEntity
  8
画層1
  6
ByBlock
 62
     0
370
    -2
100
AcDbLine
 10
169.02
 20
238.43
 30
0.0
 11
230.02
 21
238.43
 31
0.0
  0
LINE
  5
55
330
2
100
AcDbEntity
  8
画層1
  6
ByBlock
 62
     0
370
    -2
100
AcDbLine
 10
160.12
 20
150.33
 30
0.0
 11
237.52
 21
150.33
 31
0.0
  0
LINE
  5
56
330
2
100
AcDbEntity
  8
画層1
  6
ByBlock
 62
     0
370
    -2
100
AcDbLine
 10
169.02
 20
153.83
 30
0.0
 11
230.02
 21
153.83
 31
0.0
  0
LINE
  5
57
330
2
100
AcDbEntity
  8
画層1
  6
ByBlock
 62
     0
370
    -2
100
AcDbLine
 10
142.52
 20
156.13
 30
0.0
 11
227.52
 21
156.13
 31
0.0
  0
LINE
  5
58
330
2
100
AcDbEntity
  8
画層1
  6
ByBlock
 62
     0
370
    -2
100
AcDbLine
 10
157.72
 20
156.43
 30
0.0
 11
227.22
 21
156.43
 31
0.0
  0
LINE
  5
59
330
2
100
AcDbEntity
  8
画層1
  6
ByBlock
 62
     0
370
    -2
100
AcDbLine
 10
157.72
 20
219.43
 30
0.0
 11
227.22
 21
219.43
 31
0.0
  0
LINE
  5
5A
330
2
100
AcDbEntity
  8
画層1
  6
ByBlock
 62
     0
370
    -2
100
AcDbLine
 10
139.12
 20
148.13
 30
0.0
 11
139.12
 21
148.53
 31
0.0
  0
LINE
  5
5B
330
2
100
AcDbEntity
  8
画層1
  6
ByBlock
 62
     0
370
    -2
100
AcDbLine
 10
136.52
 20
244.13
 30
0.0
 11
136.52
 21
148.13
 31
0.0
  0
ARC
  5
5C
330
2
100
AcDbEntity
  8
画層1
  6
ByBlock
 62
     0
370
    -2
100
AcDbCircle
 10
160.26
 20
120.33
 30
0.0
 40
32.0
100
AcDbArc
 50
90.26
 51
120.25
  0
ARC
  5
5D
330
2
100
AcDbEntity
  8
画層1
  6
ByBlock
 62
     0
370
    -2
100
AcDbCircle
 10
160.47
 20
118.92
 30
0.0
 40
31.40248406519289
100
AcDbArc
 50
90.63
 51
121.59
  0
LINE
  5
5E
330
2
100
AcDbEntity
  8
画層1
  6
ByBlock
 62
     0
370
    -2
100
AcDbLine
 10
130.52
 20
148.13
 30
0.0
 11
130.52
 21
196.13
 31
0.0
  0
LINE
  5
5F
330
2
100
AcDbEntity
  8
画層1
  6
ByBlock
 62
     0
370
    -2
100
AcDbLine
 10
140.32
 20
148.93
 30
0.0
 11
143.26
 21
147.91
 31
0.0
  0
LINE
  5
60
330
2
100
AcDbEntity
  8
画層1
  6
ByBlock
 62
     0
370
    -2
100
AcDbLine
 10
138.52
 20
244.13
 30
0.0
 11
138.52
 21
148.13
 31
0.0
  0
ARC
  5
61
330
2
100
AcDbEntity
  8
画層1
  6
ByBlock
 62
     0
370
    -2
100
AcDbCircle
 10
128.72
 20
149.43
 30
0.0
 40
1.199999999999999
100
AcDbArc
 50
180.0
 51
270.0
  0
ARC
  5
62
330
2
100
AcDbEntity
  8
画層1
  6
ByBlock
 62
     0
370
    -2
100
AcDbCircle
 10
101.9
 20
149.1
 30
0.0
 40
1.0
100
AcDbArc
 50
270.0
 51
0.0
  0
ARC
  5
63
330
2
100
AcDbEntity
  8
画層1
  6
ByBlock
 62
     0
370
    -2
100
AcDbCircle
 10
56.1
 20
149.1
 30
0.0
 40
1.0
100
AcDbArc
 50
180.0
 51
270.0
  0
ARC
  5
64
330
2
100
AcDbEntity
  8
画層1
  6
ByBlock
 62
     0
370
    -2
100
AcDbCircle
 10
56.1
 20
149.1
 30
0.0
 40
1.1
100
AcDbArc
 50
180.0
 51
270.0
  0
ARC
  5
65
330
2
100
AcDbEntity
  8
画層1
  6
ByBlock
 62
     0
370
    -2
100
AcDbCircle
 10
101.9
 20
149.1
 30
0.0
 40
1.1
100
AcDbArc
 50
270.0
 51
0.0
  0
DIMENSION
  5
66
330
2
100
AcDbEntity
  8
画層1
  6
ByBlock
 62
     0
370
    -2
100
AcDbDimension
  2
*D3
 10
109.28
 20
244.0
 30
0.0
 11
107.4
 21
196.0
 31
0.0
 71
     5
 42
96.0
  3
STANDARD_WS
100
AcDbAlignedDimension
 13
101.28
 23
148.0
 33
0.0
 14
101.28
 24
244.0
 34
0.0
 50
90.0
100
AcDbRotatedDimension
1001
ACAD
1000
DSTYLE
1002
{
1070
   344
1005
32
1070
   343
1005
32
1070
   340
1005
23
1002
}
  0
LINE
  5
73
330
2
100
AcDbEntity
  8
画層1
  6
ByBlock
 62
     0
370
    -2
100
AcDbLine
 10
79.0
 20
246.0
 30
0.0
 11
79.0
 21
146.0
 31
0.0
  0
LINE
  5
74
330
2
100
AcDbEntity
  8
画層1
  6
ByBlock
 62
     0
370
    -2
100
AcDbLine
 10
101.9
 20
148.1
 30
0.0
 11
56.1
 21
148.1
 31
0.0
  0
LINE
  5
75
330
2
100
AcDbEntity
  8
画層1
  6
ByBlock
 62
     0
370
    -2
100
AcDbLine
 10
101.9
 20
148.0
 30
0.0
 11
56.1
 21
148.0
 31
0.0
  0
LINE
  5
76
330
2
100
AcDbEntity
  8
画層1
  6
ByBlock
 62
     0
370
    -2
100
AcDbLine
 10
70.0
 20
16.0
 30
0.0
 11
88.0
 21
16.0
 31
0.0
  0
MTEXT
  5
77
330
2
100
AcDbEntity
  8
画層1
  6
ByBlock
 62
     0
370
    -2
100
AcDbMText
 10
70.0
 20
20.0
 30
0.0
 40
2.5
 41
20.0
 71
     1
 72
     5
  1
取付穴寸法
  7
STYLE1
 73
     1
 44
1.0
  0
DIMENSION
  5
78
330
2
100
AcDbEntity
  8
画層1
  6
ByBlock
 62
     0
370
    -2
100
AcDbDimension
  2
*D5
 10
101.5
 20
126.0
 30
0.0
 11
79.0
 21
128.07
 31
0.0
 71
     5
 42
45.0
  3
STANDARD_WS
100
AcDbAlignedDimension
 13
56.5
 23
117.0
 33
0.0
 14
101.5
 24
117.0
 34
0.0
100
AcDbRotatedDimension
1001
ACAD
1000
DSTYLE
1002
{
1070
   344
1005
32
1070
   343
1005
32
1070
   284
1070
     8
1070
   340
1005
23
1070
    47
1040
0.6
1070
    71
1070
     1
1070
   146
1040
0.5
1002
}
  0
LINE
  5
85
330
2
100
AcDbEntity
  8
画層1
  6
ByBlock
 62
     0
370
    -2
100
AcDbLine
 10
52.5
 20
71.0
 30
0.0
 11
105.5
 21
71.0
 31
0.0
  0
LINE
  5
86
330
2
100
AcDbEntity
  8
画層1
  6
ByBlock
 62
     0
370
    -2
100
AcDbLine
 10
101.5
 20
25.0
 30
0.0
 11
56.5
 21
25.0
 31
0.0
  0
LINE
  5
87
330
2
100
AcDbEntity
  8
画層1
  6
ByBlock
 62
     0
370
    -2
100
AcDbLine
 10
56.5
 20
117.0
 30
0.0
 11
101.5
 21
117.0
 31
0.0
  0
LINE
  5
88
330
2
100
AcDbEntity
  8
画層1
  6
ByBlock
 62
     0
370
    -2
100
AcDbLine
 10
56.5
 20
25.0
 30
0.0
 11
56.5
 21
117.0
 31
0.0
  0
LINE
  5
89
330
2
100
AcDbEntity
  8
画層1
  6
ByBlock
 62
     0
370
    -2
100
AcDbLine
 10
56.7
 20
145.55
 30
0.0
 11
59.2
 21
145.55
 31
0.0
  0
LINE
  5
8A
330
2
100
AcDbEntity
  8
画層1
  6
ByBlock
 62
     0
370
    -2
100
AcDbLine
 10
59.2
 20
147.65
 30
0.0
 11
56.7
 21
147.65
 31
0.0
  0
LINE
  5
8B
330
2
100
AcDbEntity
  8
画層1
  6
ByBlock
 62
     0
370
    -2
100
AcDbLine
 10
59.2
 20
147.3
 30
0.0
 11
56.7
 21
147.3
 31
0.0
  0
LINE
  5
8C
330
2
100
AcDbEntity
  8
画層1
  6
ByBlock
 62
     0
370
    -2
100
AcDbLine
 10
59.2
 20
146.95
 30
0.0
 11
56.7
 21
146.95
 31
0.0
  0
LINE
  5
8D
330
2
100
AcDbEntity
  8
画層1
  6
ByBlock
 62
     0
370
    -2
100
AcDbLine
 10
59.2
 20
146.6
 30
0.0
 11
56.7
 21
146.6
 31
0.0
  0
LINE
  5
8E
330
2
100
AcDbEntity
  8
画層1
  6
ByBlock
 62
     0
370
    -2
100
AcDbLine
 10
59.2
 20
146.25
 30
0.0
 11
56.7
 21
146.25
 31
0.0
  0
LINE
  5
8F
330
2
100
AcDbEntity
  8
画層1
  6
ByBlock
 62
     0
370
    -2
100
AcDbLine
 10
59.2
 20
145.9
 30
0.0
 11
56.7
 21
145.9
 31
0.0
  0
LINE
  5
90
330
2
100
AcDbEntity
  8
画層1
  6
ByBlock
 62
     0
370
    -2
100
AcDbLine
 10
56.7
 20
145.55
 30
0.0
 11
56.7
 21
148.0
 31
0.0
  0
LINE
  5
91
330
2
100
AcDbEntity
  8
画層1
  6
ByBlock
 62
     0
370
    -2
100
AcDbLine
 10
58.0
 20
148.0
 30
0.0
 11
58.0
 21
148.1
 31
0.0
  0
LINE
  5
92
330
2
100
AcDbEntity
  8
画層1
  6
ByBlock
 62
     0
370
    -2
100
AcDbLine
 10
59.2
 20
145.55
 30
0.0
 11
59.2
 21
148.0
 31
0.0
  0
LINE
  5
93
330
2
100
AcDbEntity
  8
画層1
  6
ByBlock
 62
     0
370
    -2
100
AcDbLine
 10
60.0
 20
148.0
 30
0.0
 11
60.0
 21
148.1
 31
0.0
  0
LINE
  5
94
330
2
100
AcDbEntity
  8
画層1
  6
ByBlock
 62
     0
370
    -2
100
AcDbLine
 10
70.0
 20
148.0
 30
0.0
 11
70.0
 21
148.1
 31
0.0
  0
LINE
  5
95
330
2
100
AcDbEntity
  8
画層1
  6
ByBlock
 62
     0
370
    -2
100
AcDbLine
 10
72.0
 20
148.0
 30
0.0
 11
72.0
 21
148.1
 31
0.0
  0
DIMENSION
  5
96
330
2
100
AcDbEntity
  8
画層1
  6
ByBlock
 62
     0
370
    -2
100
AcDbDimension
  2
*D6
 10
110.5
 20
25.0
 30
0.0
 11
108.43
 21
71.0
 31
0.0
 71
     5
 42
92.0
  3
STANDARD_WS
100
AcDbAlignedDimension
 13
101.5
 23
117.0
 33
0.0
 14
101.5
 24
25.0
 34
0.0
 50
90.0
100
AcDbRotatedDimension
1001
ACAD
1000
DSTYLE
1002
{
1070
   344
1005
32
1070
   343
1005
32
1070
   284
1070
     8
1070
   340
1005
23
1070
    47
1040
0.8
1070
    71
1070
     1
1070
   146
1040
0.5
1002
}
  0
LINE
  5
A3
330
2
100
AcDbEntity
  8
画層1
  6
ByBlock
 62
     0
370
    -2
100
AcDbLine
 10
79.0
 20
121.0
 30
0.0
 11
79.0
 21
21.0
 31
0.0
  0
LINE
  5
A4
330
2
100
AcDbEntity
  8
画層1
  6
ByBlock
 62
     0
370
    -2
100
AcDbLine
 10
101.5
 20
117.0
 30
0.0
 11
101.5
 21
25.0
 31
0.0
  0
LINE
  5
A5
330
2
100
AcDbEntity
  8
画層1
  6
ByBlock
 62
     0
370
    -2
100
AcDbLine
 10
86.0
 20
148.0
 30
0.0
 11
86.0
 21
148.1
 31
0.0
  0
LINE
  5
A6
330
2
100
AcDbEntity
  8
画層1
  6
ByBlock
 62
     0
370
    -2
100
AcDbLine
 10
88.0
 20
148.0
 30
0.0
 11
88.0
 21
148.1
 31
0.0
  0
LINE
  5
A7
330
2
100
AcDbEntity
  8
画層1
  6
ByBlock
 62
     0
370
    -2
100
AcDbLine
 10
98.8
 20
145.55
 30
0.0
 11
101.3
 21
145.55
 31
0.0
  0
LINE
  5
A8
330
2
100
AcDbEntity
  8
画層1
  6
ByBlock
 62
     0
370
    -2
100
AcDbLine
 10
101.3
 20
147.65
 30
0.0
 11
98.8
 21
147.65
 31
0.0
  0
LINE
  5
A9
330
2
100
AcDbEntity
  8
画層1
  6
ByBlock
 62
     0
370
    -2
100
AcDbLine
 10
101.3
 20
147.3
 30
0.0
 11
98.8
 21
147.3
 31
0.0
  0
LINE
  5
AA
330
2
100
AcDbEntity
  8
画層1
  6
ByBlock
 62
     0
370
    -2
100
AcDbLine
 10
101.3
 20
146.95
 30
0.0
 11
98.8
 21
146.95
 31
0.0
  0
LINE
  5
AB
330
2
100
AcDbEntity
  8
画層1
  6
ByBlock
 62
     0
370
    -2
100
AcDbLine
 10
101.3
 20
146.6
 30
0.0
 11
98.8
 21
146.6
 31
0.0
  0
LINE
  5
AC
330
2
100
AcDbEntity
  8
画層1
  6
ByBlock
 62
     0
370
    -2
100
AcDbLine
 10
101.3
 20
146.25
 30
0.0
 11
98.8
 21
146.25
 31
0.0
  0
LINE
  5
AD
330
2
100
AcDbEntity
  8
画層1
  6
ByBlock
 62
     0
370
    -2
100
AcDbLine
 10
101.3
 20
145.9
 30
0.0
 11
98.8
 21
145.9
 31
0.0
  0
LINE
  5
AE
330
2
100
AcDbEntity
  8
画層1
  6
ByBlock
 62
     0
370
    -2
100
AcDbLine
 10
98.0
 20
148.0
 30
0.0
 11
98.0
 21
148.1
 31
0.0
  0
LINE
  5
AF
330
2
100
AcDbEntity
  8
画層1
  6
ByBlock
 62
     0
370
    -2
100
AcDbLine
 10
98.8
 20
148.0
 30
0.0
 11
98.8
 21
145.55
 31
0.0
  0
LINE
  5
B0
330
2
100
AcDbEntity
  8
画層1
  6
ByBlock
 62
     0
370
    -2
100
AcDbLine
 10
100.0
 20
148.0
 30
0.0
 11
100.0
 21
148.1
 31
0.0
  0
LINE
  5
B1
330
2
100
AcDbEntity
  8
画層1
  6
ByBlock
 62
     0
370
    -2
100
AcDbLine
 10
101.3
 20
148.0
 30
0.0
 11
101.3
 21
145.55
 31
0.0
  0
LINE
  5
B2
330
2
100
AcDbEntity
  8
画層1
  6
ByBlock
 62
     0
370
    -2
100
AcDbLine
 10
129.52
 20
148.13
 30
0.0
 11
138.52
 21
148.13
 31
0.0
  0
LINE
  5
B3
330
2
100
AcDbEntity
  8
画層1
  6
ByBlock
 62
     0
370
    -2
100
AcDbLine
 10
129.52
 20
148.13
 30
0.0
 11
129.52
 21
148.23
 31
0.0
  0
LINE
  5
B4
330
2
100
AcDbEntity
  8
画層1
  6
ByBlock
 62
     0
370
    -2
100
AcDbLine
 10
128.72
 20
148.23
 30
0.0
 11
129.52
 21
148.23
 31
0.0
  0
LINE
  5
B5
330
2
100
AcDbEntity
  8
画層1
  6
ByBlock
 62
     0
370
    -2
100
AcDbLine
 10
128.72
 20
148.23
 30
0.0
 11
130.52
 21
148.23
 31
0.0
  0
LINE
  5
B6
330
2
100
AcDbEntity
  8
画層1
  6
ByBlock
 62
     0
370
    -2
100
AcDbLine
 10
140.32
 20
148.03
 30
0.0
 11
139.72
 21
147.78
 31
0.0
  0
LINE
  5
B7
330
2
100
AcDbEntity
  8
画層1
  6
ByBlock
 62
     0
370
    -2
100
AcDbLine
 10
139.72
 20
147.78
 30
0.0
 11
139.72
 21
148.38
 31
0.0
  0
LINE
  5
B8
330
2
100
AcDbEntity
  8
画層1
  6
ByBlock
 62
     0
370
    -2
100
AcDbLine
 10
139.72
 20
148.38
 30
0.0
 11
139.12
 21
148.13
 31
0.0
  0
LINE
  5
B9
330
2
100
AcDbEntity
  8
画層1
  6
ByBlock
 62
     0
370
    -2
100
AcDbLine
 10
143.72
 20
146.28
 30
0.0
 11
142.92
 21
146.03
 31
0.0
  0
ARC
  5
BA
330
2
100
AcDbEntity
  8
画層1
  6
ByBlock
 62
     0
370
    -2
100
AcDbCircle
 10
143.64
 20
148.83
 30
0.0
 40
1.0
100
AcDbArc
 50
247.51
 51
300.25
  0
LINE
  5
BB
330
2
100
AcDbEntity
  8
画層1
  6
ByBlock
 62
     0
370
    -2
100
AcDbLine
 10
142.92
 20
146.03
 30
0.0
 11
142.92
 21
146.63
 31
0.0
  0
LINE
  5
BC
330
2
100
AcDbEntity
  8
画層1
  6
ByBlock
 62
     0
370
    -2
100
AcDbLine
 10
142.92
 20
146.63
 30
0.0
 11
142.32
 21
146.38
 31
0.0
  0
LINE
  5
BD
330
2
100
AcDbEntity
  8
画層1
  6
ByBlock
 62
     0
370
    -2
100
AcDbLine
 10
142.32
 20
146.38
 30
0.0
 11
142.32
 21
146.98
 31
0.0
  0
LINE
  5
BE
330
2
100
AcDbEntity
  8
画層1
  6
ByBlock
 62
     0
370
    -2
100
AcDbLine
 10
142.32
 20
146.98
 30
0.0
 11
141.52
 21
146.73
 31
0.0
  0
LINE
  5
BF
330
2
100
AcDbEntity
  8
画層1
  6
ByBlock
 62
     0
370
    -2
100
AcDbLine
 10
141.52
 20
146.73
 30
0.0
 11
141.52
 21
147.33
 31
0.0
  0
LINE
  5
C0
330
2
100
AcDbEntity
  8
画層1
  6
ByBlock
 62
     0
370
    -2
100
AcDbLine
 10
143.72
 20
145.68
 30
0.0
 11
143.72
 21
146.28
 31
0.0
  0
LINE
  5
C1
330
2
100
AcDbEntity
  8
画層1
  6
ByBlock
 62
     0
370
    -2
100
AcDbLine
 10
144.02
 20
145.68
 30
0.0
 11
143.72
 21
145.68
 31
0.0
  0
LINE
  5
C2
330
2
100
AcDbEntity
  8
画層1
  6
ByBlock
 62
     0
370
    -2
100
AcDbLine
 10
140.92
 20
147.08
 30
0.0
 11
140.92
 21
147.68
 31
0.0
  0
LINE
  5
C3
330
2
100
AcDbEntity
  8
画層1
  6
ByBlock
 62
     0
370
    -2
100
AcDbLine
 10
140.92
 20
147.68
 30
0.0
 11
140.32
 21
147.43
 31
0.0
  0
LINE
  5
C4
330
2
100
AcDbEntity
  8
画層1
  6
ByBlock
 62
     0
370
    -2
100
AcDbLine
 10
140.32
 20
147.43
 30
0.0
 11
140.32
 21
148.03
 31
0.0
  0
LINE
  5
C5
330
2
100
AcDbEntity
  8
画層1
  6
ByBlock
 62
     0
370
    -2
100
AcDbLine
 10
141.52
 20
147.33
 30
0.0
 11
140.92
 21
147.08
 31
0.0
  0
MTEXT
  5
C6
330
2
100
AcDbEntity
  8
画層1
  6
ByBlock
 62
     0
370
    -2
100
AcDbMText
 10
190.65
 20
82.3
 30
0.0
 40
2.5
 41
75.06
 71
     5
 72
     5
  1
{\C7;SR94外形寸法図}
  7
STYLE1
 73
     1
 44
1.0
  0
ELLIPSE
  5
C7
330
2
100
AcDbEntity
  8
画層1
  6
ByBlock
 62
     0
370
    -2
100
AcDbEllipse
 10
64.0
 20
177.0
 30
0.0
 11
-4.5
 21
0.0
 31
0.0
210
0.0
220
0.0
230
1.0
 40
0.69
 41
0.0
 42
6.283185307179586
  0
ELLIPSE
  5
C8
330
2
100
AcDbEntity
  8
画層1
  6
ByBlock
 62
     0
370
    -2
100
AcDbEllipse
 10
74.0
 20
177.0
 30
0.0
 11
-4.5
 21
0.0
 31
0.0
210
0.0
220
0.0
230
1.0
 40
0.69
 41
0.0
 42
6.283185307179586
  0
ELLIPSE
  5
C9
330
2
100
AcDbEntity
  8
画層1
  6
ByBlock
 62
     0
370
    -2
100
AcDbEllipse
 10
94.0
 20
177.0
 30
0.0
 11
-4.5
 21
0.0
 31
0.0
210
0.0
220
0.0
230
1.0
 40
0.69
 41
0.0
 42
6.283185307179586
  0
ELLIPSE
  5
CA
330
2
100
AcDbEntity
  8
画層1
  6
ByBlock
 62
     0
370
    -2
100
AcDbEllipse
 10
84.0
 20
177.0
 30
0.0
 11
-4.5
 21
0.0
 31
0.0
210
0.0
220
0.0
230
1.0
 40
0.69
 41
0.0
 42
6.283185307179586
  0
LINE
  5
CB
330
2
100
AcDbEntity
  8
画層1
  6
ByBlock
 62
     0
370
    -2
100
AcDbLine
 10
61.5
 20
233.1
 30
0.0
 11
93.0
 21
233.1
 31
0.0
  0
LINE
  5
CC
330
2
100
AcDbEntity
  8
画層1
  6
ByBlock
 62
     0
370
    -2
100
AcDbLine
 10
93.0
 20
220.9
 30
0.0
 11
61.5
 21
220.9
 31
0.0
  0
LINE
  5
CD
330
2
100
AcDbEntity
  8
画層1
  6
ByBlock
 62
     0
370
    -2
100
AcDbLine
 10
63.5
 20
214.1
 30
0.0
 11
91.0
 21
214.1
 31
0.0
  0
LINE
  5
CE
330
2
100
AcDbEntity
  8
画層1
  6
ByBlock
 62
     0
370
    -2
100
AcDbLine
 10
91.0
 20
203.9
 30
0.0
 11
63.5
 21
203.9
 31
0.0
  0
LINE
  5
CF
330
2
100
AcDbEntity
  8
画層1
  6
ByBlock
 62
     0
370
    -2
100
AcDbLine
 10
57.1
 20
184.0
 30
0.0
 11
100.9
 21
184.0
 31
0.0
  0
LINE
  5
D0
330
2
100
AcDbEntity
  8
画層1
  6
ByBlock
 62
     0
370
    -2
100
AcDbLine
 10
57.1
 20
155.0
 30
0.0
 11
100.9
 21
155.0
 31
0.0
  0
HATCH
  5
D1
330
2
100
AcDbEntity
  8
画層1
  6
ByBlock
 62
     0
370
    -2
100
AcDbHatch
 10
0.0
 20
0.0
 30
0.0
210
0.0
220
0.0
230
1.0
  2
SOLID
 70
     1
 71
     0
 91
       10
 92
        5
 93
       10
 72
     3
 10
79.85911741761317
 20
152.1247363737455
 11
-0.982456140350877
 21
0.0
 40
0.6607142857142858
 50
90.0
 51
270.0
 73
     1
 72
     2
 10
79.85911741761317
 20
152.8791223386578
 40
0.1052631578947376
 50
89.99999999999628
 51
269.9999999999956
 73
     0
 72
     2
 10
79.92217545186261
 20
151.6304023873076
 40
1.355450691026426
 50
267.3335335883714
 51
296.4437824908839
 73
     0
 72
     1
 10
80.52578408427981
 20
152.8440346193596
 11
80.66613496147281
 21
153.1598240930438
 72
     2
 10
79.80759013602938
 20
151.5153025250411
 40
1.855141613171803
 50
62.43257811529775
 51
90.5759553231079
 73
     1
 72
     3
 10
79.78894197901666
 20
152.7212276018157
 11
0.9558248242604051
 21
0.0
 40
0.679123193436433
 50
90.0
 51
270.0
 73
     1
 72
     2
 10
79.78894197901666
 20
151.9668416369035
 40
0.1052631578947376
 50
270.0000000000024
 51
450.0000000000031
 73
     0
 72
     2
 10
79.69926826062553
 20
153.693911641439
 40
1.834526149694269
 50
87.1982008190587
 51
115.4216641289816
 73
     0
 72
     1
 10
78.91174899656054
 20
152.0370170754999
 11
78.7363104000693
 21
151.7212276018157
 72
     2
 10
79.78364176434204
 20
153.8198050665611
 40
2.345406225396102
 50
243.4777171338575
 51
271.8441083094922
 73
     1
 97
        0
 92
        7
 72
     0
 73
     1
 93
       12
 10
83.4380647860342
 20
153.335262689535
 10
82.52578408427982
 20
153.335262689535
 10
82.52578408427982
 20
152.6685960228683
 10
81.96438057550791
 20
152.6685960228683
 10
81.96438057550791
 20
153.335262689535
 10
81.05209987375351
 20
153.335262689535
 10
81.05209987375351
 20
151.5107012860262
 10
81.96438057550791
 20
151.5107012860262
 10
81.96438057550791
 20
152.1773679526929
 10
82.52578408427982
 20
152.1773679526929
 10
82.52578408427982
 20
151.5107012860262
 10
83.4380647860342
 20
151.5107012860262
 97
        0
 92
        7
 72
     0
 73
     1
 93
        4
 10
84.63104724217457
 20
153.335262689535
 10
83.71876654042017
 20
153.335262689535
 10
83.71876654042017
 20
151.5107012860262
 10
84.63104724217457
 20
151.5107012860262
 97
        0
 92
        7
 72
     0
 73
     1
 93
       13
 10
87.71876654042017
 20
153.335262689535
 10
86.87666127726229
 20
153.335262689535
 10
86.49069636498158
 20
152.5633328649736
 10
86.17490689129738
 20
153.335262689535
 10
85.1924507509465
 20
153.335262689535
 10
84.87666127726228
 20
151.5107012860262
 10
85.75385425971843
 20
151.5107012860262
 10
85.85911741761316
 20
152.1071925140964
 10
86.17490689129738
 20
151.5107012860262
 10
86.73631040006929
 20
151.5107012860262
 10
87.01701215445527
 20
152.1071925140964
 10
87.15736303164826
 20
151.5107012860262
 10
88.03455601410439
 20
151.5107012860262
 97
        0
 92
        7
 72
     0
 73
     1
 93
        8
 10
90.17490689129738
 20
153.335262689535
 10
89.12227531235002
 20
153.335262689535
 10
88.28017004919209
 20
151.5107012860262
 10
89.1924507509465
 20
151.5107012860262
 10
89.3444975345722
 20
151.8615784790086
 10
89.99946829480615
 20
151.8615784790086
 10
90.17490689129738
 20
151.5107012860262
 10
91.01701215445528
 20
151.5107012860262
 97
        0
 92
       22
 72
     0
 73
     1
 93
        3
 10
89.4813396398354
 20
152.1773679526929
 10
89.64859110182368
 20
152.5633328649736
 10
89.84157355796403
 20
152.1773679526929
 97
        0
 92
        7
 72
     1
 73
     1
 93
        4
 10
92.87666127726229
 20
153.335262689535
 42
0.0
 10
91.26262618954299
 20
153.335262689535
 42
0.0
 10
91.26262618954299
 20
151.5107012860262
 42
0.0
 10
92.87666127726229
 20
151.5107012860262
 42
1.0
 97
        0
 92
       22
 72
     1
 73
     1
 93
        4
 10
92.17490689129737
 20
152.8791223386578
 42
0.0
 10
92.38543320708686
 20
152.8791223386578
 42
-1.0
 10
92.38543320708686
 20
151.9668416369035
 42
0.0
 10
92.17490689129737
 20
151.9668416369035
 42
0.0
 97
        0
 92
        7
 72
     0
 73
     1
 93
       12
 10
94.94683671585878
 20
152.1773679526929
 10
95.75385425971843
 20
152.1773679526929
 10
95.75385425971843
 20
152.6685960228683
 10
94.94683671585878
 20
152.6685960228683
 10
94.94683671585878
 20
152.9492977772543
 10
95.89420513691141
 20
152.9492977772543
 10
95.89420513691141
 20
153.335262689535
 10
93.99946829480615
 20
153.335262689535
 10
93.99946829480615
 20
151.5107012860262
 10
95.89420513691141
 20
151.5107012860262
 10
95.89420513691141
 20
151.8966661983069
 10
94.94683671585878
 20
151.8966661983069
 97
        0
 92
        7
 72
     0
 73
     1
 93
       10
 10
97.05209987375353
 20
152.3528065491841
 10
97.8942051369114
 20
151.5107012860262
 10
98.87666127726228
 20
151.5107012860262
 10
98.87666127726228
 20
153.335262689535
 10
97.96438057550791
 20
153.335262689535
 10
97.96438057550794
 20
152.5633328649736
 10
97.19245075094651
 20
153.335262689535
 10
96.13981917199915
 20
153.335262689535
 10
96.13981917199915
 20
151.5107012860262
 10
97.05209987375353
 20
151.5107012860262
 97
        0
 75
     0
 76
     1
 47
0.31
 98
       10
 10
80.06126844324354
 20
152.2001159451965
 10
81.35919050096186
 20
152.3497375568637
 10
84.40431543506944
 20
152.2998636655999
 10
85.45263711480334
 20
152.1502420539326
 10
88.84720253198944
 20
152.1003681626686
 10
88.84720253198944
 20
152.1003681626686
 10
91.69264714065965
 20
152.0504943335293
 10
91.69264714065965
 20
152.0504943335293
 10
94.2884912560963
 20
152.1003681626686
 10
96.58481494100151
 20
152.1003681626686
  0
LINE
  5
D2
330
2
100
AcDbEntity
  8
画層1
  6
ByBlock
 62
     0
370
    -2
100
AcDbLine
 10
57.6
 20
241.9
 30
0.0
 11
100.4
 21
241.9
 31
0.0
  0
LINE
  5
D3
330
2
100
AcDbEntity
  8
画層1
  6
ByBlock
 62
     0
370
    -2
100
AcDbLine
 10
100.4
 20
150.1
 30
0.0
 11
57.6
 21
150.1
 31
0.0
  0
LINE
  5
D4
330
2
100
AcDbEntity
  8
画層1
  6
ByBlock
 62
     0
370
    -2
100
AcDbLine
 10
100.5
 20
149.9
 30
0.0
 11
57.5
 21
149.9
 31
0.0
  0
LINE
  5
D5
330
2
100
AcDbEntity
  8
画層1
  6
ByBlock
 62
     0
370
    -2
100
AcDbLine
 10
57.5
 20
242.1
 30
0.0
 11
100.5
 21
242.1
 31
0.0
  0
LINE
  5
D6
330
2
100
AcDbEntity
  8
画層1
  6
ByBlock
 62
     0
370
    -2
100
AcDbLine
 10
56.1
 20
243.9
 30
0.0
 11
101.9
 21
243.9
 31
0.0
  0
LINE
  5
D7
330
2
100
AcDbEntity
  8
画層1
  6
ByBlock
 62
     0
370
    -2
100
AcDbLine
 10
56.1
 20
244.0
 30
0.0
 11
101.9
 21
244.0
 31
0.0
  0
DIMENSION
  5
D8
330
2
100
AcDbEntity
  8
画層1
  6
ByBlock
 62
     0
370
    -2
100
AcDbDimension
  2
*D2
 10
103.0
 20
251.0
 30
0.0
 11
79.0
 21
252.88
 31
0.0
 71
     5
 42
48.0
  3
STANDARD_WS
100
AcDbAlignedDimension
 13
55.0
 23
242.9
 33
0.0
 14
103.0
 24
242.9
 34
0.0
100
AcDbRotatedDimension
1001
ACAD
1000
DSTYLE
1002
{
1070
   344
1005
32
1070
   343
1005
32
1070
   340
1005
23
1002
}
  0
LINE
  5
E5
330
2
100
AcDbEntity
  8
画層1
  6
ByBlock
 62
     0
370
    -2
100
AcDbLine
 10
53.0
 20
196.0
 30
0.0
 11
105.0
 21
196.0
 31
0.0
  0
LINE
  5
E6
330
2
100
AcDbEntity
  8
画層1
  6
ByBlock
 62
     0
370
    -2
100
AcDbLine
 10
57.1
 20
150.6
 30
0.0
 11
57.1
 21
241.4
 31
0.0
  0
LINE
  5
E7
330
2
100
AcDbEntity
  8
画層1
  6
ByBlock
 62
     0
370
    -2
100
AcDbLine
 10
56.9
 20
150.5
 30
0.0
 11
56.9
 21
241.5
 31
0.0
  0
LINE
  5
E8
330
2
100
AcDbEntity
  8
画層1
  6
ByBlock
 62
     0
370
    -2
100
AcDbLine
 10
55.1
 20
149.1
 30
0.0
 11
55.1
 21
242.9
 31
0.0
  0
LINE
  5
E9
330
2
100
AcDbEntity
  8
画層1
  6
ByBlock
 62
     0
370
    -2
100
AcDbLine
 10
55.0
 20
149.1
 30
0.0
 11
55.0
 21
242.9
 31
0.0
  0
MTEXT
  5
EA
330
2
100
AcDbEntity
  8
画層1
  6
ByBlock
 62
     0
370
    -2
100
AcDbMText
 10
58.91
 20
153.48
 30
0.0
 40
2.0
 41
11.19
 71
     1
 72
     5
  1
{\fＭＳ Ｐゴシック|b0|i0|c128|p50;ＳＲ９４}
  7
STYLE1
 73
     1
 44
1.0
  0
ARC
  5
EB
330
2
100
AcDbEntity
  8
画層1
  6
ByBlock
 62
     0
370
    -2
100
AcDbCircle
 10
57.6
 20
150.6
 30
0.0
 40
0.5
100
AcDbArc
 50
180.0
 51
270.0
  0
ARC
  5
EC
330
2
100
AcDbEntity
  8
画層1
  6
ByBlock
 62
     0
370
    -2
100
AcDbCircle
 10
57.5
 20
150.5
 30
0.0
 40
0.6
100
AcDbArc
 50
180.0
 51
270.0
  0
HATCH
  5
ED
330
2
100
AcDbEntity
  8
画層1
  6
ByBlock
 62
     0
370
    -2
100
AcDbHatch
 10
0.0
 20
0.0
 30
0.0
210
0.0
220
0.0
230
1.0
  2
SOLID
 70
     1
 71
     0
 91
        1
 92
        5
 93
        5
 72
     3
 10
64.00000000000005
 20
176.9937961216368
 11
-3.179765130984644
 21
0.0
 40
0.5400000000000005
 50
102.617091557461
 51
437.3829084425389
 73
     1
 72
     1
 10
63.6184281842819
 20
175.2891307076314
 11
63.6184281842819
 21
175.7978786302422
 72
     3
 10
64.00000000000005
 20
176.9937961216368
 11
-2.671002710027102
 21
0.0
 40
0.4523809523809535
 50
-72.30409342292334
 51
209.8520372589859
 73
     0
 72
     1
 10
65.65347786811208
 20
176.0448451026105
 11
65.14471544715452
 21
176.8030102137777
 72
     1
 10
65.14471544715454
 20
176.8030102137777
 11
64.38157181571821
 21
175.2891307076314
 97
        0
 75
     0
 76
     1
 47
0.05
 98
        1
 10
64.4786269588065
 20
178.4379671463806
  0
HATCH
  5
EE
330
2
100
AcDbEntity
  8
画層1
  6
ByBlock
 62
     0
370
    -2
100
AcDbHatch
 10
0.0
 20
0.0
 30
0.0
210
0.0
220
0.0
230
1.0
  2
SOLID
 70
     1
 71
     0
 91
        1
 92
        7
 72
     1
 73
     1
 93
        6
 10
75.3970823545304
 20
178.0051282735235
 42
0.5575365158350519
 10
75.29097274826156
 20
178.1768172229994
 42
0.0
 10
72.7090272517386
 20
178.1768172229994
 42
0.5575365158350514
 10
72.60291764546972
 20
178.0051282735235
 42
0.0
 10
73.89389039373122
 20
175.4231827770006
 42
0.6180339887498948
 10
74.10610960626894
 20
175.4231827770006
 42
0.0
 97
        0
 75
     0
 76
     1
 47
0.07
 98
        1
 10
74.21376906601716
 20
177.3652256241653
  0
MTEXT
  5
EF
330
2
100
AcDbEntity
  8
画層1
  6
ByBlock
 62
     0
370
    -2
100
AcDbMText
 10
68.51
 20
191.16
 30
0.0
 40
1.6
 41
3.82
 71
     1
 72
     5
  1
EV2
  7
STYLE1
 73
     1
 44
1.0
  0
LINE
  5
F0
330
2
100
AcDbEntity
  8
画層1
  6
ByBlock
 62
     0
370
    -2
100
AcDbLine
 10
71.5
 20
187.4
 30
0.0
 11
68.5
 21
187.4
 31
0.0
  0
LINE
  5
F1
330
2
100
AcDbEntity
  8
画層1
  6
ByBlock
 62
     0
370
    -2
100
AcDbLine
 10
68.5
 20
188.6
 30
0.0
 11
71.5
 21
188.6
 31
0.0
  0
LINE
  5
F2
330
2
100
AcDbEntity
  8
画層1
  6
ByBlock
 62
     0
370
    -2
100
AcDbLine
 10
65.5
 20
188.6
 30
0.0
 11
65.5
 21
187.4
 31
0.0
  0
LINE
  5
F3
330
2
100
AcDbEntity
  8
画層1
  6
ByBlock
 62
     0
370
    -2
100
AcDbLine
 10
62.5
 20
187.4
 30
0.0
 11
62.5
 21
188.6
 31
0.0
  0
LINE
  5
F4
330
2
100
AcDbEntity
  8
画層1
  6
ByBlock
 62
     0
370
    -2
100
AcDbLine
 10
65.5
 20
187.4
 30
0.0
 11
62.5
 21
187.4
 31
0.0
  0
LINE
  5
F5
330
2
100
AcDbEntity
  8
画層1
  6
ByBlock
 62
     0
370
    -2
100
AcDbLine
 10
62.5
 20
188.6
 30
0.0
 11
65.5
 21
188.6
 31
0.0
  0
LINE
  5
F6
330
2
100
AcDbEntity
  8
画層1
  6
ByBlock
 62
     0
370
    -2
100
AcDbLine
 10
68.5
 20
187.4
 30
0.0
 11
68.5
 21
188.6
 31
0.0
  0
MTEXT
  5
F7
330
2
100
AcDbEntity
  8
画層1
  6
ByBlock
 62
     0
370
    -2
100
AcDbMText
 10
62.76
 20
191.17
 30
0.0
 40
1.6
 41
3.71
 71
     1
 72
     5
  1
EV1
  7
STYLE1
 73
     1
 44
1.0
  0
LINE
  5
F8
330
2
100
AcDbEntity
  8
画層1
  6
ByBlock
 62
     0
370
    -2
100
AcDbLine
 10
71.5
 20
188.6
 30
0.0
 11
71.5
 21
187.4
 31
0.0
  0
MTEXT
  5
F9
330
2
100
AcDbEntity
  8
画層1
  6
ByBlock
 62
     0
370
    -2
100
AcDbMText
 10
64.84
 20
217.59
 30
0.0
 40
2.5
 41
6.9
 71
     1
 72
     5
  1
\fＭＳ Ｐゴシック|b0|i0|c128|p50;ＳＶ
  7
STYLE1
 73
     1
 44
1.0
  0
ARC
  5
FA
330
2
100
AcDbEntity
  8
画層1
  6
ByBlock
 62
     0
370
    -2
100
AcDbCircle
 10
63.5
 20
213.1
 30
0.0
 40
1.0
100
AcDbArc
 50
90.0
 51
180.0
  0
ARC
  5
FB
330
2
100
AcDbEntity
  8
画層1
  6
ByBlock
 62
     0
370
    -2
100
AcDbCircle
 10
63.5
 20
204.9
 30
0.0
 40
1.0
100
AcDbArc
 50
180.0
 51
270.0
  0
MTEXT
  5
FC
330
2
100
AcDbEntity
  8
画層1
  6
ByBlock
 62
     0
370
    -2
100
AcDbMText
 10
62.12
 20
199.19
 30
0.0
 40
1.6
 41
5.3
 71
     1
 72
     5
  1
OUT1
  7
STYLE1
 73
     1
 44
1.0
  0
LINE
  5
FD
330
2
100
AcDbEntity
  8
画層1
  6
ByBlock
 62
     0
370
    -2
100
AcDbLine
 10
62.5
 20
204.9
 30
0.0
 11
62.5
 21
213.1
 31
0.0
  0
LINE
  5
FE
330
2
100
AcDbEntity
  8
画層1
  6
ByBlock
 62
     0
370
    -2
100
AcDbLine
 10
71.5
 20
195.4
 30
0.0
 11
68.5
 21
195.4
 31
0.0
  0
LINE
  5
FF
330
2
100
AcDbEntity
  8
画層1
  6
ByBlock
 62
     0
370
    -2
100
AcDbLine
 10
68.5
 20
196.6
 30
0.0
 11
71.5
 21
196.6
 31
0.0
  0
MTEXT
  5
100
330
2
100
AcDbEntity
  8
画層1
  6
ByBlock
 62
     0
370
    -2
100
AcDbMText
 10
68.06
 20
199.19
 30
0.0
 40
1.6
 41
5.36
 71
     1
 72
     5
  1
OUT2
  7
STYLE1
 73
     1
 44
1.0
  0
LINE
  5
101
330
2
100
AcDbEntity
  8
画層1
  6
ByBlock
 62
     0
370
    -2
100
AcDbLine
 10
65.5
 20
196.6
 30
0.0
 11
65.5
 21
195.4
 31
0.0
  0
LINE
  5
102
330
2
100
AcDbEntity
  8
画層1
  6
ByBlock
 62
     0
370
    -2
100
AcDbLine
 10
62.5
 20
195.4
 30
0.0
 11
62.5
 21
196.6
 31
0.0
  0
LINE
  5
103
330
2
100
AcDbEntity
  8
画層1
  6
ByBlock
 62
     0
370
    -2
100
AcDbLine
 10
62.5
 20
196.6
 30
0.0
 11
65.5
 21
196.6
 31
0.0
  0
LINE
  5
104
330
2
100
AcDbEntity
  8
画層1
  6
ByBlock
 62
     0
370
    -2
100
AcDbLine
 10
65.5
 20
195.4
 30
0.0
 11
62.5
 21
195.4
 31
0.0
  0
LINE
  5
105
330
2
100
AcDbEntity
  8
画層1
  6
ByBlock
 62
     0
370
    -2
100
AcDbLine
 10
68.5
 20
195.4
 30
0.0
 11
68.5
 21
196.6
 31
0.0
  0
LINE
  5
106
330
2
100
AcDbEntity
  8
画層1
  6
ByBlock
 62
     0
370
    -2
100
AcDbLine
 10
71.5
 20
196.6
 30
0.0
 11
71.5
 21
195.4
 31
0.0
  0
LINE
  5
107
330
2
100
AcDbEntity
  8
画層1
  6
ByBlock
 62
     0
370
    -2
100
AcDbLine
 10
60.5
 20
221.9
 30
0.0
 11
60.5
 21
232.1
 31
0.0
  0
ARC
  5
108
330
2
100
AcDbEntity
  8
画層1
  6
ByBlock
 62
     0
370
    -2
100
AcDbCircle
 10
61.5
 20
221.9
 30
0.0
 40
1.0
100
AcDbArc
 50
180.0
 51
270.0
  0
ARC
  5
109
330
2
100
AcDbEntity
  8
画層1
  6
ByBlock
 62
     0
370
    -2
100
AcDbCircle
 10
61.5
 20
232.1
 30
0.0
 40
1.0
100
AcDbArc
 50
90.0
 51
180.0
  0
MTEXT
  5
10A
330
2
100
AcDbEntity
  8
画層1
  6
ByBlock
 62
     0
370
    -2
100
AcDbMText
 10
64.66
 20
236.6
 30
0.0
 40
2.5
 41
6.05
 71
     1
 72
     5
  1
\fＭＳ Ｐゴシック|b0|i0|c128|p50;ＰＶ
  7
STYLE1
 73
     1
 44
1.0
  0
LINE
  5
10B
330
2
100
AcDbEntity
  8
画層1
  6
ByBlock
 62
     0
370
    -2
100
AcDbLine
 10
56.7
 20
246.45
 30
0.0
 11
59.17
 21
246.45
 31
0.0
  0
LINE
  5
10C
330
2
100
AcDbEntity
  8
画層1
  6
ByBlock
 62
     0
370
    -2
100
AcDbLine
 10
59.17
 20
244.35
 30
0.0
 11
56.7
 21
244.35
 31
0.0
  0
LINE
  5
10D
330
2
100
AcDbEntity
  8
画層1
  6
ByBlock
 62
     0
370
    -2
100
AcDbLine
 10
59.17
 20
245.05
 30
0.0
 11
56.7
 21
245.05
 31
0.0
  0
LINE
  5
10E
330
2
100
AcDbEntity
  8
画層1
  6
ByBlock
 62
     0
370
    -2
100
AcDbLine
 10
59.17
 20
244.7
 30
0.0
 11
56.7
 21
244.7
 31
0.0
  0
LINE
  5
10F
330
2
100
AcDbEntity
  8
画層1
  6
ByBlock
 62
     0
370
    -2
100
AcDbLine
 10
59.17
 20
245.4
 30
0.0
 11
56.7
 21
245.4
 31
0.0
  0
LINE
  5
110
330
2
100
AcDbEntity
  8
画層1
  6
ByBlock
 62
     0
370
    -2
100
AcDbLine
 10
59.17
 20
245.75
 30
0.0
 11
56.7
 21
245.75
 31
0.0
  0
LINE
  5
111
330
2
100
AcDbEntity
  8
画層1
  6
ByBlock
 62
     0
370
    -2
100
AcDbLine
 10
59.17
 20
246.1
 30
0.0
 11
56.7
 21
246.1
 31
0.0
  0
ARC
  5
112
330
2
100
AcDbEntity
  8
画層1
  6
ByBlock
 62
     0
370
    -2
100
AcDbCircle
 10
57.6
 20
241.4
 30
0.0
 40
0.5
100
AcDbArc
 50
90.0
 51
180.0
  0
ARC
  5
113
330
2
100
AcDbEntity
  8
画層1
  6
ByBlock
 62
     0
370
    -2
100
AcDbCircle
 10
57.5
 20
241.5
 30
0.0
 40
0.6
100
AcDbArc
 50
90.0
 51
180.0
  0
ARC
  5
114
330
2
100
AcDbEntity
  8
画層1
  6
ByBlock
 62
     0
370
    -2
100
AcDbCircle
 10
56.1
 20
242.9
 30
0.0
 40
1.0
100
AcDbArc
 50
90.0
 51
180.0
  0
LINE
  5
115
330
2
100
AcDbEntity
  8
画層1
  6
ByBlock
 62
     0
370
    -2
100
AcDbLine
 10
58.0
 20
244.0
 30
0.0
 11
58.0
 21
243.9
 31
0.0
  0
ARC
  5
116
330
2
100
AcDbEntity
  8
画層1
  6
ByBlock
 62
     0
370
    -2
100
AcDbCircle
 10
56.1
 20
242.9
 30
0.0
 40
1.1
100
AcDbArc
 50
90.0
 51
180.0
  0
LINE
  5
117
330
2
100
AcDbEntity
  8
画層1
  6
ByBlock
 62
     0
370
    -2
100
AcDbLine
 10
56.7
 20
246.45
 30
0.0
 11
56.7
 21
244.0
 31
0.0
  0
LINE
  5
118
330
2
100
AcDbEntity
  8
画層1
  6
ByBlock
 62
     0
370
    -2
100
AcDbLine
 10
60.0
 20
244.0
 30
0.0
 11
60.0
 21
243.9
 31
0.0
  0
LINE
  5
119
330
2
100
AcDbEntity
  8
画層1
  6
ByBlock
 62
     0
370
    -2
100
AcDbLine
 10
59.17
 20
246.45
 30
0.0
 11
59.17
 21
244.0
 31
0.0
  0
LINE
  5
11A
330
2
100
AcDbEntity
  8
画層1
  6
ByBlock
 62
     0
370
    -2
100
AcDbLine
 10
70.0
 20
244.0
 30
0.0
 11
70.0
 21
243.9
 31
0.0
  0
LINE
  5
11B
330
2
100
AcDbEntity
  8
画層1
  6
ByBlock
 62
     0
370
    -2
100
AcDbLine
 10
72.0
 20
244.0
 30
0.0
 11
72.0
 21
243.9
 31
0.0
  0
LINE
  5
11C
330
2
100
AcDbEntity
  8
画層1
  6
ByBlock
 62
     0
370
    -2
100
AcDbLine
 10
130.52
 20
244.13
 30
0.0
 11
130.52
 21
196.13
 31
0.0
  0
LINE
  5
11D
330
2
100
AcDbEntity
  8
画層1
  6
ByBlock
 62
     0
370
    -2
100
AcDbLine
 10
138.62
 20
241.93
 30
0.0
 11
138.62
 21
150.33
 31
0.0
  0
ARC
  5
11E
330
2
100
AcDbEntity
  8
画層1
  6
ByBlock
 62
     0
370
    -2
100
AcDbCircle
 10
160.26
 20
271.93
 30
0.0
 40
32.0
100
AcDbArc
 50
239.75
 51
269.74
  0
ARC
  5
11F
330
2
100
AcDbEntity
  8
画層1
  6
ByBlock
 62
     0
370
    -2
100
AcDbCircle
 10
160.47
 20
273.33
 30
0.0
 40
31.40248406519245
100
AcDbArc
 50
238.41
 51
269.37
  0
LINE
  5
120
330
2
100
AcDbEntity
  8
画層1
  6
ByBlock
 62
     0
370
    -2
100
AcDbLine
 10
147.52
 20
241.93
 30
0.0
 11
147.52
 21
239.73
 31
0.0
  0
LINE
  5
121
330
2
100
AcDbEntity
  8
画層1
  6
ByBlock
 62
     0
370
    -2
100
AcDbLine
 10
169.02
 20
238.43
 30
0.0
 11
166.52
 21
241.93
 31
0.0
  0
LINE
  5
122
330
2
100
AcDbEntity
  8
画層1
  6
ByBlock
 62
     0
370
    -2
100
AcDbLine
 10
169.02
 20
241.93
 30
0.0
 11
169.02
 21
238.43
 31
0.0
  0
LINE
  5
123
330
2
100
AcDbEntity
  8
画層1
  6
ByBlock
 62
     0
370
    -2
100
AcDbLine
 10
127.52
 20
242.83
 30
0.0
 11
127.52
 21
149.43
 31
0.0
  0
LINE
  5
124
330
2
100
AcDbEntity
  8
画層1
  6
ByBlock
 62
     0
370
    -2
100
AcDbLine
 10
100.9
 20
241.4
 30
0.0
 11
100.9
 21
150.6
 31
0.0
  0
LINE
  5
125
330
2
100
AcDbEntity
  8
画層1
  6
ByBlock
 62
     0
370
    -2
100
AcDbLine
 10
101.1
 20
241.5
 30
0.0
 11
101.1
 21
150.5
 31
0.0
  0
LINE
  5
126
330
2
100
AcDbEntity
  8
画層1
  6
ByBlock
 62
     0
370
    -2
100
AcDbLine
 10
102.9
 20
242.9
 30
0.0
 11
102.9
 21
149.1
 31
0.0
  0
LINE
  5
127
330
2
100
AcDbEntity
  8
画層1
  6
ByBlock
 62
     0
370
    -2
100
AcDbLine
 10
103.0
 20
242.9
 30
0.0
 11
103.0
 21
149.1
 31
0.0
  0
LINE
  5
128
330
2
100
AcDbEntity
  8
画層1
  6
ByBlock
 62
     0
370
    -2
100
AcDbLine
 10
161.22
 20
238.33
 30
0.0
 11
138.62
 21
237.73
 31
0.0
  0
LINE
  5
129
330
2
100
AcDbEntity
  8
画層1
  6
ByBlock
 62
     0
370
    -2
100
AcDbLine
 10
138.62
 20
150.33
 30
0.0
 11
149.13
 21
150.33
 31
0.0
  0
LINE
  5
12A
330
2
100
AcDbEntity
  8
画層1
  6
ByBlock
 62
     0
370
    -2
100
AcDbLine
 10
161.22
 20
153.93
 30
0.0
 11
138.62
 21
154.53
 31
0.0
  0
LINE
  5
12B
330
2
100
AcDbEntity
  8
画層1
  6
ByBlock
 62
     0
370
    -2
100
AcDbLine
 10
141.52
 20
157.13
 30
0.0
 11
141.52
 21
235.13
 31
0.0
  0
ARC
  5
12C
330
2
100
AcDbEntity
  8
画層1
  6
ByBlock
 62
     0
370
    -2
100
AcDbCircle
 10
100.4
 20
150.6
 30
0.0
 40
0.5
100
AcDbArc
 50
270.0
 51
0.0
  0
ARC
  5
12D
330
2
100
AcDbEntity
  8
画層1
  6
ByBlock
 62
     0
370
    -2
100
AcDbCircle
 10
100.5
 20
150.5
 30
0.0
 40
0.6
100
AcDbArc
 50
270.0
 51
0.0
  0
LINE
  5
12E
330
2
100
AcDbEntity
  8
画層1
  6
ByBlock
 62
     0
370
    -2
100
AcDbLine
 10
92.5
 20
188.6
 30
0.0
 11
95.5
 21
188.6
 31
0.0
  0
LINE
  5
12F
330
2
100
AcDbEntity
  8
画層1
  6
ByBlock
 62
     0
370
    -2
100
AcDbLine
 10
95.5
 20
187.4
 30
0.0
 11
92.5
 21
187.4
 31
0.0
  0
MTEXT
  5
130
330
2
100
AcDbEntity
  8
画層1
  6
ByBlock
 62
     0
370
    -2
100
AcDbMText
 10
90.93
 20
191.16
 30
0.0
 40
1.6
 41
4.67
 71
     1
 72
     5
  1
SB/COM
  7
STYLE1
 73
     1
 44
1.0
  0
MTEXT
  5
131
330
2
100
AcDbEntity
  8
画層1
  6
ByBlock
 62
     0
370
    -2
100
AcDbMText
 10
92.17
 20
178.01
 30
0.0
 40
2.2
 41
6.33
 71
     1
 72
     5
  1
ENT
  7
STYLE1
 73
     1
 44
1.0
  0
HATCH
  5
132
330
2
100
AcDbEntity
  8
画層1
  6
ByBlock
 62
     0
370
    -2
100
AcDbHatch
 10
0.0
 20
0.0
 30
0.0
210
0.0
220
0.0
230
1.0
  2
SOLID
 70
     1
 71
     0
 91
        1
 92
        7
 72
     1
 73
     1
 93
        6
 10
85.39708235453042
 20
175.9948717264764
 42
-0.5575365158350519
 10
85.29097274826156
 20
175.8231827770005
 42
0.0
 10
82.7090272517386
 20
175.8231827770005
 42
-0.5575365158350514
 10
82.60291764546972
 20
175.9948717264764
 42
0.0
 10
83.89389039373122
 20
178.5768172229994
 42
-0.6180339887498948
 10
84.10610960626897
 20
178.5768172229994
 42
0.0
 97
        0
 75
     0
 76
     1
 47
0.07
 98
        1
 10
84.21376906601716
 20
176.6347743758347
  0
MTEXT
  5
133
330
2
100
AcDbEntity
  8
画層1
  6
ByBlock
 62
     0
370
    -2
100
AcDbMText
 10
86.49
 20
191.16
 30
0.0
 40
1.6
 41
4.67
 71
     1
 72
     5
  1
MAN
  7
STYLE1
 73
     1
 44
1.0
  0
LINE
  5
134
330
2
100
AcDbEntity
  8
画層1
  6
ByBlock
 62
     0
370
    -2
100
AcDbLine
 10
86.5
 20
188.6
 30
0.0
 11
89.5
 21
188.6
 31
0.0
  0
LINE
  5
135
330
2
100
AcDbEntity
  8
画層1
  6
ByBlock
 62
     0
370
    -2
100
AcDbLine
 10
89.5
 20
187.4
 30
0.0
 11
86.5
 21
187.4
 31
0.0
  0
LINE
  5
136
330
2
100
AcDbEntity
  8
画層1
  6
ByBlock
 62
     0
370
    -2
100
AcDbLine
 10
80.5
 20
188.6
 30
0.0
 11
83.5
 21
188.6
 31
0.0
  0
LINE
  5
137
330
2
100
AcDbEntity
  8
画層1
  6
ByBlock
 62
     0
370
    -2
100
AcDbLine
 10
83.5
 20
187.4
 30
0.0
 11
80.5
 21
187.4
 31
0.0
  0
LINE
  5
138
330
2
100
AcDbEntity
  8
画層1
  6
ByBlock
 62
     0
370
    -2
100
AcDbLine
 10
80.5
 20
187.4
 30
0.0
 11
80.5
 21
188.6
 31
0.0
  0
LINE
  5
139
330
2
100
AcDbEntity
  8
画層1
  6
ByBlock
 62
     0
370
    -2
100
AcDbLine
 10
86.5
 20
187.4
 30
0.0
 11
86.5
 21
188.6
 31
0.0
  0
LINE
  5
13A
330
2
100
AcDbEntity
  8
画層1
  6
ByBlock
 62
     0
370
    -2
100
AcDbLine
 10
83.5
 20
188.6
 30
0.0
 11
83.5
 21
187.4
 31
0.0
  0
MTEXT
  5
13B
330
2
100
AcDbEntity
  8
画層1
  6
ByBlock
 62
     0
370
    -2
100
AcDbMText
 10
80.99
 20
191.18
 30
0.0
 40
1.6
 41
3.09
 71
     1
 72
     5
  1
AT
  7
STYLE1
 73
     1
 44
1.0
  0
LINE
  5
13C
330
2
100
AcDbEntity
  8
画層1
  6
ByBlock
 62
     0
370
    -2
100
AcDbLine
 10
89.5
 20
188.6
 30
0.0
 11
89.5
 21
187.4
 31
0.0
  0
LINE
  5
13D
330
2
100
AcDbEntity
  8
画層1
  6
ByBlock
 62
     0
370
    -2
100
AcDbLine
 10
92.5
 20
187.4
 30
0.0
 11
92.5
 21
188.6
 31
0.0
  0
LINE
  5
13E
330
2
100
AcDbEntity
  8
画層1
  6
ByBlock
 62
     0
370
    -2
100
AcDbLine
 10
95.5
 20
188.6
 30
0.0
 11
95.5
 21
187.4
 31
0.0
  0
LINE
  5
13F
330
2
100
AcDbEntity
  8
画層1
  6
ByBlock
 62
     0
370
    -2
100
AcDbLine
 10
139.12
 20
148.53
 30
0.0
 11
140.32
 21
148.93
 31
0.0
  0
LINE
  5
140
330
2
100
AcDbEntity
  8
画層1
  6
ByBlock
 62
     0
370
    -2
100
AcDbLine
 10
138.62
 20
150.53
 30
0.0
 11
138.52
 21
150.53
 31
0.0
  0
ARC
  5
141
330
2
100
AcDbEntity
  8
画層1
  6
ByBlock
 62
     0
370
    -2
100
AcDbCircle
 10
142.52
 20
157.13
 30
0.0
 40
1.0
100
AcDbArc
 50
180.0
 51
270.0
  0
HATCH
  5
142
330
2
100
AcDbEntity
  8
画層1
  6
ByBlock
 62
     0
370
    -2
100
AcDbHatch
 10
0.0
 20
0.0
 30
0.0
210
0.0
220
0.0
230
1.0
  2
SOLID
 70
     1
 71
     0
 91
        3
 92
        7
 72
     1
 73
     1
 93
        2
 10
94.47891942484105
 20
217.1075753064965
 42
1.0
 10
92.90812101129816
 20
217.1075753064965
 42
1.0
 97
        0
 92
       22
 72
     1
 73
     1
 93
        2
 10
93.28085242204023
 20
217.1075753064965
 42
-1.0
 10
94.10618801409899
 20
217.1075753064965
 42
-1.0
 97
        0
 92
        7
 72
     1
 73
     1
 93
        4
 10
97.9172869839197
 20
216.9408144825624
 42
0.0
 10
97.9172869839197
 20
217.7433481050114
 42
1.533941497875937
 10
97.9172869839197
 20
213.0905926785383
 42
0.0
 10
97.9172869839197
 20
213.8931263009872
 42
-1.878800399703972
 97
        0
 75
     0
 76
     1
 47
0.01
 98
        3
 10
93.78678946913126
 20
216.5884129164939
 10
93.78678946913126
 20
216.5884129164939
 10
94.62621272868776
 20
215.190668632952
  0
LINE
  5
143
330
2
100
AcDbEntity
  8
画層1
  6
ByBlock
 62
     0
370
    -2
100
AcDbLine
 10
92.0
 20
213.1
 30
0.0
 11
92.0
 21
204.9
 31
0.0
  0
ARC
  5
144
330
2
100
AcDbEntity
  8
画層1
  6
ByBlock
 62
     0
370
    -2
100
AcDbCircle
 10
91.0
 20
204.9
 30
0.0
 40
1.0
100
AcDbArc
 50
270.0
 51
0.0
  0
ARC
  5
145
330
2
100
AcDbEntity
  8
画層1
  6
ByBlock
 62
     0
370
    -2
100
AcDbCircle
 10
91.0
 20
213.1
 30
0.0
 40
1.0
100
AcDbArc
 50
0.0
 51
90.0
  0
LINE
  5
146
330
2
100
AcDbEntity
  8
画層1
  6
ByBlock
 62
     0
370
    -2
100
AcDbLine
 10
94.0
 20
232.1
 30
0.0
 11
94.0
 21
221.9
 31
0.0
  0
ARC
  5
147
330
2
100
AcDbEntity
  8
画層1
  6
ByBlock
 62
     0
370
    -2
100
AcDbCircle
 10
93.0
 20
221.9
 30
0.0
 40
1.0
100
AcDbArc
 50
270.0
 51
0.0
  0
ARC
  5
148
330
2
100
AcDbEntity
  8
画層1
  6
ByBlock
 62
     0
370
    -2
100
AcDbCircle
 10
93.0
 20
232.1
 30
0.0
 40
1.0
100
AcDbArc
 50
0.0
 51
90.0
  0
ARC
  5
149
330
2
100
AcDbEntity
  8
画層1
  6
ByBlock
 62
     0
370
    -2
100
AcDbCircle
 10
142.52
 20
235.13
 30
0.0
 40
1.0
100
AcDbArc
 50
90.0
 51
180.0
  0
LINE
  5
14A
330
2
100
AcDbEntity
  8
画層1
  6
ByBlock
 62
     0
370
    -2
100
AcDbLine
 10
156.72
 20
218.43
 30
0.0
 11
156.72
 21
157.43
 31
0.0
  0
LINE
  5
14B
330
2
100
AcDbEntity
  8
画層1
  6
ByBlock
 62
     0
370
    -2
100
AcDbLine
 10
206.49
 20
153.83
 30
0.0
 11
169.02
 21
153.83
 31
0.0
  0
LINE
  5
14C
330
2
100
AcDbEntity
  8
画層1
  6
ByBlock
 62
     0
370
    -2
100
AcDbLine
 10
148.22
 20
187.03
 30
0.0
 11
148.22
 21
168.63
 31
0.0
  0
LINE
  5
14D
330
2
100
AcDbEntity
  8
画層1
  6
ByBlock
 62
     0
370
    -2
100
AcDbLine
 10
152.82
 20
187.03
 30
0.0
 11
152.82
 21
168.63
 31
0.0
  0
LINE
  5
14E
330
2
100
AcDbEntity
  8
画層1
  6
ByBlock
 62
     0
370
    -2
100
AcDbLine
 10
160.12
 20
152.33
 30
0.0
 11
161.22
 21
152.33
 31
0.0
  0
LINE
  5
14F
330
2
100
AcDbEntity
  8
画層1
  6
ByBlock
 62
     0
370
    -2
100
AcDbLine
 10
147.52
 20
152.53
 30
0.0
 11
161.52
 21
152.53
 31
0.0
  0
LINE
  5
150
330
2
100
AcDbEntity
  8
画層1
  6
ByBlock
 62
     0
370
    -2
100
AcDbLine
 10
147.52
 20
150.33
 30
0.0
 11
147.52
 21
152.53
 31
0.0
  0
ARC
  5
151
330
2
100
AcDbEntity
  8
画層1
  6
ByBlock
 62
     0
370
    -2
100
AcDbCircle
 10
157.72
 20
157.43
 30
0.0
 40
1.0
100
AcDbArc
 50
180.0
 51
270.0
  0
ARC
  5
152
330
2
100
AcDbEntity
  8
画層1
  6
ByBlock
 62
     0
370
    -2
100
AcDbCircle
 10
150.52
 20
168.63
 30
0.0
 40
2.299999999999999
100
AcDbArc
 50
180.0
 51
0.0
  0
LINE
  5
153
330
2
100
AcDbEntity
  8
画層1
  6
ByBlock
 62
     0
370
    -2
100
AcDbLine
 10
166.52
 20
150.33
 30
0.0
 11
169.02
 21
153.83
 31
0.0
  0
LINE
  5
154
330
2
100
AcDbEntity
  8
画層1
  6
ByBlock
 62
     0
370
    -2
100
AcDbLine
 10
161.52
 20
152.53
 30
0.0
 11
161.52
 21
152.38
 31
0.0
  0
ARC
  5
155
330
2
100
AcDbEntity
  8
画層1
  6
ByBlock
 62
     0
370
    -2
100
AcDbCircle
 10
161.22
 20
153.13
 30
0.0
 40
0.8000000000000113
100
AcDbArc
 50
270.0
 51
90.0
  0
LINE
  5
156
330
2
100
AcDbEntity
  8
画層1
  6
ByBlock
 62
     0
370
    -2
100
AcDbLine
 10
169.02
 20
153.83
 30
0.0
 11
169.02
 21
150.33
 31
0.0
  0
ARC
  5
157
330
2
100
AcDbEntity
  8
画層1
  6
ByBlock
 62
     0
370
    -2
100
AcDbCircle
 10
150.52
 20
187.03
 30
0.0
 40
2.299999999999999
100
AcDbArc
 50
0.0
 51
180.0
  0
LWPOLYLINE
  5
158
330
2
100
AcDbEntity
  8
画層1
  6
ByBlock
 62
     0
370
    -2
100
AcDbPolyline
 90
        4
 70
     1
 43
0.0
 10
167.02
 20
230.03
 10
189.02
 20
230.03
 10
189.02
 20
228.23
 10
167.02
 20
228.23
  0
LWPOLYLINE
  5
159
330
2
100
AcDbEntity
  8
画層1
  6
ByBlock
 62
     0
370
    -2
100
AcDbPolyline
 90
        4
 70
     1
 43
0.0
 10
167.02
 20
233.33
 10
189.02
 20
233.33
 10
189.02
 20
231.53
 10
167.02
 20
231.53
  0
LWPOLYLINE
  5
15A
330
2
100
AcDbEntity
  8
画層1
  6
ByBlock
 62
     0
370
    -2
100
AcDbPolyline
 90
        4
 70
     1
 43
0.0
 10
167.02
 20
226.73
 10
189.02
 20
226.73
 10
189.02
 20
224.93
 10
167.02
 20
224.93
  0
LWPOLYLINE
  5
15B
330
2
100
AcDbEntity
  8
画層1
  6
ByBlock
 62
     0
370
    -2
100
AcDbPolyline
 90
        4
 70
     1
 43
0.0
 10
167.02
 20
223.43
 10
189.02
 20
223.43
 10
189.02
 20
221.63
 10
167.02
 20
221.63
  0
LINE
  5
15C
330
2
100
AcDbEntity
  8
画層1
  6
ByBlock
 62
     0
370
    -2
100
AcDbLine
 10
160.12
 20
239.93
 30
0.0
 11
161.22
 21
239.93
 31
0.0
  0
ARC
  5
15D
330
2
100
AcDbEntity
  8
画層1
  6
ByBlock
 62
     0
370
    -2
100
AcDbCircle
 10
161.22
 20
239.13
 30
0.0
 40
0.8000000000000113
100
AcDbArc
 50
270.0
 51
90.0
  0
LINE
  5
15E
330
2
100
AcDbEntity
  8
画層1
  6
ByBlock
 62
     0
370
    -2
100
AcDbLine
 10
147.52
 20
239.73
 30
0.0
 11
161.52
 21
239.73
 31
0.0
  0
ARC
  5
15F
330
2
100
AcDbEntity
  8
画層1
  6
ByBlock
 62
     0
370
    -2
100
AcDbCircle
 10
157.72
 20
218.43
 30
0.0
 40
1.0
100
AcDbArc
 50
90.0
 51
180.0
  0
LINE
  5
160
330
2
100
AcDbEntity
  8
画層1
  6
ByBlock
 62
     0
370
    -2
100
AcDbLine
 10
161.52
 20
239.73
 30
0.0
 11
161.52
 21
239.87
 31
0.0
  0
LINE
  5
161
330
2
100
AcDbEntity
  8
画層1
  6
ByBlock
 62
     0
370
    -2
100
AcDbLine
 10
138.62
 20
241.93
 30
0.0
 11
149.13
 21
241.93
 31
0.0
  0
LINE
  5
162
330
2
100
AcDbEntity
  8
画層1
  6
ByBlock
 62
     0
370
    -2
100
AcDbLine
 10
86.0
 20
244.0
 30
0.0
 11
86.0
 21
243.9
 31
0.0
  0
LINE
  5
163
330
2
100
AcDbEntity
  8
画層1
  6
ByBlock
 62
     0
370
    -2
100
AcDbLine
 10
88.0
 20
244.0
 30
0.0
 11
88.0
 21
243.9
 31
0.0
  0
LINE
  5
164
330
2
100
AcDbEntity
  8
画層1
  6
ByBlock
 62
     0
370
    -2
100
AcDbLine
 10
101.3
 20
246.45
 30
0.0
 11
98.8
 21
246.45
 31
0.0
  0
LINE
  5
165
330
2
100
AcDbEntity
  8
画層1
  6
ByBlock
 62
     0
370
    -2
100
AcDbLine
 10
101.3
 20
246.1
 30
0.0
 11
98.8
 21
246.1
 31
0.0
  0
LINE
  5
166
330
2
100
AcDbEntity
  8
画層1
  6
ByBlock
 62
     0
370
    -2
100
AcDbLine
 10
101.3
 20
245.75
 30
0.0
 11
98.8
 21
245.75
 31
0.0
  0
LINE
  5
167
330
2
100
AcDbEntity
  8
画層1
  6
ByBlock
 62
     0
370
    -2
100
AcDbLine
 10
101.3
 20
245.4
 30
0.0
 11
98.8
 21
245.4
 31
0.0
  0
LINE
  5
168
330
2
100
AcDbEntity
  8
画層1
  6
ByBlock
 62
     0
370
    -2
100
AcDbLine
 10
101.3
 20
245.05
 30
0.0
 11
98.8
 21
245.05
 31
0.0
  0
LINE
  5
169
330
2
100
AcDbEntity
  8
画層1
  6
ByBlock
 62
     0
370
    -2
100
AcDbLine
 10
101.3
 20
244.7
 30
0.0
 11
98.8
 21
244.7
 31
0.0
  0
LINE
  5
16A
330
2
100
AcDbEntity
  8
画層1
  6
ByBlock
 62
     0
370
    -2
100
AcDbLine
 10
101.3
 20
244.35
 30
0.0
 11
98.8
 21
244.35
 31
0.0
  0
LINE
  5
16B
330
2
100
AcDbEntity
  8
画層1
  6
ByBlock
 62
     0
370
    -2
100
AcDbLine
 10
98.8
 20
246.45
 30
0.0
 11
98.8
 21
244.0
 31
0.0
  0
LINE
  5
16C
330
2
100
AcDbEntity
  8
画層1
  6
ByBlock
 62
     0
370
    -2
100
AcDbLine
 10
98.0
 20
244.0
 30
0.0
 11
98.0
 21
243.9
 31
0.0
  0
ARC
  5
16D
330
2
100
AcDbEntity
  8
画層1
  6
ByBlock
 62
     0
370
    -2
100
AcDbCircle
 10
100.4
 20
241.4
 30
0.0
 40
0.5
100
AcDbArc
 50
0.0
 51
90.0
  0
ARC
  5
16E
330
2
100
AcDbEntity
  8
画層1
  6
ByBlock
 62
     0
370
    -2
100
AcDbCircle
 10
100.5
 20
241.5
 30
0.0
 40
0.6
100
AcDbArc
 50
0.0
 51
90.0
  0
ARC
  5
16F
330
2
100
AcDbEntity
  8
画層1
  6
ByBlock
 62
     0
370
    -2
100
AcDbCircle
 10
101.9
 20
242.9
 30
0.0
 40
1.0
100
AcDbArc
 50
0.0
 51
90.0
  0
ARC
  5
170
330
2
100
AcDbEntity
  8
画層1
  6
ByBlock
 62
     0
370
    -2
100
AcDbCircle
 10
101.9
 20
242.9
 30
0.0
 40
1.1
100
AcDbArc
 50
0.0
 51
90.0
  0
LINE
  5
171
330
2
100
AcDbEntity
  8
画層1
  6
ByBlock
 62
     0
370
    -2
100
AcDbLine
 10
101.3
 20
246.45
 30
0.0
 11
101.3
 21
244.0
 31
0.0
  0
LINE
  5
172
330
2
100
AcDbEntity
  8
画層1
  6
ByBlock
 62
     0
370
    -2
100
AcDbLine
 10
100.0
 20
244.0
 30
0.0
 11
100.0
 21
243.9
 31
0.0
  0
ARC
  5
173
330
2
100
AcDbEntity
  8
画層1
  6
ByBlock
 62
     0
370
    -2
100
AcDbCircle
 10
128.72
 20
242.83
 30
0.0
 40
1.199999999999999
100
AcDbArc
 50
90.0
 51
180.0
  0
DIMENSION
  5
174
330
2
100
AcDbEntity
  8
画層1
  6
ByBlock
 62
     0
370
    -2
100
AcDbDimension
  2
*D9
 10
138.52
 20
251.13
 30
0.0
 11
133.02
 21
253.0
 31
0.0
 71
     5
 42
11.0
  3
STANDARD_WS
100
AcDbAlignedDimension
 13
127.52
 23
243.43
 33
0.0
 14
138.52
 24
244.13
 34
0.0
100
AcDbRotatedDimension
1001
ACAD
1000
DSTYLE
1002
{
1070
   344
1005
32
1070
   343
1005
32
1070
   340
1005
23
1002
}
  0
LINE
  5
181
330
2
100
AcDbEntity
  8
画層1
  6
ByBlock
 62
     0
370
    -2
100
AcDbLine
 10
129.52
 20
244.13
 30
0.0
 11
138.52
 21
244.13
 31
0.0
  0
LINE
  5
182
330
2
100
AcDbEntity
  8
画層1
  6
ByBlock
 62
     0
370
    -2
100
AcDbLine
 10
129.52
 20
244.13
 30
0.0
 11
129.52
 21
244.03
 31
0.0
  0
LINE
  5
183
330
2
100
AcDbEntity
  8
画層1
  6
ByBlock
 62
     0
370
    -2
100
AcDbLine
 10
128.72
 20
244.03
 30
0.0
 11
129.52
 21
244.03
 31
0.0
  0
LINE
  5
184
330
2
100
AcDbEntity
  8
画層1
  6
ByBlock
 62
     0
370
    -2
100
AcDbLine
 10
128.72
 20
244.03
 30
0.0
 11
130.52
 21
244.03
 31
0.0
  0
LINE
  5
185
330
2
100
AcDbEntity
  8
画層1
  6
ByBlock
 62
     0
370
    -2
100
AcDbLine
 10
139.12
 20
243.73
 30
0.0
 11
140.32
 21
243.33
 31
0.0
  0
LINE
  5
186
330
2
100
AcDbEntity
  8
画層1
  6
ByBlock
 62
     0
370
    -2
100
AcDbLine
 10
140.32
 20
244.23
 30
0.0
 11
139.72
 21
244.48
 31
0.0
  0
LINE
  5
187
330
2
100
AcDbEntity
  8
画層1
  6
ByBlock
 62
     0
370
    -2
100
AcDbLine
 10
139.12
 20
244.13
 30
0.0
 11
139.12
 21
243.73
 31
0.0
  0
LINE
  5
188
330
2
100
AcDbEntity
  8
画層1
  6
ByBlock
 62
     0
370
    -2
100
AcDbLine
 10
138.52
 20
241.73
 30
0.0
 11
138.62
 21
241.73
 31
0.0
  0
LINE
  5
189
330
2
100
AcDbEntity
  8
画層1
  6
ByBlock
 62
     0
370
    -2
100
AcDbLine
 10
139.72
 20
243.88
 30
0.0
 11
139.12
 21
244.13
 31
0.0
  0
LINE
  5
18A
330
2
100
AcDbEntity
  8
画層1
  6
ByBlock
 62
     0
370
    -2
100
AcDbLine
 10
139.72
 20
244.48
 30
0.0
 11
139.72
 21
243.88
 31
0.0
  0
ARC
  5
18B
330
2
100
AcDbEntity
  8
画層1
  6
ByBlock
 62
     0
370
    -2
100
AcDbCircle
 10
143.64
 20
243.42
 30
0.0
 40
1.0
100
AcDbArc
 50
59.75
 51
112.49
  0
LINE
  5
18C
330
2
100
AcDbEntity
  8
画層1
  6
ByBlock
 62
     0
370
    -2
100
AcDbLine
 10
143.72
 20
245.98
 30
0.0
 11
142.92
 21
246.23
 31
0.0
  0
LINE
  5
18D
330
2
100
AcDbEntity
  8
画層1
  6
ByBlock
 62
     0
370
    -2
100
AcDbLine
 10
141.52
 20
245.53
 30
0.0
 11
141.52
 21
244.93
 31
0.0
  0
LINE
  5
18E
330
2
100
AcDbEntity
  8
画層1
  6
ByBlock
 62
     0
370
    -2
100
AcDbLine
 10
142.32
 20
245.28
 30
0.0
 11
141.52
 21
245.53
 31
0.0
  0
LINE
  5
18F
330
2
100
AcDbEntity
  8
画層1
  6
ByBlock
 62
     0
370
    -2
100
AcDbLine
 10
142.32
 20
245.88
 30
0.0
 11
142.32
 21
245.28
 31
0.0
  0
LINE
  5
190
330
2
100
AcDbEntity
  8
画層1
  6
ByBlock
 62
     0
370
    -2
100
AcDbLine
 10
142.92
 20
245.63
 30
0.0
 11
142.32
 21
245.88
 31
0.0
  0
LINE
  5
191
330
2
100
AcDbEntity
  8
画層1
  6
ByBlock
 62
     0
370
    -2
100
AcDbLine
 10
142.92
 20
246.23
 30
0.0
 11
142.92
 21
245.63
 31
0.0
  0
LINE
  5
192
330
2
100
AcDbEntity
  8
画層1
  6
ByBlock
 62
     0
370
    -2
100
AcDbLine
 10
143.72
 20
246.58
 30
0.0
 11
143.72
 21
245.98
 31
0.0
  0
LINE
  5
193
330
2
100
AcDbEntity
  8
画層1
  6
ByBlock
 62
     0
370
    -2
100
AcDbLine
 10
144.02
 20
246.58
 30
0.0
 11
143.72
 21
246.58
 31
0.0
  0
LINE
  5
194
330
2
100
AcDbEntity
  8
画層1
  6
ByBlock
 62
     0
370
    -2
100
AcDbLine
 10
140.32
 20
244.83
 30
0.0
 11
140.32
 21
244.23
 31
0.0
  0
LINE
  5
195
330
2
100
AcDbEntity
  8
画層1
  6
ByBlock
 62
     0
370
    -2
100
AcDbLine
 10
140.92
 20
244.58
 30
0.0
 11
140.32
 21
244.83
 31
0.0
  0
LINE
  5
196
330
2
100
AcDbEntity
  8
画層1
  6
ByBlock
 62
     0
370
    -2
100
AcDbLine
 10
140.92
 20
245.18
 30
0.0
 11
140.92
 21
244.58
 31
0.0
  0
LINE
  5
197
330
2
100
AcDbEntity
  8
画層1
  6
ByBlock
 62
     0
370
    -2
100
AcDbLine
 10
140.32
 20
243.33
 30
0.0
 11
143.26
 21
244.34
 31
0.0
  0
LINE
  5
198
330
2
100
AcDbEntity
  8
画層1
  6
ByBlock
 62
     0
370
    -2
100
AcDbLine
 10
141.52
 20
244.93
 30
0.0
 11
140.92
 21
245.18
 31
0.0
  0
LINE
  5
199
330
2
100
AcDbEntity
  8
画層1
  6
ByBlock
 62
     0
370
    -2
100
AcDbLine
 10
230.02
 20
241.93
 30
0.0
 11
230.02
 21
238.43
 31
0.0
  0
DIMENSION
  5
19A
330
2
100
AcDbEntity
  8
画層1
  6
ByBlock
 62
     0
370
    -2
100
AcDbDimension
  2
*D4
 10
252.53
 20
150.2
 30
0.0
 11
250.65
 21
196.0
 31
0.0
 71
     5
 42
91.6
  3
STANDARD_WS
100
AcDbAlignedDimension
 13
243.2
 23
241.8
 33
0.0
 14
243.2
 24
150.2
 34
0.0
 50
90.0
100
AcDbRotatedDimension
1001
ACAD
1000
DSTYLE
1002
{
1070
   344
1005
32
1070
   343
1005
32
1070
   340
1005
23
1002
}
  0
ARC
  5
1A7
330
2
100
AcDbEntity
  8
画層1
  6
ByBlock
 62
     0
370
    -2
100
AcDbCircle
 10
233.09
 20
194.39
 30
0.0
 40
0.5
100
AcDbArc
 50
81.47
 51
180.0
  0
LINE
  5
1A8
330
2
100
AcDbEntity
  8
画層1
  6
ByBlock
 62
     0
370
    -2
100
AcDbLine
 10
230.02
 20
195.58
 30
0.0
 11
230.02
 21
188.38
 31
0.0
  0
LINE
  5
1A9
330
2
100
AcDbEntity
  8
画層1
  6
ByBlock
 62
     0
370
    -2
100
AcDbLine
 10
228.52
 20
157.13
 30
0.0
 11
228.52
 21
235.13
 31
0.0
  0
LINE
  5
1AA
330
2
100
AcDbEntity
  8
画層1
  6
ByBlock
 62
     0
370
    -2
100
AcDbLine
 10
228.22
 20
218.43
 30
0.0
 11
228.22
 21
157.43
 31
0.0
  0
ARC
  5
1AB
330
2
100
AcDbEntity
  8
画層1
  6
ByBlock
 62
     0
370
    -2
100
AcDbCircle
 10
221.09
 20
191.98
 30
0.0
 40
10.50674104301654
100
AcDbArc
 50
4.37
 51
19.46
  0
ARC
  5
1AC
330
2
100
AcDbEntity
  8
画層1
  6
ByBlock
 62
     0
370
    -2
100
AcDbCircle
 10
221.18
 20
191.73
 30
0.0
 40
11.44118730072772
100
AcDbArc
 50
4.26
 51
19.13
  0
LINE
  5
1AD
330
2
100
AcDbEntity
  8
画層1
  6
ByBlock
 62
     0
370
    -2
100
AcDbLine
 10
230.49
 20
188.48
 30
0.0
 11
230.49
 21
195.48
 31
0.0
  0
LINE
  5
1AE
330
2
100
AcDbEntity
  8
画層1
  6
ByBlock
 62
     0
370
    -2
100
AcDbLine
 10
230.99
 20
195.48
 30
0.0
 11
230.99
 21
188.48
 31
0.0
  0
ARC
  5
1AF
330
2
100
AcDbEntity
  8
画層1
  6
ByBlock
 62
     0
370
    -2
100
AcDbCircle
 10
238.22
 20
171.48
 30
0.0
 40
0.3
100
AcDbArc
 50
0.0
 51
90.0
  0
LINE
  5
1B0
330
2
100
AcDbEntity
  8
画層1
  6
ByBlock
 62
     0
370
    -2
100
AcDbLine
 10
238.52
 20
163.38
 30
0.0
 11
238.52
 21
151.33
 31
0.0
  0
LINE
  5
1B1
330
2
100
AcDbEntity
  8
画層1
  6
ByBlock
 62
     0
370
    -2
100
AcDbLine
 10
230.02
 20
162.38
 30
0.0
 11
230.02
 21
155.18
 31
0.0
  0
LINE
  5
1B2
330
2
100
AcDbEntity
  8
画層1
  6
ByBlock
 62
     0
370
    -2
100
AcDbLine
 10
230.49
 20
155.28
 30
0.0
 11
230.49
 21
162.28
 31
0.0
  0
LINE
  5
1B3
330
2
100
AcDbEntity
  8
画層1
  6
ByBlock
 62
     0
370
    -2
100
AcDbLine
 10
232.59
 20
161.19
 30
0.0
 11
232.59
 21
156.36
 31
0.0
  0
LINE
  5
1B4
330
2
100
AcDbEntity
  8
画層1
  6
ByBlock
 62
     0
370
    -2
100
AcDbLine
 10
230.99
 20
162.28
 30
0.0
 11
230.99
 21
155.28
 31
0.0
  0
ARC
  5
1B5
330
2
100
AcDbEntity
  8
画層1
  6
ByBlock
 62
     0
370
    -2
100
AcDbCircle
 10
221.09
 20
158.78
 30
0.0
 40
10.50674104301654
100
AcDbArc
 50
4.37
 51
19.46
  0
ARC
  5
1B6
330
2
100
AcDbEntity
  8
画層1
  6
ByBlock
 62
     0
370
    -2
100
AcDbCircle
 10
221.18
 20
158.53
 30
0.0
 40
11.44118730072772
100
AcDbArc
 50
4.26
 51
19.13
  0
ARC
  5
1B7
330
2
100
AcDbEntity
  8
画層1
  6
ByBlock
 62
     0
370
    -2
100
AcDbCircle
 10
227.55
 20
158.78
 30
0.0
 40
7.540000001812724
100
AcDbArc
 50
3.8
 51
15.99
  0
LINE
  5
1B8
330
2
100
AcDbEntity
  8
画層1
  6
ByBlock
 62
     0
370
    -2
100
AcDbLine
 10
234.09
 20
158.28
 30
0.0
 11
235.08
 21
158.28
 31
0.0
  0
ARC
  5
1B9
330
2
100
AcDbEntity
  8
画層1
  6
ByBlock
 62
     0
370
    -2
100
AcDbCircle
 10
233.84
 20
156.97
 30
0.0
 40
1.0
100
AcDbArc
 50
278.53
 51
344.01
  0
LINE
  5
1BA
330
2
100
AcDbEntity
  8
画層1
  6
ByBlock
 62
     0
370
    -2
100
AcDbLine
 10
235.08
 20
159.28
 30
0.0
 11
234.09
 21
159.28
 31
0.0
  0
LINE
  5
1BB
330
2
100
AcDbEntity
  8
画層1
  6
ByBlock
 62
     0
370
    -2
100
AcDbLine
 10
230.02
 20
153.13
 30
0.0
 11
238.22
 21
153.13
 31
0.0
  0
LINE
  5
1BC
330
2
100
AcDbEntity
  8
画層1
  6
ByBlock
 62
     0
370
    -2
100
AcDbLine
 10
230.02
 20
151.13
 30
0.0
 11
238.52
 21
151.13
 31
0.0
  0
LINE
  5
1BD
330
2
100
AcDbEntity
  8
画層1
  6
ByBlock
 62
     0
370
    -2
100
AcDbLine
 10
230.22
 20
155.18
 30
0.0
 11
238.22
 21
155.18
 31
0.0
  0
LINE
  5
1BE
330
2
100
AcDbEntity
  8
画層1
  6
ByBlock
 62
     0
370
    -2
100
AcDbLine
 10
230.02
 20
150.33
 30
0.0
 11
230.02
 21
153.83
 31
0.0
  0
LINE
  5
1BF
330
2
100
AcDbEntity
  8
画層1
  6
ByBlock
 62
     0
370
    -2
100
AcDbLine
 10
231.99
 20
155.28
 30
0.0
 11
230.02
 21
155.28
 31
0.0
  0
ARC
  5
1C0
330
2
100
AcDbEntity
  8
画層1
  6
ByBlock
 62
     0
370
    -2
100
AcDbCircle
 10
230.22
 20
155.38
 30
0.0
 40
0.2
100
AcDbArc
 50
180.0
 51
270.0
  0
ARC
  5
1C1
330
2
100
AcDbEntity
  8
画層1
  6
ByBlock
 62
     0
370
    -2
100
AcDbCircle
 10
227.52
 20
157.13
 30
0.0
 40
1.0
100
AcDbArc
 50
270.0
 51
0.0
  0
ARC
  5
1C2
330
2
100
AcDbEntity
  8
画層1
  6
ByBlock
 62
     0
370
    -2
100
AcDbCircle
 10
227.22
 20
157.43
 30
0.0
 40
1.0
100
AcDbArc
 50
270.0
 51
0.0
  0
LINE
  5
1C3
330
2
100
AcDbEntity
  8
画層1
  6
ByBlock
 62
     0
370
    -2
100
AcDbLine
 10
234.09
 20
159.28
 30
0.0
 11
234.09
 21
158.28
 31
0.0
  0
LINE
  5
1C4
330
2
100
AcDbEntity
  8
画層1
  6
ByBlock
 62
     0
370
    -2
100
AcDbLine
 10
232.19
 20
159.38
 30
0.0
 11
232.19
 21
158.18
 31
0.0
  0
ARC
  5
1C5
330
2
100
AcDbEntity
  8
画層1
  6
ByBlock
 62
     0
370
    -2
100
AcDbCircle
 10
233.09
 20
156.36
 30
0.0
 40
0.5
100
AcDbArc
 50
180.0
 51
278.53
  0
LINE
  5
1C6
330
2
100
AcDbEntity
  8
画層1
  6
ByBlock
 62
     0
370
    -2
100
AcDbLine
 10
232.19
 20
158.18
 30
0.0
 11
232.59
 21
158.18
 31
0.0
  0
LINE
  5
1C7
330
2
100
AcDbEntity
  8
画層1
  6
ByBlock
 62
     0
370
    -2
100
AcDbLine
 10
233.17
 20
155.86
 30
0.0
 11
233.99
 21
155.98
 31
0.0
  0
ARC
  5
1C8
330
2
100
AcDbEntity
  8
画層1
  6
ByBlock
 62
     0
370
    -2
100
AcDbCircle
 10
221.18
 20
159.02
 30
0.0
 40
11.44118729799424
100
AcDbArc
 50
340.87
 51
355.74
  0
LINE
  5
1C9
330
2
100
AcDbEntity
  8
画層1
  6
ByBlock
 62
     0
370
    -2
100
AcDbLine
 10
232.59
 20
159.38
 30
0.0
 11
232.19
 21
159.38
 31
0.0
  0
LINE
  5
1CA
330
2
100
AcDbEntity
  8
画層1
  6
ByBlock
 62
     0
370
    -2
100
AcDbLine
 10
231.56
 20
157.98
 30
0.0
 11
230.99
 21
157.98
 31
0.0
  0
LINE
  5
1CB
330
2
100
AcDbEntity
  8
画層1
  6
ByBlock
 62
     0
370
    -2
100
AcDbLine
 10
231.56
 20
159.58
 30
0.0
 11
230.99
 21
159.58
 31
0.0
  0
ARC
  5
1CC
330
2
100
AcDbEntity
  8
画層1
  6
ByBlock
 62
     0
370
    -2
100
AcDbCircle
 10
221.09
 20
158.78
 30
0.0
 40
10.50674104301654
100
AcDbArc
 50
340.54
 51
355.63
  0
ARC
  5
1CD
330
2
100
AcDbEntity
  8
画層1
  6
ByBlock
 62
     0
370
    -2
100
AcDbCircle
 10
237.52
 20
151.33
 30
0.0
 40
1.0
100
AcDbArc
 50
270.0
 51
360.0
  0
ARC
  5
1CE
330
2
100
AcDbEntity
  8
画層1
  6
ByBlock
 62
     0
370
    -2
100
AcDbCircle
 10
238.22
 20
153.43
 30
0.0
 40
0.3
100
AcDbArc
 50
270.0
 51
360.0
  0
ARC
  5
1CF
330
2
100
AcDbEntity
  8
画層1
  6
ByBlock
 62
     0
370
    -2
100
AcDbCircle
 10
238.22
 20
154.88
 30
0.0
 40
0.3
100
AcDbArc
 50
0.0
 51
90.0
  0
ARC
  5
1D0
330
2
100
AcDbEntity
  8
画層1
  6
ByBlock
 62
     0
370
    -2
100
AcDbCircle
 10
227.55
 20
158.78
 30
0.0
 40
7.540000001812724
100
AcDbArc
 50
344.01
 51
356.2
  0
ARC
  5
1D1
330
2
100
AcDbEntity
  8
画層1
  6
ByBlock
 62
     0
370
    -2
100
AcDbCircle
 10
233.84
 20
168.88
 30
0.0
 40
1.0
100
AcDbArc
 50
15.99
 51
81.47
  0
LINE
  5
1D2
330
2
100
AcDbEntity
  8
画層1
  6
ByBlock
 62
     0
370
    -2
100
AcDbLine
 10
235.08
 20
167.58
 30
0.0
 11
234.09
 21
167.58
 31
0.0
  0
LINE
  5
1D3
330
2
100
AcDbEntity
  8
画層1
  6
ByBlock
 62
     0
370
    -2
100
AcDbLine
 10
234.09
 20
166.58
 30
0.0
 11
235.08
 21
166.58
 31
0.0
  0
ARC
  5
1D4
330
2
100
AcDbEntity
  8
画層1
  6
ByBlock
 62
     0
370
    -2
100
AcDbCircle
 10
233.84
 20
165.27
 30
0.0
 40
1.0
100
AcDbArc
 50
278.53
 51
344.01
  0
ARC
  5
1D5
330
2
100
AcDbEntity
  8
画層1
  6
ByBlock
 62
     0
370
    -2
100
AcDbCircle
 10
233.84
 20
160.58
 30
0.0
 40
1.0
100
AcDbArc
 50
15.99
 51
81.47
  0
LINE
  5
1D6
330
2
100
AcDbEntity
  8
画層1
  6
ByBlock
 62
     0
370
    -2
100
AcDbLine
 10
232.03
 20
163.68
 30
0.0
 11
238.22
 21
163.68
 31
0.0
  0
LINE
  5
1D7
330
2
100
AcDbEntity
  8
画層1
  6
ByBlock
 62
     0
370
    -2
100
AcDbLine
 10
230.02
 20
170.68
 30
0.0
 11
238.22
 21
170.68
 31
0.0
  0
LINE
  5
1D8
330
2
100
AcDbEntity
  8
画層1
  6
ByBlock
 62
     0
370
    -2
100
AcDbLine
 10
230.02
 20
162.38
 30
0.0
 11
238.22
 21
162.38
 31
0.0
  0
LINE
  5
1D9
330
2
100
AcDbEntity
  8
画層1
  6
ByBlock
 62
     0
370
    -2
100
AcDbLine
 10
230.02
 20
163.48
 30
0.0
 11
238.22
 21
163.48
 31
0.0
  0
LINE
  5
1DA
330
2
100
AcDbEntity
  8
画層1
  6
ByBlock
 62
     0
370
    -2
100
AcDbLine
 10
230.02
 20
170.68
 30
0.0
 11
230.02
 21
163.48
 31
0.0
  0
ARC
  5
1DB
330
2
100
AcDbEntity
  8
画層1
  6
ByBlock
 62
     0
370
    -2
100
AcDbCircle
 10
221.09
 20
167.08
 30
0.0
 40
10.50674104301654
100
AcDbArc
 50
340.54
 51
355.63
  0
ARC
  5
1DC
330
2
100
AcDbEntity
  8
画層1
  6
ByBlock
 62
     0
370
    -2
100
AcDbCircle
 10
221.18
 20
167.32
 30
0.0
 40
11.44118729799424
100
AcDbArc
 50
340.87
 51
355.74
  0
LINE
  5
1DD
330
2
100
AcDbEntity
  8
画層1
  6
ByBlock
 62
     0
370
    -2
100
AcDbLine
 10
232.59
 20
169.49
 30
0.0
 11
232.59
 21
164.66
 31
0.0
  0
LINE
  5
1DE
330
2
100
AcDbEntity
  8
画層1
  6
ByBlock
 62
     0
370
    -2
100
AcDbLine
 10
230.49
 20
163.58
 30
0.0
 11
230.49
 21
170.58
 31
0.0
  0
LINE
  5
1DF
330
2
100
AcDbEntity
  8
画層1
  6
ByBlock
 62
     0
370
    -2
100
AcDbLine
 10
230.99
 20
170.58
 30
0.0
 11
230.99
 21
163.58
 31
0.0
  0
LINE
  5
1E0
330
2
100
AcDbEntity
  8
画層1
  6
ByBlock
 62
     0
370
    -2
100
AcDbLine
 10
231.99
 20
163.58
 30
0.0
 11
230.02
 21
163.58
 31
0.0
  0
LINE
  5
1E1
330
2
100
AcDbEntity
  8
画層1
  6
ByBlock
 62
     0
370
    -2
100
AcDbLine
 10
230.02
 20
162.28
 30
0.0
 11
231.99
 21
162.28
 31
0.0
  0
ARC
  5
1E2
330
2
100
AcDbEntity
  8
画層1
  6
ByBlock
 62
     0
370
    -2
100
AcDbCircle
 10
230.22
 20
162.18
 30
0.0
 40
0.2
100
AcDbArc
 50
90.0
 51
180.0
  0
ARC
  5
1E3
330
2
100
AcDbEntity
  8
画層1
  6
ByBlock
 62
     0
370
    -2
100
AcDbCircle
 10
230.22
 20
163.68
 30
0.0
 40
0.2
100
AcDbArc
 50
180.0
 51
270.0
  0
ARC
  5
1E4
330
2
100
AcDbEntity
  8
画層1
  6
ByBlock
 62
     0
370
    -2
100
AcDbCircle
 10
233.09
 20
164.66
 30
0.0
 40
0.5
100
AcDbArc
 50
180.0
 51
278.53
  0
LINE
  5
1E5
330
2
100
AcDbEntity
  8
画層1
  6
ByBlock
 62
     0
370
    -2
100
AcDbLine
 10
233.17
 20
164.16
 30
0.0
 11
233.99
 21
164.28
 31
0.0
  0
ARC
  5
1E6
330
2
100
AcDbEntity
  8
画層1
  6
ByBlock
 62
     0
370
    -2
100
AcDbCircle
 10
233.09
 20
161.19
 30
0.0
 40
0.5
100
AcDbArc
 50
81.47
 51
180.0
  0
LINE
  5
1E7
330
2
100
AcDbEntity
  8
画層1
  6
ByBlock
 62
     0
370
    -2
100
AcDbLine
 10
233.17
 20
161.69
 30
0.0
 11
233.99
 21
161.57
 31
0.0
  0
LINE
  5
1E8
330
2
100
AcDbEntity
  8
画層1
  6
ByBlock
 62
     0
370
    -2
100
AcDbLine
 10
230.02
 20
170.58
 30
0.0
 11
231.99
 21
170.58
 31
0.0
  0
ARC
  5
1E9
330
2
100
AcDbEntity
  8
画層1
  6
ByBlock
 62
     0
370
    -2
100
AcDbCircle
 10
230.22
 20
170.48
 30
0.0
 40
0.2
100
AcDbArc
 50
90.0
 51
180.0
  0
ARC
  5
1EA
330
2
100
AcDbEntity
  8
画層1
  6
ByBlock
 62
     0
370
    -2
100
AcDbCircle
 10
221.18
 20
166.83
 30
0.0
 40
11.44118730072772
100
AcDbArc
 50
4.26
 51
19.13
  0
LINE
  5
1EB
330
2
100
AcDbEntity
  8
画層1
  6
ByBlock
 62
     0
370
    -2
100
AcDbLine
 10
232.59
 20
167.68
 30
0.0
 11
232.19
 21
167.68
 31
0.0
  0
ARC
  5
1EC
330
2
100
AcDbEntity
  8
画層1
  6
ByBlock
 62
     0
370
    -2
100
AcDbCircle
 10
233.09
 20
169.49
 30
0.0
 40
0.5
100
AcDbArc
 50
81.47
 51
180.0
  0
LINE
  5
1ED
330
2
100
AcDbEntity
  8
画層1
  6
ByBlock
 62
     0
370
    -2
100
AcDbLine
 10
233.17
 20
169.99
 30
0.0
 11
233.99
 21
169.87
 31
0.0
  0
LINE
  5
1EE
330
2
100
AcDbEntity
  8
画層1
  6
ByBlock
 62
     0
370
    -2
100
AcDbLine
 10
234.09
 20
167.58
 30
0.0
 11
234.09
 21
166.58
 31
0.0
  0
LINE
  5
1EF
330
2
100
AcDbEntity
  8
画層1
  6
ByBlock
 62
     0
370
    -2
100
AcDbLine
 10
232.19
 20
166.48
 30
0.0
 11
232.59
 21
166.48
 31
0.0
  0
LINE
  5
1F0
330
2
100
AcDbEntity
  8
画層1
  6
ByBlock
 62
     0
370
    -2
100
AcDbLine
 10
232.19
 20
167.68
 30
0.0
 11
232.19
 21
166.48
 31
0.0
  0
LINE
  5
1F1
330
2
100
AcDbEntity
  8
画層1
  6
ByBlock
 62
     0
370
    -2
100
AcDbLine
 10
231.56
 20
167.88
 30
0.0
 11
230.99
 21
167.88
 31
0.0
  0
LINE
  5
1F2
330
2
100
AcDbEntity
  8
画層1
  6
ByBlock
 62
     0
370
    -2
100
AcDbLine
 10
231.56
 20
166.28
 30
0.0
 11
230.99
 21
166.28
 31
0.0
  0
ARC
  5
1F3
330
2
100
AcDbEntity
  8
画層1
  6
ByBlock
 62
     0
370
    -2
100
AcDbCircle
 10
221.09
 20
167.08
 30
0.0
 40
10.50674104301654
100
AcDbArc
 50
4.37
 51
19.46
  0
ARC
  5
1F4
330
2
100
AcDbEntity
  8
画層1
  6
ByBlock
 62
     0
370
    -2
100
AcDbCircle
 10
227.55
 20
167.08
 30
0.0
 40
7.540000001812724
100
AcDbArc
 50
344.01
 51
356.2
  0
ARC
  5
1F5
330
2
100
AcDbEntity
  8
画層1
  6
ByBlock
 62
     0
370
    -2
100
AcDbCircle
 10
238.22
 20
163.38
 30
0.0
 40
0.3
100
AcDbArc
 50
0.0
 51
90.0
  0
ARC
  5
1F6
330
2
100
AcDbEntity
  8
画層1
  6
ByBlock
 62
     0
370
    -2
100
AcDbCircle
 10
238.22
 20
162.68
 30
0.0
 40
0.3
100
AcDbArc
 50
270.0
 51
0.0
  0
ARC
  5
1F7
330
2
100
AcDbEntity
  8
画層1
  6
ByBlock
 62
     0
370
    -2
100
AcDbCircle
 10
238.22
 20
163.18
 30
0.0
 40
0.3
100
AcDbArc
 50
0.0
 51
90.0
  0
ARC
  5
1F8
330
2
100
AcDbEntity
  8
画層1
  6
ByBlock
 62
     0
370
    -2
100
AcDbCircle
 10
238.22
 20
170.98
 30
0.0
 40
0.3
100
AcDbArc
 50
270.0
 51
0.0
  0
LINE
  5
1F9
330
2
100
AcDbEntity
  8
画層1
  6
ByBlock
 62
     0
370
    -2
100
AcDbLine
 10
238.52
 20
171.48
 30
0.0
 11
238.52
 21
170.98
 31
0.0
  0
ARC
  5
1FA
330
2
100
AcDbEntity
  8
画層1
  6
ByBlock
 62
     0
370
    -2
100
AcDbCircle
 10
227.55
 20
167.08
 30
0.0
 40
7.540000001812724
100
AcDbArc
 50
3.8
 51
15.99
  0
LINE
  5
1FB
330
2
100
AcDbEntity
  8
画層1
  6
ByBlock
 62
     0
370
    -2
100
AcDbLine
 10
230.02
 20
187.28
 30
0.0
 11
230.02
 21
180.08
 31
0.0
  0
LINE
  5
1FC
330
2
100
AcDbEntity
  8
画層1
  6
ByBlock
 62
     0
370
    -2
100
AcDbLine
 10
234.09
 20
184.18
 30
0.0
 11
234.09
 21
183.18
 31
0.0
  0
LINE
  5
1FD
330
2
100
AcDbEntity
  8
画層1
  6
ByBlock
 62
     0
370
    -2
100
AcDbLine
 10
232.59
 20
186.09
 30
0.0
 11
232.59
 21
181.26
 31
0.0
  0
LINE
  5
1FE
330
2
100
AcDbEntity
  8
画層1
  6
ByBlock
 62
     0
370
    -2
100
AcDbLine
 10
230.49
 20
180.18
 30
0.0
 11
230.49
 21
187.18
 31
0.0
  0
LINE
  5
1FF
330
2
100
AcDbEntity
  8
画層1
  6
ByBlock
 62
     0
370
    -2
100
AcDbLine
 10
230.99
 20
187.18
 30
0.0
 11
230.99
 21
180.18
 31
0.0
  0
LINE
  5
200
330
2
100
AcDbEntity
  8
画層1
  6
ByBlock
 62
     0
370
    -2
100
AcDbLine
 10
232.19
 20
184.28
 30
0.0
 11
232.19
 21
183.08
 31
0.0
  0
LINE
  5
201
330
2
100
AcDbEntity
  8
画層1
  6
ByBlock
 62
     0
370
    -2
100
AcDbLine
 10
234.09
 20
183.18
 30
0.0
 11
235.08
 21
183.18
 31
0.0
  0
ARC
  5
202
330
2
100
AcDbEntity
  8
画層1
  6
ByBlock
 62
     0
370
    -2
100
AcDbCircle
 10
233.84
 20
181.87
 30
0.0
 40
1.0
100
AcDbArc
 50
278.53
 51
344.01
  0
LINE
  5
203
330
2
100
AcDbEntity
  8
画層1
  6
ByBlock
 62
     0
370
    -2
100
AcDbLine
 10
234.09
 20
174.88
 30
0.0
 11
235.08
 21
174.88
 31
0.0
  0
ARC
  5
204
330
2
100
AcDbEntity
  8
画層1
  6
ByBlock
 62
     0
370
    -2
100
AcDbCircle
 10
233.84
 20
173.57
 30
0.0
 40
1.0
100
AcDbArc
 50
278.53
 51
344.01
  0
LINE
  5
205
330
2
100
AcDbEntity
  8
画層1
  6
ByBlock
 62
     0
370
    -2
100
AcDbLine
 10
235.08
 20
175.88
 30
0.0
 11
234.09
 21
175.88
 31
0.0
  0
ARC
  5
206
330
2
100
AcDbEntity
  8
画層1
  6
ByBlock
 62
     0
370
    -2
100
AcDbCircle
 10
233.84
 20
177.18
 30
0.0
 40
1.0
100
AcDbArc
 50
15.99
 51
81.47
  0
LINE
  5
207
330
2
100
AcDbEntity
  8
画層1
  6
ByBlock
 62
     0
370
    -2
100
AcDbLine
 10
230.02
 20
178.98
 30
0.0
 11
238.22
 21
178.98
 31
0.0
  0
LINE
  5
208
330
2
100
AcDbEntity
  8
画層1
  6
ByBlock
 62
     0
370
    -2
100
AcDbLine
 10
230.02
 20
180.08
 30
0.0
 11
238.22
 21
180.08
 31
0.0
  0
LINE
  5
209
330
2
100
AcDbEntity
  8
画層1
  6
ByBlock
 62
     0
370
    -2
100
AcDbLine
 10
230.02
 20
171.78
 30
0.0
 11
238.22
 21
171.78
 31
0.0
  0
LINE
  5
20A
330
2
100
AcDbEntity
  8
画層1
  6
ByBlock
 62
     0
370
    -2
100
AcDbLine
 10
230.49
 20
171.88
 30
0.0
 11
230.49
 21
178.88
 31
0.0
  0
LINE
  5
20B
330
2
100
AcDbEntity
  8
画層1
  6
ByBlock
 62
     0
370
    -2
100
AcDbLine
 10
232.59
 20
177.79
 30
0.0
 11
232.59
 21
172.96
 31
0.0
  0
LINE
  5
20C
330
2
100
AcDbEntity
  8
画層1
  6
ByBlock
 62
     0
370
    -2
100
AcDbLine
 10
230.99
 20
178.88
 30
0.0
 11
230.99
 21
171.88
 31
0.0
  0
ARC
  5
20D
330
2
100
AcDbEntity
  8
画層1
  6
ByBlock
 62
     0
370
    -2
100
AcDbCircle
 10
221.09
 20
175.38
 30
0.0
 40
10.50674104301654
100
AcDbArc
 50
4.37
 51
19.46
  0
ARC
  5
20E
330
2
100
AcDbEntity
  8
画層1
  6
ByBlock
 62
     0
370
    -2
100
AcDbCircle
 10
221.18
 20
175.13
 30
0.0
 40
11.44118730072772
100
AcDbArc
 50
4.26
 51
19.13
  0
LINE
  5
20F
330
2
100
AcDbEntity
  8
画層1
  6
ByBlock
 62
     0
370
    -2
100
AcDbLine
 10
230.02
 20
178.98
 30
0.0
 11
230.02
 21
171.78
 31
0.0
  0
LINE
  5
210
330
2
100
AcDbEntity
  8
画層1
  6
ByBlock
 62
     0
370
    -2
100
AcDbLine
 10
231.99
 20
171.88
 30
0.0
 11
230.02
 21
171.88
 31
0.0
  0
ARC
  5
211
330
2
100
AcDbEntity
  8
画層1
  6
ByBlock
 62
     0
370
    -2
100
AcDbCircle
 10
230.22
 20
171.98
 30
0.0
 40
0.2
100
AcDbArc
 50
180.0
 51
270.0
  0
LINE
  5
212
330
2
100
AcDbEntity
  8
画層1
  6
ByBlock
 62
     0
370
    -2
100
AcDbLine
 10
234.09
 20
175.88
 30
0.0
 11
234.09
 21
174.88
 31
0.0
  0
LINE
  5
213
330
2
100
AcDbEntity
  8
画層1
  6
ByBlock
 62
     0
370
    -2
100
AcDbLine
 10
232.19
 20
175.98
 30
0.0
 11
232.19
 21
174.78
 31
0.0
  0
ARC
  5
214
330
2
100
AcDbEntity
  8
画層1
  6
ByBlock
 62
     0
370
    -2
100
AcDbCircle
 10
233.09
 20
172.96
 30
0.0
 40
0.5
100
AcDbArc
 50
180.0
 51
278.53
  0
LINE
  5
215
330
2
100
AcDbEntity
  8
画層1
  6
ByBlock
 62
     0
370
    -2
100
AcDbLine
 10
232.19
 20
174.78
 30
0.0
 11
232.59
 21
174.78
 31
0.0
  0
LINE
  5
216
330
2
100
AcDbEntity
  8
画層1
  6
ByBlock
 62
     0
370
    -2
100
AcDbLine
 10
233.17
 20
172.46
 30
0.0
 11
233.99
 21
172.58
 31
0.0
  0
ARC
  5
217
330
2
100
AcDbEntity
  8
画層1
  6
ByBlock
 62
     0
370
    -2
100
AcDbCircle
 10
221.18
 20
175.62
 30
0.0
 40
11.44118729799424
100
AcDbArc
 50
340.87
 51
355.74
  0
LINE
  5
218
330
2
100
AcDbEntity
  8
画層1
  6
ByBlock
 62
     0
370
    -2
100
AcDbLine
 10
232.59
 20
175.98
 30
0.0
 11
232.19
 21
175.98
 31
0.0
  0
LINE
  5
219
330
2
100
AcDbEntity
  8
画層1
  6
ByBlock
 62
     0
370
    -2
100
AcDbLine
 10
231.56
 20
174.58
 30
0.0
 11
230.99
 21
174.58
 31
0.0
  0
LINE
  5
21A
330
2
100
AcDbEntity
  8
画層1
  6
ByBlock
 62
     0
370
    -2
100
AcDbLine
 10
231.56
 20
176.18
 30
0.0
 11
230.99
 21
176.18
 31
0.0
  0
ARC
  5
21B
330
2
100
AcDbEntity
  8
画層1
  6
ByBlock
 62
     0
370
    -2
100
AcDbCircle
 10
221.09
 20
175.38
 30
0.0
 40
10.50674104301654
100
AcDbArc
 50
340.54
 51
355.63
  0
LINE
  5
21C
330
2
100
AcDbEntity
  8
画層1
  6
ByBlock
 62
     0
370
    -2
100
AcDbLine
 10
231.99
 20
180.18
 30
0.0
 11
230.02
 21
180.18
 31
0.0
  0
LINE
  5
21D
330
2
100
AcDbEntity
  8
画層1
  6
ByBlock
 62
     0
370
    -2
100
AcDbLine
 10
230.02
 20
178.88
 30
0.0
 11
231.99
 21
178.88
 31
0.0
  0
ARC
  5
21E
330
2
100
AcDbEntity
  8
画層1
  6
ByBlock
 62
     0
370
    -2
100
AcDbCircle
 10
230.22
 20
180.28
 30
0.0
 40
0.2
100
AcDbArc
 50
180.0
 51
270.0
  0
ARC
  5
21F
330
2
100
AcDbEntity
  8
画層1
  6
ByBlock
 62
     0
370
    -2
100
AcDbCircle
 10
230.22
 20
178.78
 30
0.0
 40
0.2
100
AcDbArc
 50
90.0
 51
180.0
  0
ARC
  5
220
330
2
100
AcDbEntity
  8
画層1
  6
ByBlock
 62
     0
370
    -2
100
AcDbCircle
 10
233.09
 20
181.26
 30
0.0
 40
0.5
100
AcDbArc
 50
180.0
 51
278.53
  0
ARC
  5
221
330
2
100
AcDbEntity
  8
画層1
  6
ByBlock
 62
     0
370
    -2
100
AcDbCircle
 10
221.18
 20
183.92
 30
0.0
 40
11.44118729799424
100
AcDbArc
 50
340.87
 51
355.74
  0
LINE
  5
222
330
2
100
AcDbEntity
  8
画層1
  6
ByBlock
 62
     0
370
    -2
100
AcDbLine
 10
232.19
 20
183.08
 30
0.0
 11
232.59
 21
183.08
 31
0.0
  0
LINE
  5
223
330
2
100
AcDbEntity
  8
画層1
  6
ByBlock
 62
     0
370
    -2
100
AcDbLine
 10
233.17
 20
180.76
 30
0.0
 11
233.99
 21
180.88
 31
0.0
  0
ARC
  5
224
330
2
100
AcDbEntity
  8
画層1
  6
ByBlock
 62
     0
370
    -2
100
AcDbCircle
 10
233.09
 20
177.79
 30
0.0
 40
0.5
100
AcDbArc
 50
81.47
 51
180.0
  0
LINE
  5
225
330
2
100
AcDbEntity
  8
画層1
  6
ByBlock
 62
     0
370
    -2
100
AcDbLine
 10
233.17
 20
178.29
 30
0.0
 11
233.99
 21
178.17
 31
0.0
  0
LINE
  5
226
330
2
100
AcDbEntity
  8
画層1
  6
ByBlock
 62
     0
370
    -2
100
AcDbLine
 10
231.56
 20
182.88
 30
0.0
 11
230.99
 21
182.88
 31
0.0
  0
ARC
  5
227
330
2
100
AcDbEntity
  8
画層1
  6
ByBlock
 62
     0
370
    -2
100
AcDbCircle
 10
221.09
 20
183.68
 30
0.0
 40
10.50674104301654
100
AcDbArc
 50
340.54
 51
355.63
  0
ARC
  5
228
330
2
100
AcDbEntity
  8
画層1
  6
ByBlock
 62
     0
370
    -2
100
AcDbCircle
 10
227.55
 20
175.38
 30
0.0
 40
7.540000001812724
100
AcDbArc
 50
3.8
 51
15.99
  0
ARC
  5
229
330
2
100
AcDbEntity
  8
画層1
  6
ByBlock
 62
     0
370
    -2
100
AcDbCircle
 10
227.55
 20
175.38
 30
0.0
 40
7.540000001812724
100
AcDbArc
 50
344.01
 51
356.2
  0
ARC
  5
22A
330
2
100
AcDbEntity
  8
画層1
  6
ByBlock
 62
     0
370
    -2
100
AcDbCircle
 10
238.22
 20
179.28
 30
0.0
 40
0.3
100
AcDbArc
 50
270.0
 51
0.0
  0
ARC
  5
22B
330
2
100
AcDbEntity
  8
画層1
  6
ByBlock
 62
     0
370
    -2
100
AcDbCircle
 10
238.22
 20
179.78
 30
0.0
 40
0.3
100
AcDbArc
 50
0.0
 51
90.0
  0
LINE
  5
22C
330
2
100
AcDbEntity
  8
画層1
  6
ByBlock
 62
     0
370
    -2
100
AcDbLine
 10
238.52
 20
179.78
 30
0.0
 11
238.52
 21
179.28
 31
0.0
  0
ARC
  5
22D
330
2
100
AcDbEntity
  8
画層1
  6
ByBlock
 62
     0
370
    -2
100
AcDbCircle
 10
227.55
 20
183.68
 30
0.0
 40
7.540000001812724
100
AcDbArc
 50
344.01
 51
356.2
  0
LINE
  5
22E
330
2
100
AcDbEntity
  8
画層1
  6
ByBlock
 62
     0
370
    -2
100
AcDbLine
 10
234.09
 20
191.48
 30
0.0
 11
235.08
 21
191.48
 31
0.0
  0
LINE
  5
22F
330
2
100
AcDbEntity
  8
画層1
  6
ByBlock
 62
     0
370
    -2
100
AcDbLine
 10
235.08
 20
192.48
 30
0.0
 11
234.09
 21
192.48
 31
0.0
  0
ARC
  5
230
330
2
100
AcDbEntity
  8
画層1
  6
ByBlock
 62
     0
370
    -2
100
AcDbCircle
 10
233.84
 20
193.78
 30
0.0
 40
1.0
100
AcDbArc
 50
15.99
 51
81.47
  0
ARC
  5
231
330
2
100
AcDbEntity
  8
画層1
  6
ByBlock
 62
     0
370
    -2
100
AcDbCircle
 10
233.84
 20
185.48
 30
0.0
 40
1.0
100
AcDbArc
 50
15.99
 51
81.47
  0
LINE
  5
232
330
2
100
AcDbEntity
  8
画層1
  6
ByBlock
 62
     0
370
    -2
100
AcDbLine
 10
235.08
 20
184.18
 30
0.0
 11
234.09
 21
184.18
 31
0.0
  0
ARC
  5
233
330
2
100
AcDbEntity
  8
画層1
  6
ByBlock
 62
     0
370
    -2
100
AcDbCircle
 10
233.84
 20
190.17
 30
0.0
 40
1.0
100
AcDbArc
 50
278.53
 51
344.01
  0
LINE
  5
234
330
2
100
AcDbEntity
  8
画層1
  6
ByBlock
 62
     0
370
    -2
100
AcDbLine
 10
230.02
 20
187.28
 30
0.0
 11
238.22
 21
187.28
 31
0.0
  0
LINE
  5
235
330
2
100
AcDbEntity
  8
画層1
  6
ByBlock
 62
     0
370
    -2
100
AcDbLine
 10
230.02
 20
188.38
 30
0.0
 11
238.22
 21
188.38
 31
0.0
  0
LINE
  5
236
330
2
100
AcDbEntity
  8
画層1
  6
ByBlock
 62
     0
370
    -2
100
AcDbLine
 10
233.17
 20
189.06
 30
0.0
 11
233.99
 21
189.18
 31
0.0
  0
ARC
  5
237
330
2
100
AcDbEntity
  8
画層1
  6
ByBlock
 62
     0
370
    -2
100
AcDbCircle
 10
233.09
 20
189.56
 30
0.0
 40
0.5
100
AcDbArc
 50
180.0
 51
278.53
  0
ARC
  5
238
330
2
100
AcDbEntity
  8
画層1
  6
ByBlock
 62
     0
370
    -2
100
AcDbCircle
 10
221.09
 20
191.98
 30
0.0
 40
10.50674104301654
100
AcDbArc
 50
340.54
 51
355.63
  0
ARC
  5
239
330
2
100
AcDbEntity
  8
画層1
  6
ByBlock
 62
     0
370
    -2
100
AcDbCircle
 10
221.18
 20
192.22
 30
0.0
 40
11.44118729799424
100
AcDbArc
 50
340.87
 51
355.74
  0
LINE
  5
23A
330
2
100
AcDbEntity
  8
画層1
  6
ByBlock
 62
     0
370
    -2
100
AcDbLine
 10
230.02
 20
187.18
 30
0.0
 11
231.99
 21
187.18
 31
0.0
  0
LINE
  5
23B
330
2
100
AcDbEntity
  8
画層1
  6
ByBlock
 62
     0
370
    -2
100
AcDbLine
 10
231.99
 20
188.48
 30
0.0
 11
230.02
 21
188.48
 31
0.0
  0
ARC
  5
23C
330
2
100
AcDbEntity
  8
画層1
  6
ByBlock
 62
     0
370
    -2
100
AcDbCircle
 10
230.22
 20
187.08
 30
0.0
 40
0.2
100
AcDbArc
 50
90.0
 51
180.0
  0
ARC
  5
23D
330
2
100
AcDbEntity
  8
画層1
  6
ByBlock
 62
     0
370
    -2
100
AcDbCircle
 10
230.22
 20
188.58
 30
0.0
 40
0.2
100
AcDbArc
 50
180.0
 51
270.0
  0
ARC
  5
23E
330
2
100
AcDbEntity
  8
画層1
  6
ByBlock
 62
     0
370
    -2
100
AcDbCircle
 10
221.18
 20
183.43
 30
0.0
 40
11.44118730072772
100
AcDbArc
 50
4.26
 51
19.13
  0
LINE
  5
23F
330
2
100
AcDbEntity
  8
画層1
  6
ByBlock
 62
     0
370
    -2
100
AcDbLine
 10
232.59
 20
184.28
 30
0.0
 11
232.19
 21
184.28
 31
0.0
  0
ARC
  5
240
330
2
100
AcDbEntity
  8
画層1
  6
ByBlock
 62
     0
370
    -2
100
AcDbCircle
 10
233.09
 20
186.09
 30
0.0
 40
0.5
100
AcDbArc
 50
81.47
 51
180.0
  0
LINE
  5
241
330
2
100
AcDbEntity
  8
画層1
  6
ByBlock
 62
     0
370
    -2
100
AcDbLine
 10
233.17
 20
186.59
 30
0.0
 11
233.99
 21
186.47
 31
0.0
  0
LINE
  5
242
330
2
100
AcDbEntity
  8
画層1
  6
ByBlock
 62
     0
370
    -2
100
AcDbLine
 10
231.56
 20
184.48
 30
0.0
 11
230.99
 21
184.48
 31
0.0
  0
ARC
  5
243
330
2
100
AcDbEntity
  8
画層1
  6
ByBlock
 62
     0
370
    -2
100
AcDbCircle
 10
221.09
 20
183.68
 30
0.0
 40
10.50674104301654
100
AcDbArc
 50
4.37
 51
19.46
  0
LINE
  5
244
330
2
100
AcDbEntity
  8
画層1
  6
ByBlock
 62
     0
370
    -2
100
AcDbLine
 10
234.09
 20
192.48
 30
0.0
 11
234.09
 21
191.48
 31
0.0
  0
LINE
  5
245
330
2
100
AcDbEntity
  8
画層1
  6
ByBlock
 62
     0
370
    -2
100
AcDbLine
 10
232.19
 20
192.58
 30
0.0
 11
232.19
 21
191.38
 31
0.0
  0
LINE
  5
246
330
2
100
AcDbEntity
  8
画層1
  6
ByBlock
 62
     0
370
    -2
100
AcDbLine
 10
232.19
 20
191.38
 30
0.0
 11
232.59
 21
191.38
 31
0.0
  0
LINE
  5
247
330
2
100
AcDbEntity
  8
画層1
  6
ByBlock
 62
     0
370
    -2
100
AcDbLine
 10
232.59
 20
192.58
 30
0.0
 11
232.19
 21
192.58
 31
0.0
  0
LINE
  5
248
330
2
100
AcDbEntity
  8
画層1
  6
ByBlock
 62
     0
370
    -2
100
AcDbLine
 10
233.17
 20
194.89
 30
0.0
 11
233.99
 21
194.77
 31
0.0
  0
LINE
  5
249
330
2
100
AcDbEntity
  8
画層1
  6
ByBlock
 62
     0
370
    -2
100
AcDbLine
 10
232.59
 20
194.39
 30
0.0
 11
232.59
 21
189.56
 31
0.0
  0
LINE
  5
24A
330
2
100
AcDbEntity
  8
画層1
  6
ByBlock
 62
     0
370
    -2
100
AcDbLine
 10
231.56
 20
191.18
 30
0.0
 11
230.99
 21
191.18
 31
0.0
  0
LINE
  5
24B
330
2
100
AcDbEntity
  8
画層1
  6
ByBlock
 62
     0
370
    -2
100
AcDbLine
 10
231.56
 20
192.78
 30
0.0
 11
230.99
 21
192.78
 31
0.0
  0
ARC
  5
24C
330
2
100
AcDbEntity
  8
画層1
  6
ByBlock
 62
     0
370
    -2
100
AcDbCircle
 10
238.22
 20
187.58
 30
0.0
 40
0.3
100
AcDbArc
 50
270.0
 51
360.0
  0
ARC
  5
24D
330
2
100
AcDbEntity
  8
画層1
  6
ByBlock
 62
     0
370
    -2
100
AcDbCircle
 10
238.22
 20
188.08
 30
0.0
 40
0.3
100
AcDbArc
 50
360.0
 51
90.0
  0
LINE
  5
24E
330
2
100
AcDbEntity
  8
画層1
  6
ByBlock
 62
     0
370
    -2
100
AcDbLine
 10
238.52
 20
188.08
 30
0.0
 11
238.52
 21
187.58
 31
0.0
  0
ARC
  5
24F
330
2
100
AcDbEntity
  8
画層1
  6
ByBlock
 62
     0
370
    -2
100
AcDbCircle
 10
227.55
 20
183.68
 30
0.0
 40
7.540000001812724
100
AcDbArc
 50
3.8
 51
15.99
  0
ARC
  5
250
330
2
100
AcDbEntity
  8
画層1
  6
ByBlock
 62
     0
370
    -2
100
AcDbCircle
 10
227.55
 20
191.98
 30
0.0
 40
7.540000001812724
100
AcDbArc
 50
3.8
 51
15.99
  0
ARC
  5
251
330
2
100
AcDbEntity
  8
画層1
  6
ByBlock
 62
     0
370
    -2
100
AcDbCircle
 10
227.55
 20
191.98
 30
0.0
 40
7.540000001812724
100
AcDbArc
 50
344.01
 51
356.2
  0
LINE
  5
252
330
2
100
AcDbEntity
  8
画層1
  6
ByBlock
 62
     0
370
    -2
100
AcDbLine
 10
230.02
 20
220.48
 30
0.0
 11
230.02
 21
213.28
 31
0.0
  0
ARC
  5
253
330
2
100
AcDbEntity
  8
画層1
  6
ByBlock
 62
     0
370
    -2
100
AcDbCircle
 10
227.55
 20
216.88
 30
0.0
 40
7.540000001812724
100
AcDbArc
 50
3.8
 51
15.99
  0
LINE
  5
254
330
2
100
AcDbEntity
  8
画層1
  6
ByBlock
 62
     0
370
    -2
100
AcDbLine
 10
232.59
 20
219.29
 30
0.0
 11
232.59
 21
214.46
 31
0.0
  0
LINE
  5
255
330
2
100
AcDbEntity
  8
画層1
  6
ByBlock
 62
     0
370
    -2
100
AcDbLine
 10
230.49
 20
213.38
 30
0.0
 11
230.49
 21
220.38
 31
0.0
  0
LINE
  5
256
330
2
100
AcDbEntity
  8
画層1
  6
ByBlock
 62
     0
370
    -2
100
AcDbLine
 10
230.99
 20
220.38
 30
0.0
 11
230.99
 21
213.38
 31
0.0
  0
ARC
  5
257
330
2
100
AcDbEntity
  8
画層1
  6
ByBlock
 62
     0
370
    -2
100
AcDbCircle
 10
221.09
 20
216.88
 30
0.0
 40
10.50674104301654
100
AcDbArc
 50
4.37
 51
19.46
  0
ARC
  5
258
330
2
100
AcDbEntity
  8
画層1
  6
ByBlock
 62
     0
370
    -2
100
AcDbCircle
 10
221.18
 20
216.63
 30
0.0
 40
11.44118730072772
100
AcDbArc
 50
4.26
 51
19.13
  0
LINE
  5
259
330
2
100
AcDbEntity
  8
画層1
  6
ByBlock
 62
     0
370
    -2
100
AcDbLine
 10
230.02
 20
212.18
 30
0.0
 11
230.02
 21
204.98
 31
0.0
  0
LINE
  5
25A
330
2
100
AcDbEntity
  8
画層1
  6
ByBlock
 62
     0
370
    -2
100
AcDbLine
 10
232.59
 20
210.99
 30
0.0
 11
232.59
 21
206.16
 31
0.0
  0
LINE
  5
25B
330
2
100
AcDbEntity
  8
画層1
  6
ByBlock
 62
     0
370
    -2
100
AcDbLine
 10
230.49
 20
205.08
 30
0.0
 11
230.49
 21
212.08
 31
0.0
  0
LINE
  5
25C
330
2
100
AcDbEntity
  8
画層1
  6
ByBlock
 62
     0
370
    -2
100
AcDbLine
 10
230.99
 20
212.08
 30
0.0
 11
230.99
 21
205.08
 31
0.0
  0
ARC
  5
25D
330
2
100
AcDbEntity
  8
画層1
  6
ByBlock
 62
     0
370
    -2
100
AcDbCircle
 10
221.09
 20
208.58
 30
0.0
 40
10.50674104301654
100
AcDbArc
 50
340.54
 51
355.63
  0
ARC
  5
25E
330
2
100
AcDbEntity
  8
画層1
  6
ByBlock
 62
     0
370
    -2
100
AcDbCircle
 10
221.18
 20
208.82
 30
0.0
 40
11.44118729799424
100
AcDbArc
 50
340.87
 51
355.74
  0
ARC
  5
25F
330
2
100
AcDbEntity
  8
画層1
  6
ByBlock
 62
     0
370
    -2
100
AcDbCircle
 10
227.55
 20
208.58
 30
0.0
 40
7.540000001812724
100
AcDbArc
 50
344.01
 51
356.2
  0
ARC
  5
260
330
2
100
AcDbEntity
  8
画層1
  6
ByBlock
 62
     0
370
    -2
100
AcDbCircle
 10
233.84
 20
202.08
 30
0.0
 40
1.0
100
AcDbArc
 50
15.99
 51
81.47
  0
ARC
  5
261
330
2
100
AcDbEntity
  8
画層1
  6
ByBlock
 62
     0
370
    -2
100
AcDbCircle
 10
233.84
 20
206.77
 30
0.0
 40
1.0
100
AcDbArc
 50
278.53
 51
344.01
  0
ARC
  5
262
330
2
100
AcDbEntity
  8
画層1
  6
ByBlock
 62
     0
370
    -2
100
AcDbCircle
 10
233.84
 20
198.47
 30
0.0
 40
1.0
100
AcDbArc
 50
278.53
 51
344.01
  0
LINE
  5
263
330
2
100
AcDbEntity
  8
画層1
  6
ByBlock
 62
     0
370
    -2
100
AcDbLine
 10
235.08
 20
200.78
 30
0.0
 11
234.09
 21
200.78
 31
0.0
  0
LINE
  5
264
330
2
100
AcDbEntity
  8
画層1
  6
ByBlock
 62
     0
370
    -2
100
AcDbLine
 10
234.09
 20
199.78
 30
0.0
 11
235.08
 21
199.78
 31
0.0
  0
LINE
  5
265
330
2
100
AcDbEntity
  8
画層1
  6
ByBlock
 62
     0
370
    -2
100
AcDbLine
 10
230.02
 20
196.68
 30
0.0
 11
238.22
 21
196.68
 31
0.0
  0
LINE
  5
266
330
2
100
AcDbEntity
  8
画層1
  6
ByBlock
 62
     0
370
    -2
100
AcDbLine
 10
230.02
 20
203.88
 30
0.0
 11
238.22
 21
203.88
 31
0.0
  0
LINE
  5
267
330
2
100
AcDbEntity
  8
画層1
  6
ByBlock
 62
     0
370
    -2
100
AcDbLine
 10
230.02
 20
204.98
 30
0.0
 11
238.22
 21
204.98
 31
0.0
  0
LINE
  5
268
330
2
100
AcDbEntity
  8
画層1
  6
ByBlock
 62
     0
370
    -2
100
AcDbLine
 10
230.02
 20
195.58
 30
0.0
 11
238.22
 21
195.58
 31
0.0
  0
LINE
  5
269
330
2
100
AcDbEntity
  8
画層1
  6
ByBlock
 62
     0
370
    -2
100
AcDbLine
 10
234.09
 20
200.78
 30
0.0
 11
234.09
 21
199.78
 31
0.0
  0
LINE
  5
26A
330
2
100
AcDbEntity
  8
画層1
  6
ByBlock
 62
     0
370
    -2
100
AcDbLine
 10
230.02
 20
203.88
 30
0.0
 11
230.02
 21
196.68
 31
0.0
  0
LINE
  5
26B
330
2
100
AcDbEntity
  8
画層1
  6
ByBlock
 62
     0
370
    -2
100
AcDbLine
 10
232.19
 20
200.88
 30
0.0
 11
232.19
 21
199.68
 31
0.0
  0
LINE
  5
26C
330
2
100
AcDbEntity
  8
画層1
  6
ByBlock
 62
     0
370
    -2
100
AcDbLine
 10
230.49
 20
196.78
 30
0.0
 11
230.49
 21
203.78
 31
0.0
  0
LINE
  5
26D
330
2
100
AcDbEntity
  8
画層1
  6
ByBlock
 62
     0
370
    -2
100
AcDbLine
 10
230.99
 20
203.78
 30
0.0
 11
230.99
 21
196.78
 31
0.0
  0
LINE
  5
26E
330
2
100
AcDbEntity
  8
画層1
  6
ByBlock
 62
     0
370
    -2
100
AcDbLine
 10
232.59
 20
202.69
 30
0.0
 11
232.59
 21
197.86
 31
0.0
  0
LINE
  5
26F
330
2
100
AcDbEntity
  8
画層1
  6
ByBlock
 62
     0
370
    -2
100
AcDbLine
 10
230.02
 20
195.48
 30
0.0
 11
231.99
 21
195.48
 31
0.0
  0
LINE
  5
270
330
2
100
AcDbEntity
  8
画層1
  6
ByBlock
 62
     0
370
    -2
100
AcDbLine
 10
231.99
 20
196.78
 30
0.0
 11
230.02
 21
196.78
 31
0.0
  0
ARC
  5
271
330
2
100
AcDbEntity
  8
画層1
  6
ByBlock
 62
     0
370
    -2
100
AcDbCircle
 10
230.22
 20
195.38
 30
0.0
 40
0.2
100
AcDbArc
 50
90.0
 51
180.0
  0
ARC
  5
272
330
2
100
AcDbEntity
  8
画層1
  6
ByBlock
 62
     0
370
    -2
100
AcDbCircle
 10
230.22
 20
196.88
 30
0.0
 40
0.2
100
AcDbArc
 50
180.0
 51
270.0
  0
ARC
  5
273
330
2
100
AcDbEntity
  8
画層1
  6
ByBlock
 62
     0
370
    -2
100
AcDbCircle
 10
233.09
 20
197.86
 30
0.0
 40
0.5
100
AcDbArc
 50
180.0
 51
278.53
  0
ARC
  5
274
330
2
100
AcDbEntity
  8
画層1
  6
ByBlock
 62
     0
370
    -2
100
AcDbCircle
 10
221.18
 20
200.52
 30
0.0
 40
11.44118729799424
100
AcDbArc
 50
340.87
 51
355.74
  0
LINE
  5
275
330
2
100
AcDbEntity
  8
画層1
  6
ByBlock
 62
     0
370
    -2
100
AcDbLine
 10
232.19
 20
199.68
 30
0.0
 11
232.59
 21
199.68
 31
0.0
  0
LINE
  5
276
330
2
100
AcDbEntity
  8
画層1
  6
ByBlock
 62
     0
370
    -2
100
AcDbLine
 10
233.17
 20
197.36
 30
0.0
 11
233.99
 21
197.48
 31
0.0
  0
LINE
  5
277
330
2
100
AcDbEntity
  8
画層1
  6
ByBlock
 62
     0
370
    -2
100
AcDbLine
 10
231.56
 20
199.48
 30
0.0
 11
230.99
 21
199.48
 31
0.0
  0
ARC
  5
278
330
2
100
AcDbEntity
  8
画層1
  6
ByBlock
 62
     0
370
    -2
100
AcDbCircle
 10
221.09
 20
200.28
 30
0.0
 40
10.50674104301654
100
AcDbArc
 50
340.54
 51
355.63
  0
LINE
  5
279
330
2
100
AcDbEntity
  8
画層1
  6
ByBlock
 62
     0
370
    -2
100
AcDbLine
 10
230.02
 20
203.78
 30
0.0
 11
231.99
 21
203.78
 31
0.0
  0
LINE
  5
27A
330
2
100
AcDbEntity
  8
画層1
  6
ByBlock
 62
     0
370
    -2
100
AcDbLine
 10
231.99
 20
205.08
 30
0.0
 11
230.02
 21
205.08
 31
0.0
  0
ARC
  5
27B
330
2
100
AcDbEntity
  8
画層1
  6
ByBlock
 62
     0
370
    -2
100
AcDbCircle
 10
230.22
 20
203.68
 30
0.0
 40
0.2
100
AcDbArc
 50
90.0
 51
180.0
  0
ARC
  5
27C
330
2
100
AcDbEntity
  8
画層1
  6
ByBlock
 62
     0
370
    -2
100
AcDbCircle
 10
230.22
 20
205.18
 30
0.0
 40
0.2
100
AcDbArc
 50
180.0
 51
270.0
  0
ARC
  5
27D
330
2
100
AcDbEntity
  8
画層1
  6
ByBlock
 62
     0
370
    -2
100
AcDbCircle
 10
233.09
 20
202.69
 30
0.0
 40
0.5
100
AcDbArc
 50
81.47
 51
180.0
  0
LINE
  5
27E
330
2
100
AcDbEntity
  8
画層1
  6
ByBlock
 62
     0
370
    -2
100
AcDbLine
 10
233.17
 20
203.19
 30
0.0
 11
233.99
 21
203.07
 31
0.0
  0
LINE
  5
27F
330
2
100
AcDbEntity
  8
画層1
  6
ByBlock
 62
     0
370
    -2
100
AcDbLine
 10
232.59
 20
200.88
 30
0.0
 11
232.19
 21
200.88
 31
0.0
  0
ARC
  5
280
330
2
100
AcDbEntity
  8
画層1
  6
ByBlock
 62
     0
370
    -2
100
AcDbCircle
 10
221.18
 20
200.03
 30
0.0
 40
11.44118730072772
100
AcDbArc
 50
4.26
 51
19.13
  0
ARC
  5
281
330
2
100
AcDbEntity
  8
画層1
  6
ByBlock
 62
     0
370
    -2
100
AcDbCircle
 10
233.09
 20
206.16
 30
0.0
 40
0.5
100
AcDbArc
 50
180.0
 51
278.53
  0
LINE
  5
282
330
2
100
AcDbEntity
  8
画層1
  6
ByBlock
 62
     0
370
    -2
100
AcDbLine
 10
233.17
 20
205.66
 30
0.0
 11
233.99
 21
205.78
 31
0.0
  0
LINE
  5
283
330
2
100
AcDbEntity
  8
画層1
  6
ByBlock
 62
     0
370
    -2
100
AcDbLine
 10
231.56
 20
201.08
 30
0.0
 11
230.99
 21
201.08
 31
0.0
  0
ARC
  5
284
330
2
100
AcDbEntity
  8
画層1
  6
ByBlock
 62
     0
370
    -2
100
AcDbCircle
 10
221.09
 20
200.28
 30
0.0
 40
10.50674104301654
100
AcDbArc
 50
4.37
 51
19.46
  0
ARC
  5
285
330
2
100
AcDbEntity
  8
画層1
  6
ByBlock
 62
     0
370
    -2
100
AcDbCircle
 10
238.22
 20
195.88
 30
0.0
 40
0.3
100
AcDbArc
 50
270.0
 51
0.0
  0
ARC
  5
286
330
2
100
AcDbEntity
  8
画層1
  6
ByBlock
 62
     0
370
    -2
100
AcDbCircle
 10
238.22
 20
196.38
 30
0.0
 40
0.3
100
AcDbArc
 50
0.0
 51
90.0
  0
LINE
  5
287
330
2
100
AcDbEntity
  8
画層1
  6
ByBlock
 62
     0
370
    -2
100
AcDbLine
 10
238.52
 20
196.38
 30
0.0
 11
238.52
 21
195.88
 31
0.0
  0
ARC
  5
288
330
2
100
AcDbEntity
  8
画層1
  6
ByBlock
 62
     0
370
    -2
100
AcDbCircle
 10
227.55
 20
200.28
 30
0.0
 40
7.540000001812724
100
AcDbArc
 50
344.01
 51
356.2
  0
ARC
  5
289
330
2
100
AcDbEntity
  8
画層1
  6
ByBlock
 62
     0
370
    -2
100
AcDbCircle
 10
238.22
 20
204.18
 30
0.0
 40
0.3
100
AcDbArc
 50
270.0
 51
0.0
  0
ARC
  5
28A
330
2
100
AcDbEntity
  8
画層1
  6
ByBlock
 62
     0
370
    -2
100
AcDbCircle
 10
238.22
 20
204.68
 30
0.0
 40
0.3
100
AcDbArc
 50
0.0
 51
90.0
  0
LINE
  5
28B
330
2
100
AcDbEntity
  8
画層1
  6
ByBlock
 62
     0
370
    -2
100
AcDbLine
 10
238.52
 20
204.68
 30
0.0
 11
238.52
 21
204.18
 31
0.0
  0
ARC
  5
28C
330
2
100
AcDbEntity
  8
画層1
  6
ByBlock
 62
     0
370
    -2
100
AcDbCircle
 10
227.55
 20
200.28
 30
0.0
 40
7.540000001812724
100
AcDbArc
 50
3.8
 51
15.99
  0
ARC
  5
28D
330
2
100
AcDbEntity
  8
画層1
  6
ByBlock
 62
     0
370
    -2
100
AcDbCircle
 10
233.84
 20
215.07
 30
0.0
 40
1.0
100
AcDbArc
 50
278.53
 51
344.01
  0
LINE
  5
28E
330
2
100
AcDbEntity
  8
画層1
  6
ByBlock
 62
     0
370
    -2
100
AcDbLine
 10
235.08
 20
217.38
 30
0.0
 11
234.09
 21
217.38
 31
0.0
  0
LINE
  5
28F
330
2
100
AcDbEntity
  8
画層1
  6
ByBlock
 62
     0
370
    -2
100
AcDbLine
 10
234.09
 20
216.38
 30
0.0
 11
235.08
 21
216.38
 31
0.0
  0
LINE
  5
290
330
2
100
AcDbEntity
  8
画層1
  6
ByBlock
 62
     0
370
    -2
100
AcDbLine
 10
235.08
 20
209.08
 30
0.0
 11
234.09
 21
209.08
 31
0.0
  0
LINE
  5
291
330
2
100
AcDbEntity
  8
画層1
  6
ByBlock
 62
     0
370
    -2
100
AcDbLine
 10
234.09
 20
208.08
 30
0.0
 11
235.08
 21
208.08
 31
0.0
  0
ARC
  5
292
330
2
100
AcDbEntity
  8
画層1
  6
ByBlock
 62
     0
370
    -2
100
AcDbCircle
 10
233.84
 20
210.38
 30
0.0
 40
1.0
100
AcDbArc
 50
15.99
 51
81.47
  0
LINE
  5
293
330
2
100
AcDbEntity
  8
画層1
  6
ByBlock
 62
     0
370
    -2
100
AcDbLine
 10
230.02
 20
212.18
 30
0.0
 11
238.22
 21
212.18
 31
0.0
  0
LINE
  5
294
330
2
100
AcDbEntity
  8
画層1
  6
ByBlock
 62
     0
370
    -2
100
AcDbLine
 10
230.02
 20
213.28
 30
0.0
 11
238.22
 21
213.28
 31
0.0
  0
LINE
  5
295
330
2
100
AcDbEntity
  8
画層1
  6
ByBlock
 62
     0
370
    -2
100
AcDbLine
 10
230.02
 20
212.08
 30
0.0
 11
231.99
 21
212.08
 31
0.0
  0
ARC
  5
296
330
2
100
AcDbEntity
  8
画層1
  6
ByBlock
 62
     0
370
    -2
100
AcDbCircle
 10
230.22
 20
211.98
 30
0.0
 40
0.2
100
AcDbArc
 50
90.0
 51
180.0
  0
LINE
  5
297
330
2
100
AcDbEntity
  8
画層1
  6
ByBlock
 62
     0
370
    -2
100
AcDbLine
 10
234.09
 20
209.08
 30
0.0
 11
234.09
 21
208.08
 31
0.0
  0
LINE
  5
298
330
2
100
AcDbEntity
  8
画層1
  6
ByBlock
 62
     0
370
    -2
100
AcDbLine
 10
232.19
 20
209.18
 30
0.0
 11
232.19
 21
207.98
 31
0.0
  0
LINE
  5
299
330
2
100
AcDbEntity
  8
画層1
  6
ByBlock
 62
     0
370
    -2
100
AcDbLine
 10
232.19
 20
207.98
 30
0.0
 11
232.59
 21
207.98
 31
0.0
  0
ARC
  5
29A
330
2
100
AcDbEntity
  8
画層1
  6
ByBlock
 62
     0
370
    -2
100
AcDbCircle
 10
221.18
 20
208.33
 30
0.0
 40
11.44118730072772
100
AcDbArc
 50
4.26
 51
19.13
  0
LINE
  5
29B
330
2
100
AcDbEntity
  8
画層1
  6
ByBlock
 62
     0
370
    -2
100
AcDbLine
 10
232.59
 20
209.18
 30
0.0
 11
232.19
 21
209.18
 31
0.0
  0
ARC
  5
29C
330
2
100
AcDbEntity
  8
画層1
  6
ByBlock
 62
     0
370
    -2
100
AcDbCircle
 10
233.09
 20
210.99
 30
0.0
 40
0.5
100
AcDbArc
 50
81.47
 51
180.0
  0
LINE
  5
29D
330
2
100
AcDbEntity
  8
画層1
  6
ByBlock
 62
     0
370
    -2
100
AcDbLine
 10
233.17
 20
211.49
 30
0.0
 11
233.99
 21
211.37
 31
0.0
  0
LINE
  5
29E
330
2
100
AcDbEntity
  8
画層1
  6
ByBlock
 62
     0
370
    -2
100
AcDbLine
 10
231.56
 20
207.78
 30
0.0
 11
230.99
 21
207.78
 31
0.0
  0
LINE
  5
29F
330
2
100
AcDbEntity
  8
画層1
  6
ByBlock
 62
     0
370
    -2
100
AcDbLine
 10
231.56
 20
209.38
 30
0.0
 11
230.99
 21
209.38
 31
0.0
  0
ARC
  5
2A0
330
2
100
AcDbEntity
  8
画層1
  6
ByBlock
 62
     0
370
    -2
100
AcDbCircle
 10
221.09
 20
208.58
 30
0.0
 40
10.50674104301654
100
AcDbArc
 50
4.37
 51
19.46
  0
LINE
  5
2A1
330
2
100
AcDbEntity
  8
画層1
  6
ByBlock
 62
     0
370
    -2
100
AcDbLine
 10
231.99
 20
213.38
 30
0.0
 11
230.02
 21
213.38
 31
0.0
  0
ARC
  5
2A2
330
2
100
AcDbEntity
  8
画層1
  6
ByBlock
 62
     0
370
    -2
100
AcDbCircle
 10
230.22
 20
213.48
 30
0.0
 40
0.2
100
AcDbArc
 50
180.0
 51
270.0
  0
LINE
  5
2A3
330
2
100
AcDbEntity
  8
画層1
  6
ByBlock
 62
     0
370
    -2
100
AcDbLine
 10
234.09
 20
217.38
 30
0.0
 11
234.09
 21
216.38
 31
0.0
  0
ARC
  5
2A4
330
2
100
AcDbEntity
  8
画層1
  6
ByBlock
 62
     0
370
    -2
100
AcDbCircle
 10
221.18
 20
217.12
 30
0.0
 40
11.44118729799424
100
AcDbArc
 50
340.87
 51
355.74
  0
ARC
  5
2A5
330
2
100
AcDbEntity
  8
画層1
  6
ByBlock
 62
     0
370
    -2
100
AcDbCircle
 10
233.09
 20
214.46
 30
0.0
 40
0.5
100
AcDbArc
 50
180.0
 51
278.53
  0
LINE
  5
2A6
330
2
100
AcDbEntity
  8
画層1
  6
ByBlock
 62
     0
370
    -2
100
AcDbLine
 10
232.59
 20
217.48
 30
0.0
 11
232.19
 21
217.48
 31
0.0
  0
LINE
  5
2A7
330
2
100
AcDbEntity
  8
画層1
  6
ByBlock
 62
     0
370
    -2
100
AcDbLine
 10
232.19
 20
216.28
 30
0.0
 11
232.59
 21
216.28
 31
0.0
  0
LINE
  5
2A8
330
2
100
AcDbEntity
  8
画層1
  6
ByBlock
 62
     0
370
    -2
100
AcDbLine
 10
232.19
 20
217.48
 30
0.0
 11
232.19
 21
216.28
 31
0.0
  0
LINE
  5
2A9
330
2
100
AcDbEntity
  8
画層1
  6
ByBlock
 62
     0
370
    -2
100
AcDbLine
 10
233.17
 20
213.96
 30
0.0
 11
233.99
 21
214.08
 31
0.0
  0
LINE
  5
2AA
330
2
100
AcDbEntity
  8
画層1
  6
ByBlock
 62
     0
370
    -2
100
AcDbLine
 10
231.56
 20
217.68
 30
0.0
 11
230.99
 21
217.68
 31
0.0
  0
LINE
  5
2AB
330
2
100
AcDbEntity
  8
画層1
  6
ByBlock
 62
     0
370
    -2
100
AcDbLine
 10
231.56
 20
216.08
 30
0.0
 11
230.99
 21
216.08
 31
0.0
  0
ARC
  5
2AC
330
2
100
AcDbEntity
  8
画層1
  6
ByBlock
 62
     0
370
    -2
100
AcDbCircle
 10
221.09
 20
216.88
 30
0.0
 40
10.50674104301654
100
AcDbArc
 50
340.54
 51
355.63
  0
ARC
  5
2AD
330
2
100
AcDbEntity
  8
画層1
  6
ByBlock
 62
     0
370
    -2
100
AcDbCircle
 10
238.22
 20
212.48
 30
0.0
 40
0.3
100
AcDbArc
 50
270.0
 51
0.0
  0
ARC
  5
2AE
330
2
100
AcDbEntity
  8
画層1
  6
ByBlock
 62
     0
370
    -2
100
AcDbCircle
 10
227.55
 20
208.58
 30
0.0
 40
7.540000001812724
100
AcDbArc
 50
3.8
 51
15.99
  0
ARC
  5
2AF
330
2
100
AcDbEntity
  8
画層1
  6
ByBlock
 62
     0
370
    -2
100
AcDbCircle
 10
238.22
 20
212.98
 30
0.0
 40
0.3
100
AcDbArc
 50
0.0
 51
90.0
  0
LINE
  5
2B0
330
2
100
AcDbEntity
  8
画層1
  6
ByBlock
 62
     0
370
    -2
100
AcDbLine
 10
238.52
 20
212.98
 30
0.0
 11
238.52
 21
212.48
 31
0.0
  0
ARC
  5
2B1
330
2
100
AcDbEntity
  8
画層1
  6
ByBlock
 62
     0
370
    -2
100
AcDbCircle
 10
227.55
 20
216.88
 30
0.0
 40
7.540000001812724
100
AcDbArc
 50
344.01
 51
356.2
  0
ARC
  5
2B2
330
2
100
AcDbEntity
  8
画層1
  6
ByBlock
 62
     0
370
    -2
100
AcDbCircle
 10
238.22
 20
229.58
 30
0.0
 40
0.3
100
AcDbArc
 50
0.0
 51
90.0
  0
LINE
  5
2B3
330
2
100
AcDbEntity
  8
画層1
  6
ByBlock
 62
     0
370
    -2
100
AcDbLine
 10
235.08
 20
225.68
 30
0.0
 11
234.09
 21
225.68
 31
0.0
  0
ARC
  5
2B4
330
2
100
AcDbEntity
  8
画層1
  6
ByBlock
 62
     0
370
    -2
100
AcDbCircle
 10
233.84
 20
226.98
 30
0.0
 40
1.0
100
AcDbArc
 50
15.99
 51
81.47
  0
LINE
  5
2B5
330
2
100
AcDbEntity
  8
画層1
  6
ByBlock
 62
     0
370
    -2
100
AcDbLine
 10
234.09
 20
224.68
 30
0.0
 11
235.08
 21
224.68
 31
0.0
  0
ARC
  5
2B6
330
2
100
AcDbEntity
  8
画層1
  6
ByBlock
 62
     0
370
    -2
100
AcDbCircle
 10
233.84
 20
218.68
 30
0.0
 40
1.0
100
AcDbArc
 50
15.99
 51
81.47
  0
ARC
  5
2B7
330
2
100
AcDbEntity
  8
画層1
  6
ByBlock
 62
     0
370
    -2
100
AcDbCircle
 10
233.84
 20
223.37
 30
0.0
 40
1.0
100
AcDbArc
 50
278.53
 51
344.01
  0
LINE
  5
2B8
330
2
100
AcDbEntity
  8
画層1
  6
ByBlock
 62
     0
370
    -2
100
AcDbLine
 10
230.02
 20
221.58
 30
0.0
 11
238.22
 21
221.58
 31
0.0
  0
LINE
  5
2B9
330
2
100
AcDbEntity
  8
画層1
  6
ByBlock
 62
     0
370
    -2
100
AcDbLine
 10
238.22
 20
220.48
 30
0.0
 11
230.02
 21
220.48
 31
0.0
  0
LINE
  5
2BA
330
2
100
AcDbEntity
  8
画層1
  6
ByBlock
 62
     0
370
    -2
100
AcDbLine
 10
230.02
 20
228.78
 30
0.0
 11
238.22
 21
228.78
 31
0.0
  0
LINE
  5
2BB
330
2
100
AcDbEntity
  8
画層1
  6
ByBlock
 62
     0
370
    -2
100
AcDbLine
 10
230.02
 20
228.78
 30
0.0
 11
230.02
 21
221.58
 31
0.0
  0
ARC
  5
2BC
330
2
100
AcDbEntity
  8
画層1
  6
ByBlock
 62
     0
370
    -2
100
AcDbCircle
 10
221.09
 20
225.18
 30
0.0
 40
10.50674104301654
100
AcDbArc
 50
340.54
 51
355.63
  0
ARC
  5
2BD
330
2
100
AcDbEntity
  8
画層1
  6
ByBlock
 62
     0
370
    -2
100
AcDbCircle
 10
221.18
 20
225.42
 30
0.0
 40
11.44118729799424
100
AcDbArc
 50
340.87
 51
355.74
  0
LINE
  5
2BE
330
2
100
AcDbEntity
  8
画層1
  6
ByBlock
 62
     0
370
    -2
100
AcDbLine
 10
232.59
 20
227.59
 30
0.0
 11
232.59
 21
222.76
 31
0.0
  0
LINE
  5
2BF
330
2
100
AcDbEntity
  8
画層1
  6
ByBlock
 62
     0
370
    -2
100
AcDbLine
 10
230.49
 20
221.68
 30
0.0
 11
230.49
 21
228.68
 31
0.0
  0
LINE
  5
2C0
330
2
100
AcDbEntity
  8
画層1
  6
ByBlock
 62
     0
370
    -2
100
AcDbLine
 10
230.99
 20
228.68
 30
0.0
 11
230.99
 21
221.68
 31
0.0
  0
LINE
  5
2C1
330
2
100
AcDbEntity
  8
画層1
  6
ByBlock
 62
     0
370
    -2
100
AcDbLine
 10
230.02
 20
220.38
 30
0.0
 11
231.99
 21
220.38
 31
0.0
  0
LINE
  5
2C2
330
2
100
AcDbEntity
  8
画層1
  6
ByBlock
 62
     0
370
    -2
100
AcDbLine
 10
231.99
 20
221.68
 30
0.0
 11
230.02
 21
221.68
 31
0.0
  0
ARC
  5
2C3
330
2
100
AcDbEntity
  8
画層1
  6
ByBlock
 62
     0
370
    -2
100
AcDbCircle
 10
230.22
 20
220.28
 30
0.0
 40
0.2
100
AcDbArc
 50
90.0
 51
180.0
  0
ARC
  5
2C4
330
2
100
AcDbEntity
  8
画層1
  6
ByBlock
 62
     0
370
    -2
100
AcDbCircle
 10
230.22
 20
221.78
 30
0.0
 40
0.2
100
AcDbArc
 50
180.0
 51
270.0
  0
ARC
  5
2C5
330
2
100
AcDbEntity
  8
画層1
  6
ByBlock
 62
     0
370
    -2
100
AcDbCircle
 10
227.22
 20
218.43
 30
0.0
 40
1.0
100
AcDbArc
 50
0.0
 51
90.0
  0
ARC
  5
2C6
330
2
100
AcDbEntity
  8
画層1
  6
ByBlock
 62
     0
370
    -2
100
AcDbCircle
 10
233.09
 20
219.29
 30
0.0
 40
0.5
100
AcDbArc
 50
81.47
 51
180.0
  0
LINE
  5
2C7
330
2
100
AcDbEntity
  8
画層1
  6
ByBlock
 62
     0
370
    -2
100
AcDbLine
 10
233.17
 20
219.79
 30
0.0
 11
233.99
 21
219.67
 31
0.0
  0
ARC
  5
2C8
330
2
100
AcDbEntity
  8
画層1
  6
ByBlock
 62
     0
370
    -2
100
AcDbCircle
 10
233.09
 20
222.76
 30
0.0
 40
0.5
100
AcDbArc
 50
180.0
 51
278.53
  0
LINE
  5
2C9
330
2
100
AcDbEntity
  8
画層1
  6
ByBlock
 62
     0
370
    -2
100
AcDbLine
 10
233.17
 20
222.26
 30
0.0
 11
233.99
 21
222.38
 31
0.0
  0
LINE
  5
2CA
330
2
100
AcDbEntity
  8
画層1
  6
ByBlock
 62
     0
370
    -2
100
AcDbLine
 10
230.02
 20
228.68
 30
0.0
 11
231.99
 21
228.68
 31
0.0
  0
ARC
  5
2CB
330
2
100
AcDbEntity
  8
画層1
  6
ByBlock
 62
     0
370
    -2
100
AcDbCircle
 10
230.22
 20
228.58
 30
0.0
 40
0.2
100
AcDbArc
 50
90.0
 51
180.0
  0
ARC
  5
2CC
330
2
100
AcDbEntity
  8
画層1
  6
ByBlock
 62
     0
370
    -2
100
AcDbCircle
 10
221.18
 20
224.93
 30
0.0
 40
11.44118730072772
100
AcDbArc
 50
4.26
 51
19.13
  0
LINE
  5
2CD
330
2
100
AcDbEntity
  8
画層1
  6
ByBlock
 62
     0
370
    -2
100
AcDbLine
 10
232.59
 20
225.78
 30
0.0
 11
232.19
 21
225.78
 31
0.0
  0
ARC
  5
2CE
330
2
100
AcDbEntity
  8
画層1
  6
ByBlock
 62
     0
370
    -2
100
AcDbCircle
 10
233.09
 20
227.59
 30
0.0
 40
0.5
100
AcDbArc
 50
81.47
 51
180.0
  0
LINE
  5
2CF
330
2
100
AcDbEntity
  8
画層1
  6
ByBlock
 62
     0
370
    -2
100
AcDbLine
 10
233.17
 20
228.09
 30
0.0
 11
233.99
 21
227.97
 31
0.0
  0
LINE
  5
2D0
330
2
100
AcDbEntity
  8
画層1
  6
ByBlock
 62
     0
370
    -2
100
AcDbLine
 10
232.19
 20
224.58
 30
0.0
 11
232.59
 21
224.58
 31
0.0
  0
LINE
  5
2D1
330
2
100
AcDbEntity
  8
画層1
  6
ByBlock
 62
     0
370
    -2
100
AcDbLine
 10
232.19
 20
225.78
 30
0.0
 11
232.19
 21
224.58
 31
0.0
  0
LINE
  5
2D2
330
2
100
AcDbEntity
  8
画層1
  6
ByBlock
 62
     0
370
    -2
100
AcDbLine
 10
234.09
 20
225.68
 30
0.0
 11
234.09
 21
224.68
 31
0.0
  0
LINE
  5
2D3
330
2
100
AcDbEntity
  8
画層1
  6
ByBlock
 62
     0
370
    -2
100
AcDbLine
 10
231.56
 20
225.98
 30
0.0
 11
230.99
 21
225.98
 31
0.0
  0
LINE
  5
2D4
330
2
100
AcDbEntity
  8
画層1
  6
ByBlock
 62
     0
370
    -2
100
AcDbLine
 10
231.56
 20
224.38
 30
0.0
 11
230.99
 21
224.38
 31
0.0
  0
ARC
  5
2D5
330
2
100
AcDbEntity
  8
画層1
  6
ByBlock
 62
     0
370
    -2
100
AcDbCircle
 10
221.09
 20
225.18
 30
0.0
 40
10.50674104301654
100
AcDbArc
 50
4.37
 51
19.46
  0
ARC
  5
2D6
330
2
100
AcDbEntity
  8
画層1
  6
ByBlock
 62
     0
370
    -2
100
AcDbCircle
 10
227.55
 20
225.18
 30
0.0
 40
7.540000001812724
100
AcDbArc
 50
344.01
 51
356.2
  0
ARC
  5
2D7
330
2
100
AcDbEntity
  8
画層1
  6
ByBlock
 62
     0
370
    -2
100
AcDbCircle
 10
238.22
 20
220.78
 30
0.0
 40
0.3
100
AcDbArc
 50
270.0
 51
0.0
  0
ARC
  5
2D8
330
2
100
AcDbEntity
  8
画層1
  6
ByBlock
 62
     0
370
    -2
100
AcDbCircle
 10
238.22
 20
221.28
 30
0.0
 40
0.3
100
AcDbArc
 50
0.0
 51
90.0
  0
LINE
  5
2D9
330
2
100
AcDbEntity
  8
画層1
  6
ByBlock
 62
     0
370
    -2
100
AcDbLine
 10
238.52
 20
221.28
 30
0.0
 11
238.52
 21
220.78
 31
0.0
  0
ARC
  5
2DA
330
2
100
AcDbEntity
  8
画層1
  6
ByBlock
 62
     0
370
    -2
100
AcDbCircle
 10
238.22
 20
229.08
 30
0.0
 40
0.3
100
AcDbArc
 50
270.0
 51
0.0
  0
LINE
  5
2DB
330
2
100
AcDbEntity
  8
画層1
  6
ByBlock
 62
     0
370
    -2
100
AcDbLine
 10
238.52
 20
229.58
 30
0.0
 11
238.52
 21
229.08
 31
0.0
  0
ARC
  5
2DC
330
2
100
AcDbEntity
  8
画層1
  6
ByBlock
 62
     0
370
    -2
100
AcDbCircle
 10
227.55
 20
225.18
 30
0.0
 40
7.540000001812724
100
AcDbArc
 50
3.8
 51
15.99
  0
ARC
  5
2DD
330
2
100
AcDbEntity
  8
画層1
  6
ByBlock
 62
     0
370
    -2
100
AcDbCircle
 10
233.84
 20
231.67
 30
0.0
 40
1.0
100
AcDbArc
 50
278.53
 51
344.01
  0
LINE
  5
2DE
330
2
100
AcDbEntity
  8
画層1
  6
ByBlock
 62
     0
370
    -2
100
AcDbLine
 10
235.08
 20
233.98
 30
0.0
 11
234.09
 21
233.98
 31
0.0
  0
LINE
  5
2DF
330
2
100
AcDbEntity
  8
画層1
  6
ByBlock
 62
     0
370
    -2
100
AcDbLine
 10
234.09
 20
232.98
 30
0.0
 11
235.08
 21
232.98
 31
0.0
  0
ARC
  5
2E0
330
2
100
AcDbEntity
  8
画層1
  6
ByBlock
 62
     0
370
    -2
100
AcDbCircle
 10
233.84
 20
235.28
 30
0.0
 40
1.0
100
AcDbArc
 50
15.99
 51
81.47
  0
LINE
  5
2E1
330
2
100
AcDbEntity
  8
画層1
  6
ByBlock
 62
     0
370
    -2
100
AcDbLine
 10
230.02
 20
239.13
 30
0.0
 11
238.22
 21
239.13
 31
0.0
  0
LINE
  5
2E2
330
2
100
AcDbEntity
  8
画層1
  6
ByBlock
 62
     0
370
    -2
100
AcDbLine
 10
230.02
 20
241.13
 30
0.0
 11
238.52
 21
241.13
 31
0.0
  0
LINE
  5
2E3
330
2
100
AcDbEntity
  8
画層1
  6
ByBlock
 62
     0
370
    -2
100
AcDbLine
 10
230.02
 20
229.88
 30
0.0
 11
238.22
 21
229.88
 31
0.0
  0
LINE
  5
2E4
330
2
100
AcDbEntity
  8
画層1
  6
ByBlock
 62
     0
370
    -2
100
AcDbLine
 10
238.22
 20
237.08
 30
0.0
 11
230.02
 21
237.08
 31
0.0
  0
LINE
  5
2E5
330
2
100
AcDbEntity
  8
画層1
  6
ByBlock
 62
     0
370
    -2
100
AcDbLine
 10
230.02
 20
237.08
 30
0.0
 11
230.02
 21
229.88
 31
0.0
  0
LINE
  5
2E6
330
2
100
AcDbEntity
  8
画層1
  6
ByBlock
 62
     0
370
    -2
100
AcDbLine
 10
230.49
 20
229.98
 30
0.0
 11
230.49
 21
236.98
 31
0.0
  0
LINE
  5
2E7
330
2
100
AcDbEntity
  8
画層1
  6
ByBlock
 62
     0
370
    -2
100
AcDbLine
 10
232.59
 20
235.89
 30
0.0
 11
232.59
 21
231.06
 31
0.0
  0
LINE
  5
2E8
330
2
100
AcDbEntity
  8
画層1
  6
ByBlock
 62
     0
370
    -2
100
AcDbLine
 10
230.99
 20
236.98
 30
0.0
 11
230.99
 21
229.98
 31
0.0
  0
ARC
  5
2E9
330
2
100
AcDbEntity
  8
画層1
  6
ByBlock
 62
     0
370
    -2
100
AcDbCircle
 10
221.09
 20
233.48
 30
0.0
 40
10.50674104301654
100
AcDbArc
 50
4.37
 51
19.46
  0
ARC
  5
2EA
330
2
100
AcDbEntity
  8
画層1
  6
ByBlock
 62
     0
370
    -2
100
AcDbCircle
 10
221.18
 20
233.23
 30
0.0
 40
11.44118730072772
100
AcDbArc
 50
4.26
 51
19.13
  0
ARC
  5
2EB
330
2
100
AcDbEntity
  8
画層1
  6
ByBlock
 62
     0
370
    -2
100
AcDbCircle
 10
227.52
 20
235.13
 30
0.0
 40
1.0
100
AcDbArc
 50
0.0
 51
90.0
  0
LINE
  5
2EC
330
2
100
AcDbEntity
  8
画層1
  6
ByBlock
 62
     0
370
    -2
100
AcDbLine
 10
231.99
 20
229.98
 30
0.0
 11
230.02
 21
229.98
 31
0.0
  0
ARC
  5
2ED
330
2
100
AcDbEntity
  8
画層1
  6
ByBlock
 62
     0
370
    -2
100
AcDbCircle
 10
230.22
 20
230.08
 30
0.0
 40
0.2
100
AcDbArc
 50
180.0
 51
270.0
  0
ARC
  5
2EE
330
2
100
AcDbEntity
  8
画層1
  6
ByBlock
 62
     0
370
    -2
100
AcDbCircle
 10
221.18
 20
233.72
 30
0.0
 40
11.44118729799424
100
AcDbArc
 50
340.87
 51
355.74
  0
ARC
  5
2EF
330
2
100
AcDbEntity
  8
画層1
  6
ByBlock
 62
     0
370
    -2
100
AcDbCircle
 10
233.09
 20
231.06
 30
0.0
 40
0.5
100
AcDbArc
 50
180.0
 51
278.53
  0
LINE
  5
2F0
330
2
100
AcDbEntity
  8
画層1
  6
ByBlock
 62
     0
370
    -2
100
AcDbLine
 10
233.17
 20
230.56
 30
0.0
 11
233.99
 21
230.68
 31
0.0
  0
LINE
  5
2F1
330
2
100
AcDbEntity
  8
画層1
  6
ByBlock
 62
     0
370
    -2
100
AcDbLine
 10
232.59
 20
234.08
 30
0.0
 11
232.19
 21
234.08
 31
0.0
  0
LINE
  5
2F2
330
2
100
AcDbEntity
  8
画層1
  6
ByBlock
 62
     0
370
    -2
100
AcDbLine
 10
232.19
 20
232.88
 30
0.0
 11
232.59
 21
232.88
 31
0.0
  0
LINE
  5
2F3
330
2
100
AcDbEntity
  8
画層1
  6
ByBlock
 62
     0
370
    -2
100
AcDbLine
 10
232.19
 20
234.08
 30
0.0
 11
232.19
 21
232.88
 31
0.0
  0
LINE
  5
2F4
330
2
100
AcDbEntity
  8
画層1
  6
ByBlock
 62
     0
370
    -2
100
AcDbLine
 10
234.09
 20
233.98
 30
0.0
 11
234.09
 21
232.98
 31
0.0
  0
LINE
  5
2F5
330
2
100
AcDbEntity
  8
画層1
  6
ByBlock
 62
     0
370
    -2
100
AcDbLine
 10
231.56
 20
234.28
 30
0.0
 11
230.99
 21
234.28
 31
0.0
  0
LINE
  5
2F6
330
2
100
AcDbEntity
  8
画層1
  6
ByBlock
 62
     0
370
    -2
100
AcDbLine
 10
231.56
 20
232.68
 30
0.0
 11
230.99
 21
232.68
 31
0.0
  0
ARC
  5
2F7
330
2
100
AcDbEntity
  8
画層1
  6
ByBlock
 62
     0
370
    -2
100
AcDbCircle
 10
221.09
 20
233.48
 30
0.0
 40
10.50674104301654
100
AcDbArc
 50
340.54
 51
355.63
  0
LINE
  5
2F8
330
2
100
AcDbEntity
  8
画層1
  6
ByBlock
 62
     0
370
    -2
100
AcDbLine
 10
230.02
 20
236.98
 30
0.0
 11
231.99
 21
236.98
 31
0.0
  0
ARC
  5
2F9
330
2
100
AcDbEntity
  8
画層1
  6
ByBlock
 62
     0
370
    -2
100
AcDbCircle
 10
230.22
 20
236.88
 30
0.0
 40
0.2
100
AcDbArc
 50
90.0
 51
180.0
  0
ARC
  5
2FA
330
2
100
AcDbEntity
  8
画層1
  6
ByBlock
 62
     0
370
    -2
100
AcDbCircle
 10
233.09
 20
235.89
 30
0.0
 40
0.5
100
AcDbArc
 50
81.47
 51
180.0
  0
LINE
  5
2FB
330
2
100
AcDbEntity
  8
画層1
  6
ByBlock
 62
     0
370
    -2
100
AcDbLine
 10
233.17
 20
236.39
 30
0.0
 11
233.99
 21
236.27
 31
0.0
  0
ARC
  5
2FC
330
2
100
AcDbEntity
  8
画層1
  6
ByBlock
 62
     0
370
    -2
100
AcDbCircle
 10
227.55
 20
233.48
 30
0.0
 40
7.540000001812724
100
AcDbArc
 50
3.8
 51
15.99
  0
ARC
  5
2FD
330
2
100
AcDbEntity
  8
画層1
  6
ByBlock
 62
     0
370
    -2
100
AcDbCircle
 10
227.55
 20
233.48
 30
0.0
 40
7.540000001812724
100
AcDbArc
 50
344.01
 51
356.2
  0
ARC
  5
2FE
330
2
100
AcDbEntity
  8
画層1
  6
ByBlock
 62
     0
370
    -2
100
AcDbCircle
 10
238.22
 20
238.83
 30
0.0
 40
0.3
100
AcDbArc
 50
0.0
 51
90.0
  0
ARC
  5
2FF
330
2
100
AcDbEntity
  8
画層1
  6
ByBlock
 62
     0
370
    -2
100
AcDbCircle
 10
238.22
 20
237.38
 30
0.0
 40
0.3
100
AcDbArc
 50
270.0
 51
0.0
  0
LINE
  5
300
330
2
100
AcDbEntity
  8
画層1
  6
ByBlock
 62
     0
370
    -2
100
AcDbLine
 10
238.52
 20
241.13
 30
0.0
 11
238.52
 21
237.38
 31
0.0
  0
ENDSEC
  0
SECTION
  2
OBJECTS
  0
DICTIONARY
  5
7
330
0
100
AcDbDictionary
281
     1
  3
ACAD_GROUP
350
1F
  3
ACAD_LAYOUT
350
B
  3
ACAD_MLINESTYLE
350
20
  3
ACAD_PLOTSETTINGS
350
21
  3
ACAD_PLOTSTYLENAME
350
6
  0
DICTIONARY
  5
1F
102
{ACAD_REACTORS
330
7
102
}
330
7
100
AcDbDictionary
281
     1
  0
DICTIONARY
  5
B
102
{ACAD_REACTORS
330
7
102
}
330
7
100
AcDbDictionary
281
     1
  3
Model
350
A
  3
ﾚｲｱｳﾄ1
350
F
  0
DICTIONARY
  5
20
102
{ACAD_REACTORS
330
7
102
}
330
7
100
AcDbDictionary
281
     1
  3
STANDARD
350
2A
  0
DICTIONARY
  5
21
102
{ACAD_REACTORS
330
7
102
}
330
7
100
AcDbDictionary
281
     1
  0
ACDBDICTIONARYWDFLT
  5
6
102
{ACAD_REACTORS
330
7
102
}
330
7
100
AcDbDictionary
281
     1
  3
Normal
350
5
100
AcDbDictionaryWithDefault
340
5
  0
LAYOUT
  5
A
102
{ACAD_REACTORS
330
B
102
}
330
B
100
AcDbPlotSettings
  1

  2
Canon LBP-740
  4
A3
  6

 40
5.87
 41
6.04
 42
5.87
 43
5.87
 44
296.93
 45
420.12
 46
0.0
 47
0.0
 48
0.0
 49
0.0
140
0.0
141
0.0
142
1.0
143
1.0
 70
 11952
 72
     1
 73
     1
 74
     1
  7
ryu.ctb
 75
    16
147
1.0
148
0.03
149
0.02
100
AcDbLayout
  1
Model
 70
     1
 71
     0
 10
0.0
 20
0.0
 11
12.0
 21
9.0
 12
0.0
 22
0.0
 32
0.0
 14
0.0
 24
0.0
 34
0.0
 15
0.0
 25
0.0
 35
0.0
146
0.0
 13
0.0
 23
0.0
 33
0.0
 16
1.0
 26
0.0
 36
0.0
 17
0.0
 27
1.0
 37
0.0
 76
     0
330
2
  0
LAYOUT
  5
F
102
{ACAD_REACTORS
330
B
102
}
330
B
100
AcDbPlotSettings
  1

  2
Canon LASER SHOT LBP-740
  4

  6

 40
0.0
 41
0.0
 42
0.0
 43
0.0
 44
0.0
 45
0.0
 46
0.0
 47
0.0
 48
0.0
 49
0.0
140
0.0
141
0.0
142
1.0
143
1.0
 70
   688
 72
     0
 73
     0
 74
     5
  7
ryu.ctb
 75
    16
147
1.0
148
0.0
149
0.0
100
AcDbLayout
  1
ﾚｲｱｳﾄ1
 70
     1
 71
     1
 10
0.0
 20
0.0
 11
420.0
 21
297.0
 12
0.0
 22
0.0
 32
0.0
 14
1.00E+20
 24
1.00E+20
 34
1.00E+20
 15
-1.00E+20
 25
-1.00E+20
 35
-1.00E+20
146
0.0
 13
0.0
 23
0.0
 33
0.0
 16
1.0
 26
0.0
 36
0.0
 17
0.0
 27
1.0
 37
0.0
 76
     0
330
C
  0
MLINESTYLE
  5
2A
102
{ACAD_REACTORS
330
20
102
}
330
20
100
AcDbMlineStyle
  2
STANDARD
 70
     0
  3

 62
   256
 51
90.0
 52
90.0
 71
     2
 49
0.5
 62
   256
  6
BYLAYER
 49
-0.5
 62
   256
  6
BYLAYER
  0
ACDBPLACEHOLDER
  5
5
102
{ACAD_REACTORS
330
6
102
}
330
6
  0
ENDSEC
  0
EOF
