  0
SECTION
  2
HEADER
  9
$ACADVER
  1
AC1015
  9
$ACADMAINTVER
 70
     6
  9
$DWGCODEPAGE
  3
ANSI_932
  9
$INSBASE
 10
0.0
 20
0.0
 30
0.0
  9
$EXTMIN
 10
19.4
 20
0.7
 30
0.0
  9
$EXTMAX
 10
388.25
 20
261.42
 30
0.0
  9
$LIMMIN
 10
0.0
 20
0.0
  9
$LIMMAX
 10
420.0
 20
297.0
  9
$ORTHOMODE
 70
     0
  9
$REGENMODE
 70
     1
  9
$FILLMODE
 70
     1
  9
$QTEXTMODE
 70
     0
  9
$MIRRTEXT
 70
     1
  9
$LTSCALE
 40
0.2
  9
$ATTMODE
 70
     1
  9
$TEXTSIZE
 40
2.5
  9
$TRACEWID
 40
1.0
  9
$TEXTSTYLE
  7
STYLE1
  9
$CLAYER
  8
0
  9
$CELTYPE
  6
BYLAYER
  9
$CECOLOR
 62
     1
  9
$CELTSCALE
 40
1.0
  9
$DISPSILH
 70
     0
  9
$DIMSCALE
 40
1.0
  9
$DIMASZ
 40
1.5
  9
$DIMEXO
 40
0.63
  9
$DIMDLI
 40
3.75
  9
$DIMRND
 40
0.0
  9
$DIMDLE
 40
0.0
  9
$DIMEXE
 40
1.25
  9
$DIMTP
 40
0.8
  9
$DIMTM
 40
0.0
  9
$DIMTXT
 40
2.5
  9
$DIMCEN
 40
2.5
  9
$DIMTSZ
 40
0.0
  9
$DIMTOL
 70
     1
  9
$DIMLIM
 70
     0
  9
$DIMTIH
 70
     0
  9
$DIMTOH
 70
     0
  9
$DIMSE1
 70
     0
  9
$DIMSE2
 70
     0
  9
$DIMTAD
 70
     1
  9
$DIMZIN
 70
     8
  9
$DIMBLK
  1

  9
$DIMASO
 70
     1
  9
$DIMSHO
 70
     1
  9
$DIMPOST
  1

  9
$DIMAPOST
  1

  9
$DIMALT
 70
     0
  9
$DIMALTD
 70
     4
  9
$DIMALTF
 40
0.04
  9
$DIMLFAC
 40
1.0
  9
$DIMTOFL
 70
     1
  9
$DIMTVP
 40
0.0
  9
$DIMTIX
 70
     0
  9
$DIMSOXD
 70
     0
  9
$DIMSAH
 70
     1
  9
$DIMBLK1
  1
OPEN
  9
$DIMBLK2
  1
OPEN
  9
$DIMSTYLE
  2
STANDARD_WS
  9
$DIMCLRD
 70
     0
  9
$DIMCLRE
 70
     0
  9
$DIMCLRT
 70
     0
  9
$DIMTFAC
 40
0.5
  9
$DIMGAP
 40
0.63
  9
$DIMJUST
 70
     0
  9
$DIMSD1
 70
     0
  9
$DIMSD2
 70
     0
  9
$DIMTOLJ
 70
     1
  9
$DIMTZIN
 70
     8
  9
$DIMALTZ
 70
     0
  9
$DIMALTTZ
 70
     0
  9
$DIMUPT
 70
     0
  9
$DIMDEC
 70
     4
  9
$DIMTDEC
 70
     4
  9
$DIMALTU
 70
     8
  9
$DIMALTTD
 70
     4
  9
$DIMTXSTY
  7
STYLE1
  9
$DIMAUNIT
 70
     0
  9
$DIMADEC
 70
     0
  9
$DIMALTRND
 40
0.0
  9
$DIMAZIN
 70
     0
  9
$DIMDSEP
 70
    46
  9
$DIMATFIT
 70
     3
  9
$DIMFRAC
 70
     0
  9
$DIMLDRBLK
  1
OPEN
  9
$DIMLUNIT
 70
     2
  9
$DIMLWD
 70
    -2
  9
$DIMLWE
 70
    -2
  9
$DIMTMOVE
 70
     0
  9
$LUNITS
 70
     2
  9
$LUPREC
 70
     4
  9
$SKETCHINC
 40
1.0
  9
$FILLETRAD
 40
1.0
  9
$AUNITS
 70
     0
  9
$AUPREC
 70
     0
  9
$MENU
  1
acad
  9
$ELEVATION
 40
0.0
  9
$PELEVATION
 40
0.0
  9
$THICKNESS
 40
0.0
  9
$LIMCHECK
 70
     0
  9
$CHAMFERA
 40
10.0
  9
$CHAMFERB
 40
10.0
  9
$CHAMFERC
 40
20.0
  9
$CHAMFERD
 40
0.0
  9
$SKPOLY
 70
     0
  9
$TDCREATE
 40
2450995.462150231
  9
$TDUCREATE
 40
2450995.087150231
  9
$TDUPDATE
 40
2452265.491962616
  9
$TDUUPDATE
 40
2452265.116962616
  9
$TDINDWG
 40
1.6056671296
  9
$TDUSRTIMER
 40
1.6056671296
  9
$USRTIMER
 70
     1
  9
$ANGBASE
 50
0.0
  9
$ANGDIR
 70
     0
  9
$PDMODE
 70
     0
  9
$PDSIZE
 40
0.0
  9
$PLINEWID
 40
10.0
  9
$SPLFRAME
 70
     0
  9
$SPLINETYPE
 70
     6
  9
$SPLINESEGS
 70
     8
  9
$HANDSEED
  5
310
  9
$SURFTAB1
 70
     6
  9
$SURFTAB2
 70
     6
  9
$SURFTYPE
 70
     6
  9
$SURFU
 70
     6
  9
$SURFV
 70
     6
  9
$UCSBASE
  2

  9
$UCSNAME
  2

  9
$UCSORG
 10
0.0
 20
0.0
 30
0.0
  9
$UCSXDIR
 10
1.0
 20
0.0
 30
0.0
  9
$UCSYDIR
 10
0.0
 20
1.0
 30
0.0
  9
$UCSORTHOREF
  2

  9
$UCSORTHOVIEW
 70
     0
  9
$UCSORGTOP
 10
0.0
 20
0.0
 30
0.0
  9
$UCSORGBOTTOM
 10
0.0
 20
0.0
 30
0.0
  9
$UCSORGLEFT
 10
0.0
 20
0.0
 30
0.0
  9
$UCSORGRIGHT
 10
0.0
 20
0.0
 30
0.0
  9
$UCSORGFRONT
 10
0.0
 20
0.0
 30
0.0
  9
$UCSORGBACK
 10
0.0
 20
0.0
 30
0.0
  9
$PUCSBASE
  2

  9
$PUCSNAME
  2

  9
$PUCSORG
 10
0.0
 20
0.0
 30
0.0
  9
$PUCSXDIR
 10
1.0
 20
0.0
 30
0.0
  9
$PUCSYDIR
 10
0.0
 20
1.0
 30
0.0
  9
$PUCSORTHOREF
  2

  9
$PUCSORTHOVIEW
 70
     0
  9
$PUCSORGTOP
 10
0.0
 20
0.0
 30
0.0
  9
$PUCSORGBOTTOM
 10
0.0
 20
0.0
 30
0.0
  9
$PUCSORGLEFT
 10
0.0
 20
0.0
 30
0.0
  9
$PUCSORGRIGHT
 10
0.0
 20
0.0
 30
0.0
  9
$PUCSORGFRONT
 10
0.0
 20
0.0
 30
0.0
  9
$PUCSORGBACK
 10
0.0
 20
0.0
 30
0.0
  9
$USERI1
 70
     0
  9
$USERI2
 70
     0
  9
$USERI3
 70
     0
  9
$USERI4
 70
     0
  9
$USERI5
 70
     0
  9
$USERR1
 40
0.0
  9
$USERR2
 40
0.0
  9
$USERR3
 40
0.0
  9
$USERR4
 40
0.0
  9
$USERR5
 40
0.0
  9
$WORLDVIEW
 70
     1
  9
$SHADEDGE
 70
     3
  9
$SHADEDIF
 70
    70
  9
$TILEMODE
 70
     1
  9
$MAXACTVP
 70
    48
  9
$PINSBASE
 10
0.0
 20
0.0
 30
0.0
  9
$PLIMCHECK
 70
     0
  9
$PEXTMIN
 10
1.00E+20
 20
1.00E+20
 30
1.00E+20
  9
$PEXTMAX
 10
-1.00E+20
 20
-1.00E+20
 30
-1.00E+20
  9
$PLIMMIN
 10
0.0
 20
0.0
  9
$PLIMMAX
 10
420.0
 20
297.0
  9
$UNITMODE
 70
     0
  9
$VISRETAIN
 70
     1
  9
$PLINEGEN
 70
     0
  9
$PSLTSCALE
 70
     1
  9
$TREEDEPTH
 70
  3020
  9
$CMLSTYLE
  2
STANDARD
  9
$CMLJUST
 70
     0
  9
$CMLSCALE
 40
20.0
  9
$PROXYGRAPHICS
 70
     1
  9
$MEASUREMENT
 70
     1
  9
$CELWEIGHT
370
    -1
  9
$ENDCAPS
280
     0
  9
$JOINSTYLE
280
     0
  9
$LWDISPLAY
290
     0
  9
$INSUNITS
 70
     0
  9
$HYPERLINKBASE
  1

  9
$STYLESHEET
  1

  9
$XEDIT
290
     1
  9
$CEPSNTYPE
380
     0
  9
$PSTYLEMODE
290
     1
  9
$FINGERPRINTGUID
  2
{128F3924-9681-11D3-A790-004026173390}
  9
$VERSIONGUID
  2
{B8B3A479-F5EE-11D5-9CC8-0040267E1ECE}
  9
$EXTNAMES
290
     1
  9
$PSVPSCALE
 40
0.0
  9
$OLESTARTUP
290
     0
  0
ENDSEC
  0
SECTION
  2
CLASSES
  0
CLASS
  1
DICTIONARYVAR
  2
AcDbDictionaryVar
  3
AutoCAD 2000
 90
    32768
280
     0
281
     0
  0
CLASS
  1
LWPOLYLINE
  2
AcDbPolyline
  3
AutoCAD 2000
 90
    32768
280
     0
281
     1
  0
CLASS
  1
OLE2FRAME
  2
AcDbOle2Frame
  3
AutoCAD 2000
 90
    32768
280
     0
281
     1
  0
CLASS
  1
HATCH
  2
AcDbHatch
  3
AutoCAD 2000
 90
    32768
280
     0
281
     1
  0
CLASS
  1
ACDBDICTIONARYWDFLT
  2
AcDbDictionaryWithDefault
  3
AutoCAD 2000
 90
        0
280
     0
281
     0
  0
CLASS
  1
ACDBPLACEHOLDER
  2
AcDbPlaceHolder
  3
AutoCAD 2000
 90
        0
280
     0
281
     0
  0
CLASS
  1
LAYOUT
  2
AcDbLayout
  3
AutoCAD 2000
 90
        0
280
     0
281
     0
  0
ENDSEC
  0
SECTION
  2
TABLES
  0
TABLE
  2
VPORT
  5
1A
330
0
100
AcDbSymbolTable
 70
     1
  0
VPORT
  5
1B
330
1A
100
AcDbSymbolTableRecord
100
AcDbViewportTableRecord
  2
*Active
 70
     0
 10
0.0
 20
0.0
 11
1.0
 21
1.0
 12
163.01
 22
131.06
 13
0.0
 23
0.0
 14
1.0
 24
1.0
 15
2.0
 25
2.0
 16
0.0
 26
0.0
 36
1.0
 17
0.0
 27
0.0
 37
0.0
 40
298.5
 41
1.75
 42
50.0
 43
0.0
 44
0.0
 50
0.0
 51
0.0
 71
     0
 72
   100
 73
     1
 74
     1
 75
     0
 76
     0
 77
     0
 78
     0
281
     0
 65
     1
110
0.0
120
0.0
130
0.0
111
1.0
121
0.0
131
0.0
112
0.0
122
1.0
132
0.0
 79
     0
146
0.0
  0
ENDTAB
  0
TABLE
  2
LTYPE
  5
15
330
0
100
AcDbSymbolTable
 70
     1
  0
LTYPE
  5
16
330
15
100
AcDbSymbolTableRecord
100
AcDbLinetypeTableRecord
  2
BYBLOCK
 70
     0
  3

 72
    65
 73
     0
 40
0.0
  0
LTYPE
  5
17
330
15
100
AcDbSymbolTableRecord
100
AcDbLinetypeTableRecord
  2
BYLAYER
 70
     0
  3

 72
    65
 73
     0
 40
0.0
  0
LTYPE
  5
8
330
15
100
AcDbSymbolTableRecord
100
AcDbLinetypeTableRecord
  2
CONTINUOUS
 70
     0
  3
Solid line
 72
    65
 73
     0
 40
0.0
  0
ENDTAB
  0
TABLE
  2
LAYER
  5
10
330
0
100
AcDbSymbolTable
 70
     3
  0
LAYER
  5
4
330
10
100
AcDbSymbolTableRecord
100
AcDbLayerTableRecord
  2
0
 70
     0
 62
     7
  6
CONTINUOUS
370
    -3
390
5
  0
LAYER
  5
49
330
10
100
AcDbSymbolTableRecord
100
AcDbLayerTableRecord
  2
DEFPOINTS
 70
     0
 62
     7
  6
CONTINUOUS
290
     0
370
    -3
390
5
  0
LAYER
  5
2C
330
10
100
AcDbSymbolTableRecord
100
AcDbLayerTableRecord
  2
画層1
 70
     0
 62
     7
  6
CONTINUOUS
370
    -3
390
5
  0
ENDTAB
  0
TABLE
  2
STYLE
  5
11
330
0
100
AcDbSymbolTable
 70
     2
  0
STYLE
  5
12
330
11
100
AcDbSymbolTableRecord
100
AcDbTextStyleTableRecord
  2
STANDARD
 70
     0
 40
2.5
 41
1.0
 50
0.0
 71
     0
 42
1.5
  3
MS PMincho.ttf
  4

1001
ACAD
1000
MS PMincho
1071
    32786
  0
STYLE
  5
29
330
11
100
AcDbSymbolTableRecord
100
AcDbTextStyleTableRecord
  2
STYLE1
 70
     0
 40
2.5
 41
1.0
 50
0.0
 71
     0
 42
2.5
  3
MS Gothic.ttf
  4

1001
ACAD
1000
MS Gothic
1071
    32817
  0
ENDTAB
  0
TABLE
  2
VIEW
  5
18
330
0
100
AcDbSymbolTable
 70
     0
  0
ENDTAB
  0
TABLE
  2
UCS
  5
19
330
0
100
AcDbSymbolTable
 70
     0
  0
ENDTAB
  0
TABLE
  2
APPID
  5
1C
330
0
100
AcDbSymbolTable
 70
     1
  0
APPID
  5
13
330
1C
100
AcDbSymbolTableRecord
100
AcDbRegAppTableRecord
  2
ACAD
 70
     0
  0
ENDTAB
  0
TABLE
  2
DIMSTYLE
  5
1D
330
0
100
AcDbSymbolTable
 70
     1
100
AcDbDimStyleTable
 71
     1
340
1E
  0
DIMSTYLE
105
1E
102
{ACAD_REACTORS
330
D8
330
170
330
4E
330
3A
330
198
330
79
330
97
330
67
102
}
330
1D
100
AcDbSymbolTableRecord
100
AcDbDimStyleTableRecord
  2
STANDARD_WS
 70
     0
 41
1.5
 42
0.63
 43
3.75
 44
1.25
 73
     0
 74
     0
 77
     1
 78
     8
140
2.5
141
2.5
143
0.04
147
0.63
171
     4
172
     1
173
     1
273
     8
274
     4
340
12
341
1F
343
1F
344
1F
  0
ENDTAB
  0
TABLE
  2
BLOCK_RECORD
  5
1
330
0
100
AcDbSymbolTable
 70
    10
  0
BLOCK_RECORD
  5
2
330
1
100
AcDbSymbolTableRecord
100
AcDbBlockTableRecord
  2
*MODEL_SPACE
340
A
  0
BLOCK_RECORD
  5
C
330
1
100
AcDbSymbolTableRecord
100
AcDbBlockTableRecord
  2
*PAPER_SPACE
340
F
  0
BLOCK_RECORD
  5
1F
330
1
100
AcDbSymbolTableRecord
100
AcDbBlockTableRecord
  2
_OPEN
340
0
  0
BLOCK_RECORD
  5
3B
330
1
100
AcDbSymbolTableRecord
100
AcDbBlockTableRecord
  2
_OPEN30
340
0
102
{BLKREFS
331
45
331
46
331
52
331
53
331
6C
331
6D
331
7E
331
7F
331
9C
331
9D
331
DD
331
DE
331
175
331
176
331
19D
331
19E
102
}
  0
BLOCK_RECORD
  5
D9
330
1
100
AcDbSymbolTableRecord
100
AcDbBlockTableRecord
  2
*D2
340
0
  0
BLOCK_RECORD
  5
68
330
1
100
AcDbSymbolTableRecord
100
AcDbBlockTableRecord
  2
*D3
340
0
  0
BLOCK_RECORD
  5
171
330
1
100
AcDbSymbolTableRecord
100
AcDbBlockTableRecord
  2
*D4
340
0
  0
BLOCK_RECORD
  5
4F
330
1
100
AcDbSymbolTableRecord
100
AcDbBlockTableRecord
  2
*D5
340
0
  0
BLOCK_RECORD
  5
41
330
1
100
AcDbSymbolTableRecord
100
AcDbBlockTableRecord
  2
*D6
340
0
  0
BLOCK_RECORD
  5
199
330
1
100
AcDbSymbolTableRecord
100
AcDbBlockTableRecord
  2
*D7
340
0
  0
BLOCK_RECORD
  5
7A
330
1
100
AcDbSymbolTableRecord
100
AcDbBlockTableRecord
  2
*D8
340
0
  0
BLOCK_RECORD
  5
98
330
1
100
AcDbSymbolTableRecord
100
AcDbBlockTableRecord
  2
*D9
340
0
  0
ENDTAB
  0
ENDSEC
  0
SECTION
  2
BLOCKS
  0
BLOCK
  5
3
330
2
100
AcDbEntity
  8
0
100
AcDbBlockBegin
  2
*MODEL_SPACE
 70
     0
 10
0.0
 20
0.0
 30
0.0
  3
*MODEL_SPACE
  1

  0
ENDBLK
  5
9
330
2
100
AcDbEntity
  8
0
100
AcDbBlockEnd
  0
BLOCK
  5
D
330
C
100
AcDbEntity
 67
     1
  8
0
100
AcDbBlockBegin
  2
*PAPER_SPACE
 70
     0
 10
0.0
 20
0.0
 30
0.0
  3
*PAPER_SPACE
  1

  0
ENDBLK
  5
E
330
C
100
AcDbEntity
 67
     1
  8
0
100
AcDbBlockEnd
  0
BLOCK
  5
23
330
1F
100
AcDbEntity
  8
0
100
AcDbBlockBegin
  2
_OPEN
 70
     0
 10
0.0
 20
0.0
 30
0.0
  3
_OPEN
  1

  0
LINE
  5
20
330
1F
100
AcDbEntity
  8
0
  6
ByBlock
 62
     0
100
AcDbLine
 10
-1.0
 20
0.17
 30
0.0
 11
0.0
 21
0.0
 31
0.0
  0
LINE
  5
21
330
1F
100
AcDbEntity
  8
0
  6
ByBlock
 62
     0
100
AcDbLine
 10
0.0
 20
0.0
 30
0.0
 11
-1.0
 21
-0.17
 31
0.0
  0
LINE
  5
22
330
1F
100
AcDbEntity
  8
0
  6
ByBlock
 62
     0
100
AcDbLine
 10
0.0
 20
0.0
 30
0.0
 11
-1.0
 21
0.0
 31
0.0
  0
ENDBLK
  5
24
330
1F
100
AcDbEntity
  8
0
100
AcDbBlockEnd
  0
BLOCK
  5
3F
330
3B
100
AcDbEntity
  8
0
100
AcDbBlockBegin
  2
_OPEN30
 70
     0
 10
0.0
 20
0.0
 30
0.0
  3
_OPEN30
  1

  0
LINE
  5
3C
330
3B
100
AcDbEntity
  8
0
  6
ByBlock
 62
     0
100
AcDbLine
 10
-1.0
 20
0.27
 30
0.0
 11
0.0
 21
0.0
 31
0.0
  0
LINE
  5
3D
330
3B
100
AcDbEntity
  8
0
  6
ByBlock
 62
     0
100
AcDbLine
 10
0.0
 20
0.0
 30
0.0
 11
-1.0
 21
-0.27
 31
0.0
  0
LINE
  5
3E
330
3B
100
AcDbEntity
  8
0
  6
ByBlock
 62
     0
100
AcDbLine
 10
0.0
 20
0.0
 30
0.0
 11
-1.0
 21
0.0
 31
0.0
  0
ENDBLK
  5
40
330
3B
100
AcDbEntity
  8
0
100
AcDbBlockEnd
  0
BLOCK
  5
E3
330
D9
100
AcDbEntity
  8
0
100
AcDbBlockBegin
  2
*D2
 70
     1
 10
0.0
 20
0.0
 30
0.0
  3
*D2
  1

  0
LINE
  5
DA
330
D9
100
AcDbEntity
  8
画層1
 62
     0
370
    -2
100
AcDbLine
 10
31.0
 20
243.63
 30
0.0
 11
31.0
 21
252.25
 31
0.0
  0
LINE
  5
DB
330
D9
100
AcDbEntity
  8
画層1
 62
     0
370
    -2
100
AcDbLine
 10
127.0
 20
243.63
 30
0.0
 11
127.0
 21
252.25
 31
0.0
  0
LINE
  5
DC
330
D9
100
AcDbEntity
  8
画層1
 62
     0
370
    -2
100
AcDbLine
 10
32.5
 20
251.0
 30
0.0
 11
125.5
 21
251.0
 31
0.0
  0
INSERT
  5
DD
330
D9
100
AcDbEntity
  8
画層1
 62
     0
370
    -2
100
AcDbBlockReference
  2
_OPEN30
 10
31.0
 20
251.0
 30
0.0
 41
1.5
 42
1.5
 43
1.5
 50
180.0
  0
INSERT
  5
DE
330
D9
100
AcDbEntity
  8
画層1
 62
     0
370
    -2
100
AcDbBlockReference
  2
_OPEN30
 10
127.0
 20
251.0
 30
0.0
 41
1.5
 42
1.5
 43
1.5
  0
MTEXT
  5
DF
330
D9
100
AcDbEntity
  8
画層1
 62
     0
100
AcDbMText
 10
79.0
 20
252.88
 30
0.0
 40
2.5
 41
0.0
 71
     5
 72
     1
  1
\A1;96
  7
STYLE1
 73
     1
 44
1.0
  0
POINT
  5
E0
330
D9
100
AcDbEntity
  8
DEFPOINTS
 62
     0
100
AcDbPoint
 10
31.0
 20
243.0
 30
0.0
  0
POINT
  5
E1
330
D9
100
AcDbEntity
  8
DEFPOINTS
 62
     0
100
AcDbPoint
 10
127.0
 20
243.0
 30
0.0
  0
POINT
  5
E2
330
D9
100
AcDbEntity
  8
DEFPOINTS
 62
     0
100
AcDbPoint
 10
127.0
 20
251.0
 30
0.0
  0
ENDBLK
  5
E4
330
D9
100
AcDbEntity
  8
0
100
AcDbBlockEnd
  0
BLOCK
  5
72
330
68
100
AcDbEntity
  8
0
100
AcDbBlockBegin
  2
*D3
 70
     1
 10
0.0
 20
0.0
 30
0.0
  3
*D3
  1

  0
LINE
  5
69
330
68
100
AcDbEntity
  8
画層1
 62
     0
370
    -2
100
AcDbLine
 10
126.63
 20
148.0
 30
0.0
 11
135.25
 21
148.0
 31
0.0
  0
LINE
  5
6A
330
68
100
AcDbEntity
  8
画層1
 62
     0
370
    -2
100
AcDbLine
 10
126.63
 20
244.0
 30
0.0
 11
135.25
 21
244.0
 31
0.0
  0
LINE
  5
6B
330
68
100
AcDbEntity
  8
画層1
 62
     0
370
    -2
100
AcDbLine
 10
134.0
 20
149.5
 30
0.0
 11
134.0
 21
242.5
 31
0.0
  0
INSERT
  5
6C
330
68
100
AcDbEntity
  8
画層1
 62
     0
370
    -2
100
AcDbBlockReference
  2
_OPEN30
 10
134.0
 20
148.0
 30
0.0
 41
1.5
 42
1.5
 43
1.5
 50
270.0
  0
INSERT
  5
6D
330
68
100
AcDbEntity
  8
画層1
 62
     0
370
    -2
100
AcDbBlockReference
  2
_OPEN30
 10
134.0
 20
244.0
 30
0.0
 41
1.5
 42
1.5
 43
1.5
 50
90.0
  0
MTEXT
  5
6E
330
68
100
AcDbEntity
  8
画層1
 62
     0
100
AcDbMText
 10
132.13
 20
196.0
 30
0.0
 40
2.5
 41
0.0
 71
     5
 72
     1
  1
\A1;96
  7
STYLE1
 11
0.0
 21
1.0
 31
0.0
 73
     1
 44
1.0
  0
POINT
  5
6F
330
68
100
AcDbEntity
  8
DEFPOINTS
 62
     0
100
AcDbPoint
 10
126.0
 20
148.0
 30
0.0
  0
POINT
  5
70
330
68
100
AcDbEntity
  8
DEFPOINTS
 62
     0
100
AcDbPoint
 10
126.0
 20
244.0
 30
0.0
  0
POINT
  5
71
330
68
100
AcDbEntity
  8
DEFPOINTS
 62
     0
100
AcDbPoint
 10
134.0
 20
244.0
 30
0.0
  0
ENDBLK
  5
73
330
68
100
AcDbEntity
  8
0
100
AcDbBlockEnd
  0
BLOCK
  5
17B
330
171
100
AcDbEntity
  8
0
100
AcDbBlockBegin
  2
*D4
 70
     1
 10
0.0
 20
0.0
 30
0.0
  3
*D4
  1

  0
LINE
  5
172
330
171
100
AcDbEntity
  8
画層1
 62
     0
370
    -2
100
AcDbLine
 10
151.0
 20
243.93
 30
0.0
 11
151.0
 21
252.25
 31
0.0
  0
LINE
  5
173
330
171
100
AcDbEntity
  8
画層1
 62
     0
370
    -2
100
AcDbLine
 10
162.0
 20
244.63
 30
0.0
 11
162.0
 21
252.25
 31
0.0
  0
LINE
  5
174
330
171
100
AcDbEntity
  8
画層1
 62
     0
370
    -2
100
AcDbLine
 10
152.5
 20
251.0
 30
0.0
 11
160.5
 21
251.0
 31
0.0
  0
INSERT
  5
175
330
171
100
AcDbEntity
  8
画層1
 62
     0
370
    -2
100
AcDbBlockReference
  2
_OPEN30
 10
151.0
 20
251.0
 30
0.0
 41
1.5
 42
1.5
 43
1.5
 50
180.0
  0
INSERT
  5
176
330
171
100
AcDbEntity
  8
画層1
 62
     0
370
    -2
100
AcDbBlockReference
  2
_OPEN30
 10
162.0
 20
251.0
 30
0.0
 41
1.5
 42
1.5
 43
1.5
  0
MTEXT
  5
177
330
171
100
AcDbEntity
  8
画層1
 62
     0
100
AcDbMText
 10
156.5
 20
252.88
 30
0.0
 40
2.5
 41
0.0
 71
     5
 72
     1
  1
\A1;11
  7
STYLE1
 73
     1
 44
1.0
  0
POINT
  5
178
330
171
100
AcDbEntity
  8
DEFPOINTS
 62
     0
100
AcDbPoint
 10
151.0
 20
243.3
 30
0.0
  0
POINT
  5
179
330
171
100
AcDbEntity
  8
DEFPOINTS
 62
     0
100
AcDbPoint
 10
162.0
 20
244.0
 30
0.0
  0
POINT
  5
17A
330
171
100
AcDbEntity
  8
DEFPOINTS
 62
     0
100
AcDbPoint
 10
162.0
 20
251.0
 30
0.0
  0
ENDBLK
  5
17C
330
171
100
AcDbEntity
  8
0
100
AcDbBlockEnd
  0
BLOCK
  5
58
330
4F
100
AcDbEntity
  8
0
100
AcDbBlockBegin
  2
*D5
 70
     1
 10
0.0
 20
0.0
 30
0.0
  3
*D5
  1

  0
LINE
  5
50
330
4F
100
AcDbEntity
  8
画層1
 62
     0
370
    -2
100
AcDbLine
 10
262.0
 20
239.93
 30
0.0
 11
262.0
 21
252.25
 31
0.0
  0
LINE
  5
51
330
4F
100
AcDbEntity
  8
画層1
 62
     0
370
    -2
100
AcDbLine
 10
163.5
 20
251.0
 30
0.0
 11
260.5
 21
251.0
 31
0.0
  0
INSERT
  5
52
330
4F
100
AcDbEntity
  8
画層1
 62
     0
370
    -2
100
AcDbBlockReference
  2
_OPEN30
 10
162.0
 20
251.0
 30
0.0
 41
1.5
 42
1.5
 43
1.5
 50
180.0
  0
INSERT
  5
53
330
4F
100
AcDbEntity
  8
画層1
 62
     0
370
    -2
100
AcDbBlockReference
  2
_OPEN30
 10
262.0
 20
251.0
 30
0.0
 41
1.5
 42
1.5
 43
1.5
  0
MTEXT
  5
54
330
4F
100
AcDbEntity
  8
画層1
 62
     0
100
AcDbMText
 10
212.0
 20
252.88
 30
0.0
 40
2.5
 41
0.0
 71
     5
 72
     1
  1
\A1;100
  7
STYLE1
 73
     1
 44
1.0
  0
POINT
  5
55
330
4F
100
AcDbEntity
  8
DEFPOINTS
 62
     0
100
AcDbPoint
 10
162.0
 20
244.0
 30
0.0
  0
POINT
  5
56
330
4F
100
AcDbEntity
  8
DEFPOINTS
 62
     0
100
AcDbPoint
 10
262.0
 20
239.3
 30
0.0
  0
POINT
  5
57
330
4F
100
AcDbEntity
  8
DEFPOINTS
 62
     0
100
AcDbPoint
 10
262.0
 20
251.0
 30
0.0
  0
ENDBLK
  5
59
330
4F
100
AcDbEntity
  8
0
100
AcDbBlockEnd
  0
BLOCK
  5
4C
330
41
100
AcDbEntity
  8
0
100
AcDbBlockBegin
  2
*D6
 70
     1
 10
0.0
 20
0.0
 30
0.0
  3
*D6
  1

  0
LINE
  5
42
330
41
100
AcDbEntity
  8
画層1
 62
     0
370
    -2
100
AcDbLine
 10
151.0
 20
251.63
 30
0.0
 11
151.0
 21
259.25
 31
0.0
  0
LINE
  5
43
330
41
100
AcDbEntity
  8
画層1
 62
     0
370
    -2
100
AcDbLine
 10
262.0
 20
251.63
 30
0.0
 11
262.0
 21
259.25
 31
0.0
  0
LINE
  5
44
330
41
100
AcDbEntity
  8
画層1
 62
     0
370
    -2
100
AcDbLine
 10
152.5
 20
258.0
 30
0.0
 11
260.5
 21
258.0
 31
0.0
  0
INSERT
  5
45
330
41
100
AcDbEntity
  8
画層1
 62
     0
370
    -2
100
AcDbBlockReference
  2
_OPEN30
 10
151.0
 20
258.0
 30
0.0
 41
1.5
 42
1.5
 43
1.5
 50
180.0
  0
INSERT
  5
46
330
41
100
AcDbEntity
  8
画層1
 62
     0
370
    -2
100
AcDbBlockReference
  2
_OPEN30
 10
262.0
 20
258.0
 30
0.0
 41
1.5
 42
1.5
 43
1.5
  0
MTEXT
  5
47
330
41
100
AcDbEntity
  8
画層1
 62
     0
100
AcDbMText
 10
206.5
 20
259.88
 30
0.0
 40
2.5
 41
0.0
 71
     5
 72
     1
  1
\A1;111
  7
STYLE1
 73
     1
 44
1.0
  0
POINT
  5
48
330
41
100
AcDbEntity
  8
DEFPOINTS
 62
     0
100
AcDbPoint
 10
151.0
 20
251.0
 30
0.0
  0
POINT
  5
4A
330
41
100
AcDbEntity
  8
DEFPOINTS
 62
     0
100
AcDbPoint
 10
262.0
 20
251.0
 30
0.0
  0
POINT
  5
4B
330
41
100
AcDbEntity
  8
DEFPOINTS
 62
     0
100
AcDbPoint
 10
262.0
 20
258.0
 30
0.0
  0
ENDBLK
  5
4D
330
41
100
AcDbEntity
  8
0
100
AcDbBlockEnd
  0
BLOCK
  5
1A3
330
199
100
AcDbEntity
  8
0
100
AcDbBlockBegin
  2
*D7
 70
     1
 10
0.0
 20
0.0
 30
0.0
  3
*D7
  1

  0
LINE
  5
19A
330
199
100
AcDbEntity
  8
画層1
 62
     0
370
    -2
100
AcDbLine
 10
264.45
 20
241.48
 30
0.0
 11
274.28
 21
241.48
 31
0.0
  0
LINE
  5
19B
330
199
100
AcDbEntity
  8
画層1
 62
     0
370
    -2
100
AcDbLine
 10
264.45
 20
149.88
 30
0.0
 11
274.28
 21
149.88
 31
0.0
  0
LINE
  5
19C
330
199
100
AcDbEntity
  8
画層1
 62
     0
370
    -2
100
AcDbLine
 10
273.03
 20
239.98
 30
0.0
 11
273.03
 21
151.38
 31
0.0
  0
INSERT
  5
19D
330
199
100
AcDbEntity
  8
画層1
 62
     0
370
    -2
100
AcDbBlockReference
  2
_OPEN30
 10
273.03
 20
241.48
 30
0.0
 41
1.5
 42
1.5
 43
1.5
 50
90.0
  0
INSERT
  5
19E
330
199
100
AcDbEntity
  8
画層1
 62
     0
370
    -2
100
AcDbBlockReference
  2
_OPEN30
 10
273.03
 20
149.88
 30
0.0
 41
1.5
 42
1.5
 43
1.5
 50
270.0
  0
MTEXT
  5
19F
330
199
100
AcDbEntity
  8
画層1
 62
     0
100
AcDbMText
 10
271.15
 20
195.68
 30
0.0
 40
2.5
 41
0.0
 71
     5
 72
     1
  1
\A1;91.6
  7
STYLE1
 11
0.0
 21
1.0
 31
0.0
 73
     1
 44
1.0
  0
POINT
  5
1A0
330
199
100
AcDbEntity
  8
DEFPOINTS
 62
     0
100
AcDbPoint
 10
263.83
 20
241.48
 30
0.0
  0
POINT
  5
1A1
330
199
100
AcDbEntity
  8
DEFPOINTS
 62
     0
100
AcDbPoint
 10
263.83
 20
149.88
 30
0.0
  0
POINT
  5
1A2
330
199
100
AcDbEntity
  8
DEFPOINTS
 62
     0
100
AcDbPoint
 10
273.03
 20
149.88
 30
0.0
  0
ENDBLK
  5
1A4
330
199
100
AcDbEntity
  8
0
100
AcDbBlockEnd
  0
BLOCK
  5
84
330
7A
100
AcDbEntity
  8
0
100
AcDbBlockBegin
  2
*D8
 70
     1
 10
0.0
 20
0.0
 30
0.0
  3
*D8
  1

  0
LINE
  5
7B
330
7A
100
AcDbEntity
  8
画層1
 62
     0
370
    -2
100
AcDbLine
 10
33.0
 20
117.63
 30
0.0
 11
33.0
 21
127.25
 31
0.0
  0
LINE
  5
7C
330
7A
100
AcDbEntity
  8
画層1
 62
     0
370
    -2
100
AcDbLine
 10
125.0
 20
117.63
 30
0.0
 11
125.0
 21
127.25
 31
0.0
  0
LINE
  5
7D
330
7A
100
AcDbEntity
  8
画層1
 62
     0
370
    -2
100
AcDbLine
 10
34.5
 20
126.0
 30
0.0
 11
123.5
 21
126.0
 31
0.0
  0
INSERT
  5
7E
330
7A
100
AcDbEntity
  8
画層1
 62
     0
370
    -2
100
AcDbBlockReference
  2
_OPEN30
 10
33.0
 20
126.0
 30
0.0
 41
1.5
 42
1.5
 43
1.5
 50
180.0
  0
INSERT
  5
7F
330
7A
100
AcDbEntity
  8
画層1
 62
     0
370
    -2
100
AcDbBlockReference
  2
_OPEN30
 10
125.0
 20
126.0
 30
0.0
 41
1.5
 42
1.5
 43
1.5
  0
MTEXT
  5
80
330
7A
100
AcDbEntity
  8
画層1
 62
     0
100
AcDbMText
 10
79.0
 20
128.07
 30
0.0
 40
2.5
 41
0.0
 71
     5
 72
     1
  1
\A1;92{\H1.250000;\S+0.8^  0;}
  7
STYLE1
 73
     1
 44
1.0
  0
POINT
  5
81
330
7A
100
AcDbEntity
  8
DEFPOINTS
 62
     0
100
AcDbPoint
 10
33.0
 20
117.0
 30
0.0
  0
POINT
  5
82
330
7A
100
AcDbEntity
  8
DEFPOINTS
 62
     0
100
AcDbPoint
 10
125.0
 20
117.0
 30
0.0
  0
POINT
  5
83
330
7A
100
AcDbEntity
  8
DEFPOINTS
 62
     0
100
AcDbPoint
 10
125.0
 20
126.0
 30
0.0
  0
ENDBLK
  5
85
330
7A
100
AcDbEntity
  8
0
100
AcDbBlockEnd
  0
BLOCK
  5
A2
330
98
100
AcDbEntity
  8
0
100
AcDbBlockBegin
  2
*D9
 70
     1
 10
0.0
 20
0.0
 30
0.0
  3
*D9
  1

  0
LINE
  5
99
330
98
100
AcDbEntity
  8
画層1
 62
     0
370
    -2
100
AcDbLine
 10
125.63
 20
117.0
 30
0.0
 11
135.25
 21
117.0
 31
0.0
  0
LINE
  5
9A
330
98
100
AcDbEntity
  8
画層1
 62
     0
370
    -2
100
AcDbLine
 10
125.63
 20
25.0
 30
0.0
 11
135.25
 21
25.0
 31
0.0
  0
LINE
  5
9B
330
98
100
AcDbEntity
  8
画層1
 62
     0
370
    -2
100
AcDbLine
 10
134.0
 20
115.5
 30
0.0
 11
134.0
 21
26.5
 31
0.0
  0
INSERT
  5
9C
330
98
100
AcDbEntity
  8
画層1
 62
     0
370
    -2
100
AcDbBlockReference
  2
_OPEN30
 10
134.0
 20
117.0
 30
0.0
 41
1.5
 42
1.5
 43
1.5
 50
90.0
  0
INSERT
  5
9D
330
98
100
AcDbEntity
  8
画層1
 62
     0
370
    -2
100
AcDbBlockReference
  2
_OPEN30
 10
134.0
 20
25.0
 30
0.0
 41
1.5
 42
1.5
 43
1.5
 50
270.0
  0
MTEXT
  5
9E
330
98
100
AcDbEntity
  8
画層1
 62
     0
100
AcDbMText
 10
131.93
 20
71.0
 30
0.0
 40
2.5
 41
0.0
 71
     5
 72
     1
  1
\A1;92{\H1.250000;\S+0.8^  0;}
  7
STYLE1
 11
0.0
 21
1.0
 31
0.0
 73
     1
 44
1.0
  0
POINT
  5
9F
330
98
100
AcDbEntity
  8
DEFPOINTS
 62
     0
100
AcDbPoint
 10
125.0
 20
117.0
 30
0.0
  0
POINT
  5
A0
330
98
100
AcDbEntity
  8
DEFPOINTS
 62
     0
100
AcDbPoint
 10
125.0
 20
25.0
 30
0.0
  0
POINT
  5
A1
330
98
100
AcDbEntity
  8
DEFPOINTS
 62
     0
100
AcDbPoint
 10
134.0
 20
25.0
 30
0.0
  0
ENDBLK
  5
A3
330
98
100
AcDbEntity
  8
0
100
AcDbBlockEnd
  0
ENDSEC
  0
SECTION
  2
ENTITIES
  0
MTEXT
  5
2B
330
2
100
AcDbEntity
  8
画層1
 62
     0
100
AcDbMText
 10
206.74
 20
101.12
 30
0.0
 40
2.5
 41
72.62
 71
     5
 72
     5
  1
{\L\C7;SR93シリーズ外形寸法図}
  7
STYLE1
 73
     1
 44
1.0
  0
LINE
  5
2D
330
2
100
AcDbEntity
  8
画層1
 62
     0
100
AcDbLine
 10
181.2
 20
219.3
 30
0.0
 11
250.7
 21
219.3
 31
0.0
  0
LINE
  5
2E
330
2
100
AcDbEntity
  8
画層1
 62
     0
100
AcDbLine
 10
250.7
 20
156.3
 30
0.0
 11
181.2
 21
156.3
 31
0.0
  0
LWPOLYLINE
  5
2F
330
2
100
AcDbEntity
  8
画層1
 62
     0
100
AcDbPolyline
 90
        4
 70
     1
 43
0.0
 10
190.5
 20
223.3
 10
212.5
 20
223.3
 10
212.5
 20
221.5
 10
190.5
 20
221.5
  0
LWPOLYLINE
  5
30
330
2
100
AcDbEntity
  8
画層1
 62
     0
100
AcDbPolyline
 90
        4
 70
     1
 43
0.0
 10
190.5
 20
226.6
 10
212.5
 20
226.6
 10
212.5
 20
224.8
 10
190.5
 20
224.8
  0
LINE
  5
31
330
2
100
AcDbEntity
  8
画層1
 62
     0
100
AcDbLine
 10
251.0
 20
236.0
 30
0.0
 11
166.0
 21
236.0
 31
0.0
  0
LINE
  5
32
330
2
100
AcDbEntity
  8
画層1
 62
     0
100
AcDbLine
 10
249.5
 20
237.8
 30
0.0
 11
192.5
 21
237.8
 31
0.0
  0
LWPOLYLINE
  5
33
330
2
100
AcDbEntity
  8
画層1
 62
     0
100
AcDbPolyline
 90
        4
 70
     1
 43
0.0
 10
190.5
 20
233.2
 10
212.5
 20
233.2
 10
212.5
 20
231.4
 10
190.5
 20
231.4
  0
LWPOLYLINE
  5
34
330
2
100
AcDbEntity
  8
画層1
 62
     0
100
AcDbPolyline
 90
        4
 70
     1
 43
0.0
 10
190.5
 20
229.9
 10
212.5
 20
229.9
 10
212.5
 20
228.1
 10
190.5
 20
228.1
  0
LINE
  5
35
330
2
100
AcDbEntity
  8
画層1
 62
     0
100
AcDbLine
 10
183.6
 20
150.2
 30
0.0
 11
253.5
 21
150.2
 31
0.0
  0
LINE
  5
36
330
2
100
AcDbEntity
  8
画層1
 62
     0
100
AcDbLine
 10
249.5
 20
154.2
 30
0.0
 11
192.5
 21
154.2
 31
0.0
  0
LINE
  5
37
330
2
100
AcDbEntity
  8
画層1
 62
     0
100
AcDbLine
 10
183.6
 20
241.8
 30
0.0
 11
253.5
 21
241.8
 31
0.0
  0
LINE
  5
38
330
2
100
AcDbEntity
  8
画層1
 62
     0
100
AcDbLine
 10
251.0
 20
156.0
 30
0.0
 11
166.0
 21
156.0
 31
0.0
  0
LINE
  5
39
330
2
100
AcDbEntity
  8
画層1
 62
     0
100
AcDbLine
 10
151.0
 20
196.0
 30
0.0
 11
264.0
 21
196.0
 31
0.0
  0
DIMENSION
  5
3A
330
2
100
AcDbEntity
  8
画層1
 62
     0
100
AcDbDimension
  2
*D6
 10
262.0
 20
258.0
 30
0.0
 11
206.5
 21
259.88
 31
0.0
 71
     5
 42
111.0
  3
STANDARD_WS
100
AcDbAlignedDimension
 13
151.0
 23
251.0
 33
0.0
 14
262.0
 24
251.0
 34
0.0
100
AcDbRotatedDimension
1001
ACAD
1000
DSTYLE
1002
{
1070
   344
1005
3B
1070
   343
1005
3B
1070
   340
1005
29
1002
}
  0
DIMENSION
  5
4E
330
2
100
AcDbEntity
  8
画層1
 62
     0
100
AcDbDimension
  2
*D5
 10
262.0
 20
251.0
 30
0.0
 11
212.0
 21
252.88
 31
0.0
 71
     5
 42
100.0
  3
STANDARD_WS
100
AcDbAlignedDimension
 13
162.0
 23
244.0
 33
0.0
 14
262.0
 24
239.3
 34
0.0
100
AcDbRotatedDimension
1001
ACAD
1000
DSTYLE
1002
{
1070
   344
1005
3B
1070
   343
1005
3B
1070
    75
1070
     1
1070
   279
1070
     1
1070
   340
1005
29
1002
}
  0
LINE
  5
5A
330
2
100
AcDbEntity
  8
画層1
 62
     0
100
AcDbLine
 10
147.0
 20
196.0
 30
0.0
 11
267.0
 21
196.0
 31
0.0
  0
ARC
  5
5B
330
2
100
AcDbEntity
  8
画層1
 62
     0
100
AcDbCircle
 10
152.2
 20
149.3
 30
0.0
 40
1.199999999999999
100
AcDbArc
 50
180.0
 51
270.0
  0
LINE
  5
5C
330
2
100
AcDbEntity
  8
画層1
 62
     0
100
AcDbLine
 10
162.0
 20
244.0
 30
0.0
 11
162.0
 21
148.0
 31
0.0
  0
LINE
  5
5D
330
2
100
AcDbEntity
  8
画層1
 62
     0
100
AcDbLine
 10
163.8
 20
148.8
 30
0.0
 11
166.74
 21
147.78
 31
0.0
  0
LINE
  5
5E
330
2
100
AcDbEntity
  8
画層1
 62
     0
100
AcDbLine
 10
162.6
 20
148.4
 30
0.0
 11
163.8
 21
148.8
 31
0.0
  0
LINE
  5
5F
330
2
100
AcDbEntity
  8
画層1
 62
     0
100
AcDbLine
 10
154.0
 20
148.0
 30
0.0
 11
154.0
 21
196.0
 31
0.0
  0
ARC
  5
60
330
2
100
AcDbEntity
  8
画層1
 62
     0
100
AcDbCircle
 10
183.95
 20
118.8
 30
0.0
 40
31.40248406519289
100
AcDbArc
 50
90.63
 51
121.59
  0
ARC
  5
61
330
2
100
AcDbEntity
  8
画層1
 62
     0
100
AcDbCircle
 10
183.74
 20
120.2
 30
0.0
 40
32.0
100
AcDbArc
 50
90.26
 51
120.25
  0
LINE
  5
62
330
2
100
AcDbEntity
  8
画層1
 62
     0
100
AcDbLine
 10
160.0
 20
244.0
 30
0.0
 11
160.0
 21
148.0
 31
0.0
  0
ARC
  5
63
330
2
100
AcDbEntity
  8
画層1
 62
     0
100
AcDbCircle
 10
125.9
 20
149.1
 30
0.0
 40
1.0
100
AcDbArc
 50
270.0
 51
0.0
  0
ARC
  5
64
330
2
100
AcDbEntity
  8
画層1
 62
     0
100
AcDbCircle
 10
32.1
 20
149.1
 30
0.0
 40
1.0
100
AcDbArc
 50
180.0
 51
270.0
  0
ARC
  5
65
330
2
100
AcDbEntity
  8
画層1
 62
     0
100
AcDbCircle
 10
125.9
 20
149.1
 30
0.0
 40
1.1
100
AcDbArc
 50
270.0
 51
0.0
  0
ARC
  5
66
330
2
100
AcDbEntity
  8
画層1
 62
     0
100
AcDbCircle
 10
32.1
 20
149.1
 30
0.0
 40
1.1
100
AcDbArc
 50
180.0
 51
270.0
  0
DIMENSION
  5
67
330
2
100
AcDbEntity
  8
画層1
 62
     0
100
AcDbDimension
  2
*D3
 10
134.0
 20
244.0
 30
0.0
 11
132.13
 21
196.0
 31
0.0
 71
     5
 42
96.0
  3
STANDARD_WS
100
AcDbAlignedDimension
 13
126.0
 23
148.0
 33
0.0
 14
126.0
 24
244.0
 34
0.0
 50
90.0
100
AcDbRotatedDimension
1001
ACAD
1000
DSTYLE
1002
{
1070
   344
1005
3B
1070
   343
1005
3B
1070
   340
1005
29
1002
}
  0
LINE
  5
74
330
2
100
AcDbEntity
  8
画層1
 62
     0
100
AcDbLine
 10
79.0
 20
246.0
 30
0.0
 11
79.0
 21
146.0
 31
0.0
  0
LINE
  5
75
330
2
100
AcDbEntity
  8
画層1
 62
     0
100
AcDbLine
 10
125.9
 20
148.1
 30
0.0
 11
32.1
 21
148.1
 31
0.0
  0
LINE
  5
76
330
2
100
AcDbEntity
  8
画層1
 62
     0
100
AcDbLine
 10
32.1
 20
148.0
 30
0.0
 11
125.9
 21
148.0
 31
0.0
  0
LINE
  5
77
330
2
100
AcDbEntity
  8
画層1
 62
     0
100
AcDbLine
 10
70.0
 20
16.0
 30
0.0
 11
88.0
 21
16.0
 31
0.0
  0
MTEXT
  5
78
330
2
100
AcDbEntity
  8
画層1
 62
     0
100
AcDbMText
 10
70.0
 20
20.0
 30
0.0
 40
2.5
 41
20.0
 71
     1
 72
     5
  1
取付穴寸法
  7
STYLE1
 73
     1
 44
1.0
  0
DIMENSION
  5
79
330
2
100
AcDbEntity
  8
画層1
 62
     0
100
AcDbDimension
  2
*D8
 10
125.0
 20
126.0
 30
0.0
 11
79.0
 21
128.07
 31
0.0
 71
     5
 42
92.0
  3
STANDARD_WS
100
AcDbAlignedDimension
 13
33.0
 23
117.0
 33
0.0
 14
125.0
 24
117.0
 34
0.0
100
AcDbRotatedDimension
1001
ACAD
1000
DSTYLE
1002
{
1070
   344
1005
3B
1070
   343
1005
3B
1070
   284
1070
     8
1070
   340
1005
29
1070
    47
1040
0.8
1070
    71
1070
     1
1070
   146
1040
0.5
1002
}
  0
LINE
  5
86
330
2
100
AcDbEntity
  8
画層1
 62
     0
100
AcDbLine
 10
29.0
 20
71.0
 30
0.0
 11
129.0
 21
71.0
 31
0.0
  0
LINE
  5
87
330
2
100
AcDbEntity
  8
画層1
 62
     0
100
AcDbLine
 10
125.0
 20
25.0
 30
0.0
 11
33.0
 21
25.0
 31
0.0
  0
LINE
  5
88
330
2
100
AcDbEntity
  8
画層1
 62
     0
100
AcDbLine
 10
33.0
 20
117.0
 30
0.0
 11
125.0
 21
117.0
 31
0.0
  0
LINE
  5
89
330
2
100
AcDbEntity
  8
画層1
 62
     0
100
AcDbLine
 10
33.0
 20
25.0
 30
0.0
 11
33.0
 21
117.0
 31
0.0
  0
LINE
  5
8A
330
2
100
AcDbEntity
  8
画層1
 62
     0
100
AcDbLine
 10
33.2
 20
145.55
 30
0.0
 11
37.0
 21
145.55
 31
0.0
  0
LINE
  5
8B
330
2
100
AcDbEntity
  8
画層1
 62
     0
100
AcDbLine
 10
33.2
 20
147.65
 30
0.0
 11
37.0
 21
147.65
 31
0.0
  0
LINE
  5
8C
330
2
100
AcDbEntity
  8
画層1
 62
     0
100
AcDbLine
 10
33.2
 20
147.3
 30
0.0
 11
37.0
 21
147.3
 31
0.0
  0
LINE
  5
8D
330
2
100
AcDbEntity
  8
画層1
 62
     0
100
AcDbLine
 10
33.2
 20
146.95
 30
0.0
 11
37.0
 21
146.95
 31
0.0
  0
LINE
  5
8E
330
2
100
AcDbEntity
  8
画層1
 62
     0
100
AcDbLine
 10
33.2
 20
146.6
 30
0.0
 11
37.0
 21
146.6
 31
0.0
  0
LINE
  5
8F
330
2
100
AcDbEntity
  8
画層1
 62
     0
100
AcDbLine
 10
33.2
 20
146.25
 30
0.0
 11
37.0
 21
146.25
 31
0.0
  0
LINE
  5
90
330
2
100
AcDbEntity
  8
画層1
 62
     0
100
AcDbLine
 10
33.2
 20
145.9
 30
0.0
 11
37.0
 21
145.9
 31
0.0
  0
LINE
  5
91
330
2
100
AcDbEntity
  8
画層1
 62
     0
100
AcDbLine
 10
33.2
 20
148.0
 30
0.0
 11
33.2
 21
145.55
 31
0.0
  0
LINE
  5
92
330
2
100
AcDbEntity
  8
画層1
 62
     0
100
AcDbLine
 10
37.0
 20
145.55
 30
0.0
 11
37.0
 21
148.0
 31
0.0
  0
LINE
  5
93
330
2
100
AcDbEntity
  8
画層1
 62
     0
100
AcDbLine
 10
44.0
 20
148.1
 30
0.0
 11
44.0
 21
148.0
 31
0.0
  0
LINE
  5
94
330
2
100
AcDbEntity
  8
画層1
 62
     0
100
AcDbLine
 10
42.0
 20
148.1
 30
0.0
 11
42.0
 21
148.0
 31
0.0
  0
LINE
  5
95
330
2
100
AcDbEntity
  8
画層1
 62
     0
100
AcDbLine
 10
54.0
 20
148.1
 30
0.0
 11
54.0
 21
148.0
 31
0.0
  0
LINE
  5
96
330
2
100
AcDbEntity
  8
画層1
 62
     0
100
AcDbLine
 10
56.0
 20
148.1
 30
0.0
 11
56.0
 21
148.0
 31
0.0
  0
DIMENSION
  5
97
330
2
100
AcDbEntity
  8
画層1
 62
     0
100
AcDbDimension
  2
*D9
 10
134.0
 20
25.0
 30
0.0
 11
131.93
 21
71.0
 31
0.0
 71
     5
 42
92.0
  3
STANDARD_WS
100
AcDbAlignedDimension
 13
125.0
 23
117.0
 33
0.0
 14
125.0
 24
25.0
 34
0.0
 50
90.0
100
AcDbRotatedDimension
1001
ACAD
1000
DSTYLE
1002
{
1070
   344
1005
3B
1070
   343
1005
3B
1070
   284
1070
     8
1070
   340
1005
29
1070
    47
1040
0.8
1070
    71
1070
     1
1070
   146
1040
0.5
1002
}
  0
LINE
  5
A4
330
2
100
AcDbEntity
  8
画層1
 62
     0
100
AcDbLine
 10
79.0
 20
121.0
 30
0.0
 11
79.0
 21
21.0
 31
0.0
  0
LINE
  5
A5
330
2
100
AcDbEntity
  8
画層1
 62
     0
100
AcDbLine
 10
125.0
 20
117.0
 30
0.0
 11
125.0
 21
25.0
 31
0.0
  0
LINE
  5
A6
330
2
100
AcDbEntity
  8
画層1
 62
     0
100
AcDbLine
 10
102.0
 20
148.1
 30
0.0
 11
102.0
 21
148.0
 31
0.0
  0
LINE
  5
A7
330
2
100
AcDbEntity
  8
画層1
 62
     0
100
AcDbLine
 10
104.0
 20
148.1
 30
0.0
 11
104.0
 21
148.0
 31
0.0
  0
LINE
  5
A8
330
2
100
AcDbEntity
  8
画層1
 62
     0
100
AcDbLine
 10
114.0
 20
148.1
 30
0.0
 11
114.0
 21
148.0
 31
0.0
  0
LINE
  5
A9
330
2
100
AcDbEntity
  8
画層1
 62
     0
100
AcDbLine
 10
116.0
 20
148.1
 30
0.0
 11
116.0
 21
148.0
 31
0.0
  0
LINE
  5
AA
330
2
100
AcDbEntity
  8
画層1
 62
     0
100
AcDbLine
 10
124.8
 20
145.55
 30
0.0
 11
121.0
 21
145.55
 31
0.0
  0
LINE
  5
AB
330
2
100
AcDbEntity
  8
画層1
 62
     0
100
AcDbLine
 10
121.0
 20
147.65
 30
0.0
 11
124.8
 21
147.65
 31
0.0
  0
LINE
  5
AC
330
2
100
AcDbEntity
  8
画層1
 62
     0
100
AcDbLine
 10
121.0
 20
147.3
 30
0.0
 11
124.8
 21
147.3
 31
0.0
  0
LINE
  5
AD
330
2
100
AcDbEntity
  8
画層1
 62
     0
100
AcDbLine
 10
121.0
 20
146.95
 30
0.0
 11
124.8
 21
146.95
 31
0.0
  0
LINE
  5
AE
330
2
100
AcDbEntity
  8
画層1
 62
     0
100
AcDbLine
 10
121.0
 20
146.6
 30
0.0
 11
124.8
 21
146.6
 31
0.0
  0
LINE
  5
AF
330
2
100
AcDbEntity
  8
画層1
 62
     0
100
AcDbLine
 10
121.0
 20
146.25
 30
0.0
 11
124.8
 21
146.25
 31
0.0
  0
LINE
  5
B0
330
2
100
AcDbEntity
  8
画層1
 62
     0
100
AcDbLine
 10
121.0
 20
145.9
 30
0.0
 11
124.8
 21
145.9
 31
0.0
  0
LINE
  5
B1
330
2
100
AcDbEntity
  8
画層1
 62
     0
100
AcDbLine
 10
121.0
 20
145.55
 30
0.0
 11
121.0
 21
148.0
 31
0.0
  0
LINE
  5
B2
330
2
100
AcDbEntity
  8
画層1
 62
     0
100
AcDbLine
 10
124.8
 20
148.0
 30
0.0
 11
124.8
 21
145.55
 31
0.0
  0
LINE
  5
B3
330
2
100
AcDbEntity
  8
画層1
 62
     0
100
AcDbLine
 10
153.0
 20
148.0
 30
0.0
 11
162.0
 21
148.0
 31
0.0
  0
LINE
  5
B4
330
2
100
AcDbEntity
  8
画層1
 62
     0
100
AcDbLine
 10
152.2
 20
148.1
 30
0.0
 11
154.0
 21
148.1
 31
0.0
  0
LINE
  5
B5
330
2
100
AcDbEntity
  8
画層1
 62
     0
100
AcDbLine
 10
152.2
 20
148.1
 30
0.0
 11
153.0
 21
148.1
 31
0.0
  0
LINE
  5
B6
330
2
100
AcDbEntity
  8
画層1
 62
     0
100
AcDbLine
 10
153.0
 20
148.0
 30
0.0
 11
153.0
 21
148.1
 31
0.0
  0
LINE
  5
B7
330
2
100
AcDbEntity
  8
画層1
 62
     0
100
AcDbLine
 10
165.0
 20
147.2
 30
0.0
 11
164.4
 21
146.95
 31
0.0
  0
LINE
  5
B8
330
2
100
AcDbEntity
  8
画層1
 62
     0
100
AcDbLine
 10
162.6
 20
148.0
 30
0.0
 11
162.6
 21
148.4
 31
0.0
  0
LINE
  5
B9
330
2
100
AcDbEntity
  8
画層1
 62
     0
100
AcDbLine
 10
163.2
 20
148.25
 30
0.0
 11
162.6
 21
148.0
 31
0.0
  0
LINE
  5
BA
330
2
100
AcDbEntity
  8
画層1
 62
     0
100
AcDbLine
 10
163.2
 20
147.65
 30
0.0
 11
163.2
 21
148.25
 31
0.0
  0
LINE
  5
BB
330
2
100
AcDbEntity
  8
画層1
 62
     0
100
AcDbLine
 10
163.8
 20
147.9
 30
0.0
 11
163.2
 21
147.65
 31
0.0
  0
LINE
  5
BC
330
2
100
AcDbEntity
  8
画層1
 62
     0
100
AcDbLine
 10
163.8
 20
147.3
 30
0.0
 11
163.8
 21
147.9
 31
0.0
  0
LINE
  5
BD
330
2
100
AcDbEntity
  8
画層1
 62
     0
100
AcDbLine
 10
164.4
 20
147.55
 30
0.0
 11
163.8
 21
147.3
 31
0.0
  0
LINE
  5
BE
330
2
100
AcDbEntity
  8
画層1
 62
     0
100
AcDbLine
 10
164.4
 20
146.95
 30
0.0
 11
164.4
 21
147.55
 31
0.0
  0
LINE
  5
BF
330
2
100
AcDbEntity
  8
画層1
 62
     0
100
AcDbLine
 10
167.5
 20
145.55
 30
0.0
 11
167.2
 21
145.55
 31
0.0
  0
LINE
  5
C0
330
2
100
AcDbEntity
  8
画層1
 62
     0
100
AcDbLine
 10
167.2
 20
145.55
 30
0.0
 11
167.2
 21
146.15
 31
0.0
  0
LINE
  5
C1
330
2
100
AcDbEntity
  8
画層1
 62
     0
100
AcDbLine
 10
165.0
 20
146.6
 30
0.0
 11
165.0
 21
147.2
 31
0.0
  0
LINE
  5
C2
330
2
100
AcDbEntity
  8
画層1
 62
     0
100
AcDbLine
 10
165.8
 20
146.85
 30
0.0
 11
165.0
 21
146.6
 31
0.0
  0
LINE
  5
C3
330
2
100
AcDbEntity
  8
画層1
 62
     0
100
AcDbLine
 10
165.8
 20
146.25
 30
0.0
 11
165.8
 21
146.85
 31
0.0
  0
LINE
  5
C4
330
2
100
AcDbEntity
  8
画層1
 62
     0
100
AcDbLine
 10
166.4
 20
146.5
 30
0.0
 11
165.8
 21
146.25
 31
0.0
  0
LINE
  5
C5
330
2
100
AcDbEntity
  8
画層1
 62
     0
100
AcDbLine
 10
166.4
 20
145.9
 30
0.0
 11
166.4
 21
146.5
 31
0.0
  0
ARC
  5
C6
330
2
100
AcDbEntity
  8
画層1
 62
     0
100
AcDbCircle
 10
167.12
 20
148.71
 30
0.0
 40
1.0
100
AcDbArc
 50
247.51
 51
300.25
  0
LINE
  5
C7
330
2
100
AcDbEntity
  8
画層1
 62
     0
100
AcDbLine
 10
167.2
 20
146.15
 30
0.0
 11
166.4
 21
145.9
 31
0.0
  0
ELLIPSE
  5
C8
330
2
100
AcDbEntity
  8
画層1
 62
     0
100
AcDbEllipse
 10
49.0
 20
177.0
 30
0.0
 11
-9.0
 21
0.0
 31
0.0
210
0.0
220
0.0
230
1.0
 40
0.56
 41
0.0
 42
6.283185307179586
  0
ELLIPSE
  5
C9
330
2
100
AcDbEntity
  8
画層1
 62
     0
100
AcDbEllipse
 10
109.0
 20
177.0
 30
0.0
 11
-9.0
 21
0.0
 31
0.0
210
0.0
220
0.0
230
1.0
 40
0.56
 41
0.0
 42
6.283185307179586
  0
ELLIPSE
  5
CA
330
2
100
AcDbEntity
  8
画層1
 62
     0
100
AcDbEllipse
 10
89.0
 20
177.0
 30
0.0
 11
-9.0
 21
0.0
 31
0.0
210
0.0
220
0.0
230
1.0
 40
0.56
 41
0.0
 42
6.283185307179586
  0
ELLIPSE
  5
CB
330
2
100
AcDbEntity
  8
画層1
 62
     0
100
AcDbEllipse
 10
69.0
 20
177.0
 30
0.0
 11
-9.0
 21
0.0
 31
0.0
210
0.0
220
0.0
230
1.0
 40
0.56
 41
0.0
 42
6.283185307179586
  0
LINE
  5
CC
330
2
100
AcDbEntity
  8
画層1
 62
     0
100
AcDbLine
 10
65.0
 20
205.7
 30
0.0
 11
106.0
 21
205.7
 31
0.0
  0
LINE
  5
CD
330
2
100
AcDbEntity
  8
画層1
 62
     0
100
AcDbLine
 10
106.0
 20
193.3
 30
0.0
 11
65.0
 21
193.3
 31
0.0
  0
LINE
  5
CE
330
2
100
AcDbEntity
  8
画層1
 62
     0
100
AcDbLine
 10
108.5
 20
234.5
 30
0.0
 11
39.5
 21
234.5
 31
0.0
  0
LINE
  5
CF
330
2
100
AcDbEntity
  8
画層1
 62
     0
100
AcDbLine
 10
39.5
 20
211.5
 30
0.0
 11
108.5
 21
211.5
 31
0.0
  0
LINE
  5
D0
330
2
100
AcDbEntity
  8
画層1
 62
     0
100
AcDbLine
 10
124.9
 20
184.0
 30
0.0
 11
33.1
 21
184.0
 31
0.0
  0
LINE
  5
D1
330
2
100
AcDbEntity
  8
画層1
 62
     0
100
AcDbLine
 10
33.1
 20
155.0
 30
0.0
 11
124.9
 21
155.0
 31
0.0
  0
LINE
  5
D2
330
2
100
AcDbEntity
  8
画層1
 62
     0
100
AcDbLine
 10
33.6
 20
241.9
 30
0.0
 11
124.4
 21
241.9
 31
0.0
  0
LINE
  5
D3
330
2
100
AcDbEntity
  8
画層1
 62
     0
100
AcDbLine
 10
124.4
 20
150.1
 30
0.0
 11
33.6
 21
150.1
 31
0.0
  0
LINE
  5
D4
330
2
100
AcDbEntity
  8
画層1
 62
     0
100
AcDbLine
 10
124.5
 20
149.9
 30
0.0
 11
33.5
 21
149.9
 31
0.0
  0
LINE
  5
D5
330
2
100
AcDbEntity
  8
画層1
 62
     0
100
AcDbLine
 10
33.5
 20
242.1
 30
0.0
 11
124.5
 21
242.1
 31
0.0
  0
LINE
  5
D6
330
2
100
AcDbEntity
  8
画層1
 62
     0
100
AcDbLine
 10
32.1
 20
243.9
 30
0.0
 11
125.9
 21
243.9
 31
0.0
  0
LINE
  5
D7
330
2
100
AcDbEntity
  8
画層1
 62
     0
100
AcDbLine
 10
125.9
 20
244.0
 30
0.0
 11
32.1
 21
244.0
 31
0.0
  0
DIMENSION
  5
D8
330
2
100
AcDbEntity
  8
画層1
 62
     0
100
AcDbDimension
  2
*D2
 10
127.0
 20
251.0
 30
0.0
 11
79.0
 21
252.88
 31
0.0
 71
     5
 42
96.0
  3
STANDARD_WS
100
AcDbAlignedDimension
 13
31.0
 23
243.0
 33
0.0
 14
127.0
 24
243.0
 34
0.0
100
AcDbRotatedDimension
1001
ACAD
1000
DSTYLE
1002
{
1070
   344
1005
3B
1070
   343
1005
3B
1070
   340
1005
29
1002
}
  0
LINE
  5
E5
330
2
100
AcDbEntity
  8
画層1
 62
     0
100
AcDbLine
 10
29.0
 20
196.0
 30
0.0
 11
129.0
 21
196.0
 31
0.0
  0
LINE
  5
E6
330
2
100
AcDbEntity
  8
画層1
 62
     0
100
AcDbLine
 10
33.1
 20
150.6
 30
0.0
 11
33.1
 21
241.4
 31
0.0
  0
LINE
  5
E7
330
2
100
AcDbEntity
  8
画層1
 62
     0
100
AcDbLine
 10
32.9
 20
150.5
 30
0.0
 11
32.9
 21
241.5
 31
0.0
  0
LINE
  5
E8
330
2
100
AcDbEntity
  8
画層1
 62
     0
100
AcDbLine
 10
31.1
 20
149.1
 30
0.0
 11
31.1
 21
242.9
 31
0.0
  0
LINE
  5
E9
330
2
100
AcDbEntity
  8
画層1
 62
     0
100
AcDbLine
 10
31.0
 20
242.9
 30
0.0
 11
31.0
 21
149.1
 31
0.0
  0
LINE
  5
EA
330
2
100
AcDbEntity
  8
画層1
 62
     0
100
AcDbLine
 10
64.0
 20
194.3
 30
0.0
 11
64.0
 21
204.7
 31
0.0
  0
MTEXT
  5
EB
330
2
100
AcDbEntity
  8
画層1
 62
     0
100
AcDbMText
 10
41.85
 20
189.38
 30
0.0
 40
1.8
 41
4.95
 71
     1
 72
     5
  1
OUT1
  7
STYLE1
 73
     1
 44
1.0
  0
HATCH
  5
EC
330
2
100
AcDbEntity
  8
画層1
 62
     0
100
AcDbHatch
 10
0.0
 20
0.0
 30
0.0
210
0.0
220
0.0
230
1.0
  2
SOLID
 70
     1
 71
     0
 91
        1
 92
        5
 93
        5
 72
     3
 10
49.00000000000005
 20
176.990244753767
 11
-5.0
 21
0.0
 40
0.5400000000000006
 50
102.617091557461
 51
437.3829084425389
 73
     1
 72
     1
 10
48.40000000000009
 20
174.3097552462329
 11
48.40000000000009
 21
175.1097324484065
 72
     3
 10
49.00000000000005
 20
176.990244753767
 11
-4.200000000000002
 21
0.0
 40
0.4523809523809535
 50
-72.30409342292334
 51
209.8520372589859
 73
     0
 72
     1
 10
51.60000000000002
 20
175.4980731940196
 11
50.80000000000002
 21
176.690244753767
 72
     1
 10
50.80000000000007
 20
176.690244753767
 11
49.60000000000005
 21
174.3097552462329
 97
        0
 75
     0
 76
     1
 47
0.05
 98
        1
 10
49.75261369800961
 20
179.2611216350047
  0
MTEXT
  5
ED
330
2
100
AcDbEntity
  8
画層1
 62
     0
100
AcDbMText
 10
35.91
 20
153.55
 30
0.0
 40
2.0
 41
11.19
 71
     1
 72
     5
  1
{\fＭＳ Ｐゴシック|b0|i0|c128|p50;ＳＲ９３}
  7
STYLE1
 73
     1
 44
1.0
  0
ARC
  5
EE
330
2
100
AcDbEntity
  8
画層1
 62
     0
100
AcDbCircle
 10
33.6
 20
150.6
 30
0.0
 40
0.5
100
AcDbArc
 50
180.0
 51
270.0
  0
ARC
  5
EF
330
2
100
AcDbEntity
  8
画層1
 62
     0
100
AcDbCircle
 10
33.5
 20
150.5
 30
0.0
 40
0.6
100
AcDbArc
 50
180.0
 51
270.0
  0
LINE
  5
F0
330
2
100
AcDbEntity
  8
画層1
 62
     0
100
AcDbLine
 10
42.5
 20
186.6
 30
0.0
 11
45.5
 21
186.6
 31
0.0
  0
LINE
  5
F1
330
2
100
AcDbEntity
  8
画層1
 62
     0
100
AcDbLine
 10
45.5
 20
185.4
 30
0.0
 11
42.5
 21
185.4
 31
0.0
  0
LINE
  5
F2
330
2
100
AcDbEntity
  8
画層1
 62
     0
100
AcDbLine
 10
45.5
 20
186.6
 30
0.0
 11
45.5
 21
185.4
 31
0.0
  0
LINE
  5
F3
330
2
100
AcDbEntity
  8
画層1
 62
     0
100
AcDbLine
 10
42.5
 20
185.4
 30
0.0
 11
42.5
 21
186.6
 31
0.0
  0
MTEXT
  5
F4
330
2
100
AcDbEntity
  8
画層1
 62
     0
100
AcDbMText
 10
48.8
 20
189.38
 30
0.0
 40
1.8
 41
5.16
 71
     1
 72
     5
  1
OUT2
  7
STYLE1
 73
     1
 44
1.0
  0
LINE
  5
F5
330
2
100
AcDbEntity
  8
画層1
 62
     0
100
AcDbLine
 10
49.5
 20
186.6
 30
0.0
 11
52.5
 21
186.6
 31
0.0
  0
LINE
  5
F6
330
2
100
AcDbEntity
  8
画層1
 62
     0
100
AcDbLine
 10
52.5
 20
185.4
 30
0.0
 11
49.5
 21
185.4
 31
0.0
  0
LINE
  5
F7
330
2
100
AcDbEntity
  8
画層1
 62
     0
100
AcDbLine
 10
49.5
 20
185.4
 30
0.0
 11
49.5
 21
186.6
 31
0.0
  0
LINE
  5
F8
330
2
100
AcDbEntity
  8
画層1
 62
     0
100
AcDbLine
 10
52.5
 20
186.6
 30
0.0
 11
52.5
 21
185.4
 31
0.0
  0
HATCH
  5
F9
330
2
100
AcDbEntity
  8
画層1
 62
     0
100
AcDbHatch
 10
0.0
 20
0.0
 30
0.0
210
0.0
220
0.0
230
1.0
  2
SOLID
 70
     1
 71
     0
 91
        1
 92
        7
 72
     1
 73
     1
 93
        6
 10
71.36724339015905
 20
178.7070430666047
 42
0.5575365158350519
 10
71.18835795195912
 20
178.9964857857047
 42
0.0
 10
66.83557154745904
 20
178.9964857857047
 42
0.5575365158350514
 10
66.65668610925905
 20
178.7070430666047
 42
0.0
 10
68.83307931150909
 20
174.3542566621047
 42
0.6180339887498948
 10
69.19085018790906
 20
174.3542566621047
 42
0.0
 97
        0
 75
     0
 76
     1
 47
0.07
 98
        1
 10
69.37234845475433
 20
177.6282598172755
  0
LINE
  5
FA
330
2
100
AcDbEntity
  8
画層1
 62
     0
100
AcDbLine
 10
70.5
 20
186.6
 30
0.0
 11
73.5
 21
186.6
 31
0.0
  0
LINE
  5
FB
330
2
100
AcDbEntity
  8
画層1
 62
     0
100
AcDbLine
 10
73.5
 20
185.4
 30
0.0
 11
70.5
 21
185.4
 31
0.0
  0
MTEXT
  5
FC
330
2
100
AcDbEntity
  8
画層1
 62
     0
100
AcDbMText
 10
70.43
 20
189.38
 30
0.0
 40
1.8
 41
3.82
 71
     1
 72
     5
  1
EV2
  7
STYLE1
 73
     1
 44
1.0
  0
MTEXT
  5
FD
330
2
100
AcDbEntity
  8
画層1
 62
     0
100
AcDbMText
 10
63.6
 20
189.38
 30
0.0
 40
1.8
 41
3.71
 71
     1
 72
     5
  1
EV1
  7
STYLE1
 73
     1
 44
1.0
  0
LINE
  5
FE
330
2
100
AcDbEntity
  8
画層1
 62
     0
100
AcDbLine
 10
63.5
 20
186.6
 30
0.0
 11
66.5
 21
186.6
 31
0.0
  0
LINE
  5
FF
330
2
100
AcDbEntity
  8
画層1
 62
     0
100
AcDbLine
 10
66.5
 20
185.4
 30
0.0
 11
63.5
 21
185.4
 31
0.0
  0
LINE
  5
100
330
2
100
AcDbEntity
  8
画層1
 62
     0
100
AcDbLine
 10
63.5
 20
185.4
 30
0.0
 11
63.5
 21
186.6
 31
0.0
  0
LINE
  5
101
330
2
100
AcDbEntity
  8
画層1
 62
     0
100
AcDbLine
 10
70.5
 20
185.4
 30
0.0
 11
70.5
 21
186.6
 31
0.0
  0
LINE
  5
102
330
2
100
AcDbEntity
  8
画層1
 62
     0
100
AcDbLine
 10
66.5
 20
186.6
 30
0.0
 11
66.5
 21
185.4
 31
0.0
  0
ARC
  5
103
330
2
100
AcDbEntity
  8
画層1
 62
     0
100
AcDbCircle
 10
65.0
 20
194.3
 30
0.0
 40
1.0
100
AcDbArc
 50
180.0
 51
270.0
  0
LINE
  5
104
330
2
100
AcDbEntity
  8
画層1
 62
     0
100
AcDbLine
 10
73.5
 20
186.6
 30
0.0
 11
73.5
 21
185.4
 31
0.0
  0
MTEXT
  5
105
330
2
100
AcDbEntity
  8
画層1
 62
     0
100
AcDbMText
 10
41.2
 20
238.32
 30
0.0
 40
2.8
 41
6.05
 71
     1
 72
     5
  1
\fＭＳ Ｐゴシック|b0|i0|c128|p50;ＰＶ
  7
STYLE1
 73
     1
 44
1.0
  0
LINE
  5
106
330
2
100
AcDbEntity
  8
画層1
 62
     0
100
AcDbLine
 10
38.5
 20
233.5
 30
0.0
 11
38.5
 21
212.5
 31
0.0
  0
ARC
  5
107
330
2
100
AcDbEntity
  8
画層1
 62
     0
100
AcDbCircle
 10
39.5
 20
212.5
 30
0.0
 40
1.0
100
AcDbArc
 50
180.0
 51
270.0
  0
ARC
  5
108
330
2
100
AcDbEntity
  8
画層1
 62
     0
100
AcDbCircle
 10
39.5
 20
233.5
 30
0.0
 40
1.0
100
AcDbArc
 50
90.0
 51
180.0
  0
MTEXT
  5
109
330
2
100
AcDbEntity
  8
画層1
 62
     0
100
AcDbMText
 10
66.27
 20
209.47
 30
0.0
 40
2.8
 41
11.45
 71
     1
 72
     5
  1
\fＭＳ Ｐゴシック|b0|i0|c128|p50;ＳＶ
  7
STYLE1
 73
     1
 44
1.0
  0
ARC
  5
10A
330
2
100
AcDbEntity
  8
画層1
 62
     0
100
AcDbCircle
 10
65.0
 20
204.7
 30
0.0
 40
1.0
100
AcDbArc
 50
90.0
 51
180.0
  0
LINE
  5
10B
330
2
100
AcDbEntity
  8
画層1
 62
     0
100
AcDbLine
 10
33.2
 20
246.45
 30
0.0
 11
37.0
 21
246.45
 31
0.0
  0
LINE
  5
10C
330
2
100
AcDbEntity
  8
画層1
 62
     0
100
AcDbLine
 10
33.2
 20
246.1
 30
0.0
 11
37.0
 21
246.1
 31
0.0
  0
LINE
  5
10D
330
2
100
AcDbEntity
  8
画層1
 62
     0
100
AcDbLine
 10
33.2
 20
245.75
 30
0.0
 11
37.0
 21
245.75
 31
0.0
  0
LINE
  5
10E
330
2
100
AcDbEntity
  8
画層1
 62
     0
100
AcDbLine
 10
33.2
 20
245.4
 30
0.0
 11
37.0
 21
245.4
 31
0.0
  0
LINE
  5
10F
330
2
100
AcDbEntity
  8
画層1
 62
     0
100
AcDbLine
 10
33.2
 20
245.05
 30
0.0
 11
37.0
 21
245.05
 31
0.0
  0
LINE
  5
110
330
2
100
AcDbEntity
  8
画層1
 62
     0
100
AcDbLine
 10
33.2
 20
244.7
 30
0.0
 11
37.0
 21
244.7
 31
0.0
  0
LINE
  5
111
330
2
100
AcDbEntity
  8
画層1
 62
     0
100
AcDbLine
 10
33.2
 20
244.35
 30
0.0
 11
37.0
 21
244.35
 31
0.0
  0
ARC
  5
112
330
2
100
AcDbEntity
  8
画層1
 62
     0
100
AcDbCircle
 10
33.6
 20
241.4
 30
0.0
 40
0.5
100
AcDbArc
 50
90.0
 51
180.0
  0
ARC
  5
113
330
2
100
AcDbEntity
  8
画層1
 62
     0
100
AcDbCircle
 10
33.5
 20
241.5
 30
0.0
 40
0.6
100
AcDbArc
 50
90.0
 51
180.0
  0
ARC
  5
114
330
2
100
AcDbEntity
  8
画層1
 62
     0
100
AcDbCircle
 10
32.1
 20
242.9
 30
0.0
 40
1.0
100
AcDbArc
 50
90.0
 51
180.0
  0
LINE
  5
115
330
2
100
AcDbEntity
  8
画層1
 62
     0
100
AcDbLine
 10
33.2
 20
244.0
 30
0.0
 11
33.2
 21
246.45
 31
0.0
  0
ARC
  5
116
330
2
100
AcDbEntity
  8
画層1
 62
     0
100
AcDbCircle
 10
32.1
 20
242.9
 30
0.0
 40
1.1
100
AcDbArc
 50
90.0
 51
180.0
  0
LINE
  5
117
330
2
100
AcDbEntity
  8
画層1
 62
     0
100
AcDbLine
 10
37.0
 20
246.45
 30
0.0
 11
37.0
 21
244.0
 31
0.0
  0
LINE
  5
118
330
2
100
AcDbEntity
  8
画層1
 62
     0
100
AcDbLine
 10
42.0
 20
244.0
 30
0.0
 11
42.0
 21
243.9
 31
0.0
  0
LINE
  5
119
330
2
100
AcDbEntity
  8
画層1
 62
     0
100
AcDbLine
 10
44.0
 20
244.0
 30
0.0
 11
44.0
 21
243.9
 31
0.0
  0
LINE
  5
11A
330
2
100
AcDbEntity
  8
画層1
 62
     0
100
AcDbLine
 10
54.0
 20
244.0
 30
0.0
 11
54.0
 21
243.9
 31
0.0
  0
LINE
  5
11B
330
2
100
AcDbEntity
  8
画層1
 62
     0
100
AcDbLine
 10
56.0
 20
244.0
 30
0.0
 11
56.0
 21
243.9
 31
0.0
  0
LINE
  5
11C
330
2
100
AcDbEntity
  8
画層1
 62
     0
100
AcDbLine
 10
124.9
 20
241.4
 30
0.0
 11
124.9
 21
150.6
 31
0.0
  0
LINE
  5
11D
330
2
100
AcDbEntity
  8
画層1
 62
     0
100
AcDbLine
 10
151.0
 20
242.7
 30
0.0
 11
151.0
 21
149.3
 31
0.0
  0
LINE
  5
11E
330
2
100
AcDbEntity
  8
画層1
 62
     0
100
AcDbLine
 10
192.5
 20
241.8
 30
0.0
 11
192.5
 21
237.8
 31
0.0
  0
LINE
  5
11F
330
2
100
AcDbEntity
  8
画層1
 62
     0
100
AcDbLine
 10
192.5
 20
237.8
 30
0.0
 11
190.0
 21
241.8
 31
0.0
  0
LINE
  5
120
330
2
100
AcDbEntity
  8
画層1
 62
     0
100
AcDbLine
 10
171.0
 20
241.8
 30
0.0
 11
171.0
 21
239.6
 31
0.0
  0
ARC
  5
121
330
2
100
AcDbEntity
  8
画層1
 62
     0
100
AcDbCircle
 10
183.95
 20
273.2
 30
0.0
 40
31.40248406519245
100
AcDbArc
 50
238.41
 51
269.37
  0
ARC
  5
122
330
2
100
AcDbEntity
  8
画層1
 62
     0
100
AcDbCircle
 10
183.74
 20
271.8
 30
0.0
 40
32.0
100
AcDbArc
 50
239.75
 51
269.74
  0
LINE
  5
123
330
2
100
AcDbEntity
  8
画層1
 62
     0
100
AcDbLine
 10
162.1
 20
241.8
 30
0.0
 11
162.1
 21
150.2
 31
0.0
  0
LINE
  5
124
330
2
100
AcDbEntity
  8
画層1
 62
     0
100
AcDbLine
 10
154.0
 20
244.0
 30
0.0
 11
154.0
 21
196.0
 31
0.0
  0
LINE
  5
125
330
2
100
AcDbEntity
  8
画層1
 62
     0
100
AcDbLine
 10
125.1
 20
241.5
 30
0.0
 11
125.1
 21
150.5
 31
0.0
  0
LINE
  5
126
330
2
100
AcDbEntity
  8
画層1
 62
     0
100
AcDbLine
 10
126.9
 20
242.9
 30
0.0
 11
126.9
 21
149.1
 31
0.0
  0
LINE
  5
127
330
2
100
AcDbEntity
  8
画層1
 62
     0
100
AcDbLine
 10
127.0
 20
242.9
 30
0.0
 11
127.0
 21
149.1
 31
0.0
  0
LINE
  5
128
330
2
100
AcDbEntity
  8
画層1
 62
     0
100
AcDbLine
 10
107.0
 20
204.7
 30
0.0
 11
107.0
 21
194.3
 31
0.0
  0
MTEXT
  5
129
330
2
100
AcDbEntity
  8
画層1
 62
     0
100
AcDbMText
 10
110.58
 20
189.38
 30
0.0
 40
1.8
 41
4.67
 71
     1
 72
     5
  1
SB/COM
  7
STYLE1
 73
     1
 44
1.0
  0
MTEXT
  5
12A
330
2
100
AcDbEntity
  8
画層1
 62
     0
100
AcDbMText
 10
105.7
 20
179.03
 30
0.0
 40
4.0
 41
6.49
 71
     1
 72
     5
  1
ENT
  7
STYLE1
 73
     1
 44
1.0
  0
HATCH
  5
12B
330
2
100
AcDbEntity
  8
画層1
 62
     0
100
AcDbHatch
 10
0.0
 20
0.0
 30
0.0
210
0.0
220
0.0
230
1.0
  2
SOLID
 70
     1
 71
     0
 91
       10
 92
        5
 93
       10
 72
     3
 10
101.8323247680428
 20
152.1533393342757
 11
-0.982456140350877
 21
0.0
 40
0.6607142857142858
 50
90.0
 51
270.0
 73
     1
 72
     2
 10
101.8323247680428
 20
152.9077252991879
 40
0.1052631578947376
 50
89.99999999999628
 51
269.9999999999956
 73
     0
 72
     2
 10
101.8953828022923
 20
151.6590053478377
 40
1.355450691026426
 50
267.3335335883714
 51
296.4437824908839
 73
     0
 72
     1
 10
102.4989914347095
 20
152.8726375798897
 11
102.6393423119025
 21
153.1884270535739
 72
     2
 10
101.7807974864591
 20
151.5439054855712
 40
1.855141613171803
 50
62.43257811529775
 51
90.5759553231079
 73
     1
 72
     3
 10
101.7621493294464
 20
152.7498305623458
 11
0.9558248242604051
 21
0.0
 40
0.679123193436433
 50
90.0
 51
270.0
 73
     1
 72
     2
 10
101.7621493294464
 20
151.9954445974336
 40
0.1052631578947376
 50
270.0000000000024
 51
450.0000000000031
 73
     0
 72
     2
 10
101.6724756110553
 20
153.7225146019691
 40
1.834526149694269
 50
87.1982008190587
 51
115.4216641289816
 73
     0
 72
     1
 10
100.8849563469902
 20
152.06562003603
 11
100.709517750499
 21
151.7498305623458
 72
     2
 10
101.7568491147718
 20
153.8484080270912
 40
2.345406225396102
 50
243.4777171338575
 51
271.8441083094922
 73
     1
 97
        0
 92
        7
 72
     0
 73
     1
 93
       12
 10
105.4112721364639
 20
153.3638656500651
 10
104.4989914347095
 20
153.3638656500651
 10
104.4989914347095
 20
152.6971989833985
 10
103.9375879259377
 20
152.6971989833985
 10
103.9375879259377
 20
153.3638656500651
 10
103.0253072241832
 20
153.3638656500651
 10
103.0253072241832
 20
151.5393042465564
 10
103.9375879259377
 20
151.5393042465564
 10
103.9375879259377
 20
152.205970913223
 10
104.4989914347095
 20
152.205970913223
 10
104.4989914347095
 20
151.5393042465564
 10
105.4112721364639
 20
151.5393042465563
 97
        0
 92
        7
 72
     0
 73
     1
 93
        4
 10
106.6042545926043
 20
153.3638656500651
 10
105.6919738908498
 20
153.3638656500651
 10
105.6919738908498
 20
151.5393042465564
 10
106.6042545926043
 20
151.5393042465563
 97
        0
 92
        7
 72
     0
 73
     1
 93
       13
 10
109.6919738908499
 20
153.3638656500651
 10
108.849868627692
 20
153.3638656500651
 10
108.4639037154113
 20
152.5919358255037
 10
108.1481142417271
 20
153.3638656500651
 10
107.1656581013762
 20
153.3638656500651
 10
106.849868627692
 20
151.5393042465564
 10
107.7270616101482
 20
151.5393042465564
 10
107.8323247680428
 20
152.1357954746266
 10
108.1481142417271
 20
151.5393042465564
 10
108.709517750499
 20
151.5393042465564
 10
108.990219504885
 20
152.1357954746265
 10
109.130570382078
 20
151.5393042465564
 10
110.0077633645341
 20
151.5393042465564
 97
        0
 92
        7
 72
     0
 73
     1
 93
        8
 10
112.1481142417271
 20
153.3638656500651
 10
111.0954826627797
 20
153.3638656500651
 10
110.2533773996218
 20
151.5393042465563
 10
111.1656581013762
 20
151.5393042465564
 10
111.3177048850019
 20
151.8901814395388
 10
111.9726756452358
 20
151.8901814395388
 10
112.1481142417271
 20
151.5393042465564
 10
112.990219504885
 20
151.5393042465564
 97
        0
 92
       22
 72
     0
 73
     1
 93
        3
 10
111.4545469902651
 20
152.205970913223
 10
111.6217984522534
 20
152.5919358255037
 10
111.8147809083938
 20
152.205970913223
 97
        0
 92
        7
 72
     1
 73
     1
 93
        4
 10
114.849868627692
 20
153.3638656500651
 42
0.0
 10
113.2358335399727
 20
153.3638656500651
 42
0.0
 10
113.2358335399727
 20
151.5393042465564
 42
0.0
 10
114.849868627692
 20
151.5393042465564
 42
1.0
 97
        0
 92
       22
 72
     1
 73
     1
 93
        4
 10
114.1481142417271
 20
152.9077252991879
 42
0.0
 10
114.3586405575165
 20
152.9077252991879
 42
-1.0
 10
114.3586405575165
 20
151.9954445974336
 42
0.0
 10
114.1481142417271
 20
151.9954445974336
 42
0.0
 97
        0
 92
        7
 72
     0
 73
     1
 93
       12
 10
116.9200440662885
 20
152.205970913223
 10
117.7270616101481
 20
152.205970913223
 10
117.7270616101481
 20
152.6971989833985
 10
116.9200440662885
 20
152.6971989833985
 10
116.9200440662885
 20
152.9779007377844
 10
117.8674124873411
 20
152.9779007377844
 10
117.8674124873411
 20
153.3638656500651
 10
115.9726756452359
 20
153.3638656500651
 10
115.9726756452359
 20
151.5393042465564
 10
117.8674124873411
 20
151.5393042465563
 10
117.8674124873411
 20
151.925269158837
 10
116.9200440662885
 20
151.925269158837
 97
        0
 92
        7
 72
     0
 73
     1
 93
       10
 10
119.0253072241832
 20
152.3814095097142
 10
119.8674124873411
 20
151.5393042465563
 10
120.849868627692
 20
151.5393042465564
 10
120.849868627692
 20
153.3638656500651
 10
119.9375879259376
 20
153.3638656500651
 10
119.9375879259376
 20
152.5919358255037
 10
119.1656581013762
 20
153.3638656500651
 10
118.1130265224289
 20
153.3638656500651
 10
118.1130265224289
 20
151.5393042465564
 10
119.0253072241832
 20
151.5393042465564
 97
        0
 75
     0
 76
     1
 47
0.31
 98
       10
 10
102.0344757936733
 20
152.2287189057266
 10
103.3323978513916
 20
152.3783405173938
 10
106.3775227854991
 20
152.32846662613
 10
107.4258444652331
 20
152.1788450144627
 10
110.8204098824191
 20
152.1289711231988
 10
110.8204098824191
 20
152.1289711231988
 10
113.6658544910894
 20
152.0790972940594
 10
113.6658544910894
 20
152.0790972940594
 10
116.261698606526
 20
152.1289711231988
 10
118.5580222914312
 20
152.1289711231988
  0
HATCH
  5
12C
330
2
100
AcDbEntity
  8
画層1
 62
     0
100
AcDbHatch
 10
0.0
 20
0.0
 30
0.0
210
0.0
220
0.0
230
1.0
  2
SOLID
 70
     1
 71
     0
 91
        1
 92
        7
 72
     1
 73
     1
 93
        6
 10
91.26923387421674
 20
175.3376052553736
 42
-0.5575365158350519
 10
91.09034843601682
 20
175.0481625362736
 42
0.0
 10
86.73756203151674
 20
175.0481625362736
 42
-0.5575365158350514
 10
86.55867659331676
 20
175.3376052553736
 42
0.0
 10
88.7350697955668
 20
179.6903916598736
 42
-0.6180339887498948
 10
89.09284067196677
 20
179.6903916598736
 42
0.0
 97
        0
 75
     0
 76
     1
 47
0.07
 98
        1
 10
89.27433893881204
 20
176.4163885047028
  0
LINE
  5
12D
330
2
100
AcDbEntity
  8
画層1
 62
     0
100
AcDbLine
 10
84.5
 20
186.6
 30
0.0
 11
87.5
 21
186.6
 31
0.0
  0
LINE
  5
12E
330
2
100
AcDbEntity
  8
画層1
 62
     0
100
AcDbLine
 10
87.5
 20
185.4
 30
0.0
 11
84.5
 21
185.4
 31
0.0
  0
MTEXT
  5
12F
330
2
100
AcDbEntity
  8
画層1
 62
     0
100
AcDbMText
 10
84.98
 20
189.38
 30
0.0
 40
1.8
 41
3.09
 71
     1
 72
     5
  1
AT
  7
STYLE1
 73
     1
 44
1.0
  0
LINE
  5
130
330
2
100
AcDbEntity
  8
画層1
 62
     0
100
AcDbLine
 10
84.5
 20
185.4
 30
0.0
 11
84.5
 21
186.6
 31
0.0
  0
LINE
  5
131
330
2
100
AcDbEntity
  8
画層1
 62
     0
100
AcDbLine
 10
87.5
 20
186.6
 30
0.0
 11
87.5
 21
185.4
 31
0.0
  0
MTEXT
  5
132
330
2
100
AcDbEntity
  8
画層1
 62
     0
100
AcDbMText
 10
98.3
 20
189.38
 30
0.0
 40
1.8
 41
4.67
 71
     1
 72
     5
  1
MAN
  7
STYLE1
 73
     1
 44
1.0
  0
LINE
  5
133
330
2
100
AcDbEntity
  8
画層1
 62
     0
100
AcDbLine
 10
98.5
 20
186.6
 30
0.0
 11
101.5
 21
186.6
 31
0.0
  0
LINE
  5
134
330
2
100
AcDbEntity
  8
画層1
 62
     0
100
AcDbLine
 10
101.5
 20
185.4
 30
0.0
 11
98.5
 21
185.4
 31
0.0
  0
LINE
  5
135
330
2
100
AcDbEntity
  8
画層1
 62
     0
100
AcDbLine
 10
98.5
 20
185.4
 30
0.0
 11
98.5
 21
186.6
 31
0.0
  0
LINE
  5
136
330
2
100
AcDbEntity
  8
画層1
 62
     0
100
AcDbLine
 10
101.5
 20
186.6
 30
0.0
 11
101.5
 21
185.4
 31
0.0
  0
ARC
  5
137
330
2
100
AcDbEntity
  8
画層1
 62
     0
100
AcDbCircle
 10
106.0
 20
194.3
 30
0.0
 40
1.0
100
AcDbArc
 50
270.0
 51
0.0
  0
ARC
  5
138
330
2
100
AcDbEntity
  8
画層1
 62
     0
100
AcDbCircle
 10
124.4
 20
150.6
 30
0.0
 40
0.5
100
AcDbArc
 50
270.0
 51
0.0
  0
ARC
  5
139
330
2
100
AcDbEntity
  8
画層1
 62
     0
100
AcDbCircle
 10
124.5
 20
150.5
 30
0.0
 40
0.6
100
AcDbArc
 50
270.0
 51
0.0
  0
POINT
  5
13A
330
2
100
AcDbEntity
  8
画層1
 62
     0
100
AcDbPoint
 10
115.5
 20
186.6
 30
0.0
  0
LINE
  5
13B
330
2
100
AcDbEntity
  8
画層1
 62
     0
100
AcDbLine
 10
112.5
 20
186.6
 30
0.0
 11
115.5
 21
186.6
 31
0.0
  0
POINT
  5
13C
330
2
100
AcDbEntity
  8
画層1
 62
     0
100
AcDbPoint
 10
115.5
 20
185.4
 30
0.0
  0
LINE
  5
13D
330
2
100
AcDbEntity
  8
画層1
 62
     0
100
AcDbLine
 10
115.5
 20
185.4
 30
0.0
 11
112.5
 21
185.4
 31
0.0
  0
LINE
  5
13E
330
2
100
AcDbEntity
  8
画層1
 62
     0
100
AcDbLine
 10
115.5
 20
186.6
 30
0.0
 11
115.5
 21
185.4
 31
0.0
  0
LINE
  5
13F
330
2
100
AcDbEntity
  8
画層1
 62
     0
100
AcDbLine
 10
112.5
 20
185.4
 30
0.0
 11
112.5
 21
186.6
 31
0.0
  0
LINE
  5
140
330
2
100
AcDbEntity
  8
画層1
 62
     0
100
AcDbLine
 10
109.5
 20
212.5
 30
0.0
 11
109.5
 21
233.5
 31
0.0
  0
ARC
  5
141
330
2
100
AcDbEntity
  8
画層1
 62
     0
100
AcDbCircle
 10
106.0
 20
204.7
 30
0.0
 40
1.0
100
AcDbArc
 50
0.0
 51
90.0
  0
ARC
  5
142
330
2
100
AcDbEntity
  8
画層1
 62
     0
100
AcDbCircle
 10
108.5
 20
212.5
 30
0.0
 40
1.0
100
AcDbArc
 50
270.0
 51
0.0
  0
ARC
  5
143
330
2
100
AcDbEntity
  8
画層1
 62
     0
100
AcDbCircle
 10
108.5
 20
233.5
 30
0.0
 40
1.0
100
AcDbArc
 50
0.0
 51
90.0
  0
HATCH
  5
144
330
2
100
AcDbEntity
  8
画層1
 62
     0
100
AcDbHatch
 10
0.0
 20
0.0
 30
0.0
210
0.0
220
0.0
230
1.0
  2
SOLID
 70
     1
 71
     0
 91
        3
 92
        7
 72
     1
 73
     1
 93
        2
 10
115.0355220420925
 20
210.2331090772472
 42
1.0
 10
113.4647236285495
 20
210.2331090772472
 42
1.0
 97
        0
 92
       22
 72
     1
 73
     1
 93
        2
 10
113.8374550392916
 20
210.2331090772472
 42
-1.0
 10
114.6627906313504
 20
210.2331090772472
 42
-1.0
 97
        0
 92
        7
 72
     1
 73
     1
 93
        4
 10
118.4738896011711
 20
210.0663482533131
 42
0.0
 10
118.4738896011711
 20
210.868881875762
 42
1.533941497875937
 10
118.4738896011711
 20
206.216126449289
 42
0.0
 10
118.4738896011711
 20
207.0186600717379
 42
-1.878800399703972
 97
        0
 75
     0
 76
     1
 47
0.01
 98
        3
 10
114.3433920863827
 20
209.7139466872445
 10
114.3433920863827
 20
209.7139466872445
 10
115.1828153459392
 20
208.3162024037026
  0
LINE
  5
145
330
2
100
AcDbEntity
  8
画層1
 62
     0
100
AcDbLine
 10
180.2
 20
218.3
 30
0.0
 11
180.2
 21
157.3
 31
0.0
  0
LINE
  5
146
330
2
100
AcDbEntity
  8
画層1
 62
     0
100
AcDbLine
 10
165.0
 20
157.0
 30
0.0
 11
165.0
 21
235.0
 31
0.0
  0
LINE
  5
147
330
2
100
AcDbEntity
  8
画層1
 62
     0
100
AcDbLine
 10
184.7
 20
153.8
 30
0.0
 11
162.1
 21
154.4
 31
0.0
  0
LINE
  5
148
330
2
100
AcDbEntity
  8
画層1
 62
     0
100
AcDbLine
 10
171.0
 20
152.4
 30
0.0
 11
185.0
 21
152.4
 31
0.0
  0
LINE
  5
149
330
2
100
AcDbEntity
  8
画層1
 62
     0
100
AcDbLine
 10
176.3
 20
186.9
 30
0.0
 11
176.3
 21
168.5
 31
0.0
  0
LINE
  5
14A
330
2
100
AcDbEntity
  8
画層1
 62
     0
100
AcDbLine
 10
171.7
 20
186.9
 30
0.0
 11
171.7
 21
168.5
 31
0.0
  0
LINE
  5
14B
330
2
100
AcDbEntity
  8
画層1
 62
     0
100
AcDbLine
 10
162.1
 20
150.2
 30
0.0
 11
172.61
 21
150.2
 31
0.0
  0
LINE
  5
14C
330
2
100
AcDbEntity
  8
画層1
 62
     0
100
AcDbLine
 10
162.1
 20
150.4
 30
0.0
 11
162.0
 21
150.4
 31
0.0
  0
ARC
  5
14D
330
2
100
AcDbEntity
  8
画層1
 62
     0
100
AcDbCircle
 10
166.0
 20
157.0
 30
0.0
 40
1.0
100
AcDbArc
 50
180.0
 51
270.0
  0
LINE
  5
14E
330
2
100
AcDbEntity
  8
画層1
 62
     0
100
AcDbLine
 10
171.0
 20
150.2
 30
0.0
 11
171.0
 21
152.4
 31
0.0
  0
ARC
  5
14F
330
2
100
AcDbEntity
  8
画層1
 62
     0
100
AcDbCircle
 10
174.0
 20
168.5
 30
0.0
 40
2.299999999999999
100
AcDbArc
 50
180.0
 51
0.0
  0
ARC
  5
150
330
2
100
AcDbEntity
  8
画層1
 62
     0
100
AcDbCircle
 10
174.0
 20
186.9
 30
0.0
 40
2.299999999999999
100
AcDbArc
 50
0.0
 51
180.0
  0
ARC
  5
151
330
2
100
AcDbEntity
  8
画層1
 62
     0
100
AcDbCircle
 10
184.7
 20
153.0
 30
0.0
 40
0.8000000000000113
100
AcDbArc
 50
270.0
 51
90.0
  0
LINE
  5
152
330
2
100
AcDbEntity
  8
画層1
 62
     0
100
AcDbLine
 10
185.0
 20
152.4
 30
0.0
 11
185.0
 21
152.26
 31
0.0
  0
LINE
  5
153
330
2
100
AcDbEntity
  8
画層1
 62
     0
100
AcDbLine
 10
183.6
 20
152.2
 30
0.0
 11
184.7
 21
152.2
 31
0.0
  0
ARC
  5
154
330
2
100
AcDbEntity
  8
画層1
 62
     0
100
AcDbCircle
 10
181.2
 20
157.3
 30
0.0
 40
1.0
100
AcDbArc
 50
180.0
 51
269.99
  0
LINE
  5
155
330
2
100
AcDbEntity
  8
画層1
 62
     0
100
AcDbLine
 10
192.5
 20
154.2
 30
0.0
 11
192.5
 21
150.2
 31
0.0
  0
LINE
  5
156
330
2
100
AcDbEntity
  8
画層1
 62
     0
100
AcDbLine
 10
190.0
 20
150.2
 30
0.0
 11
192.5
 21
154.2
 31
0.0
  0
LINE
  5
157
330
2
100
AcDbEntity
  8
画層1
 62
     0
100
AcDbLine
 10
184.7
 20
238.2
 30
0.0
 11
162.1
 21
237.6
 31
0.0
  0
LINE
  5
158
330
2
100
AcDbEntity
  8
画層1
 62
     0
100
AcDbLine
 10
171.0
 20
239.6
 30
0.0
 11
185.0
 21
239.6
 31
0.0
  0
ARC
  5
159
330
2
100
AcDbEntity
  8
画層1
 62
     0
100
AcDbCircle
 10
166.0
 20
235.0
 30
0.0
 40
1.0
100
AcDbArc
 50
90.0
 51
180.0
  0
ARC
  5
15A
330
2
100
AcDbEntity
  8
画層1
 62
     0
100
AcDbCircle
 10
181.2
 20
218.3
 30
0.0
 40
1.0
100
AcDbArc
 50
89.99
 51
180.0
  0
ARC
  5
15B
330
2
100
AcDbEntity
  8
画層1
 62
     0
100
AcDbCircle
 10
184.7
 20
239.0
 30
0.0
 40
0.8000000000000113
100
AcDbArc
 50
270.0
 51
90.0
  0
LINE
  5
15C
330
2
100
AcDbEntity
  8
画層1
 62
     0
100
AcDbLine
 10
185.0
 20
239.6
 30
0.0
 11
185.0
 21
239.74
 31
0.0
  0
LINE
  5
15D
330
2
100
AcDbEntity
  8
画層1
 62
     0
100
AcDbLine
 10
183.6
 20
239.8
 30
0.0
 11
184.7
 21
239.8
 31
0.0
  0
LINE
  5
15E
330
2
100
AcDbEntity
  8
画層1
 62
     0
100
AcDbLine
 10
102.0
 20
244.0
 30
0.0
 11
102.0
 21
243.9
 31
0.0
  0
LINE
  5
15F
330
2
100
AcDbEntity
  8
画層1
 62
     0
100
AcDbLine
 10
104.0
 20
244.0
 30
0.0
 11
104.0
 21
243.9
 31
0.0
  0
LINE
  5
160
330
2
100
AcDbEntity
  8
画層1
 62
     0
100
AcDbLine
 10
114.0
 20
244.0
 30
0.0
 11
114.0
 21
243.9
 31
0.0
  0
LINE
  5
161
330
2
100
AcDbEntity
  8
画層1
 62
     0
100
AcDbLine
 10
116.0
 20
244.0
 30
0.0
 11
116.0
 21
243.9
 31
0.0
  0
LINE
  5
162
330
2
100
AcDbEntity
  8
画層1
 62
     0
100
AcDbLine
 10
124.8
 20
246.45
 30
0.0
 11
121.0
 21
246.45
 31
0.0
  0
LINE
  5
163
330
2
100
AcDbEntity
  8
画層1
 62
     0
100
AcDbLine
 10
121.0
 20
246.1
 30
0.0
 11
124.8
 21
246.1
 31
0.0
  0
LINE
  5
164
330
2
100
AcDbEntity
  8
画層1
 62
     0
100
AcDbLine
 10
121.0
 20
245.75
 30
0.0
 11
124.8
 21
245.75
 31
0.0
  0
LINE
  5
165
330
2
100
AcDbEntity
  8
画層1
 62
     0
100
AcDbLine
 10
121.0
 20
245.4
 30
0.0
 11
124.8
 21
245.4
 31
0.0
  0
LINE
  5
166
330
2
100
AcDbEntity
  8
画層1
 62
     0
100
AcDbLine
 10
121.0
 20
245.05
 30
0.0
 11
124.8
 21
245.05
 31
0.0
  0
LINE
  5
167
330
2
100
AcDbEntity
  8
画層1
 62
     0
100
AcDbLine
 10
121.0
 20
244.7
 30
0.0
 11
124.8
 21
244.7
 31
0.0
  0
LINE
  5
168
330
2
100
AcDbEntity
  8
画層1
 62
     0
100
AcDbLine
 10
121.0
 20
244.35
 30
0.0
 11
124.8
 21
244.35
 31
0.0
  0
LINE
  5
169
330
2
100
AcDbEntity
  8
画層1
 62
     0
100
AcDbLine
 10
121.0
 20
246.45
 30
0.0
 11
121.0
 21
244.0
 31
0.0
  0
ARC
  5
16A
330
2
100
AcDbEntity
  8
画層1
 62
     0
100
AcDbCircle
 10
124.4
 20
241.4
 30
0.0
 40
0.5
100
AcDbArc
 50
0.0
 51
90.0
  0
ARC
  5
16B
330
2
100
AcDbEntity
  8
画層1
 62
     0
100
AcDbCircle
 10
124.5
 20
241.5
 30
0.0
 40
0.6
100
AcDbArc
 50
0.0
 51
90.0
  0
ARC
  5
16C
330
2
100
AcDbEntity
  8
画層1
 62
     0
100
AcDbCircle
 10
125.9
 20
242.9
 30
0.0
 40
1.0
100
AcDbArc
 50
0.0
 51
90.0
  0
LINE
  5
16D
330
2
100
AcDbEntity
  8
画層1
 62
     0
100
AcDbLine
 10
124.8
 20
244.0
 30
0.0
 11
124.8
 21
246.45
 31
0.0
  0
ARC
  5
16E
330
2
100
AcDbEntity
  8
画層1
 62
     0
100
AcDbCircle
 10
125.9
 20
242.9
 30
0.0
 40
1.1
100
AcDbArc
 50
0.0
 51
90.0
  0
LINE
  5
16F
330
2
100
AcDbEntity
  8
画層1
 62
     0
100
AcDbLine
 10
153.0
 20
244.0
 30
0.0
 11
162.0
 21
244.0
 31
0.0
  0
DIMENSION
  5
170
330
2
100
AcDbEntity
  8
画層1
 62
     0
100
AcDbDimension
  2
*D4
 10
162.0
 20
251.0
 30
0.0
 11
156.5
 21
252.88
 31
0.0
 71
     5
 42
11.0
  3
STANDARD_WS
100
AcDbAlignedDimension
 13
151.0
 23
243.3
 33
0.0
 14
162.0
 24
244.0
 34
0.0
100
AcDbRotatedDimension
1001
ACAD
1000
DSTYLE
1002
{
1070
   344
1005
3B
1070
   343
1005
3B
1070
   340
1005
29
1002
}
  0
LINE
  5
17D
330
2
100
AcDbEntity
  8
画層1
 62
     0
100
AcDbLine
 10
152.2
 20
243.9
 30
0.0
 11
153.0
 21
243.9
 31
0.0
  0
LINE
  5
17E
330
2
100
AcDbEntity
  8
画層1
 62
     0
100
AcDbLine
 10
152.2
 20
243.9
 30
0.0
 11
154.0
 21
243.9
 31
0.0
  0
ARC
  5
17F
330
2
100
AcDbEntity
  8
画層1
 62
     0
100
AcDbCircle
 10
152.2
 20
242.7
 30
0.0
 40
1.199999999999999
100
AcDbArc
 50
90.0
 51
180.0
  0
LINE
  5
180
330
2
100
AcDbEntity
  8
画層1
 62
     0
100
AcDbLine
 10
153.0
 20
244.0
 30
0.0
 11
153.0
 21
243.9
 31
0.0
  0
LINE
  5
181
330
2
100
AcDbEntity
  8
画層1
 62
     0
100
AcDbLine
 10
162.1
 20
241.8
 30
0.0
 11
172.61
 21
241.8
 31
0.0
  0
LINE
  5
182
330
2
100
AcDbEntity
  8
画層1
 62
     0
100
AcDbLine
 10
165.0
 20
244.8
 30
0.0
 11
164.4
 21
245.05
 31
0.0
  0
LINE
  5
183
330
2
100
AcDbEntity
  8
画層1
 62
     0
100
AcDbLine
 10
163.8
 20
243.2
 30
0.0
 11
166.74
 21
244.22
 31
0.0
  0
LINE
  5
184
330
2
100
AcDbEntity
  8
画層1
 62
     0
100
AcDbLine
 10
164.4
 20
245.05
 30
0.0
 11
164.4
 21
244.45
 31
0.0
  0
LINE
  5
185
330
2
100
AcDbEntity
  8
画層1
 62
     0
100
AcDbLine
 10
164.4
 20
244.45
 30
0.0
 11
163.8
 21
244.7
 31
0.0
  0
LINE
  5
186
330
2
100
AcDbEntity
  8
画層1
 62
     0
100
AcDbLine
 10
163.8
 20
244.7
 30
0.0
 11
163.8
 21
244.1
 31
0.0
  0
LINE
  5
187
330
2
100
AcDbEntity
  8
画層1
 62
     0
100
AcDbLine
 10
163.8
 20
244.1
 30
0.0
 11
163.2
 21
244.35
 31
0.0
  0
LINE
  5
188
330
2
100
AcDbEntity
  8
画層1
 62
     0
100
AcDbLine
 10
163.2
 20
244.35
 30
0.0
 11
163.2
 21
243.75
 31
0.0
  0
LINE
  5
189
330
2
100
AcDbEntity
  8
画層1
 62
     0
100
AcDbLine
 10
163.2
 20
243.75
 30
0.0
 11
162.6
 21
244.0
 31
0.0
  0
LINE
  5
18A
330
2
100
AcDbEntity
  8
画層1
 62
     0
100
AcDbLine
 10
162.6
 20
243.6
 30
0.0
 11
163.8
 21
243.2
 31
0.0
  0
LINE
  5
18B
330
2
100
AcDbEntity
  8
画層1
 62
     0
100
AcDbLine
 10
162.0
 20
241.6
 30
0.0
 11
162.1
 21
241.6
 31
0.0
  0
LINE
  5
18C
330
2
100
AcDbEntity
  8
画層1
 62
     0
100
AcDbLine
 10
162.6
 20
244.0
 30
0.0
 11
162.6
 21
243.6
 31
0.0
  0
LINE
  5
18D
330
2
100
AcDbEntity
  8
画層1
 62
     0
100
AcDbLine
 10
167.5
 20
246.45
 30
0.0
 11
167.2
 21
246.45
 31
0.0
  0
LINE
  5
18E
330
2
100
AcDbEntity
  8
画層1
 62
     0
100
AcDbLine
 10
167.2
 20
246.45
 30
0.0
 11
167.2
 21
245.85
 31
0.0
  0
LINE
  5
18F
330
2
100
AcDbEntity
  8
画層1
 62
     0
100
AcDbLine
 10
166.4
 20
246.1
 30
0.0
 11
166.4
 21
245.5
 31
0.0
  0
LINE
  5
190
330
2
100
AcDbEntity
  8
画層1
 62
     0
100
AcDbLine
 10
166.4
 20
245.5
 30
0.0
 11
165.8
 21
245.75
 31
0.0
  0
LINE
  5
191
330
2
100
AcDbEntity
  8
画層1
 62
     0
100
AcDbLine
 10
165.8
 20
245.75
 30
0.0
 11
165.8
 21
245.15
 31
0.0
  0
LINE
  5
192
330
2
100
AcDbEntity
  8
画層1
 62
     0
100
AcDbLine
 10
165.8
 20
245.15
 30
0.0
 11
165.0
 21
245.4
 31
0.0
  0
LINE
  5
193
330
2
100
AcDbEntity
  8
画層1
 62
     0
100
AcDbLine
 10
165.0
 20
245.4
 30
0.0
 11
165.0
 21
244.8
 31
0.0
  0
LINE
  5
194
330
2
100
AcDbEntity
  8
画層1
 62
     0
100
AcDbLine
 10
167.2
 20
245.85
 30
0.0
 11
166.4
 21
246.1
 31
0.0
  0
ARC
  5
195
330
2
100
AcDbEntity
  8
画層1
 62
     0
100
AcDbCircle
 10
167.12
 20
243.29
 30
0.0
 40
1.0
100
AcDbArc
 50
59.75
 51
112.49
  0
LINE
  5
196
330
2
100
AcDbEntity
  8
画層1
 62
     0
100
AcDbLine
 10
249.5
 20
241.8
 30
0.0
 11
249.5
 21
237.8
 31
0.0
  0
LINE
  5
197
330
2
100
AcDbEntity
  8
画層1
 62
     0
100
AcDbLine
 10
253.5
 20
241.8
 30
0.0
 11
253.5
 21
239.8
 31
0.0
  0
DIMENSION
  5
198
330
2
100
AcDbEntity
  8
画層1
 62
     0
100
AcDbDimension
  2
*D7
 10
273.03
 20
149.88
 30
0.0
 11
271.15
 21
195.68
 31
0.0
 71
     5
 42
91.6
  3
STANDARD_WS
100
AcDbAlignedDimension
 13
263.83
 23
241.48
 33
0.0
 14
263.83
 24
149.88
 34
0.0
 50
90.0
100
AcDbRotatedDimension
1001
ACAD
1000
DSTYLE
1002
{
1070
   344
1005
3B
1070
   343
1005
3B
1070
   340
1005
29
1002
}
  0
LINE
  5
1A5
330
2
100
AcDbEntity
  8
画層1
 62
     0
100
AcDbLine
 10
251.7
 20
218.3
 30
0.0
 11
251.7
 21
157.3
 31
0.0
  0
ARC
  5
1A6
330
2
100
AcDbEntity
  8
画層1
 62
     0
100
AcDbCircle
 10
244.57
 20
191.85
 30
0.0
 40
10.50674104301654
100
AcDbArc
 50
4.37
 51
19.46
  0
ARC
  5
1A7
330
2
100
AcDbEntity
  8
画層1
 62
     0
100
AcDbCircle
 10
244.66
 20
191.6
 30
0.0
 40
11.44118730072772
100
AcDbArc
 50
4.26
 51
19.13
  0
LINE
  5
1A8
330
2
100
AcDbEntity
  8
画層1
 62
     0
100
AcDbLine
 10
253.97
 20
188.35
 30
0.0
 11
253.97
 21
195.35
 31
0.0
  0
LINE
  5
1A9
330
2
100
AcDbEntity
  8
画層1
 62
     0
100
AcDbLine
 10
254.47
 20
195.35
 30
0.0
 11
254.47
 21
188.35
 31
0.0
  0
LINE
  5
1AA
330
2
100
AcDbEntity
  8
画層1
 62
     0
100
AcDbLine
 10
256.0
 20
195.45
 30
0.0
 11
256.0
 21
193.15
 31
0.0
  0
LINE
  5
1AB
330
2
100
AcDbEntity
  8
画層1
 62
     0
100
AcDbLine
 10
253.5
 20
195.45
 30
0.0
 11
253.5
 21
188.25
 31
0.0
  0
LINE
  5
1AC
330
2
100
AcDbEntity
  8
画層1
 62
     0
100
AcDbLine
 10
252.0
 20
235.0
 30
0.0
 11
252.0
 21
157.0
 31
0.0
  0
LINE
  5
1AD
330
2
100
AcDbEntity
  8
画層1
 62
     0
100
AcDbLine
 10
256.0
 20
178.85
 30
0.0
 11
256.0
 21
171.65
 31
0.0
  0
ARC
  5
1AE
330
2
100
AcDbEntity
  8
画層1
 62
     0
100
AcDbCircle
 10
261.7
 20
171.35
 30
0.0
 40
0.3
100
AcDbArc
 50
0.0
 51
90.0
  0
ARC
  5
1AF
330
2
100
AcDbEntity
  8
画層1
 62
     0
100
AcDbCircle
 10
253.7
 20
171.85
 30
0.0
 40
0.2
100
AcDbArc
 50
180.0
 51
270.0
  0
LINE
  5
1B0
330
2
100
AcDbEntity
  8
画層1
 62
     0
100
AcDbLine
 10
253.5
 20
178.85
 30
0.0
 11
253.5
 21
171.65
 31
0.0
  0
LINE
  5
1B1
330
2
100
AcDbEntity
  8
画層1
 62
     0
100
AcDbLine
 10
253.5
 20
171.65
 30
0.0
 11
261.7
 21
171.65
 31
0.0
  0
LINE
  5
1B2
330
2
100
AcDbEntity
  8
画層1
 62
     0
100
AcDbLine
 10
253.5
 20
170.55
 30
0.0
 11
261.7
 21
170.55
 31
0.0
  0
LINE
  5
1B3
330
2
100
AcDbEntity
  8
画層1
 62
     0
100
AcDbLine
 10
253.5
 20
163.35
 30
0.0
 11
261.7
 21
163.35
 31
0.0
  0
LINE
  5
1B4
330
2
100
AcDbEntity
  8
画層1
 62
     0
100
AcDbLine
 10
253.5
 20
162.25
 30
0.0
 11
261.7
 21
162.25
 31
0.0
  0
LINE
  5
1B5
330
2
100
AcDbEntity
  8
画層1
 62
     0
100
AcDbLine
 10
253.5
 20
152.0
 30
0.0
 11
261.3
 21
152.0
 31
0.0
  0
LINE
  5
1B6
330
2
100
AcDbEntity
  8
画層1
 62
     0
100
AcDbLine
 10
253.5
 20
155.05
 30
0.0
 11
261.7
 21
155.05
 31
0.0
  0
LINE
  5
1B7
330
2
100
AcDbEntity
  8
画層1
 62
     0
100
AcDbLine
 10
256.0
 20
162.25
 30
0.0
 11
256.0
 21
159.95
 31
0.0
  0
ARC
  5
1B8
330
2
100
AcDbEntity
  8
画層1
 62
     0
100
AcDbCircle
 10
251.03
 20
158.65
 30
0.0
 40
7.540000001812724
100
AcDbArc
 50
3.8
 51
15.99
  0
ARC
  5
1B9
330
2
100
AcDbEntity
  8
画層1
 62
     0
100
AcDbCircle
 10
244.66
 20
158.4
 30
0.0
 40
11.44118730072772
100
AcDbArc
 50
4.26
 51
19.13
  0
ARC
  5
1BA
330
2
100
AcDbEntity
  8
画層1
 62
     0
100
AcDbCircle
 10
244.57
 20
158.65
 30
0.0
 40
10.50674104301654
100
AcDbArc
 50
4.37
 51
19.46
  0
LINE
  5
1BB
330
2
100
AcDbEntity
  8
画層1
 62
     0
100
AcDbLine
 10
253.5
 20
162.25
 30
0.0
 11
253.5
 21
155.05
 31
0.0
  0
LINE
  5
1BC
330
2
100
AcDbEntity
  8
画層1
 62
     0
100
AcDbLine
 10
254.47
 20
162.15
 30
0.0
 11
254.47
 21
155.15
 31
0.0
  0
LINE
  5
1BD
330
2
100
AcDbEntity
  8
画層1
 62
     0
100
AcDbLine
 10
253.97
 20
155.15
 30
0.0
 11
253.97
 21
162.15
 31
0.0
  0
LINE
  5
1BE
330
2
100
AcDbEntity
  8
画層1
 62
     0
100
AcDbLine
 10
256.07
 20
161.07
 30
0.0
 11
256.07
 21
156.23
 31
0.0
  0
ARC
  5
1BF
330
2
100
AcDbEntity
  8
画層1
 62
     0
100
AcDbCircle
 10
250.7
 20
157.3
 30
0.0
 40
1.0
100
AcDbArc
 50
269.99
 51
0.0
  0
ARC
  5
1C0
330
2
100
AcDbEntity
  8
画層1
 62
     0
100
AcDbCircle
 10
251.0
 20
157.0
 30
0.0
 40
1.0
100
AcDbArc
 50
270.0
 51
0.0
  0
LINE
  5
1C1
330
2
100
AcDbEntity
  8
画層1
 62
     0
100
AcDbLine
 10
249.5
 20
154.2
 30
0.0
 11
253.5
 21
152.2
 31
0.0
  0
LINE
  5
1C2
330
2
100
AcDbEntity
  8
画層1
 62
     0
100
AcDbLine
 10
249.5
 20
150.2
 30
0.0
 11
249.5
 21
154.2
 31
0.0
  0
LINE
  5
1C3
330
2
100
AcDbEntity
  8
画層1
 62
     0
100
AcDbLine
 10
253.5
 20
151.8
 30
0.0
 11
257.6
 21
151.8
 31
0.0
  0
LINE
  5
1C4
330
2
100
AcDbEntity
  8
画層1
 62
     0
100
AcDbLine
 10
253.5
 20
150.2
 30
0.0
 11
253.5
 21
152.2
 31
0.0
  0
LINE
  5
1C5
330
2
100
AcDbEntity
  8
画層1
 62
     0
100
AcDbLine
 10
257.6
 20
151.8
 30
0.0
 11
257.6
 21
152.0
 31
0.0
  0
LINE
  5
1C6
330
2
100
AcDbEntity
  8
画層1
 62
     0
100
AcDbLine
 10
255.47
 20
155.15
 30
0.0
 11
253.5
 21
155.15
 31
0.0
  0
ARC
  5
1C7
330
2
100
AcDbEntity
  8
画層1
 62
     0
100
AcDbCircle
 10
244.57
 20
158.65
 30
0.0
 40
10.50674104301654
100
AcDbArc
 50
340.54
 51
355.63
  0
LINE
  5
1C8
330
2
100
AcDbEntity
  8
画層1
 62
     0
100
AcDbLine
 10
255.04
 20
157.85
 30
0.0
 11
254.47
 21
157.85
 31
0.0
  0
LINE
  5
1C9
330
2
100
AcDbEntity
  8
画層1
 62
     0
100
AcDbLine
 10
255.04
 20
159.45
 30
0.0
 11
254.47
 21
159.45
 31
0.0
  0
ARC
  5
1CA
330
2
100
AcDbEntity
  8
画層1
 62
     0
100
AcDbCircle
 10
253.7
 20
155.25
 30
0.0
 40
0.2
100
AcDbArc
 50
180.0
 51
270.0
  0
LINE
  5
1CB
330
2
100
AcDbEntity
  8
画層1
 62
     0
100
AcDbLine
 10
255.67
 20
159.25
 30
0.0
 11
255.67
 21
158.05
 31
0.0
  0
LINE
  5
1CC
330
2
100
AcDbEntity
  8
画層1
 62
     0
100
AcDbLine
 10
255.67
 20
158.05
 30
0.0
 11
256.07
 21
158.05
 31
0.0
  0
LINE
  5
1CD
330
2
100
AcDbEntity
  8
画層1
 62
     0
100
AcDbLine
 10
257.57
 20
159.15
 30
0.0
 11
257.57
 21
158.15
 31
0.0
  0
LINE
  5
1CE
330
2
100
AcDbEntity
  8
画層1
 62
     0
100
AcDbLine
 10
257.57
 20
158.15
 30
0.0
 11
258.56
 21
158.15
 31
0.0
  0
LINE
  5
1CF
330
2
100
AcDbEntity
  8
画層1
 62
     0
100
AcDbLine
 10
258.56
 20
159.15
 30
0.0
 11
257.57
 21
159.15
 31
0.0
  0
LINE
  5
1D0
330
2
100
AcDbEntity
  8
画層1
 62
     0
100
AcDbLine
 10
256.07
 20
159.25
 30
0.0
 11
255.67
 21
159.25
 31
0.0
  0
LINE
  5
1D1
330
2
100
AcDbEntity
  8
画層1
 62
     0
100
AcDbLine
 10
256.65
 20
155.74
 30
0.0
 11
257.47
 21
155.86
 31
0.0
  0
ARC
  5
1D2
330
2
100
AcDbEntity
  8
画層1
 62
     0
100
AcDbCircle
 10
256.57
 20
156.23
 30
0.0
 40
0.5
100
AcDbArc
 50
180.0
 51
278.53
  0
ARC
  5
1D3
330
2
100
AcDbEntity
  8
画層1
 62
     0
100
AcDbCircle
 10
257.32
 20
156.85
 30
0.0
 40
1.0
100
AcDbArc
 50
278.53
 51
344.01
  0
LINE
  5
1D4
330
2
100
AcDbEntity
  8
画層1
 62
     0
100
AcDbLine
 10
256.0
 20
157.35
 30
0.0
 11
256.0
 21
155.05
 31
0.0
  0
ARC
  5
1D5
330
2
100
AcDbEntity
  8
画層1
 62
     0
100
AcDbCircle
 10
244.66
 20
158.9
 30
0.0
 40
11.44118729799424
100
AcDbArc
 50
340.87
 51
355.74
  0
ARC
  5
1D6
330
2
100
AcDbEntity
  8
画層1
 62
     0
100
AcDbCircle
 10
251.03
 20
158.65
 30
0.0
 40
7.540000001812724
100
AcDbArc
 50
344.01
 51
356.2
  0
ARC
  5
1D7
330
2
100
AcDbEntity
  8
画層1
 62
     0
100
AcDbCircle
 10
251.03
 20
166.95
 30
0.0
 40
7.540000001812724
100
AcDbArc
 50
344.01
 51
356.2
  0
ARC
  5
1D8
330
2
100
AcDbEntity
  8
画層1
 62
     0
100
AcDbCircle
 10
244.57
 20
166.95
 30
0.0
 40
10.50674104301654
100
AcDbArc
 50
340.54
 51
355.63
  0
ARC
  5
1D9
330
2
100
AcDbEntity
  8
画層1
 62
     0
100
AcDbCircle
 10
244.66
 20
167.2
 30
0.0
 40
11.44118729799424
100
AcDbArc
 50
340.87
 51
355.74
  0
LINE
  5
1DA
330
2
100
AcDbEntity
  8
画層1
 62
     0
100
AcDbLine
 10
256.07
 20
169.37
 30
0.0
 11
256.07
 21
164.53
 31
0.0
  0
LINE
  5
1DB
330
2
100
AcDbEntity
  8
画層1
 62
     0
100
AcDbLine
 10
253.97
 20
163.45
 30
0.0
 11
253.97
 21
170.45
 31
0.0
  0
LINE
  5
1DC
330
2
100
AcDbEntity
  8
画層1
 62
     0
100
AcDbLine
 10
254.47
 20
170.45
 30
0.0
 11
254.47
 21
163.45
 31
0.0
  0
LINE
  5
1DD
330
2
100
AcDbEntity
  8
画層1
 62
     0
100
AcDbLine
 10
253.5
 20
170.55
 30
0.0
 11
253.5
 21
163.35
 31
0.0
  0
LINE
  5
1DE
330
2
100
AcDbEntity
  8
画層1
 62
     0
100
AcDbLine
 10
253.5
 20
162.15
 30
0.0
 11
255.47
 21
162.15
 31
0.0
  0
LINE
  5
1DF
330
2
100
AcDbEntity
  8
画層1
 62
     0
100
AcDbLine
 10
255.47
 20
163.45
 30
0.0
 11
253.5
 21
163.45
 31
0.0
  0
ARC
  5
1E0
330
2
100
AcDbEntity
  8
画層1
 62
     0
100
AcDbCircle
 10
253.7
 20
162.05
 30
0.0
 40
0.2
100
AcDbArc
 50
90.0
 51
180.0
  0
ARC
  5
1E1
330
2
100
AcDbEntity
  8
画層1
 62
     0
100
AcDbCircle
 10
253.7
 20
163.55
 30
0.0
 40
0.2
100
AcDbArc
 50
180.0
 51
270.0
  0
LINE
  5
1E2
330
2
100
AcDbEntity
  8
画層1
 62
     0
100
AcDbLine
 10
256.65
 20
161.56
 30
0.0
 11
257.47
 21
161.44
 31
0.0
  0
ARC
  5
1E3
330
2
100
AcDbEntity
  8
画層1
 62
     0
100
AcDbCircle
 10
256.57
 20
161.07
 30
0.0
 40
0.5
100
AcDbArc
 50
81.47
 51
180.0
  0
ARC
  5
1E4
330
2
100
AcDbEntity
  8
画層1
 62
     0
100
AcDbCircle
 10
257.32
 20
160.45
 30
0.0
 40
1.0
100
AcDbArc
 50
15.99
 51
81.47
  0
LINE
  5
1E5
330
2
100
AcDbEntity
  8
画層1
 62
     0
100
AcDbLine
 10
256.0
 20
165.65
 30
0.0
 11
256.0
 21
163.35
 31
0.0
  0
ARC
  5
1E6
330
2
100
AcDbEntity
  8
画層1
 62
     0
100
AcDbCircle
 10
257.32
 20
165.15
 30
0.0
 40
1.0
100
AcDbArc
 50
278.53
 51
344.01
  0
ARC
  5
1E7
330
2
100
AcDbEntity
  8
画層1
 62
     0
100
AcDbCircle
 10
256.57
 20
164.53
 30
0.0
 40
0.5
100
AcDbArc
 50
180.0
 51
278.53
  0
LINE
  5
1E8
330
2
100
AcDbEntity
  8
画層1
 62
     0
100
AcDbLine
 10
256.65
 20
164.04
 30
0.0
 11
257.47
 21
164.16
 31
0.0
  0
ARC
  5
1E9
330
2
100
AcDbEntity
  8
画層1
 62
     0
100
AcDbCircle
 10
244.57
 20
166.95
 30
0.0
 40
10.50674104301654
100
AcDbArc
 50
4.37
 51
19.46
  0
LINE
  5
1EA
330
2
100
AcDbEntity
  8
画層1
 62
     0
100
AcDbLine
 10
253.5
 20
170.45
 30
0.0
 11
255.47
 21
170.45
 31
0.0
  0
LINE
  5
1EB
330
2
100
AcDbEntity
  8
画層1
 62
     0
100
AcDbLine
 10
255.04
 20
167.75
 30
0.0
 11
254.47
 21
167.75
 31
0.0
  0
LINE
  5
1EC
330
2
100
AcDbEntity
  8
画層1
 62
     0
100
AcDbLine
 10
255.04
 20
166.15
 30
0.0
 11
254.47
 21
166.15
 31
0.0
  0
ARC
  5
1ED
330
2
100
AcDbEntity
  8
画層1
 62
     0
100
AcDbCircle
 10
253.7
 20
170.35
 30
0.0
 40
0.2
100
AcDbArc
 50
90.0
 51
180.0
  0
ARC
  5
1EE
330
2
100
AcDbEntity
  8
画層1
 62
     0
100
AcDbCircle
 10
257.32
 20
168.75
 30
0.0
 40
1.0
100
AcDbArc
 50
15.99
 51
81.47
  0
ARC
  5
1EF
330
2
100
AcDbEntity
  8
画層1
 62
     0
100
AcDbCircle
 10
244.66
 20
166.7
 30
0.0
 40
11.44118730072772
100
AcDbArc
 50
4.26
 51
19.13
  0
LINE
  5
1F0
330
2
100
AcDbEntity
  8
画層1
 62
     0
100
AcDbLine
 10
256.07
 20
167.55
 30
0.0
 11
255.67
 21
167.55
 31
0.0
  0
ARC
  5
1F1
330
2
100
AcDbEntity
  8
画層1
 62
     0
100
AcDbCircle
 10
256.57
 20
169.37
 30
0.0
 40
0.5
100
AcDbArc
 50
81.47
 51
180.0
  0
LINE
  5
1F2
330
2
100
AcDbEntity
  8
画層1
 62
     0
100
AcDbLine
 10
256.65
 20
169.86
 30
0.0
 11
257.47
 21
169.74
 31
0.0
  0
LINE
  5
1F3
330
2
100
AcDbEntity
  8
画層1
 62
     0
100
AcDbLine
 10
258.56
 20
167.45
 30
0.0
 11
257.57
 21
167.45
 31
0.0
  0
LINE
  5
1F4
330
2
100
AcDbEntity
  8
画層1
 62
     0
100
AcDbLine
 10
257.57
 20
166.45
 30
0.0
 11
258.56
 21
166.45
 31
0.0
  0
LINE
  5
1F5
330
2
100
AcDbEntity
  8
画層1
 62
     0
100
AcDbLine
 10
257.57
 20
167.45
 30
0.0
 11
257.57
 21
166.45
 31
0.0
  0
LINE
  5
1F6
330
2
100
AcDbEntity
  8
画層1
 62
     0
100
AcDbLine
 10
255.67
 20
166.35
 30
0.0
 11
256.07
 21
166.35
 31
0.0
  0
ARC
  5
1F7
330
2
100
AcDbEntity
  8
画層1
 62
     0
100
AcDbCircle
 10
251.03
 20
166.95
 30
0.0
 40
7.540000001812724
100
AcDbArc
 50
3.8
 51
15.99
  0
LINE
  5
1F8
330
2
100
AcDbEntity
  8
画層1
 62
     0
100
AcDbLine
 10
255.67
 20
167.55
 30
0.0
 11
255.67
 21
166.35
 31
0.0
  0
LINE
  5
1F9
330
2
100
AcDbEntity
  8
画層1
 62
     0
100
AcDbLine
 10
256.0
 20
170.55
 30
0.0
 11
256.0
 21
168.25
 31
0.0
  0
LINE
  5
1FA
330
2
100
AcDbEntity
  8
画層1
 62
     0
100
AcDbLine
 10
262.0
 20
154.75
 30
0.0
 11
262.0
 21
152.7
 31
0.0
  0
ARC
  5
1FB
330
2
100
AcDbEntity
  8
画層1
 62
     0
100
AcDbCircle
 10
261.3
 20
152.7
 30
0.0
 40
0.7
100
AcDbArc
 50
270.0
 51
360.0
  0
ARC
  5
1FC
330
2
100
AcDbEntity
  8
画層1
 62
     0
100
AcDbCircle
 10
261.7
 20
154.75
 30
0.0
 40
0.3
100
AcDbArc
 50
360.0
 51
90.0
  0
LINE
  5
1FD
330
2
100
AcDbEntity
  8
画層1
 62
     0
100
AcDbLine
 10
262.0
 20
163.05
 30
0.0
 11
262.0
 21
162.55
 31
0.0
  0
ARC
  5
1FE
330
2
100
AcDbEntity
  8
画層1
 62
     0
100
AcDbCircle
 10
261.7
 20
162.55
 30
0.0
 40
0.3
100
AcDbArc
 50
270.0
 51
0.0
  0
ARC
  5
1FF
330
2
100
AcDbEntity
  8
画層1
 62
     0
100
AcDbCircle
 10
261.7
 20
163.05
 30
0.0
 40
0.3
100
AcDbArc
 50
0.0
 51
90.0
  0
LINE
  5
200
330
2
100
AcDbEntity
  8
画層1
 62
     0
100
AcDbLine
 10
262.0
 20
171.35
 30
0.0
 11
262.0
 21
170.85
 31
0.0
  0
ARC
  5
201
330
2
100
AcDbEntity
  8
画層1
 62
     0
100
AcDbCircle
 10
261.7
 20
170.85
 30
0.0
 40
0.3
100
AcDbArc
 50
270.0
 51
0.0
  0
LINE
  5
202
330
2
100
AcDbEntity
  8
画層1
 62
     0
100
AcDbLine
 10
253.5
 20
188.25
 30
0.0
 11
261.7
 21
188.25
 31
0.0
  0
LINE
  5
203
330
2
100
AcDbEntity
  8
画層1
 62
     0
100
AcDbLine
 10
253.5
 20
187.15
 30
0.0
 11
261.7
 21
187.15
 31
0.0
  0
LINE
  5
204
330
2
100
AcDbEntity
  8
画層1
 62
     0
100
AcDbLine
 10
253.5
 20
179.95
 30
0.0
 11
261.7
 21
179.95
 31
0.0
  0
LINE
  5
205
330
2
100
AcDbEntity
  8
画層1
 62
     0
100
AcDbLine
 10
253.5
 20
178.85
 30
0.0
 11
261.7
 21
178.85
 31
0.0
  0
LINE
  5
206
330
2
100
AcDbEntity
  8
画層1
 62
     0
100
AcDbLine
 10
257.57
 20
184.05
 30
0.0
 11
257.57
 21
183.05
 31
0.0
  0
LINE
  5
207
330
2
100
AcDbEntity
  8
画層1
 62
     0
100
AcDbLine
 10
256.07
 20
185.97
 30
0.0
 11
256.07
 21
181.13
 31
0.0
  0
LINE
  5
208
330
2
100
AcDbEntity
  8
画層1
 62
     0
100
AcDbLine
 10
253.97
 20
180.05
 30
0.0
 11
253.97
 21
187.05
 31
0.0
  0
LINE
  5
209
330
2
100
AcDbEntity
  8
画層1
 62
     0
100
AcDbLine
 10
254.47
 20
187.05
 30
0.0
 11
254.47
 21
180.05
 31
0.0
  0
LINE
  5
20A
330
2
100
AcDbEntity
  8
画層1
 62
     0
100
AcDbLine
 10
255.67
 20
184.15
 30
0.0
 11
255.67
 21
182.95
 31
0.0
  0
LINE
  5
20B
330
2
100
AcDbEntity
  8
画層1
 62
     0
100
AcDbLine
 10
253.5
 20
187.15
 30
0.0
 11
253.5
 21
179.95
 31
0.0
  0
ARC
  5
20C
330
2
100
AcDbEntity
  8
画層1
 62
     0
100
AcDbCircle
 10
257.32
 20
177.05
 30
0.0
 40
1.0
100
AcDbArc
 50
15.99
 51
81.47
  0
LINE
  5
20D
330
2
100
AcDbEntity
  8
画層1
 62
     0
100
AcDbLine
 10
256.07
 20
177.67
 30
0.0
 11
256.07
 21
172.83
 31
0.0
  0
ARC
  5
20E
330
2
100
AcDbEntity
  8
画層1
 62
     0
100
AcDbCircle
 10
251.03
 20
175.25
 30
0.0
 40
7.540000001812724
100
AcDbArc
 50
344.01
 51
356.2
  0
ARC
  5
20F
330
2
100
AcDbEntity
  8
画層1
 62
     0
100
AcDbCircle
 10
251.03
 20
175.25
 30
0.0
 40
7.540000001812724
100
AcDbArc
 50
3.8
 51
15.99
  0
LINE
  5
210
330
2
100
AcDbEntity
  8
画層1
 62
     0
100
AcDbLine
 10
258.56
 20
175.75
 30
0.0
 11
257.57
 21
175.75
 31
0.0
  0
LINE
  5
211
330
2
100
AcDbEntity
  8
画層1
 62
     0
100
AcDbLine
 10
257.57
 20
174.75
 30
0.0
 11
258.56
 21
174.75
 31
0.0
  0
LINE
  5
212
330
2
100
AcDbEntity
  8
画層1
 62
     0
100
AcDbLine
 10
257.57
 20
175.75
 30
0.0
 11
257.57
 21
174.75
 31
0.0
  0
LINE
  5
213
330
2
100
AcDbEntity
  8
画層1
 62
     0
100
AcDbLine
 10
256.07
 20
175.85
 30
0.0
 11
256.0
 21
175.85
 31
0.0
  0
LINE
  5
214
330
2
100
AcDbEntity
  8
画層1
 62
     0
100
AcDbLine
 10
256.0
 20
174.65
 30
0.0
 11
256.07
 21
174.65
 31
0.0
  0
LINE
  5
215
330
2
100
AcDbEntity
  8
画層1
 62
     0
100
AcDbLine
 10
256.65
 20
172.34
 30
0.0
 11
257.47
 21
172.46
 31
0.0
  0
ARC
  5
216
330
2
100
AcDbEntity
  8
画層1
 62
     0
100
AcDbCircle
 10
244.66
 20
175.5
 30
0.0
 40
11.44118729799424
100
AcDbArc
 50
352.24
 51
355.74
  0
ARC
  5
217
330
2
100
AcDbEntity
  8
画層1
 62
     0
100
AcDbCircle
 10
256.57
 20
172.83
 30
0.0
 40
0.5
100
AcDbArc
 50
180.0
 51
278.53
  0
ARC
  5
218
330
2
100
AcDbEntity
  8
画層1
 62
     0
100
AcDbCircle
 10
257.32
 20
173.45
 30
0.0
 40
1.0
100
AcDbArc
 50
278.53
 51
344.01
  0
ARC
  5
219
330
2
100
AcDbEntity
  8
画層1
 62
     0
100
AcDbCircle
 10
244.66
 20
175.0
 30
0.0
 40
11.44118730072772
100
AcDbArc
 50
4.26
 51
7.76
  0
LINE
  5
21A
330
2
100
AcDbEntity
  8
画層1
 62
     0
100
AcDbLine
 10
255.47
 20
180.05
 30
0.0
 11
253.5
 21
180.05
 31
0.0
  0
ARC
  5
21B
330
2
100
AcDbEntity
  8
画層1
 62
     0
100
AcDbCircle
 10
244.57
 20
183.55
 30
0.0
 40
10.50674104301654
100
AcDbArc
 50
340.54
 51
355.63
  0
LINE
  5
21C
330
2
100
AcDbEntity
  8
画層1
 62
     0
100
AcDbLine
 10
255.04
 20
182.75
 30
0.0
 11
254.47
 21
182.75
 31
0.0
  0
ARC
  5
21D
330
2
100
AcDbEntity
  8
画層1
 62
     0
100
AcDbCircle
 10
253.7
 20
180.15
 30
0.0
 40
0.2
100
AcDbArc
 50
180.0
 51
270.0
  0
ARC
  5
21E
330
2
100
AcDbEntity
  8
画層1
 62
     0
100
AcDbCircle
 10
253.7
 20
178.65
 30
0.0
 40
0.2
100
AcDbArc
 50
90.0
 51
180.0
  0
LINE
  5
21F
330
2
100
AcDbEntity
  8
画層1
 62
     0
100
AcDbLine
 10
256.0
 20
182.25
 30
0.0
 11
256.0
 21
179.95
 31
0.0
  0
LINE
  5
220
330
2
100
AcDbEntity
  8
画層1
 62
     0
100
AcDbLine
 10
256.65
 20
178.16
 30
0.0
 11
257.47
 21
178.04
 31
0.0
  0
ARC
  5
221
330
2
100
AcDbEntity
  8
画層1
 62
     0
100
AcDbCircle
 10
256.57
 20
177.67
 30
0.0
 40
0.5
100
AcDbArc
 50
81.47
 51
180.0
  0
LINE
  5
222
330
2
100
AcDbEntity
  8
画層1
 62
     0
100
AcDbLine
 10
257.57
 20
183.05
 30
0.0
 11
258.56
 21
183.05
 31
0.0
  0
ARC
  5
223
330
2
100
AcDbEntity
  8
画層1
 62
     0
100
AcDbCircle
 10
257.32
 20
181.75
 30
0.0
 40
1.0
100
AcDbArc
 50
278.53
 51
344.01
  0
ARC
  5
224
330
2
100
AcDbEntity
  8
画層1
 62
     0
100
AcDbCircle
 10
251.03
 20
183.55
 30
0.0
 40
7.540000001812724
100
AcDbArc
 50
344.01
 51
356.2
  0
ARC
  5
225
330
2
100
AcDbEntity
  8
画層1
 62
     0
100
AcDbCircle
 10
256.57
 20
181.13
 30
0.0
 40
0.5
100
AcDbArc
 50
180.0
 51
278.53
  0
ARC
  5
226
330
2
100
AcDbEntity
  8
画層1
 62
     0
100
AcDbCircle
 10
244.66
 20
183.8
 30
0.0
 40
11.44118729799424
100
AcDbArc
 50
340.87
 51
355.74
  0
LINE
  5
227
330
2
100
AcDbEntity
  8
画層1
 62
     0
100
AcDbLine
 10
255.67
 20
182.95
 30
0.0
 11
256.07
 21
182.95
 31
0.0
  0
LINE
  5
228
330
2
100
AcDbEntity
  8
画層1
 62
     0
100
AcDbLine
 10
256.65
 20
180.64
 30
0.0
 11
257.47
 21
180.76
 31
0.0
  0
LINE
  5
229
330
2
100
AcDbEntity
  8
画層1
 62
     0
100
AcDbLine
 10
256.0
 20
190.55
 30
0.0
 11
256.0
 21
188.25
 31
0.0
  0
ARC
  5
22A
330
2
100
AcDbEntity
  8
画層1
 62
     0
100
AcDbCircle
 10
257.32
 20
190.05
 30
0.0
 40
1.0
100
AcDbArc
 50
278.53
 51
344.01
  0
ARC
  5
22B
330
2
100
AcDbEntity
  8
画層1
 62
     0
100
AcDbCircle
 10
256.57
 20
189.43
 30
0.0
 40
0.5
100
AcDbArc
 50
180.0
 51
278.53
  0
ARC
  5
22C
330
2
100
AcDbEntity
  8
画層1
 62
     0
100
AcDbCircle
 10
244.57
 20
191.85
 30
0.0
 40
10.50674104301654
100
AcDbArc
 50
340.54
 51
355.63
  0
ARC
  5
22D
330
2
100
AcDbEntity
  8
画層1
 62
     0
100
AcDbCircle
 10
244.66
 20
192.1
 30
0.0
 40
11.44118729799424
100
AcDbArc
 50
340.87
 51
355.74
  0
ARC
  5
22E
330
2
100
AcDbEntity
  8
画層1
 62
     0
100
AcDbCircle
 10
244.57
 20
183.55
 30
0.0
 40
10.50674104301654
100
AcDbArc
 50
4.37
 51
19.46
  0
LINE
  5
22F
330
2
100
AcDbEntity
  8
画層1
 62
     0
100
AcDbLine
 10
253.5
 20
187.05
 30
0.0
 11
255.47
 21
187.05
 31
0.0
  0
LINE
  5
230
330
2
100
AcDbEntity
  8
画層1
 62
     0
100
AcDbLine
 10
255.47
 20
188.35
 30
0.0
 11
253.5
 21
188.35
 31
0.0
  0
LINE
  5
231
330
2
100
AcDbEntity
  8
画層1
 62
     0
100
AcDbLine
 10
255.04
 20
184.35
 30
0.0
 11
254.47
 21
184.35
 31
0.0
  0
ARC
  5
232
330
2
100
AcDbEntity
  8
画層1
 62
     0
100
AcDbCircle
 10
253.7
 20
188.45
 30
0.0
 40
0.2
100
AcDbArc
 50
180.0
 51
270.0
  0
ARC
  5
233
330
2
100
AcDbEntity
  8
画層1
 62
     0
100
AcDbCircle
 10
253.7
 20
186.95
 30
0.0
 40
0.2
100
AcDbArc
 50
90.0
 51
180.0
  0
ARC
  5
234
330
2
100
AcDbEntity
  8
画層1
 62
     0
100
AcDbCircle
 10
257.32
 20
185.35
 30
0.0
 40
1.0
100
AcDbArc
 50
15.99
 51
81.47
  0
ARC
  5
235
330
2
100
AcDbEntity
  8
画層1
 62
     0
100
AcDbCircle
 10
244.66
 20
183.3
 30
0.0
 40
11.44118730072772
100
AcDbArc
 50
4.26
 51
19.13
  0
LINE
  5
236
330
2
100
AcDbEntity
  8
画層1
 62
     0
100
AcDbLine
 10
256.07
 20
184.15
 30
0.0
 11
255.67
 21
184.15
 31
0.0
  0
ARC
  5
237
330
2
100
AcDbEntity
  8
画層1
 62
     0
100
AcDbCircle
 10
256.57
 20
185.97
 30
0.0
 40
0.5
100
AcDbArc
 50
81.47
 51
180.0
  0
LINE
  5
238
330
2
100
AcDbEntity
  8
画層1
 62
     0
100
AcDbLine
 10
256.65
 20
186.46
 30
0.0
 11
257.47
 21
186.34
 31
0.0
  0
LINE
  5
239
330
2
100
AcDbEntity
  8
画層1
 62
     0
100
AcDbLine
 10
258.56
 20
184.05
 30
0.0
 11
257.57
 21
184.05
 31
0.0
  0
ARC
  5
23A
330
2
100
AcDbEntity
  8
画層1
 62
     0
100
AcDbCircle
 10
251.03
 20
183.55
 30
0.0
 40
7.540000001812724
100
AcDbArc
 50
3.8
 51
15.99
  0
LINE
  5
23B
330
2
100
AcDbEntity
  8
画層1
 62
     0
100
AcDbLine
 10
256.65
 20
188.94
 30
0.0
 11
257.47
 21
189.06
 31
0.0
  0
LINE
  5
23C
330
2
100
AcDbEntity
  8
画層1
 62
     0
100
AcDbLine
 10
256.0
 20
187.15
 30
0.0
 11
256.0
 21
184.85
 31
0.0
  0
LINE
  5
23D
330
2
100
AcDbEntity
  8
画層1
 62
     0
100
AcDbLine
 10
255.04
 20
191.05
 30
0.0
 11
254.47
 21
191.05
 31
0.0
  0
LINE
  5
23E
330
2
100
AcDbEntity
  8
画層1
 62
     0
100
AcDbLine
 10
255.04
 20
192.65
 30
0.0
 11
254.47
 21
192.65
 31
0.0
  0
LINE
  5
23F
330
2
100
AcDbEntity
  8
画層1
 62
     0
100
AcDbLine
 10
257.57
 20
192.35
 30
0.0
 11
257.57
 21
191.35
 31
0.0
  0
LINE
  5
240
330
2
100
AcDbEntity
  8
画層1
 62
     0
100
AcDbLine
 10
257.57
 20
191.35
 30
0.0
 11
258.56
 21
191.35
 31
0.0
  0
ARC
  5
241
330
2
100
AcDbEntity
  8
画層1
 62
     0
100
AcDbCircle
 10
251.03
 20
191.85
 30
0.0
 40
7.540000001812724
100
AcDbArc
 50
3.8
 51
15.99
  0
LINE
  5
242
330
2
100
AcDbEntity
  8
画層1
 62
     0
100
AcDbLine
 10
258.56
 20
192.35
 30
0.0
 11
257.57
 21
192.35
 31
0.0
  0
ARC
  5
243
330
2
100
AcDbEntity
  8
画層1
 62
     0
100
AcDbCircle
 10
257.32
 20
193.65
 30
0.0
 40
1.0
100
AcDbArc
 50
15.99
 51
81.47
  0
LINE
  5
244
330
2
100
AcDbEntity
  8
画層1
 62
     0
100
AcDbLine
 10
255.67
 20
192.45
 30
0.0
 11
255.67
 21
191.25
 31
0.0
  0
LINE
  5
245
330
2
100
AcDbEntity
  8
画層1
 62
     0
100
AcDbLine
 10
255.67
 20
191.25
 30
0.0
 11
256.07
 21
191.25
 31
0.0
  0
LINE
  5
246
330
2
100
AcDbEntity
  8
画層1
 62
     0
100
AcDbLine
 10
256.07
 20
192.45
 30
0.0
 11
255.67
 21
192.45
 31
0.0
  0
ARC
  5
247
330
2
100
AcDbEntity
  8
画層1
 62
     0
100
AcDbCircle
 10
256.57
 20
194.27
 30
0.0
 40
0.5
100
AcDbArc
 50
81.47
 51
180.0
  0
LINE
  5
248
330
2
100
AcDbEntity
  8
画層1
 62
     0
100
AcDbLine
 10
256.65
 20
194.76
 30
0.0
 11
257.47
 21
194.64
 31
0.0
  0
LINE
  5
249
330
2
100
AcDbEntity
  8
画層1
 62
     0
100
AcDbLine
 10
256.07
 20
194.27
 30
0.0
 11
256.07
 21
189.43
 31
0.0
  0
ARC
  5
24A
330
2
100
AcDbEntity
  8
画層1
 62
     0
100
AcDbCircle
 10
251.03
 20
191.85
 30
0.0
 40
7.540000001812724
100
AcDbArc
 50
344.01
 51
356.2
  0
LINE
  5
24B
330
2
100
AcDbEntity
  8
画層1
 62
     0
100
AcDbLine
 10
262.0
 20
179.65
 30
0.0
 11
262.0
 21
179.15
 31
0.0
  0
ARC
  5
24C
330
2
100
AcDbEntity
  8
画層1
 62
     0
100
AcDbCircle
 10
261.7
 20
179.65
 30
0.0
 40
0.3
100
AcDbArc
 50
0.0
 51
90.0
  0
ARC
  5
24D
330
2
100
AcDbEntity
  8
画層1
 62
     0
100
AcDbCircle
 10
261.7
 20
179.15
 30
0.0
 40
0.3
100
AcDbArc
 50
270.0
 51
0.0
  0
LINE
  5
24E
330
2
100
AcDbEntity
  8
画層1
 62
     0
100
AcDbLine
 10
262.0
 20
187.95
 30
0.0
 11
262.0
 21
187.45
 31
0.0
  0
ARC
  5
24F
330
2
100
AcDbEntity
  8
画層1
 62
     0
100
AcDbCircle
 10
261.7
 20
187.95
 30
0.0
 40
0.3
100
AcDbArc
 50
360.0
 51
90.0
  0
ARC
  5
250
330
2
100
AcDbEntity
  8
画層1
 62
     0
100
AcDbCircle
 10
261.7
 20
187.45
 30
0.0
 40
0.3
100
AcDbArc
 50
270.0
 51
360.0
  0
LWPOLYLINE
  5
251
330
2
100
AcDbEntity
  8
画層1
 62
     0
100
AcDbPolyline
 90
        4
 70
     1
 43
0.0
 10
215.5
 20
223.3
 10
237.5
 20
223.3
 10
237.5
 20
221.5
 10
215.5
 20
221.5
  0
LWPOLYLINE
  5
252
330
2
100
AcDbEntity
  8
画層1
 62
     0
100
AcDbPolyline
 90
        4
 70
     1
 43
0.0
 10
215.5
 20
226.6
 10
237.5
 20
226.6
 10
237.5
 20
224.8
 10
215.5
 20
224.8
  0
LWPOLYLINE
  5
253
330
2
100
AcDbEntity
  8
画層1
 62
     0
100
AcDbPolyline
 90
        4
 70
     1
 43
0.0
 10
215.5
 20
229.9
 10
237.5
 20
229.9
 10
237.5
 20
228.1
 10
215.5
 20
228.1
  0
LWPOLYLINE
  5
254
330
2
100
AcDbEntity
  8
画層1
 62
     0
100
AcDbPolyline
 90
        4
 70
     1
 43
0.0
 10
215.5
 20
233.2
 10
237.5
 20
233.2
 10
237.5
 20
231.4
 10
215.5
 20
231.4
  0
ARC
  5
255
330
2
100
AcDbEntity
  8
画層1
 62
     0
100
AcDbCircle
 10
251.03
 20
216.75
 30
0.0
 40
7.540000001812724
100
AcDbArc
 50
3.8
 51
15.99
  0
LINE
  5
256
330
2
100
AcDbEntity
  8
画層1
 62
     0
100
AcDbLine
 10
256.07
 20
219.17
 30
0.0
 11
256.07
 21
214.33
 31
0.0
  0
LINE
  5
257
330
2
100
AcDbEntity
  8
画層1
 62
     0
100
AcDbLine
 10
253.97
 20
213.25
 30
0.0
 11
253.97
 21
220.25
 31
0.0
  0
LINE
  5
258
330
2
100
AcDbEntity
  8
画層1
 62
     0
100
AcDbLine
 10
254.47
 20
220.25
 30
0.0
 11
254.47
 21
213.25
 31
0.0
  0
ARC
  5
259
330
2
100
AcDbEntity
  8
画層1
 62
     0
100
AcDbCircle
 10
244.57
 20
216.75
 30
0.0
 40
10.50674104301654
100
AcDbArc
 50
4.37
 51
19.46
  0
ARC
  5
25A
330
2
100
AcDbEntity
  8
画層1
 62
     0
100
AcDbCircle
 10
244.66
 20
216.5
 30
0.0
 40
11.44118730072772
100
AcDbArc
 50
4.26
 51
19.13
  0
LINE
  5
25B
330
2
100
AcDbEntity
  8
画層1
 62
     0
100
AcDbLine
 10
256.0
 20
220.35
 30
0.0
 11
256.0
 21
218.05
 31
0.0
  0
LINE
  5
25C
330
2
100
AcDbEntity
  8
画層1
 62
     0
100
AcDbLine
 10
253.5
 20
220.35
 30
0.0
 11
253.5
 21
213.15
 31
0.0
  0
LINE
  5
25D
330
2
100
AcDbEntity
  8
画層1
 62
     0
100
AcDbLine
 10
253.5
 20
213.15
 30
0.0
 11
261.7
 21
213.15
 31
0.0
  0
LINE
  5
25E
330
2
100
AcDbEntity
  8
画層1
 62
     0
100
AcDbLine
 10
253.5
 20
212.05
 30
0.0
 11
261.7
 21
212.05
 31
0.0
  0
LINE
  5
25F
330
2
100
AcDbEntity
  8
画層1
 62
     0
100
AcDbLine
 10
253.5
 20
204.85
 30
0.0
 11
261.7
 21
204.85
 31
0.0
  0
LINE
  5
260
330
2
100
AcDbEntity
  8
画層1
 62
     0
100
AcDbLine
 10
253.5
 20
203.75
 30
0.0
 11
261.7
 21
203.75
 31
0.0
  0
LINE
  5
261
330
2
100
AcDbEntity
  8
画層1
 62
     0
100
AcDbLine
 10
253.5
 20
196.55
 30
0.0
 11
261.7
 21
196.55
 31
0.0
  0
LINE
  5
262
330
2
100
AcDbEntity
  8
画層1
 62
     0
100
AcDbLine
 10
253.5
 20
195.45
 30
0.0
 11
261.7
 21
195.45
 31
0.0
  0
LINE
  5
263
330
2
100
AcDbEntity
  8
画層1
 62
     0
100
AcDbLine
 10
256.0
 20
207.15
 30
0.0
 11
256.0
 21
204.85
 31
0.0
  0
LINE
  5
264
330
2
100
AcDbEntity
  8
画層1
 62
     0
100
AcDbLine
 10
256.07
 20
210.87
 30
0.0
 11
256.07
 21
206.03
 31
0.0
  0
LINE
  5
265
330
2
100
AcDbEntity
  8
画層1
 62
     0
100
AcDbLine
 10
253.97
 20
204.95
 30
0.0
 11
253.97
 21
211.95
 31
0.0
  0
LINE
  5
266
330
2
100
AcDbEntity
  8
画層1
 62
     0
100
AcDbLine
 10
254.47
 20
211.95
 30
0.0
 11
254.47
 21
204.95
 31
0.0
  0
ARC
  5
267
330
2
100
AcDbEntity
  8
画層1
 62
     0
100
AcDbCircle
 10
244.57
 20
208.45
 30
0.0
 40
10.50674104301654
100
AcDbArc
 50
340.54
 51
355.63
  0
ARC
  5
268
330
2
100
AcDbEntity
  8
画層1
 62
     0
100
AcDbCircle
 10
244.66
 20
208.7
 30
0.0
 40
11.44118729799424
100
AcDbArc
 50
340.87
 51
355.74
  0
ARC
  5
269
330
2
100
AcDbEntity
  8
画層1
 62
     0
100
AcDbCircle
 10
251.03
 20
208.45
 30
0.0
 40
7.540000001812724
100
AcDbArc
 50
344.01
 51
356.2
  0
LINE
  5
26A
330
2
100
AcDbEntity
  8
画層1
 62
     0
100
AcDbLine
 10
253.5
 20
212.05
 30
0.0
 11
253.5
 21
204.85
 31
0.0
  0
LINE
  5
26B
330
2
100
AcDbEntity
  8
画層1
 62
     0
100
AcDbLine
 10
255.67
 20
200.75
 30
0.0
 11
255.67
 21
199.55
 31
0.0
  0
LINE
  5
26C
330
2
100
AcDbEntity
  8
画層1
 62
     0
100
AcDbLine
 10
253.97
 20
196.65
 30
0.0
 11
253.97
 21
203.65
 31
0.0
  0
LINE
  5
26D
330
2
100
AcDbEntity
  8
画層1
 62
     0
100
AcDbLine
 10
254.47
 20
203.65
 30
0.0
 11
254.47
 21
196.65
 31
0.0
  0
ARC
  5
26E
330
2
100
AcDbEntity
  8
画層1
 62
     0
100
AcDbCircle
 10
251.03
 20
200.15
 30
0.0
 40
7.540000001812724
100
AcDbArc
 50
3.8
 51
15.99
  0
LINE
  5
26F
330
2
100
AcDbEntity
  8
画層1
 62
     0
100
AcDbLine
 10
256.07
 20
202.57
 30
0.0
 11
256.07
 21
197.73
 31
0.0
  0
LINE
  5
270
330
2
100
AcDbEntity
  8
画層1
 62
     0
100
AcDbLine
 10
253.5
 20
203.75
 30
0.0
 11
253.5
 21
196.55
 31
0.0
  0
LINE
  5
271
330
2
100
AcDbEntity
  8
画層1
 62
     0
100
AcDbLine
 10
253.5
 20
195.35
 30
0.0
 11
255.47
 21
195.35
 31
0.0
  0
ARC
  5
272
330
2
100
AcDbEntity
  8
画層1
 62
     0
100
AcDbCircle
 10
244.57
 20
200.15
 30
0.0
 40
10.50674104301654
100
AcDbArc
 50
340.54
 51
355.63
  0
LINE
  5
273
330
2
100
AcDbEntity
  8
画層1
 62
     0
100
AcDbLine
 10
255.47
 20
196.65
 30
0.0
 11
253.5
 21
196.65
 31
0.0
  0
LINE
  5
274
330
2
100
AcDbEntity
  8
画層1
 62
     0
100
AcDbLine
 10
255.04
 20
199.35
 30
0.0
 11
254.47
 21
199.35
 31
0.0
  0
ARC
  5
275
330
2
100
AcDbEntity
  8
画層1
 62
     0
100
AcDbCircle
 10
253.7
 20
196.75
 30
0.0
 40
0.2
100
AcDbArc
 50
180.0
 51
270.0
  0
ARC
  5
276
330
2
100
AcDbEntity
  8
画層1
 62
     0
100
AcDbCircle
 10
253.7
 20
195.25
 30
0.0
 40
0.2
100
AcDbArc
 50
90.0
 51
180.0
  0
LINE
  5
277
330
2
100
AcDbEntity
  8
画層1
 62
     0
100
AcDbLine
 10
256.0
 20
198.85
 30
0.0
 11
256.0
 21
196.55
 31
0.0
  0
ARC
  5
278
330
2
100
AcDbEntity
  8
画層1
 62
     0
100
AcDbCircle
 10
257.32
 20
198.35
 30
0.0
 40
1.0
100
AcDbArc
 50
278.53
 51
344.01
  0
LINE
  5
279
330
2
100
AcDbEntity
  8
画層1
 62
     0
100
AcDbLine
 10
258.56
 20
200.65
 30
0.0
 11
257.57
 21
200.65
 31
0.0
  0
LINE
  5
27A
330
2
100
AcDbEntity
  8
画層1
 62
     0
100
AcDbLine
 10
257.57
 20
199.65
 30
0.0
 11
258.56
 21
199.65
 31
0.0
  0
ARC
  5
27B
330
2
100
AcDbEntity
  8
画層1
 62
     0
100
AcDbCircle
 10
251.03
 20
200.15
 30
0.0
 40
7.540000001812724
100
AcDbArc
 50
344.01
 51
356.2
  0
LINE
  5
27C
330
2
100
AcDbEntity
  8
画層1
 62
     0
100
AcDbLine
 10
257.57
 20
200.65
 30
0.0
 11
257.57
 21
199.65
 31
0.0
  0
ARC
  5
27D
330
2
100
AcDbEntity
  8
画層1
 62
     0
100
AcDbCircle
 10
256.57
 20
197.73
 30
0.0
 40
0.5
100
AcDbArc
 50
180.0
 51
278.53
  0
ARC
  5
27E
330
2
100
AcDbEntity
  8
画層1
 62
     0
100
AcDbCircle
 10
244.66
 20
200.4
 30
0.0
 40
11.44118729799424
100
AcDbArc
 50
340.87
 51
355.74
  0
LINE
  5
27F
330
2
100
AcDbEntity
  8
画層1
 62
     0
100
AcDbLine
 10
255.67
 20
199.55
 30
0.0
 11
256.07
 21
199.55
 31
0.0
  0
LINE
  5
280
330
2
100
AcDbEntity
  8
画層1
 62
     0
100
AcDbLine
 10
256.65
 20
197.24
 30
0.0
 11
257.47
 21
197.36
 31
0.0
  0
LINE
  5
281
330
2
100
AcDbEntity
  8
画層1
 62
     0
100
AcDbLine
 10
253.5
 20
203.65
 30
0.0
 11
255.47
 21
203.65
 31
0.0
  0
ARC
  5
282
330
2
100
AcDbEntity
  8
画層1
 62
     0
100
AcDbCircle
 10
244.57
 20
200.15
 30
0.0
 40
10.50674104301654
100
AcDbArc
 50
4.37
 51
19.46
  0
LINE
  5
283
330
2
100
AcDbEntity
  8
画層1
 62
     0
100
AcDbLine
 10
255.47
 20
204.95
 30
0.0
 11
253.5
 21
204.95
 31
0.0
  0
LINE
  5
284
330
2
100
AcDbEntity
  8
画層1
 62
     0
100
AcDbLine
 10
255.04
 20
200.95
 30
0.0
 11
254.47
 21
200.95
 31
0.0
  0
ARC
  5
285
330
2
100
AcDbEntity
  8
画層1
 62
     0
100
AcDbCircle
 10
253.7
 20
205.05
 30
0.0
 40
0.2
100
AcDbArc
 50
180.0
 51
270.0
  0
ARC
  5
286
330
2
100
AcDbEntity
  8
画層1
 62
     0
100
AcDbCircle
 10
253.7
 20
203.55
 30
0.0
 40
0.2
100
AcDbArc
 50
90.0
 51
180.0
  0
ARC
  5
287
330
2
100
AcDbEntity
  8
画層1
 62
     0
100
AcDbCircle
 10
257.32
 20
201.95
 30
0.0
 40
1.0
100
AcDbArc
 50
15.99
 51
81.47
  0
ARC
  5
288
330
2
100
AcDbEntity
  8
画層1
 62
     0
100
AcDbCircle
 10
256.57
 20
202.57
 30
0.0
 40
0.5
100
AcDbArc
 50
81.47
 51
180.0
  0
LINE
  5
289
330
2
100
AcDbEntity
  8
画層1
 62
     0
100
AcDbLine
 10
256.65
 20
203.06
 30
0.0
 11
257.47
 21
202.94
 31
0.0
  0
LINE
  5
28A
330
2
100
AcDbEntity
  8
画層1
 62
     0
100
AcDbLine
 10
256.07
 20
200.75
 30
0.0
 11
255.67
 21
200.75
 31
0.0
  0
ARC
  5
28B
330
2
100
AcDbEntity
  8
画層1
 62
     0
100
AcDbCircle
 10
244.66
 20
199.9
 30
0.0
 40
11.44118730072772
100
AcDbArc
 50
4.26
 51
19.13
  0
ARC
  5
28C
330
2
100
AcDbEntity
  8
画層1
 62
     0
100
AcDbCircle
 10
257.32
 20
206.65
 30
0.0
 40
1.0
100
AcDbArc
 50
278.53
 51
344.01
  0
ARC
  5
28D
330
2
100
AcDbEntity
  8
画層1
 62
     0
100
AcDbCircle
 10
256.57
 20
206.03
 30
0.0
 40
0.5
100
AcDbArc
 50
180.0
 51
278.53
  0
LINE
  5
28E
330
2
100
AcDbEntity
  8
画層1
 62
     0
100
AcDbLine
 10
256.65
 20
205.54
 30
0.0
 11
257.47
 21
205.66
 31
0.0
  0
LINE
  5
28F
330
2
100
AcDbEntity
  8
画層1
 62
     0
100
AcDbLine
 10
256.0
 20
203.75
 30
0.0
 11
256.0
 21
201.45
 31
0.0
  0
ARC
  5
290
330
2
100
AcDbEntity
  8
画層1
 62
     0
100
AcDbCircle
 10
244.57
 20
208.45
 30
0.0
 40
10.50674104301654
100
AcDbArc
 50
4.37
 51
19.46
  0
LINE
  5
291
330
2
100
AcDbEntity
  8
画層1
 62
     0
100
AcDbLine
 10
253.5
 20
211.95
 30
0.0
 11
255.47
 21
211.95
 31
0.0
  0
LINE
  5
292
330
2
100
AcDbEntity
  8
画層1
 62
     0
100
AcDbLine
 10
255.04
 20
207.65
 30
0.0
 11
254.47
 21
207.65
 31
0.0
  0
LINE
  5
293
330
2
100
AcDbEntity
  8
画層1
 62
     0
100
AcDbLine
 10
255.04
 20
209.25
 30
0.0
 11
254.47
 21
209.25
 31
0.0
  0
ARC
  5
294
330
2
100
AcDbEntity
  8
画層1
 62
     0
100
AcDbCircle
 10
253.7
 20
211.85
 30
0.0
 40
0.2
100
AcDbArc
 50
90.0
 51
180.0
  0
ARC
  5
295
330
2
100
AcDbEntity
  8
画層1
 62
     0
100
AcDbCircle
 10
251.03
 20
208.45
 30
0.0
 40
7.540000001812724
100
AcDbArc
 50
3.8
 51
15.99
  0
LINE
  5
296
330
2
100
AcDbEntity
  8
画層1
 62
     0
100
AcDbLine
 10
258.56
 20
208.95
 30
0.0
 11
257.57
 21
208.95
 31
0.0
  0
LINE
  5
297
330
2
100
AcDbEntity
  8
画層1
 62
     0
100
AcDbLine
 10
257.57
 20
207.95
 30
0.0
 11
258.56
 21
207.95
 31
0.0
  0
LINE
  5
298
330
2
100
AcDbEntity
  8
画層1
 62
     0
100
AcDbLine
 10
257.57
 20
208.95
 30
0.0
 11
257.57
 21
207.95
 31
0.0
  0
ARC
  5
299
330
2
100
AcDbEntity
  8
画層1
 62
     0
100
AcDbCircle
 10
257.32
 20
210.25
 30
0.0
 40
1.0
100
AcDbArc
 50
15.99
 51
81.47
  0
LINE
  5
29A
330
2
100
AcDbEntity
  8
画層1
 62
     0
100
AcDbLine
 10
255.67
 20
209.05
 30
0.0
 11
255.67
 21
207.85
 31
0.0
  0
LINE
  5
29B
330
2
100
AcDbEntity
  8
画層1
 62
     0
100
AcDbLine
 10
255.67
 20
207.85
 30
0.0
 11
256.07
 21
207.85
 31
0.0
  0
ARC
  5
29C
330
2
100
AcDbEntity
  8
画層1
 62
     0
100
AcDbCircle
 10
244.66
 20
208.2
 30
0.0
 40
11.44118730072772
100
AcDbArc
 50
4.26
 51
19.13
  0
LINE
  5
29D
330
2
100
AcDbEntity
  8
画層1
 62
     0
100
AcDbLine
 10
256.07
 20
209.05
 30
0.0
 11
255.67
 21
209.05
 31
0.0
  0
ARC
  5
29E
330
2
100
AcDbEntity
  8
画層1
 62
     0
100
AcDbCircle
 10
256.57
 20
210.87
 30
0.0
 40
0.5
100
AcDbArc
 50
81.47
 51
180.0
  0
LINE
  5
29F
330
2
100
AcDbEntity
  8
画層1
 62
     0
100
AcDbLine
 10
256.65
 20
211.36
 30
0.0
 11
257.47
 21
211.24
 31
0.0
  0
LINE
  5
2A0
330
2
100
AcDbEntity
  8
画層1
 62
     0
100
AcDbLine
 10
256.0
 20
212.05
 30
0.0
 11
256.0
 21
209.75
 31
0.0
  0
ARC
  5
2A1
330
2
100
AcDbEntity
  8
画層1
 62
     0
100
AcDbCircle
 10
244.57
 20
216.75
 30
0.0
 40
10.50674104301654
100
AcDbArc
 50
340.54
 51
355.63
  0
LINE
  5
2A2
330
2
100
AcDbEntity
  8
画層1
 62
     0
100
AcDbLine
 10
255.47
 20
213.25
 30
0.0
 11
253.5
 21
213.25
 31
0.0
  0
LINE
  5
2A3
330
2
100
AcDbEntity
  8
画層1
 62
     0
100
AcDbLine
 10
255.04
 20
217.55
 30
0.0
 11
254.47
 21
217.55
 31
0.0
  0
LINE
  5
2A4
330
2
100
AcDbEntity
  8
画層1
 62
     0
100
AcDbLine
 10
255.04
 20
215.95
 30
0.0
 11
254.47
 21
215.95
 31
0.0
  0
ARC
  5
2A5
330
2
100
AcDbEntity
  8
画層1
 62
     0
100
AcDbCircle
 10
253.7
 20
213.35
 30
0.0
 40
0.2
100
AcDbArc
 50
180.0
 51
270.0
  0
LINE
  5
2A6
330
2
100
AcDbEntity
  8
画層1
 62
     0
100
AcDbLine
 10
256.0
 20
215.45
 30
0.0
 11
256.0
 21
213.15
 31
0.0
  0
ARC
  5
2A7
330
2
100
AcDbEntity
  8
画層1
 62
     0
100
AcDbCircle
 10
251.03
 20
216.75
 30
0.0
 40
7.540000001812724
100
AcDbArc
 50
344.01
 51
356.2
  0
ARC
  5
2A8
330
2
100
AcDbEntity
  8
画層1
 62
     0
100
AcDbCircle
 10
257.32
 20
214.95
 30
0.0
 40
1.0
100
AcDbArc
 50
278.53
 51
344.01
  0
LINE
  5
2A9
330
2
100
AcDbEntity
  8
画層1
 62
     0
100
AcDbLine
 10
258.56
 20
217.25
 30
0.0
 11
257.57
 21
217.25
 31
0.0
  0
LINE
  5
2AA
330
2
100
AcDbEntity
  8
画層1
 62
     0
100
AcDbLine
 10
257.57
 20
216.25
 30
0.0
 11
258.56
 21
216.25
 31
0.0
  0
LINE
  5
2AB
330
2
100
AcDbEntity
  8
画層1
 62
     0
100
AcDbLine
 10
257.57
 20
217.25
 30
0.0
 11
257.57
 21
216.25
 31
0.0
  0
ARC
  5
2AC
330
2
100
AcDbEntity
  8
画層1
 62
     0
100
AcDbCircle
 10
244.66
 20
217.0
 30
0.0
 40
11.44118729799424
100
AcDbArc
 50
340.87
 51
355.74
  0
ARC
  5
2AD
330
2
100
AcDbEntity
  8
画層1
 62
     0
100
AcDbCircle
 10
256.57
 20
214.33
 30
0.0
 40
0.5
100
AcDbArc
 50
180.0
 51
278.53
  0
LINE
  5
2AE
330
2
100
AcDbEntity
  8
画層1
 62
     0
100
AcDbLine
 10
256.07
 20
217.35
 30
0.0
 11
255.67
 21
217.35
 31
0.0
  0
LINE
  5
2AF
330
2
100
AcDbEntity
  8
画層1
 62
     0
100
AcDbLine
 10
255.67
 20
216.15
 30
0.0
 11
256.07
 21
216.15
 31
0.0
  0
LINE
  5
2B0
330
2
100
AcDbEntity
  8
画層1
 62
     0
100
AcDbLine
 10
255.67
 20
217.35
 30
0.0
 11
255.67
 21
216.15
 31
0.0
  0
LINE
  5
2B1
330
2
100
AcDbEntity
  8
画層1
 62
     0
100
AcDbLine
 10
256.65
 20
213.84
 30
0.0
 11
257.47
 21
213.96
 31
0.0
  0
LINE
  5
2B2
330
2
100
AcDbEntity
  8
画層1
 62
     0
100
AcDbLine
 10
262.0
 20
196.25
 30
0.0
 11
262.0
 21
195.75
 31
0.0
  0
ARC
  5
2B3
330
2
100
AcDbEntity
  8
画層1
 62
     0
100
AcDbCircle
 10
261.7
 20
196.25
 30
0.0
 40
0.3
100
AcDbArc
 50
0.0
 51
90.0
  0
ARC
  5
2B4
330
2
100
AcDbEntity
  8
画層1
 62
     0
100
AcDbCircle
 10
261.7
 20
195.75
 30
0.0
 40
0.3
100
AcDbArc
 50
270.0
 51
0.0
  0
LINE
  5
2B5
330
2
100
AcDbEntity
  8
画層1
 62
     0
100
AcDbLine
 10
262.0
 20
204.55
 30
0.0
 11
262.0
 21
204.05
 31
0.0
  0
ARC
  5
2B6
330
2
100
AcDbEntity
  8
画層1
 62
     0
100
AcDbCircle
 10
261.7
 20
204.55
 30
0.0
 40
0.3
100
AcDbArc
 50
0.0
 51
90.0
  0
ARC
  5
2B7
330
2
100
AcDbEntity
  8
画層1
 62
     0
100
AcDbCircle
 10
261.7
 20
204.05
 30
0.0
 40
0.3
100
AcDbArc
 50
270.0
 51
0.0
  0
ARC
  5
2B8
330
2
100
AcDbEntity
  8
画層1
 62
     0
100
AcDbCircle
 10
261.7
 20
212.35
 30
0.0
 40
0.3
100
AcDbArc
 50
270.0
 51
0.0
  0
LINE
  5
2B9
330
2
100
AcDbEntity
  8
画層1
 62
     0
100
AcDbLine
 10
262.0
 20
212.85
 30
0.0
 11
262.0
 21
212.35
 31
0.0
  0
ARC
  5
2BA
330
2
100
AcDbEntity
  8
画層1
 62
     0
100
AcDbCircle
 10
261.7
 20
212.85
 30
0.0
 40
0.3
100
AcDbArc
 50
0.0
 51
90.0
  0
LINE
  5
2BB
330
2
100
AcDbEntity
  8
画層1
 62
     0
100
AcDbLine
 10
253.5
 20
240.0
 30
0.0
 11
261.3
 21
240.0
 31
0.0
  0
LINE
  5
2BC
330
2
100
AcDbEntity
  8
画層1
 62
     0
100
AcDbLine
 10
261.7
 20
236.95
 30
0.0
 11
253.5
 21
236.95
 31
0.0
  0
LINE
  5
2BD
330
2
100
AcDbEntity
  8
画層1
 62
     0
100
AcDbLine
 10
253.5
 20
229.75
 30
0.0
 11
261.7
 21
229.75
 31
0.0
  0
LINE
  5
2BE
330
2
100
AcDbEntity
  8
画層1
 62
     0
100
AcDbLine
 10
253.5
 20
228.65
 30
0.0
 11
261.7
 21
228.65
 31
0.0
  0
LINE
  5
2BF
330
2
100
AcDbEntity
  8
画層1
 62
     0
100
AcDbLine
 10
261.7
 20
220.35
 30
0.0
 11
253.5
 21
220.35
 31
0.0
  0
LINE
  5
2C0
330
2
100
AcDbEntity
  8
画層1
 62
     0
100
AcDbLine
 10
253.5
 20
221.45
 30
0.0
 11
261.7
 21
221.45
 31
0.0
  0
ARC
  5
2C1
330
2
100
AcDbEntity
  8
画層1
 62
     0
100
AcDbCircle
 10
253.7
 20
229.95
 30
0.0
 40
0.2
100
AcDbArc
 50
180.0
 51
270.0
  0
ARC
  5
2C2
330
2
100
AcDbEntity
  8
画層1
 62
     0
100
AcDbCircle
 10
250.7
 20
218.3
 30
0.0
 40
1.0
100
AcDbArc
 50
0.0
 51
89.99
  0
ARC
  5
2C3
330
2
100
AcDbEntity
  8
画層1
 62
     0
100
AcDbCircle
 10
251.03
 20
225.05
 30
0.0
 40
7.540000001812724
100
AcDbArc
 50
344.01
 51
356.2
  0
ARC
  5
2C4
330
2
100
AcDbEntity
  8
画層1
 62
     0
100
AcDbCircle
 10
244.57
 20
225.05
 30
0.0
 40
10.50674104301654
100
AcDbArc
 50
340.54
 51
355.63
  0
ARC
  5
2C5
330
2
100
AcDbEntity
  8
画層1
 62
     0
100
AcDbCircle
 10
244.66
 20
225.3
 30
0.0
 40
11.44118729799424
100
AcDbArc
 50
340.87
 51
355.74
  0
LINE
  5
2C6
330
2
100
AcDbEntity
  8
画層1
 62
     0
100
AcDbLine
 10
256.07
 20
227.47
 30
0.0
 11
256.07
 21
222.63
 31
0.0
  0
LINE
  5
2C7
330
2
100
AcDbEntity
  8
画層1
 62
     0
100
AcDbLine
 10
253.97
 20
221.55
 30
0.0
 11
253.97
 21
228.55
 31
0.0
  0
LINE
  5
2C8
330
2
100
AcDbEntity
  8
画層1
 62
     0
100
AcDbLine
 10
254.47
 20
228.55
 30
0.0
 11
254.47
 21
221.55
 31
0.0
  0
LINE
  5
2C9
330
2
100
AcDbEntity
  8
画層1
 62
     0
100
AcDbLine
 10
253.5
 20
228.65
 30
0.0
 11
253.5
 21
221.45
 31
0.0
  0
LINE
  5
2CA
330
2
100
AcDbEntity
  8
画層1
 62
     0
100
AcDbLine
 10
253.5
 20
220.25
 30
0.0
 11
255.47
 21
220.25
 31
0.0
  0
LINE
  5
2CB
330
2
100
AcDbEntity
  8
画層1
 62
     0
100
AcDbLine
 10
255.47
 20
221.55
 30
0.0
 11
253.5
 21
221.55
 31
0.0
  0
ARC
  5
2CC
330
2
100
AcDbEntity
  8
画層1
 62
     0
100
AcDbCircle
 10
253.7
 20
221.65
 30
0.0
 40
0.2
100
AcDbArc
 50
180.0
 51
270.0
  0
ARC
  5
2CD
330
2
100
AcDbEntity
  8
画層1
 62
     0
100
AcDbCircle
 10
253.7
 20
220.15
 30
0.0
 40
0.2
100
AcDbArc
 50
90.0
 51
180.0
  0
LINE
  5
2CE
330
2
100
AcDbEntity
  8
画層1
 62
     0
100
AcDbLine
 10
256.0
 20
223.75
 30
0.0
 11
256.0
 21
221.45
 31
0.0
  0
ARC
  5
2CF
330
2
100
AcDbEntity
  8
画層1
 62
     0
100
AcDbCircle
 10
256.57
 20
219.17
 30
0.0
 40
0.5
100
AcDbArc
 50
81.47
 51
180.0
  0
LINE
  5
2D0
330
2
100
AcDbEntity
  8
画層1
 62
     0
100
AcDbLine
 10
256.65
 20
219.66
 30
0.0
 11
257.47
 21
219.54
 31
0.0
  0
ARC
  5
2D1
330
2
100
AcDbEntity
  8
画層1
 62
     0
100
AcDbCircle
 10
257.32
 20
218.55
 30
0.0
 40
1.0
100
AcDbArc
 50
15.99
 51
81.47
  0
ARC
  5
2D2
330
2
100
AcDbEntity
  8
画層1
 62
     0
100
AcDbCircle
 10
256.57
 20
222.63
 30
0.0
 40
0.5
100
AcDbArc
 50
180.0
 51
278.53
  0
LINE
  5
2D3
330
2
100
AcDbEntity
  8
画層1
 62
     0
100
AcDbLine
 10
256.65
 20
222.14
 30
0.0
 11
257.47
 21
222.26
 31
0.0
  0
ARC
  5
2D4
330
2
100
AcDbEntity
  8
画層1
 62
     0
100
AcDbCircle
 10
257.32
 20
223.25
 30
0.0
 40
1.0
100
AcDbArc
 50
278.53
 51
344.01
  0
ARC
  5
2D5
330
2
100
AcDbEntity
  8
画層1
 62
     0
100
AcDbCircle
 10
244.57
 20
225.05
 30
0.0
 40
10.50674104301654
100
AcDbArc
 50
4.37
 51
19.46
  0
LINE
  5
2D6
330
2
100
AcDbEntity
  8
画層1
 62
     0
100
AcDbLine
 10
253.5
 20
228.55
 30
0.0
 11
255.47
 21
228.55
 31
0.0
  0
LINE
  5
2D7
330
2
100
AcDbEntity
  8
画層1
 62
     0
100
AcDbLine
 10
255.04
 20
225.85
 30
0.0
 11
254.47
 21
225.85
 31
0.0
  0
LINE
  5
2D8
330
2
100
AcDbEntity
  8
画層1
 62
     0
100
AcDbLine
 10
255.04
 20
224.25
 30
0.0
 11
254.47
 21
224.25
 31
0.0
  0
ARC
  5
2D9
330
2
100
AcDbEntity
  8
画層1
 62
     0
100
AcDbCircle
 10
253.7
 20
228.45
 30
0.0
 40
0.2
100
AcDbArc
 50
90.0
 51
180.0
  0
ARC
  5
2DA
330
2
100
AcDbEntity
  8
画層1
 62
     0
100
AcDbCircle
 10
251.03
 20
225.05
 30
0.0
 40
7.540000001812724
100
AcDbArc
 50
3.8
 51
15.99
  0
LINE
  5
2DB
330
2
100
AcDbEntity
  8
画層1
 62
     0
100
AcDbLine
 10
258.56
 20
225.55
 30
0.0
 11
257.57
 21
225.55
 31
0.0
  0
ARC
  5
2DC
330
2
100
AcDbEntity
  8
画層1
 62
     0
100
AcDbCircle
 10
257.32
 20
226.85
 30
0.0
 40
1.0
100
AcDbArc
 50
15.99
 51
81.47
  0
ARC
  5
2DD
330
2
100
AcDbEntity
  8
画層1
 62
     0
100
AcDbCircle
 10
244.66
 20
224.8
 30
0.0
 40
11.44118730072772
100
AcDbArc
 50
4.26
 51
19.13
  0
LINE
  5
2DE
330
2
100
AcDbEntity
  8
画層1
 62
     0
100
AcDbLine
 10
256.07
 20
225.65
 30
0.0
 11
255.67
 21
225.65
 31
0.0
  0
ARC
  5
2DF
330
2
100
AcDbEntity
  8
画層1
 62
     0
100
AcDbCircle
 10
256.57
 20
227.47
 30
0.0
 40
0.5
100
AcDbArc
 50
81.47
 51
180.0
  0
LINE
  5
2E0
330
2
100
AcDbEntity
  8
画層1
 62
     0
100
AcDbLine
 10
256.65
 20
227.96
 30
0.0
 11
257.47
 21
227.84
 31
0.0
  0
LINE
  5
2E1
330
2
100
AcDbEntity
  8
画層1
 62
     0
100
AcDbLine
 10
257.57
 20
224.55
 30
0.0
 11
258.56
 21
224.55
 31
0.0
  0
LINE
  5
2E2
330
2
100
AcDbEntity
  8
画層1
 62
     0
100
AcDbLine
 10
255.67
 20
224.45
 30
0.0
 11
256.07
 21
224.45
 31
0.0
  0
LINE
  5
2E3
330
2
100
AcDbEntity
  8
画層1
 62
     0
100
AcDbLine
 10
255.67
 20
225.65
 30
0.0
 11
255.67
 21
224.45
 31
0.0
  0
LINE
  5
2E4
330
2
100
AcDbEntity
  8
画層1
 62
     0
100
AcDbLine
 10
257.57
 20
225.55
 30
0.0
 11
257.57
 21
224.55
 31
0.0
  0
LINE
  5
2E5
330
2
100
AcDbEntity
  8
画層1
 62
     0
100
AcDbLine
 10
256.0
 20
228.65
 30
0.0
 11
256.0
 21
226.35
 31
0.0
  0
ARC
  5
2E6
330
2
100
AcDbEntity
  8
画層1
 62
     0
100
AcDbCircle
 10
251.0
 20
235.0
 30
0.0
 40
1.0
100
AcDbArc
 50
0.0
 51
90.0
  0
LINE
  5
2E7
330
2
100
AcDbEntity
  8
画層1
 62
     0
100
AcDbLine
 10
249.5
 20
237.8
 30
0.0
 11
253.5
 21
239.8
 31
0.0
  0
LINE
  5
2E8
330
2
100
AcDbEntity
  8
画層1
 62
     0
100
AcDbLine
 10
256.0
 20
236.95
 30
0.0
 11
256.0
 21
234.65
 31
0.0
  0
ARC
  5
2E9
330
2
100
AcDbEntity
  8
画層1
 62
     0
100
AcDbCircle
 10
244.66
 20
233.1
 30
0.0
 40
11.44118730072772
100
AcDbArc
 50
4.26
 51
19.13
  0
ARC
  5
2EA
330
2
100
AcDbEntity
  8
画層1
 62
     0
100
AcDbCircle
 10
257.32
 20
235.15
 30
0.0
 40
1.0
100
AcDbArc
 50
15.99
 51
81.47
  0
ARC
  5
2EB
330
2
100
AcDbEntity
  8
画層1
 62
     0
100
AcDbCircle
 10
244.57
 20
233.35
 30
0.0
 40
10.50674104301654
100
AcDbArc
 50
4.37
 51
19.46
  0
LINE
  5
2EC
330
2
100
AcDbEntity
  8
画層1
 62
     0
100
AcDbLine
 10
253.5
 20
236.95
 30
0.0
 11
253.5
 21
229.75
 31
0.0
  0
LINE
  5
2ED
330
2
100
AcDbEntity
  8
画層1
 62
     0
100
AcDbLine
 10
254.47
 20
236.85
 30
0.0
 11
254.47
 21
229.85
 31
0.0
  0
LINE
  5
2EE
330
2
100
AcDbEntity
  8
画層1
 62
     0
100
AcDbLine
 10
253.97
 20
229.85
 30
0.0
 11
253.97
 21
236.85
 31
0.0
  0
LINE
  5
2EF
330
2
100
AcDbEntity
  8
画層1
 62
     0
100
AcDbLine
 10
256.07
 20
235.77
 30
0.0
 11
256.07
 21
230.93
 31
0.0
  0
LINE
  5
2F0
330
2
100
AcDbEntity
  8
画層1
 62
     0
100
AcDbLine
 10
255.47
 20
229.85
 30
0.0
 11
253.5
 21
229.85
 31
0.0
  0
ARC
  5
2F1
330
2
100
AcDbEntity
  8
画層1
 62
     0
100
AcDbCircle
 10
244.57
 20
233.35
 30
0.0
 40
10.50674104301654
100
AcDbArc
 50
340.54
 51
355.63
  0
LINE
  5
2F2
330
2
100
AcDbEntity
  8
画層1
 62
     0
100
AcDbLine
 10
255.04
 20
232.55
 30
0.0
 11
254.47
 21
232.55
 31
0.0
  0
LINE
  5
2F3
330
2
100
AcDbEntity
  8
画層1
 62
     0
100
AcDbLine
 10
255.04
 20
234.15
 30
0.0
 11
254.47
 21
234.15
 31
0.0
  0
LINE
  5
2F4
330
2
100
AcDbEntity
  8
画層1
 62
     0
100
AcDbLine
 10
257.57
 20
233.85
 30
0.0
 11
257.57
 21
232.85
 31
0.0
  0
LINE
  5
2F5
330
2
100
AcDbEntity
  8
画層1
 62
     0
100
AcDbLine
 10
255.67
 20
233.95
 30
0.0
 11
255.67
 21
232.75
 31
0.0
  0
LINE
  5
2F6
330
2
100
AcDbEntity
  8
画層1
 62
     0
100
AcDbLine
 10
255.67
 20
232.75
 30
0.0
 11
256.07
 21
232.75
 31
0.0
  0
LINE
  5
2F7
330
2
100
AcDbEntity
  8
画層1
 62
     0
100
AcDbLine
 10
257.57
 20
232.85
 30
0.0
 11
258.56
 21
232.85
 31
0.0
  0
LINE
  5
2F8
330
2
100
AcDbEntity
  8
画層1
 62
     0
100
AcDbLine
 10
256.07
 20
233.95
 30
0.0
 11
255.67
 21
233.95
 31
0.0
  0
LINE
  5
2F9
330
2
100
AcDbEntity
  8
画層1
 62
     0
100
AcDbLine
 10
258.56
 20
233.85
 30
0.0
 11
257.57
 21
233.85
 31
0.0
  0
ARC
  5
2FA
330
2
100
AcDbEntity
  8
画層1
 62
     0
100
AcDbCircle
 10
251.03
 20
233.35
 30
0.0
 40
7.540000001812724
100
AcDbArc
 50
3.8
 51
15.99
  0
ARC
  5
2FB
330
2
100
AcDbEntity
  8
画層1
 62
     0
100
AcDbCircle
 10
257.32
 20
231.55
 30
0.0
 40
1.0
100
AcDbArc
 50
278.53
 51
344.01
  0
LINE
  5
2FC
330
2
100
AcDbEntity
  8
画層1
 62
     0
100
AcDbLine
 10
256.65
 20
230.44
 30
0.0
 11
257.47
 21
230.56
 31
0.0
  0
ARC
  5
2FD
330
2
100
AcDbEntity
  8
画層1
 62
     0
100
AcDbCircle
 10
256.57
 20
230.93
 30
0.0
 40
0.5
100
AcDbArc
 50
180.0
 51
278.53
  0
LINE
  5
2FE
330
2
100
AcDbEntity
  8
画層1
 62
     0
100
AcDbLine
 10
256.0
 20
232.05
 30
0.0
 11
256.0
 21
229.75
 31
0.0
  0
ARC
  5
2FF
330
2
100
AcDbEntity
  8
画層1
 62
     0
100
AcDbCircle
 10
244.66
 20
233.6
 30
0.0
 40
11.44118729799424
100
AcDbArc
 50
340.87
 51
355.74
  0
ARC
  5
300
330
2
100
AcDbEntity
  8
画層1
 62
     0
100
AcDbCircle
 10
251.03
 20
233.35
 30
0.0
 40
7.540000001812724
100
AcDbArc
 50
344.01
 51
356.2
  0
LINE
  5
301
330
2
100
AcDbEntity
  8
画層1
 62
     0
100
AcDbLine
 10
253.5
 20
236.85
 30
0.0
 11
255.47
 21
236.85
 31
0.0
  0
LINE
  5
302
330
2
100
AcDbEntity
  8
画層1
 62
     0
100
AcDbLine
 10
253.5
 20
240.2
 30
0.0
 11
257.6
 21
240.2
 31
0.0
  0
ARC
  5
303
330
2
100
AcDbEntity
  8
画層1
 62
     0
100
AcDbCircle
 10
253.7
 20
236.75
 30
0.0
 40
0.2
100
AcDbArc
 50
90.0
 51
180.0
  0
LINE
  5
304
330
2
100
AcDbEntity
  8
画層1
 62
     0
100
AcDbLine
 10
256.65
 20
236.26
 30
0.0
 11
257.47
 21
236.14
 31
0.0
  0
ARC
  5
305
330
2
100
AcDbEntity
  8
画層1
 62
     0
100
AcDbCircle
 10
256.57
 20
235.77
 30
0.0
 40
0.5
100
AcDbArc
 50
81.47
 51
180.0
  0
LINE
  5
306
330
2
100
AcDbEntity
  8
画層1
 62
     0
100
AcDbLine
 10
257.6
 20
240.2
 30
0.0
 11
257.6
 21
240.0
 31
0.0
  0
ARC
  5
307
330
2
100
AcDbEntity
  8
画層1
 62
     0
100
AcDbCircle
 10
261.7
 20
229.45
 30
0.0
 40
0.3
100
AcDbArc
 50
0.0
 51
90.0
  0
LINE
  5
308
330
2
100
AcDbEntity
  8
画層1
 62
     0
100
AcDbLine
 10
262.0
 20
221.15
 30
0.0
 11
262.0
 21
220.65
 31
0.0
  0
ARC
  5
309
330
2
100
AcDbEntity
  8
画層1
 62
     0
100
AcDbCircle
 10
261.7
 20
221.15
 30
0.0
 40
0.3
100
AcDbArc
 50
0.0
 51
90.0
  0
ARC
  5
30A
330
2
100
AcDbEntity
  8
画層1
 62
     0
100
AcDbCircle
 10
261.7
 20
220.65
 30
0.0
 40
0.3
100
AcDbArc
 50
270.0
 51
0.0
  0
LINE
  5
30B
330
2
100
AcDbEntity
  8
画層1
 62
     0
100
AcDbLine
 10
262.0
 20
229.45
 30
0.0
 11
262.0
 21
228.95
 31
0.0
  0
ARC
  5
30C
330
2
100
AcDbEntity
  8
画層1
 62
     0
100
AcDbCircle
 10
261.7
 20
228.95
 30
0.0
 40
0.3
100
AcDbArc
 50
270.0
 51
0.0
  0
LINE
  5
30D
330
2
100
AcDbEntity
  8
画層1
 62
     0
100
AcDbLine
 10
262.0
 20
239.3
 30
0.0
 11
262.0
 21
237.25
 31
0.0
  0
ARC
  5
30E
330
2
100
AcDbEntity
  8
画層1
 62
     0
100
AcDbCircle
 10
261.3
 20
239.3
 30
0.0
 40
0.7
100
AcDbArc
 50
0.0
 51
90.0
  0
ARC
  5
30F
330
2
100
AcDbEntity
  8
画層1
 62
     0
100
AcDbCircle
 10
261.7
 20
237.25
 30
0.0
 40
0.3
100
AcDbArc
 50
270.0
 51
0.0
  0
ENDSEC
  0
SECTION
  2
OBJECTS
  0
DICTIONARY
  5
7
330
0
100
AcDbDictionary
281
     1
  3
ACAD_GROUP
350
26
  3
ACAD_LAYOUT
350
B
  3
ACAD_MLINESTYLE
350
27
  3
ACAD_PLOTSETTINGS
350
28
  3
ACAD_PLOTSTYLENAME
350
6
  0
DICTIONARY
  5
26
102
{ACAD_REACTORS
330
7
102
}
330
7
100
AcDbDictionary
281
     1
  0
DICTIONARY
  5
B
102
{ACAD_REACTORS
330
7
102
}
330
7
100
AcDbDictionary
281
     1
  3
Model
350
A
  3
ﾚｲｱｳﾄ1
350
F
  0
DICTIONARY
  5
27
102
{ACAD_REACTORS
330
7
102
}
330
7
100
AcDbDictionary
281
     1
  3
STANDARD
350
2A
  0
DICTIONARY
  5
28
102
{ACAD_REACTORS
330
7
102
}
330
7
100
AcDbDictionary
281
     1
  0
ACDBDICTIONARYWDFLT
  5
6
102
{ACAD_REACTORS
330
7
102
}
330
7
100
AcDbDictionary
281
     1
  3
Normal
350
5
100
AcDbDictionaryWithDefault
340
5
  0
LAYOUT
  5
A
102
{ACAD_REACTORS
330
B
102
}
330
B
100
AcDbPlotSettings
  1

  2
Canon LBP-740
  4
A3
  6

 40
5.87
 41
6.04
 42
5.87
 43
5.87
 44
296.93
 45
420.12
 46
0.0
 47
0.0
 48
0.0
 49
0.0
140
0.0
141
0.0
142
1.0
143
1.0
 70
 11952
 72
     1
 73
     1
 74
     1
  7
ryu.ctb
 75
    16
147
1.0
148
0.01
149
0.0
100
AcDbLayout
  1
Model
 70
     1
 71
     0
 10
0.0
 20
0.0
 11
12.0
 21
9.0
 12
0.0
 22
0.0
 32
0.0
 14
0.0
 24
0.0
 34
0.0
 15
0.0
 25
0.0
 35
0.0
146
0.0
 13
0.0
 23
0.0
 33
0.0
 16
1.0
 26
0.0
 36
0.0
 17
0.0
 27
1.0
 37
0.0
 76
     0
330
2
  0
LAYOUT
  5
F
102
{ACAD_REACTORS
330
B
102
}
330
B
100
AcDbPlotSettings
  1

  2
Canon LASER SHOT LBP-740
  4

  6

 40
0.0
 41
0.0
 42
0.0
 43
0.0
 44
0.0
 45
0.0
 46
0.0
 47
0.0
 48
0.0
 49
0.0
140
0.0
141
0.0
142
1.0
143
1.0
 70
   688
 72
     0
 73
     0
 74
     5
  7
ryu.ctb
 75
    16
147
1.0
148
0.0
149
0.0
100
AcDbLayout
  1
ﾚｲｱｳﾄ1
 70
     1
 71
     1
 10
0.0
 20
0.0
 11
420.0
 21
297.0
 12
0.0
 22
0.0
 32
0.0
 14
1.00E+20
 24
1.00E+20
 34
1.00E+20
 15
-1.00E+20
 25
-1.00E+20
 35
-1.00E+20
146
0.0
 13
0.0
 23
0.0
 33
0.0
 16
1.0
 26
0.0
 36
0.0
 17
0.0
 27
1.0
 37
0.0
 76
     0
330
C
  0
MLINESTYLE
  5
2A
102
{ACAD_REACTORS
330
27
102
}
330
27
100
AcDbMlineStyle
  2
STANDARD
 70
     0
  3

 62
   256
 51
90.0
 52
90.0
 71
     2
 49
0.5
 62
   256
  6
BYLAYER
 49
-0.5
 62
   256
  6
BYLAYER
  0
ACDBPLACEHOLDER
  5
5
102
{ACAD_REACTORS
330
6
102
}
330
6
  0
ENDSEC
  0
EOF
