  0
SECTION
  2
HEADER
  9
$ACADVER
  1
AC1015
  9
$ACADMAINTVER
 70
     6
  9
$DWGCODEPAGE
  3
ANSI_932
  9
$INSBASE
 10
0.0
 20
0.0
 30
0.0
  9
$EXTMIN
 10
19.4
 20
0.7
 30
0.0
  9
$EXTMAX
 10
376.25
 20
249.06
 30
0.0
  9
$LIMMIN
 10
0.0
 20
0.0
  9
$LIMMAX
 10
420.0
 20
297.0
  9
$ORTHOMODE
 70
     0
  9
$REGENMODE
 70
     1
  9
$FILLMODE
 70
     1
  9
$QTEXTMODE
 70
     0
  9
$MIRRTEXT
 70
     1
  9
$LTSCALE
 40
0.2
  9
$ATTMODE
 70
     1
  9
$TEXTSIZE
 40
2.5
  9
$TRACEWID
 40
1.0
  9
$TEXTSTYLE
  7
STYLE1
  9
$CLAYER
  8
画層1
  9
$CELTYPE
  6
BYLAYER
  9
$CECOLOR
 62
     1
  9
$CELTSCALE
 40
1.0
  9
$DISPSILH
 70
     0
  9
$DIMSCALE
 40
1.0
  9
$DIMASZ
 40
1.5
  9
$DIMEXO
 40
0.63
  9
$DIMDLI
 40
3.75
  9
$DIMRND
 40
0.0
  9
$DIMDLE
 40
0.0
  9
$DIMEXE
 40
1.25
  9
$DIMTP
 40
0.7
  9
$DIMTM
 40
0.0
  9
$DIMTXT
 40
2.5
  9
$DIMCEN
 40
2.5
  9
$DIMTSZ
 40
0.0
  9
$DIMTOL
 70
     0
  9
$DIMLIM
 70
     0
  9
$DIMTIH
 70
     0
  9
$DIMTOH
 70
     0
  9
$DIMSE1
 70
     0
  9
$DIMSE2
 70
     0
  9
$DIMTAD
 70
     1
  9
$DIMZIN
 70
     8
  9
$DIMBLK
  1

  9
$DIMASO
 70
     1
  9
$DIMSHO
 70
     1
  9
$DIMPOST
  1

  9
$DIMAPOST
  1

  9
$DIMALT
 70
     0
  9
$DIMALTD
 70
     4
  9
$DIMALTF
 40
0.04
  9
$DIMLFAC
 40
1.0
  9
$DIMTOFL
 70
     1
  9
$DIMTVP
 40
0.0
  9
$DIMTIX
 70
     0
  9
$DIMSOXD
 70
     0
  9
$DIMSAH
 70
     1
  9
$DIMBLK1
  1
OPEN
  9
$DIMBLK2
  1
OPEN
  9
$DIMSTYLE
  2
STANDARD_WS
  9
$DIMCLRD
 70
     0
  9
$DIMCLRE
 70
     0
  9
$DIMCLRT
 70
     0
  9
$DIMTFAC
 40
0.5
  9
$DIMGAP
 40
0.63
  9
$DIMJUST
 70
     0
  9
$DIMSD1
 70
     0
  9
$DIMSD2
 70
     0
  9
$DIMTOLJ
 70
     1
  9
$DIMTZIN
 70
     8
  9
$DIMALTZ
 70
     0
  9
$DIMALTTZ
 70
     0
  9
$DIMUPT
 70
     0
  9
$DIMDEC
 70
     4
  9
$DIMTDEC
 70
     4
  9
$DIMALTU
 70
     8
  9
$DIMALTTD
 70
     4
  9
$DIMTXSTY
  7
STYLE1
  9
$DIMAUNIT
 70
     0
  9
$DIMADEC
 70
     0
  9
$DIMALTRND
 40
0.0
  9
$DIMAZIN
 70
     0
  9
$DIMDSEP
 70
    46
  9
$DIMATFIT
 70
     3
  9
$DIMFRAC
 70
     0
  9
$DIMLDRBLK
  1
OPEN
  9
$DIMLUNIT
 70
     2
  9
$DIMLWD
 70
    -2
  9
$DIMLWE
 70
    -2
  9
$DIMTMOVE
 70
     0
  9
$LUNITS
 70
     2
  9
$LUPREC
 70
     4
  9
$SKETCHINC
 40
1.0
  9
$FILLETRAD
 40
1.0
  9
$AUNITS
 70
     0
  9
$AUPREC
 70
     0
  9
$MENU
  1
acad
  9
$ELEVATION
 40
0.0
  9
$PELEVATION
 40
0.0
  9
$THICKNESS
 40
0.0
  9
$LIMCHECK
 70
     0
  9
$CHAMFERA
 40
10.0
  9
$CHAMFERB
 40
10.0
  9
$CHAMFERC
 40
20.0
  9
$CHAMFERD
 40
0.0
  9
$SKPOLY
 70
     0
  9
$TDCREATE
 40
2450995.462150231
  9
$TDUCREATE
 40
2450995.087150231
  9
$TDUPDATE
 40
2452265.491523958
  9
$TDUUPDATE
 40
2452265.116523958
  9
$TDINDWG
 40
1.9268452546
  9
$TDUSRTIMER
 40
1.9268452546
  9
$USRTIMER
 70
     1
  9
$ANGBASE
 50
0.0
  9
$ANGDIR
 70
     0
  9
$PDMODE
 70
     0
  9
$PDSIZE
 40
0.0
  9
$PLINEWID
 40
10.0
  9
$SPLFRAME
 70
     0
  9
$SPLINETYPE
 70
     6
  9
$SPLINESEGS
 70
     8
  9
$HANDSEED
  5
2A3
  9
$SURFTAB1
 70
     6
  9
$SURFTAB2
 70
     6
  9
$SURFTYPE
 70
     6
  9
$SURFU
 70
     6
  9
$SURFV
 70
     6
  9
$UCSBASE
  2

  9
$UCSNAME
  2

  9
$UCSORG
 10
0.0
 20
0.0
 30
0.0
  9
$UCSXDIR
 10
1.0
 20
0.0
 30
0.0
  9
$UCSYDIR
 10
0.0
 20
1.0
 30
0.0
  9
$UCSORTHOREF
  2

  9
$UCSORTHOVIEW
 70
     0
  9
$UCSORGTOP
 10
0.0
 20
0.0
 30
0.0
  9
$UCSORGBOTTOM
 10
0.0
 20
0.0
 30
0.0
  9
$UCSORGLEFT
 10
0.0
 20
0.0
 30
0.0
  9
$UCSORGRIGHT
 10
0.0
 20
0.0
 30
0.0
  9
$UCSORGFRONT
 10
0.0
 20
0.0
 30
0.0
  9
$UCSORGBACK
 10
0.0
 20
0.0
 30
0.0
  9
$PUCSBASE
  2

  9
$PUCSNAME
  2

  9
$PUCSORG
 10
0.0
 20
0.0
 30
0.0
  9
$PUCSXDIR
 10
1.0
 20
0.0
 30
0.0
  9
$PUCSYDIR
 10
0.0
 20
1.0
 30
0.0
  9
$PUCSORTHOREF
  2

  9
$PUCSORTHOVIEW
 70
     0
  9
$PUCSORGTOP
 10
0.0
 20
0.0
 30
0.0
  9
$PUCSORGBOTTOM
 10
0.0
 20
0.0
 30
0.0
  9
$PUCSORGLEFT
 10
0.0
 20
0.0
 30
0.0
  9
$PUCSORGRIGHT
 10
0.0
 20
0.0
 30
0.0
  9
$PUCSORGFRONT
 10
0.0
 20
0.0
 30
0.0
  9
$PUCSORGBACK
 10
0.0
 20
0.0
 30
0.0
  9
$USERI1
 70
     0
  9
$USERI2
 70
     0
  9
$USERI3
 70
     0
  9
$USERI4
 70
     0
  9
$USERI5
 70
     0
  9
$USERR1
 40
0.0
  9
$USERR2
 40
0.0
  9
$USERR3
 40
0.0
  9
$USERR4
 40
0.0
  9
$USERR5
 40
0.0
  9
$WORLDVIEW
 70
     1
  9
$SHADEDGE
 70
     3
  9
$SHADEDIF
 70
    70
  9
$TILEMODE
 70
     1
  9
$MAXACTVP
 70
    48
  9
$PINSBASE
 10
0.0
 20
0.0
 30
0.0
  9
$PLIMCHECK
 70
     0
  9
$PEXTMIN
 10
1.00E+20
 20
1.00E+20
 30
1.00E+20
  9
$PEXTMAX
 10
-1.00E+20
 20
-1.00E+20
 30
-1.00E+20
  9
$PLIMMIN
 10
0.0
 20
0.0
  9
$PLIMMAX
 10
420.0
 20
297.0
  9
$UNITMODE
 70
     0
  9
$VISRETAIN
 70
     1
  9
$PLINEGEN
 70
     0
  9
$PSLTSCALE
 70
     1
  9
$TREEDEPTH
 70
  3020
  9
$CMLSTYLE
  2
STANDARD
  9
$CMLJUST
 70
     0
  9
$CMLSCALE
 40
20.0
  9
$PROXYGRAPHICS
 70
     1
  9
$MEASUREMENT
 70
     1
  9
$CELWEIGHT
370
    -1
  9
$ENDCAPS
280
     0
  9
$JOINSTYLE
280
     0
  9
$LWDISPLAY
290
     0
  9
$INSUNITS
 70
     0
  9
$HYPERLINKBASE
  1

  9
$STYLESHEET
  1

  9
$XEDIT
290
     1
  9
$CEPSNTYPE
380
     0
  9
$PSTYLEMODE
290
     1
  9
$FINGERPRINTGUID
  2
{128F391A-9681-11D3-A790-004026173390}
  9
$VERSIONGUID
  2
{B8B3A478-F5EE-11D5-9CC8-0040267E1ECE}
  9
$EXTNAMES
290
     1
  9
$PSVPSCALE
 40
0.0
  9
$OLESTARTUP
290
     0
  0
ENDSEC
  0
SECTION
  2
CLASSES
  0
CLASS
  1
DICTIONARYVAR
  2
AcDbDictionaryVar
  3
AutoCAD 2000
 90
    32768
280
     0
281
     0
  0
CLASS
  1
LWPOLYLINE
  2
AcDbPolyline
  3
AutoCAD 2000
 90
    32768
280
     0
281
     1
  0
CLASS
  1
OLE2FRAME
  2
AcDbOle2Frame
  3
AutoCAD 2000
 90
    32768
280
     0
281
     1
  0
CLASS
  1
HATCH
  2
AcDbHatch
  3
AutoCAD 2000
 90
    32768
280
     0
281
     1
  0
CLASS
  1
ACDBDICTIONARYWDFLT
  2
AcDbDictionaryWithDefault
  3
AutoCAD 2000
 90
        0
280
     0
281
     0
  0
CLASS
  1
ACDBPLACEHOLDER
  2
AcDbPlaceHolder
  3
AutoCAD 2000
 90
        0
280
     0
281
     0
  0
CLASS
  1
LAYOUT
  2
AcDbLayout
  3
AutoCAD 2000
 90
        0
280
     0
281
     0
  0
ENDSEC
  0
SECTION
  2
TABLES
  0
TABLE
  2
VPORT
  5
1A
330
0
100
AcDbSymbolTable
 70
     1
  0
VPORT
  5
1B
330
1A
100
AcDbSymbolTableRecord
100
AcDbViewportTableRecord
  2
*Active
 70
     0
 10
0.0
 20
0.0
 11
1.0
 21
1.0
 12
233.19
 22
142.5
 13
0.0
 23
0.0
 14
1.0
 24
1.0
 15
2.0
 25
2.0
 16
0.0
 26
0.0
 36
1.0
 17
0.0
 27
0.0
 37
0.0
 40
286.8
 41
1.75
 42
50.0
 43
0.0
 44
0.0
 50
0.0
 51
0.0
 71
     0
 72
   100
 73
     1
 74
     1
 75
     0
 76
     0
 77
     0
 78
     0
281
     0
 65
     1
110
0.0
120
0.0
130
0.0
111
1.0
121
0.0
131
0.0
112
0.0
122
1.0
132
0.0
 79
     0
146
0.0
  0
ENDTAB
  0
TABLE
  2
LTYPE
  5
15
330
0
100
AcDbSymbolTable
 70
     1
  0
LTYPE
  5
16
330
15
100
AcDbSymbolTableRecord
100
AcDbLinetypeTableRecord
  2
BYBLOCK
 70
     0
  3

 72
    65
 73
     0
 40
0.0
  0
LTYPE
  5
17
330
15
100
AcDbSymbolTableRecord
100
AcDbLinetypeTableRecord
  2
BYLAYER
 70
     0
  3

 72
    65
 73
     0
 40
0.0
  0
LTYPE
  5
8
330
15
100
AcDbSymbolTableRecord
100
AcDbLinetypeTableRecord
  2
CONTINUOUS
 70
     0
  3
Solid line
 72
    65
 73
     0
 40
0.0
  0
ENDTAB
  0
TABLE
  2
LAYER
  5
10
330
0
100
AcDbSymbolTable
 70
     3
  0
LAYER
  5
4
330
10
100
AcDbSymbolTableRecord
100
AcDbLayerTableRecord
  2
0
 70
     0
 62
     7
  6
CONTINUOUS
370
    -3
390
5
  0
LAYER
  5
3B
330
10
100
AcDbSymbolTableRecord
100
AcDbLayerTableRecord
  2
DEFPOINTS
 70
     0
 62
     7
  6
CONTINUOUS
290
     0
370
    -3
390
5
  0
LAYER
  5
22
330
10
100
AcDbSymbolTableRecord
100
AcDbLayerTableRecord
  2
画層1
 70
     0
 62
     7
  6
CONTINUOUS
370
    -3
390
5
  0
ENDTAB
  0
TABLE
  2
STYLE
  5
11
330
0
100
AcDbSymbolTable
 70
     2
  0
STYLE
  5
12
330
11
100
AcDbSymbolTableRecord
100
AcDbTextStyleTableRecord
  2
STANDARD
 70
     0
 40
2.5
 41
1.0
 50
0.0
 71
     0
 42
1.5
  3
MS PMincho.ttf
  4

1001
ACAD
1000
MS PMincho
1071
    32786
  0
STYLE
  5
23
330
11
100
AcDbSymbolTableRecord
100
AcDbTextStyleTableRecord
  2
STYLE1
 70
     0
 40
2.5
 41
1.0
 50
0.0
 71
     0
 42
2.5
  3
MS Gothic.ttf
  4

1001
ACAD
1000
MS Gothic
1071
    32817
  0
ENDTAB
  0
TABLE
  2
VIEW
  5
18
330
0
100
AcDbSymbolTable
 70
     0
  0
ENDTAB
  0
TABLE
  2
UCS
  5
19
330
0
100
AcDbSymbolTable
 70
     0
  0
ENDTAB
  0
TABLE
  2
APPID
  5
1C
330
0
100
AcDbSymbolTable
 70
     1
  0
APPID
  5
13
330
1C
100
AcDbSymbolTableRecord
100
AcDbRegAppTableRecord
  2
ACAD
 70
     0
  0
ENDTAB
  0
TABLE
  2
DIMSTYLE
  5
1D
330
0
100
AcDbSymbolTable
 70
     1
100
AcDbDimStyleTable
 71
     0
  0
DIMSTYLE
105
2B
102
{ACAD_REACTORS
330
8D
330
103
330
1A2
330
5C
330
6E
330
40
330
2D
330
EF
102
}
330
1D
100
AcDbSymbolTableRecord
100
AcDbDimStyleTableRecord
  2
STANDARD_WS
 70
     0
 41
1.5
 42
0.63
 43
3.75
 44
1.25
 73
     0
 74
     0
 77
     1
 78
     8
140
2.5
141
2.5
143
0.04
147
0.63
171
     4
172
     1
173
     1
273
     8
274
     4
340
12
341
24
343
24
344
24
  0
ENDTAB
  0
TABLE
  2
BLOCK_RECORD
  5
1
330
0
100
AcDbSymbolTable
 70
    10
  0
BLOCK_RECORD
  5
2
330
1
100
AcDbSymbolTableRecord
100
AcDbBlockTableRecord
  2
*MODEL_SPACE
340
A
  0
BLOCK_RECORD
  5
C
330
1
100
AcDbSymbolTableRecord
100
AcDbBlockTableRecord
  2
*PAPER_SPACE
340
F
  0
BLOCK_RECORD
  5
24
330
1
100
AcDbSymbolTableRecord
100
AcDbBlockTableRecord
  2
_OPEN
340
0
  0
BLOCK_RECORD
  5
2E
330
1
100
AcDbSymbolTableRecord
100
AcDbBlockTableRecord
  2
_OPEN30
340
0
102
{BLKREFS
331
37
331
38
331
45
331
46
331
61
331
62
331
73
331
74
331
92
331
93
331
F4
331
F5
331
108
331
109
331
1A7
331
1A8
102
}
  0
BLOCK_RECORD
  5
8E
330
1
100
AcDbSymbolTableRecord
100
AcDbBlockTableRecord
  2
*D2
340
0
  0
BLOCK_RECORD
  5
104
330
1
100
AcDbSymbolTableRecord
100
AcDbBlockTableRecord
  2
*D3
340
0
  0
BLOCK_RECORD
  5
1A3
330
1
100
AcDbSymbolTableRecord
100
AcDbBlockTableRecord
  2
*D4
340
0
  0
BLOCK_RECORD
  5
5D
330
1
100
AcDbSymbolTableRecord
100
AcDbBlockTableRecord
  2
*D5
340
0
  0
BLOCK_RECORD
  5
6F
330
1
100
AcDbSymbolTableRecord
100
AcDbBlockTableRecord
  2
*D6
340
0
  0
BLOCK_RECORD
  5
41
330
1
100
AcDbSymbolTableRecord
100
AcDbBlockTableRecord
  2
*D7
340
0
  0
BLOCK_RECORD
  5
34
330
1
100
AcDbSymbolTableRecord
100
AcDbBlockTableRecord
  2
*D8
340
0
  0
BLOCK_RECORD
  5
F0
330
1
100
AcDbSymbolTableRecord
100
AcDbBlockTableRecord
  2
*D9
340
0
  0
ENDTAB
  0
ENDSEC
  0
SECTION
  2
BLOCKS
  0
BLOCK
  5
3
330
2
100
AcDbEntity
  8
0
100
AcDbBlockBegin
  2
*MODEL_SPACE
 70
     0
 10
0.0
 20
0.0
 30
0.0
  3
*MODEL_SPACE
  1

  0
ENDBLK
  5
9
330
2
100
AcDbEntity
  8
0
100
AcDbBlockEnd
  0
BLOCK
  5
D
330
C
100
AcDbEntity
 67
     1
  8
0
100
AcDbBlockBegin
  2
*PAPER_SPACE
 70
     0
 10
0.0
 20
0.0
 30
0.0
  3
*PAPER_SPACE
  1

  0
ENDBLK
  5
E
330
C
100
AcDbEntity
 67
     1
  8
0
100
AcDbBlockEnd
  0
BLOCK
  5
28
330
24
100
AcDbEntity
  8
0
100
AcDbBlockBegin
  2
_OPEN
 70
     0
 10
0.0
 20
0.0
 30
0.0
  3
_OPEN
  1

  0
LINE
  5
25
330
24
100
AcDbEntity
  8
0
  6
ByBlock
 62
     0
100
AcDbLine
 10
-1.0
 20
0.17
 30
0.0
 11
0.0
 21
0.0
 31
0.0
  0
LINE
  5
26
330
24
100
AcDbEntity
  8
0
  6
ByBlock
 62
     0
100
AcDbLine
 10
0.0
 20
0.0
 30
0.0
 11
-1.0
 21
-0.17
 31
0.0
  0
LINE
  5
27
330
24
100
AcDbEntity
  8
0
  6
ByBlock
 62
     0
100
AcDbLine
 10
0.0
 20
0.0
 30
0.0
 11
-1.0
 21
0.0
 31
0.0
  0
ENDBLK
  5
29
330
24
100
AcDbEntity
  8
0
100
AcDbBlockEnd
  0
BLOCK
  5
32
330
2E
100
AcDbEntity
  8
0
100
AcDbBlockBegin
  2
_OPEN30
 70
     0
 10
0.0
 20
0.0
 30
0.0
  3
_OPEN30
  1

  0
LINE
  5
2F
330
2E
100
AcDbEntity
  8
0
  6
ByBlock
 62
     0
100
AcDbLine
 10
-1.0
 20
0.27
 30
0.0
 11
0.0
 21
0.0
 31
0.0
  0
LINE
  5
30
330
2E
100
AcDbEntity
  8
0
  6
ByBlock
 62
     0
100
AcDbLine
 10
0.0
 20
0.0
 30
0.0
 11
-1.0
 21
-0.27
 31
0.0
  0
LINE
  5
31
330
2E
100
AcDbEntity
  8
0
  6
ByBlock
 62
     0
100
AcDbLine
 10
0.0
 20
0.0
 30
0.0
 11
-1.0
 21
0.0
 31
0.0
  0
ENDBLK
  5
33
330
2E
100
AcDbEntity
  8
0
100
AcDbBlockEnd
  0
BLOCK
  5
98
330
8E
100
AcDbEntity
  8
0
100
AcDbBlockBegin
  2
*D2
 70
     1
 10
0.0
 20
0.0
 30
0.0
  3
*D2
  1

  0
LINE
  5
8F
330
8E
100
AcDbEntity
  8
画層1
 62
     0
370
    -2
100
AcDbLine
 10
43.0
 20
231.63
 30
0.0
 11
43.0
 21
240.25
 31
0.0
  0
LINE
  5
90
330
8E
100
AcDbEntity
  8
画層1
 62
     0
370
    -2
100
AcDbLine
 10
115.0
 20
231.63
 30
0.0
 11
115.0
 21
240.25
 31
0.0
  0
LINE
  5
91
330
8E
100
AcDbEntity
  8
画層1
 62
     0
370
    -2
100
AcDbLine
 10
44.5
 20
239.0
 30
0.0
 11
113.5
 21
239.0
 31
0.0
  0
INSERT
  5
92
330
8E
100
AcDbEntity
  8
画層1
 62
     0
370
    -2
100
AcDbBlockReference
  2
_OPEN30
 10
43.0
 20
239.0
 30
0.0
 41
1.5
 42
1.5
 43
1.5
 50
180.0
  0
INSERT
  5
93
330
8E
100
AcDbEntity
  8
画層1
 62
     0
370
    -2
100
AcDbBlockReference
  2
_OPEN30
 10
115.0
 20
239.0
 30
0.0
 41
1.5
 42
1.5
 43
1.5
  0
MTEXT
  5
94
330
8E
100
AcDbEntity
  8
画層1
 62
     0
100
AcDbMText
 10
79.0
 20
240.88
 30
0.0
 40
2.5
 41
0.0
 71
     5
 72
     1
  1
\A1;72
  7
STYLE1
 73
     1
 44
1.0
  0
POINT
  5
95
330
8E
100
AcDbEntity
  8
DEFPOINTS
 62
     0
100
AcDbPoint
 10
43.0
 20
231.0
 30
0.0
  0
POINT
  5
96
330
8E
100
AcDbEntity
  8
DEFPOINTS
 62
     0
100
AcDbPoint
 10
115.0
 20
231.0
 30
0.0
  0
POINT
  5
97
330
8E
100
AcDbEntity
  8
DEFPOINTS
 62
     0
100
AcDbPoint
 10
115.0
 20
239.0
 30
0.0
  0
ENDBLK
  5
99
330
8E
100
AcDbEntity
  8
0
100
AcDbBlockEnd
  0
BLOCK
  5
10E
330
104
100
AcDbEntity
  8
0
100
AcDbBlockBegin
  2
*D3
 70
     1
 10
0.0
 20
0.0
 30
0.0
  3
*D3
  1

  0
LINE
  5
105
330
104
100
AcDbEntity
  8
画層1
 62
     0
370
    -2
100
AcDbLine
 10
114.63
 20
232.0
 30
0.0
 11
123.25
 21
232.0
 31
0.0
  0
LINE
  5
106
330
104
100
AcDbEntity
  8
画層1
 62
     0
370
    -2
100
AcDbLine
 10
114.63
 20
160.0
 30
0.0
 11
123.25
 21
160.0
 31
0.0
  0
LINE
  5
107
330
104
100
AcDbEntity
  8
画層1
 62
     0
370
    -2
100
AcDbLine
 10
122.0
 20
230.5
 30
0.0
 11
122.0
 21
161.5
 31
0.0
  0
INSERT
  5
108
330
104
100
AcDbEntity
  8
画層1
 62
     0
370
    -2
100
AcDbBlockReference
  2
_OPEN30
 10
122.0
 20
232.0
 30
0.0
 41
1.5
 42
1.5
 43
1.5
 50
90.0
  0
INSERT
  5
109
330
104
100
AcDbEntity
  8
画層1
 62
     0
370
    -2
100
AcDbBlockReference
  2
_OPEN30
 10
122.0
 20
160.0
 30
0.0
 41
1.5
 42
1.5
 43
1.5
 50
270.0
  0
MTEXT
  5
10A
330
104
100
AcDbEntity
  8
画層1
 62
     0
100
AcDbMText
 10
120.13
 20
196.0
 30
0.0
 40
2.5
 41
0.0
 71
     5
 72
     1
  1
\A1;72
  7
STYLE1
 11
0.0
 21
1.0
 31
0.0
 73
     1
 44
1.0
  0
POINT
  5
10B
330
104
100
AcDbEntity
  8
DEFPOINTS
 62
     0
100
AcDbPoint
 10
114.0
 20
232.0
 30
0.0
  0
POINT
  5
10C
330
104
100
AcDbEntity
  8
DEFPOINTS
 62
     0
100
AcDbPoint
 10
114.0
 20
160.0
 30
0.0
  0
POINT
  5
10D
330
104
100
AcDbEntity
  8
DEFPOINTS
 62
     0
100
AcDbPoint
 10
122.0
 20
160.0
 30
0.0
  0
ENDBLK
  5
10F
330
104
100
AcDbEntity
  8
0
100
AcDbBlockEnd
  0
BLOCK
  5
1AD
330
1A3
100
AcDbEntity
  8
0
100
AcDbBlockBegin
  2
*D4
 70
     1
 10
0.0
 20
0.0
 30
0.0
  3
*D4
  1

  0
LINE
  5
1A4
330
1A3
100
AcDbEntity
  8
画層1
 62
     0
370
    -2
100
AcDbLine
 10
258.59
 20
230.33
 30
0.0
 11
268.42
 21
230.33
 31
0.0
  0
LINE
  5
1A5
330
1A3
100
AcDbEntity
  8
画層1
 62
     0
370
    -2
100
AcDbLine
 10
258.59
 20
162.73
 30
0.0
 11
268.42
 21
162.73
 31
0.0
  0
LINE
  5
1A6
330
1A3
100
AcDbEntity
  8
画層1
 62
     0
370
    -2
100
AcDbLine
 10
267.17
 20
228.83
 30
0.0
 11
267.17
 21
164.23
 31
0.0
  0
INSERT
  5
1A7
330
1A3
100
AcDbEntity
  8
画層1
 62
     0
370
    -2
100
AcDbBlockReference
  2
_OPEN30
 10
267.17
 20
230.33
 30
0.0
 41
1.5
 42
1.5
 43
1.5
 50
90.0
  0
INSERT
  5
1A8
330
1A3
100
AcDbEntity
  8
画層1
 62
     0
370
    -2
100
AcDbBlockReference
  2
_OPEN30
 10
267.17
 20
162.73
 30
0.0
 41
1.5
 42
1.5
 43
1.5
 50
270.0
  0
MTEXT
  5
1A9
330
1A3
100
AcDbEntity
  8
画層1
 62
     0
100
AcDbMText
 10
265.29
 20
196.53
 30
0.0
 40
2.5
 41
0.0
 71
     5
 72
     1
  1
\A1;67.6
  7
STYLE1
 11
0.0
 21
1.0
 31
0.0
 73
     1
 44
1.0
  0
POINT
  5
1AA
330
1A3
100
AcDbEntity
  8
DEFPOINTS
 62
     0
100
AcDbPoint
 10
257.97
 20
230.33
 30
0.0
  0
POINT
  5
1AB
330
1A3
100
AcDbEntity
  8
DEFPOINTS
 62
     0
100
AcDbPoint
 10
257.97
 20
162.73
 30
0.0
  0
POINT
  5
1AC
330
1A3
100
AcDbEntity
  8
DEFPOINTS
 62
     0
100
AcDbPoint
 10
267.17
 20
162.73
 30
0.0
  0
ENDBLK
  5
1AE
330
1A3
100
AcDbEntity
  8
0
100
AcDbBlockEnd
  0
BLOCK
  5
67
330
5D
100
AcDbEntity
  8
0
 62
     1
100
AcDbBlockBegin
  2
*D5
 70
     1
 10
0.0
 20
0.0
 30
0.0
  3
*D5
  1

  0
LINE
  5
5E
330
5D
100
AcDbEntity
  8
画層1
 62
     0
370
    -2
100
AcDbLine
 10
45.58
 20
133.5
 30
0.0
 11
45.58
 21
143.13
 31
0.0
  0
LINE
  5
5F
330
5D
100
AcDbEntity
  8
画層1
 62
     0
370
    -2
100
AcDbLine
 10
113.58
 20
133.5
 30
0.0
 11
113.58
 21
143.13
 31
0.0
  0
LINE
  5
60
330
5D
100
AcDbEntity
  8
画層1
 62
     0
370
    -2
100
AcDbLine
 10
47.08
 20
141.88
 30
0.0
 11
112.08
 21
141.88
 31
0.0
  0
INSERT
  5
61
330
5D
100
AcDbEntity
  8
画層1
 62
     0
370
    -2
100
AcDbBlockReference
  2
_OPEN30
 10
45.58
 20
141.88
 30
0.0
 41
1.5
 42
1.5
 43
1.5
 50
180.0
  0
INSERT
  5
62
330
5D
100
AcDbEntity
  8
画層1
 62
     0
370
    -2
100
AcDbBlockReference
  2
_OPEN30
 10
113.58
 20
141.88
 30
0.0
 41
1.5
 42
1.5
 43
1.5
  0
MTEXT
  5
63
330
5D
100
AcDbEntity
  8
画層1
 62
     0
100
AcDbMText
 10
79.58
 20
143.95
 30
0.0
 40
2.5
 41
0.0
 71
     5
 72
     1
  1
\A1;68{\H1.250000;\S+0.7^  0;}
  7
STYLE1
 73
     1
 44
1.0
  0
POINT
  5
64
330
5D
100
AcDbEntity
  8
DEFPOINTS
 62
     0
100
AcDbPoint
 10
45.58
 20
132.88
 30
0.0
  0
POINT
  5
65
330
5D
100
AcDbEntity
  8
DEFPOINTS
 62
     0
100
AcDbPoint
 10
113.58
 20
132.88
 30
0.0
  0
POINT
  5
66
330
5D
100
AcDbEntity
  8
DEFPOINTS
 62
     0
100
AcDbPoint
 10
113.58
 20
141.88
 30
0.0
  0
ENDBLK
  5
68
330
5D
100
AcDbEntity
  8
0
 62
     1
100
AcDbBlockEnd
  0
BLOCK
  5
79
330
6F
100
AcDbEntity
  8
0
 62
     1
100
AcDbBlockBegin
  2
*D6
 70
     1
 10
0.0
 20
0.0
 30
0.0
  3
*D6
  1

  0
LINE
  5
70
330
6F
100
AcDbEntity
  8
画層1
 62
     0
370
    -2
100
AcDbLine
 10
114.2
 20
132.88
 30
0.0
 11
123.83
 21
132.88
 31
0.0
  0
LINE
  5
71
330
6F
100
AcDbEntity
  8
画層1
 62
     0
370
    -2
100
AcDbLine
 10
114.2
 20
64.88
 30
0.0
 11
123.83
 21
64.88
 31
0.0
  0
LINE
  5
72
330
6F
100
AcDbEntity
  8
画層1
 62
     0
370
    -2
100
AcDbLine
 10
122.58
 20
131.38
 30
0.0
 11
122.58
 21
66.38
 31
0.0
  0
INSERT
  5
73
330
6F
100
AcDbEntity
  8
画層1
 62
     0
370
    -2
100
AcDbBlockReference
  2
_OPEN30
 10
122.58
 20
132.88
 30
0.0
 41
1.5
 42
1.5
 43
1.5
 50
90.0
  0
INSERT
  5
74
330
6F
100
AcDbEntity
  8
画層1
 62
     0
370
    -2
100
AcDbBlockReference
  2
_OPEN30
 10
122.58
 20
64.88
 30
0.0
 41
1.5
 42
1.5
 43
1.5
 50
270.0
  0
MTEXT
  5
75
330
6F
100
AcDbEntity
  8
画層1
 62
     0
100
AcDbMText
 10
120.5
 20
98.88
 30
0.0
 40
2.5
 41
0.0
 71
     5
 72
     1
  1
\A1;68{\H1.250000;\S+0.7^  0;}
  7
STYLE1
 11
0.0
 21
1.0
 31
0.0
 73
     1
 44
1.0
  0
POINT
  5
76
330
6F
100
AcDbEntity
  8
DEFPOINTS
 62
     0
100
AcDbPoint
 10
113.58
 20
132.88
 30
0.0
  0
POINT
  5
77
330
6F
100
AcDbEntity
  8
DEFPOINTS
 62
     0
100
AcDbPoint
 10
113.58
 20
64.88
 30
0.0
  0
POINT
  5
78
330
6F
100
AcDbEntity
  8
DEFPOINTS
 62
     0
100
AcDbPoint
 10
122.58
 20
64.88
 30
0.0
  0
ENDBLK
  5
7A
330
6F
100
AcDbEntity
  8
0
 62
     1
100
AcDbBlockEnd
  0
BLOCK
  5
4B
330
41
100
AcDbEntity
  8
0
 62
     1
100
AcDbBlockBegin
  2
*D7
 70
     1
 10
0.0
 20
0.0
 30
0.0
  3
*D7
  1

  0
LINE
  5
42
330
41
100
AcDbEntity
  8
画層1
 62
     0
370
    -2
100
AcDbLine
 10
144.42
 20
239.27
 30
0.0
 11
144.42
 21
246.89
 31
0.0
  0
LINE
  5
43
330
41
100
AcDbEntity
  8
画層1
 62
     0
370
    -2
100
AcDbLine
 10
255.42
 20
239.27
 30
0.0
 11
255.42
 21
246.89
 31
0.0
  0
LINE
  5
44
330
41
100
AcDbEntity
  8
画層1
 62
     0
370
    -2
100
AcDbLine
 10
145.92
 20
245.64
 30
0.0
 11
253.92
 21
245.64
 31
0.0
  0
INSERT
  5
45
330
41
100
AcDbEntity
  8
画層1
 62
     0
370
    -2
100
AcDbBlockReference
  2
_OPEN30
 10
144.42
 20
245.64
 30
0.0
 41
1.5
 42
1.5
 43
1.5
 50
180.0
  0
INSERT
  5
46
330
41
100
AcDbEntity
  8
画層1
 62
     0
370
    -2
100
AcDbBlockReference
  2
_OPEN30
 10
255.42
 20
245.64
 30
0.0
 41
1.5
 42
1.5
 43
1.5
  0
MTEXT
  5
47
330
41
100
AcDbEntity
  8
画層1
 62
     0
100
AcDbMText
 10
199.92
 20
247.52
 30
0.0
 40
2.5
 41
0.0
 71
     5
 72
     1
  1
\A1;111
  7
STYLE1
 73
     1
 44
1.0
  0
POINT
  5
48
330
41
100
AcDbEntity
  8
DEFPOINTS
 62
     0
100
AcDbPoint
 10
144.42
 20
238.64
 30
0.0
  0
POINT
  5
49
330
41
100
AcDbEntity
  8
DEFPOINTS
 62
     0
100
AcDbPoint
 10
255.42
 20
238.64
 30
0.0
  0
POINT
  5
4A
330
41
100
AcDbEntity
  8
DEFPOINTS
 62
     0
100
AcDbPoint
 10
255.42
 20
245.64
 30
0.0
  0
ENDBLK
  5
4C
330
41
100
AcDbEntity
  8
0
 62
     1
100
AcDbBlockEnd
  0
BLOCK
  5
3E
330
34
100
AcDbEntity
  8
0
 62
     1
100
AcDbBlockBegin
  2
*D8
 70
     1
 10
0.0
 20
0.0
 30
0.0
  3
*D8
  1

  0
LINE
  5
35
330
34
100
AcDbEntity
  8
画層1
 62
     0
370
    -2
100
AcDbLine
 10
255.42
 20
228.19
 30
0.0
 11
255.42
 21
240.52
 31
0.0
  0
LINE
  5
36
330
34
100
AcDbEntity
  8
画層1
 62
     0
370
    -2
100
AcDbLine
 10
156.92
 20
239.27
 30
0.0
 11
253.92
 21
239.27
 31
0.0
  0
INSERT
  5
37
330
34
100
AcDbEntity
  8
画層1
 62
     0
370
    -2
100
AcDbBlockReference
  2
_OPEN30
 10
155.42
 20
239.27
 30
0.0
 41
1.5
 42
1.5
 43
1.5
 50
180.0
  0
INSERT
  5
38
330
34
100
AcDbEntity
  8
画層1
 62
     0
370
    -2
100
AcDbBlockReference
  2
_OPEN30
 10
255.42
 20
239.27
 30
0.0
 41
1.5
 42
1.5
 43
1.5
  0
MTEXT
  5
39
330
34
100
AcDbEntity
  8
画層1
 62
     0
100
AcDbMText
 10
205.42
 20
241.14
 30
0.0
 40
2.5
 41
0.0
 71
     5
 72
     1
  1
\A1;100
  7
STYLE1
 73
     1
 44
1.0
  0
POINT
  5
3A
330
34
100
AcDbEntity
  8
DEFPOINTS
 62
     0
100
AcDbPoint
 10
155.42
 20
232.27
 30
0.0
  0
POINT
  5
3C
330
34
100
AcDbEntity
  8
DEFPOINTS
 62
     0
100
AcDbPoint
 10
255.42
 20
227.57
 30
0.0
  0
POINT
  5
3D
330
34
100
AcDbEntity
  8
DEFPOINTS
 62
     0
100
AcDbPoint
 10
255.42
 20
239.27
 30
0.0
  0
ENDBLK
  5
3F
330
34
100
AcDbEntity
  8
0
 62
     1
100
AcDbBlockEnd
  0
BLOCK
  5
FA
330
F0
100
AcDbEntity
  8
0
 62
     1
100
AcDbBlockBegin
  2
*D9
 70
     1
 10
0.0
 20
0.0
 30
0.0
  3
*D9
  1

  0
LINE
  5
F1
330
F0
100
AcDbEntity
  8
画層1
 62
     0
370
    -2
100
AcDbLine
 10
144.42
 20
232.19
 30
0.0
 11
144.42
 21
240.52
 31
0.0
  0
LINE
  5
F2
330
F0
100
AcDbEntity
  8
画層1
 62
     0
370
    -2
100
AcDbLine
 10
155.42
 20
232.89
 30
0.0
 11
155.42
 21
240.52
 31
0.0
  0
LINE
  5
F3
330
F0
100
AcDbEntity
  8
画層1
 62
     0
370
    -2
100
AcDbLine
 10
145.92
 20
239.27
 30
0.0
 11
153.92
 21
239.27
 31
0.0
  0
INSERT
  5
F4
330
F0
100
AcDbEntity
  8
画層1
 62
     0
370
    -2
100
AcDbBlockReference
  2
_OPEN30
 10
144.42
 20
239.27
 30
0.0
 41
1.5
 42
1.5
 43
1.5
 50
180.0
  0
INSERT
  5
F5
330
F0
100
AcDbEntity
  8
画層1
 62
     0
370
    -2
100
AcDbBlockReference
  2
_OPEN30
 10
155.42
 20
239.27
 30
0.0
 41
1.5
 42
1.5
 43
1.5
  0
MTEXT
  5
F6
330
F0
100
AcDbEntity
  8
画層1
 62
     0
100
AcDbMText
 10
149.92
 20
241.14
 30
0.0
 40
2.5
 41
0.0
 71
     5
 72
     1
  1
\A1;11
  7
STYLE1
 73
     1
 44
1.0
  0
POINT
  5
F7
330
F0
100
AcDbEntity
  8
DEFPOINTS
 62
     0
100
AcDbPoint
 10
144.42
 20
231.57
 30
0.0
  0
POINT
  5
F8
330
F0
100
AcDbEntity
  8
DEFPOINTS
 62
     0
100
AcDbPoint
 10
155.42
 20
232.27
 30
0.0
  0
POINT
  5
F9
330
F0
100
AcDbEntity
  8
DEFPOINTS
 62
     0
100
AcDbPoint
 10
155.42
 20
239.27
 30
0.0
  0
ENDBLK
  5
FB
330
F0
100
AcDbEntity
  8
0
 62
     1
100
AcDbBlockEnd
  0
ENDSEC
  0
SECTION
  2
ENTITIES
  0
LINE
  5
2C
330
2
100
AcDbEntity
  8
画層1
 62
     0
100
AcDbLine
 10
137.78
 20
196.27
 30
0.0
 11
257.78
 21
196.27
 31
0.0
  0
DIMENSION
  5
2D
330
2
100
AcDbEntity
  8
画層1
 62
     0
100
AcDbDimension
  2
*D8
 10
255.42
 20
239.27
 30
0.0
 11
205.42
 21
241.14
 31
0.0
 71
     5
 42
100.0
  3
STANDARD_WS
100
AcDbAlignedDimension
 13
155.42
 23
232.27
 33
0.0
 14
255.42
 24
227.57
 34
0.0
100
AcDbRotatedDimension
1001
ACAD
1000
DSTYLE
1002
{
1070
   344
1005
2E
1070
   343
1005
2E
1070
    75
1070
     1
1070
   279
1070
     1
1070
   340
1005
23
1002
}
  0
DIMENSION
  5
40
330
2
100
AcDbEntity
  8
画層1
 62
     0
100
AcDbDimension
  2
*D7
 10
255.42
 20
245.64
 30
0.0
 11
199.92
 21
247.52
 31
0.0
 71
     5
 42
111.0
  3
STANDARD_WS
100
AcDbAlignedDimension
 13
144.42
 23
238.64
 33
0.0
 14
255.42
 24
238.64
 34
0.0
100
AcDbRotatedDimension
1001
ACAD
1000
DSTYLE
1002
{
1070
   344
1005
2E
1070
   343
1005
2E
1070
   340
1005
23
1002
}
  0
LINE
  5
4D
330
2
100
AcDbEntity
  8
画層1
 62
     0
100
AcDbLine
 10
244.42
 20
167.27
 30
0.0
 11
159.42
 21
167.27
 31
0.0
  0
LINE
  5
4E
330
2
100
AcDbEntity
  8
画層1
 62
     0
100
AcDbLine
 10
177.02
 20
230.07
 30
0.0
 11
246.92
 21
230.07
 31
0.0
  0
LINE
  5
4F
330
2
100
AcDbEntity
  8
画層1
 62
     0
100
AcDbLine
 10
255.42
 20
165.97
 30
0.0
 11
185.92
 21
165.97
 31
0.0
  0
LINE
  5
50
330
2
100
AcDbEntity
  8
画層1
 62
     0
100
AcDbLine
 10
177.02
 20
162.47
 30
0.0
 11
246.92
 21
162.47
 31
0.0
  0
LINE
  5
51
330
2
100
AcDbEntity
  8
画層1
 62
     0
100
AcDbLine
 10
255.42
 20
226.57
 30
0.0
 11
185.92
 21
226.57
 31
0.0
  0
LINE
  5
52
330
2
100
AcDbEntity
  8
画層1
 62
     0
100
AcDbLine
 10
244.42
 20
225.27
 30
0.0
 11
159.42
 21
225.27
 31
0.0
  0
LINE
  5
53
330
2
100
AcDbEntity
  8
画層1
 62
     0
100
AcDbLine
 10
182.92
 20
215.77
 30
0.0
 11
243.92
 21
215.77
 31
0.0
  0
LINE
  5
54
330
2
100
AcDbEntity
  8
画層1
 62
     0
100
AcDbLine
 10
243.92
 20
167.77
 30
0.0
 11
182.92
 21
167.77
 31
0.0
  0
MTEXT
  5
55
330
2
100
AcDbEntity
  8
画層1
 62
     0
100
AcDbMText
 10
203.06
 20
128.29
 30
0.0
 40
2.5
 41
77.7
 71
     5
 72
     5
  1
{\C7;SR92シリーズ外形寸法図}
  7
STYLE1
 73
     1
 44
1.0
  0
LWPOLYLINE
  5
56
330
2
100
AcDbEntity
  8
画層1
 62
     0
100
AcDbPolyline
 90
        4
 70
     1
 43
0.0
 10
208.92
 20
223.27
 10
230.92
 20
223.27
 10
230.92
 20
221.77
 10
208.92
 20
221.77
  0
LWPOLYLINE
  5
57
330
2
100
AcDbEntity
  8
画層1
 62
     0
100
AcDbPolyline
 90
        4
 70
     1
 43
0.0
 10
208.92
 20
220.27
 10
230.92
 20
220.27
 10
230.92
 20
218.77
 10
208.92
 20
218.77
  0
LWPOLYLINE
  5
58
330
2
100
AcDbEntity
  8
画層1
 62
     0
100
AcDbPolyline
 90
        4
 70
     1
 43
0.0
 10
208.92
 20
217.27
 10
230.92
 20
217.27
 10
230.92
 20
215.77
 10
208.92
 20
215.77
  0
LINE
  5
59
330
2
100
AcDbEntity
  8
画層1
 62
     0
100
AcDbLine
 10
45.58
 20
132.88
 30
0.0
 11
113.58
 21
132.88
 31
0.0
  0
LINE
  5
5A
330
2
100
AcDbEntity
  8
画層1
 62
     0
100
AcDbLine
 10
113.58
 20
64.88
 30
0.0
 11
45.58
 21
64.88
 31
0.0
  0
LINE
  5
5B
330
2
100
AcDbEntity
  8
画層1
 62
     0
100
AcDbLine
 10
41.58
 20
98.88
 30
0.0
 11
117.58
 21
98.88
 31
0.0
  0
DIMENSION
  5
5C
330
2
100
AcDbEntity
  8
画層1
 62
     0
100
AcDbDimension
  2
*D5
 10
113.58
 20
141.88
 30
0.0
 11
79.58
 21
143.95
 31
0.0
 71
     5
 42
68.0
  3
STANDARD_WS
100
AcDbAlignedDimension
 13
45.58
 23
132.88
 33
0.0
 14
113.58
 24
132.88
 34
0.0
100
AcDbRotatedDimension
1001
ACAD
1000
DSTYLE
1002
{
1070
   344
1005
2E
1070
   343
1005
2E
1070
   284
1070
     8
1070
   340
1005
23
1070
    47
1040
0.7
1070
    71
1070
     1
1070
   146
1040
0.5
1002
}
  0
MTEXT
  5
69
330
2
100
AcDbEntity
  8
画層1
 62
     0
100
AcDbMText
 10
70.58
 20
59.88
 30
0.0
 40
2.5
 41
20.0
 71
     1
 72
     5
  1
取付穴寸法
  7
STYLE1
 73
     1
 44
1.0
  0
LINE
  5
6A
330
2
100
AcDbEntity
  8
画層1
 62
     0
100
AcDbLine
 10
70.58
 20
55.88
 30
0.0
 11
88.58
 21
55.88
 31
0.0
  0
LINE
  5
6B
330
2
100
AcDbEntity
  8
画層1
 62
     0
100
AcDbLine
 10
45.58
 20
64.88
 30
0.0
 11
45.58
 21
132.88
 31
0.0
  0
LINE
  5
6C
330
2
100
AcDbEntity
  8
画層1
 62
     0
100
AcDbLine
 10
113.58
 20
132.88
 30
0.0
 11
113.58
 21
64.88
 31
0.0
  0
LINE
  5
6D
330
2
100
AcDbEntity
  8
画層1
 62
     0
100
AcDbLine
 10
79.58
 20
136.88
 30
0.0
 11
79.58
 21
60.88
 31
0.0
  0
DIMENSION
  5
6E
330
2
100
AcDbEntity
  8
画層1
 62
     0
100
AcDbDimension
  2
*D6
 10
122.58
 20
64.88
 30
0.0
 11
120.5
 21
98.88
 31
0.0
 71
     5
 42
68.0
  3
STANDARD_WS
100
AcDbAlignedDimension
 13
113.58
 23
132.88
 33
0.0
 14
113.58
 24
64.88
 34
0.0
 50
90.0
100
AcDbRotatedDimension
1001
ACAD
1000
DSTYLE
1002
{
1070
   344
1005
2E
1070
   343
1005
2E
1070
   284
1070
     8
1070
   340
1005
23
1070
    47
1040
0.7
1070
    71
1070
     1
1070
   146
1040
0.5
1002
}
  0
ELLIPSE
  5
7B
330
2
100
AcDbEntity
  8
画層1
 62
     0
100
AcDbEllipse
 10
56.5
 20
183.0
 30
0.0
 11
-6.5
 21
0.0
 31
0.0
210
0.0
220
0.0
230
1.0
 40
0.62
 41
0.0
 42
6.283185307179586
  0
ELLIPSE
  5
7C
330
2
100
AcDbEntity
  8
画層1
 62
     0
100
AcDbEllipse
 10
71.5
 20
183.0
 30
0.0
 11
-6.5
 21
0.0
 31
0.0
210
0.0
220
0.0
230
1.0
 40
0.62
 41
0.0
 42
6.283185307179586
  0
ELLIPSE
  5
7D
330
2
100
AcDbEntity
  8
画層1
 62
     0
100
AcDbEllipse
 10
86.5
 20
183.0
 30
0.0
 11
-6.5
 21
0.0
 31
0.0
210
0.0
220
0.0
230
1.0
 40
0.62
 41
0.0
 42
6.283185307179586
  0
ELLIPSE
  5
7E
330
2
100
AcDbEntity
  8
画層1
 62
     0
100
AcDbEllipse
 10
101.5
 20
183.0
 30
0.0
 11
-6.5
 21
0.0
 31
0.0
210
0.0
220
0.0
230
1.0
 40
0.62
 41
0.0
 42
6.283185307179586
  0
LINE
  5
7F
330
2
100
AcDbEntity
  8
画層1
 62
     0
100
AcDbLine
 10
61.5
 20
222.2
 30
0.0
 11
99.5
 21
222.2
 31
0.0
  0
LINE
  5
80
330
2
100
AcDbEntity
  8
画層1
 62
     0
100
AcDbLine
 10
69.5
 20
204.1
 30
0.0
 11
98.5
 21
204.1
 31
0.0
  0
LINE
  5
81
330
2
100
AcDbEntity
  8
画層1
 62
     0
100
AcDbLine
 10
98.5
 20
193.9
 30
0.0
 11
69.5
 21
193.9
 31
0.0
  0
LINE
  5
82
330
2
100
AcDbEntity
  8
画層1
 62
     0
100
AcDbLine
 10
99.5
 20
209.8
 30
0.0
 11
61.5
 21
209.8
 31
0.0
  0
LINE
  5
83
330
2
100
AcDbEntity
  8
画層1
 62
     0
100
AcDbLine
 10
45.1
 20
188.5
 30
0.0
 11
112.9
 21
188.5
 31
0.0
  0
LINE
  5
84
330
2
100
AcDbEntity
  8
画層1
 62
     0
100
AcDbLine
 10
45.1
 20
166.5
 30
0.0
 11
112.9
 21
166.5
 31
0.0
  0
LINE
  5
85
330
2
100
AcDbEntity
  8
画層1
 62
     0
100
AcDbLine
 10
45.6
 20
229.9
 30
0.0
 11
112.4
 21
229.9
 31
0.0
  0
LINE
  5
86
330
2
100
AcDbEntity
  8
画層1
 62
     0
100
AcDbLine
 10
112.4
 20
162.1
 30
0.0
 11
45.6
 21
162.1
 31
0.0
  0
LINE
  5
87
330
2
100
AcDbEntity
  8
画層1
 62
     0
100
AcDbLine
 10
112.5
 20
161.9
 30
0.0
 11
45.5
 21
161.9
 31
0.0
  0
LINE
  5
88
330
2
100
AcDbEntity
  8
画層1
 62
     0
100
AcDbLine
 10
45.5
 20
230.1
 30
0.0
 11
112.5
 21
230.1
 31
0.0
  0
LINE
  5
89
330
2
100
AcDbEntity
  8
画層1
 62
     0
100
AcDbLine
 10
113.9
 20
160.1
 30
0.0
 11
44.1
 21
160.1
 31
0.0
  0
LINE
  5
8A
330
2
100
AcDbEntity
  8
画層1
 62
     0
100
AcDbLine
 10
44.1
 20
231.9
 30
0.0
 11
113.9
 21
231.9
 31
0.0
  0
LINE
  5
8B
330
2
100
AcDbEntity
  8
画層1
 62
     0
100
AcDbLine
 10
44.1
 20
160.0
 30
0.0
 11
113.9
 21
160.0
 31
0.0
  0
LINE
  5
8C
330
2
100
AcDbEntity
  8
画層1
 62
     0
100
AcDbLine
 10
113.9
 20
232.0
 30
0.0
 11
44.1
 21
232.0
 31
0.0
  0
DIMENSION
  5
8D
330
2
100
AcDbEntity
  8
画層1
 62
     0
100
AcDbDimension
  2
*D2
 10
115.0
 20
239.0
 30
0.0
 11
79.0
 21
240.88
 31
0.0
 71
     5
 42
72.0
  3
STANDARD_WS
100
AcDbAlignedDimension
 13
43.0
 23
231.0
 33
0.0
 14
115.0
 24
231.0
 34
0.0
100
AcDbRotatedDimension
1001
ACAD
1000
DSTYLE
1002
{
1070
   344
1005
2E
1070
   343
1005
2E
1070
   284
1070
     8
1070
   340
1005
23
1070
    47
1040
0.6
1070
   146
1040
0.5
1002
}
  0
LINE
  5
9A
330
2
100
AcDbEntity
  8
画層1
 62
     0
100
AcDbLine
 10
41.0
 20
196.0
 30
0.0
 11
117.0
 21
196.0
 31
0.0
  0
LINE
  5
9B
330
2
100
AcDbEntity
  8
画層1
 62
     0
100
AcDbLine
 10
68.5
 20
194.9
 30
0.0
 11
68.5
 21
203.1
 31
0.0
  0
LINE
  5
9C
330
2
100
AcDbEntity
  8
画層1
 62
     0
100
AcDbLine
 10
45.1
 20
162.6
 30
0.0
 11
45.1
 21
229.4
 31
0.0
  0
LINE
  5
9D
330
2
100
AcDbEntity
  8
画層1
 62
     0
100
AcDbLine
 10
44.9
 20
162.5
 30
0.0
 11
44.9
 21
229.5
 31
0.0
  0
LINE
  5
9E
330
2
100
AcDbEntity
  8
画層1
 62
     0
100
AcDbLine
 10
43.1
 20
161.1
 30
0.0
 11
43.1
 21
230.9
 31
0.0
  0
LINE
  5
9F
330
2
100
AcDbEntity
  8
画層1
 62
     0
100
AcDbLine
 10
43.0
 20
230.9
 30
0.0
 11
43.0
 21
161.1
 31
0.0
  0
LINE
  5
A0
330
2
100
AcDbEntity
  8
画層1
 62
     0
100
AcDbLine
 10
45.2
 20
157.9
 30
0.0
 11
48.7
 21
157.9
 31
0.0
  0
LINE
  5
A1
330
2
100
AcDbEntity
  8
画層1
 62
     0
100
AcDbLine
 10
45.2
 20
158.25
 30
0.0
 11
48.7
 21
158.25
 31
0.0
  0
LINE
  5
A2
330
2
100
AcDbEntity
  8
画層1
 62
     0
100
AcDbLine
 10
45.2
 20
158.6
 30
0.0
 11
48.7
 21
158.6
 31
0.0
  0
LINE
  5
A3
330
2
100
AcDbEntity
  8
画層1
 62
     0
100
AcDbLine
 10
45.2
 20
158.95
 30
0.0
 11
48.7
 21
158.95
 31
0.0
  0
LINE
  5
A4
330
2
100
AcDbEntity
  8
画層1
 62
     0
100
AcDbLine
 10
45.2
 20
159.3
 30
0.0
 11
48.7
 21
159.3
 31
0.0
  0
LINE
  5
A5
330
2
100
AcDbEntity
  8
画層1
 62
     0
100
AcDbLine
 10
45.2
 20
159.65
 30
0.0
 11
48.7
 21
159.65
 31
0.0
  0
LINE
  5
A6
330
2
100
AcDbEntity
  8
画層1
 62
     0
100
AcDbLine
 10
45.2
 20
157.55
 30
0.0
 11
48.7
 21
157.55
 31
0.0
  0
ARC
  5
A7
330
2
100
AcDbEntity
  8
画層1
 62
     0
100
AcDbCircle
 10
44.1
 20
161.1
 30
0.0
 40
1.0
100
AcDbArc
 50
180.0
 51
270.0
  0
ARC
  5
A8
330
2
100
AcDbEntity
  8
画層1
 62
     0
100
AcDbCircle
 10
44.1
 20
161.1
 30
0.0
 40
1.1
100
AcDbArc
 50
180.0
 51
270.0
  0
LINE
  5
A9
330
2
100
AcDbEntity
  8
画層1
 62
     0
100
AcDbLine
 10
45.2
 20
160.0
 30
0.0
 11
45.2
 21
157.55
 31
0.0
  0
ARC
  5
AA
330
2
100
AcDbEntity
  8
画層1
 62
     0
100
AcDbCircle
 10
45.6
 20
162.6
 30
0.0
 40
0.5
100
AcDbArc
 50
180.0
 51
270.0
  0
ARC
  5
AB
330
2
100
AcDbEntity
  8
画層1
 62
     0
100
AcDbCircle
 10
45.5
 20
162.5
 30
0.0
 40
0.6
100
AcDbArc
 50
180.0
 51
270.0
  0
LINE
  5
AC
330
2
100
AcDbEntity
  8
画層1
 62
     0
100
AcDbLine
 10
49.0
 20
160.1
 30
0.0
 11
49.0
 21
160.0
 31
0.0
  0
LINE
  5
AD
330
2
100
AcDbEntity
  8
画層1
 62
     0
100
AcDbLine
 10
48.7
 20
157.55
 30
0.0
 11
48.7
 21
160.0
 31
0.0
  0
LINE
  5
AE
330
2
100
AcDbEntity
  8
画層1
 62
     0
100
AcDbLine
 10
51.0
 20
160.1
 30
0.0
 11
51.0
 21
160.0
 31
0.0
  0
LINE
  5
AF
330
2
100
AcDbEntity
  8
画層1
 62
     0
100
AcDbLine
 10
61.0
 20
160.1
 30
0.0
 11
61.0
 21
160.0
 31
0.0
  0
MTEXT
  5
B0
330
2
100
AcDbEntity
  8
画層1
 62
     0
100
AcDbMText
 10
48.01
 20
165.24
 30
0.0
 40
2.0
 41
11.19
 71
     1
 72
     5
  1
{\fＭＳ Ｐゴシック|b0|i0|c128|p50;ＳＲ９２}
  7
STYLE1
 73
     1
 44
1.0
  0
LINE
  5
B1
330
2
100
AcDbEntity
  8
画層1
 62
     0
100
AcDbLine
 10
63.0
 20
160.1
 30
0.0
 11
63.0
 21
160.0
 31
0.0
  0
HATCH
  5
B2
330
2
100
AcDbEntity
  8
画層1
 62
     0
100
AcDbHatch
 10
0.0
 20
0.0
 30
0.0
210
0.0
220
0.0
230
1.0
  2
SOLID
 70
     1
 71
     0
 91
        1
 92
        5
 93
        5
 72
     3
 10
56.3241764927314
 20
183.0647262107929
 11
-4.074074074074074
 21
0.0
 40
0.5400000000000006
 50
102.617091557461
 51
437.3829084425389
 73
     1
 72
     1
 10
55.83528760384251
 20
180.8806236490985
 11
55.83528760384251
 21
181.5324569249436
 72
     3
 10
56.3241764927314
 20
183.0647262107929
 11
-3.422222222222224
 21
0.0
 40
0.4523809523809535
 50
-72.30409342292334
 51
209.8520372589859
 73
     0
 72
     1
 10
58.44269501124992
 20
181.8488827176654
 11
57.79084315939806
 21
182.8202817663484
 72
     1
 10
57.79084315939806
 20
182.8202817663484
 11
56.81306538162028
 21
180.8806236490985
 97
        0
 75
     0
 76
     1
 47
0.05
 98
        1
 10
56.93741728370216
 20
184.9150703362458
  0
LINE
  5
B3
330
2
100
AcDbEntity
  8
画層1
 62
     0
100
AcDbLine
 10
52.5
 20
192.1
 30
0.0
 11
55.5
 21
192.1
 31
0.0
  0
LINE
  5
B4
330
2
100
AcDbEntity
  8
画層1
 62
     0
100
AcDbLine
 10
55.5
 20
190.9
 30
0.0
 11
52.5
 21
190.9
 31
0.0
  0
MTEXT
  5
B5
330
2
100
AcDbEntity
  8
画層1
 62
     0
100
AcDbMText
 10
50.88
 20
194.75
 30
0.0
 40
1.6
 41
3.67
 71
     1
 72
     5
  1
SB/COM
  7
STYLE1
 73
     1
 44
1.0
  0
LINE
  5
B6
330
2
100
AcDbEntity
  8
画層1
 62
     0
100
AcDbLine
 10
52.5
 20
190.9
 30
0.0
 11
52.5
 21
192.1
 31
0.0
  0
LINE
  5
B7
330
2
100
AcDbEntity
  8
画層1
 62
     0
100
AcDbLine
 10
55.5
 20
192.1
 30
0.0
 11
55.5
 21
190.9
 31
0.0
  0
HATCH
  5
B8
330
2
100
AcDbEntity
  8
画層1
 62
     0
100
AcDbHatch
 10
0.0
 20
0.0
 30
0.0
210
0.0
220
0.0
230
1.0
  2
SOLID
 70
     1
 71
     0
 91
        1
 92
        7
 72
     1
 73
     1
 93
        6
 10
73.28405333261852
 20
184.2608520272083
 42
0.5575365158350519
 10
73.14810039958658
 20
184.4808284937243
 42
0.0
 10
69.83998273216653
 20
184.4808284937243
 42
0.5575365158350514
 10
69.70402979913453
 20
184.2608520272083
 42
0.0
 10
71.35808863284458
 20
180.9527343597883
 42
0.6180339887498948
 10
71.62999449890853
 20
180.9527343597883
 42
0.0
 97
        0
 75
     0
 76
     1
 47
0.07
 98
        1
 10
71.76793318171096
 20
183.4409767577181
  0
ARC
  5
B9
330
2
100
AcDbEntity
  8
画層1
 62
     0
100
AcDbCircle
 10
69.5
 20
194.9
 30
0.0
 40
1.0
100
AcDbArc
 50
180.0
 51
270.0
  0
LINE
  5
BA
330
2
100
AcDbEntity
  8
画層1
 62
     0
100
AcDbLine
 10
45.2
 20
232.35
 30
0.0
 11
48.7
 21
232.35
 31
0.0
  0
LINE
  5
BB
330
2
100
AcDbEntity
  8
画層1
 62
     0
100
AcDbLine
 10
45.2
 20
232.7
 30
0.0
 11
48.7
 21
232.7
 31
0.0
  0
LINE
  5
BC
330
2
100
AcDbEntity
  8
画層1
 62
     0
100
AcDbLine
 10
45.2
 20
233.05
 30
0.0
 11
48.7
 21
233.05
 31
0.0
  0
LINE
  5
BD
330
2
100
AcDbEntity
  8
画層1
 62
     0
100
AcDbLine
 10
45.2
 20
233.4
 30
0.0
 11
48.7
 21
233.4
 31
0.0
  0
LINE
  5
BE
330
2
100
AcDbEntity
  8
画層1
 62
     0
100
AcDbLine
 10
45.2
 20
233.75
 30
0.0
 11
48.7
 21
233.75
 31
0.0
  0
LINE
  5
BF
330
2
100
AcDbEntity
  8
画層1
 62
     0
100
AcDbLine
 10
45.2
 20
234.1
 30
0.0
 11
48.7
 21
234.1
 31
0.0
  0
LINE
  5
C0
330
2
100
AcDbEntity
  8
画層1
 62
     0
100
AcDbLine
 10
45.2
 20
234.45
 30
0.0
 11
48.7
 21
234.45
 31
0.0
  0
ARC
  5
C1
330
2
100
AcDbEntity
  8
画層1
 62
     0
100
AcDbCircle
 10
45.6
 20
229.4
 30
0.0
 40
0.5
100
AcDbArc
 50
90.0
 51
180.0
  0
ARC
  5
C2
330
2
100
AcDbEntity
  8
画層1
 62
     0
100
AcDbCircle
 10
45.5
 20
229.5
 30
0.0
 40
0.6
100
AcDbArc
 50
90.0
 51
180.0
  0
ARC
  5
C3
330
2
100
AcDbEntity
  8
画層1
 62
     0
100
AcDbCircle
 10
44.1
 20
230.9
 30
0.0
 40
1.0
100
AcDbArc
 50
90.0
 51
180.0
  0
ARC
  5
C4
330
2
100
AcDbEntity
  8
画層1
 62
     0
100
AcDbCircle
 10
44.1
 20
230.9
 30
0.0
 40
1.1
100
AcDbArc
 50
90.0
 51
180.0
  0
LINE
  5
C5
330
2
100
AcDbEntity
  8
画層1
 62
     0
100
AcDbLine
 10
45.2
 20
232.0
 30
0.0
 11
45.2
 21
234.45
 31
0.0
  0
LINE
  5
C6
330
2
100
AcDbEntity
  8
画層1
 62
     0
100
AcDbLine
 10
60.5
 20
210.8
 30
0.0
 11
60.5
 21
221.2
 31
0.0
  0
MTEXT
  5
C7
330
2
100
AcDbEntity
  8
画層1
 62
     0
100
AcDbMText
 10
52.26
 20
219.69
 30
0.0
 40
1.6
 41
4.95
 71
     1
 72
     5
  1
OUT2
  7
STYLE1
 73
     1
 44
1.0
  0
LINE
  5
C8
330
2
100
AcDbEntity
  8
画層1
 62
     0
100
AcDbLine
 10
55.5
 20
207.1
 30
0.0
 11
55.5
 21
205.9
 31
0.0
  0
LINE
  5
C9
330
2
100
AcDbEntity
  8
画層1
 62
     0
100
AcDbLine
 10
52.5
 20
205.9
 30
0.0
 11
52.5
 21
207.1
 31
0.0
  0
LINE
  5
CA
330
2
100
AcDbEntity
  8
画層1
 62
     0
100
AcDbLine
 10
55.5
 20
205.9
 30
0.0
 11
52.5
 21
205.9
 31
0.0
  0
LINE
  5
CB
330
2
100
AcDbEntity
  8
画層1
 62
     0
100
AcDbLine
 10
55.5
 20
200.9
 30
0.0
 11
52.5
 21
200.9
 31
0.0
  0
LINE
  5
CC
330
2
100
AcDbEntity
  8
画層1
 62
     0
100
AcDbLine
 10
52.5
 20
202.1
 30
0.0
 11
55.5
 21
202.1
 31
0.0
  0
MTEXT
  5
CD
330
2
100
AcDbEntity
  8
画層1
 62
     0
100
AcDbMText
 10
52.49
 20
199.66
 30
0.0
 40
1.6
 41
4.67
 71
     1
 72
     5
  1
MAN
  7
STYLE1
 73
     1
 44
1.0
  0
LINE
  5
CE
330
2
100
AcDbEntity
  8
画層1
 62
     0
100
AcDbLine
 10
55.5
 20
195.9
 30
0.0
 11
52.5
 21
195.9
 31
0.0
  0
LINE
  5
CF
330
2
100
AcDbEntity
  8
画層1
 62
     0
100
AcDbLine
 10
52.5
 20
197.1
 30
0.0
 11
55.5
 21
197.1
 31
0.0
  0
MTEXT
  5
D0
330
2
100
AcDbEntity
  8
画層1
 62
     0
100
AcDbMText
 10
52.99
 20
204.68
 30
0.0
 40
1.6
 41
3.09
 71
     1
 72
     5
  1
AT
  7
STYLE1
 73
     1
 44
1.0
  0
LINE
  5
D1
330
2
100
AcDbEntity
  8
画層1
 62
     0
100
AcDbLine
 10
52.5
 20
195.9
 30
0.0
 11
52.5
 21
197.1
 31
0.0
  0
LINE
  5
D2
330
2
100
AcDbEntity
  8
画層1
 62
     0
100
AcDbLine
 10
52.5
 20
200.9
 30
0.0
 11
52.5
 21
202.1
 31
0.0
  0
LINE
  5
D3
330
2
100
AcDbEntity
  8
画層1
 62
     0
100
AcDbLine
 10
55.5
 20
197.1
 30
0.0
 11
55.5
 21
195.9
 31
0.0
  0
LINE
  5
D4
330
2
100
AcDbEntity
  8
画層1
 62
     0
100
AcDbLine
 10
55.5
 20
202.1
 30
0.0
 11
55.5
 21
200.9
 31
0.0
  0
LINE
  5
D5
330
2
100
AcDbEntity
  8
画層1
 62
     0
100
AcDbLine
 10
52.5
 20
217.1
 30
0.0
 11
55.5
 21
217.1
 31
0.0
  0
LINE
  5
D6
330
2
100
AcDbEntity
  8
画層1
 62
     0
100
AcDbLine
 10
55.5
 20
215.9
 30
0.0
 11
52.5
 21
215.9
 31
0.0
  0
LINE
  5
D7
330
2
100
AcDbEntity
  8
画層1
 62
     0
100
AcDbLine
 10
52.5
 20
212.1
 30
0.0
 11
55.5
 21
212.1
 31
0.0
  0
LINE
  5
D8
330
2
100
AcDbEntity
  8
画層1
 62
     0
100
AcDbLine
 10
55.5
 20
210.9
 30
0.0
 11
52.5
 21
210.9
 31
0.0
  0
LINE
  5
D9
330
2
100
AcDbEntity
  8
画層1
 62
     0
100
AcDbLine
 10
52.5
 20
207.1
 30
0.0
 11
55.5
 21
207.1
 31
0.0
  0
MTEXT
  5
DA
330
2
100
AcDbEntity
  8
画層1
 62
     0
100
AcDbMText
 10
52.52
 20
209.66
 30
0.0
 40
1.6
 41
3.82
 71
     1
 72
     5
  1
EV2
  7
STYLE1
 73
     1
 44
1.0
  0
MTEXT
  5
DB
330
2
100
AcDbEntity
  8
画層1
 62
     0
100
AcDbMText
 10
52.76
 20
214.67
 30
0.0
 40
1.6
 41
3.71
 71
     1
 72
     5
  1
EV1
  7
STYLE1
 73
     1
 44
1.0
  0
LINE
  5
DC
330
2
100
AcDbEntity
  8
画層1
 62
     0
100
AcDbLine
 10
52.5
 20
210.9
 30
0.0
 11
52.5
 21
212.1
 31
0.0
  0
LINE
  5
DD
330
2
100
AcDbEntity
  8
画層1
 62
     0
100
AcDbLine
 10
52.5
 20
215.9
 30
0.0
 11
52.5
 21
217.1
 31
0.0
  0
LINE
  5
DE
330
2
100
AcDbEntity
  8
画層1
 62
     0
100
AcDbLine
 10
55.5
 20
212.1
 30
0.0
 11
55.5
 21
210.9
 31
0.0
  0
ARC
  5
DF
330
2
100
AcDbEntity
  8
画層1
 62
     0
100
AcDbCircle
 10
61.5
 20
210.8
 30
0.0
 40
1.0
100
AcDbArc
 50
180.0
 51
270.0
  0
LINE
  5
E0
330
2
100
AcDbEntity
  8
画層1
 62
     0
100
AcDbLine
 10
55.5
 20
217.1
 30
0.0
 11
55.5
 21
215.9
 31
0.0
  0
MTEXT
  5
E1
330
2
100
AcDbEntity
  8
画層1
 62
     0
100
AcDbMText
 10
70.8
 20
207.56
 30
0.0
 40
2.5
 41
11.45
 71
     1
 72
     5
  1
\fＭＳ Ｐゴシック|b0|i0|c128|p50;ＳＶ
  7
STYLE1
 73
     1
 44
1.0
  0
ARC
  5
E2
330
2
100
AcDbEntity
  8
画層1
 62
     0
100
AcDbCircle
 10
69.5
 20
203.1
 30
0.0
 40
1.0
100
AcDbArc
 50
90.0
 51
180.0
  0
LINE
  5
E3
330
2
100
AcDbEntity
  8
画層1
 62
     0
100
AcDbLine
 10
55.5
 20
220.9
 30
0.0
 11
52.5
 21
220.9
 31
0.0
  0
LINE
  5
E4
330
2
100
AcDbEntity
  8
画層1
 62
     0
100
AcDbLine
 10
52.5
 20
222.1
 30
0.0
 11
55.5
 21
222.1
 31
0.0
  0
MTEXT
  5
E5
330
2
100
AcDbEntity
  8
画層1
 62
     0
100
AcDbMText
 10
52.26
 20
224.69
 30
0.0
 40
1.6
 41
4.95
 71
     1
 72
     5
  1
OUT1
  7
STYLE1
 73
     1
 44
1.0
  0
LINE
  5
E6
330
2
100
AcDbEntity
  8
画層1
 62
     0
100
AcDbLine
 10
52.5
 20
220.9
 30
0.0
 11
52.5
 21
222.1
 31
0.0
  0
LINE
  5
E7
330
2
100
AcDbEntity
  8
画層1
 62
     0
100
AcDbLine
 10
55.5
 20
222.1
 30
0.0
 11
55.5
 21
220.9
 31
0.0
  0
ARC
  5
E8
330
2
100
AcDbEntity
  8
画層1
 62
     0
100
AcDbCircle
 10
61.5
 20
221.2
 30
0.0
 40
1.0
100
AcDbArc
 50
90.0
 51
180.0
  0
LINE
  5
E9
330
2
100
AcDbEntity
  8
画層1
 62
     0
100
AcDbLine
 10
49.0
 20
232.0
 30
0.0
 11
49.0
 21
231.9
 31
0.0
  0
LINE
  5
EA
330
2
100
AcDbEntity
  8
画層1
 62
     0
100
AcDbLine
 10
48.7
 20
234.45
 30
0.0
 11
48.7
 21
232.0
 31
0.0
  0
LINE
  5
EB
330
2
100
AcDbEntity
  8
画層1
 62
     0
100
AcDbLine
 10
51.0
 20
232.0
 30
0.0
 11
51.0
 21
231.9
 31
0.0
  0
LINE
  5
EC
330
2
100
AcDbEntity
  8
画層1
 62
     0
100
AcDbLine
 10
61.0
 20
232.0
 30
0.0
 11
61.0
 21
231.9
 31
0.0
  0
MTEXT
  5
ED
330
2
100
AcDbEntity
  8
画層1
 62
     0
100
AcDbMText
 10
62.7
 20
225.66
 30
0.0
 40
2.5
 41
6.05
 71
     1
 72
     5
  1
\fＭＳ Ｐゴシック|b0|i0|c128|p50;ＰＶ
  7
STYLE1
 73
     1
 44
1.0
  0
LINE
  5
EE
330
2
100
AcDbEntity
  8
画層1
 62
     0
100
AcDbLine
 10
63.0
 20
232.0
 30
0.0
 11
63.0
 21
231.9
 31
0.0
  0
DIMENSION
  5
EF
330
2
100
AcDbEntity
  8
画層1
 62
     0
100
AcDbDimension
  2
*D9
 10
155.42
 20
239.27
 30
0.0
 11
149.92
 21
241.14
 31
0.0
 71
     5
 42
11.0
  3
STANDARD_WS
100
AcDbAlignedDimension
 13
144.42
 23
231.57
 33
0.0
 14
155.42
 24
232.27
 34
0.0
100
AcDbRotatedDimension
1001
ACAD
1000
DSTYLE
1002
{
1070
   344
1005
2E
1070
   343
1005
2E
1070
   340
1005
23
1002
}
  0
ARC
  5
FC
330
2
100
AcDbEntity
  8
画層1
 62
     0
100
AcDbCircle
 10
145.62
 20
230.97
 30
0.0
 40
1.199999999999999
100
AcDbArc
 50
90.0
 51
180.0
  0
ARC
  5
FD
330
2
100
AcDbEntity
  8
画層1
 62
     0
100
AcDbCircle
 10
145.62
 20
161.57
 30
0.0
 40
1.199999999999999
100
AcDbArc
 50
180.0
 51
270.0
  0
LINE
  5
FE
330
2
100
AcDbEntity
  8
画層1
 62
     0
100
AcDbLine
 10
99.5
 20
203.1
 30
0.0
 11
99.5
 21
194.9
 31
0.0
  0
LINE
  5
FF
330
2
100
AcDbEntity
  8
画層1
 62
     0
100
AcDbLine
 10
112.9
 20
229.4
 30
0.0
 11
112.9
 21
162.6
 31
0.0
  0
LINE
  5
100
330
2
100
AcDbEntity
  8
画層1
 62
     0
100
AcDbLine
 10
113.1
 20
229.5
 30
0.0
 11
113.1
 21
162.5
 31
0.0
  0
LINE
  5
101
330
2
100
AcDbEntity
  8
画層1
 62
     0
100
AcDbLine
 10
114.9
 20
230.9
 30
0.0
 11
114.9
 21
161.1
 31
0.0
  0
LINE
  5
102
330
2
100
AcDbEntity
  8
画層1
 62
     0
100
AcDbLine
 10
115.0
 20
230.9
 30
0.0
 11
115.0
 21
161.1
 31
0.0
  0
DIMENSION
  5
103
330
2
100
AcDbEntity
  8
画層1
 62
     0
100
AcDbDimension
  2
*D3
 10
122.0
 20
160.0
 30
0.0
 11
120.13
 21
196.0
 31
0.0
 71
     5
 42
72.0
  3
STANDARD_WS
100
AcDbAlignedDimension
 13
114.0
 23
232.0
 33
0.0
 14
114.0
 24
160.0
 34
0.0
 50
90.0
100
AcDbRotatedDimension
1001
ACAD
1000
DSTYLE
1002
{
1070
   344
1005
2E
1070
   343
1005
2E
1070
   284
1070
     8
1070
   340
1005
23
1070
    47
1040
0.6
1070
   146
1040
0.5
1002
}
  0
LINE
  5
110
330
2
100
AcDbEntity
  8
画層1
 62
     0
100
AcDbLine
 10
79.0
 20
234.0
 30
0.0
 11
79.0
 21
158.0
 31
0.0
  0
LINE
  5
111
330
2
100
AcDbEntity
  8
画層1
 62
     0
100
AcDbLine
 10
109.3
 20
157.9
 30
0.0
 11
112.8
 21
157.9
 31
0.0
  0
LINE
  5
112
330
2
100
AcDbEntity
  8
画層1
 62
     0
100
AcDbLine
 10
109.3
 20
158.25
 30
0.0
 11
112.8
 21
158.25
 31
0.0
  0
LINE
  5
113
330
2
100
AcDbEntity
  8
画層1
 62
     0
100
AcDbLine
 10
109.3
 20
158.6
 30
0.0
 11
112.8
 21
158.6
 31
0.0
  0
LINE
  5
114
330
2
100
AcDbEntity
  8
画層1
 62
     0
100
AcDbLine
 10
109.3
 20
158.95
 30
0.0
 11
112.8
 21
158.95
 31
0.0
  0
LINE
  5
115
330
2
100
AcDbEntity
  8
画層1
 62
     0
100
AcDbLine
 10
109.3
 20
159.3
 30
0.0
 11
112.8
 21
159.3
 31
0.0
  0
LINE
  5
116
330
2
100
AcDbEntity
  8
画層1
 62
     0
100
AcDbLine
 10
109.3
 20
159.65
 30
0.0
 11
112.8
 21
159.65
 31
0.0
  0
LINE
  5
117
330
2
100
AcDbEntity
  8
画層1
 62
     0
100
AcDbLine
 10
112.8
 20
157.55
 30
0.0
 11
109.3
 21
157.55
 31
0.0
  0
HATCH
  5
118
330
2
100
AcDbEntity
  8
画層1
 62
     0
100
AcDbHatch
 10
0.0
 20
0.0
 30
0.0
210
0.0
220
0.0
230
1.0
  2
SOLID
 70
     1
 71
     0
 91
       10
 92
        5
 93
       10
 72
     3
 10
89.87719376276443
 20
163.8362593494962
 11
-0.982456140350877
 21
0.0
 40
0.6607142857142858
 50
90.0
 51
270.0
 73
     1
 72
     2
 10
89.87719376276443
 20
164.5906453144085
 40
0.1052631578947376
 50
89.99999999999628
 51
269.9999999999956
 73
     0
 72
     2
 10
89.94025179701386
 20
163.3419253630583
 40
1.355450691026426
 50
267.3335335883714
 51
296.4437824908839
 73
     0
 72
     1
 10
90.54386042943107
 20
164.5555575951103
 11
90.68421130662406
 21
164.8713470687945
 72
     2
 10
89.82566648118064
 20
163.2268255007918
 40
1.855141613171803
 50
62.43257811529775
 51
90.5759553231079
 73
     1
 72
     3
 10
89.80701832416793
 20
164.4327505775664
 11
0.9558248242604051
 21
0.0
 40
0.679123193436433
 50
90.0
 51
270.0
 73
     1
 72
     2
 10
89.80701832416793
 20
163.6783646126542
 40
0.1052631578947376
 50
270.0000000000024
 51
450.0000000000031
 73
     0
 72
     2
 10
89.71734460577678
 20
165.4054346171897
 40
1.834526149694269
 50
87.1982008190587
 51
115.4216641289816
 73
     0
 72
     1
 10
88.9298253417118
 20
163.7485400512506
 11
88.75438674522056
 21
163.4327505775664
 72
     2
 10
89.80171810949329
 20
165.5313280423118
 40
2.345406225396102
 50
243.4777171338575
 51
271.8441083094922
 73
     1
 97
        0
 92
        7
 72
     0
 73
     1
 93
       12
 10
93.45614113118546
 20
165.0467856652857
 10
92.54386042943108
 20
165.0467856652857
 10
92.54386042943108
 20
164.380118998619
 10
91.98245692065915
 20
164.380118998619
 10
91.98245692065915
 20
165.0467856652857
 10
91.07017621890477
 20
165.0467856652857
 10
91.07017621890477
 20
163.2222242617769
 10
91.98245692065915
 20
163.2222242617769
 10
91.98245692065915
 20
163.8888909284436
 10
92.54386042943108
 20
163.8888909284436
 10
92.54386042943108
 20
163.2222242617769
 10
93.45614113118546
 20
163.2222242617769
 97
        0
 92
        7
 72
     0
 73
     1
 93
        4
 10
94.64912358732581
 20
165.0467856652857
 10
93.73684288557143
 20
165.0467856652857
 10
93.73684288557143
 20
163.2222242617769
 10
94.64912358732581
 20
163.2222242617769
 97
        0
 92
        7
 72
     0
 73
     1
 93
       13
 10
97.73684288557143
 20
165.0467856652857
 10
96.89473762241355
 20
165.0467856652857
 10
96.50877271013284
 20
164.2748558407243
 10
96.19298323644864
 20
165.0467856652857
 10
95.21052709609776
 20
165.0467856652857
 10
94.89473762241354
 20
163.2222242617769
 10
95.77193060486967
 20
163.2222242617769
 10
95.87719376276442
 20
163.8187154898471
 10
96.19298323644864
 20
163.2222242617769
 10
96.75438674522055
 20
163.2222242617769
 10
97.03508849960654
 20
163.8187154898471
 10
97.17543937679952
 20
163.2222242617769
 10
98.05263235925565
 20
163.2222242617769
 97
        0
 92
        7
 72
     0
 73
     1
 93
        8
 10
100.1929832364486
 20
165.0467856652857
 10
99.14035165750128
 20
165.0467856652857
 10
98.29824639434335
 20
163.2222242617769
 10
99.21052709609776
 20
163.2222242617769
 10
99.36257387972347
 20
163.5731014547594
 10
100.0175446399574
 20
163.5731014547594
 10
100.1929832364486
 20
163.2222242617769
 10
101.0350884996065
 20
163.2222242617769
 97
        0
 92
       22
 72
     0
 73
     1
 93
        3
 10
99.49941598498666
 20
163.8888909284436
 10
99.66666744697494
 20
164.2748558407243
 10
99.85964990311529
 20
163.8888909284436
 97
        0
 92
        7
 72
     1
 73
     1
 93
        4
 10
102.8947376224135
 20
165.0467856652857
 42
0.0
 10
101.2807025346942
 20
165.0467856652857
 42
0.0
 10
101.2807025346942
 20
163.2222242617769
 42
0.0
 10
102.8947376224135
 20
163.2222242617769
 42
1.0
 97
        0
 92
       22
 72
     1
 73
     1
 93
        4
 10
102.1929832364486
 20
164.5906453144085
 42
0.0
 10
102.4035095522381
 20
164.5906453144085
 42
-1.0
 10
102.4035095522381
 20
163.6783646126542
 42
0.0
 10
102.1929832364486
 20
163.6783646126542
 42
0.0
 97
        0
 92
        7
 72
     0
 73
     1
 93
       12
 10
104.96491306101
 20
163.8888909284436
 10
105.7719306048696
 20
163.8888909284436
 10
105.7719306048696
 20
164.380118998619
 10
104.96491306101
 20
164.380118998619
 10
104.96491306101
 20
164.660820753005
 10
105.9122814820626
 20
164.660820753005
 10
105.9122814820626
 20
165.0467856652857
 10
104.0175446399574
 20
165.0467856652857
 10
104.0175446399574
 20
163.2222242617769
 10
105.9122814820626
 20
163.2222242617769
 10
105.9122814820626
 20
163.6081891740576
 10
104.96491306101
 20
163.6081891740576
 97
        0
 92
        7
 72
     0
 73
     1
 93
       10
 10
107.0701762189047
 20
164.0643295249348
 10
107.9122814820626
 20
163.2222242617769
 10
108.8947376224135
 20
163.2222242617769
 10
108.8947376224135
 20
165.0467856652857
 10
107.9824569206591
 20
165.0467856652857
 10
107.9824569206591
 20
164.2748558407243
 10
107.2105270960977
 20
165.0467856652857
 10
106.1578955171504
 20
165.0467856652857
 10
106.1578955171504
 20
163.2222242617769
 10
107.0701762189047
 20
163.2222242617769
 97
        0
 75
     0
 76
     1
 47
0.31
 98
       10
 10
90.07934478839478
 20
163.9116389209472
 10
91.37726684611312
 20
164.0612605326144
 10
94.42239178022068
 20
164.0113866413506
 10
95.4707134599546
 20
163.8617650296833
 10
98.8652788771407
 20
163.8118911384194
 10
98.8652788771407
 20
163.8118911384194
 10
101.7107234858109
 20
163.76201730928
 10
101.7107234858109
 20
163.76201730928
 10
104.3065676012475
 20
163.8118911384194
 10
106.6028912861527
 20
163.8118911384194
  0
LINE
  5
119
330
2
100
AcDbEntity
  8
画層1
 62
     0
100
AcDbLine
 10
95.0
 20
160.1
 30
0.0
 11
95.0
 21
160.0
 31
0.0
  0
LINE
  5
11A
330
2
100
AcDbEntity
  8
画層1
 62
     0
100
AcDbLine
 10
97.0
 20
160.1
 30
0.0
 11
97.0
 21
160.0
 31
0.0
  0
LINE
  5
11B
330
2
100
AcDbEntity
  8
画層1
 62
     0
100
AcDbLine
 10
107.0
 20
160.1
 30
0.0
 11
107.0
 21
160.0
 31
0.0
  0
LINE
  5
11C
330
2
100
AcDbEntity
  8
画層1
 62
     0
100
AcDbLine
 10
109.3
 20
157.55
 30
0.0
 11
109.3
 21
160.0
 31
0.0
  0
LINE
  5
11D
330
2
100
AcDbEntity
  8
画層1
 62
     0
100
AcDbLine
 10
109.0
 20
160.1
 30
0.0
 11
109.0
 21
160.0
 31
0.0
  0
HATCH
  5
11E
330
2
100
AcDbEntity
  8
画層1
 62
     0
100
AcDbHatch
 10
0.0
 20
0.0
 30
0.0
210
0.0
220
0.0
230
1.0
  2
SOLID
 70
     1
 71
     0
 91
        1
 92
        7
 72
     1
 73
     1
 93
        6
 10
88.26753378138963
 20
181.5059043660344
 42
-0.5575365158350519
 10
88.13158084835762
 20
181.2859278995184
 42
0.0
 10
84.82346318093759
 20
181.2859278995184
 42
-0.5575365158350514
 10
84.68751024790558
 20
181.5059043660344
 42
0.0
 10
86.34156908161562
 20
184.8140220334545
 42
-0.6180339887498948
 10
86.61347494767964
 20
184.8140220334545
 42
0.0
 97
        0
 75
     0
 76
     1
 47
0.07
 98
        1
 10
86.75141363048201
 20
182.3257796355246
  0
MTEXT
  5
11F
330
2
100
AcDbEntity
  8
画層1
 62
     0
100
AcDbMText
 10
98.53
 20
184.5
 30
0.0
 40
3.2
 41
6.49
 71
     1
 72
     5
  1
ENT
  7
STYLE1
 73
     1
 44
1.0
  0
ARC
  5
120
330
2
100
AcDbEntity
  8
画層1
 62
     0
100
AcDbCircle
 10
98.5
 20
194.9
 30
0.0
 40
1.0
100
AcDbArc
 50
270.0
 51
0.0
  0
ARC
  5
121
330
2
100
AcDbEntity
  8
画層1
 62
     0
100
AcDbCircle
 10
113.9
 20
161.1
 30
0.0
 40
1.0
100
AcDbArc
 50
270.0
 51
0.0
  0
ARC
  5
122
330
2
100
AcDbEntity
  8
画層1
 62
     0
100
AcDbCircle
 10
113.9
 20
161.1
 30
0.0
 40
1.1
100
AcDbArc
 50
270.0
 51
0.0
  0
LINE
  5
123
330
2
100
AcDbEntity
  8
画層1
 62
     0
100
AcDbLine
 10
112.8
 20
160.0
 30
0.0
 11
112.8
 21
157.55
 31
0.0
  0
ARC
  5
124
330
2
100
AcDbEntity
  8
画層1
 62
     0
100
AcDbCircle
 10
112.4
 20
162.6
 30
0.0
 40
0.5
100
AcDbArc
 50
270.0
 51
0.0
  0
ARC
  5
125
330
2
100
AcDbEntity
  8
画層1
 62
     0
100
AcDbCircle
 10
112.5
 20
162.5
 30
0.0
 40
0.6
100
AcDbArc
 50
270.0
 51
0.0
  0
LINE
  5
126
330
2
100
AcDbEntity
  8
画層1
 62
     0
100
AcDbLine
 10
109.3
 20
232.35
 30
0.0
 11
112.8
 21
232.35
 31
0.0
  0
LINE
  5
127
330
2
100
AcDbEntity
  8
画層1
 62
     0
100
AcDbLine
 10
109.3
 20
232.7
 30
0.0
 11
112.8
 21
232.7
 31
0.0
  0
LINE
  5
128
330
2
100
AcDbEntity
  8
画層1
 62
     0
100
AcDbLine
 10
109.3
 20
233.05
 30
0.0
 11
112.8
 21
233.05
 31
0.0
  0
LINE
  5
129
330
2
100
AcDbEntity
  8
画層1
 62
     0
100
AcDbLine
 10
109.3
 20
233.4
 30
0.0
 11
112.8
 21
233.4
 31
0.0
  0
LINE
  5
12A
330
2
100
AcDbEntity
  8
画層1
 62
     0
100
AcDbLine
 10
109.3
 20
233.75
 30
0.0
 11
112.8
 21
233.75
 31
0.0
  0
LINE
  5
12B
330
2
100
AcDbEntity
  8
画層1
 62
     0
100
AcDbLine
 10
109.3
 20
234.1
 30
0.0
 11
112.8
 21
234.1
 31
0.0
  0
LINE
  5
12C
330
2
100
AcDbEntity
  8
画層1
 62
     0
100
AcDbLine
 10
112.8
 20
234.45
 30
0.0
 11
109.3
 21
234.45
 31
0.0
  0
LINE
  5
12D
330
2
100
AcDbEntity
  8
画層1
 62
     0
100
AcDbLine
 10
100.5
 20
221.2
 30
0.0
 11
100.5
 21
210.8
 31
0.0
  0
HATCH
  5
12E
330
2
100
AcDbEntity
  8
画層1
 62
     0
100
AcDbHatch
 10
0.0
 20
0.0
 30
0.0
210
0.0
220
0.0
230
1.0
  2
SOLID
 70
     1
 71
     0
 91
        3
 92
        7
 72
     1
 73
     1
 93
        2
 10
104.2162929589053
 20
208.5911796336077
 42
1.0
 10
102.6454945453624
 20
208.5911796336077
 42
1.0
 97
        0
 92
       22
 72
     1
 73
     1
 93
        2
 10
103.0182259561045
 20
208.5911796336077
 42
-1.0
 10
103.8435615481632
 20
208.5911796336077
 42
-1.0
 97
        0
 92
        7
 72
     1
 73
     1
 93
        4
 10
107.654660517984
 20
208.4244188096736
 42
0.0
 10
107.654660517984
 20
209.2269524321226
 42
1.533941497875937
 10
107.654660517984
 20
204.5741970056496
 42
0.0
 10
107.654660517984
 20
205.3767306280985
 42
-1.878800399703972
 97
        0
 75
     0
 76
     1
 47
0.01
 98
        3
 10
103.5241630031955
 20
208.0720172436051
 10
103.5241630031955
 20
208.0720172436051
 10
104.363586262752
 20
206.6742729600632
  0
ARC
  5
12F
330
2
100
AcDbEntity
  8
画層1
 62
     0
100
AcDbCircle
 10
98.5
 20
203.1
 30
0.0
 40
1.0
100
AcDbArc
 50
0.0
 51
90.0
  0
ARC
  5
130
330
2
100
AcDbEntity
  8
画層1
 62
     0
100
AcDbCircle
 10
99.5
 20
210.8
 30
0.0
 40
1.0
100
AcDbArc
 50
270.0
 51
0.0
  0
LINE
  5
131
330
2
100
AcDbEntity
  8
画層1
 62
     0
100
AcDbLine
 10
95.0
 20
232.0
 30
0.0
 11
95.0
 21
231.9
 31
0.0
  0
ARC
  5
132
330
2
100
AcDbEntity
  8
画層1
 62
     0
100
AcDbCircle
 10
99.5
 20
221.2
 30
0.0
 40
1.0
100
AcDbArc
 50
0.0
 51
90.0
  0
LINE
  5
133
330
2
100
AcDbEntity
  8
画層1
 62
     0
100
AcDbLine
 10
97.0
 20
232.0
 30
0.0
 11
97.0
 21
231.9
 31
0.0
  0
LINE
  5
134
330
2
100
AcDbEntity
  8
画層1
 62
     0
100
AcDbLine
 10
107.0
 20
232.0
 30
0.0
 11
107.0
 21
231.9
 31
0.0
  0
LINE
  5
135
330
2
100
AcDbEntity
  8
画層1
 62
     0
100
AcDbLine
 10
109.3
 20
234.45
 30
0.0
 11
109.3
 21
232.0
 31
0.0
  0
LINE
  5
136
330
2
100
AcDbEntity
  8
画層1
 62
     0
100
AcDbLine
 10
109.0
 20
232.0
 30
0.0
 11
109.0
 21
231.9
 31
0.0
  0
ARC
  5
137
330
2
100
AcDbEntity
  8
画層1
 62
     0
100
AcDbCircle
 10
112.4
 20
229.4
 30
0.0
 40
0.5
100
AcDbArc
 50
0.0
 51
90.0
  0
ARC
  5
138
330
2
100
AcDbEntity
  8
画層1
 62
     0
100
AcDbCircle
 10
112.5
 20
229.5
 30
0.0
 40
0.6
100
AcDbArc
 50
0.0
 51
90.0
  0
ARC
  5
139
330
2
100
AcDbEntity
  8
画層1
 62
     0
100
AcDbCircle
 10
113.9
 20
230.9
 30
0.0
 40
1.0
100
AcDbArc
 50
0.0
 51
90.0
  0
ARC
  5
13A
330
2
100
AcDbEntity
  8
画層1
 62
     0
100
AcDbCircle
 10
113.9
 20
230.9
 30
0.0
 40
1.1
100
AcDbArc
 50
0.0
 51
90.0
  0
LINE
  5
13B
330
2
100
AcDbEntity
  8
画層1
 62
     0
100
AcDbLine
 10
112.8
 20
232.0
 30
0.0
 11
112.8
 21
234.45
 31
0.0
  0
LINE
  5
13C
330
2
100
AcDbEntity
  8
画層1
 62
     0
100
AcDbLine
 10
153.42
 20
232.27
 30
0.0
 11
153.42
 21
160.27
 31
0.0
  0
LINE
  5
13D
330
2
100
AcDbEntity
  8
画層1
 62
     0
100
AcDbLine
 10
158.42
 20
168.27
 30
0.0
 11
158.42
 21
224.27
 31
0.0
  0
LINE
  5
13E
330
2
100
AcDbEntity
  8
画層1
 62
     0
100
AcDbLine
 10
155.52
 20
230.07
 30
0.0
 11
155.52
 21
162.47
 31
0.0
  0
LINE
  5
13F
330
2
100
AcDbEntity
  8
画層1
 62
     0
100
AcDbLine
 10
147.42
 20
160.27
 30
0.0
 11
147.42
 21
208.27
 31
0.0
  0
ARC
  5
140
330
2
100
AcDbEntity
  8
画層1
 62
     0
100
AcDbCircle
 10
170.42
 20
194.17
 30
0.0
 40
2.299999999999999
100
AcDbArc
 50
0.0
 51
180.0
  0
LINE
  5
141
330
2
100
AcDbEntity
  8
画層1
 62
     0
100
AcDbLine
 10
144.42
 20
230.97
 30
0.0
 11
144.42
 21
161.57
 31
0.0
  0
LINE
  5
142
330
2
100
AcDbEntity
  8
画層1
 62
     0
100
AcDbLine
 10
181.92
 20
168.77
 30
0.0
 11
181.92
 21
214.77
 31
0.0
  0
LINE
  5
143
330
2
100
AcDbEntity
  8
画層1
 62
     0
100
AcDbLine
 10
155.42
 20
232.27
 30
0.0
 11
155.42
 21
160.27
 31
0.0
  0
LINE
  5
144
330
2
100
AcDbEntity
  8
画層1
 62
     0
100
AcDbLine
 10
177.02
 20
164.47
 30
0.0
 11
178.12
 21
164.47
 31
0.0
  0
LINE
  5
145
330
2
100
AcDbEntity
  8
画層1
 62
     0
100
AcDbLine
 10
164.42
 20
164.67
 30
0.0
 11
178.42
 21
164.67
 31
0.0
  0
LINE
  5
146
330
2
100
AcDbEntity
  8
画層1
 62
     0
100
AcDbLine
 10
178.12
 20
166.07
 30
0.0
 11
155.52
 21
166.67
 31
0.0
  0
LINE
  5
147
330
2
100
AcDbEntity
  8
画層1
 62
     0
100
AcDbLine
 10
155.52
 20
162.47
 30
0.0
 11
166.03
 21
162.47
 31
0.0
  0
ARC
  5
148
330
2
100
AcDbEntity
  8
画層1
 62
     0
100
AcDbCircle
 10
160.54
 20
160.97
 30
0.0
 40
1.0
100
AcDbArc
 50
247.51
 51
300.25
  0
LINE
  5
149
330
2
100
AcDbEntity
  8
画層1
 62
     0
100
AcDbLine
 10
160.92
 20
157.82
 30
0.0
 11
160.62
 21
157.82
 31
0.0
  0
ARC
  5
14A
330
2
100
AcDbEntity
  8
画層1
 62
     0
100
AcDbCircle
 10
177.16
 20
132.47
 30
0.0
 40
32.0
100
AcDbArc
 50
90.26
 51
120.25
  0
ARC
  5
14B
330
2
100
AcDbEntity
  8
画層1
 62
     0
100
AcDbCircle
 10
177.37
 20
131.07
 30
0.0
 40
31.40248406519289
100
AcDbArc
 50
90.63
 51
121.59
  0
LINE
  5
14C
330
2
100
AcDbEntity
  8
画層1
 62
     0
100
AcDbLine
 10
157.22
 20
159.57
 30
0.0
 11
157.22
 21
160.17
 31
0.0
  0
LINE
  5
14D
330
2
100
AcDbEntity
  8
画層1
 62
     0
100
AcDbLine
 10
157.22
 20
160.17
 30
0.0
 11
156.62
 21
159.92
 31
0.0
  0
LINE
  5
14E
330
2
100
AcDbEntity
  8
画層1
 62
     0
100
AcDbLine
 10
156.62
 20
159.92
 30
0.0
 11
156.62
 21
160.52
 31
0.0
  0
LINE
  5
14F
330
2
100
AcDbEntity
  8
画層1
 62
     0
100
AcDbLine
 10
157.22
 20
161.07
 30
0.0
 11
160.16
 21
160.05
 31
0.0
  0
LINE
  5
150
330
2
100
AcDbEntity
  8
画層1
 62
     0
100
AcDbLine
 10
160.62
 20
158.42
 30
0.0
 11
159.82
 21
158.17
 31
0.0
  0
LINE
  5
151
330
2
100
AcDbEntity
  8
画層1
 62
     0
100
AcDbLine
 10
159.82
 20
158.17
 30
0.0
 11
159.82
 21
158.77
 31
0.0
  0
LINE
  5
152
330
2
100
AcDbEntity
  8
画層1
 62
     0
100
AcDbLine
 10
159.82
 20
158.77
 30
0.0
 11
159.22
 21
158.52
 31
0.0
  0
LINE
  5
153
330
2
100
AcDbEntity
  8
画層1
 62
     0
100
AcDbLine
 10
159.22
 20
158.52
 30
0.0
 11
159.22
 21
159.12
 31
0.0
  0
LINE
  5
154
330
2
100
AcDbEntity
  8
画層1
 62
     0
100
AcDbLine
 10
159.22
 20
159.12
 30
0.0
 11
158.42
 21
158.87
 31
0.0
  0
LINE
  5
155
330
2
100
AcDbEntity
  8
画層1
 62
     0
100
AcDbLine
 10
158.42
 20
158.87
 30
0.0
 11
158.42
 21
159.47
 31
0.0
  0
LINE
  5
156
330
2
100
AcDbEntity
  8
画層1
 62
     0
100
AcDbLine
 10
160.62
 20
157.82
 30
0.0
 11
160.62
 21
158.42
 31
0.0
  0
LINE
  5
157
330
2
100
AcDbEntity
  8
画層1
 62
     0
100
AcDbLine
 10
157.82
 20
159.22
 30
0.0
 11
157.82
 21
159.82
 31
0.0
  0
LINE
  5
158
330
2
100
AcDbEntity
  8
画層1
 62
     0
100
AcDbLine
 10
157.82
 20
159.82
 30
0.0
 11
157.22
 21
159.57
 31
0.0
  0
LINE
  5
159
330
2
100
AcDbEntity
  8
画層1
 62
     0
100
AcDbLine
 10
158.42
 20
159.47
 30
0.0
 11
157.82
 21
159.22
 31
0.0
  0
LINE
  5
15A
330
2
100
AcDbEntity
  8
画層1
 62
     0
100
AcDbLine
 10
146.42
 20
160.27
 30
0.0
 11
155.42
 21
160.27
 31
0.0
  0
LINE
  5
15B
330
2
100
AcDbEntity
  8
画層1
 62
     0
100
AcDbLine
 10
146.42
 20
160.27
 30
0.0
 11
146.42
 21
160.37
 31
0.0
  0
LINE
  5
15C
330
2
100
AcDbEntity
  8
画層1
 62
     0
100
AcDbLine
 10
145.62
 20
160.37
 30
0.0
 11
146.42
 21
160.37
 31
0.0
  0
LINE
  5
15D
330
2
100
AcDbEntity
  8
画層1
 62
     0
100
AcDbLine
 10
145.62
 20
160.37
 30
0.0
 11
147.42
 21
160.37
 31
0.0
  0
LINE
  5
15E
330
2
100
AcDbEntity
  8
画層1
 62
     0
100
AcDbLine
 10
147.42
 20
160.37
 30
0.0
 11
147.42
 21
161.57
 31
0.0
  0
LINE
  5
15F
330
2
100
AcDbEntity
  8
画層1
 62
     0
100
AcDbLine
 10
156.02
 20
160.67
 30
0.0
 11
157.22
 21
161.07
 31
0.0
  0
LINE
  5
160
330
2
100
AcDbEntity
  8
画層1
 62
     0
100
AcDbLine
 10
155.52
 20
162.67
 30
0.0
 11
155.42
 21
162.67
 31
0.0
  0
LINE
  5
161
330
2
100
AcDbEntity
  8
画層1
 62
     0
100
AcDbLine
 10
156.62
 20
160.52
 30
0.0
 11
156.02
 21
160.27
 31
0.0
  0
LINE
  5
162
330
2
100
AcDbEntity
  8
画層1
 62
     0
100
AcDbLine
 10
156.02
 20
160.27
 30
0.0
 11
156.02
 21
160.67
 31
0.0
  0
ARC
  5
163
330
2
100
AcDbEntity
  8
画層1
 62
     0
100
AcDbCircle
 10
159.42
 20
168.27
 30
0.0
 40
1.0
100
AcDbArc
 50
180.0
 51
270.0
  0
LINE
  5
164
330
2
100
AcDbEntity
  8
画層1
 62
     0
100
AcDbLine
 10
164.42
 20
162.47
 30
0.0
 11
164.42
 21
164.67
 31
0.0
  0
LINE
  5
165
330
2
100
AcDbEntity
  8
画層1
 62
     0
100
AcDbLine
 10
172.72
 20
194.17
 30
0.0
 11
172.72
 21
175.77
 31
0.0
  0
LINE
  5
166
330
2
100
AcDbEntity
  8
画層1
 62
     0
100
AcDbLine
 10
168.12
 20
194.17
 30
0.0
 11
168.12
 21
175.77
 31
0.0
  0
ARC
  5
167
330
2
100
AcDbEntity
  8
画層1
 62
     0
100
AcDbCircle
 10
170.42
 20
175.77
 30
0.0
 40
2.299999999999999
100
AcDbArc
 50
180.0
 51
0.0
  0
LINE
  5
168
330
2
100
AcDbEntity
  8
画層1
 62
     0
100
AcDbLine
 10
183.42
 20
162.47
 30
0.0
 11
185.92
 21
165.97
 31
0.0
  0
ARC
  5
169
330
2
100
AcDbEntity
  8
画層1
 62
     0
100
AcDbCircle
 10
178.12
 20
165.27
 30
0.0
 40
0.8000000000000113
100
AcDbArc
 50
270.0
 51
90.0
  0
LINE
  5
16A
330
2
100
AcDbEntity
  8
画層1
 62
     0
100
AcDbLine
 10
178.42
 20
164.67
 30
0.0
 11
178.42
 21
164.52
 31
0.0
  0
ARC
  5
16B
330
2
100
AcDbEntity
  8
画層1
 62
     0
100
AcDbCircle
 10
182.92
 20
168.77
 30
0.0
 40
1.0
100
AcDbArc
 50
180.0
 51
270.0
  0
LINE
  5
16C
330
2
100
AcDbEntity
  8
画層1
 62
     0
100
AcDbLine
 10
185.92
 20
165.97
 30
0.0
 11
185.92
 21
162.47
 31
0.0
  0
LINE
  5
16D
330
2
100
AcDbEntity
  8
画層1
 62
     0
100
AcDbLine
 10
177.02
 20
228.07
 30
0.0
 11
178.12
 21
228.07
 31
0.0
  0
LINE
  5
16E
330
2
100
AcDbEntity
  8
画層1
 62
     0
100
AcDbLine
 10
164.42
 20
227.87
 30
0.0
 11
178.42
 21
227.87
 31
0.0
  0
LINE
  5
16F
330
2
100
AcDbEntity
  8
画層1
 62
     0
100
AcDbLine
 10
178.12
 20
226.47
 30
0.0
 11
155.52
 21
225.87
 31
0.0
  0
LINE
  5
170
330
2
100
AcDbEntity
  8
画層1
 62
     0
100
AcDbLine
 10
147.42
 20
232.27
 30
0.0
 11
147.42
 21
196.27
 31
0.0
  0
ARC
  5
171
330
2
100
AcDbEntity
  8
画層1
 62
     0
100
AcDbCircle
 10
160.54
 20
231.56
 30
0.0
 40
1.0
100
AcDbArc
 50
59.75
 51
112.49
  0
LINE
  5
172
330
2
100
AcDbEntity
  8
画層1
 62
     0
100
AcDbLine
 10
160.92
 20
234.72
 30
0.0
 11
160.62
 21
234.72
 31
0.0
  0
LINE
  5
173
330
2
100
AcDbEntity
  8
画層1
 62
     0
100
AcDbLine
 10
155.52
 20
230.07
 30
0.0
 11
166.03
 21
230.07
 31
0.0
  0
ARC
  5
174
330
2
100
AcDbEntity
  8
画層1
 62
     0
100
AcDbCircle
 10
177.16
 20
260.07
 30
0.0
 40
32.0
100
AcDbArc
 50
239.75
 51
269.74
  0
ARC
  5
175
330
2
100
AcDbEntity
  8
画層1
 62
     0
100
AcDbCircle
 10
177.37
 20
261.47
 30
0.0
 40
31.40248406519245
100
AcDbArc
 50
238.41
 51
269.37
  0
ARC
  5
176
330
2
100
AcDbEntity
  8
画層1
 62
     0
100
AcDbCircle
 10
159.42
 20
224.27
 30
0.0
 40
1.0
100
AcDbArc
 50
90.0
 51
180.0
  0
LINE
  5
177
330
2
100
AcDbEntity
  8
画層1
 62
     0
100
AcDbLine
 10
146.42
 20
232.27
 30
0.0
 11
155.42
 21
232.27
 31
0.0
  0
LINE
  5
178
330
2
100
AcDbEntity
  8
画層1
 62
     0
100
AcDbLine
 10
146.42
 20
232.27
 30
0.0
 11
146.42
 21
232.17
 31
0.0
  0
LINE
  5
179
330
2
100
AcDbEntity
  8
画層1
 62
     0
100
AcDbLine
 10
147.42
 20
232.17
 30
0.0
 11
147.42
 21
230.97
 31
0.0
  0
LINE
  5
17A
330
2
100
AcDbEntity
  8
画層1
 62
     0
100
AcDbLine
 10
145.62
 20
232.17
 30
0.0
 11
146.42
 21
232.17
 31
0.0
  0
LINE
  5
17B
330
2
100
AcDbEntity
  8
画層1
 62
     0
100
AcDbLine
 10
145.62
 20
232.17
 30
0.0
 11
147.42
 21
232.17
 31
0.0
  0
LINE
  5
17C
330
2
100
AcDbEntity
  8
画層1
 62
     0
100
AcDbLine
 10
156.02
 20
231.87
 30
0.0
 11
157.22
 21
231.47
 31
0.0
  0
LINE
  5
17D
330
2
100
AcDbEntity
  8
画層1
 62
     0
100
AcDbLine
 10
157.22
 20
232.37
 30
0.0
 11
156.62
 21
232.62
 31
0.0
  0
LINE
  5
17E
330
2
100
AcDbEntity
  8
画層1
 62
     0
100
AcDbLine
 10
156.02
 20
232.27
 30
0.0
 11
156.02
 21
231.87
 31
0.0
  0
LINE
  5
17F
330
2
100
AcDbEntity
  8
画層1
 62
     0
100
AcDbLine
 10
156.62
 20
232.02
 30
0.0
 11
156.02
 21
232.27
 31
0.0
  0
LINE
  5
180
330
2
100
AcDbEntity
  8
画層1
 62
     0
100
AcDbLine
 10
156.62
 20
232.62
 30
0.0
 11
156.62
 21
232.02
 31
0.0
  0
LINE
  5
181
330
2
100
AcDbEntity
  8
画層1
 62
     0
100
AcDbLine
 10
155.42
 20
229.87
 30
0.0
 11
155.52
 21
229.87
 31
0.0
  0
LINE
  5
182
330
2
100
AcDbEntity
  8
画層1
 62
     0
100
AcDbLine
 10
160.62
 20
234.12
 30
0.0
 11
159.82
 21
234.37
 31
0.0
  0
LINE
  5
183
330
2
100
AcDbEntity
  8
画層1
 62
     0
100
AcDbLine
 10
158.42
 20
233.67
 30
0.0
 11
158.42
 21
233.07
 31
0.0
  0
LINE
  5
184
330
2
100
AcDbEntity
  8
画層1
 62
     0
100
AcDbLine
 10
159.22
 20
233.42
 30
0.0
 11
158.42
 21
233.67
 31
0.0
  0
LINE
  5
185
330
2
100
AcDbEntity
  8
画層1
 62
     0
100
AcDbLine
 10
159.22
 20
234.02
 30
0.0
 11
159.22
 21
233.42
 31
0.0
  0
LINE
  5
186
330
2
100
AcDbEntity
  8
画層1
 62
     0
100
AcDbLine
 10
159.82
 20
233.77
 30
0.0
 11
159.22
 21
234.02
 31
0.0
  0
LINE
  5
187
330
2
100
AcDbEntity
  8
画層1
 62
     0
100
AcDbLine
 10
159.82
 20
234.37
 30
0.0
 11
159.82
 21
233.77
 31
0.0
  0
LINE
  5
188
330
2
100
AcDbEntity
  8
画層1
 62
     0
100
AcDbLine
 10
160.62
 20
234.72
 30
0.0
 11
160.62
 21
234.12
 31
0.0
  0
LINE
  5
189
330
2
100
AcDbEntity
  8
画層1
 62
     0
100
AcDbLine
 10
157.22
 20
232.97
 30
0.0
 11
157.22
 21
232.37
 31
0.0
  0
LINE
  5
18A
330
2
100
AcDbEntity
  8
画層1
 62
     0
100
AcDbLine
 10
157.82
 20
232.72
 30
0.0
 11
157.22
 21
232.97
 31
0.0
  0
LINE
  5
18B
330
2
100
AcDbEntity
  8
画層1
 62
     0
100
AcDbLine
 10
157.82
 20
233.32
 30
0.0
 11
157.82
 21
232.72
 31
0.0
  0
LINE
  5
18C
330
2
100
AcDbEntity
  8
画層1
 62
     0
100
AcDbLine
 10
157.22
 20
231.47
 30
0.0
 11
160.16
 21
232.48
 31
0.0
  0
LINE
  5
18D
330
2
100
AcDbEntity
  8
画層1
 62
     0
100
AcDbLine
 10
158.42
 20
233.07
 30
0.0
 11
157.82
 21
233.32
 31
0.0
  0
LINE
  5
18E
330
2
100
AcDbEntity
  8
画層1
 62
     0
100
AcDbLine
 10
164.42
 20
230.07
 30
0.0
 11
164.42
 21
227.87
 31
0.0
  0
LWPOLYLINE
  5
18F
330
2
100
AcDbEntity
  8
画層1
 62
     0
100
AcDbPolyline
 90
        4
 70
     1
 43
0.0
 10
183.92
 20
217.27
 10
205.92
 20
217.27
 10
205.92
 20
215.77
 10
183.92
 20
215.77
  0
POINT
  5
190
330
2
100
AcDbEntity
  8
画層1
 62
     0
100
AcDbPoint
 10
183.92
 20
217.27
 30
0.0
  0
POINT
  5
191
330
2
100
AcDbEntity
  8
画層1
 62
     0
100
AcDbPoint
 10
183.92
 20
215.77
 30
0.0
  0
ARC
  5
192
330
2
100
AcDbEntity
  8
画層1
 62
     0
100
AcDbCircle
 10
182.92
 20
214.77
 30
0.0
 40
1.0
100
AcDbArc
 50
90.0
 51
180.0
  0
LWPOLYLINE
  5
193
330
2
100
AcDbEntity
  8
画層1
 62
     0
100
AcDbPolyline
 90
        4
 70
     1
 43
0.0
 10
183.92
 20
223.27
 10
205.92
 20
223.27
 10
205.92
 20
221.77
 10
183.92
 20
221.77
  0
LWPOLYLINE
  5
194
330
2
100
AcDbEntity
  8
画層1
 62
     0
100
AcDbPolyline
 90
        4
 70
     1
 43
0.0
 10
183.92
 20
220.27
 10
205.92
 20
220.27
 10
205.92
 20
218.77
 10
183.92
 20
218.77
  0
LINE
  5
195
330
2
100
AcDbEntity
  8
画層1
 62
     0
100
AcDbLine
 10
185.92
 20
226.57
 30
0.0
 11
183.42
 21
230.07
 31
0.0
  0
LINE
  5
196
330
2
100
AcDbEntity
  8
画層1
 62
     0
100
AcDbLine
 10
185.92
 20
230.07
 30
0.0
 11
185.92
 21
226.57
 31
0.0
  0
LINE
  5
197
330
2
100
AcDbEntity
  8
画層1
 62
     0
100
AcDbLine
 10
178.42
 20
227.87
 30
0.0
 11
178.42
 21
228.01
 31
0.0
  0
ARC
  5
198
330
2
100
AcDbEntity
  8
画層1
 62
     0
100
AcDbCircle
 10
178.12
 20
227.27
 30
0.0
 40
0.8000000000000113
100
AcDbArc
 50
270.0
 51
90.0
  0
LINE
  5
199
330
2
100
AcDbEntity
  8
画層1
 62
     0
100
AcDbLine
 10
246.92
 20
199.87
 30
0.0
 11
246.92
 21
192.67
 31
0.0
  0
LINE
  5
19A
330
2
100
AcDbEntity
  8
画層1
 62
     0
100
AcDbLine
 10
245.42
 20
224.27
 30
0.0
 11
245.42
 21
168.99
 31
0.0
  0
LINE
  5
19B
330
2
100
AcDbEntity
  8
画層1
 62
     0
100
AcDbLine
 10
244.92
 20
214.77
 30
0.0
 11
244.92
 21
168.77
 31
0.0
  0
ARC
  5
19C
330
2
100
AcDbEntity
  8
画層1
 62
     0
100
AcDbCircle
 10
238.09
 20
196.52
 30
0.0
 40
11.44118729799424
100
AcDbArc
 50
340.87
 51
355.74
  0
ARC
  5
19D
330
2
100
AcDbEntity
  8
画層1
 62
     0
100
AcDbCircle
 10
244.45
 20
196.27
 30
0.0
 40
7.540000001812724
100
AcDbArc
 50
344.01
 51
356.2
  0
LINE
  5
19E
330
2
100
AcDbEntity
  8
画層1
 62
     0
100
AcDbLine
 10
249.49
 20
198.69
 30
0.0
 11
249.49
 21
193.85
 31
0.0
  0
LINE
  5
19F
330
2
100
AcDbEntity
  8
画層1
 62
     0
100
AcDbLine
 10
247.39
 20
192.77
 30
0.0
 11
247.39
 21
199.77
 31
0.0
  0
LINE
  5
1A0
330
2
100
AcDbEntity
  8
画層1
 62
     0
100
AcDbLine
 10
247.89
 20
199.77
 30
0.0
 11
247.89
 21
192.77
 31
0.0
  0
ARC
  5
1A1
330
2
100
AcDbEntity
  8
画層1
 62
     0
100
AcDbCircle
 10
237.99
 20
196.27
 30
0.0
 40
10.50674104301654
100
AcDbArc
 50
340.54
 51
355.63
  0
DIMENSION
  5
1A2
330
2
100
AcDbEntity
  8
画層1
 62
     0
100
AcDbDimension
  2
*D4
 10
267.17
 20
162.73
 30
0.0
 11
265.29
 21
196.53
 31
0.0
 71
     5
 42
67.6
  3
STANDARD_WS
100
AcDbAlignedDimension
 13
257.97
 23
230.33
 33
0.0
 14
257.97
 24
162.73
 34
0.0
 50
90.0
100
AcDbRotatedDimension
1001
ACAD
1000
DSTYLE
1002
{
1070
   344
1005
2E
1070
   343
1005
2E
1070
   284
1070
     8
1070
   340
1005
23
1070
    47
1040
0.7
1070
   146
1040
0.5
1002
}
  0
LINE
  5
1AF
330
2
100
AcDbEntity
  8
画層1
 62
     0
100
AcDbLine
 10
249.42
 20
194.97
 30
0.0
 11
249.42
 21
192.67
 31
0.0
  0
LINE
  5
1B0
330
2
100
AcDbEntity
  8
画層1
 62
     0
100
AcDbLine
 10
249.09
 20
171.97
 30
0.0
 11
249.09
 21
170.77
 31
0.0
  0
LINE
  5
1B1
330
2
100
AcDbEntity
  8
画層1
 62
     0
100
AcDbLine
 10
250.99
 20
171.87
 30
0.0
 11
250.99
 21
170.87
 31
0.0
  0
LINE
  5
1B2
330
2
100
AcDbEntity
  8
画層1
 62
     0
100
AcDbLine
 10
246.92
 20
174.97
 30
0.0
 11
246.92
 21
167.77
 31
0.0
  0
LINE
  5
1B3
330
2
100
AcDbEntity
  8
画層1
 62
     0
100
AcDbLine
 10
249.49
 20
173.79
 30
0.0
 11
249.49
 21
168.95
 31
0.0
  0
LINE
  5
1B4
330
2
100
AcDbEntity
  8
画層1
 62
     0
100
AcDbLine
 10
247.39
 20
167.87
 30
0.0
 11
247.39
 21
174.87
 31
0.0
  0
LINE
  5
1B5
330
2
100
AcDbEntity
  8
画層1
 62
     0
100
AcDbLine
 10
247.89
 20
174.87
 30
0.0
 11
247.89
 21
167.87
 31
0.0
  0
LINE
  5
1B6
330
2
100
AcDbEntity
  8
画層1
 62
     0
100
AcDbLine
 10
250.99
 20
170.87
 30
0.0
 11
251.98
 21
170.87
 31
0.0
  0
ARC
  5
1B7
330
2
100
AcDbEntity
  8
画層1
 62
     0
100
AcDbCircle
 10
250.74
 20
169.56
 30
0.0
 40
1.0
100
AcDbArc
 50
278.53
 51
344.01
  0
LINE
  5
1B8
330
2
100
AcDbEntity
  8
画層1
 62
     0
100
AcDbLine
 10
246.92
 20
164.57
 30
0.0
 11
251.02
 21
164.57
 31
0.0
  0
LINE
  5
1B9
330
2
100
AcDbEntity
  8
画層1
 62
     0
100
AcDbLine
 10
246.92
 20
167.77
 30
0.0
 11
255.12
 21
167.77
 31
0.0
  0
LINE
  5
1BA
330
2
100
AcDbEntity
  8
画層1
 62
     0
100
AcDbLine
 10
246.92
 20
164.77
 30
0.0
 11
254.72
 21
164.77
 31
0.0
  0
LINE
  5
1BB
330
2
100
AcDbEntity
  8
画層1
 62
     0
100
AcDbLine
 10
246.92
 20
162.47
 30
0.0
 11
246.92
 21
165.97
 31
0.0
  0
ARC
  5
1BC
330
2
100
AcDbEntity
  8
画層1
 62
     0
100
AcDbCircle
 10
247.12
 20
167.97
 30
0.0
 40
0.2
100
AcDbArc
 50
180.0
 51
270.0
  0
LINE
  5
1BD
330
2
100
AcDbEntity
  8
画層1
 62
     0
100
AcDbLine
 10
245.42
 20
168.99
 30
0.0
 11
245.42
 21
168.27
 31
0.0
  0
ARC
  5
1BE
330
2
100
AcDbEntity
  8
画層1
 62
     0
100
AcDbCircle
 10
244.42
 20
168.27
 30
0.0
 40
1.0
100
AcDbArc
 50
270.0
 51
0.0
  0
ARC
  5
1BF
330
2
100
AcDbEntity
  8
画層1
 62
     0
100
AcDbCircle
 10
243.92
 20
168.77
 30
0.0
 40
1.0
100
AcDbArc
 50
270.0
 51
0.0
  0
ARC
  5
1C0
330
2
100
AcDbEntity
  8
画層1
 62
     0
100
AcDbCircle
 10
249.99
 20
168.95
 30
0.0
 40
0.5
100
AcDbArc
 50
180.0
 51
278.53
  0
ARC
  5
1C1
330
2
100
AcDbEntity
  8
画層1
 62
     0
100
AcDbCircle
 10
238.09
 20
171.62
 30
0.0
 40
11.44118729799424
100
AcDbArc
 50
340.87
 51
355.74
  0
LINE
  5
1C2
330
2
100
AcDbEntity
  8
画層1
 62
     0
100
AcDbLine
 10
249.09
 20
170.77
 30
0.0
 11
249.49
 21
170.77
 31
0.0
  0
LINE
  5
1C3
330
2
100
AcDbEntity
  8
画層1
 62
     0
100
AcDbLine
 10
250.07
 20
168.45
 30
0.0
 11
250.89
 21
168.58
 31
0.0
  0
LINE
  5
1C4
330
2
100
AcDbEntity
  8
画層1
 62
     0
100
AcDbLine
 10
249.42
 20
170.07
 30
0.0
 11
249.42
 21
167.77
 31
0.0
  0
LINE
  5
1C5
330
2
100
AcDbEntity
  8
画層1
 62
     0
100
AcDbLine
 10
248.46
 20
170.57
 30
0.0
 11
247.89
 21
170.57
 31
0.0
  0
LINE
  5
1C6
330
2
100
AcDbEntity
  8
画層1
 62
     0
100
AcDbLine
 10
248.89
 20
167.87
 30
0.0
 11
246.92
 21
167.87
 31
0.0
  0
ARC
  5
1C7
330
2
100
AcDbEntity
  8
画層1
 62
     0
100
AcDbCircle
 10
237.99
 20
171.37
 30
0.0
 40
10.50674104301654
100
AcDbArc
 50
340.54
 51
355.63
  0
LINE
  5
1C8
330
2
100
AcDbEntity
  8
画層1
 62
     0
100
AcDbLine
 10
255.42
 20
167.47
 30
0.0
 11
255.42
 21
165.47
 31
0.0
  0
ARC
  5
1C9
330
2
100
AcDbEntity
  8
画層1
 62
     0
100
AcDbCircle
 10
254.72
 20
165.47
 30
0.0
 40
0.7
100
AcDbArc
 50
270.0
 51
360.0
  0
LINE
  5
1CA
330
2
100
AcDbEntity
  8
画層1
 62
     0
100
AcDbLine
 10
251.02
 20
164.57
 30
0.0
 11
251.02
 21
164.77
 31
0.0
  0
ARC
  5
1CB
330
2
100
AcDbEntity
  8
画層1
 62
     0
100
AcDbCircle
 10
244.45
 20
171.37
 30
0.0
 40
7.540000001812724
100
AcDbArc
 50
344.01
 51
356.2
  0
ARC
  5
1CC
330
2
100
AcDbEntity
  8
画層1
 62
     0
100
AcDbCircle
 10
255.12
 20
167.47
 30
0.0
 40
0.3
100
AcDbArc
 50
360.0
 51
90.0
  0
ARC
  5
1CD
330
2
100
AcDbEntity
  8
画層1
 62
     0
100
AcDbCircle
 10
247.12
 20
183.07
 30
0.0
 40
0.2
100
AcDbArc
 50
90.0
 51
180.0
  0
ARC
  5
1CE
330
2
100
AcDbEntity
  8
画層1
 62
     0
100
AcDbCircle
 10
255.12
 20
183.57
 30
0.0
 40
0.3
100
AcDbArc
 50
270.0
 51
0.0
  0
LINE
  5
1CF
330
2
100
AcDbEntity
  8
画層1
 62
     0
100
AcDbLine
 10
250.99
 20
179.17
 30
0.0
 11
251.98
 21
179.17
 31
0.0
  0
LINE
  5
1D0
330
2
100
AcDbEntity
  8
画層1
 62
     0
100
AcDbLine
 10
251.98
 20
180.17
 30
0.0
 11
250.99
 21
180.17
 31
0.0
  0
ARC
  5
1D1
330
2
100
AcDbEntity
  8
画層1
 62
     0
100
AcDbCircle
 10
250.74
 20
181.47
 30
0.0
 40
1.0
100
AcDbArc
 50
15.99
 51
81.47
  0
ARC
  5
1D2
330
2
100
AcDbEntity
  8
画層1
 62
     0
100
AcDbCircle
 10
250.74
 20
173.17
 30
0.0
 40
1.0
100
AcDbArc
 50
15.99
 51
81.47
  0
ARC
  5
1D3
330
2
100
AcDbEntity
  8
画層1
 62
     0
100
AcDbCircle
 10
250.74
 20
177.86
 30
0.0
 40
1.0
100
AcDbArc
 50
278.53
 51
344.01
  0
LINE
  5
1D4
330
2
100
AcDbEntity
  8
画層1
 62
     0
100
AcDbLine
 10
246.92
 20
174.97
 30
0.0
 11
255.12
 21
174.97
 31
0.0
  0
LINE
  5
1D5
330
2
100
AcDbEntity
  8
画層1
 62
     0
100
AcDbLine
 10
246.92
 20
176.07
 30
0.0
 11
255.12
 21
176.07
 31
0.0
  0
LINE
  5
1D6
330
2
100
AcDbEntity
  8
画層1
 62
     0
100
AcDbLine
 10
246.92
 20
183.27
 30
0.0
 11
255.12
 21
183.27
 31
0.0
  0
LINE
  5
1D7
330
2
100
AcDbEntity
  8
画層1
 62
     0
100
AcDbLine
 10
251.98
 20
171.87
 30
0.0
 11
250.99
 21
171.87
 31
0.0
  0
LINE
  5
1D8
330
2
100
AcDbEntity
  8
画層1
 62
     0
100
AcDbLine
 10
247.89
 20
183.17
 30
0.0
 11
247.89
 21
176.17
 31
0.0
  0
LINE
  5
1D9
330
2
100
AcDbEntity
  8
画層1
 62
     0
100
AcDbLine
 10
247.39
 20
176.17
 30
0.0
 11
247.39
 21
183.17
 31
0.0
  0
LINE
  5
1DA
330
2
100
AcDbEntity
  8
画層1
 62
     0
100
AcDbLine
 10
249.49
 20
182.09
 30
0.0
 11
249.49
 21
177.25
 31
0.0
  0
LINE
  5
1DB
330
2
100
AcDbEntity
  8
画層1
 62
     0
100
AcDbLine
 10
246.92
 20
183.27
 30
0.0
 11
246.92
 21
176.07
 31
0.0
  0
ARC
  5
1DC
330
2
100
AcDbEntity
  8
画層1
 62
     0
100
AcDbCircle
 10
237.99
 20
179.67
 30
0.0
 40
10.50674104301654
100
AcDbArc
 50
340.54
 51
355.63
  0
LINE
  5
1DD
330
2
100
AcDbEntity
  8
画層1
 62
     0
100
AcDbLine
 10
249.42
 20
178.37
 30
0.0
 11
249.42
 21
176.07
 31
0.0
  0
ARC
  5
1DE
330
2
100
AcDbEntity
  8
画層1
 62
     0
100
AcDbCircle
 10
238.09
 20
179.92
 30
0.0
 40
11.44118729799424
100
AcDbArc
 50
340.87
 51
355.74
  0
ARC
  5
1DF
330
2
100
AcDbEntity
  8
画層1
 62
     0
100
AcDbCircle
 10
247.12
 20
174.77
 30
0.0
 40
0.2
100
AcDbArc
 50
90.0
 51
180.0
  0
ARC
  5
1E0
330
2
100
AcDbEntity
  8
画層1
 62
     0
100
AcDbCircle
 10
247.12
 20
176.27
 30
0.0
 40
0.2
100
AcDbArc
 50
180.0
 51
270.0
  0
LINE
  5
1E1
330
2
100
AcDbEntity
  8
画層1
 62
     0
100
AcDbLine
 10
249.42
 20
174.97
 30
0.0
 11
249.42
 21
172.66
 31
0.0
  0
ARC
  5
1E2
330
2
100
AcDbEntity
  8
画層1
 62
     0
100
AcDbCircle
 10
249.99
 20
173.79
 30
0.0
 40
0.5
100
AcDbArc
 50
81.47
 51
180.0
  0
LINE
  5
1E3
330
2
100
AcDbEntity
  8
画層1
 62
     0
100
AcDbLine
 10
250.07
 20
174.28
 30
0.0
 11
250.89
 21
174.16
 31
0.0
  0
LINE
  5
1E4
330
2
100
AcDbEntity
  8
画層1
 62
     0
100
AcDbLine
 10
250.07
 20
176.75
 30
0.0
 11
250.89
 21
176.88
 31
0.0
  0
ARC
  5
1E5
330
2
100
AcDbEntity
  8
画層1
 62
     0
100
AcDbCircle
 10
249.99
 20
177.25
 30
0.0
 40
0.5
100
AcDbArc
 50
180.0
 51
278.53
  0
LINE
  5
1E6
330
2
100
AcDbEntity
  8
画層1
 62
     0
100
AcDbLine
 10
248.46
 20
172.17
 30
0.0
 11
247.89
 21
172.17
 31
0.0
  0
ARC
  5
1E7
330
2
100
AcDbEntity
  8
画層1
 62
     0
100
AcDbCircle
 10
237.99
 20
171.37
 30
0.0
 40
10.50674104301654
100
AcDbArc
 50
4.37
 51
19.46
  0
LINE
  5
1E8
330
2
100
AcDbEntity
  8
画層1
 62
     0
100
AcDbLine
 10
246.92
 20
174.87
 30
0.0
 11
248.89
 21
174.87
 31
0.0
  0
LINE
  5
1E9
330
2
100
AcDbEntity
  8
画層1
 62
     0
100
AcDbLine
 10
248.89
 20
176.17
 30
0.0
 11
246.92
 21
176.17
 31
0.0
  0
LINE
  5
1EA
330
2
100
AcDbEntity
  8
画層1
 62
     0
100
AcDbLine
 10
249.49
 20
171.97
 30
0.0
 11
249.09
 21
171.97
 31
0.0
  0
ARC
  5
1EB
330
2
100
AcDbEntity
  8
画層1
 62
     0
100
AcDbCircle
 10
238.09
 20
171.12
 30
0.0
 40
11.44118730072772
100
AcDbArc
 50
4.26
 51
19.13
  0
ARC
  5
1EC
330
2
100
AcDbEntity
  8
画層1
 62
     0
100
AcDbCircle
 10
238.09
 20
179.42
 30
0.0
 40
11.44118730072772
100
AcDbArc
 50
4.26
 51
19.13
  0
LINE
  5
1ED
330
2
100
AcDbEntity
  8
画層1
 62
     0
100
AcDbLine
 10
249.42
 20
183.27
 30
0.0
 11
249.42
 21
180.96
 31
0.0
  0
LINE
  5
1EE
330
2
100
AcDbEntity
  8
画層1
 62
     0
100
AcDbLine
 10
249.49
 20
180.27
 30
0.0
 11
249.09
 21
180.27
 31
0.0
  0
LINE
  5
1EF
330
2
100
AcDbEntity
  8
画層1
 62
     0
100
AcDbLine
 10
250.99
 20
180.17
 30
0.0
 11
250.99
 21
179.17
 31
0.0
  0
LINE
  5
1F0
330
2
100
AcDbEntity
  8
画層1
 62
     0
100
AcDbLine
 10
249.09
 20
179.07
 30
0.0
 11
249.49
 21
179.07
 31
0.0
  0
LINE
  5
1F1
330
2
100
AcDbEntity
  8
画層1
 62
     0
100
AcDbLine
 10
249.09
 20
180.27
 30
0.0
 11
249.09
 21
179.07
 31
0.0
  0
LINE
  5
1F2
330
2
100
AcDbEntity
  8
画層1
 62
     0
100
AcDbLine
 10
250.07
 20
182.58
 30
0.0
 11
250.89
 21
182.46
 31
0.0
  0
ARC
  5
1F3
330
2
100
AcDbEntity
  8
画層1
 62
     0
100
AcDbCircle
 10
249.99
 20
182.09
 30
0.0
 40
0.5
100
AcDbArc
 50
81.47
 51
180.0
  0
LINE
  5
1F4
330
2
100
AcDbEntity
  8
画層1
 62
     0
100
AcDbLine
 10
248.46
 20
180.47
 30
0.0
 11
247.89
 21
180.47
 31
0.0
  0
LINE
  5
1F5
330
2
100
AcDbEntity
  8
画層1
 62
     0
100
AcDbLine
 10
248.46
 20
178.87
 30
0.0
 11
247.89
 21
178.87
 31
0.0
  0
ARC
  5
1F6
330
2
100
AcDbEntity
  8
画層1
 62
     0
100
AcDbCircle
 10
237.99
 20
179.67
 30
0.0
 40
10.50674104301654
100
AcDbArc
 50
4.37
 51
19.46
  0
LINE
  5
1F7
330
2
100
AcDbEntity
  8
画層1
 62
     0
100
AcDbLine
 10
246.92
 20
183.17
 30
0.0
 11
248.89
 21
183.17
 31
0.0
  0
ARC
  5
1F8
330
2
100
AcDbEntity
  8
画層1
 62
     0
100
AcDbCircle
 10
244.45
 20
171.37
 30
0.0
 40
7.540000001812724
100
AcDbArc
 50
3.8
 51
15.99
  0
ARC
  5
1F9
330
2
100
AcDbEntity
  8
画層1
 62
     0
100
AcDbCircle
 10
255.12
 20
175.77
 30
0.0
 40
0.3
100
AcDbArc
 50
0.0
 51
90.0
  0
ARC
  5
1FA
330
2
100
AcDbEntity
  8
画層1
 62
     0
100
AcDbCircle
 10
255.12
 20
175.27
 30
0.0
 40
0.3
100
AcDbArc
 50
270.0
 51
0.0
  0
LINE
  5
1FB
330
2
100
AcDbEntity
  8
画層1
 62
     0
100
AcDbLine
 10
255.42
 20
175.77
 30
0.0
 11
255.42
 21
175.27
 31
0.0
  0
ARC
  5
1FC
330
2
100
AcDbEntity
  8
画層1
 62
     0
100
AcDbCircle
 10
244.45
 20
179.67
 30
0.0
 40
7.540000001812724
100
AcDbArc
 50
3.8
 51
15.99
  0
ARC
  5
1FD
330
2
100
AcDbEntity
  8
画層1
 62
     0
100
AcDbCircle
 10
244.45
 20
179.67
 30
0.0
 40
7.540000001812724
100
AcDbArc
 50
344.01
 51
356.2
  0
LINE
  5
1FE
330
2
100
AcDbEntity
  8
画層1
 62
     0
100
AcDbLine
 10
246.92
 20
184.37
 30
0.0
 11
255.12
 21
184.37
 31
0.0
  0
LINE
  5
1FF
330
2
100
AcDbEntity
  8
画層1
 62
     0
100
AcDbLine
 10
246.92
 20
191.57
 30
0.0
 11
255.12
 21
191.57
 31
0.0
  0
LINE
  5
200
330
2
100
AcDbEntity
  8
画層1
 62
     0
100
AcDbLine
 10
246.92
 20
192.67
 30
0.0
 11
255.12
 21
192.67
 31
0.0
  0
ARC
  5
201
330
2
100
AcDbEntity
  8
画層1
 62
     0
100
AcDbCircle
 10
250.74
 20
189.77
 30
0.0
 40
1.0
100
AcDbArc
 50
15.99
 51
81.47
  0
ARC
  5
202
330
2
100
AcDbEntity
  8
画層1
 62
     0
100
AcDbCircle
 10
250.74
 20
194.46
 30
0.0
 40
1.0
100
AcDbArc
 50
278.53
 51
344.01
  0
ARC
  5
203
330
2
100
AcDbEntity
  8
画層1
 62
     0
100
AcDbCircle
 10
250.74
 20
186.16
 30
0.0
 40
1.0
100
AcDbArc
 50
278.53
 51
344.01
  0
LINE
  5
204
330
2
100
AcDbEntity
  8
画層1
 62
     0
100
AcDbLine
 10
251.98
 20
188.47
 30
0.0
 11
250.99
 21
188.47
 31
0.0
  0
LINE
  5
205
330
2
100
AcDbEntity
  8
画層1
 62
     0
100
AcDbLine
 10
250.99
 20
187.47
 30
0.0
 11
251.98
 21
187.47
 31
0.0
  0
LINE
  5
206
330
2
100
AcDbEntity
  8
画層1
 62
     0
100
AcDbLine
 10
246.92
 20
191.57
 30
0.0
 11
246.92
 21
184.37
 31
0.0
  0
LINE
  5
207
330
2
100
AcDbEntity
  8
画層1
 62
     0
100
AcDbLine
 10
249.42
 20
191.57
 30
0.0
 11
249.42
 21
184.37
 31
0.0
  0
LINE
  5
208
330
2
100
AcDbEntity
  8
画層1
 62
     0
100
AcDbLine
 10
249.49
 20
190.39
 30
0.0
 11
249.49
 21
185.55
 31
0.0
  0
ARC
  5
209
330
2
100
AcDbEntity
  8
画層1
 62
     0
100
AcDbCircle
 10
238.09
 20
187.72
 30
0.0
 40
11.44118730072772
100
AcDbArc
 50
4.26
 51
7.76
  0
ARC
  5
20A
330
2
100
AcDbEntity
  8
画層1
 62
     0
100
AcDbCircle
 10
247.12
 20
184.57
 30
0.0
 40
0.2
100
AcDbArc
 50
180.0
 51
270.0
  0
ARC
  5
20B
330
2
100
AcDbEntity
  8
画層1
 62
     0
100
AcDbCircle
 10
249.99
 20
185.55
 30
0.0
 40
0.5
100
AcDbArc
 50
180.0
 51
278.53
  0
ARC
  5
20C
330
2
100
AcDbEntity
  8
画層1
 62
     0
100
AcDbCircle
 10
238.09
 20
188.22
 30
0.0
 40
11.44118729799424
100
AcDbArc
 50
352.24
 51
355.74
  0
LINE
  5
20D
330
2
100
AcDbEntity
  8
画層1
 62
     0
100
AcDbLine
 10
250.07
 20
185.05
 30
0.0
 11
250.89
 21
185.18
 31
0.0
  0
LINE
  5
20E
330
2
100
AcDbEntity
  8
画層1
 62
     0
100
AcDbLine
 10
249.49
 20
188.57
 30
0.0
 11
249.42
 21
188.57
 31
0.0
  0
LINE
  5
20F
330
2
100
AcDbEntity
  8
画層1
 62
     0
100
AcDbLine
 10
249.42
 20
187.37
 30
0.0
 11
249.49
 21
187.37
 31
0.0
  0
LINE
  5
210
330
2
100
AcDbEntity
  8
画層1
 62
     0
100
AcDbLine
 10
250.99
 20
188.47
 30
0.0
 11
250.99
 21
187.47
 31
0.0
  0
ARC
  5
211
330
2
100
AcDbEntity
  8
画層1
 62
     0
100
AcDbCircle
 10
247.12
 20
191.37
 30
0.0
 40
0.2
100
AcDbArc
 50
90.0
 51
180.0
  0
ARC
  5
212
330
2
100
AcDbEntity
  8
画層1
 62
     0
100
AcDbCircle
 10
247.12
 20
192.87
 30
0.0
 40
0.2
100
AcDbArc
 50
180.0
 51
270.0
  0
ARC
  5
213
330
2
100
AcDbEntity
  8
画層1
 62
     0
100
AcDbCircle
 10
249.99
 20
190.39
 30
0.0
 40
0.5
100
AcDbArc
 50
81.47
 51
180.0
  0
LINE
  5
214
330
2
100
AcDbEntity
  8
画層1
 62
     0
100
AcDbLine
 10
250.07
 20
190.88
 30
0.0
 11
250.89
 21
190.76
 31
0.0
  0
ARC
  5
215
330
2
100
AcDbEntity
  8
画層1
 62
     0
100
AcDbCircle
 10
249.99
 20
193.85
 30
0.0
 40
0.5
100
AcDbArc
 50
180.0
 51
278.53
  0
LINE
  5
216
330
2
100
AcDbEntity
  8
画層1
 62
     0
100
AcDbLine
 10
250.07
 20
193.35
 30
0.0
 11
250.89
 21
193.48
 31
0.0
  0
LINE
  5
217
330
2
100
AcDbEntity
  8
画層1
 62
     0
100
AcDbLine
 10
248.89
 20
192.77
 30
0.0
 11
246.92
 21
192.77
 31
0.0
  0
ARC
  5
218
330
2
100
AcDbEntity
  8
画層1
 62
     0
100
AcDbCircle
 10
244.45
 20
187.97
 30
0.0
 40
7.540000001812724
100
AcDbArc
 50
3.8
 51
15.99
  0
ARC
  5
219
330
2
100
AcDbEntity
  8
画層1
 62
     0
100
AcDbCircle
 10
244.45
 20
187.97
 30
0.0
 40
7.540000001812724
100
AcDbArc
 50
344.01
 51
356.2
  0
ARC
  5
21A
330
2
100
AcDbEntity
  8
画層1
 62
     0
100
AcDbCircle
 10
255.12
 20
184.07
 30
0.0
 40
0.3
100
AcDbArc
 50
0.0
 51
90.0
  0
LINE
  5
21B
330
2
100
AcDbEntity
  8
画層1
 62
     0
100
AcDbLine
 10
255.42
 20
184.07
 30
0.0
 11
255.42
 21
183.57
 31
0.0
  0
ARC
  5
21C
330
2
100
AcDbEntity
  8
画層1
 62
     0
100
AcDbCircle
 10
255.12
 20
191.87
 30
0.0
 40
0.3
100
AcDbArc
 50
270.0
 51
0.0
  0
ARC
  5
21D
330
2
100
AcDbEntity
  8
画層1
 62
     0
100
AcDbCircle
 10
255.12
 20
192.37
 30
0.0
 40
0.3
100
AcDbArc
 50
0.0
 51
90.0
  0
LINE
  5
21E
330
2
100
AcDbEntity
  8
画層1
 62
     0
100
AcDbLine
 10
255.42
 20
192.37
 30
0.0
 11
255.42
 21
191.87
 31
0.0
  0
LINE
  5
21F
330
2
100
AcDbEntity
  8
画層1
 62
     0
100
AcDbLine
 10
246.92
 20
224.77
 30
0.0
 11
246.92
 21
217.57
 31
0.0
  0
LINE
  5
220
330
2
100
AcDbEntity
  8
画層1
 62
     0
100
AcDbLine
 10
247.39
 20
217.67
 30
0.0
 11
247.39
 21
224.67
 31
0.0
  0
LINE
  5
221
330
2
100
AcDbEntity
  8
画層1
 62
     0
100
AcDbLine
 10
247.89
 20
224.67
 30
0.0
 11
247.89
 21
217.67
 31
0.0
  0
ARC
  5
222
330
2
100
AcDbEntity
  8
画層1
 62
     0
100
AcDbCircle
 10
237.99
 20
221.17
 30
0.0
 40
10.50674104301654
100
AcDbArc
 50
340.54
 51
355.63
  0
ARC
  5
223
330
2
100
AcDbEntity
  8
画層1
 62
     0
100
AcDbCircle
 10
238.09
 20
221.42
 30
0.0
 40
11.44118729799424
100
AcDbArc
 50
340.87
 51
355.74
  0
LINE
  5
224
330
2
100
AcDbEntity
  8
画層1
 62
     0
100
AcDbLine
 10
249.42
 20
219.87
 30
0.0
 11
249.42
 21
217.57
 31
0.0
  0
ARC
  5
225
330
2
100
AcDbEntity
  8
画層1
 62
     0
100
AcDbCircle
 10
244.45
 20
204.57
 30
0.0
 40
7.540000001812724
100
AcDbArc
 50
3.8
 51
15.99
  0
LINE
  5
226
330
2
100
AcDbEntity
  8
画層1
 62
     0
100
AcDbLine
 10
246.92
 20
208.17
 30
0.0
 11
246.92
 21
200.97
 31
0.0
  0
LINE
  5
227
330
2
100
AcDbEntity
  8
画層1
 62
     0
100
AcDbLine
 10
249.42
 20
208.17
 30
0.0
 11
249.42
 21
205.86
 31
0.0
  0
ARC
  5
228
330
2
100
AcDbEntity
  8
画層1
 62
     0
100
AcDbCircle
 10
238.09
 20
204.32
 30
0.0
 40
11.44118730072772
100
AcDbArc
 50
4.26
 51
19.13
  0
LINE
  5
229
330
2
100
AcDbEntity
  8
画層1
 62
     0
100
AcDbLine
 10
249.49
 20
206.99
 30
0.0
 11
249.49
 21
202.15
 31
0.0
  0
LINE
  5
22A
330
2
100
AcDbEntity
  8
画層1
 62
     0
100
AcDbLine
 10
247.39
 20
201.07
 30
0.0
 11
247.39
 21
208.07
 31
0.0
  0
LINE
  5
22B
330
2
100
AcDbEntity
  8
画層1
 62
     0
100
AcDbLine
 10
247.89
 20
208.07
 30
0.0
 11
247.89
 21
201.07
 31
0.0
  0
ARC
  5
22C
330
2
100
AcDbEntity
  8
画層1
 62
     0
100
AcDbCircle
 10
237.99
 20
204.57
 30
0.0
 40
10.50674104301654
100
AcDbArc
 50
4.37
 51
19.46
  0
LINE
  5
22D
330
2
100
AcDbEntity
  8
画層1
 62
     0
100
AcDbLine
 10
251.98
 20
205.07
 30
0.0
 11
250.99
 21
205.07
 31
0.0
  0
LINE
  5
22E
330
2
100
AcDbEntity
  8
画層1
 62
     0
100
AcDbLine
 10
250.99
 20
204.07
 30
0.0
 11
251.98
 21
204.07
 31
0.0
  0
ARC
  5
22F
330
2
100
AcDbEntity
  8
画層1
 62
     0
100
AcDbCircle
 10
250.74
 20
202.76
 30
0.0
 40
1.0
100
AcDbArc
 50
278.53
 51
344.01
  0
LINE
  5
230
330
2
100
AcDbEntity
  8
画層1
 62
     0
100
AcDbLine
 10
251.98
 20
196.77
 30
0.0
 11
250.99
 21
196.77
 31
0.0
  0
ARC
  5
231
330
2
100
AcDbEntity
  8
画層1
 62
     0
100
AcDbCircle
 10
250.74
 20
198.07
 30
0.0
 40
1.0
100
AcDbArc
 50
15.99
 51
81.47
  0
LINE
  5
232
330
2
100
AcDbEntity
  8
画層1
 62
     0
100
AcDbLine
 10
250.99
 20
195.77
 30
0.0
 11
251.98
 21
195.77
 31
0.0
  0
LINE
  5
233
330
2
100
AcDbEntity
  8
画層1
 62
     0
100
AcDbLine
 10
246.92
 20
199.87
 30
0.0
 11
255.12
 21
199.87
 31
0.0
  0
LINE
  5
234
330
2
100
AcDbEntity
  8
画層1
 62
     0
100
AcDbLine
 10
246.92
 20
200.97
 30
0.0
 11
255.12
 21
200.97
 31
0.0
  0
ARC
  5
235
330
2
100
AcDbEntity
  8
画層1
 62
     0
100
AcDbCircle
 10
247.12
 20
199.67
 30
0.0
 40
0.2
100
AcDbArc
 50
90.0
 51
180.0
  0
LINE
  5
236
330
2
100
AcDbEntity
  8
画層1
 62
     0
100
AcDbLine
 10
249.42
 20
199.87
 30
0.0
 11
249.42
 21
197.56
 31
0.0
  0
ARC
  5
237
330
2
100
AcDbEntity
  8
画層1
 62
     0
100
AcDbCircle
 10
238.09
 20
196.02
 30
0.0
 40
11.44118730072772
100
AcDbArc
 50
4.26
 51
19.13
  0
LINE
  5
238
330
2
100
AcDbEntity
  8
画層1
 62
     0
100
AcDbLine
 10
249.49
 20
196.87
 30
0.0
 11
249.09
 21
196.87
 31
0.0
  0
ARC
  5
239
330
2
100
AcDbEntity
  8
画層1
 62
     0
100
AcDbCircle
 10
249.99
 20
198.69
 30
0.0
 40
0.5
100
AcDbArc
 50
81.47
 51
180.0
  0
LINE
  5
23A
330
2
100
AcDbEntity
  8
画層1
 62
     0
100
AcDbLine
 10
250.07
 20
199.18
 30
0.0
 11
250.89
 21
199.06
 31
0.0
  0
LINE
  5
23B
330
2
100
AcDbEntity
  8
画層1
 62
     0
100
AcDbLine
 10
249.09
 20
195.67
 30
0.0
 11
249.49
 21
195.67
 31
0.0
  0
LINE
  5
23C
330
2
100
AcDbEntity
  8
画層1
 62
     0
100
AcDbLine
 10
249.09
 20
196.87
 30
0.0
 11
249.09
 21
195.67
 31
0.0
  0
LINE
  5
23D
330
2
100
AcDbEntity
  8
画層1
 62
     0
100
AcDbLine
 10
250.99
 20
196.77
 30
0.0
 11
250.99
 21
195.77
 31
0.0
  0
LINE
  5
23E
330
2
100
AcDbEntity
  8
画層1
 62
     0
100
AcDbLine
 10
248.46
 20
197.07
 30
0.0
 11
247.89
 21
197.07
 31
0.0
  0
LINE
  5
23F
330
2
100
AcDbEntity
  8
画層1
 62
     0
100
AcDbLine
 10
248.46
 20
195.47
 30
0.0
 11
247.89
 21
195.47
 31
0.0
  0
ARC
  5
240
330
2
100
AcDbEntity
  8
画層1
 62
     0
100
AcDbCircle
 10
237.99
 20
196.27
 30
0.0
 40
10.50674104301654
100
AcDbArc
 50
4.37
 51
19.46
  0
LINE
  5
241
330
2
100
AcDbEntity
  8
画層1
 62
     0
100
AcDbLine
 10
246.92
 20
199.77
 30
0.0
 11
248.89
 21
199.77
 31
0.0
  0
ARC
  5
242
330
2
100
AcDbEntity
  8
画層1
 62
     0
100
AcDbCircle
 10
247.12
 20
201.17
 30
0.0
 40
0.2
100
AcDbArc
 50
180.0
 51
270.0
  0
LINE
  5
243
330
2
100
AcDbEntity
  8
画層1
 62
     0
100
AcDbLine
 10
249.49
 20
205.17
 30
0.0
 11
249.09
 21
205.17
 31
0.0
  0
ARC
  5
244
330
2
100
AcDbEntity
  8
画層1
 62
     0
100
AcDbCircle
 10
249.99
 20
202.15
 30
0.0
 40
0.5
100
AcDbArc
 50
180.0
 51
278.53
  0
ARC
  5
245
330
2
100
AcDbEntity
  8
画層1
 62
     0
100
AcDbCircle
 10
238.09
 20
204.82
 30
0.0
 40
11.44118729799424
100
AcDbArc
 50
340.87
 51
355.74
  0
LINE
  5
246
330
2
100
AcDbEntity
  8
画層1
 62
     0
100
AcDbLine
 10
249.09
 20
203.97
 30
0.0
 11
249.49
 21
203.97
 31
0.0
  0
LINE
  5
247
330
2
100
AcDbEntity
  8
画層1
 62
     0
100
AcDbLine
 10
250.07
 20
201.65
 30
0.0
 11
250.89
 21
201.78
 31
0.0
  0
LINE
  5
248
330
2
100
AcDbEntity
  8
画層1
 62
     0
100
AcDbLine
 10
249.09
 20
205.17
 30
0.0
 11
249.09
 21
203.97
 31
0.0
  0
LINE
  5
249
330
2
100
AcDbEntity
  8
画層1
 62
     0
100
AcDbLine
 10
250.99
 20
205.07
 30
0.0
 11
250.99
 21
204.07
 31
0.0
  0
LINE
  5
24A
330
2
100
AcDbEntity
  8
画層1
 62
     0
100
AcDbLine
 10
248.46
 20
205.37
 30
0.0
 11
247.89
 21
205.37
 31
0.0
  0
LINE
  5
24B
330
2
100
AcDbEntity
  8
画層1
 62
     0
100
AcDbLine
 10
248.46
 20
203.77
 30
0.0
 11
247.89
 21
203.77
 31
0.0
  0
LINE
  5
24C
330
2
100
AcDbEntity
  8
画層1
 62
     0
100
AcDbLine
 10
248.89
 20
201.07
 30
0.0
 11
246.92
 21
201.07
 31
0.0
  0
ARC
  5
24D
330
2
100
AcDbEntity
  8
画層1
 62
     0
100
AcDbCircle
 10
237.99
 20
204.57
 30
0.0
 40
10.50674104301654
100
AcDbArc
 50
340.54
 51
355.63
  0
LINE
  5
24E
330
2
100
AcDbEntity
  8
画層1
 62
     0
100
AcDbLine
 10
249.42
 20
203.27
 30
0.0
 11
249.42
 21
200.97
 31
0.0
  0
ARC
  5
24F
330
2
100
AcDbEntity
  8
画層1
 62
     0
100
AcDbCircle
 10
255.12
 20
200.67
 30
0.0
 40
0.3
100
AcDbArc
 50
0.0
 51
90.0
  0
ARC
  5
250
330
2
100
AcDbEntity
  8
画層1
 62
     0
100
AcDbCircle
 10
244.45
 20
196.27
 30
0.0
 40
7.540000001812724
100
AcDbArc
 50
3.8
 51
15.99
  0
ARC
  5
251
330
2
100
AcDbEntity
  8
画層1
 62
     0
100
AcDbCircle
 10
255.12
 20
200.17
 30
0.0
 40
0.3
100
AcDbArc
 50
270.0
 51
0.0
  0
LINE
  5
252
330
2
100
AcDbEntity
  8
画層1
 62
     0
100
AcDbLine
 10
255.42
 20
200.67
 30
0.0
 11
255.42
 21
200.17
 31
0.0
  0
ARC
  5
253
330
2
100
AcDbEntity
  8
画層1
 62
     0
100
AcDbCircle
 10
244.45
 20
204.57
 30
0.0
 40
7.540000001812724
100
AcDbArc
 50
344.01
 51
356.2
  0
LINE
  5
254
330
2
100
AcDbEntity
  8
画層1
 62
     0
100
AcDbLine
 10
251.98
 20
213.37
 30
0.0
 11
250.99
 21
213.37
 31
0.0
  0
ARC
  5
255
330
2
100
AcDbEntity
  8
画層1
 62
     0
100
AcDbCircle
 10
250.74
 20
214.67
 30
0.0
 40
1.0
100
AcDbArc
 50
15.99
 51
81.47
  0
ARC
  5
256
330
2
100
AcDbEntity
  8
画層1
 62
     0
100
AcDbCircle
 10
250.74
 20
211.06
 30
0.0
 40
1.0
100
AcDbArc
 50
278.53
 51
344.01
  0
LINE
  5
257
330
2
100
AcDbEntity
  8
画層1
 62
     0
100
AcDbLine
 10
250.99
 20
212.37
 30
0.0
 11
251.98
 21
212.37
 31
0.0
  0
ARC
  5
258
330
2
100
AcDbEntity
  8
画層1
 62
     0
100
AcDbCircle
 10
250.74
 20
206.37
 30
0.0
 40
1.0
100
AcDbArc
 50
15.99
 51
81.47
  0
LINE
  5
259
330
2
100
AcDbEntity
  8
画層1
 62
     0
100
AcDbLine
 10
246.92
 20
209.27
 30
0.0
 11
255.12
 21
209.27
 31
0.0
  0
LINE
  5
25A
330
2
100
AcDbEntity
  8
画層1
 62
     0
100
AcDbLine
 10
255.12
 20
208.17
 30
0.0
 11
246.92
 21
208.17
 31
0.0
  0
LINE
  5
25B
330
2
100
AcDbEntity
  8
画層1
 62
     0
100
AcDbLine
 10
246.92
 20
216.47
 30
0.0
 11
255.12
 21
216.47
 31
0.0
  0
LINE
  5
25C
330
2
100
AcDbEntity
  8
画層1
 62
     0
100
AcDbLine
 10
246.92
 20
217.57
 30
0.0
 11
255.12
 21
217.57
 31
0.0
  0
LINE
  5
25D
330
2
100
AcDbEntity
  8
画層1
 62
     0
100
AcDbLine
 10
246.92
 20
216.47
 30
0.0
 11
246.92
 21
209.27
 31
0.0
  0
LINE
  5
25E
330
2
100
AcDbEntity
  8
画層1
 62
     0
100
AcDbLine
 10
249.49
 20
215.29
 30
0.0
 11
249.49
 21
210.45
 31
0.0
  0
LINE
  5
25F
330
2
100
AcDbEntity
  8
画層1
 62
     0
100
AcDbLine
 10
247.39
 20
209.37
 30
0.0
 11
247.39
 21
216.37
 31
0.0
  0
LINE
  5
260
330
2
100
AcDbEntity
  8
画層1
 62
     0
100
AcDbLine
 10
247.89
 20
216.37
 30
0.0
 11
247.89
 21
209.37
 31
0.0
  0
LINE
  5
261
330
2
100
AcDbEntity
  8
画層1
 62
     0
100
AcDbLine
 10
249.09
 20
213.47
 30
0.0
 11
249.09
 21
212.27
 31
0.0
  0
ARC
  5
262
330
2
100
AcDbEntity
  8
画層1
 62
     0
100
AcDbCircle
 10
247.12
 20
207.97
 30
0.0
 40
0.2
100
AcDbArc
 50
90.0
 51
180.0
  0
ARC
  5
263
330
2
100
AcDbEntity
  8
画層1
 62
     0
100
AcDbCircle
 10
247.12
 20
209.47
 30
0.0
 40
0.2
100
AcDbArc
 50
180.0
 51
270.0
  0
ARC
  5
264
330
2
100
AcDbEntity
  8
画層1
 62
     0
100
AcDbCircle
 10
238.09
 20
213.12
 30
0.0
 40
11.44118729799424
100
AcDbArc
 50
340.87
 51
355.74
  0
ARC
  5
265
330
2
100
AcDbEntity
  8
画層1
 62
     0
100
AcDbCircle
 10
249.99
 20
210.45
 30
0.0
 40
0.5
100
AcDbArc
 50
180.0
 51
278.53
  0
LINE
  5
266
330
2
100
AcDbEntity
  8
画層1
 62
     0
100
AcDbLine
 10
250.07
 20
209.95
 30
0.0
 11
250.89
 21
210.08
 31
0.0
  0
ARC
  5
267
330
2
100
AcDbEntity
  8
画層1
 62
     0
100
AcDbCircle
 10
249.99
 20
206.99
 30
0.0
 40
0.5
100
AcDbArc
 50
81.47
 51
180.0
  0
LINE
  5
268
330
2
100
AcDbEntity
  8
画層1
 62
     0
100
AcDbLine
 10
250.07
 20
207.48
 30
0.0
 11
250.89
 21
207.36
 31
0.0
  0
LINE
  5
269
330
2
100
AcDbEntity
  8
画層1
 62
     0
100
AcDbLine
 10
249.09
 20
212.27
 30
0.0
 11
249.49
 21
212.27
 31
0.0
  0
LINE
  5
26A
330
2
100
AcDbEntity
  8
画層1
 62
     0
100
AcDbLine
 10
249.42
 20
211.57
 30
0.0
 11
249.42
 21
209.27
 31
0.0
  0
LINE
  5
26B
330
2
100
AcDbEntity
  8
画層1
 62
     0
100
AcDbLine
 10
248.46
 20
212.07
 30
0.0
 11
247.89
 21
212.07
 31
0.0
  0
ARC
  5
26C
330
2
100
AcDbEntity
  8
画層1
 62
     0
100
AcDbCircle
 10
237.99
 20
212.87
 30
0.0
 40
10.50674104301654
100
AcDbArc
 50
340.54
 51
355.63
  0
LINE
  5
26D
330
2
100
AcDbEntity
  8
画層1
 62
     0
100
AcDbLine
 10
248.89
 20
209.37
 30
0.0
 11
246.92
 21
209.37
 31
0.0
  0
LINE
  5
26E
330
2
100
AcDbEntity
  8
画層1
 62
     0
100
AcDbLine
 10
246.92
 20
208.07
 30
0.0
 11
248.89
 21
208.07
 31
0.0
  0
ARC
  5
26F
330
2
100
AcDbEntity
  8
画層1
 62
     0
100
AcDbCircle
 10
247.12
 20
216.27
 30
0.0
 40
0.2
100
AcDbArc
 50
90.0
 51
180.0
  0
ARC
  5
270
330
2
100
AcDbEntity
  8
画層1
 62
     0
100
AcDbCircle
 10
247.12
 20
217.77
 30
0.0
 40
0.2
100
AcDbArc
 50
180.0
 51
270.0
  0
ARC
  5
271
330
2
100
AcDbEntity
  8
画層1
 62
     0
100
AcDbCircle
 10
243.92
 20
214.77
 30
0.0
 40
1.0
100
AcDbArc
 50
0.0
 51
90.0
  0
LINE
  5
272
330
2
100
AcDbEntity
  8
画層1
 62
     0
100
AcDbLine
 10
249.42
 20
216.47
 30
0.0
 11
249.42
 21
214.16
 31
0.0
  0
ARC
  5
273
330
2
100
AcDbEntity
  8
画層1
 62
     0
100
AcDbCircle
 10
238.09
 20
212.62
 30
0.0
 40
11.44118730072772
100
AcDbArc
 50
4.26
 51
19.13
  0
LINE
  5
274
330
2
100
AcDbEntity
  8
画層1
 62
     0
100
AcDbLine
 10
249.49
 20
213.47
 30
0.0
 11
249.09
 21
213.47
 31
0.0
  0
ARC
  5
275
330
2
100
AcDbEntity
  8
画層1
 62
     0
100
AcDbCircle
 10
249.99
 20
215.29
 30
0.0
 40
0.5
100
AcDbArc
 50
81.47
 51
180.0
  0
LINE
  5
276
330
2
100
AcDbEntity
  8
画層1
 62
     0
100
AcDbLine
 10
250.07
 20
215.78
 30
0.0
 11
250.89
 21
215.66
 31
0.0
  0
LINE
  5
277
330
2
100
AcDbEntity
  8
画層1
 62
     0
100
AcDbLine
 10
248.46
 20
213.67
 30
0.0
 11
247.89
 21
213.67
 31
0.0
  0
ARC
  5
278
330
2
100
AcDbEntity
  8
画層1
 62
     0
100
AcDbCircle
 10
237.99
 20
212.87
 30
0.0
 40
10.50674104301654
100
AcDbArc
 50
4.37
 51
19.46
  0
LINE
  5
279
330
2
100
AcDbEntity
  8
画層1
 62
     0
100
AcDbLine
 10
246.92
 20
216.37
 30
0.0
 11
248.89
 21
216.37
 31
0.0
  0
LINE
  5
27A
330
2
100
AcDbEntity
  8
画層1
 62
     0
100
AcDbLine
 10
248.89
 20
217.67
 30
0.0
 11
246.92
 21
217.67
 31
0.0
  0
LINE
  5
27B
330
2
100
AcDbEntity
  8
画層1
 62
     0
100
AcDbLine
 10
250.99
 20
213.37
 30
0.0
 11
250.99
 21
212.37
 31
0.0
  0
ARC
  5
27C
330
2
100
AcDbEntity
  8
画層1
 62
     0
100
AcDbCircle
 10
244.45
 20
212.87
 30
0.0
 40
7.540000001812724
100
AcDbArc
 50
344.01
 51
356.2
  0
ARC
  5
27D
330
2
100
AcDbEntity
  8
画層1
 62
     0
100
AcDbCircle
 10
255.12
 20
208.47
 30
0.0
 40
0.3
100
AcDbArc
 50
270.0
 51
0.0
  0
ARC
  5
27E
330
2
100
AcDbEntity
  8
画層1
 62
     0
100
AcDbCircle
 10
255.12
 20
208.97
 30
0.0
 40
0.3
100
AcDbArc
 50
0.0
 51
90.0
  0
LINE
  5
27F
330
2
100
AcDbEntity
  8
画層1
 62
     0
100
AcDbLine
 10
255.42
 20
208.97
 30
0.0
 11
255.42
 21
208.47
 31
0.0
  0
ARC
  5
280
330
2
100
AcDbEntity
  8
画層1
 62
     0
100
AcDbCircle
 10
244.45
 20
212.87
 30
0.0
 40
7.540000001812724
100
AcDbArc
 50
3.8
 51
15.99
  0
ARC
  5
281
330
2
100
AcDbEntity
  8
画層1
 62
     0
100
AcDbCircle
 10
255.12
 20
216.77
 30
0.0
 40
0.3
100
AcDbArc
 50
270.0
 51
0.0
  0
ARC
  5
282
330
2
100
AcDbEntity
  8
画層1
 62
     0
100
AcDbCircle
 10
255.12
 20
217.27
 30
0.0
 40
0.3
100
AcDbArc
 50
0.0
 51
90.0
  0
LINE
  5
283
330
2
100
AcDbEntity
  8
画層1
 62
     0
100
AcDbLine
 10
255.42
 20
217.27
 30
0.0
 11
255.42
 21
216.77
 31
0.0
  0
LINE
  5
284
330
2
100
AcDbEntity
  8
画層1
 62
     0
100
AcDbLine
 10
246.92
 20
230.07
 30
0.0
 11
246.92
 21
226.57
 31
0.0
  0
LINE
  5
285
330
2
100
AcDbEntity
  8
画層1
 62
     0
100
AcDbLine
 10
246.92
 20
227.97
 30
0.0
 11
251.02
 21
227.97
 31
0.0
  0
ARC
  5
286
330
2
100
AcDbEntity
  8
画層1
 62
     0
100
AcDbCircle
 10
250.74
 20
222.97
 30
0.0
 40
1.0
100
AcDbArc
 50
15.99
 51
81.47
  0
LINE
  5
287
330
2
100
AcDbEntity
  8
画層1
 62
     0
100
AcDbLine
 10
251.98
 20
221.67
 30
0.0
 11
250.99
 21
221.67
 31
0.0
  0
LINE
  5
288
330
2
100
AcDbEntity
  8
画層1
 62
     0
100
AcDbLine
 10
250.99
 20
220.67
 30
0.0
 11
251.98
 21
220.67
 31
0.0
  0
LINE
  5
289
330
2
100
AcDbEntity
  8
画層1
 62
     0
100
AcDbLine
 10
255.12
 20
224.77
 30
0.0
 11
246.92
 21
224.77
 31
0.0
  0
ARC
  5
28A
330
2
100
AcDbEntity
  8
画層1
 62
     0
100
AcDbCircle
 10
250.74
 20
219.36
 30
0.0
 40
1.0
100
AcDbArc
 50
278.53
 51
344.01
  0
LINE
  5
28B
330
2
100
AcDbEntity
  8
画層1
 62
     0
100
AcDbLine
 10
249.42
 20
224.77
 30
0.0
 11
249.42
 21
222.46
 31
0.0
  0
ARC
  5
28C
330
2
100
AcDbEntity
  8
画層1
 62
     0
100
AcDbCircle
 10
238.09
 20
220.92
 30
0.0
 40
11.44118730072772
100
AcDbArc
 50
4.26
 51
19.13
  0
ARC
  5
28D
330
2
100
AcDbEntity
  8
画層1
 62
     0
100
AcDbCircle
 10
237.99
 20
221.17
 30
0.0
 40
10.50674104301654
100
AcDbArc
 50
4.37
 51
19.46
  0
ARC
  5
28E
330
2
100
AcDbEntity
  8
画層1
 62
     0
100
AcDbCircle
 10
249.99
 20
223.59
 30
0.0
 40
0.5
100
AcDbArc
 50
81.47
 51
180.0
  0
LINE
  5
28F
330
2
100
AcDbEntity
  8
画層1
 62
     0
100
AcDbLine
 10
249.49
 20
223.59
 30
0.0
 11
249.49
 21
218.75
 31
0.0
  0
LINE
  5
290
330
2
100
AcDbEntity
  8
画層1
 62
     0
100
AcDbLine
 10
249.49
 20
221.77
 30
0.0
 11
249.09
 21
221.77
 31
0.0
  0
LINE
  5
291
330
2
100
AcDbEntity
  8
画層1
 62
     0
100
AcDbLine
 10
249.09
 20
220.57
 30
0.0
 11
249.49
 21
220.57
 31
0.0
  0
LINE
  5
292
330
2
100
AcDbEntity
  8
画層1
 62
     0
100
AcDbLine
 10
249.09
 20
221.77
 30
0.0
 11
249.09
 21
220.57
 31
0.0
  0
LINE
  5
293
330
2
100
AcDbEntity
  8
画層1
 62
     0
100
AcDbLine
 10
250.99
 20
221.67
 30
0.0
 11
250.99
 21
220.67
 31
0.0
  0
LINE
  5
294
330
2
100
AcDbEntity
  8
画層1
 62
     0
100
AcDbLine
 10
248.46
 20
221.97
 30
0.0
 11
247.89
 21
221.97
 31
0.0
  0
LINE
  5
295
330
2
100
AcDbEntity
  8
画層1
 62
     0
100
AcDbLine
 10
248.46
 20
220.37
 30
0.0
 11
247.89
 21
220.37
 31
0.0
  0
LINE
  5
296
330
2
100
AcDbEntity
  8
画層1
 62
     0
100
AcDbLine
 10
250.07
 20
218.25
 30
0.0
 11
250.89
 21
218.38
 31
0.0
  0
ARC
  5
297
330
2
100
AcDbEntity
  8
画層1
 62
     0
100
AcDbCircle
 10
249.99
 20
218.75
 30
0.0
 40
0.5
100
AcDbArc
 50
180.0
 51
278.53
  0
ARC
  5
298
330
2
100
AcDbEntity
  8
画層1
 62
     0
100
AcDbCircle
 10
247.12
 20
224.57
 30
0.0
 40
0.2
100
AcDbArc
 50
90.0
 51
180.0
  0
ARC
  5
299
330
2
100
AcDbEntity
  8
画層1
 62
     0
100
AcDbCircle
 10
244.42
 20
224.27
 30
0.0
 40
1.0
100
AcDbArc
 50
0.0
 51
90.0
  0
LINE
  5
29A
330
2
100
AcDbEntity
  8
画層1
 62
     0
100
AcDbLine
 10
246.92
 20
224.67
 30
0.0
 11
248.89
 21
224.67
 31
0.0
  0
LINE
  5
29B
330
2
100
AcDbEntity
  8
画層1
 62
     0
100
AcDbLine
 10
250.07
 20
224.08
 30
0.0
 11
250.89
 21
223.96
 31
0.0
  0
ARC
  5
29C
330
2
100
AcDbEntity
  8
画層1
 62
     0
100
AcDbCircle
 10
244.45
 20
221.17
 30
0.0
 40
7.540000001812724
100
AcDbArc
 50
3.8
 51
15.99
  0
ARC
  5
29D
330
2
100
AcDbEntity
  8
画層1
 62
     0
100
AcDbCircle
 10
244.45
 20
221.17
 30
0.0
 40
7.540000001812724
100
AcDbArc
 50
344.01
 51
356.2
  0
ARC
  5
29E
330
2
100
AcDbEntity
  8
画層1
 62
     0
100
AcDbCircle
 10
254.72
 20
227.07
 30
0.0
 40
0.7
100
AcDbArc
 50
0.0
 51
90.0
  0
LINE
  5
29F
330
2
100
AcDbEntity
  8
画層1
 62
     0
100
AcDbLine
 10
251.02
 20
227.97
 30
0.0
 11
251.02
 21
227.77
 31
0.0
  0
LINE
  5
2A0
330
2
100
AcDbEntity
  8
画層1
 62
     0
100
AcDbLine
 10
251.02
 20
227.77
 30
0.0
 11
254.72
 21
227.77
 31
0.0
  0
ARC
  5
2A1
330
2
100
AcDbEntity
  8
画層1
 62
     0
100
AcDbCircle
 10
255.12
 20
225.07
 30
0.0
 40
0.3
100
AcDbArc
 50
270.0
 51
0.0
  0
LINE
  5
2A2
330
2
100
AcDbEntity
  8
画層1
 62
     0
100
AcDbLine
 10
255.42
 20
227.07
 30
0.0
 11
255.42
 21
225.07
 31
0.0
  0
ENDSEC
  0
SECTION
  2
OBJECTS
  0
DICTIONARY
  5
7
330
0
100
AcDbDictionary
281
     1
  3
ACAD_GROUP
350
1F
  3
ACAD_LAYOUT
350
B
  3
ACAD_MLINESTYLE
350
20
  3
ACAD_PLOTSETTINGS
350
21
  3
ACAD_PLOTSTYLENAME
350
6
  0
DICTIONARY
  5
1F
102
{ACAD_REACTORS
330
7
102
}
330
7
100
AcDbDictionary
281
     1
  0
DICTIONARY
  5
B
102
{ACAD_REACTORS
330
7
102
}
330
7
100
AcDbDictionary
281
     1
  3
Model
350
A
  3
ﾚｲｱｳﾄ1
350
F
  0
DICTIONARY
  5
20
102
{ACAD_REACTORS
330
7
102
}
330
7
100
AcDbDictionary
281
     1
  3
STANDARD
350
2A
  0
DICTIONARY
  5
21
102
{ACAD_REACTORS
330
7
102
}
330
7
100
AcDbDictionary
281
     1
  0
ACDBDICTIONARYWDFLT
  5
6
102
{ACAD_REACTORS
330
7
102
}
330
7
100
AcDbDictionary
281
     1
  3
Normal
350
5
100
AcDbDictionaryWithDefault
340
5
  0
LAYOUT
  5
A
102
{ACAD_REACTORS
330
B
102
}
330
B
100
AcDbPlotSettings
  1

  2
Canon LBP-740
  4
A3
  6

 40
5.87
 41
6.04
 42
5.87
 43
5.87
 44
296.93
 45
420.12
 46
0.0
 47
0.0
 48
0.0
 49
0.0
140
0.0
141
0.0
142
1.0
143
1.0
 70
 11952
 72
     1
 73
     1
 74
     1
  7
ryu.ctb
 75
    16
147
1.0
148
0.01
149
0.01
100
AcDbLayout
  1
Model
 70
     1
 71
     0
 10
0.0
 20
0.0
 11
12.0
 21
9.0
 12
0.0
 22
0.0
 32
0.0
 14
0.0
 24
0.0
 34
0.0
 15
0.0
 25
0.0
 35
0.0
146
0.0
 13
0.0
 23
0.0
 33
0.0
 16
1.0
 26
0.0
 36
0.0
 17
0.0
 27
1.0
 37
0.0
 76
     0
330
2
  0
LAYOUT
  5
F
102
{ACAD_REACTORS
330
B
102
}
330
B
100
AcDbPlotSettings
  1

  2
Canon LASER SHOT LBP-740
  4

  6

 40
0.0
 41
0.0
 42
0.0
 43
0.0
 44
0.0
 45
0.0
 46
0.0
 47
0.0
 48
0.0
 49
0.0
140
0.0
141
0.0
142
1.0
143
1.0
 70
   688
 72
     0
 73
     0
 74
     5
  7
ryu.ctb
 75
    16
147
1.0
148
0.0
149
0.0
100
AcDbLayout
  1
ﾚｲｱｳﾄ1
 70
     1
 71
     1
 10
0.0
 20
0.0
 11
420.0
 21
297.0
 12
0.0
 22
0.0
 32
0.0
 14
1.00E+20
 24
1.00E+20
 34
1.00E+20
 15
-1.00E+20
 25
-1.00E+20
 35
-1.00E+20
146
0.0
 13
0.0
 23
0.0
 33
0.0
 16
1.0
 26
0.0
 36
0.0
 17
0.0
 27
1.0
 37
0.0
 76
     0
330
C
  0
MLINESTYLE
  5
2A
102
{ACAD_REACTORS
330
20
102
}
330
20
100
AcDbMlineStyle
  2
STANDARD
 70
     0
  3

 62
   256
 51
90.0
 52
90.0
 71
     2
 49
0.5
 62
   256
  6
BYLAYER
 49
-0.5
 62
   256
  6
BYLAYER
  0
ACDBPLACEHOLDER
  5
5
102
{ACAD_REACTORS
330
6
102
}
330
6
  0
ENDSEC
  0
EOF
