  0
SECTION
  2
HEADER
  9
$ACADVER
  1
AC1015
  9
$ACADMAINTVER
 70
     6
  9
$DWGCODEPAGE
  3
ANSI_932
  9
$INSBASE
 10
0.0
 20
0.0
 30
0.0
  9
$EXTMIN
 10
52.5
 20
16.0
 30
-0.00000001
  9
$EXTMAX
 10
267.0
 20
261.4218781725888
 30
0.00000001
  9
$LIMMIN
 10
0.0
 20
0.0
  9
$LIMMAX
 10
420.0
 20
297.0
  9
$ORTHOMODE
 70
     0
  9
$REGENMODE
 70
     1
  9
$FILLMODE
 70
     1
  9
$QTEXTMODE
 70
     0
  9
$MIRRTEXT
 70
     1
  9
$LTSCALE
 40
0.2
  9
$ATTMODE
 70
     1
  9
$TEXTSIZE
 40
2.5
  9
$TRACEWID
 40
1.0
  9
$TEXTSTYLE
  7
STYLE1
  9
$CLAYER
  8
画層1
  9
$CELTYPE
  6
BYLAYER
  9
$CECOLOR
 62
     1
  9
$CELTSCALE
 40
1.0
  9
$DISPSILH
 70
     0
  9
$DIMSCALE
 40
1.0
  9
$DIMASZ
 40
1.5
  9
$DIMEXO
 40
0.63
  9
$DIMDLI
 40
3.75
  9
$DIMRND
 40
0.0
  9
$DIMDLE
 40
0.0
  9
$DIMEXE
 40
1.25
  9
$DIMTP
 40
0.6
  9
$DIMTM
 40
0.0
  9
$DIMTXT
 40
2.5
  9
$DIMCEN
 40
2.5
  9
$DIMTSZ
 40
0.0
  9
$DIMTOL
 70
     0
  9
$DIMLIM
 70
     0
  9
$DIMTIH
 70
     0
  9
$DIMTOH
 70
     0
  9
$DIMSE1
 70
     0
  9
$DIMSE2
 70
     0
  9
$DIMTAD
 70
     1
  9
$DIMZIN
 70
     8
  9
$DIMBLK
  1

  9
$DIMASO
 70
     1
  9
$DIMSHO
 70
     1
  9
$DIMPOST
  1

  9
$DIMAPOST
  1

  9
$DIMALT
 70
     0
  9
$DIMALTD
 70
     4
  9
$DIMALTF
 40
0.04
  9
$DIMLFAC
 40
1.0
  9
$DIMTOFL
 70
     1
  9
$DIMTVP
 40
0.0
  9
$DIMTIX
 70
     0
  9
$DIMSOXD
 70
     0
  9
$DIMSAH
 70
     1
  9
$DIMBLK1
  1
OPEN
  9
$DIMBLK2
  1
OPEN
  9
$DIMSTYLE
  2
STANDARD_WS
  9
$DIMCLRD
 70
     0
  9
$DIMCLRE
 70
     0
  9
$DIMCLRT
 70
     0
  9
$DIMTFAC
 40
0.5
  9
$DIMGAP
 40
0.63
  9
$DIMJUST
 70
     0
  9
$DIMSD1
 70
     0
  9
$DIMSD2
 70
     0
  9
$DIMTOLJ
 70
     1
  9
$DIMTZIN
 70
     8
  9
$DIMALTZ
 70
     0
  9
$DIMALTTZ
 70
     0
  9
$DIMUPT
 70
     0
  9
$DIMDEC
 70
     4
  9
$DIMTDEC
 70
     4
  9
$DIMALTU
 70
     8
  9
$DIMALTTD
 70
     4
  9
$DIMTXSTY
  7
STYLE1
  9
$DIMAUNIT
 70
     0
  9
$DIMADEC
 70
     0
  9
$DIMALTRND
 40
0.0
  9
$DIMAZIN
 70
     0
  9
$DIMDSEP
 70
    46
  9
$DIMATFIT
 70
     3
  9
$DIMFRAC
 70
     0
  9
$DIMLDRBLK
  1
OPEN
  9
$DIMLUNIT
 70
     2
  9
$DIMLWD
 70
    -2
  9
$DIMLWE
 70
    -2
  9
$DIMTMOVE
 70
     0
  9
$LUNITS
 70
     2
  9
$LUPREC
 70
     4
  9
$SKETCHINC
 40
1.0
  9
$FILLETRAD
 40
1.0
  9
$AUNITS
 70
     0
  9
$AUPREC
 70
     0
  9
$MENU
  1
acad
  9
$ELEVATION
 40
0.0
  9
$PELEVATION
 40
0.0
  9
$THICKNESS
 40
0.0
  9
$LIMCHECK
 70
     0
  9
$CHAMFERA
 40
10.0
  9
$CHAMFERB
 40
10.0
  9
$CHAMFERC
 40
20.0
  9
$CHAMFERD
 40
0.0
  9
$SKPOLY
 70
     0
  9
$TDCREATE
 40
2450995.462150231
  9
$TDUCREATE
 40
2450995.087150231
  9
$TDUPDATE
 40
2451964.751085069
  9
$TDUUPDATE
 40
2451964.376085069
  9
$TDINDWG
 40
1.1928822917
  9
$TDUSRTIMER
 40
1.1928817130
  9
$USRTIMER
 70
     1
  9
$ANGBASE
 50
0.0
  9
$ANGDIR
 70
     0
  9
$PDMODE
 70
     0
  9
$PDSIZE
 40
0.0
  9
$PLINEWID
 40
10.0
  9
$SPLFRAME
 70
     0
  9
$SPLINETYPE
 70
     6
  9
$SPLINESEGS
 70
     8
  9
$HANDSEED
  5
37C
  9
$SURFTAB1
 70
     6
  9
$SURFTAB2
 70
     6
  9
$SURFTYPE
 70
     6
  9
$SURFU
 70
     6
  9
$SURFV
 70
     6
  9
$UCSBASE
  2

  9
$UCSNAME
  2

  9
$UCSORG
 10
0.0
 20
0.0
 30
0.0
  9
$UCSXDIR
 10
1.0
 20
0.0
 30
0.0
  9
$UCSYDIR
 10
0.0
 20
1.0
 30
0.0
  9
$UCSORTHOREF
  2

  9
$UCSORTHOVIEW
 70
     0
  9
$UCSORGTOP
 10
0.0
 20
0.0
 30
0.0
  9
$UCSORGBOTTOM
 10
0.0
 20
0.0
 30
0.0
  9
$UCSORGLEFT
 10
0.0
 20
0.0
 30
0.0
  9
$UCSORGRIGHT
 10
0.0
 20
0.0
 30
0.0
  9
$UCSORGFRONT
 10
0.0
 20
0.0
 30
0.0
  9
$UCSORGBACK
 10
0.0
 20
0.0
 30
0.0
  9
$PUCSBASE
  2

  9
$PUCSNAME
  2

  9
$PUCSORG
 10
0.0
 20
0.0
 30
0.0
  9
$PUCSXDIR
 10
1.0
 20
0.0
 30
0.0
  9
$PUCSYDIR
 10
0.0
 20
1.0
 30
0.0
  9
$PUCSORTHOREF
  2

  9
$PUCSORTHOVIEW
 70
     0
  9
$PUCSORGTOP
 10
0.0
 20
0.0
 30
0.0
  9
$PUCSORGBOTTOM
 10
0.0
 20
0.0
 30
0.0
  9
$PUCSORGLEFT
 10
0.0
 20
0.0
 30
0.0
  9
$PUCSORGRIGHT
 10
0.0
 20
0.0
 30
0.0
  9
$PUCSORGFRONT
 10
0.0
 20
0.0
 30
0.0
  9
$PUCSORGBACK
 10
0.0
 20
0.0
 30
0.0
  9
$USERI1
 70
     0
  9
$USERI2
 70
     0
  9
$USERI3
 70
     0
  9
$USERI4
 70
     0
  9
$USERI5
 70
     0
  9
$USERR1
 40
0.0
  9
$USERR2
 40
0.0
  9
$USERR3
 40
0.0
  9
$USERR4
 40
0.0
  9
$USERR5
 40
0.0
  9
$WORLDVIEW
 70
     1
  9
$SHADEDGE
 70
     3
  9
$SHADEDIF
 70
    70
  9
$TILEMODE
 70
     1
  9
$MAXACTVP
 70
    48
  9
$PINSBASE
 10
0.0
 20
0.0
 30
0.0
  9
$PLIMCHECK
 70
     0
  9
$PEXTMIN
 10
1.000000000000000E+20
 20
1.000000000000000E+20
 30
1.000000000000000E+20
  9
$PEXTMAX
 10
-1.000000000000000E+20
 20
-1.000000000000000E+20
 30
-1.000000000000000E+20
  9
$PLIMMIN
 10
0.0
 20
0.0
  9
$PLIMMAX
 10
420.0
 20
297.0
  9
$UNITMODE
 70
     0
  9
$VISRETAIN
 70
     1
  9
$PLINEGEN
 70
     0
  9
$PSLTSCALE
 70
     1
  9
$TREEDEPTH
 70
  3020
  9
$CMLSTYLE
  2
STANDARD
  9
$CMLJUST
 70
     0
  9
$CMLSCALE
 40
20.0
  9
$PROXYGRAPHICS
 70
     1
  9
$MEASUREMENT
 70
     1
  9
$CELWEIGHT
370
    -1
  9
$ENDCAPS
280
     0
  9
$JOINSTYLE
280
     0
  9
$LWDISPLAY
290
     0
  9
$INSUNITS
 70
     0
  9
$HYPERLINKBASE
  1

  9
$STYLESHEET
  1

  9
$XEDIT
290
     1
  9
$CEPSNTYPE
380
     0
  9
$PSTYLEMODE
290
     1
  9
$FINGERPRINTGUID
  2
{128F3933-9681-11D3-A790-004026173390}
  9
$VERSIONGUID
  2
{45B34167-09AF-11D5-8D55-0060949B1DAC}
  9
$EXTNAMES
290
     1
  9
$PSVPSCALE
 40
0.0
  9
$OLESTARTUP
290
     0
  0
ENDSEC
  0
SECTION
  2
CLASSES
  0
CLASS
  1
DICTIONARYVAR
  2
AcDbDictionaryVar
  3
AutoCAD 2000
 90
    32768
280
     0
281
     0
  0
CLASS
  1
LWPOLYLINE
  2
AcDbPolyline
  3
AutoCAD 2000
 90
    32768
280
     0
281
     1
  0
CLASS
  1
OLE2FRAME
  2
AcDbOle2Frame
  3
AutoCAD 2000
 90
    32768
280
     0
281
     1
  0
CLASS
  1
HATCH
  2
AcDbHatch
  3
AutoCAD 2000
 90
    32768
280
     0
281
     1
  0
CLASS
  1
ACDBDICTIONARYWDFLT
  2
AcDbDictionaryWithDefault
  3
AutoCAD 2000
 90
        0
280
     0
281
     0
  0
CLASS
  1
ACDBPLACEHOLDER
  2
AcDbPlaceHolder
  3
AutoCAD 2000
 90
        0
280
     0
281
     0
  0
CLASS
  1
LAYOUT
  2
AcDbLayout
  3
AutoCAD 2000
 90
        0
280
     0
281
     0
  0
CLASS
  1
LONG_TRANSACTION
  2
AcDbLongTransaction
  3
AutoCAD 2000
 90
    32768
280
     0
281
     0
  0
CLASS
  1
LWPOLYLINE
  2
AcDbPolyline
  3
AutoCAD 2000
 90
    32768
280
     0
281
     1
  0
CLASS
  1
HATCH
  2
AcDbHatch
  3
AutoCAD 2000
 90
    32768
280
     0
281
     1
  0
CLASS
  1
XRECORD
  2
AcDbXrecord
  3
AutoCAD 2000
 90
    32768
280
     0
281
     0
  0
CLASS
  1
LONG_TRANSACTION
  2
AcDbLongTransaction
  3
AutoCAD 2000
 90
    32768
280
     0
281
     0
  0
CLASS
  1
LWPOLYLINE
  2
AcDbPolyline
  3
AutoCAD 2000
 90
    32768
280
     0
281
     1
  0
CLASS
  1
HATCH
  2
AcDbHatch
  3
AutoCAD 2000
 90
    32768
280
     0
281
     1
  0
CLASS
  1
XRECORD
  2
AcDbXrecord
  3
AutoCAD 2000
 90
    32768
280
     0
281
     0
  0
ENDSEC
  0
SECTION
  2
TABLES
  0
TABLE
  2
VPORT
  5
1E
330
0
100
AcDbSymbolTable
 70
     2
  0
VPORT
  5
37B
330
1E
100
AcDbSymbolTableRecord
100
AcDbViewportTableRecord
  2
*Active
 70
     0
 10
0.0
 20
0.0
 11
1.0
 21
1.0
 12
180.9499999999999
 22
155.8756752411575
 13
0.0
 23
0.0
 14
1.0
 24
1.0
 15
2.0
 25
2.0
 16
0.0
 26
0.0
 36
1.0
 17
0.0
 27
0.0
 37
0.0
 40
344.401350482315
 41
1.840236686390532
 42
50.0
 43
0.0
 44
0.0
 50
0.0
 51
0.0
 71
     0
 72
   100
 73
     1
 74
     1
 75
     0
 76
     0
 77
     0
 78
     0
281
     0
 65
     1
110
0.0
120
0.0
130
0.0
111
1.0
121
0.0
131
0.0
112
0.0
122
1.0
132
0.0
 79
     0
146
0.0
  0
ENDTAB
  0
TABLE
  2
LTYPE
  5
19
330
0
100
AcDbSymbolTable
 70
     2
  0
LTYPE
  5
1A
330
19
100
AcDbSymbolTableRecord
100
AcDbLinetypeTableRecord
  2
BYBLOCK
 70
     0
  3

 72
    65
 73
     0
 40
0.0
  0
LTYPE
  5
1B
330
19
100
AcDbSymbolTableRecord
100
AcDbLinetypeTableRecord
  2
BYLAYER
 70
     0
  3

 72
    65
 73
     0
 40
0.0
  0
LTYPE
  5
A
330
19
100
AcDbSymbolTableRecord
100
AcDbLinetypeTableRecord
  2
CONTINUOUS
 70
     0
  3
Solid line
 72
    65
 73
     0
 40
0.0
  0
LTYPE
  5
3E
330
19
100
AcDbSymbolTableRecord
100
AcDbLinetypeTableRecord
  2
CENTER
 70
     0
  3
Center ____ _ ____ _ ____ _ ____ _ ____ _ ____
 72
    65
 73
     4
 40
50.8
 49
31.75
 74
     0
 49
-6.349999999999999
 74
     0
 49
6.349999999999999
 74
     0
 49
-6.349999999999999
 74
     0
  0
ENDTAB
  0
TABLE
  2
LAYER
  5
14
330
0
100
AcDbSymbolTable
 70
     3
  0
LAYER
  5
6
330
14
100
AcDbSymbolTableRecord
100
AcDbLayerTableRecord
  2
0
 70
     0
 62
     7
  6
CONTINUOUS
370
    -3
390
7
  0
LAYER
  5
48
330
14
100
AcDbSymbolTableRecord
100
AcDbLayerTableRecord
  2
DEFPOINTS
 70
     0
 62
     7
  6
CONTINUOUS
290
     0
370
    -3
390
7
  0
LAYER
  5
26
330
14
100
AcDbSymbolTableRecord
100
AcDbLayerTableRecord
  2
画層1
 70
     0
 62
     7
  6
CONTINUOUS
370
    -3
390
7
  0
ENDTAB
  0
TABLE
  2
STYLE
  5
15
330
0
100
AcDbSymbolTable
 70
     2
  0
STYLE
  5
16
330
15
100
AcDbSymbolTableRecord
100
AcDbTextStyleTableRecord
  2
STANDARD
 70
     0
 40
2.5
 41
1.0
 50
0.0
 71
     0
 42
1.5
  3
MS PMincho.ttf
  4

1001
ACAD
1000
MS PMincho
1071
    32786
  0
STYLE
  5
27
330
15
100
AcDbSymbolTableRecord
100
AcDbTextStyleTableRecord
  2
STYLE1
 70
     0
 40
2.5
 41
1.0
 50
0.0
 71
     0
 42
2.5
  3
MS Gothic.ttf
  4

1001
ACAD
1000
MS Gothic
1071
    32817
  0
ENDTAB
  0
TABLE
  2
VIEW
  5
1C
330
0
100
AcDbSymbolTable
 70
     0
  0
ENDTAB
  0
TABLE
  2
UCS
  5
1D
330
0
100
AcDbSymbolTable
 70
     0
  0
ENDTAB
  0
TABLE
  2
APPID
  5
20
330
0
100
AcDbSymbolTable
 70
     1
  0
APPID
  5
17
330
20
100
AcDbSymbolTableRecord
100
AcDbRegAppTableRecord
  2
ACAD
 70
     0
  0
ENDTAB
  0
TABLE
  2
DIMSTYLE
  5
21
330
0
100
AcDbSymbolTable
 70
     1
100
AcDbDimStyleTable
 71
     0
  0
DIMSTYLE
105
2F
102
{ACAD_REACTORS
330
DB
330
187
330
4D
330
3F
330
78
330
96
330
66
102
}
330
21
100
AcDbSymbolTableRecord
100
AcDbDimStyleTableRecord
  2
STANDARD_WS
 70
     0
 41
1.5
 42
0.63
 43
3.75
 44
1.25
 73
     0
 74
     0
 77
     1
 78
     8
140
2.5
141
2.5
143
0.04
147
0.63
171
     4
172
     1
173
     1
273
     8
274
     4
340
16
341
28
343
28
344
28
  0
ENDTAB
  0
TABLE
  2
BLOCK_RECORD
  5
1
330
0
100
AcDbSymbolTable
 70
    15
  0
BLOCK_RECORD
  5
2
102
{ACAD_XDICTIONARY
360
3
102
}
330
1
100
AcDbSymbolTableRecord
100
AcDbBlockTableRecord
  2
*MODEL_SPACE
340
324
  0
BLOCK_RECORD
  5
E
102
{ACAD_XDICTIONARY
360
F
102
}
330
1
100
AcDbSymbolTableRecord
100
AcDbBlockTableRecord
  2
*PAPER_SPACE
340
325
  0
BLOCK_RECORD
  5
28
330
1
100
AcDbSymbolTableRecord
100
AcDbBlockTableRecord
  2
_OPEN
340
0
102
{BLKREFS
331
E0
331
E1
331
6B
331
6C
331
18C
331
18D
331
51
331
52
331
44
331
45
331
7D
331
7E
331
9B
331
9C
331
31A
331
31B
331
32C
331
32D
331
336
331
337
331
342
331
343
331
34E
331
34F
331
35A
331
35B
331
366
331
367
331
372
331
373
102
}
  0
BLOCK_RECORD
  5
DC
330
1
100
AcDbSymbolTableRecord
100
AcDbBlockTableRecord
  2
*D1
340
0
  0
BLOCK_RECORD
  5
67
330
1
100
AcDbSymbolTableRecord
100
AcDbBlockTableRecord
  2
*D2
340
0
  0
BLOCK_RECORD
  5
188
330
1
100
AcDbSymbolTableRecord
100
AcDbBlockTableRecord
  2
*D3
340
0
  0
BLOCK_RECORD
  5
4E
330
1
100
AcDbSymbolTableRecord
100
AcDbBlockTableRecord
  2
*D4
340
0
  0
BLOCK_RECORD
  5
40
330
1
100
AcDbSymbolTableRecord
100
AcDbBlockTableRecord
  2
*D5
340
0
  0
BLOCK_RECORD
  5
79
330
1
100
AcDbSymbolTableRecord
100
AcDbBlockTableRecord
  2
*D6
340
0
  0
BLOCK_RECORD
  5
97
330
1
100
AcDbSymbolTableRecord
100
AcDbBlockTableRecord
  2
*D7
340
0
  0
BLOCK_RECORD
  5
317
330
1
100
AcDbSymbolTableRecord
100
AcDbBlockTableRecord
  2
*D8
340
0
  0
BLOCK_RECORD
  5
332
330
1
100
AcDbSymbolTableRecord
100
AcDbBlockTableRecord
  2
*D9
340
0
  0
BLOCK_RECORD
  5
33E
330
1
100
AcDbSymbolTableRecord
100
AcDbBlockTableRecord
  2
*D10
340
0
  0
BLOCK_RECORD
  5
34A
330
1
100
AcDbSymbolTableRecord
100
AcDbBlockTableRecord
  2
*D11
340
0
  0
BLOCK_RECORD
  5
356
330
1
100
AcDbSymbolTableRecord
100
AcDbBlockTableRecord
  2
*D12
340
0
  0
BLOCK_RECORD
  5
362
330
1
100
AcDbSymbolTableRecord
100
AcDbBlockTableRecord
  2
*D13
340
0
  0
BLOCK_RECORD
  5
36E
330
1
100
AcDbSymbolTableRecord
100
AcDbBlockTableRecord
  2
*D14
340
0
  0
ENDTAB
  0
ENDSEC
  0
SECTION
  2
BLOCKS
  0
BLOCK
  5
5
330
2
100
AcDbEntity
  8
0
100
AcDbBlockBegin
  2
*MODEL_SPACE
 70
     0
 10
0.0
 20
0.0
 30
0.0
  3
*MODEL_SPACE
  1

  0
ENDBLK
  5
B
330
2
100
AcDbEntity
  8
0
100
AcDbBlockEnd
  0
BLOCK
  5
11
330
E
100
AcDbEntity
 67
     1
  8
0
100
AcDbBlockBegin
  2
*PAPER_SPACE
 70
     0
 10
0.0
 20
0.0
 30
0.0
  3
*PAPER_SPACE
  1

  0
ENDBLK
  5
12
330
E
100
AcDbEntity
 67
     1
  8
0
100
AcDbBlockEnd
  0
BLOCK
  5
2C
330
28
100
AcDbEntity
  8
0
100
AcDbBlockBegin
  2
_OPEN
 70
     0
 10
0.0
 20
0.0
 30
0.0
  3
_OPEN
  1

  0
LINE
  5
29
330
28
100
AcDbEntity
  8
0
  6
ByBlock
 62
     0
100
AcDbLine
 10
-1.0
 20
0.17
 30
0.0
 11
0.0
 21
0.0
 31
0.0
  0
LINE
  5
2A
330
28
100
AcDbEntity
  8
0
  6
ByBlock
 62
     0
100
AcDbLine
 10
0.0
 20
0.0
 30
0.0
 11
-1.0
 21
-0.17
 31
0.0
  0
LINE
  5
2B
330
28
100
AcDbEntity
  8
0
  6
ByBlock
 62
     0
100
AcDbLine
 10
0.0
 20
0.0
 30
0.0
 11
-1.0
 21
0.0
 31
0.0
  0
ENDBLK
  5
2D
330
28
100
AcDbEntity
  8
0
100
AcDbBlockEnd
  0
BLOCK
  5
E6
330
DC
100
AcDbEntity
  8
0
100
AcDbBlockBegin
  2
*D1
 70
     1
 10
0.0
 20
0.0
 30
0.0
  3
*D1
  1

  0
LINE
  5
DD
330
DC
100
AcDbEntity
  8
0
  6
ByBlock
 62
     0
100
AcDbLine
 10
55.0
 20
243.53
 30
0.0
 11
55.0
 21
252.2499999999999
 31
0.0
  0
LINE
  5
DE
330
DC
100
AcDbEntity
  8
0
  6
ByBlock
 62
     0
100
AcDbLine
 10
103.0
 20
243.53
 30
0.0
 11
103.0
 21
252.2499999999999
 31
0.0
  0
LINE
  5
DF
330
DC
100
AcDbEntity
  8
0
  6
ByBlock
 62
     0
100
AcDbLine
 10
56.5
 20
251.0
 30
0.0
 11
101.5
 21
251.0
 31
0.0
  0
INSERT
  5
E0
330
DC
100
AcDbEntity
  8
0
  6
ByBlock
 62
     0
100
AcDbBlockReference
  2
_OPEN
 10
55.0
 20
251.0
 30
0.0
 41
1.5
 42
1.5
 43
1.5
 50
180.0
  0
INSERT
  5
E1
330
DC
100
AcDbEntity
  8
0
  6
ByBlock
 62
     0
100
AcDbBlockReference
  2
_OPEN
 10
103.0
 20
251.0
 30
0.0
 41
1.5
 42
1.5
 43
1.5
  0
MTEXT
  5
E2
330
DC
100
AcDbEntity
  8
0
  6
ByBlock
 62
     0
100
AcDbMText
 10
79.0
 20
252.8799999999999
 30
0.0
 40
2.5
 41
0.0
 71
     5
 72
     1
  1
\A1;48
  7
STYLE1
 73
     1
 44
1.0
1001
ACAD
1000
MTEXTBEGIN
1070
    73
1070
     1
1070
    44
1040
1.0
1070
    74
1070
     0
1000
MTEXTEND
1000
MTEXTBEGIN
1070
    73
1070
     1
1070
    44
1040
1.0
1070
    74
1070
     0
1000
MTEXTEND
  0
POINT
  5
E3
330
DC
100
AcDbEntity
  8
DEFPOINTS
  6
ByBlock
 62
     0
100
AcDbPoint
 10
55.0
 20
242.9
 30
0.0
  0
POINT
  5
E4
330
DC
100
AcDbEntity
  8
DEFPOINTS
  6
ByBlock
 62
     0
100
AcDbPoint
 10
103.0
 20
242.9
 30
0.0
  0
POINT
  5
E5
330
DC
100
AcDbEntity
  8
DEFPOINTS
  6
ByBlock
 62
     0
100
AcDbPoint
 10
103.0
 20
251.0
 30
0.0
  0
ENDBLK
  5
E7
330
DC
100
AcDbEntity
  8
0
100
AcDbBlockEnd
  0
BLOCK
  5
71
330
67
100
AcDbEntity
  8
0
100
AcDbBlockBegin
  2
*D2
 70
     1
 10
0.0
 20
0.0
 30
0.0
  3
*D2
  1

  0
LINE
  5
68
330
67
100
AcDbEntity
  8
0
  6
ByBlock
 62
     0
100
AcDbLine
 10
126.6299999999999
 20
148.0
 30
0.0
 11
135.25
 21
148.0
 31
0.0
  0
LINE
  5
69
330
67
100
AcDbEntity
  8
0
  6
ByBlock
 62
     0
100
AcDbLine
 10
126.6299999999999
 20
244.0
 30
0.0
 11
135.25
 21
244.0
 31
0.0
  0
LINE
  5
6A
330
67
100
AcDbEntity
  8
0
  6
ByBlock
 62
     0
100
AcDbLine
 10
134.0
 20
149.5
 30
0.0
 11
134.0
 21
242.5
 31
0.0
  0
INSERT
  5
6B
330
67
100
AcDbEntity
  8
0
  6
ByBlock
 62
     0
100
AcDbBlockReference
  2
_OPEN
 10
134.0
 20
148.0
 30
0.0
 41
1.5
 42
1.5
 43
1.5
 50
270.0
  0
INSERT
  5
6C
330
67
100
AcDbEntity
  8
0
  6
ByBlock
 62
     0
100
AcDbBlockReference
  2
_OPEN
 10
134.0
 20
244.0
 30
0.0
 41
1.5
 42
1.5
 43
1.5
 50
90.0
  0
MTEXT
  5
6D
330
67
100
AcDbEntity
  8
0
  6
ByBlock
 62
     0
100
AcDbMText
 10
132.1299999999999
 20
196.0
 30
0.0
 40
2.5
 41
0.0
 71
     5
 72
     1
  1
\A1;96
  7
STYLE1
 11
0.0
 21
1.0
 31
0.0
 73
     1
 44
1.0
1001
ACAD
1000
MTEXTBEGIN
1070
    73
1070
     1
1070
    44
1040
1.0
1070
    74
1070
     0
1000
MTEXTEND
1000
MTEXTBEGIN
1070
    73
1070
     1
1070
    44
1040
1.0
1070
    74
1070
     0
1000
MTEXTEND
  0
POINT
  5
6E
330
67
100
AcDbEntity
  8
DEFPOINTS
  6
ByBlock
 62
     0
100
AcDbPoint
 10
126.0
 20
148.0
 30
0.0
  0
POINT
  5
6F
330
67
100
AcDbEntity
  8
DEFPOINTS
  6
ByBlock
 62
     0
100
AcDbPoint
 10
126.0
 20
244.0
 30
0.0
  0
POINT
  5
70
330
67
100
AcDbEntity
  8
DEFPOINTS
  6
ByBlock
 62
     0
100
AcDbPoint
 10
134.0
 20
244.0
 30
0.0
  0
ENDBLK
  5
72
330
67
100
AcDbEntity
  8
0
100
AcDbBlockEnd
  0
BLOCK
  5
192
330
188
100
AcDbEntity
  8
0
100
AcDbBlockBegin
  2
*D3
 70
     1
 10
0.0
 20
0.0
 30
0.0
  3
*D3
  1

  0
LINE
  5
189
330
188
100
AcDbEntity
  8
0
  6
ByBlock
 62
     0
100
AcDbLine
 10
151.0
 20
243.93
 30
0.0
 11
151.0
 21
252.2499999999999
 31
0.0
  0
LINE
  5
18A
330
188
100
AcDbEntity
  8
0
  6
ByBlock
 62
     0
100
AcDbLine
 10
162.0
 20
244.6299999999999
 30
0.0
 11
162.0
 21
252.2499999999999
 31
0.0
  0
LINE
  5
18B
330
188
100
AcDbEntity
  8
0
  6
ByBlock
 62
     0
100
AcDbLine
 10
152.5
 20
251.0
 30
0.0
 11
160.4999999999999
 21
251.0
 31
0.0
  0
INSERT
  5
18C
330
188
100
AcDbEntity
  8
0
  6
ByBlock
 62
     0
100
AcDbBlockReference
  2
_OPEN
 10
151.0
 20
251.0
 30
0.0
 41
1.5
 42
1.5
 43
1.5
 50
180.0
  0
INSERT
  5
18D
330
188
100
AcDbEntity
  8
0
  6
ByBlock
 62
     0
100
AcDbBlockReference
  2
_OPEN
 10
162.0
 20
251.0
 30
0.0
 41
1.5
 42
1.5
 43
1.5
  0
MTEXT
  5
18E
330
188
100
AcDbEntity
  8
0
  6
ByBlock
 62
     0
100
AcDbMText
 10
156.4999999999999
 20
252.8799999999999
 30
0.0
 40
2.5
 41
0.0
 71
     5
 72
     1
  1
\A1;11
  7
STYLE1
 73
     1
 44
1.0
1001
ACAD
1000
MTEXTBEGIN
1070
    73
1070
     1
1070
    44
1040
1.0
1070
    74
1070
     0
1000
MTEXTEND
1000
MTEXTBEGIN
1070
    73
1070
     1
1070
    44
1040
1.0
1070
    74
1070
     0
1000
MTEXTEND
  0
POINT
  5
18F
330
188
100
AcDbEntity
  8
DEFPOINTS
  6
ByBlock
 62
     0
100
AcDbPoint
 10
151.0
 20
243.3
 30
0.0
  0
POINT
  5
190
330
188
100
AcDbEntity
  8
DEFPOINTS
  6
ByBlock
 62
     0
100
AcDbPoint
 10
162.0
 20
244.0
 30
0.0
  0
POINT
  5
191
330
188
100
AcDbEntity
  8
DEFPOINTS
  6
ByBlock
 62
     0
100
AcDbPoint
 10
162.0
 20
251.0
 30
0.0
  0
ENDBLK
  5
193
330
188
100
AcDbEntity
  8
0
100
AcDbBlockEnd
  0
BLOCK
  5
57
330
4E
100
AcDbEntity
  8
0
100
AcDbBlockBegin
  2
*D4
 70
     1
 10
0.0
 20
0.0
 30
0.0
  3
*D4
  1

  0
LINE
  5
4F
330
4E
100
AcDbEntity
  8
画層1
 62
     0
100
AcDbLine
 10
262.0
 20
241.63
 30
0.0
 11
262.0
 21
252.2499999999999
 31
0.0
  0
LINE
  5
50
330
4E
100
AcDbEntity
  8
画層1
 62
     0
100
AcDbLine
 10
163.4999999999999
 20
251.0
 30
0.0
 11
260.4999999999999
 21
251.0
 31
0.0
  0
INSERT
  5
51
330
4E
100
AcDbEntity
  8
画層1
 62
     0
100
AcDbBlockReference
  2
_OPEN
 10
162.0
 20
251.0
 30
0.0
 41
1.5
 42
1.5
 43
1.5
 50
180.0
  0
INSERT
  5
52
330
4E
100
AcDbEntity
  8
画層1
 62
     0
100
AcDbBlockReference
  2
_OPEN
 10
262.0
 20
251.0
 30
0.0
 41
1.5
 42
1.5
 43
1.5
  0
MTEXT
  5
53
330
4E
100
AcDbEntity
  8
画層1
 62
     0
100
AcDbMText
 10
212.0
 20
252.8799999999999
 30
0.0
 40
2.5
 41
0.0
 71
     5
 72
     1
  1
\A1;100
  7
STYLE1
 73
     1
 44
1.0
1001
ACAD
1000
MTEXTBEGIN
1070
    73
1070
     1
1070
    44
1040
1.0
1070
    74
1070
     0
1000
MTEXTEND
  0
POINT
  5
54
330
4E
100
AcDbEntity
  8
DEFPOINTS
 62
     0
100
AcDbPoint
 10
162.0
 20
244.0
 30
0.0
  0
POINT
  5
55
330
4E
100
AcDbEntity
  8
DEFPOINTS
 62
     0
100
AcDbPoint
 10
262.0
 20
241.0
 30
0.0
  0
POINT
  5
56
330
4E
100
AcDbEntity
  8
DEFPOINTS
 62
     0
100
AcDbPoint
 10
262.0
 20
251.0
 30
0.0
  0
ENDBLK
  5
58
330
4E
100
AcDbEntity
  8
0
100
AcDbBlockEnd
  0
BLOCK
  5
4B
330
40
100
AcDbEntity
  8
0
100
AcDbBlockBegin
  2
*D5
 70
     1
 10
0.0
 20
0.0
 30
0.0
  3
*D5
  1

  0
LINE
  5
41
330
40
100
AcDbEntity
  8
0
  6
ByBlock
 62
     0
100
AcDbLine
 10
151.0
 20
251.63
 30
0.0
 11
151.0
 21
259.25
 31
0.0
  0
LINE
  5
42
330
40
100
AcDbEntity
  8
0
  6
ByBlock
 62
     0
100
AcDbLine
 10
262.0
 20
251.63
 30
0.0
 11
262.0
 21
259.25
 31
0.0
  0
LINE
  5
43
330
40
100
AcDbEntity
  8
0
  6
ByBlock
 62
     0
100
AcDbLine
 10
152.5
 20
258.0
 30
0.0
 11
260.4999999999999
 21
258.0
 31
0.0
  0
INSERT
  5
44
330
40
100
AcDbEntity
  8
0
  6
ByBlock
 62
     0
100
AcDbBlockReference
  2
_OPEN
 10
151.0
 20
258.0
 30
0.0
 41
1.5
 42
1.5
 43
1.5
 50
180.0
  0
INSERT
  5
45
330
40
100
AcDbEntity
  8
0
  6
ByBlock
 62
     0
100
AcDbBlockReference
  2
_OPEN
 10
262.0
 20
258.0
 30
0.0
 41
1.5
 42
1.5
 43
1.5
  0
MTEXT
  5
46
330
40
100
AcDbEntity
  8
0
  6
ByBlock
 62
     0
100
AcDbMText
 10
206.4999999999999
 20
259.88
 30
0.0
 40
2.5
 41
0.0
 71
     5
 72
     1
  1
\A1;111
  7
STYLE1
 73
     1
 44
1.0
1001
ACAD
1000
MTEXTBEGIN
1070
    73
1070
     1
1070
    44
1040
1.0
1070
    74
1070
     0
1000
MTEXTEND
1000
MTEXTBEGIN
1070
    73
1070
     1
1070
    44
1040
1.0
1070
    74
1070
     0
1000
MTEXTEND
  0
POINT
  5
47
330
40
100
AcDbEntity
  8
DEFPOINTS
  6
ByBlock
 62
     0
100
AcDbPoint
 10
151.0
 20
251.0
 30
0.0
  0
POINT
  5
49
330
40
100
AcDbEntity
  8
DEFPOINTS
  6
ByBlock
 62
     0
100
AcDbPoint
 10
262.0
 20
251.0
 30
0.0
  0
POINT
  5
4A
330
40
100
AcDbEntity
  8
DEFPOINTS
  6
ByBlock
 62
     0
100
AcDbPoint
 10
262.0
 20
258.0
 30
0.0
  0
ENDBLK
  5
4C
330
40
100
AcDbEntity
  8
0
100
AcDbBlockEnd
  0
BLOCK
  5
83
330
79
100
AcDbEntity
  8
0
100
AcDbBlockBegin
  2
*D6
 70
     1
 10
0.0
 20
0.0
 30
0.0
  3
*D6
  1

  0
LINE
  5
7A
330
79
100
AcDbEntity
  8
0
  6
ByBlock
 62
     0
100
AcDbLine
 10
56.5
 20
117.6299999999999
 30
0.0
 11
56.5
 21
127.2499999999999
 31
0.0
  0
LINE
  5
7B
330
79
100
AcDbEntity
  8
0
  6
ByBlock
 62
     0
100
AcDbLine
 10
101.5
 20
117.6299999999999
 30
0.0
 11
101.5
 21
127.2499999999999
 31
0.0
  0
LINE
  5
7C
330
79
100
AcDbEntity
  8
0
  6
ByBlock
 62
     0
100
AcDbLine
 10
58.0
 20
126.0
 30
0.0
 11
100.0
 21
126.0
 31
0.0
  0
INSERT
  5
7D
330
79
100
AcDbEntity
  8
0
  6
ByBlock
 62
     0
100
AcDbBlockReference
  2
_OPEN
 10
56.5
 20
126.0
 30
0.0
 41
1.5
 42
1.5
 43
1.5
 50
180.0
  0
INSERT
  5
7E
330
79
100
AcDbEntity
  8
0
  6
ByBlock
 62
     0
100
AcDbBlockReference
  2
_OPEN
 10
101.5
 20
126.0
 30
0.0
 41
1.5
 42
1.5
 43
1.5
  0
MTEXT
  5
7F
330
79
100
AcDbEntity
  8
0
  6
ByBlock
 62
     0
100
AcDbMText
 10
79.0
 20
128.0699999999999
 30
0.0
 40
2.5
 41
0.0
 71
     5
 72
     1
  1
\A1;45{\H1.250000;\S+0.6^  0;}
  7
STYLE1
 73
     1
 44
1.0
1001
ACAD
1000
MTEXTBEGIN
1070
    73
1070
     1
1070
    44
1040
1.0
1070
    74
1070
     0
1000
MTEXTEND
1000
MTEXTBEGIN
1070
    73
1070
     1
1070
    44
1040
1.0
1070
    74
1070
     0
1000
MTEXTEND
  0
POINT
  5
80
330
79
100
AcDbEntity
  8
DEFPOINTS
  6
ByBlock
 62
     0
100
AcDbPoint
 10
56.5
 20
117.0
 30
0.0
  0
POINT
  5
81
330
79
100
AcDbEntity
  8
DEFPOINTS
  6
ByBlock
 62
     0
100
AcDbPoint
 10
101.5
 20
117.0
 30
0.0
  0
POINT
  5
82
330
79
100
AcDbEntity
  8
DEFPOINTS
  6
ByBlock
 62
     0
100
AcDbPoint
 10
101.5
 20
126.0
 30
0.0
  0
ENDBLK
  5
84
330
79
100
AcDbEntity
  8
0
100
AcDbBlockEnd
  0
BLOCK
  5
A1
330
97
100
AcDbEntity
  8
0
100
AcDbBlockBegin
  2
*D7
 70
     1
 10
0.0
 20
0.0
 30
0.0
  3
*D7
  1

  0
LINE
  5
98
330
97
100
AcDbEntity
  8
0
  6
ByBlock
 62
     0
100
AcDbLine
 10
125.6299999999999
 20
117.0
 30
0.0
 11
135.25
 21
117.0
 31
0.0
  0
LINE
  5
99
330
97
100
AcDbEntity
  8
0
  6
ByBlock
 62
     0
100
AcDbLine
 10
125.6299999999999
 20
25.0
 30
0.0
 11
135.25
 21
25.0
 31
0.0
  0
LINE
  5
9A
330
97
100
AcDbEntity
  8
0
  6
ByBlock
 62
     0
100
AcDbLine
 10
134.0
 20
115.5
 30
0.0
 11
134.0
 21
26.5
 31
0.0
  0
INSERT
  5
9B
330
97
100
AcDbEntity
  8
0
  6
ByBlock
 62
     0
100
AcDbBlockReference
  2
_OPEN
 10
134.0
 20
117.0
 30
0.0
 41
1.5
 42
1.5
 43
1.5
 50
90.0
  0
INSERT
  5
9C
330
97
100
AcDbEntity
  8
0
  6
ByBlock
 62
     0
100
AcDbBlockReference
  2
_OPEN
 10
134.0
 20
25.0
 30
0.0
 41
1.5
 42
1.5
 43
1.5
 50
270.0
  0
MTEXT
  5
9D
330
97
100
AcDbEntity
  8
0
  6
ByBlock
 62
     0
100
AcDbMText
 10
131.93
 20
71.0
 30
0.0
 40
2.5
 41
0.0
 71
     5
 72
     1
  1
\A1;92{\H1.250000;\S+0.8^  0;}
  7
STYLE1
 11
0.0
 21
1.0
 31
0.0
 73
     1
 44
1.0
1001
ACAD
1000
MTEXTBEGIN
1070
    73
1070
     1
1070
    44
1040
1.0
1070
    74
1070
     0
1000
MTEXTEND
1000
MTEXTBEGIN
1070
    73
1070
     1
1070
    44
1040
1.0
1070
    74
1070
     0
1000
MTEXTEND
  0
POINT
  5
9E
330
97
100
AcDbEntity
  8
DEFPOINTS
  6
ByBlock
 62
     0
100
AcDbPoint
 10
125.0
 20
117.0
 30
0.0
  0
POINT
  5
9F
330
97
100
AcDbEntity
  8
DEFPOINTS
  6
ByBlock
 62
     0
100
AcDbPoint
 10
125.0
 20
25.0
 30
0.0
  0
POINT
  5
A0
330
97
100
AcDbEntity
  8
DEFPOINTS
  6
ByBlock
 62
     0
100
AcDbPoint
 10
134.0
 20
25.0
 30
0.0
  0
ENDBLK
  5
A2
330
97
100
AcDbEntity
  8
0
100
AcDbBlockEnd
  0
BLOCK
  5
320
330
317
100
AcDbEntity
  8
0
 62
     1
100
AcDbBlockBegin
  2
*D8
 70
     1
 10
0.0
 20
0.0
 30
0.0
  3
*D8
  1

  0
LINE
  5
32A
330
317
100
AcDbEntity
  8
画層1
 62
     0
370
    -2
100
AcDbLine
 10
262.0
 20
241.63
 30
0.0
 11
262.0
 21
252.2499999999999
 31
0.0
  0
LINE
  5
32B
330
317
100
AcDbEntity
  8
画層1
 62
     0
370
    -2
100
AcDbLine
 10
163.4999999999999
 20
251.0
 30
0.0
 11
260.4999999999999
 21
251.0
 31
0.0
  0
INSERT
  5
32C
330
317
100
AcDbEntity
  8
画層1
 62
     0
370
    -2
100
AcDbBlockReference
  2
_OPEN
 10
162.0
 20
251.0
 30
0.0
 41
1.5
 42
1.5
 43
1.5
 50
180.0
  0
INSERT
  5
32D
330
317
100
AcDbEntity
  8
画層1
 62
     0
370
    -2
100
AcDbBlockReference
  2
_OPEN
 10
262.0
 20
251.0
 30
0.0
 41
1.5
 42
1.5
 43
1.5
  0
MTEXT
  5
32E
330
317
100
AcDbEntity
  8
画層1
 62
     0
100
AcDbMText
 10
212.0
 20
252.8799999999999
 30
0.0
 40
2.5
 41
0.0
 71
     5
 72
     1
  1
\A1;100
  7
STYLE1
 73
     1
 44
1.0
  0
POINT
  5
32F
330
317
100
AcDbEntity
  8
DEFPOINTS
 62
     0
100
AcDbPoint
 10
162.0
 20
244.0
 30
0.0
  0
POINT
  5
330
330
317
100
AcDbEntity
  8
DEFPOINTS
 62
     0
100
AcDbPoint
 10
262.0
 20
241.0
 30
0.0
  0
POINT
  5
331
330
317
100
AcDbEntity
  8
DEFPOINTS
 62
     0
100
AcDbPoint
 10
262.0
 20
251.0
 30
0.0
  0
ENDBLK
  5
321
330
317
100
AcDbEntity
  8
0
 62
     1
100
AcDbBlockEnd
  0
BLOCK
  5
33C
330
332
100
AcDbEntity
  8
0
 62
     1
100
AcDbBlockBegin
  2
*D9
 70
     1
 10
0.0
 20
0.0
 30
0.0
  3
*D9
  1

  0
LINE
  5
333
330
332
100
AcDbEntity
  8
画層1
 62
     0
370
    -2
100
AcDbLine
 10
151.0
 20
251.63
 30
0.0
 11
151.0
 21
259.25
 31
0.0
  0
LINE
  5
334
330
332
100
AcDbEntity
  8
画層1
 62
     0
370
    -2
100
AcDbLine
 10
262.0
 20
251.63
 30
0.0
 11
262.0
 21
259.25
 31
0.0
  0
LINE
  5
335
330
332
100
AcDbEntity
  8
画層1
 62
     0
370
    -2
100
AcDbLine
 10
152.5
 20
258.0
 30
0.0
 11
260.4999999999999
 21
258.0
 31
0.0
  0
INSERT
  5
336
330
332
100
AcDbEntity
  8
画層1
 62
     0
370
    -2
100
AcDbBlockReference
  2
_OPEN
 10
151.0
 20
258.0
 30
0.0
 41
1.5
 42
1.5
 43
1.5
 50
180.0
  0
INSERT
  5
337
330
332
100
AcDbEntity
  8
画層1
 62
     0
370
    -2
100
AcDbBlockReference
  2
_OPEN
 10
262.0
 20
258.0
 30
0.0
 41
1.5
 42
1.5
 43
1.5
  0
MTEXT
  5
338
330
332
100
AcDbEntity
  8
画層1
 62
     0
100
AcDbMText
 10
206.4999999999999
 20
259.88
 30
0.0
 40
2.5
 41
0.0
 71
     5
 72
     1
  1
\A1;111
  7
STYLE1
 73
     1
 44
1.0
  0
POINT
  5
339
330
332
100
AcDbEntity
  8
DEFPOINTS
 62
     0
100
AcDbPoint
 10
151.0
 20
251.0
 30
0.0
  0
POINT
  5
33A
330
332
100
AcDbEntity
  8
DEFPOINTS
 62
     0
100
AcDbPoint
 10
262.0
 20
251.0
 30
0.0
  0
POINT
  5
33B
330
332
100
AcDbEntity
  8
DEFPOINTS
 62
     0
100
AcDbPoint
 10
262.0
 20
258.0
 30
0.0
  0
ENDBLK
  5
33D
330
332
100
AcDbEntity
  8
0
 62
     1
100
AcDbBlockEnd
  0
BLOCK
  5
348
330
33E
100
AcDbEntity
  8
0
 62
     1
100
AcDbBlockBegin
  2
*D10
 70
     1
 10
0.0
 20
0.0
 30
0.0
  3
*D10
  1

  0
LINE
  5
33F
330
33E
100
AcDbEntity
  8
画層1
 62
     0
370
    -2
100
AcDbLine
 10
101.9099999999999
 20
148.0
 30
0.0
 11
110.5299999999999
 21
148.0
 31
0.0
  0
LINE
  5
340
330
33E
100
AcDbEntity
  8
画層1
 62
     0
370
    -2
100
AcDbLine
 10
101.9099999999999
 20
244.0
 30
0.0
 11
110.5299999999999
 21
244.0
 31
0.0
  0
LINE
  5
341
330
33E
100
AcDbEntity
  8
画層1
 62
     0
370
    -2
100
AcDbLine
 10
109.2799999999999
 20
149.5
 30
0.0
 11
109.2799999999999
 21
242.5
 31
0.0
  0
INSERT
  5
342
330
33E
100
AcDbEntity
  8
画層1
 62
     0
370
    -2
100
AcDbBlockReference
  2
_OPEN
 10
109.2799999999999
 20
148.0
 30
0.0
 41
1.5
 42
1.5
 43
1.5
 50
270.0
  0
INSERT
  5
343
330
33E
100
AcDbEntity
  8
画層1
 62
     0
370
    -2
100
AcDbBlockReference
  2
_OPEN
 10
109.2799999999999
 20
244.0
 30
0.0
 41
1.5
 42
1.5
 43
1.5
 50
90.0
  0
MTEXT
  5
344
330
33E
100
AcDbEntity
  8
画層1
 62
     0
100
AcDbMText
 10
107.3999999999999
 20
196.0
 30
0.0
 40
2.5
 41
0.0
 71
     5
 72
     1
  1
\A1;96
  7
STYLE1
 11
0.0000000000000001
 21
1.0
 31
0.0
 73
     1
 44
1.0
  0
POINT
  5
345
330
33E
100
AcDbEntity
  8
DEFPOINTS
 62
     0
100
AcDbPoint
 10
101.2799999999999
 20
148.0
 30
0.0
  0
POINT
  5
346
330
33E
100
AcDbEntity
  8
DEFPOINTS
 62
     0
100
AcDbPoint
 10
101.2799999999999
 20
244.0
 30
0.0
  0
POINT
  5
347
330
33E
100
AcDbEntity
  8
DEFPOINTS
 62
     0
100
AcDbPoint
 10
109.2799999999999
 20
244.0
 30
0.0
  0
ENDBLK
  5
349
330
33E
100
AcDbEntity
  8
0
 62
     1
100
AcDbBlockEnd
  0
BLOCK
  5
354
330
34A
100
AcDbEntity
  8
0
 62
     1
100
AcDbBlockBegin
  2
*D11
 70
     1
 10
0.0
 20
0.0
 30
0.0
  3
*D11
  1

  0
LINE
  5
34B
330
34A
100
AcDbEntity
  8
画層1
 62
     0
370
    -2
100
AcDbLine
 10
56.5
 20
117.6299999999999
 30
0.0
 11
56.5
 21
127.2499999999999
 31
0.0
  0
LINE
  5
34C
330
34A
100
AcDbEntity
  8
画層1
 62
     0
370
    -2
100
AcDbLine
 10
101.5
 20
117.6299999999999
 30
0.0
 11
101.5
 21
127.2499999999999
 31
0.0
  0
LINE
  5
34D
330
34A
100
AcDbEntity
  8
画層1
 62
     0
370
    -2
100
AcDbLine
 10
58.0
 20
126.0
 30
0.0
 11
100.0
 21
126.0
 31
0.0
  0
INSERT
  5
34E
330
34A
100
AcDbEntity
  8
画層1
 62
     0
370
    -2
100
AcDbBlockReference
  2
_OPEN
 10
56.5
 20
126.0
 30
0.0
 41
1.5
 42
1.5
 43
1.5
 50
180.0
  0
INSERT
  5
34F
330
34A
100
AcDbEntity
  8
画層1
 62
     0
370
    -2
100
AcDbBlockReference
  2
_OPEN
 10
101.5
 20
126.0
 30
0.0
 41
1.5
 42
1.5
 43
1.5
  0
MTEXT
  5
350
330
34A
100
AcDbEntity
  8
画層1
 62
     0
100
AcDbMText
 10
79.0
 20
128.0756429780033
 30
0.0
 40
2.5
 41
0.0
 71
     5
 72
     1
  1
\A1;45{\H1.250000;\S+0.6^  0;}
  7
STYLE1
 73
     1
 44
1.0
  0
POINT
  5
351
330
34A
100
AcDbEntity
  8
DEFPOINTS
 62
     0
100
AcDbPoint
 10
56.5
 20
117.0
 30
0.0
  0
POINT
  5
352
330
34A
100
AcDbEntity
  8
DEFPOINTS
 62
     0
100
AcDbPoint
 10
101.5
 20
117.0
 30
0.0
  0
POINT
  5
353
330
34A
100
AcDbEntity
  8
DEFPOINTS
 62
     0
100
AcDbPoint
 10
101.5
 20
126.0
 30
0.0
  0
ENDBLK
  5
355
330
34A
100
AcDbEntity
  8
0
 62
     1
100
AcDbBlockEnd
  0
BLOCK
  5
360
330
356
100
AcDbEntity
  8
0
 62
     1
100
AcDbBlockBegin
  2
*D12
 70
     1
 10
0.0
 20
0.0
 30
0.0
  3
*D12
  1

  0
LINE
  5
357
330
356
100
AcDbEntity
  8
画層1
 62
     0
370
    -2
100
AcDbLine
 10
102.1299999999999
 20
117.0
 30
0.0
 11
111.75
 21
117.0
 31
0.0
  0
LINE
  5
358
330
356
100
AcDbEntity
  8
画層1
 62
     0
370
    -2
100
AcDbLine
 10
102.1299999999999
 20
25.0
 30
0.0
 11
111.7499999999999
 21
25.0
 31
0.0
  0
LINE
  5
359
330
356
100
AcDbEntity
  8
画層1
 62
     0
370
    -2
100
AcDbLine
 10
110.5
 20
115.5
 30
0.0
 11
110.4999999999999
 21
26.49999999999999
 31
0.0
  0
INSERT
  5
35A
330
356
100
AcDbEntity
  8
画層1
 62
     0
370
    -2
100
AcDbBlockReference
  2
_OPEN
 10
110.5
 20
117.0
 30
0.0
 41
1.5
 42
1.5
 43
1.5
 50
90.0
  0
INSERT
  5
35B
330
356
100
AcDbEntity
  8
画層1
 62
     0
370
    -2
100
AcDbBlockReference
  2
_OPEN
 10
110.4999999999999
 20
25.0
 30
0.0
 41
1.5
 42
1.5
 43
1.5
 50
270.0
  0
MTEXT
  5
35C
330
356
100
AcDbEntity
  8
画層1
 62
     0
100
AcDbMText
 10
108.4243570219966
 20
71.00000000000003
 30
0.0
 40
2.5
 41
0.0
 71
     5
 72
     1
  1
\A1;92{\H1.250000;\S+0.8^  0;}
  7
STYLE1
 11
0.0000000000000001
 21
1.0
 31
0.0
 73
     1
 44
1.0
  0
POINT
  5
35D
330
356
100
AcDbEntity
  8
DEFPOINTS
 62
     0
100
AcDbPoint
 10
101.5
 20
117.0
 30
0.0
  0
POINT
  5
35E
330
356
100
AcDbEntity
  8
DEFPOINTS
 62
     0
100
AcDbPoint
 10
101.5
 20
25.0
 30
0.0
  0
POINT
  5
35F
330
356
100
AcDbEntity
  8
DEFPOINTS
 62
     0
100
AcDbPoint
 10
110.4999999999999
 20
25.0
 30
0.0
  0
ENDBLK
  5
361
330
356
100
AcDbEntity
  8
0
 62
     1
100
AcDbBlockEnd
  0
BLOCK
  5
36C
330
362
100
AcDbEntity
  8
0
 62
     1
100
AcDbBlockBegin
  2
*D13
 70
     1
 10
0.0
 20
0.0
 30
0.0
  3
*D13
  1

  0
LINE
  5
363
330
362
100
AcDbEntity
  8
画層1
 62
     0
370
    -2
100
AcDbLine
 10
55.0
 20
243.53
 30
0.0
 11
55.0
 21
252.2499999999999
 31
0.0
  0
LINE
  5
364
330
362
100
AcDbEntity
  8
画層1
 62
     0
370
    -2
100
AcDbLine
 10
103.0
 20
243.53
 30
0.0
 11
103.0
 21
252.2499999999999
 31
0.0
  0
LINE
  5
365
330
362
100
AcDbEntity
  8
画層1
 62
     0
370
    -2
100
AcDbLine
 10
56.5
 20
251.0
 30
0.0
 11
101.5
 21
251.0
 31
0.0
  0
INSERT
  5
366
330
362
100
AcDbEntity
  8
画層1
 62
     0
370
    -2
100
AcDbBlockReference
  2
_OPEN
 10
55.0
 20
251.0
 30
0.0
 41
1.5
 42
1.5
 43
1.5
 50
180.0
  0
INSERT
  5
367
330
362
100
AcDbEntity
  8
画層1
 62
     0
370
    -2
100
AcDbBlockReference
  2
_OPEN
 10
103.0
 20
251.0
 30
0.0
 41
1.5
 42
1.5
 43
1.5
  0
MTEXT
  5
368
330
362
100
AcDbEntity
  8
画層1
 62
     0
100
AcDbMText
 10
79.0
 20
252.8799999999999
 30
0.0
 40
2.5
 41
0.0
 71
     5
 72
     1
  1
\A1;48
  7
STYLE1
 73
     1
 44
1.0
  0
POINT
  5
369
330
362
100
AcDbEntity
  8
DEFPOINTS
 62
     0
100
AcDbPoint
 10
55.0
 20
242.9
 30
0.0
  0
POINT
  5
36A
330
362
100
AcDbEntity
  8
DEFPOINTS
 62
     0
100
AcDbPoint
 10
103.0
 20
242.9
 30
0.0
  0
POINT
  5
36B
330
362
100
AcDbEntity
  8
DEFPOINTS
 62
     0
100
AcDbPoint
 10
103.0
 20
251.0
 30
0.0
  0
ENDBLK
  5
36D
330
362
100
AcDbEntity
  8
0
 62
     1
100
AcDbBlockEnd
  0
BLOCK
  5
378
330
36E
100
AcDbEntity
  8
0
 62
     1
100
AcDbBlockBegin
  2
*D14
 70
     1
 10
0.0
 20
0.0
 30
0.0
  3
*D14
  1

  0
LINE
  5
36F
330
36E
100
AcDbEntity
  8
画層1
 62
     0
370
    -2
100
AcDbLine
 10
151.0
 20
243.93
 30
0.0
 11
151.0
 21
252.2499999999999
 31
0.0
  0
LINE
  5
370
330
36E
100
AcDbEntity
  8
画層1
 62
     0
370
    -2
100
AcDbLine
 10
162.0
 20
244.6299999999999
 30
0.0
 11
162.0
 21
252.2499999999999
 31
0.0
  0
LINE
  5
371
330
36E
100
AcDbEntity
  8
画層1
 62
     0
370
    -2
100
AcDbLine
 10
152.5
 20
251.0
 30
0.0
 11
160.4999999999999
 21
251.0
 31
0.0
  0
INSERT
  5
372
330
36E
100
AcDbEntity
  8
画層1
 62
     0
370
    -2
100
AcDbBlockReference
  2
_OPEN
 10
151.0
 20
251.0
 30
0.0
 41
1.5
 42
1.5
 43
1.5
 50
180.0
  0
INSERT
  5
373
330
36E
100
AcDbEntity
  8
画層1
 62
     0
370
    -2
100
AcDbBlockReference
  2
_OPEN
 10
162.0
 20
251.0
 30
0.0
 41
1.5
 42
1.5
 43
1.5
  0
MTEXT
  5
374
330
36E
100
AcDbEntity
  8
画層1
 62
     0
100
AcDbMText
 10
156.4999999999999
 20
252.8799999999999
 30
0.0
 40
2.5
 41
0.0
 71
     5
 72
     1
  1
\A1;11
  7
STYLE1
 73
     1
 44
1.0
  0
POINT
  5
375
330
36E
100
AcDbEntity
  8
DEFPOINTS
 62
     0
100
AcDbPoint
 10
151.0
 20
243.3
 30
0.0
  0
POINT
  5
376
330
36E
100
AcDbEntity
  8
DEFPOINTS
 62
     0
100
AcDbPoint
 10
162.0
 20
244.0
 30
0.0
  0
POINT
  5
377
330
36E
100
AcDbEntity
  8
DEFPOINTS
 62
     0
100
AcDbPoint
 10
162.0
 20
251.0
 30
0.0
  0
ENDBLK
  5
379
330
36E
100
AcDbEntity
  8
0
 62
     1
100
AcDbBlockEnd
  0
ENDSEC
  0
SECTION
  2
ENTITIES
  0
LWPOLYLINE
  5
30
330
2
100
AcDbEntity
  8
画層1
 62
     0
100
AcDbPolyline
 90
        4
 70
     1
 43
0.0
 10
190.5
 20
223.3
 10
212.5
 20
223.3
 10
212.5
 20
221.4999999999999
 10
190.5
 20
221.4999999999999
  0
LWPOLYLINE
  5
31
330
2
100
AcDbEntity
  8
画層1
 62
     0
100
AcDbPolyline
 90
        4
 70
     1
 43
0.0
 10
190.5
 20
226.6
 10
212.5
 20
226.6
 10
212.5
 20
224.8
 10
190.5
 20
224.8
  0
LINE
  5
32
330
2
100
AcDbEntity
  8
画層1
 62
     0
100
AcDbLine
 10
250.7
 20
219.2899999999999
 30
0.0
 11
181.1999999999999
 21
219.3
 31
0.0
  0
LINE
  5
33
330
2
100
AcDbEntity
  8
画層1
 62
     0
100
AcDbLine
 10
250.7
 20
156.2899999999999
 30
0.0
 11
181.1999999999999
 21
156.3
 31
0.0
  0
LINE
  5
34
330
2
100
AcDbEntity
  8
画層1
 62
     0
100
AcDbLine
 10
166.0
 20
156.0
 30
0.0
 11
251.0
 21
156.0
 31
0.0
  0
LINE
  5
35
330
2
100
AcDbEntity
  8
画層1
 62
     0
100
AcDbLine
 10
192.5
 20
153.6999999999999
 30
0.0
 11
253.5
 21
153.6999999999999
 31
0.0
  0
LWPOLYLINE
  5
36
330
2
100
AcDbEntity
  8
画層1
 62
     0
100
AcDbPolyline
 90
        4
 70
     1
 43
0.0
 10
190.5
 20
233.1999999999999
 10
212.5
 20
233.1999999999999
 10
212.5
 20
231.4
 10
190.5
 20
231.4
  0
LWPOLYLINE
  5
37
330
2
100
AcDbEntity
  8
画層1
 62
     0
100
AcDbPolyline
 90
        4
 70
     1
 43
0.0
 10
190.5
 20
229.8999999999999
 10
212.5
 20
229.8999999999999
 10
212.5
 20
228.1
 10
190.5
 20
228.1
  0
LINE
  5
38
330
2
100
AcDbEntity
  8
画層1
 62
     0
100
AcDbLine
 10
183.6
 20
150.1999999999999
 30
0.0
 11
261.0
 21
150.1999999999999
 31
0.0
  0
LINE
  5
39
330
2
100
AcDbEntity
  8
画層1
 62
     0
100
AcDbLine
 10
229.97
 20
153.6999999999999
 30
0.0
 11
192.5
 21
153.6999999999999
 31
0.0
  0
LINE
  5
3A
330
2
100
AcDbEntity
  8
画層1
 62
     0
100
AcDbLine
 10
192.5
 20
238.3
 30
0.0
 11
253.5
 21
238.3
 31
0.0
  0
LINE
  5
3B
330
2
100
AcDbEntity
  8
画層1
 62
     0
100
AcDbLine
 10
183.6
 20
241.8
 30
0.0
 11
253.5
 21
241.8
 31
0.0
  0
LINE
  5
3C
330
2
100
AcDbEntity
  8
画層1
 62
     0
100
AcDbLine
 10
166.0
 20
236.0
 30
0.0
 11
251.0
 21
236.0
 31
0.0
  0
LINE
  5
3D
330
2
100
AcDbEntity
  8
画層1
  6
CENTER
 62
     0
100
AcDbLine
 10
151.0
 20
196.0
 30
0.0
 11
264.0
 21
196.0
 31
0.0
  0
DIMENSION
  5
3F
330
2
100
AcDbEntity
  8
画層1
 62
     0
100
AcDbDimension
  2
*D9
 10
262.0
 20
258.0
 30
0.0
 11
206.4999999999999
 21
259.88
 31
0.0
 70
    32
 71
     5
 42
111.0
  3
STANDARD_WS
100
AcDbAlignedDimension
 13
151.0
 23
251.0
 33
0.0
 14
262.0
 24
251.0
 34
0.0
100
AcDbRotatedDimension
1001
ACAD
1000
DSTYLE
1002
{
1070
   340
1005
27
1002
}
  0
DIMENSION
  5
4D
330
2
100
AcDbEntity
  8
画層1
 62
     0
100
AcDbDimension
  2
*D8
 10
262.0
 20
251.0
 30
0.0
 11
212.0
 21
252.8799999999999
 31
0.0
 70
    32
 71
     5
 42
100.0
  3
STANDARD_WS
100
AcDbAlignedDimension
 13
162.0
 23
244.0
 33
0.0
 14
262.0
 24
241.0
 34
0.0
100
AcDbRotatedDimension
1001
ACAD
1000
DSTYLE
1002
{
1070
   287
1070
     4
1070
   287
1070
     4
1070
    75
1070
     1
1070
   279
1070
     1
1070
   340
1005
27
1002
}
  0
LINE
  5
59
330
2
100
AcDbEntity
  8
画層1
  6
CENTER
 62
     0
100
AcDbLine
 10
147.0
 20
196.0
 30
0.0
 11
267.0
 21
196.0
 31
0.0
  0
ARC
  5
5A
330
2
100
AcDbEntity
  8
画層1
 62
     0
100
AcDbCircle
 10
152.2
 20
149.3
 30
0.0
 40
1.199999999999999
100
AcDbArc
 50
180.0
 51
270.0
  0
LINE
  5
5B
330
2
100
AcDbEntity
  8
画層1
 62
     0
100
AcDbLine
 10
162.0
 20
244.0
 30
0.0
 11
162.0
 21
148.0
 31
0.0
  0
LINE
  5
5C
330
2
100
AcDbEntity
  8
画層1
 62
     0
100
AcDbLine
 10
163.8
 20
148.8
 30
0.0
 11
166.74
 21
147.78
 31
0.0
  0
LINE
  5
5D
330
2
100
AcDbEntity
  8
画層1
 62
     0
100
AcDbLine
 10
162.5999999999999
 20
148.3999999999999
 30
0.0
 11
163.8
 21
148.8
 31
0.0
  0
LINE
  5
5E
330
2
100
AcDbEntity
  8
画層1
 62
     0
100
AcDbLine
 10
154.0
 20
148.0
 30
0.0
 11
154.0
 21
196.0
 31
0.0
  0
ARC
  5
5F
330
2
100
AcDbEntity
  8
画層1
 62
     0
100
AcDbCircle
 10
183.9499999999999
 20
118.7999999999999
 30
0.0
 40
31.40248406519289
100
AcDbArc
 50
90.63
 51
121.5899999999999
  0
ARC
  5
60
330
2
100
AcDbEntity
  8
画層1
 62
     0
100
AcDbCircle
 10
183.74
 20
120.1999999999999
 30
0.0
 40
32.0
100
AcDbArc
 50
90.26000000000001
 51
120.25
  0
LINE
  5
61
330
2
100
AcDbEntity
  8
画層1
 62
     0
100
AcDbLine
 10
160.0
 20
244.0
 30
0.0
 11
160.0
 21
148.0
 31
0.0
  0
ARC
  5
62
330
2
100
AcDbEntity
  8
画層1
 62
     0
100
AcDbCircle
 10
101.9
 20
149.0999999999999
 30
0.0
 40
1.0
100
AcDbArc
 50
270.0
 51
0.0
  0
ARC
  5
63
330
2
100
AcDbEntity
  8
画層1
 62
     0
100
AcDbCircle
 10
56.1
 20
149.0999999999999
 30
0.0
 40
1.0
100
AcDbArc
 50
180.0
 51
270.0
  0
ARC
  5
64
330
2
100
AcDbEntity
  8
画層1
 62
     0
100
AcDbCircle
 10
56.1
 20
149.0999999999999
 30
0.0
 40
1.1
100
AcDbArc
 50
180.0
 51
270.0
  0
ARC
  5
65
330
2
100
AcDbEntity
  8
画層1
 62
     0
100
AcDbCircle
 10
101.9
 20
149.0999999999999
 30
0.0
 40
1.1
100
AcDbArc
 50
270.0
 51
0.0
  0
DIMENSION
  5
66
330
2
100
AcDbEntity
  8
画層1
 62
     0
100
AcDbDimension
  2
*D10
 10
109.2799999999999
 20
244.0
 30
0.0
 11
107.3999999999999
 21
196.0
 31
0.0
 70
    32
 71
     5
 42
96.0
  3
STANDARD_WS
100
AcDbAlignedDimension
 13
101.2799999999999
 23
148.0
 33
0.0
 14
101.2799999999999
 24
244.0
 34
0.0
 50
90.0
100
AcDbRotatedDimension
1001
ACAD
1000
DSTYLE
1002
{
1070
   340
1005
27
1002
}
  0
LINE
  5
73
330
2
100
AcDbEntity
  8
画層1
  6
CENTER
 62
     0
100
AcDbLine
 10
79.0
 20
246.0
 30
0.0
 11
79.0
 21
146.0
 31
0.0
  0
LINE
  5
74
330
2
100
AcDbEntity
  8
画層1
 62
     0
100
AcDbLine
 10
101.9
 20
148.0999999999999
 30
0.0
 11
56.1
 21
148.0999999999999
 31
0.0
  0
LINE
  5
75
330
2
100
AcDbEntity
  8
画層1
 62
     0
100
AcDbLine
 10
101.9
 20
148.0
 30
0.0
 11
56.1
 21
148.0
 31
0.0
  0
LINE
  5
76
330
2
100
AcDbEntity
  8
画層1
 62
     0
100
AcDbLine
 10
70.0
 20
16.0
 30
0.0
 11
88.0
 21
16.0
 31
0.0
  0
MTEXT
  5
77
330
2
100
AcDbEntity
  8
画層1
 62
     0
100
AcDbMText
 10
70.0
 20
20.0
 30
0.0
 40
2.5
 41
20.0
 71
     1
 72
     5
  1
取付穴寸法
  7
STYLE1
 73
     1
 44
1.0
1001
ACAD
1000
MTEXTBEGIN
1070
    73
1070
     1
1070
    44
1040
1.0
1070
    74
1070
     0
1000
MTEXTEND
1000
MTEXTBEGIN
1070
    73
1070
     1
1070
    44
1040
1.0
1070
    74
1070
     0
1000
MTEXTEND
  0
DIMENSION
  5
78
330
2
100
AcDbEntity
  8
画層1
 62
     0
100
AcDbDimension
  2
*D11
 10
101.5
 20
126.0
 30
0.0
 11
79.0
 21
128.0756429780033
 31
0.0
 70
    32
 71
     5
 42
45.0
  3
STANDARD_WS
100
AcDbAlignedDimension
 13
56.5
 23
117.0
 33
0.0
 14
101.5
 24
117.0
 34
0.0
100
AcDbRotatedDimension
1001
ACAD
1000
DSTYLE
1002
{
1070
   284
1070
     8
1070
   340
1005
27
1070
    47
1040
0.6
1070
    71
1070
     1
1070
   146
1040
0.5
1002
}
  0
LINE
  5
85
330
2
100
AcDbEntity
  8
画層1
  6
CENTER
 62
     0
100
AcDbLine
 10
52.5
 20
71.0
 30
0.0
 11
105.4999999999999
 21
71.0
 31
0.0
  0
LINE
  5
86
330
2
100
AcDbEntity
  8
画層1
 62
     0
100
AcDbLine
 10
101.5
 20
25.0
 30
0.0
 11
56.5
 21
25.0
 31
0.0
  0
LINE
  5
87
330
2
100
AcDbEntity
  8
画層1
 62
     0
100
AcDbLine
 10
56.5
 20
117.0
 30
0.0
 11
101.5
 21
117.0
 31
0.0
  0
LINE
  5
88
330
2
100
AcDbEntity
  8
画層1
 62
     0
100
AcDbLine
 10
56.5
 20
25.0
 30
0.0
 11
56.5
 21
117.0
 31
0.0
  0
LINE
  5
89
330
2
100
AcDbEntity
  8
画層1
 62
     0
100
AcDbLine
 10
56.7
 20
145.55
 30
0.0
 11
59.2
 21
145.55
 31
0.0
  0
LINE
  5
8A
330
2
100
AcDbEntity
  8
画層1
 62
     0
100
AcDbLine
 10
59.2
 20
147.65
 30
0.0
 11
56.7
 21
147.65
 31
0.0
  0
LINE
  5
8B
330
2
100
AcDbEntity
  8
画層1
 62
     0
100
AcDbLine
 10
59.2
 20
147.3
 30
0.0
 11
56.7
 21
147.3
 31
0.0
  0
LINE
  5
8C
330
2
100
AcDbEntity
  8
画層1
 62
     0
100
AcDbLine
 10
59.2
 20
146.9499999999999
 30
0.0
 11
56.7
 21
146.9499999999999
 31
0.0
  0
LINE
  5
8D
330
2
100
AcDbEntity
  8
画層1
 62
     0
100
AcDbLine
 10
59.2
 20
146.6
 30
0.0
 11
56.7
 21
146.6
 31
0.0
  0
LINE
  5
8E
330
2
100
AcDbEntity
  8
画層1
 62
     0
100
AcDbLine
 10
59.2
 20
146.25
 30
0.0
 11
56.7
 21
146.25
 31
0.0
  0
LINE
  5
8F
330
2
100
AcDbEntity
  8
画層1
 62
     0
100
AcDbLine
 10
59.2
 20
145.9
 30
0.0
 11
56.7
 21
145.9
 31
0.0
  0
LINE
  5
90
330
2
100
AcDbEntity
  8
画層1
 62
     0
100
AcDbLine
 10
56.7
 20
145.55
 30
0.0
 11
56.7
 21
148.0
 31
0.0
  0
LINE
  5
91
330
2
100
AcDbEntity
  8
画層1
 62
     0
100
AcDbLine
 10
58.0
 20
148.0
 30
0.0
 11
58.0
 21
148.0999999999999
 31
0.0
  0
LINE
  5
92
330
2
100
AcDbEntity
  8
画層1
 62
     0
100
AcDbLine
 10
59.2
 20
145.55
 30
0.0
 11
59.2
 21
148.0
 31
0.0
  0
LINE
  5
93
330
2
100
AcDbEntity
  8
画層1
 62
     0
100
AcDbLine
 10
60.0
 20
148.0
 30
0.0
 11
60.0
 21
148.0999999999999
 31
0.0
  0
LINE
  5
94
330
2
100
AcDbEntity
  8
画層1
 62
     0
100
AcDbLine
 10
70.0
 20
148.0
 30
0.0
 11
70.0
 21
148.0999999999999
 31
0.0
  0
LINE
  5
95
330
2
100
AcDbEntity
  8
画層1
 62
     0
100
AcDbLine
 10
72.0
 20
148.0
 30
0.0
 11
72.0
 21
148.0999999999999
 31
0.0
  0
DIMENSION
  5
96
330
2
100
AcDbEntity
  8
画層1
 62
     0
100
AcDbDimension
  2
*D12
 10
110.4999999999999
 20
25.0
 30
0.0
 11
108.4243570219966
 21
71.00000000000003
 31
0.0
 70
    32
 71
     5
 42
92.0
  3
STANDARD_WS
100
AcDbAlignedDimension
 13
101.5
 23
117.0
 33
0.0
 14
101.5
 24
25.0
 34
0.0
 50
90.0
100
AcDbRotatedDimension
1001
ACAD
1000
DSTYLE
1002
{
1070
   284
1070
     8
1070
   340
1005
27
1070
    47
1040
0.8
1070
    71
1070
     1
1070
   146
1040
0.5
1002
}
  0
LINE
  5
A3
330
2
100
AcDbEntity
  8
画層1
  6
CENTER
 62
     0
100
AcDbLine
 10
79.0
 20
121.0
 30
0.0
 11
79.0
 21
21.0
 31
0.0
  0
LINE
  5
A4
330
2
100
AcDbEntity
  8
画層1
 62
     0
100
AcDbLine
 10
101.5
 20
117.0
 30
0.0
 11
101.5
 21
25.0
 31
0.0
  0
MTEXT
  5
A5
330
2
100
AcDbEntity
  8
画層1
 62
     0
100
AcDbMText
 10
173.38
 20
47.32999999999999
 30
0.0
 40
2.5
 41
47.72
 71
     1
 72
     5
  1
SR84ｼﾘｰｽﾞ
  7
STYLE1
 73
     1
 44
1.0
1001
ACAD
1000
MTEXTBEGIN
1070
    73
1070
     1
1070
    44
1040
1.0
1070
    74
1070
     0
1000
MTEXTEND
  0
LINE
  5
A6
330
2
100
AcDbEntity
  8
画層1
 62
     0
100
AcDbLine
 10
86.0
 20
148.0
 30
0.0
 11
86.0
 21
148.0999999999999
 31
0.0
  0
LINE
  5
A7
330
2
100
AcDbEntity
  8
画層1
 62
     0
100
AcDbLine
 10
88.0
 20
148.0
 30
0.0
 11
88.0
 21
148.0999999999999
 31
0.0
  0
LINE
  5
A8
330
2
100
AcDbEntity
  8
画層1
 62
     0
100
AcDbLine
 10
98.8
 20
145.55
 30
0.0
 11
101.2999999999999
 21
145.55
 31
0.0
  0
LINE
  5
A9
330
2
100
AcDbEntity
  8
画層1
 62
     0
100
AcDbLine
 10
101.2999999999999
 20
147.65
 30
0.0
 11
98.8
 21
147.65
 31
0.0
  0
LINE
  5
AA
330
2
100
AcDbEntity
  8
画層1
 62
     0
100
AcDbLine
 10
101.2999999999999
 20
147.3
 30
0.0
 11
98.8
 21
147.3
 31
0.0
  0
LINE
  5
AB
330
2
100
AcDbEntity
  8
画層1
 62
     0
100
AcDbLine
 10
101.2999999999999
 20
146.9499999999999
 30
0.0
 11
98.8
 21
146.9499999999999
 31
0.0
  0
LINE
  5
AC
330
2
100
AcDbEntity
  8
画層1
 62
     0
100
AcDbLine
 10
101.2999999999999
 20
146.6
 30
0.0
 11
98.8
 21
146.6
 31
0.0
  0
LINE
  5
AD
330
2
100
AcDbEntity
  8
画層1
 62
     0
100
AcDbLine
 10
101.2999999999999
 20
146.25
 30
0.0
 11
98.8
 21
146.25
 31
0.0
  0
LINE
  5
AE
330
2
100
AcDbEntity
  8
画層1
 62
     0
100
AcDbLine
 10
101.2999999999999
 20
145.9
 30
0.0
 11
98.8
 21
145.9
 31
0.0
  0
LINE
  5
AF
330
2
100
AcDbEntity
  8
画層1
 62
     0
100
AcDbLine
 10
98.0
 20
148.0
 30
0.0
 11
98.0
 21
148.0999999999999
 31
0.0
  0
LINE
  5
B0
330
2
100
AcDbEntity
  8
画層1
 62
     0
100
AcDbLine
 10
98.8
 20
148.0
 30
0.0
 11
98.8
 21
145.55
 31
0.0
  0
LINE
  5
B1
330
2
100
AcDbEntity
  8
画層1
 62
     0
100
AcDbLine
 10
100.0
 20
148.0
 30
0.0
 11
100.0
 21
148.0999999999999
 31
0.0
  0
LINE
  5
B2
330
2
100
AcDbEntity
  8
画層1
 62
     0
100
AcDbLine
 10
101.2999999999999
 20
148.0
 30
0.0
 11
101.2999999999999
 21
145.55
 31
0.0
  0
LINE
  5
B3
330
2
100
AcDbEntity
  8
画層1
 62
     0
100
AcDbLine
 10
153.0
 20
148.0
 30
0.0
 11
162.0
 21
148.0
 31
0.0
  0
LINE
  5
B4
330
2
100
AcDbEntity
  8
画層1
 62
     0
100
AcDbLine
 10
152.2
 20
148.0999999999999
 30
0.0
 11
154.0
 21
148.0999999999999
 31
0.0
  0
LINE
  5
B5
330
2
100
AcDbEntity
  8
画層1
 62
     0
100
AcDbLine
 10
152.2
 20
148.0999999999999
 30
0.0
 11
153.0
 21
148.0999999999999
 31
0.0
  0
LINE
  5
B6
330
2
100
AcDbEntity
  8
画層1
 62
     0
100
AcDbLine
 10
153.0
 20
148.0
 30
0.0
 11
153.0
 21
148.0999999999999
 31
0.0
  0
LINE
  5
B7
330
2
100
AcDbEntity
  8
画層1
 62
     0
100
AcDbLine
 10
165.0
 20
147.1999999999999
 30
0.0
 11
164.4
 21
146.9499999999999
 31
0.0
  0
LINE
  5
B8
330
2
100
AcDbEntity
  8
画層1
 62
     0
100
AcDbLine
 10
162.5999999999999
 20
148.0
 30
0.0
 11
162.5999999999999
 21
148.3999999999999
 31
0.0
  0
LINE
  5
B9
330
2
100
AcDbEntity
  8
画層1
 62
     0
100
AcDbLine
 10
163.1999999999999
 20
148.2499999999999
 30
0.0
 11
162.5999999999999
 21
148.0
 31
0.0
  0
LINE
  5
BA
330
2
100
AcDbEntity
  8
画層1
 62
     0
100
AcDbLine
 10
163.1999999999999
 20
147.65
 30
0.0
 11
163.1999999999999
 21
148.2499999999999
 31
0.0
  0
LINE
  5
BB
330
2
100
AcDbEntity
  8
画層1
 62
     0
100
AcDbLine
 10
163.8
 20
147.9
 30
0.0
 11
163.1999999999999
 21
147.65
 31
0.0
  0
LINE
  5
BC
330
2
100
AcDbEntity
  8
画層1
 62
     0
100
AcDbLine
 10
163.8
 20
147.3
 30
0.0
 11
163.8
 21
147.9
 31
0.0
  0
LINE
  5
BD
330
2
100
AcDbEntity
  8
画層1
 62
     0
100
AcDbLine
 10
164.4
 20
147.55
 30
0.0
 11
163.8
 21
147.3
 31
0.0
  0
LINE
  5
BE
330
2
100
AcDbEntity
  8
画層1
 62
     0
100
AcDbLine
 10
164.4
 20
146.9499999999999
 30
0.0
 11
164.4
 21
147.55
 31
0.0
  0
LINE
  5
BF
330
2
100
AcDbEntity
  8
画層1
 62
     0
100
AcDbLine
 10
167.5
 20
145.55
 30
0.0
 11
167.1999999999999
 21
145.55
 31
0.0
  0
LINE
  5
C0
330
2
100
AcDbEntity
  8
画層1
 62
     0
100
AcDbLine
 10
167.1999999999999
 20
145.55
 30
0.0
 11
167.1999999999999
 21
146.15
 31
0.0
  0
LINE
  5
C1
330
2
100
AcDbEntity
  8
画層1
 62
     0
100
AcDbLine
 10
165.0
 20
146.6
 30
0.0
 11
165.0
 21
147.1999999999999
 31
0.0
  0
LINE
  5
C2
330
2
100
AcDbEntity
  8
画層1
 62
     0
100
AcDbLine
 10
165.8
 20
146.8499999999999
 30
0.0
 11
165.0
 21
146.6
 31
0.0
  0
LINE
  5
C3
330
2
100
AcDbEntity
  8
画層1
 62
     0
100
AcDbLine
 10
165.8
 20
146.25
 30
0.0
 11
165.8
 21
146.8499999999999
 31
0.0
  0
LINE
  5
C4
330
2
100
AcDbEntity
  8
画層1
 62
     0
100
AcDbLine
 10
166.4
 20
146.5
 30
0.0
 11
165.8
 21
146.25
 31
0.0
  0
LINE
  5
C5
330
2
100
AcDbEntity
  8
画層1
 62
     0
100
AcDbLine
 10
166.4
 20
145.9
 30
0.0
 11
166.4
 21
146.5
 31
0.0
  0
ARC
  5
C6
330
2
100
AcDbEntity
  8
画層1
 62
     0
100
AcDbCircle
 10
167.1199999999999
 20
148.71
 30
0.0
 40
1.0
100
AcDbArc
 50
247.5099999999999
 51
300.2499999999999
  0
LINE
  5
C7
330
2
100
AcDbEntity
  8
画層1
 62
     0
100
AcDbLine
 10
167.1999999999999
 20
146.15
 30
0.0
 11
166.4
 21
145.9
 31
0.0
  0
ELLIPSE
  5
C8
330
2
100
AcDbEntity
  8
画層1
 62
     0
100
AcDbEllipse
 10
64.0
 20
177.0
 30
0.0
 11
-4.5
 21
0.0
 31
0.0
210
0.0
220
0.0
230
1.0
 40
0.69
 41
0.0
 42
6.283185307179584
  0
ELLIPSE
  5
C9
330
2
100
AcDbEntity
  8
画層1
 62
     0
100
AcDbEllipse
 10
74.0
 20
177.0
 30
0.0
 11
-4.5
 21
0.0
 31
0.0
210
0.0
220
0.0
230
1.0
 40
0.69
 41
0.0
 42
6.283185307179584
  0
ELLIPSE
  5
CA
330
2
100
AcDbEntity
  8
画層1
 62
     0
100
AcDbEllipse
 10
94.0
 20
177.0
 30
0.0
 11
-4.5
 21
0.0
 31
0.0
210
0.0
220
0.0
230
1.0
 40
0.69
 41
0.0
 42
6.283185307179584
  0
ELLIPSE
  5
CB
330
2
100
AcDbEntity
  8
画層1
 62
     0
100
AcDbEllipse
 10
84.0
 20
177.0
 30
0.0
 11
-4.5
 21
0.0
 31
0.0
210
0.0
220
0.0
230
1.0
 40
0.69
 41
0.0
 42
6.283185307179584
  0
ELLIPSE
  5
CC
330
2
100
AcDbEntity
  8
画層1
 62
     0
100
AcDbEllipse
 10
64.0
 20
163.0
 30
0.0
 11
-4.5
 21
0.0
 31
0.0
210
0.0
220
0.0
230
1.0
 40
0.69
 41
0.0
 42
6.283185307179584
  0
ELLIPSE
  5
CD
330
2
100
AcDbEntity
  8
画層1
 62
     0
100
AcDbEllipse
 10
94.0
 20
163.0
 30
0.0
 11
-4.5
 21
0.0
 31
0.0
210
0.0
220
0.0
230
1.0
 40
0.69
 41
0.0
 42
6.283185307179584
  0
LINE
  5
CE
330
2
100
AcDbEntity
  8
画層1
 62
     0
100
AcDbLine
 10
63.5
 20
232.1
 30
0.0
 11
91.0
 21
232.1
 31
0.0
  0
LINE
  5
CF
330
2
100
AcDbEntity
  8
画層1
 62
     0
100
AcDbLine
 10
91.0
 20
221.9
 30
0.0
 11
63.5
 21
221.9
 31
0.0
  0
LINE
  5
D0
330
2
100
AcDbEntity
  8
画層1
 62
     0
100
AcDbLine
 10
63.5
 20
214.1
 30
0.0
 11
91.0
 21
214.1
 31
0.0
  0
LINE
  5
D1
330
2
100
AcDbEntity
  8
画層1
 62
     0
100
AcDbLine
 10
91.0
 20
203.9
 30
0.0
 11
63.5
 21
203.9
 31
0.0
  0
LINE
  5
D2
330
2
100
AcDbEntity
  8
画層1
 62
     0
100
AcDbLine
 10
57.6
 20
241.9
 30
0.0
 11
100.4
 21
241.9
 31
0.0
  0
LINE
  5
D3
330
2
100
AcDbEntity
  8
画層1
 62
     0
100
AcDbLine
 10
57.1
 20
184.0
 30
0.0
 11
100.9
 21
184.0
 31
0.0
  0
HATCH
  5
D4
330
2
100
AcDbEntity
  8
画層1
 62
     0
100
AcDbHatch
 10
0.0
 20
0.0
 30
0.0
210
0.0
220
0.0
230
1.0
  2
SOLID
 70
     1
 71
     0
 91
       10
 92
        5
 93
       10
 72
     3
 10
79.85911741761317
 20
152.1247363737455
 11
-0.982456140350877
 21
0.0
 40
0.6607142857142858
 50
90.0
 51
270.0
 73
     1
 72
     2
 10
79.85911741761317
 20
152.8791223386578
 40
0.1052631578947376
 50
89.99999999999628
 51
269.9999999999955
 73
     0
 72
     2
 10
79.92217545186261
 20
151.6304023873074
 40
1.355450691026425
 50
267.3335335883713
 51
296.4437824908838
 73
     0
 72
     1
 10
80.52578408427981
 20
152.8440346193594
 11
80.66613496147281
 21
153.1598240930438
 72
     2
 10
79.80759013602938
 20
151.5153025250409
 40
1.855141613171803
 50
62.43257811529774
 51
90.5759553231079
 73
     1
 72
     3
 10
79.78894197901666
 20
152.7212276018156
 11
0.9558248242604051
 21
0.0
 40
0.6791231934364329
 50
90.0
 51
270.0
 73
     1
 72
     2
 10
79.78894197901666
 20
151.9668416369035
 40
0.1052631578947376
 50
270.0000000000023
 51
450.0000000000031
 73
     0
 72
     2
 10
79.69926826062553
 20
153.6939116414389
 40
1.834526149694269
 50
87.1982008190587
 51
115.4216641289815
 73
     0
 72
     1
 10
78.91174899656054
 20
152.0370170754999
 11
78.7363104000693
 21
151.7212276018156
 72
     2
 10
79.78364176434205
 20
153.819805066561
 40
2.3454062253961
 50
243.4777171338575
 51
271.8441083094921
 73
     1
 97
        0
 92
        7
 72
     0
 73
     1
 93
       12
 10
83.4380647860342
 20
153.335262689535
 10
82.52578408427982
 20
153.335262689535
 10
82.52578408427982
 20
152.6685960228683
 10
81.96438057550791
 20
152.6685960228683
 10
81.96438057550791
 20
153.335262689535
 10
81.05209987375351
 20
153.335262689535
 10
81.05209987375351
 20
151.5107012860262
 10
81.96438057550791
 20
151.5107012860262
 10
81.96438057550791
 20
152.1773679526929
 10
82.52578408427982
 20
152.1773679526929
 10
82.52578408427982
 20
151.5107012860262
 10
83.4380647860342
 20
151.5107012860262
 97
        0
 92
        7
 72
     0
 73
     1
 93
        4
 10
84.63104724217457
 20
153.335262689535
 10
83.71876654042017
 20
153.335262689535
 10
83.71876654042017
 20
151.5107012860262
 10
84.63104724217457
 20
151.5107012860262
 97
        0
 92
        7
 72
     0
 73
     1
 93
       13
 10
87.71876654042017
 20
153.335262689535
 10
86.87666127726229
 20
153.335262689535
 10
86.49069636498158
 20
152.5633328649736
 10
86.17490689129738
 20
153.335262689535
 10
85.1924507509465
 20
153.335262689535
 10
84.87666127726226
 20
151.5107012860262
 10
85.75385425971843
 20
151.5107012860262
 10
85.85911741761314
 20
152.1071925140964
 10
86.17490689129738
 20
151.5107012860262
 10
86.73631040006929
 20
151.5107012860262
 10
87.01701215445526
 20
152.1071925140964
 10
87.15736303164828
 20
151.5107012860262
 10
88.03455601410439
 20
151.5107012860262
 97
        0
 92
        7
 72
     0
 73
     1
 93
        8
 10
90.17490689129738
 20
153.335262689535
 10
89.12227531235002
 20
153.335262689535
 10
88.28017004919209
 20
151.5107012860262
 10
89.1924507509465
 20
151.5107012860262
 10
89.3444975345722
 20
151.8615784790084
 10
89.99946829480615
 20
151.8615784790084
 10
90.17490689129738
 20
151.5107012860262
 10
91.01701215445528
 20
151.5107012860262
 97
        0
 92
       22
 72
     0
 73
     1
 93
        3
 10
89.48133963983542
 20
152.1773679526929
 10
89.64859110182372
 20
152.5633328649736
 10
89.84157355796403
 20
152.1773679526929
 97
        0
 92
        7
 72
     1
 73
     1
 93
        4
 10
92.87666127726229
 20
153.335262689535
 42
0.0
 10
91.26262618954299
 20
153.335262689535
 42
0.0
 10
91.26262618954299
 20
151.5107012860262
 42
0.0
 10
92.87666127726229
 20
151.5107012860262
 42
1.0
 97
        0
 92
       22
 72
     1
 73
     1
 93
        4
 10
92.17490689129736
 20
152.8791223386578
 42
0.0
 10
92.38543320708686
 20
152.8791223386578
 42
-1.0
 10
92.38543320708686
 20
151.9668416369035
 42
0.0
 10
92.17490689129736
 20
151.9668416369035
 42
0.0
 97
        0
 92
        7
 72
     0
 73
     1
 93
       12
 10
94.94683671585878
 20
152.1773679526929
 10
95.75385425971843
 20
152.1773679526929
 10
95.75385425971843
 20
152.6685960228683
 10
94.94683671585878
 20
152.6685960228683
 10
94.94683671585878
 20
152.9492977772543
 10
95.89420513691141
 20
152.9492977772543
 10
95.89420513691141
 20
153.335262689535
 10
93.99946829480615
 20
153.335262689535
 10
93.99946829480615
 20
151.5107012860262
 10
95.89420513691141
 20
151.5107012860262
 10
95.89420513691141
 20
151.8966661983069
 10
94.94683671585878
 20
151.8966661983069
 97
        0
 92
        7
 72
     0
 73
     1
 93
       10
 10
97.05209987375351
 20
152.3528065491841
 10
97.8942051369114
 20
151.5107012860262
 10
98.87666127726228
 20
151.5107012860262
 10
98.87666127726228
 20
153.335262689535
 10
97.96438057550794
 20
153.335262689535
 10
97.96438057550794
 20
152.5633328649736
 10
97.19245075094653
 20
153.335262689535
 10
96.13981917199915
 20
153.335262689535
 10
96.13981917199915
 20
151.5107012860262
 10
97.05209987375351
 20
151.5107012860262
 97
        0
 75
     0
 76
     1
 47
0.31
 98
       10
 10
80.06126844324354
 20
152.2001159451965
 10
81.35919050096186
 20
152.3497375568636
 10
84.40431543506944
 20
152.2998636655999
 10
85.45263711480334
 20
152.1502420539324
 10
88.84720253198944
 20
152.1003681626685
 10
88.84720253198944
 20
152.1003681626685
 10
91.69264714065963
 20
152.0504943335293
 10
91.69264714065963
 20
152.0504943335293
 10
94.2884912560963
 20
152.1003681626685
 10
96.58481494100151
 20
152.1003681626685
  0
LINE
  5
D5
330
2
100
AcDbEntity
  8
画層1
 62
     0
100
AcDbLine
 10
100.4
 20
150.0999999999999
 30
0.0
 11
57.6
 21
150.0999999999999
 31
0.0
  0
LINE
  5
D6
330
2
100
AcDbEntity
  8
画層1
 62
     0
100
AcDbLine
 10
57.1
 20
155.0
 30
0.0
 11
100.9
 21
155.0
 31
0.0
  0
LINE
  5
D7
330
2
100
AcDbEntity
  8
画層1
 62
     0
100
AcDbLine
 10
100.5
 20
149.9
 30
0.0
 11
57.5
 21
149.9
 31
0.0
  0
LINE
  5
D8
330
2
100
AcDbEntity
  8
画層1
 62
     0
100
AcDbLine
 10
57.5
 20
242.0999999999999
 30
0.0
 11
100.5
 21
242.0999999999999
 31
0.0
  0
LINE
  5
D9
330
2
100
AcDbEntity
  8
画層1
 62
     0
100
AcDbLine
 10
56.1
 20
243.9
 30
0.0
 11
101.9
 21
243.9
 31
0.0
  0
LINE
  5
DA
330
2
100
AcDbEntity
  8
画層1
 62
     0
100
AcDbLine
 10
56.1
 20
244.0
 30
0.0
 11
101.9
 21
244.0
 31
0.0
  0
DIMENSION
  5
DB
330
2
100
AcDbEntity
  8
画層1
 62
     0
100
AcDbDimension
  2
*D13
 10
103.0
 20
251.0
 30
0.0
 11
79.0
 21
252.8799999999999
 31
0.0
 70
    32
 71
     5
 42
48.0
  3
STANDARD_WS
100
AcDbAlignedDimension
 13
55.0
 23
242.9
 33
0.0
 14
103.0
 24
242.9
 34
0.0
100
AcDbRotatedDimension
1001
ACAD
1000
DSTYLE
1002
{
1070
   340
1005
27
1002
}
  0
LINE
  5
E8
330
2
100
AcDbEntity
  8
画層1
  6
CENTER
 62
     0
100
AcDbLine
 10
53.0
 20
196.0
 30
0.0
 11
105.0
 21
196.0
 31
0.0
  0
LINE
  5
E9
330
2
100
AcDbEntity
  8
画層1
 62
     0
100
AcDbLine
 10
57.1
 20
150.6
 30
0.0
 11
57.1
 21
241.4
 31
0.0
  0
LINE
  5
EA
330
2
100
AcDbEntity
  8
画層1
 62
     0
100
AcDbLine
 10
56.9
 20
150.5
 30
0.0
 11
56.9
 21
241.5
 31
0.0
  0
LINE
  5
EB
330
2
100
AcDbEntity
  8
画層1
 62
     0
100
AcDbLine
 10
55.1
 20
149.0999999999999
 30
0.0
 11
55.1
 21
242.9
 31
0.0
  0
LINE
  5
EC
330
2
100
AcDbEntity
  8
画層1
 62
     0
100
AcDbLine
 10
55.0
 20
149.0999999999999
 30
0.0
 11
55.0
 21
242.9
 31
0.0
  0
MTEXT
  5
ED
330
2
100
AcDbEntity
  8
画層1
 62
     0
100
AcDbMText
 10
58.91
 20
153.4799999999999
 30
0.0
 40
2.0
 41
11.18999999999999
 71
     1
 72
     5
  1
{\fＭＳ Ｐゴシック|b0|i0|c128|p50;ＳＲ８４}
  7
STYLE1
 73
     1
 44
1.0
1001
ACAD
1000
MTEXTBEGIN
1070
    73
1070
     1
1070
    44
1040
1.0
1070
    74
1070
     0
1000
MTEXTEND
1000
MTEXTBEGIN
1070
    73
1070
     1
1070
    44
1040
1.0
1070
    74
1070
     0
1000
MTEXTEND
  0
ARC
  5
EE
330
2
100
AcDbEntity
  8
画層1
 62
     0
100
AcDbCircle
 10
57.6
 20
150.6
 30
0.0
 40
0.5
100
AcDbArc
 50
180.0
 51
270.0
  0
ARC
  5
EF
330
2
100
AcDbEntity
  8
画層1
 62
     0
100
AcDbCircle
 10
57.5
 20
150.5
 30
0.0
 40
0.6
100
AcDbArc
 50
180.0
 51
270.0
  0
MTEXT
  5
F0
330
2
100
AcDbEntity
  8
画層1
 62
     0
100
AcDbMText
 10
62.66
 20
164.06
 30
0.0
 40
2.2
 41
5.169999999999999
 71
     1
 72
     5
  1
AT
  7
STYLE1
 73
     1
 44
1.0
1001
ACAD
1000
MTEXTBEGIN
1070
    73
1070
     1
1070
    44
1040
1.0
1070
    74
1070
     0
1000
MTEXTEND
1000
MTEXTBEGIN
1070
    73
1070
     1
1070
    44
1040
1.0
1070
    74
1070
     0
1000
MTEXTEND
  0
MTEXT
  5
F1
330
2
100
AcDbEntity
  8
画層1
 62
     0
100
AcDbMText
 10
61.21
 20
178.08
 30
0.0
 40
2.2
 41
7.83
 71
     1
 72
     5
  1
DISP
  7
STYLE1
 73
     1
 44
1.0
1001
ACAD
1000
MTEXTBEGIN
1070
    73
1070
     1
1070
    44
1040
1.0
1070
    74
1070
     0
1000
MTEXTEND
1000
MTEXTBEGIN
1070
    73
1070
     1
1070
    44
1040
1.0
1070
    74
1070
     0
1000
MTEXTEND
  0
HATCH
  5
F2
330
2
100
AcDbEntity
  8
画層1
 62
     0
100
AcDbHatch
 10
0.0
 20
0.0
 30
0.0
210
0.0
220
0.0
230
1.0
  2
SOLID
 70
     1
 71
     0
 91
        1
 92
        5
 93
        5
 72
     3
 10
74.00000000000004
 20
176.9937961216368
 11
-3.179765130984643
 21
0.0
 40
0.5400000000000005
 50
102.6170915574608
 51
437.3829084425389
 73
     1
 72
     1
 10
73.6184281842819
 20
175.2891307076314
 11
73.6184281842819
 21
175.797878630242
 72
     3
 10
74.00000000000004
 20
176.9937961216368
 11
-2.671002710027102
 21
0.0
 40
0.4523809523809537
 50
-72.30409342292334
 51
209.8520372589858
 73
     0
 72
     1
 10
75.65347786811208
 20
176.0448451026105
 11
75.14471544715451
 21
176.8030102137775
 72
     1
 10
75.14471544715455
 20
176.8030102137775
 11
74.38157181571821
 21
175.2891307076314
 97
        0
 75
     0
 76
     1
 47
0.05
 98
        1
 10
74.4786269588065
 20
178.4379671463804
  0
LINE
  5
F3
330
2
100
AcDbEntity
  8
画層1
 62
     0
100
AcDbLine
 10
68.5
 20
188.5999999999999
 30
0.0
 11
71.5
 21
188.5999999999999
 31
0.0
  0
LINE
  5
F4
330
2
100
AcDbEntity
  8
画層1
 62
     0
100
AcDbLine
 10
71.5
 20
187.4
 30
0.0
 11
68.5
 21
187.4
 31
0.0
  0
MTEXT
  5
F5
330
2
100
AcDbEntity
  8
画層1
 62
     0
100
AcDbMText
 10
68.49
 20
191.1599999999999
 30
0.0
 40
1.6
 41
4.669999999999999
 71
     1
 72
     5
  1
MAN
  7
STYLE1
 73
     1
 44
1.0
1001
ACAD
1000
MTEXTBEGIN
1070
    73
1070
     1
1070
    44
1040
1.0
1070
    74
1070
     0
1000
MTEXTEND
1000
MTEXTBEGIN
1070
    73
1070
     1
1070
    44
1040
1.0
1070
    74
1070
     0
1000
MTEXTEND
  0
LINE
  5
F6
330
2
100
AcDbEntity
  8
画層1
 62
     0
100
AcDbLine
 10
68.5
 20
187.4
 30
0.0
 11
68.5
 21
188.5999999999999
 31
0.0
  0
LINE
  5
F7
330
2
100
AcDbEntity
  8
画層1
 62
     0
100
AcDbLine
 10
74.5
 20
188.5999999999999
 30
0.0
 11
77.5
 21
188.5999999999999
 31
0.0
  0
LINE
  5
F8
330
2
100
AcDbEntity
  8
画層1
 62
     0
100
AcDbLine
 10
77.5
 20
187.4
 30
0.0
 11
74.5
 21
187.4
 31
0.0
  0
LINE
  5
F9
330
2
100
AcDbEntity
  8
画層1
 62
     0
100
AcDbLine
 10
71.5
 20
188.5999999999999
 30
0.0
 11
71.5
 21
187.4
 31
0.0
  0
LINE
  5
FA
330
2
100
AcDbEntity
  8
画層1
 62
     0
100
AcDbLine
 10
74.5
 20
187.4
 30
0.0
 11
74.5
 21
188.5999999999999
 31
0.0
  0
LINE
  5
FB
330
2
100
AcDbEntity
  8
画層1
 62
     0
100
AcDbLine
 10
77.5
 20
188.5999999999999
 30
0.0
 11
77.5
 21
187.4
 31
0.0
  0
MTEXT
  5
FC
330
2
100
AcDbEntity
  8
画層1
 62
     0
100
AcDbMText
 10
74.51
 20
193.1899999999999
 30
0.0
 40
1.6
 41
2.779999999999999
 71
     1
 72
     5
  1
SV2
  7
STYLE1
 73
     1
 44
1.0
1001
ACAD
1000
MTEXTBEGIN
1070
    73
1070
     1
1070
    44
1040
1.0
1070
    74
1070
     0
1000
MTEXTEND
1000
MTEXTBEGIN
1070
    73
1070
     1
1070
    44
1040
1.0
1070
    74
1070
     0
1000
MTEXTEND
  0
MTEXT
  5
FD
330
2
100
AcDbEntity
  8
画層1
 62
     0
100
AcDbMText
 10
75.06
 20
191.25
 30
0.0
 40
1.6
 41
2.229999999999999
 71
     1
 72
     5
  1
SB
  7
STYLE1
 73
     1
 44
1.0
1001
ACAD
1000
MTEXTBEGIN
1070
    73
1070
     1
1070
    44
1040
1.0
1070
    74
1070
     0
1000
MTEXTEND
1000
MTEXTBEGIN
1070
    73
1070
     1
1070
    44
1040
1.0
1070
    74
1070
     0
1000
MTEXTEND
  0
MTEXT
  5
FE
330
2
100
AcDbEntity
  8
画層1
 62
     0
100
AcDbMText
 10
64.84
 20
217.5899999999999
 30
0.0
 40
2.5
 41
6.9
 71
     1
 72
     5
  1
\fＭＳ Ｐゴシック|b0|i0|c128|p50;ＳＶ
  7
STYLE1
 73
     1
 44
1.0
1001
ACAD
1000
MTEXTBEGIN
1070
    73
1070
     1
1070
    44
1040
1.0
1070
    74
1070
     0
1000
MTEXTEND
1000
MTEXTBEGIN
1070
    73
1070
     1
1070
    44
1040
1.0
1070
    74
1070
     0
1000
MTEXTEND
  0
ARC
  5
FF
330
2
100
AcDbEntity
  8
画層1
 62
     0
100
AcDbCircle
 10
63.5
 20
213.0999999999999
 30
0.0
 40
1.0
100
AcDbArc
 50
90.0
 51
180.0
  0
ARC
  5
100
330
2
100
AcDbEntity
  8
画層1
 62
     0
100
AcDbCircle
 10
63.5
 20
204.8999999999999
 30
0.0
 40
1.0
100
AcDbArc
 50
180.0
 51
270.0
  0
MTEXT
  5
101
330
2
100
AcDbEntity
  8
画層1
 62
     0
100
AcDbMText
 10
62.11999999999999
 20
199.19
 30
0.0
 40
1.6
 41
5.299999999999999
 71
     1
 72
     5
  1
OUT1
  7
STYLE1
 73
     1
 44
1.0
1001
ACAD
1000
MTEXTBEGIN
1070
    73
1070
     1
1070
    44
1040
1.0
1070
    74
1070
     0
1000
MTEXTEND
1000
MTEXTBEGIN
1070
    73
1070
     1
1070
    44
1040
1.0
1070
    74
1070
     0
1000
MTEXTEND
  0
LINE
  5
102
330
2
100
AcDbEntity
  8
画層1
 62
     0
100
AcDbLine
 10
62.5
 20
204.8999999999999
 30
0.0
 11
62.5
 21
213.0999999999999
 31
0.0
  0
LINE
  5
103
330
2
100
AcDbEntity
  8
画層1
 62
     0
100
AcDbLine
 10
68.5
 20
196.6
 30
0.0
 11
71.5
 21
196.6
 31
0.0
  0
LINE
  5
104
330
2
100
AcDbEntity
  8
画層1
 62
     0
100
AcDbLine
 10
71.5
 20
195.4
 30
0.0
 11
68.5
 21
195.4
 31
0.0
  0
MTEXT
  5
105
330
2
100
AcDbEntity
  8
画層1
 62
     0
100
AcDbMText
 10
68.06
 20
199.19
 30
0.0
 40
1.6
 41
5.36
 71
     1
 72
     5
  1
OUT2
  7
STYLE1
 73
     1
 44
1.0
1001
ACAD
1000
MTEXTBEGIN
1070
    73
1070
     1
1070
    44
1040
1.0
1070
    74
1070
     0
1000
MTEXTEND
1000
MTEXTBEGIN
1070
    73
1070
     1
1070
    44
1040
1.0
1070
    74
1070
     0
1000
MTEXTEND
  0
LINE
  5
106
330
2
100
AcDbEntity
  8
画層1
 62
     0
100
AcDbLine
 10
62.5
 20
196.6
 30
0.0
 11
65.5
 21
196.6
 31
0.0
  0
LINE
  5
107
330
2
100
AcDbEntity
  8
画層1
 62
     0
100
AcDbLine
 10
65.5
 20
195.4
 30
0.0
 11
62.5
 21
195.4
 31
0.0
  0
LINE
  5
108
330
2
100
AcDbEntity
  8
画層1
 62
     0
100
AcDbLine
 10
62.5
 20
195.4
 30
0.0
 11
62.5
 21
196.6
 31
0.0
  0
LINE
  5
109
330
2
100
AcDbEntity
  8
画層1
 62
     0
100
AcDbLine
 10
65.5
 20
196.6
 30
0.0
 11
65.5
 21
195.4
 31
0.0
  0
LINE
  5
10A
330
2
100
AcDbEntity
  8
画層1
 62
     0
100
AcDbLine
 10
68.5
 20
195.4
 30
0.0
 11
68.5
 21
196.6
 31
0.0
  0
LINE
  5
10B
330
2
100
AcDbEntity
  8
画層1
 62
     0
100
AcDbLine
 10
74.5
 20
196.6
 30
0.0
 11
77.5
 21
196.6
 31
0.0
  0
LINE
  5
10C
330
2
100
AcDbEntity
  8
画層1
 62
     0
100
AcDbLine
 10
77.5
 20
195.4
 30
0.0
 11
74.5
 21
195.4
 31
0.0
  0
MTEXT
  5
10D
330
2
100
AcDbEntity
  8
画層1
 62
     0
100
AcDbMText
 10
74.76
 20
199.1699999999999
 30
0.0
 40
1.6
 41
3.709999999999999
 71
     1
 72
     5
  1
EV1
  7
STYLE1
 73
     1
 44
1.0
1001
ACAD
1000
MTEXTBEGIN
1070
    73
1070
     1
1070
    44
1040
1.0
1070
    74
1070
     0
1000
MTEXTEND
1000
MTEXTBEGIN
1070
    73
1070
     1
1070
    44
1040
1.0
1070
    74
1070
     0
1000
MTEXTEND
  0
LINE
  5
10E
330
2
100
AcDbEntity
  8
画層1
 62
     0
100
AcDbLine
 10
71.5
 20
196.6
 30
0.0
 11
71.5
 21
195.4
 31
0.0
  0
LINE
  5
10F
330
2
100
AcDbEntity
  8
画層1
 62
     0
100
AcDbLine
 10
74.5
 20
195.4
 30
0.0
 11
74.5
 21
196.6
 31
0.0
  0
LINE
  5
110
330
2
100
AcDbEntity
  8
画層1
 62
     0
100
AcDbLine
 10
77.5
 20
196.6
 30
0.0
 11
77.5
 21
195.4
 31
0.0
  0
ARC
  5
111
330
2
100
AcDbEntity
  8
画層1
 62
     0
100
AcDbCircle
 10
63.5
 20
231.0999999999999
 30
0.0
 40
1.0
100
AcDbArc
 50
90.0
 51
180.0
  0
ARC
  5
112
330
2
100
AcDbEntity
  8
画層1
 62
     0
100
AcDbCircle
 10
63.5
 20
222.9
 30
0.0
 40
1.0
100
AcDbArc
 50
180.0
 51
270.0
  0
LINE
  5
113
330
2
100
AcDbEntity
  8
画層1
 62
     0
100
AcDbLine
 10
62.5
 20
222.9
 30
0.0
 11
62.5
 21
231.0999999999999
 31
0.0
  0
MTEXT
  5
114
330
2
100
AcDbEntity
  8
画層1
 62
     0
100
AcDbMText
 10
64.66
 20
235.5999999999999
 30
0.0
 40
2.5
 41
6.049999999999999
 71
     1
 72
     5
  1
\fＭＳ Ｐゴシック|b0|i0|c128|p50;ＰＶ
  7
STYLE1
 73
     1
 44
1.0
1001
ACAD
1000
MTEXTBEGIN
1070
    73
1070
     1
1070
    44
1040
1.0
1070
    74
1070
     0
1000
MTEXTEND
1000
MTEXTBEGIN
1070
    73
1070
     1
1070
    44
1040
1.0
1070
    74
1070
     0
1000
MTEXTEND
  0
LINE
  5
115
330
2
100
AcDbEntity
  8
画層1
 62
     0
100
AcDbLine
 10
56.7
 20
246.45
 30
0.0
 11
59.17
 21
246.45
 31
0.0
  0
LINE
  5
116
330
2
100
AcDbEntity
  8
画層1
 62
     0
100
AcDbLine
 10
59.17
 20
244.3499999999999
 30
0.0
 11
56.7
 21
244.3499999999999
 31
0.0
  0
LINE
  5
117
330
2
100
AcDbEntity
  8
画層1
 62
     0
100
AcDbLine
 10
59.17
 20
245.05
 30
0.0
 11
56.7
 21
245.05
 31
0.0
  0
LINE
  5
118
330
2
100
AcDbEntity
  8
画層1
 62
     0
100
AcDbLine
 10
59.17
 20
244.7
 30
0.0
 11
56.7
 21
244.7
 31
0.0
  0
LINE
  5
119
330
2
100
AcDbEntity
  8
画層1
 62
     0
100
AcDbLine
 10
59.17
 20
245.4
 30
0.0
 11
56.7
 21
245.4
 31
0.0
  0
LINE
  5
11A
330
2
100
AcDbEntity
  8
画層1
 62
     0
100
AcDbLine
 10
59.17
 20
245.75
 30
0.0
 11
56.7
 21
245.75
 31
0.0
  0
LINE
  5
11B
330
2
100
AcDbEntity
  8
画層1
 62
     0
100
AcDbLine
 10
59.17
 20
246.0999999999999
 30
0.0
 11
56.7
 21
246.0999999999999
 31
0.0
  0
ARC
  5
11C
330
2
100
AcDbEntity
  8
画層1
 62
     0
100
AcDbCircle
 10
57.6
 20
241.4
 30
0.0
 40
0.5
100
AcDbArc
 50
90.0
 51
180.0
  0
ARC
  5
11D
330
2
100
AcDbEntity
  8
画層1
 62
     0
100
AcDbCircle
 10
57.5
 20
241.5
 30
0.0
 40
0.6
100
AcDbArc
 50
90.0
 51
180.0
  0
ARC
  5
11E
330
2
100
AcDbEntity
  8
画層1
 62
     0
100
AcDbCircle
 10
56.1
 20
242.9
 30
0.0
 40
1.0
100
AcDbArc
 50
90.0
 51
180.0
  0
LINE
  5
11F
330
2
100
AcDbEntity
  8
画層1
 62
     0
100
AcDbLine
 10
58.0
 20
244.0
 30
0.0
 11
58.0
 21
243.9
 31
0.0
  0
ARC
  5
120
330
2
100
AcDbEntity
  8
画層1
 62
     0
100
AcDbCircle
 10
56.1
 20
242.9
 30
0.0
 40
1.1
100
AcDbArc
 50
90.0
 51
180.0
  0
LINE
  5
121
330
2
100
AcDbEntity
  8
画層1
 62
     0
100
AcDbLine
 10
56.7
 20
246.45
 30
0.0
 11
56.7
 21
244.0
 31
0.0
  0
LINE
  5
122
330
2
100
AcDbEntity
  8
画層1
 62
     0
100
AcDbLine
 10
60.0
 20
244.0
 30
0.0
 11
60.0
 21
243.9
 31
0.0
  0
LINE
  5
123
330
2
100
AcDbEntity
  8
画層1
 62
     0
100
AcDbLine
 10
59.17
 20
246.45
 30
0.0
 11
59.17
 21
244.0
 31
0.0
  0
LINE
  5
124
330
2
100
AcDbEntity
  8
画層1
 62
     0
100
AcDbLine
 10
70.0
 20
244.0
 30
0.0
 11
70.0
 21
243.9
 31
0.0
  0
LINE
  5
125
330
2
100
AcDbEntity
  8
画層1
 62
     0
100
AcDbLine
 10
72.0
 20
244.0
 30
0.0
 11
72.0
 21
243.9
 31
0.0
  0
LINE
  5
126
330
2
100
AcDbEntity
  8
画層1
 62
     0
100
AcDbLine
 10
100.9
 20
241.4
 30
0.0
 11
100.9
 21
150.6
 31
0.0
  0
LINE
  5
127
330
2
100
AcDbEntity
  8
画層1
 62
     0
100
AcDbLine
 10
151.0
 20
242.7
 30
0.0
 11
151.0
 21
149.3
 31
0.0
  0
LINE
  5
128
330
2
100
AcDbEntity
  8
画層1
 62
     0
100
AcDbLine
 10
192.5
 20
241.8
 30
0.0
 11
192.5
 21
238.3
 31
0.0
  0
LINE
  5
129
330
2
100
AcDbEntity
  8
画層1
 62
     0
100
AcDbLine
 10
192.5
 20
238.3
 30
0.0
 11
190.0
 21
241.8
 31
0.0
  0
LINE
  5
12A
330
2
100
AcDbEntity
  8
画層1
 62
     0
100
AcDbLine
 10
171.0
 20
241.8
 30
0.0
 11
171.0
 21
239.5999999999999
 31
0.0
  0
ARC
  5
12B
330
2
100
AcDbEntity
  8
画層1
 62
     0
100
AcDbCircle
 10
183.9499999999999
 20
273.1999999999999
 30
0.0
 40
31.40248406519245
100
AcDbArc
 50
238.4099999999999
 51
269.37
  0
ARC
  5
12C
330
2
100
AcDbEntity
  8
画層1
 62
     0
100
AcDbCircle
 10
183.74
 20
271.7999999999999
 30
0.0
 40
32.0
100
AcDbArc
 50
239.7499999999999
 51
269.74
  0
LINE
  5
12D
330
2
100
AcDbEntity
  8
画層1
 62
     0
100
AcDbLine
 10
162.0999999999999
 20
241.8
 30
0.0
 11
162.0999999999999
 21
150.1999999999999
 31
0.0
  0
LINE
  5
12E
330
2
100
AcDbEntity
  8
画層1
 62
     0
100
AcDbLine
 10
154.0
 20
244.0
 30
0.0
 11
154.0
 21
196.0
 31
0.0
  0
LINE
  5
12F
330
2
100
AcDbEntity
  8
画層1
 62
     0
100
AcDbLine
 10
101.0999999999999
 20
241.5
 30
0.0
 11
101.0999999999999
 21
150.5
 31
0.0
  0
LINE
  5
130
330
2
100
AcDbEntity
  8
画層1
 62
     0
100
AcDbLine
 10
102.9
 20
242.9
 30
0.0
 11
102.9
 21
149.0999999999999
 31
0.0
  0
LINE
  5
131
330
2
100
AcDbEntity
  8
画層1
 62
     0
100
AcDbLine
 10
103.0
 20
242.9
 30
0.0
 11
103.0
 21
149.0999999999999
 31
0.0
  0
MTEXT
  5
132
330
2
100
AcDbEntity
  8
画層1
 62
     0
100
AcDbMText
 10
92.17
 20
164.0099999999999
 30
0.0
 40
2.2
 41
6.33
 71
     1
 72
     5
  1
ENT
  7
STYLE1
 73
     1
 44
1.0
1001
ACAD
1000
MTEXTBEGIN
1070
    73
1070
     1
1070
    44
1040
1.0
1070
    74
1070
     0
1000
MTEXTEND
1000
MTEXTBEGIN
1070
    73
1070
     1
1070
    44
1040
1.0
1070
    74
1070
     0
1000
MTEXTEND
  0
ARC
  5
133
330
2
100
AcDbEntity
  8
画層1
 62
     0
100
AcDbCircle
 10
100.4
 20
150.6
 30
0.0
 40
0.5
100
AcDbArc
 50
270.0
 51
0.0
  0
ARC
  5
134
330
2
100
AcDbEntity
  8
画層1
 62
     0
100
AcDbCircle
 10
100.5
 20
150.5
 30
0.0
 40
0.6
100
AcDbArc
 50
270.0
 51
0.0
  0
LINE
  5
135
330
2
100
AcDbEntity
  8
画層1
 62
     0
100
AcDbLine
 10
92.5
 20
188.5999999999999
 30
0.0
 11
95.5
 21
188.5999999999999
 31
0.0
  0
LINE
  5
136
330
2
100
AcDbEntity
  8
画層1
 62
     0
100
AcDbLine
 10
95.5
 20
187.4
 30
0.0
 11
92.5
 21
187.4
 31
0.0
  0
MTEXT
  5
137
330
2
100
AcDbEntity
  8
画層1
 62
     0
100
AcDbMText
 10
92.43999999999999
 20
191.14
 30
0.0
 40
1.6
 41
5.0
 71
     1
 72
     5
  1
COM
  7
STYLE1
 73
     1
 44
1.0
1001
ACAD
1000
MTEXTBEGIN
1070
    73
1070
     1
1070
    44
1040
1.0
1070
    74
1070
     0
1000
MTEXTEND
1000
MTEXTBEGIN
1070
    73
1070
     1
1070
    44
1040
1.0
1070
    74
1070
     0
1000
MTEXTEND
  0
HATCH
  5
138
330
2
100
AcDbEntity
  8
画層1
 62
     0
100
AcDbHatch
 10
0.0
 20
0.0
 30
0.0
210
0.0
220
0.0
230
1.0
  2
SOLID
 70
     1
 71
     0
 91
        1
 92
        7
 72
     1
 73
     1
 93
        6
 10
95.39708235453042
 20
175.9948717264763
 42
-0.5575365158350519
 10
95.29097274826156
 20
175.8231827770005
 42
0.0
 10
92.7090272517386
 20
175.8231827770005
 42
-0.5575365158350514
 10
92.60291764546972
 20
175.9948717264763
 42
0.0
 10
93.89389039373121
 20
178.5768172229994
 42
-0.6180339887498949
 10
94.10610960626895
 20
178.5768172229994
 42
0.0
 97
        0
 75
     0
 76
     1
 47
0.07
 98
        1
 10
94.21376906601715
 20
176.6347743758347
  0
HATCH
  5
139
330
2
100
AcDbEntity
  8
画層1
 62
     0
100
AcDbHatch
 10
0.0
 20
0.0
 30
0.0
210
0.0
220
0.0
230
1.0
  2
SOLID
 70
     1
 71
     0
 91
        1
 92
        7
 72
     1
 73
     1
 93
        6
 10
85.39708235453039
 20
178.0051282735235
 42
0.5575365158350519
 10
85.29097274826156
 20
178.1768172229994
 42
0.0
 10
82.7090272517386
 20
178.1768172229994
 42
0.5575365158350514
 10
82.60291764546972
 20
178.0051282735235
 42
0.0
 10
83.89389039373122
 20
175.4231827770006
 42
0.6180339887498949
 10
84.10610960626895
 20
175.4231827770006
 42
0.0
 97
        0
 75
     0
 76
     1
 47
0.07
 98
        1
 10
84.21376906601716
 20
177.3652256241653
  0
LINE
  5
13A
330
2
100
AcDbEntity
  8
画層1
 62
     0
100
AcDbLine
 10
86.5
 20
188.5999999999999
 30
0.0
 11
89.50000000000001
 21
188.5999999999999
 31
0.0
  0
LINE
  5
13B
330
2
100
AcDbEntity
  8
画層1
 62
     0
100
AcDbLine
 10
89.50000000000001
 20
187.4
 30
0.0
 11
86.5
 21
187.4
 31
0.0
  0
MTEXT
  5
13C
330
2
100
AcDbEntity
  8
画層1
 62
     0
100
AcDbMText
 10
85.99
 20
191.21
 30
0.0
 40
1.6
 41
5.69
 71
     1
 72
     5
  1
STBY
  7
STYLE1
 73
     1
 44
1.0
1001
ACAD
1000
MTEXTBEGIN
1070
    73
1070
     1
1070
    44
1040
1.0
1070
    74
1070
     0
1000
MTEXTEND
1000
MTEXTBEGIN
1070
    73
1070
     1
1070
    44
1040
1.0
1070
    74
1070
     0
1000
MTEXTEND
  0
LINE
  5
13D
330
2
100
AcDbEntity
  8
画層1
 62
     0
100
AcDbLine
 10
80.5
 20
188.5999999999999
 30
0.0
 11
83.49999999999999
 21
188.5999999999999
 31
0.0
  0
LINE
  5
13E
330
2
100
AcDbEntity
  8
画層1
 62
     0
100
AcDbLine
 10
83.49999999999999
 20
187.4
 30
0.0
 11
80.5
 21
187.4
 31
0.0
  0
LINE
  5
13F
330
2
100
AcDbEntity
  8
画層1
 62
     0
100
AcDbLine
 10
80.5
 20
187.4
 30
0.0
 11
80.5
 21
188.5999999999999
 31
0.0
  0
LINE
  5
140
330
2
100
AcDbEntity
  8
画層1
 62
     0
100
AcDbLine
 10
83.49999999999999
 20
188.5999999999999
 30
0.0
 11
83.49999999999999
 21
187.4
 31
0.0
  0
LINE
  5
141
330
2
100
AcDbEntity
  8
画層1
 62
     0
100
AcDbLine
 10
86.5
 20
187.4
 30
0.0
 11
86.5
 21
188.5999999999999
 31
0.0
  0
MTEXT
  5
142
330
2
100
AcDbEntity
  8
画層1
 62
     0
100
AcDbMText
 10
80.47
 20
191.1599999999999
 30
0.0
 40
1.6
 41
4.62
 71
     1
 72
     5
  1
REM
  7
STYLE1
 73
     1
 44
1.0
1001
ACAD
1000
MTEXTBEGIN
1070
    73
1070
     1
1070
    44
1040
1.0
1070
    74
1070
     0
1000
MTEXTEND
1000
MTEXTBEGIN
1070
    73
1070
     1
1070
    44
1040
1.0
1070
    74
1070
     0
1000
MTEXTEND
  0
LINE
  5
143
330
2
100
AcDbEntity
  8
画層1
 62
     0
100
AcDbLine
 10
89.50000000000001
 20
188.5999999999999
 30
0.0
 11
89.50000000000001
 21
187.4
 31
0.0
  0
LINE
  5
144
330
2
100
AcDbEntity
  8
画層1
 62
     0
100
AcDbLine
 10
92.5
 20
187.4
 30
0.0
 11
92.5
 21
188.5999999999999
 31
0.0
  0
LINE
  5
145
330
2
100
AcDbEntity
  8
画層1
 62
     0
100
AcDbLine
 10
95.5
 20
188.5999999999999
 30
0.0
 11
95.5
 21
187.4
 31
0.0
  0
HATCH
  5
146
330
2
100
AcDbEntity
  8
画層1
 62
     0
100
AcDbHatch
 10
0.0
 20
0.0
 30
0.0
210
0.0
220
0.0
230
1.0
  2
SOLID
 70
     1
 71
     0
 91
        3
 92
        7
 72
     1
 73
     1
 93
        2
 10
94.47891942484103
 20
219.6075753064965
 42
1.0
 10
92.90812101129816
 20
219.6075753064965
 42
1.0
 97
        0
 92
       22
 72
     1
 73
     1
 93
        2
 10
93.28085242204023
 20
219.6075753064965
 42
-1.0
 10
94.10618801409901
 20
219.6075753064965
 42
-1.0
 97
        0
 92
        7
 72
     1
 73
     1
 93
        4
 10
97.9172869839197
 20
219.4408144825624
 42
0.0
 10
97.9172869839197
 20
220.2433481050114
 42
1.533941497875936
 10
97.9172869839197
 20
215.5905926785383
 42
0.0
 10
97.9172869839197
 20
216.3931263009871
 42
-1.87880039970397
 97
        0
 75
     0
 76
     1
 47
0.01
 98
        3
 10
93.78678946913126
 20
219.0884129164939
 10
93.78678946913126
 20
219.0884129164939
 10
94.62621272868776
 20
217.690668632952
  0
LINE
  5
147
330
2
100
AcDbEntity
  8
画層1
 62
     0
100
AcDbLine
 10
92.5
 20
196.6
 30
0.0
 11
95.5
 21
196.6
 31
0.0
  0
LINE
  5
148
330
2
100
AcDbEntity
  8
画層1
 62
     0
100
AcDbLine
 10
95.5
 20
195.4
 30
0.0
 11
92.5
 21
195.4
 31
0.0
  0
MTEXT
  5
149
330
2
100
AcDbEntity
  8
画層1
 62
     0
100
AcDbMText
 10
92.98999999999999
 20
199.1799999999999
 30
0.0
 40
1.6
 41
3.089999999999999
 71
     1
 72
     5
  1
AT
  7
STYLE1
 73
     1
 44
1.0
1001
ACAD
1000
MTEXTBEGIN
1070
    73
1070
     1
1070
    44
1040
1.0
1070
    74
1070
     0
1000
MTEXTEND
1000
MTEXTBEGIN
1070
    73
1070
     1
1070
    44
1040
1.0
1070
    74
1070
     0
1000
MTEXTEND
  0
LINE
  5
14A
330
2
100
AcDbEntity
  8
画層1
 62
     0
100
AcDbLine
 10
92.0
 20
213.0999999999999
 30
0.0
 11
92.0
 21
204.8999999999999
 31
0.0
  0
LINE
  5
14B
330
2
100
AcDbEntity
  8
画層1
 62
     0
100
AcDbLine
 10
86.5
 20
196.6
 30
0.0
 11
89.50000000000001
 21
196.6
 31
0.0
  0
LINE
  5
14C
330
2
100
AcDbEntity
  8
画層1
 62
     0
100
AcDbLine
 10
89.50000000000001
 20
195.4
 30
0.0
 11
86.5
 21
195.4
 31
0.0
  0
MTEXT
  5
14D
330
2
100
AcDbEntity
  8
画層1
 62
     0
100
AcDbMText
 10
86.66
 20
199.16
 30
0.0
 40
1.6
 41
3.87
 71
     1
 72
     5
  1
EV3
  7
STYLE1
 73
     1
 44
1.0
1001
ACAD
1000
MTEXTBEGIN
1070
    73
1070
     1
1070
    44
1040
1.0
1070
    74
1070
     0
1000
MTEXTEND
1000
MTEXTBEGIN
1070
    73
1070
     1
1070
    44
1040
1.0
1070
    74
1070
     0
1000
MTEXTEND
  0
LINE
  5
14E
330
2
100
AcDbEntity
  8
画層1
 62
     0
100
AcDbLine
 10
80.5
 20
196.6
 30
0.0
 11
83.49999999999999
 21
196.6
 31
0.0
  0
LINE
  5
14F
330
2
100
AcDbEntity
  8
画層1
 62
     0
100
AcDbLine
 10
83.49999999999999
 20
195.4
 30
0.0
 11
80.5
 21
195.4
 31
0.0
  0
MTEXT
  5
150
330
2
100
AcDbEntity
  8
画層1
 62
     0
100
AcDbMText
 10
80.51
 20
199.16
 30
0.0
 40
1.6
 41
3.819999999999999
 71
     1
 72
     5
  1
EV2
  7
STYLE1
 73
     1
 44
1.0
1001
ACAD
1000
MTEXTBEGIN
1070
    73
1070
     1
1070
    44
1040
1.0
1070
    74
1070
     0
1000
MTEXTEND
1000
MTEXTBEGIN
1070
    73
1070
     1
1070
    44
1040
1.0
1070
    74
1070
     0
1000
MTEXTEND
  0
LINE
  5
151
330
2
100
AcDbEntity
  8
画層1
 62
     0
100
AcDbLine
 10
80.5
 20
195.4
 30
0.0
 11
80.5
 21
196.6
 31
0.0
  0
LINE
  5
152
330
2
100
AcDbEntity
  8
画層1
 62
     0
100
AcDbLine
 10
83.49999999999999
 20
196.6
 30
0.0
 11
83.49999999999999
 21
195.4
 31
0.0
  0
LINE
  5
153
330
2
100
AcDbEntity
  8
画層1
 62
     0
100
AcDbLine
 10
86.5
 20
195.4
 30
0.0
 11
86.5
 21
196.6
 31
0.0
  0
LINE
  5
154
330
2
100
AcDbEntity
  8
画層1
 62
     0
100
AcDbLine
 10
89.50000000000001
 20
196.6
 30
0.0
 11
89.50000000000001
 21
195.4
 31
0.0
  0
LINE
  5
155
330
2
100
AcDbEntity
  8
画層1
 62
     0
100
AcDbLine
 10
92.5
 20
195.4
 30
0.0
 11
92.5
 21
196.6
 31
0.0
  0
ARC
  5
156
330
2
100
AcDbEntity
  8
画層1
 62
     0
100
AcDbCircle
 10
91.0
 20
204.8999999999999
 30
0.0
 40
1.0
100
AcDbArc
 50
270.0
 51
0.0
  0
ARC
  5
157
330
2
100
AcDbEntity
  8
画層1
 62
     0
100
AcDbCircle
 10
91.0
 20
213.0999999999999
 30
0.0
 40
1.0
100
AcDbArc
 50
0.0
 51
90.0
  0
LINE
  5
158
330
2
100
AcDbEntity
  8
画層1
 62
     0
100
AcDbLine
 10
95.5
 20
196.6
 30
0.0
 11
95.5
 21
195.4
 31
0.0
  0
LINE
  5
159
330
2
100
AcDbEntity
  8
画層1
 62
     0
100
AcDbLine
 10
92.0
 20
231.0999999999999
 30
0.0
 11
92.0
 21
222.9
 31
0.0
  0
ARC
  5
15A
330
2
100
AcDbEntity
  8
画層1
 62
     0
100
AcDbCircle
 10
91.0
 20
222.9
 30
0.0
 40
1.0
100
AcDbArc
 50
270.0
 51
0.0
  0
ARC
  5
15B
330
2
100
AcDbEntity
  8
画層1
 62
     0
100
AcDbCircle
 10
91.0
 20
231.0999999999999
 30
0.0
 40
1.0
100
AcDbArc
 50
0.0
 51
90.0
  0
LINE
  5
15C
330
2
100
AcDbEntity
  8
画層1
 62
     0
100
AcDbLine
 10
180.1999999999999
 20
218.3
 30
0.0
 11
180.1999999999999
 21
157.3
 31
0.0
  0
LINE
  5
15D
330
2
100
AcDbEntity
  8
画層1
 62
     0
100
AcDbLine
 10
165.0
 20
157.0
 30
0.0
 11
165.0
 21
235.0
 31
0.0
  0
LINE
  5
15E
330
2
100
AcDbEntity
  8
画層1
 62
     0
100
AcDbLine
 10
184.6999999999999
 20
153.8
 30
0.0
 11
162.0999999999999
 21
154.4
 31
0.0
  0
LINE
  5
15F
330
2
100
AcDbEntity
  8
画層1
 62
     0
100
AcDbLine
 10
171.0
 20
152.4
 30
0.0
 11
185.0
 21
152.4
 31
0.0
  0
LINE
  5
160
330
2
100
AcDbEntity
  8
画層1
 62
     0
100
AcDbLine
 10
176.3
 20
186.8999999999999
 30
0.0
 11
176.3
 21
168.5
 31
0.0
  0
LINE
  5
161
330
2
100
AcDbEntity
  8
画層1
 62
     0
100
AcDbLine
 10
171.6999999999999
 20
186.8999999999999
 30
0.0
 11
171.6999999999999
 21
168.5
 31
0.0
  0
LINE
  5
162
330
2
100
AcDbEntity
  8
画層1
 62
     0
100
AcDbLine
 10
162.0999999999999
 20
150.1999999999999
 30
0.0
 11
172.61
 21
150.1999999999999
 31
0.0
  0
LINE
  5
163
330
2
100
AcDbEntity
  8
画層1
 62
     0
100
AcDbLine
 10
162.0999999999999
 20
150.4
 30
0.0
 11
162.0
 21
150.4
 31
0.0
  0
ARC
  5
164
330
2
100
AcDbEntity
  8
画層1
 62
     0
100
AcDbCircle
 10
166.0
 20
157.0
 30
0.0
 40
1.0
100
AcDbArc
 50
180.0
 51
270.0
  0
LINE
  5
165
330
2
100
AcDbEntity
  8
画層1
 62
     0
100
AcDbLine
 10
171.0
 20
150.1999999999999
 30
0.0
 11
171.0
 21
152.4
 31
0.0
  0
ARC
  5
166
330
2
100
AcDbEntity
  8
画層1
 62
     0
100
AcDbCircle
 10
174.0
 20
168.5
 30
0.0
 40
2.299999999999998
100
AcDbArc
 50
180.0
 51
0.0
  0
ARC
  5
167
330
2
100
AcDbEntity
  8
画層1
 62
     0
100
AcDbCircle
 10
174.0
 20
186.8999999999999
 30
0.0
 40
2.299999999999998
100
AcDbArc
 50
0.0
 51
180.0
  0
ARC
  5
168
330
2
100
AcDbEntity
  8
画層1
 62
     0
100
AcDbCircle
 10
184.6999999999999
 20
153.0
 30
0.0
 40
0.8000000000000111
100
AcDbArc
 50
270.0
 51
90.0
  0
LINE
  5
169
330
2
100
AcDbEntity
  8
画層1
 62
     0
100
AcDbLine
 10
185.0
 20
152.4
 30
0.0
 11
185.0
 21
152.2599999999999
 31
0.0
  0
LINE
  5
16A
330
2
100
AcDbEntity
  8
画層1
 62
     0
100
AcDbLine
 10
183.6
 20
152.2
 30
0.0
 11
184.6999999999999
 21
152.2
 31
0.0
  0
ARC
  5
16B
330
2
100
AcDbEntity
  8
画層1
 62
     0
100
AcDbCircle
 10
181.1999999999999
 20
157.3
 30
0.0
 40
1.0
100
AcDbArc
 50
180.0
 51
269.9899999999999
  0
LINE
  5
16C
330
2
100
AcDbEntity
  8
画層1
 62
     0
100
AcDbLine
 10
192.5
 20
153.6999999999999
 30
0.0
 11
192.5
 21
150.1999999999999
 31
0.0
  0
LINE
  5
16D
330
2
100
AcDbEntity
  8
画層1
 62
     0
100
AcDbLine
 10
190.0
 20
150.1999999999999
 30
0.0
 11
192.5
 21
153.6999999999999
 31
0.0
  0
LINE
  5
16E
330
2
100
AcDbEntity
  8
画層1
 62
     0
100
AcDbLine
 10
184.6999999999999
 20
238.2
 30
0.0
 11
162.0999999999999
 21
237.5999999999999
 31
0.0
  0
LINE
  5
16F
330
2
100
AcDbEntity
  8
画層1
 62
     0
100
AcDbLine
 10
171.0
 20
239.5999999999999
 30
0.0
 11
185.0
 21
239.5999999999999
 31
0.0
  0
ARC
  5
170
330
2
100
AcDbEntity
  8
画層1
 62
     0
100
AcDbCircle
 10
166.0
 20
235.0
 30
0.0
 40
1.0
100
AcDbArc
 50
90.0
 51
180.0
  0
ARC
  5
171
330
2
100
AcDbEntity
  8
画層1
 62
     0
100
AcDbCircle
 10
181.1999999999999
 20
218.3
 30
0.0
 40
1.0
100
AcDbArc
 50
89.99
 51
180.0
  0
ARC
  5
172
330
2
100
AcDbEntity
  8
画層1
 62
     0
100
AcDbCircle
 10
184.6999999999999
 20
239.0
 30
0.0
 40
0.8000000000000111
100
AcDbArc
 50
270.0
 51
90.0
  0
LINE
  5
173
330
2
100
AcDbEntity
  8
画層1
 62
     0
100
AcDbLine
 10
185.0
 20
239.5999999999999
 30
0.0
 11
185.0
 21
239.74
 31
0.0
  0
LINE
  5
174
330
2
100
AcDbEntity
  8
画層1
 62
     0
100
AcDbLine
 10
183.6
 20
239.8
 30
0.0
 11
184.6999999999999
 21
239.8
 31
0.0
  0
LINE
  5
175
330
2
100
AcDbEntity
  8
画層1
 62
     0
100
AcDbLine
 10
86.0
 20
244.0
 30
0.0
 11
86.0
 21
243.9
 31
0.0
  0
LINE
  5
176
330
2
100
AcDbEntity
  8
画層1
 62
     0
100
AcDbLine
 10
88.0
 20
244.0
 30
0.0
 11
88.0
 21
243.9
 31
0.0
  0
LINE
  5
177
330
2
100
AcDbEntity
  8
画層1
 62
     0
100
AcDbLine
 10
101.2999999999999
 20
246.45
 30
0.0
 11
98.8
 21
246.45
 31
0.0
  0
LINE
  5
178
330
2
100
AcDbEntity
  8
画層1
 62
     0
100
AcDbLine
 10
101.2999999999999
 20
246.0999999999999
 30
0.0
 11
98.8
 21
246.0999999999999
 31
0.0
  0
LINE
  5
179
330
2
100
AcDbEntity
  8
画層1
 62
     0
100
AcDbLine
 10
101.2999999999999
 20
245.75
 30
0.0
 11
98.8
 21
245.75
 31
0.0
  0
LINE
  5
17A
330
2
100
AcDbEntity
  8
画層1
 62
     0
100
AcDbLine
 10
101.2999999999999
 20
245.4
 30
0.0
 11
98.8
 21
245.4
 31
0.0
  0
LINE
  5
17B
330
2
100
AcDbEntity
  8
画層1
 62
     0
100
AcDbLine
 10
101.2999999999999
 20
245.05
 30
0.0
 11
98.8
 21
245.05
 31
0.0
  0
LINE
  5
17C
330
2
100
AcDbEntity
  8
画層1
 62
     0
100
AcDbLine
 10
101.2999999999999
 20
244.7
 30
0.0
 11
98.8
 21
244.7
 31
0.0
  0
LINE
  5
17D
330
2
100
AcDbEntity
  8
画層1
 62
     0
100
AcDbLine
 10
101.2999999999999
 20
244.3499999999999
 30
0.0
 11
98.8
 21
244.3499999999999
 31
0.0
  0
LINE
  5
17E
330
2
100
AcDbEntity
  8
画層1
 62
     0
100
AcDbLine
 10
98.8
 20
246.45
 30
0.0
 11
98.8
 21
244.0
 31
0.0
  0
LINE
  5
17F
330
2
100
AcDbEntity
  8
画層1
 62
     0
100
AcDbLine
 10
98.0
 20
244.0
 30
0.0
 11
98.0
 21
243.9
 31
0.0
  0
ARC
  5
180
330
2
100
AcDbEntity
  8
画層1
 62
     0
100
AcDbCircle
 10
100.4
 20
241.4
 30
0.0
 40
0.5
100
AcDbArc
 50
0.0
 51
90.0
  0
ARC
  5
181
330
2
100
AcDbEntity
  8
画層1
 62
     0
100
AcDbCircle
 10
100.5
 20
241.5
 30
0.0
 40
0.6
100
AcDbArc
 50
0.0
 51
90.0
  0
ARC
  5
182
330
2
100
AcDbEntity
  8
画層1
 62
     0
100
AcDbCircle
 10
101.9
 20
242.9
 30
0.0
 40
1.0
100
AcDbArc
 50
0.0
 51
90.0
  0
ARC
  5
183
330
2
100
AcDbEntity
  8
画層1
 62
     0
100
AcDbCircle
 10
101.9
 20
242.9
 30
0.0
 40
1.1
100
AcDbArc
 50
0.0
 51
90.0
  0
LINE
  5
184
330
2
100
AcDbEntity
  8
画層1
 62
     0
100
AcDbLine
 10
101.2999999999999
 20
246.45
 30
0.0
 11
101.2999999999999
 21
244.0
 31
0.0
  0
LINE
  5
185
330
2
100
AcDbEntity
  8
画層1
 62
     0
100
AcDbLine
 10
100.0
 20
244.0
 30
0.0
 11
100.0
 21
243.9
 31
0.0
  0
LINE
  5
186
330
2
100
AcDbEntity
  8
画層1
 62
     0
100
AcDbLine
 10
153.0
 20
244.0
 30
0.0
 11
162.0
 21
244.0
 31
0.0
  0
DIMENSION
  5
187
330
2
100
AcDbEntity
  8
画層1
 62
     0
100
AcDbDimension
  2
*D14
 10
162.0
 20
251.0
 30
0.0
 11
156.4999999999999
 21
252.8799999999999
 31
0.0
 70
    32
 71
     5
 42
11.0
  3
STANDARD_WS
100
AcDbAlignedDimension
 13
151.0
 23
243.3
 33
0.0
 14
162.0
 24
244.0
 34
0.0
100
AcDbRotatedDimension
1001
ACAD
1000
DSTYLE
1002
{
1070
   340
1005
27
1002
}
  0
LINE
  5
194
330
2
100
AcDbEntity
  8
画層1
 62
     0
100
AcDbLine
 10
152.2
 20
243.9
 30
0.0
 11
154.0
 21
243.9
 31
0.0
  0
LINE
  5
195
330
2
100
AcDbEntity
  8
画層1
 62
     0
100
AcDbLine
 10
152.2
 20
243.9
 30
0.0
 11
153.0
 21
243.9
 31
0.0
  0
ARC
  5
196
330
2
100
AcDbEntity
  8
画層1
 62
     0
100
AcDbCircle
 10
152.2
 20
242.7
 30
0.0
 40
1.199999999999999
100
AcDbArc
 50
90.0
 51
180.0
  0
LINE
  5
197
330
2
100
AcDbEntity
  8
画層1
 62
     0
100
AcDbLine
 10
153.0
 20
244.0
 30
0.0
 11
153.0
 21
243.9
 31
0.0
  0
LINE
  5
198
330
2
100
AcDbEntity
  8
画層1
 62
     0
100
AcDbLine
 10
162.0999999999999
 20
241.8
 30
0.0
 11
172.61
 21
241.8
 31
0.0
  0
LINE
  5
199
330
2
100
AcDbEntity
  8
画層1
 62
     0
100
AcDbLine
 10
165.0
 20
244.7999999999999
 30
0.0
 11
164.4
 21
245.05
 31
0.0
  0
LINE
  5
19A
330
2
100
AcDbEntity
  8
画層1
 62
     0
100
AcDbLine
 10
163.8
 20
243.1999999999999
 30
0.0
 11
166.74
 21
244.22
 31
0.0
  0
LINE
  5
19B
330
2
100
AcDbEntity
  8
画層1
 62
     0
100
AcDbLine
 10
164.4
 20
245.05
 30
0.0
 11
164.4
 21
244.45
 31
0.0
  0
LINE
  5
19C
330
2
100
AcDbEntity
  8
画層1
 62
     0
100
AcDbLine
 10
164.4
 20
244.45
 30
0.0
 11
163.8
 21
244.7
 31
0.0
  0
LINE
  5
19D
330
2
100
AcDbEntity
  8
画層1
 62
     0
100
AcDbLine
 10
163.8
 20
244.7
 30
0.0
 11
163.8
 21
244.0999999999999
 31
0.0
  0
LINE
  5
19E
330
2
100
AcDbEntity
  8
画層1
 62
     0
100
AcDbLine
 10
163.8
 20
244.0999999999999
 30
0.0
 11
163.1999999999999
 21
244.3499999999999
 31
0.0
  0
LINE
  5
19F
330
2
100
AcDbEntity
  8
画層1
 62
     0
100
AcDbLine
 10
163.1999999999999
 20
244.3499999999999
 30
0.0
 11
163.1999999999999
 21
243.75
 31
0.0
  0
LINE
  5
1A0
330
2
100
AcDbEntity
  8
画層1
 62
     0
100
AcDbLine
 10
163.1999999999999
 20
243.75
 30
0.0
 11
162.5999999999999
 21
244.0
 31
0.0
  0
LINE
  5
1A1
330
2
100
AcDbEntity
  8
画層1
 62
     0
100
AcDbLine
 10
162.5999999999999
 20
243.5999999999999
 30
0.0
 11
163.8
 21
243.1999999999999
 31
0.0
  0
LINE
  5
1A2
330
2
100
AcDbEntity
  8
画層1
 62
     0
100
AcDbLine
 10
162.0
 20
241.5999999999999
 30
0.0
 11
162.0999999999999
 21
241.5999999999999
 31
0.0
  0
LINE
  5
1A3
330
2
100
AcDbEntity
  8
画層1
 62
     0
100
AcDbLine
 10
162.5999999999999
 20
244.0
 30
0.0
 11
162.5999999999999
 21
243.5999999999999
 31
0.0
  0
LINE
  5
1A4
330
2
100
AcDbEntity
  8
画層1
 62
     0
100
AcDbLine
 10
167.5
 20
246.45
 30
0.0
 11
167.1999999999999
 21
246.45
 31
0.0
  0
LINE
  5
1A5
330
2
100
AcDbEntity
  8
画層1
 62
     0
100
AcDbLine
 10
167.1999999999999
 20
246.45
 30
0.0
 11
167.1999999999999
 21
245.8499999999999
 31
0.0
  0
LINE
  5
1A6
330
2
100
AcDbEntity
  8
画層1
 62
     0
100
AcDbLine
 10
166.4
 20
246.0999999999999
 30
0.0
 11
166.4
 21
245.5
 31
0.0
  0
LINE
  5
1A7
330
2
100
AcDbEntity
  8
画層1
 62
     0
100
AcDbLine
 10
166.4
 20
245.5
 30
0.0
 11
165.8
 21
245.75
 31
0.0
  0
LINE
  5
1A8
330
2
100
AcDbEntity
  8
画層1
 62
     0
100
AcDbLine
 10
165.8
 20
245.75
 30
0.0
 11
165.8
 21
245.15
 31
0.0
  0
LINE
  5
1A9
330
2
100
AcDbEntity
  8
画層1
 62
     0
100
AcDbLine
 10
165.8
 20
245.15
 30
0.0
 11
165.0
 21
245.4
 31
0.0
  0
LINE
  5
1AA
330
2
100
AcDbEntity
  8
画層1
 62
     0
100
AcDbLine
 10
165.0
 20
245.4
 30
0.0
 11
165.0
 21
244.7999999999999
 31
0.0
  0
LINE
  5
1AB
330
2
100
AcDbEntity
  8
画層1
 62
     0
100
AcDbLine
 10
167.1999999999999
 20
245.8499999999999
 30
0.0
 11
166.4
 21
246.0999999999999
 31
0.0
  0
ARC
  5
1AC
330
2
100
AcDbEntity
  8
画層1
 62
     0
100
AcDbCircle
 10
167.1199999999999
 20
243.29
 30
0.0
 40
1.0
100
AcDbArc
 50
59.75
 51
112.49
  0
LINE
  5
1AD
330
2
100
AcDbEntity
  8
画層1
 62
     0
100
AcDbLine
 10
253.5
 20
241.8
 30
0.0
 11
253.5
 21
238.3
 31
0.0
  0
LINE
  5
1AE
330
2
100
AcDbEntity
  8
画層1
 62
     0
100
AcDbLine
 10
254.47
 20
195.35
 30
0.0
 11
254.47
 21
188.3499999999999
 31
0.0
  0
LINE
  5
1AF
330
2
100
AcDbEntity
  8
画層1
 62
     0
100
AcDbLine
 10
253.9699999999999
 20
188.3499999999999
 30
0.0
 11
253.9699999999999
 21
195.35
 31
0.0
  0
ARC
  5
1B0
330
2
100
AcDbEntity
  8
画層1
 62
     0
100
AcDbCircle
 10
244.66
 20
191.6
 30
0.0
 40
11.44118730072771
100
AcDbArc
 50
4.259999999999999
 51
19.13
  0
ARC
  5
1B1
330
2
100
AcDbEntity
  8
画層1
 62
     0
100
AcDbCircle
 10
244.5699999999999
 20
191.8499999999999
 30
0.0
 40
10.50674104301652
100
AcDbArc
 50
4.37
 51
19.46
  0
LINE
  5
1B2
330
2
100
AcDbEntity
  8
画層1
 62
     0
100
AcDbLine
 10
251.6999999999999
 20
218.29
 30
0.0
 11
251.6999999999999
 21
157.2899999999999
 31
0.0
  0
LINE
  5
1B3
330
2
100
AcDbEntity
  8
画層1
 62
     0
100
AcDbLine
 10
252.0
 20
157.0
 30
0.0
 11
252.0
 21
235.0
 31
0.0
  0
LINE
  5
1B4
330
2
100
AcDbEntity
  8
画層1
 62
     0
100
AcDbLine
 10
253.5
 20
195.4499999999999
 30
0.0
 11
253.5
 21
188.25
 31
0.0
  0
ARC
  5
1B5
330
2
100
AcDbEntity
  8
画層1
 62
     0
100
AcDbCircle
 10
261.6999999999999
 20
171.3499999999999
 30
0.0
 40
0.3
100
AcDbArc
 50
0.0
 51
90.0
  0
ARC
  5
1B6
330
2
100
AcDbEntity
  8
画層1
 62
     0
100
AcDbCircle
 10
253.6999999999999
 20
171.8499999999999
 30
0.0
 40
0.2
100
AcDbArc
 50
180.0
 51
270.0
  0
LINE
  5
1B7
330
2
100
AcDbEntity
  8
画層1
 62
     0
100
AcDbLine
 10
253.5
 20
178.8499999999999
 30
0.0
 11
253.5
 21
171.65
 31
0.0
  0
LINE
  5
1B8
330
2
100
AcDbEntity
  8
画層1
 62
     0
100
AcDbLine
 10
253.6999999999999
 20
155.05
 30
0.0
 11
261.6999999999999
 21
155.05
 31
0.0
  0
LINE
  5
1B9
330
2
100
AcDbEntity
  8
画層1
 62
     0
100
AcDbLine
 10
253.5
 20
163.3499999999999
 30
0.0
 11
261.6999999999999
 21
163.3499999999999
 31
0.0
  0
LINE
  5
1BA
330
2
100
AcDbEntity
  8
画層1
 62
     0
100
AcDbLine
 10
253.5
 20
162.25
 30
0.0
 11
261.6999999999999
 21
162.25
 31
0.0
  0
LINE
  5
1BB
330
2
100
AcDbEntity
  8
画層1
 62
     0
100
AcDbLine
 10
253.5
 20
151.0
 30
0.0
 11
262.0
 21
151.0
 31
0.0
  0
LINE
  5
1BC
330
2
100
AcDbEntity
  8
画層1
 62
     0
100
AcDbLine
 10
253.5
 20
153.0
 30
0.0
 11
261.6999999999999
 21
153.0
 31
0.0
  0
LINE
  5
1BD
330
2
100
AcDbEntity
  8
画層1
 62
     0
100
AcDbLine
 10
253.5
 20
171.65
 30
0.0
 11
261.6999999999999
 21
171.65
 31
0.0
  0
LINE
  5
1BE
330
2
100
AcDbEntity
  8
画層1
 62
     0
100
AcDbLine
 10
253.5
 20
170.55
 30
0.0
 11
261.6999999999999
 21
170.55
 31
0.0
  0
LINE
  5
1BF
330
2
100
AcDbEntity
  8
画層1
 62
     0
100
AcDbLine
 10
255.5099999999999
 20
163.55
 30
0.0
 11
261.6999999999999
 21
163.55
 31
0.0
  0
LINE
  5
1C0
330
2
100
AcDbEntity
  8
画層1
 62
     0
100
AcDbLine
 10
253.5
 20
162.25
 30
0.0
 11
253.5
 21
155.25
 31
0.0
  0
ARC
  5
1C1
330
2
100
AcDbEntity
  8
画層1
 62
     0
100
AcDbCircle
 10
250.7
 20
157.2899999999999
 30
0.0
 40
1.0
100
AcDbArc
 50
269.9899999999999
 51
0.0
  0
ARC
  5
1C2
330
2
100
AcDbEntity
  8
画層1
 62
     0
100
AcDbCircle
 10
251.0
 20
157.0
 30
0.0
 40
1.0
100
AcDbArc
 50
270.0
 51
0.0
  0
LINE
  5
1C3
330
2
100
AcDbEntity
  8
画層1
 62
     0
100
AcDbLine
 10
253.5
 20
150.1999999999999
 30
0.0
 11
253.5
 21
153.6999999999999
 31
0.0
  0
ARC
  5
1C4
330
2
100
AcDbEntity
  8
画層1
 62
     0
100
AcDbCircle
 10
253.6999999999999
 20
155.25
 30
0.0
 40
0.2
100
AcDbArc
 50
180.0
 51
270.0
  0
LINE
  5
1C5
330
2
100
AcDbEntity
  8
画層1
 62
     0
100
AcDbLine
 10
254.47
 20
170.4499999999999
 30
0.0
 11
254.47
 21
163.4499999999999
 31
0.0
  0
LINE
  5
1C6
330
2
100
AcDbEntity
  8
画層1
 62
     0
100
AcDbLine
 10
253.9699999999999
 20
163.4499999999999
 30
0.0
 11
253.9699999999999
 21
170.4499999999999
 31
0.0
  0
LINE
  5
1C7
330
2
100
AcDbEntity
  8
画層1
 62
     0
100
AcDbLine
 10
256.07
 20
169.3699999999999
 30
0.0
 11
256.07
 21
164.5299999999999
 31
0.0
  0
ARC
  5
1C8
330
2
100
AcDbEntity
  8
画層1
 62
     0
100
AcDbCircle
 10
244.66
 20
167.1999999999999
 30
0.0
 40
11.44118729799423
100
AcDbArc
 50
340.87
 51
355.74
  0
ARC
  5
1C9
330
2
100
AcDbEntity
  8
画層1
 62
     0
100
AcDbCircle
 10
244.5699999999999
 20
166.95
 30
0.0
 40
10.50674104301652
100
AcDbArc
 50
340.54
 51
355.63
  0
ARC
  5
1CA
330
2
100
AcDbEntity
  8
画層1
 62
     0
100
AcDbCircle
 10
251.0299999999999
 20
166.95
 30
0.0
 40
7.540000001812724
100
AcDbArc
 50
344.01
 51
356.1999999999999
  0
LINE
  5
1CB
330
2
100
AcDbEntity
  8
画層1
 62
     0
100
AcDbLine
 10
253.5
 20
170.55
 30
0.0
 11
253.5
 21
163.3499999999999
 31
0.0
  0
LINE
  5
1CC
330
2
100
AcDbEntity
  8
画層1
 62
     0
100
AcDbLine
 10
255.4699999999999
 20
163.4499999999999
 30
0.0
 11
253.5
 21
163.4499999999999
 31
0.0
  0
ARC
  5
1CD
330
2
100
AcDbEntity
  8
画層1
 62
     0
100
AcDbCircle
 10
253.6999999999999
 20
163.55
 30
0.0
 40
0.2
100
AcDbArc
 50
180.0
 51
270.0
  0
ARC
  5
1CE
330
2
100
AcDbEntity
  8
画層1
 62
     0
100
AcDbCircle
 10
253.6999999999999
 20
162.05
 30
0.0
 40
0.2
100
AcDbArc
 50
90.0
 51
180.0
  0
LINE
  5
1CF
330
2
100
AcDbEntity
  8
画層1
 62
     0
100
AcDbLine
 10
256.65
 20
164.0399999999999
 30
0.0
 11
257.47
 21
164.1599999999999
 31
0.0
  0
ARC
  5
1D0
330
2
100
AcDbEntity
  8
画層1
 62
     0
100
AcDbCircle
 10
256.57
 20
164.5299999999999
 30
0.0
 40
0.5
100
AcDbArc
 50
180.0
 51
278.5299999999999
  0
ARC
  5
1D1
330
2
100
AcDbEntity
  8
画層1
 62
     0
100
AcDbCircle
 10
257.3199999999999
 20
165.15
 30
0.0
 40
1.0
100
AcDbArc
 50
278.5299999999999
 51
344.01
  0
LINE
  5
1D2
330
2
100
AcDbEntity
  8
画層1
 62
     0
100
AcDbLine
 10
253.5
 20
170.4499999999999
 30
0.0
 11
255.4699999999999
 21
170.4499999999999
 31
0.0
  0
ARC
  5
1D3
330
2
100
AcDbEntity
  8
画層1
 62
     0
100
AcDbCircle
 10
244.5699999999999
 20
166.95
 30
0.0
 40
10.50674104301652
100
AcDbArc
 50
4.37
 51
19.46
  0
LINE
  5
1D4
330
2
100
AcDbEntity
  8
画層1
 62
     0
100
AcDbLine
 10
255.0399999999999
 20
166.15
 30
0.0
 11
254.47
 21
166.15
 31
0.0
  0
LINE
  5
1D5
330
2
100
AcDbEntity
  8
画層1
 62
     0
100
AcDbLine
 10
255.0399999999999
 20
167.75
 30
0.0
 11
254.47
 21
167.75
 31
0.0
  0
ARC
  5
1D6
330
2
100
AcDbEntity
  8
画層1
 62
     0
100
AcDbCircle
 10
253.6999999999999
 20
170.35
 30
0.0
 40
0.2
100
AcDbArc
 50
90.0
 51
180.0
  0
LINE
  5
1D7
330
2
100
AcDbEntity
  8
画層1
 62
     0
100
AcDbLine
 10
255.6699999999999
 20
167.55
 30
0.0
 11
255.6699999999999
 21
166.3499999999999
 31
0.0
  0
ARC
  5
1D8
330
2
100
AcDbEntity
  8
画層1
 62
     0
100
AcDbCircle
 10
251.0299999999999
 20
166.95
 30
0.0
 40
7.540000001812724
100
AcDbArc
 50
3.799999999999999
 51
15.99
  0
LINE
  5
1D9
330
2
100
AcDbEntity
  8
画層1
 62
     0
100
AcDbLine
 10
255.6699999999999
 20
166.3499999999999
 30
0.0
 11
256.07
 21
166.3499999999999
 31
0.0
  0
LINE
  5
1DA
330
2
100
AcDbEntity
  8
画層1
 62
     0
100
AcDbLine
 10
257.5699999999999
 20
167.4499999999999
 30
0.0
 11
257.5699999999999
 21
166.4499999999999
 31
0.0
  0
LINE
  5
1DB
330
2
100
AcDbEntity
  8
画層1
 62
     0
100
AcDbLine
 10
257.5699999999999
 20
166.4499999999999
 30
0.0
 11
258.5599999999999
 21
166.4499999999999
 31
0.0
  0
LINE
  5
1DC
330
2
100
AcDbEntity
  8
画層1
 62
     0
100
AcDbLine
 10
258.5599999999999
 20
167.4499999999999
 30
0.0
 11
257.5699999999999
 21
167.4499999999999
 31
0.0
  0
LINE
  5
1DD
330
2
100
AcDbEntity
  8
画層1
 62
     0
100
AcDbLine
 10
256.65
 20
169.86
 30
0.0
 11
257.47
 21
169.74
 31
0.0
  0
ARC
  5
1DE
330
2
100
AcDbEntity
  8
画層1
 62
     0
100
AcDbCircle
 10
256.57
 20
169.3699999999999
 30
0.0
 40
0.5
100
AcDbArc
 50
81.47
 51
180.0
  0
LINE
  5
1DF
330
2
100
AcDbEntity
  8
画層1
 62
     0
100
AcDbLine
 10
256.07
 20
167.55
 30
0.0
 11
255.6699999999999
 21
167.55
 31
0.0
  0
ARC
  5
1E0
330
2
100
AcDbEntity
  8
画層1
 62
     0
100
AcDbCircle
 10
244.66
 20
166.6999999999999
 30
0.0
 40
11.44118730072771
100
AcDbArc
 50
4.259999999999999
 51
19.13
  0
ARC
  5
1E1
330
2
100
AcDbEntity
  8
画層1
 62
     0
100
AcDbCircle
 10
257.3199999999999
 20
168.75
 30
0.0
 40
1.0
100
AcDbArc
 50
15.99
 51
81.47
  0
LINE
  5
1E2
330
2
100
AcDbEntity
  8
画層1
 62
     0
100
AcDbLine
 10
262.0
 20
163.25
 30
0.0
 11
262.0
 21
151.2
 31
0.0
  0
ARC
  5
1E3
330
2
100
AcDbEntity
  8
画層1
 62
     0
100
AcDbCircle
 10
261.6999999999999
 20
153.3
 30
0.0
 40
0.3
100
AcDbArc
 50
270.0
 51
360.0
  0
ARC
  5
1E4
330
2
100
AcDbEntity
  8
画層1
 62
     0
100
AcDbCircle
 10
261.0
 20
151.2
 30
0.0
 40
1.0
100
AcDbArc
 50
270.0
 51
360.0
  0
ARC
  5
1E5
330
2
100
AcDbEntity
  8
画層1
 62
     0
100
AcDbCircle
 10
261.6999999999999
 20
154.75
 30
0.0
 40
0.3
100
AcDbArc
 50
0.0
 51
90.0
  0
ARC
  5
1E6
330
2
100
AcDbEntity
  8
画層1
 62
     0
100
AcDbCircle
 10
261.6999999999999
 20
163.05
 30
0.0
 40
0.3
100
AcDbArc
 50
0.0
 51
90.0
  0
ARC
  5
1E7
330
2
100
AcDbEntity
  8
画層1
 62
     0
100
AcDbCircle
 10
261.6999999999999
 20
162.55
 30
0.0
 40
0.3
100
AcDbArc
 50
270.0
 51
0.0
  0
ARC
  5
1E8
330
2
100
AcDbEntity
  8
画層1
 62
     0
100
AcDbCircle
 10
261.6999999999999
 20
163.25
 30
0.0
 40
0.3
100
AcDbArc
 50
0.0
 51
90.0
  0
LINE
  5
1E9
330
2
100
AcDbEntity
  8
画層1
 62
     0
100
AcDbLine
 10
262.0
 20
171.3499999999999
 30
0.0
 11
262.0
 21
170.8499999999999
 31
0.0
  0
ARC
  5
1EA
330
2
100
AcDbEntity
  8
画層1
 62
     0
100
AcDbCircle
 10
261.6999999999999
 20
170.8499999999999
 30
0.0
 40
0.3
100
AcDbArc
 50
270.0
 51
0.0
  0
LINE
  5
1EB
330
2
100
AcDbEntity
  8
画層1
 62
     0
100
AcDbLine
 10
253.5
 20
188.25
 30
0.0
 11
261.6999999999999
 21
188.25
 31
0.0
  0
LINE
  5
1EC
330
2
100
AcDbEntity
  8
画層1
 62
     0
100
AcDbLine
 10
253.5
 20
187.15
 30
0.0
 11
261.6999999999999
 21
187.15
 31
0.0
  0
LINE
  5
1ED
330
2
100
AcDbEntity
  8
画層1
 62
     0
100
AcDbLine
 10
253.5
 20
179.9499999999999
 30
0.0
 11
261.6999999999999
 21
179.9499999999999
 31
0.0
  0
LINE
  5
1EE
330
2
100
AcDbEntity
  8
画層1
 62
     0
100
AcDbLine
 10
253.5
 20
178.8499999999999
 30
0.0
 11
261.6999999999999
 21
178.8499999999999
 31
0.0
  0
LINE
  5
1EF
330
2
100
AcDbEntity
  8
画層1
 62
     0
100
AcDbLine
 10
255.6699999999999
 20
184.15
 30
0.0
 11
255.6699999999999
 21
182.9499999999999
 31
0.0
  0
LINE
  5
1F0
330
2
100
AcDbEntity
  8
画層1
 62
     0
100
AcDbLine
 10
254.47
 20
187.05
 30
0.0
 11
254.47
 21
180.05
 31
0.0
  0
LINE
  5
1F1
330
2
100
AcDbEntity
  8
画層1
 62
     0
100
AcDbLine
 10
253.9699999999999
 20
180.05
 30
0.0
 11
253.9699999999999
 21
187.05
 31
0.0
  0
LINE
  5
1F2
330
2
100
AcDbEntity
  8
画層1
 62
     0
100
AcDbLine
 10
256.07
 20
185.97
 30
0.0
 11
256.07
 21
181.1299999999999
 31
0.0
  0
LINE
  5
1F3
330
2
100
AcDbEntity
  8
画層1
 62
     0
100
AcDbLine
 10
257.5699999999999
 20
184.05
 30
0.0
 11
257.5699999999999
 21
183.05
 31
0.0
  0
LINE
  5
1F4
330
2
100
AcDbEntity
  8
画層1
 62
     0
100
AcDbLine
 10
253.5
 20
187.15
 30
0.0
 11
253.5
 21
179.9499999999999
 31
0.0
  0
ARC
  5
1F5
330
2
100
AcDbEntity
  8
画層1
 62
     0
100
AcDbCircle
 10
244.66
 20
175.0
 30
0.0
 40
11.44118730072771
100
AcDbArc
 50
4.259999999999999
 51
19.13
  0
ARC
  5
1F6
330
2
100
AcDbEntity
  8
画層1
 62
     0
100
AcDbCircle
 10
257.3199999999999
 20
177.05
 30
0.0
 40
1.0
100
AcDbArc
 50
15.99
 51
81.47
  0
ARC
  5
1F7
330
2
100
AcDbEntity
  8
画層1
 62
     0
100
AcDbCircle
 10
244.5699999999999
 20
175.2499999999999
 30
0.0
 40
10.50674104301652
100
AcDbArc
 50
4.37
 51
19.46
  0
LINE
  5
1F8
330
2
100
AcDbEntity
  8
画層1
 62
     0
100
AcDbLine
 10
254.47
 20
178.75
 30
0.0
 11
254.47
 21
171.75
 31
0.0
  0
LINE
  5
1F9
330
2
100
AcDbEntity
  8
画層1
 62
     0
100
AcDbLine
 10
256.07
 20
177.6699999999999
 30
0.0
 11
256.07
 21
172.83
 31
0.0
  0
LINE
  5
1FA
330
2
100
AcDbEntity
  8
画層1
 62
     0
100
AcDbLine
 10
253.9699999999999
 20
171.75
 30
0.0
 11
253.9699999999999
 21
178.75
 31
0.0
  0
LINE
  5
1FB
330
2
100
AcDbEntity
  8
画層1
 62
     0
100
AcDbLine
 10
255.4699999999999
 20
171.75
 30
0.0
 11
253.5
 21
171.75
 31
0.0
  0
ARC
  5
1FC
330
2
100
AcDbEntity
  8
画層1
 62
     0
100
AcDbCircle
 10
244.5699999999999
 20
175.2499999999999
 30
0.0
 40
10.50674104301652
100
AcDbArc
 50
340.54
 51
355.63
  0
LINE
  5
1FD
330
2
100
AcDbEntity
  8
画層1
 62
     0
100
AcDbLine
 10
255.0399999999999
 20
176.05
 30
0.0
 11
254.47
 21
176.05
 31
0.0
  0
LINE
  5
1FE
330
2
100
AcDbEntity
  8
画層1
 62
     0
100
AcDbLine
 10
255.0399999999999
 20
174.4499999999999
 30
0.0
 11
254.47
 21
174.4499999999999
 31
0.0
  0
ARC
  5
1FF
330
2
100
AcDbEntity
  8
画層1
 62
     0
100
AcDbCircle
 10
251.0299999999999
 20
175.2499999999999
 30
0.0
 40
7.540000001812724
100
AcDbArc
 50
3.799999999999999
 51
15.99
  0
LINE
  5
200
330
2
100
AcDbEntity
  8
画層1
 62
     0
100
AcDbLine
 10
258.5599999999999
 20
175.75
 30
0.0
 11
257.5699999999999
 21
175.75
 31
0.0
  0
LINE
  5
201
330
2
100
AcDbEntity
  8
画層1
 62
     0
100
AcDbLine
 10
256.07
 20
175.8499999999999
 30
0.0
 11
255.6699999999999
 21
175.8499999999999
 31
0.0
  0
ARC
  5
202
330
2
100
AcDbEntity
  8
画層1
 62
     0
100
AcDbCircle
 10
244.66
 20
175.5
 30
0.0
 40
11.44118729799423
100
AcDbArc
 50
340.87
 51
355.74
  0
LINE
  5
203
330
2
100
AcDbEntity
  8
画層1
 62
     0
100
AcDbLine
 10
256.65
 20
172.3399999999999
 30
0.0
 11
257.47
 21
172.46
 31
0.0
  0
LINE
  5
204
330
2
100
AcDbEntity
  8
画層1
 62
     0
100
AcDbLine
 10
255.6699999999999
 20
174.65
 30
0.0
 11
256.07
 21
174.65
 31
0.0
  0
ARC
  5
205
330
2
100
AcDbEntity
  8
画層1
 62
     0
100
AcDbCircle
 10
256.57
 20
172.83
 30
0.0
 40
0.5
100
AcDbArc
 50
180.0
 51
278.5299999999999
  0
ARC
  5
206
330
2
100
AcDbEntity
  8
画層1
 62
     0
100
AcDbCircle
 10
251.0299999999999
 20
175.2499999999999
 30
0.0
 40
7.540000001812724
100
AcDbArc
 50
344.01
 51
356.1999999999999
  0
ARC
  5
207
330
2
100
AcDbEntity
  8
画層1
 62
     0
100
AcDbCircle
 10
257.3199999999999
 20
173.4499999999999
 30
0.0
 40
1.0
100
AcDbArc
 50
278.5299999999999
 51
344.01
  0
LINE
  5
208
330
2
100
AcDbEntity
  8
画層1
 62
     0
100
AcDbLine
 10
257.5699999999999
 20
174.75
 30
0.0
 11
258.5599999999999
 21
174.75
 31
0.0
  0
LINE
  5
209
330
2
100
AcDbEntity
  8
画層1
 62
     0
100
AcDbLine
 10
255.6699999999999
 20
175.8499999999999
 30
0.0
 11
255.6699999999999
 21
174.65
 31
0.0
  0
LINE
  5
20A
330
2
100
AcDbEntity
  8
画層1
 62
     0
100
AcDbLine
 10
257.5699999999999
 20
175.75
 30
0.0
 11
257.5699999999999
 21
174.75
 31
0.0
  0
LINE
  5
20B
330
2
100
AcDbEntity
  8
画層1
 62
     0
100
AcDbLine
 10
253.5
 20
178.75
 30
0.0
 11
255.4699999999999
 21
178.75
 31
0.0
  0
ARC
  5
20C
330
2
100
AcDbEntity
  8
画層1
 62
     0
100
AcDbCircle
 10
244.5699999999999
 20
183.55
 30
0.0
 40
10.50674104301652
100
AcDbArc
 50
340.54
 51
355.63
  0
LINE
  5
20D
330
2
100
AcDbEntity
  8
画層1
 62
     0
100
AcDbLine
 10
255.4699999999999
 20
180.05
 30
0.0
 11
253.5
 21
180.05
 31
0.0
  0
LINE
  5
20E
330
2
100
AcDbEntity
  8
画層1
 62
     0
100
AcDbLine
 10
255.0399999999999
 20
182.75
 30
0.0
 11
254.47
 21
182.75
 31
0.0
  0
ARC
  5
20F
330
2
100
AcDbEntity
  8
画層1
 62
     0
100
AcDbCircle
 10
253.6999999999999
 20
180.15
 30
0.0
 40
0.2
100
AcDbArc
 50
180.0
 51
270.0
  0
ARC
  5
210
330
2
100
AcDbEntity
  8
画層1
 62
     0
100
AcDbCircle
 10
253.6999999999999
 20
178.65
 30
0.0
 40
0.2
100
AcDbArc
 50
90.0
 51
180.0
  0
LINE
  5
211
330
2
100
AcDbEntity
  8
画層1
 62
     0
100
AcDbLine
 10
256.65
 20
178.16
 30
0.0
 11
257.47
 21
178.04
 31
0.0
  0
ARC
  5
212
330
2
100
AcDbEntity
  8
画層1
 62
     0
100
AcDbCircle
 10
256.57
 20
177.6699999999999
 30
0.0
 40
0.5
100
AcDbArc
 50
81.47
 51
180.0
  0
LINE
  5
213
330
2
100
AcDbEntity
  8
画層1
 62
     0
100
AcDbLine
 10
256.65
 20
180.64
 30
0.0
 11
257.47
 21
180.7599999999999
 31
0.0
  0
LINE
  5
214
330
2
100
AcDbEntity
  8
画層1
 62
     0
100
AcDbLine
 10
255.6699999999999
 20
182.9499999999999
 30
0.0
 11
256.07
 21
182.9499999999999
 31
0.0
  0
ARC
  5
215
330
2
100
AcDbEntity
  8
画層1
 62
     0
100
AcDbCircle
 10
244.66
 20
183.8
 30
0.0
 40
11.44118729799423
100
AcDbArc
 50
340.87
 51
355.74
  0
ARC
  5
216
330
2
100
AcDbEntity
  8
画層1
 62
     0
100
AcDbCircle
 10
256.57
 20
181.1299999999999
 30
0.0
 40
0.5
100
AcDbArc
 50
180.0
 51
278.5299999999999
  0
ARC
  5
217
330
2
100
AcDbEntity
  8
画層1
 62
     0
100
AcDbCircle
 10
251.0299999999999
 20
183.55
 30
0.0
 40
7.540000001812724
100
AcDbArc
 50
344.01
 51
356.1999999999999
  0
ARC
  5
218
330
2
100
AcDbEntity
  8
画層1
 62
     0
100
AcDbCircle
 10
257.3199999999999
 20
181.75
 30
0.0
 40
1.0
100
AcDbArc
 50
278.5299999999999
 51
344.01
  0
LINE
  5
219
330
2
100
AcDbEntity
  8
画層1
 62
     0
100
AcDbLine
 10
257.5699999999999
 20
183.05
 30
0.0
 11
258.5599999999999
 21
183.05
 31
0.0
  0
ARC
  5
21A
330
2
100
AcDbEntity
  8
画層1
 62
     0
100
AcDbCircle
 10
244.66
 20
192.1
 30
0.0
 40
11.44118729799423
100
AcDbArc
 50
340.87
 51
355.74
  0
ARC
  5
21B
330
2
100
AcDbEntity
  8
画層1
 62
     0
100
AcDbCircle
 10
244.5699999999999
 20
191.8499999999999
 30
0.0
 40
10.50674104301652
100
AcDbArc
 50
340.54
 51
355.63
  0
ARC
  5
21C
330
2
100
AcDbEntity
  8
画層1
 62
     0
100
AcDbCircle
 10
256.57
 20
189.43
 30
0.0
 40
0.5
100
AcDbArc
 50
180.0
 51
278.5299999999999
  0
ARC
  5
21D
330
2
100
AcDbEntity
  8
画層1
 62
     0
100
AcDbCircle
 10
257.3199999999999
 20
190.05
 30
0.0
 40
1.0
100
AcDbArc
 50
278.5299999999999
 51
344.01
  0
LINE
  5
21E
330
2
100
AcDbEntity
  8
画層1
 62
     0
100
AcDbLine
 10
255.4699999999999
 20
188.3499999999999
 30
0.0
 11
253.5
 21
188.3499999999999
 31
0.0
  0
LINE
  5
21F
330
2
100
AcDbEntity
  8
画層1
 62
     0
100
AcDbLine
 10
253.5
 20
187.05
 30
0.0
 11
255.4699999999999
 21
187.05
 31
0.0
  0
ARC
  5
220
330
2
100
AcDbEntity
  8
画層1
 62
     0
100
AcDbCircle
 10
244.5699999999999
 20
183.55
 30
0.0
 40
10.50674104301652
100
AcDbArc
 50
4.37
 51
19.46
  0
LINE
  5
221
330
2
100
AcDbEntity
  8
画層1
 62
     0
100
AcDbLine
 10
255.0399999999999
 20
184.3499999999999
 30
0.0
 11
254.47
 21
184.3499999999999
 31
0.0
  0
ARC
  5
222
330
2
100
AcDbEntity
  8
画層1
 62
     0
100
AcDbCircle
 10
253.6999999999999
 20
188.4499999999999
 30
0.0
 40
0.2
100
AcDbArc
 50
180.0
 51
270.0
  0
ARC
  5
223
330
2
100
AcDbEntity
  8
画層1
 62
     0
100
AcDbCircle
 10
253.6999999999999
 20
186.95
 30
0.0
 40
0.2
100
AcDbArc
 50
90.0
 51
180.0
  0
LINE
  5
224
330
2
100
AcDbEntity
  8
画層1
 62
     0
100
AcDbLine
 10
256.65
 20
188.94
 30
0.0
 11
257.47
 21
189.06
 31
0.0
  0
ARC
  5
225
330
2
100
AcDbEntity
  8
画層1
 62
     0
100
AcDbCircle
 10
251.0299999999999
 20
183.55
 30
0.0
 40
7.540000001812724
100
AcDbArc
 50
3.799999999999999
 51
15.99
  0
LINE
  5
226
330
2
100
AcDbEntity
  8
画層1
 62
     0
100
AcDbLine
 10
258.5599999999999
 20
184.05
 30
0.0
 11
257.5699999999999
 21
184.05
 31
0.0
  0
LINE
  5
227
330
2
100
AcDbEntity
  8
画層1
 62
     0
100
AcDbLine
 10
256.65
 20
186.46
 30
0.0
 11
257.47
 21
186.34
 31
0.0
  0
ARC
  5
228
330
2
100
AcDbEntity
  8
画層1
 62
     0
100
AcDbCircle
 10
256.57
 20
185.97
 30
0.0
 40
0.5
100
AcDbArc
 50
81.47
 51
180.0
  0
LINE
  5
229
330
2
100
AcDbEntity
  8
画層1
 62
     0
100
AcDbLine
 10
256.07
 20
184.15
 30
0.0
 11
255.6699999999999
 21
184.15
 31
0.0
  0
ARC
  5
22A
330
2
100
AcDbEntity
  8
画層1
 62
     0
100
AcDbCircle
 10
244.66
 20
183.3
 30
0.0
 40
11.44118730072771
100
AcDbArc
 50
4.259999999999999
 51
19.13
  0
ARC
  5
22B
330
2
100
AcDbEntity
  8
画層1
 62
     0
100
AcDbCircle
 10
257.3199999999999
 20
185.35
 30
0.0
 40
1.0
100
AcDbArc
 50
15.99
 51
81.47
  0
LINE
  5
22C
330
2
100
AcDbEntity
  8
画層1
 62
     0
100
AcDbLine
 10
255.0399999999999
 20
192.65
 30
0.0
 11
254.47
 21
192.65
 31
0.0
  0
LINE
  5
22D
330
2
100
AcDbEntity
  8
画層1
 62
     0
100
AcDbLine
 10
255.0399999999999
 20
191.05
 30
0.0
 11
254.47
 21
191.05
 31
0.0
  0
ARC
  5
22E
330
2
100
AcDbEntity
  8
画層1
 62
     0
100
AcDbCircle
 10
251.0299999999999
 20
191.8499999999999
 30
0.0
 40
7.540000001812724
100
AcDbArc
 50
344.01
 51
356.1999999999999
  0
LINE
  5
22F
330
2
100
AcDbEntity
  8
画層1
 62
     0
100
AcDbLine
 10
256.07
 20
194.27
 30
0.0
 11
256.07
 21
189.43
 31
0.0
  0
LINE
  5
230
330
2
100
AcDbEntity
  8
画層1
 62
     0
100
AcDbLine
 10
256.65
 20
194.7599999999999
 30
0.0
 11
257.47
 21
194.6399999999999
 31
0.0
  0
ARC
  5
231
330
2
100
AcDbEntity
  8
画層1
 62
     0
100
AcDbCircle
 10
256.57
 20
194.27
 30
0.0
 40
0.5
100
AcDbArc
 50
81.47
 51
180.0
  0
LINE
  5
232
330
2
100
AcDbEntity
  8
画層1
 62
     0
100
AcDbLine
 10
256.07
 20
192.4499999999999
 30
0.0
 11
255.6699999999999
 21
192.4499999999999
 31
0.0
  0
LINE
  5
233
330
2
100
AcDbEntity
  8
画層1
 62
     0
100
AcDbLine
 10
255.6699999999999
 20
191.25
 30
0.0
 11
256.07
 21
191.25
 31
0.0
  0
LINE
  5
234
330
2
100
AcDbEntity
  8
画層1
 62
     0
100
AcDbLine
 10
255.6699999999999
 20
192.4499999999999
 30
0.0
 11
255.6699999999999
 21
191.25
 31
0.0
  0
ARC
  5
235
330
2
100
AcDbEntity
  8
画層1
 62
     0
100
AcDbCircle
 10
257.3199999999999
 20
193.65
 30
0.0
 40
1.0
100
AcDbArc
 50
15.99
 51
81.47
  0
LINE
  5
236
330
2
100
AcDbEntity
  8
画層1
 62
     0
100
AcDbLine
 10
258.5599999999999
 20
192.3499999999999
 30
0.0
 11
257.5699999999999
 21
192.3499999999999
 31
0.0
  0
ARC
  5
237
330
2
100
AcDbEntity
  8
画層1
 62
     0
100
AcDbCircle
 10
251.0299999999999
 20
191.8499999999999
 30
0.0
 40
7.540000001812724
100
AcDbArc
 50
3.799999999999999
 51
15.99
  0
LINE
  5
238
330
2
100
AcDbEntity
  8
画層1
 62
     0
100
AcDbLine
 10
257.5699999999999
 20
191.3499999999999
 30
0.0
 11
258.5599999999999
 21
191.3499999999999
 31
0.0
  0
LINE
  5
239
330
2
100
AcDbEntity
  8
画層1
 62
     0
100
AcDbLine
 10
257.5699999999999
 20
192.3499999999999
 30
0.0
 11
257.5699999999999
 21
191.3499999999999
 31
0.0
  0
LINE
  5
23A
330
2
100
AcDbEntity
  8
画層1
 62
     0
100
AcDbLine
 10
262.0
 20
179.6499999999999
 30
0.0
 11
262.0
 21
179.15
 31
0.0
  0
ARC
  5
23B
330
2
100
AcDbEntity
  8
画層1
 62
     0
100
AcDbCircle
 10
261.6999999999999
 20
179.6499999999999
 30
0.0
 40
0.3
100
AcDbArc
 50
0.0
 51
90.0
  0
ARC
  5
23C
330
2
100
AcDbEntity
  8
画層1
 62
     0
100
AcDbCircle
 10
261.6999999999999
 20
179.15
 30
0.0
 40
0.3
100
AcDbArc
 50
270.0
 51
0.0
  0
LINE
  5
23D
330
2
100
AcDbEntity
  8
画層1
 62
     0
100
AcDbLine
 10
262.0
 20
187.9499999999999
 30
0.0
 11
262.0
 21
187.4499999999999
 31
0.0
  0
ARC
  5
23E
330
2
100
AcDbEntity
  8
画層1
 62
     0
100
AcDbCircle
 10
261.6999999999999
 20
187.9499999999999
 30
0.0
 40
0.3
100
AcDbArc
 50
360.0
 51
90.0
  0
ARC
  5
23F
330
2
100
AcDbEntity
  8
画層1
 62
     0
100
AcDbCircle
 10
261.6999999999999
 20
187.4499999999999
 30
0.0
 40
0.3
100
AcDbArc
 50
270.0
 51
360.0
  0
LWPOLYLINE
  5
240
330
2
100
AcDbEntity
  8
画層1
 62
     0
100
AcDbPolyline
 90
        4
 70
     1
 43
0.0
 10
215.5
 20
223.3
 10
237.5
 20
223.3
 10
237.5
 20
221.4999999999999
 10
215.5
 20
221.4999999999999
  0
LWPOLYLINE
  5
241
330
2
100
AcDbEntity
  8
画層1
 62
     0
100
AcDbPolyline
 90
        4
 70
     1
 43
0.0
 10
215.5
 20
226.6
 10
237.5
 20
226.6
 10
237.5
 20
224.8
 10
215.5
 20
224.8
  0
LWPOLYLINE
  5
242
330
2
100
AcDbEntity
  8
画層1
 62
     0
100
AcDbPolyline
 90
        4
 70
     1
 43
0.0
 10
215.5
 20
233.1999999999999
 10
237.5
 20
233.1999999999999
 10
237.5
 20
231.4
 10
215.5
 20
231.4
  0
LWPOLYLINE
  5
243
330
2
100
AcDbEntity
  8
画層1
 62
     0
100
AcDbPolyline
 90
        4
 70
     1
 43
0.0
 10
215.5
 20
229.8999999999999
 10
237.5
 20
229.8999999999999
 10
237.5
 20
228.1
 10
215.5
 20
228.1
  0
ARC
  5
244
330
2
100
AcDbEntity
  8
画層1
 62
     0
100
AcDbCircle
 10
244.66
 20
216.5
 30
0.0
 40
11.44118730072771
100
AcDbArc
 50
4.259999999999999
 51
19.13
  0
ARC
  5
245
330
2
100
AcDbEntity
  8
画層1
 62
     0
100
AcDbCircle
 10
244.5699999999999
 20
216.7499999999999
 30
0.0
 40
10.50674104301652
100
AcDbArc
 50
4.37
 51
19.46
  0
LINE
  5
246
330
2
100
AcDbEntity
  8
画層1
 62
     0
100
AcDbLine
 10
254.47
 20
220.25
 30
0.0
 11
254.47
 21
213.2499999999999
 31
0.0
  0
LINE
  5
247
330
2
100
AcDbEntity
  8
画層1
 62
     0
100
AcDbLine
 10
253.9699999999999
 20
213.2499999999999
 30
0.0
 11
253.9699999999999
 21
220.25
 31
0.0
  0
LINE
  5
248
330
2
100
AcDbEntity
  8
画層1
 62
     0
100
AcDbLine
 10
256.07
 20
219.1699999999999
 30
0.0
 11
256.07
 21
214.3299999999999
 31
0.0
  0
ARC
  5
249
330
2
100
AcDbEntity
  8
画層1
 62
     0
100
AcDbCircle
 10
251.0299999999999
 20
216.7499999999999
 30
0.0
 40
7.540000001812724
100
AcDbArc
 50
3.799999999999999
 51
15.99
  0
LINE
  5
24A
330
2
100
AcDbEntity
  8
画層1
 62
     0
100
AcDbLine
 10
253.5
 20
220.35
 30
0.0
 11
253.5
 21
213.1499999999999
 31
0.0
  0
LINE
  5
24B
330
2
100
AcDbEntity
  8
画層1
 62
     0
100
AcDbLine
 10
253.5
 20
213.1499999999999
 30
0.0
 11
261.6999999999999
 21
213.1499999999999
 31
0.0
  0
LINE
  5
24C
330
2
100
AcDbEntity
  8
画層1
 62
     0
100
AcDbLine
 10
253.5
 20
212.05
 30
0.0
 11
261.6999999999999
 21
212.05
 31
0.0
  0
LINE
  5
24D
330
2
100
AcDbEntity
  8
画層1
 62
     0
100
AcDbLine
 10
253.5
 20
195.4499999999999
 30
0.0
 11
261.6999999999999
 21
195.4499999999999
 31
0.0
  0
LINE
  5
24E
330
2
100
AcDbEntity
  8
画層1
 62
     0
100
AcDbLine
 10
253.5
 20
204.8499999999999
 30
0.0
 11
261.6999999999999
 21
204.8499999999999
 31
0.0
  0
LINE
  5
24F
330
2
100
AcDbEntity
  8
画層1
 62
     0
100
AcDbLine
 10
253.5
 20
203.75
 30
0.0
 11
261.6999999999999
 21
203.75
 31
0.0
  0
LINE
  5
250
330
2
100
AcDbEntity
  8
画層1
 62
     0
100
AcDbLine
 10
253.5
 20
196.55
 30
0.0
 11
261.6999999999999
 21
196.55
 31
0.0
  0
ARC
  5
251
330
2
100
AcDbEntity
  8
画層1
 62
     0
100
AcDbCircle
 10
251.0299999999999
 20
208.4499999999999
 30
0.0
 40
7.540000001812724
100
AcDbArc
 50
344.01
 51
356.1999999999999
  0
ARC
  5
252
330
2
100
AcDbEntity
  8
画層1
 62
     0
100
AcDbCircle
 10
244.66
 20
208.6999999999999
 30
0.0
 40
11.44118729799423
100
AcDbArc
 50
340.87
 51
355.74
  0
ARC
  5
253
330
2
100
AcDbEntity
  8
画層1
 62
     0
100
AcDbCircle
 10
244.5699999999999
 20
208.4499999999999
 30
0.0
 40
10.50674104301652
100
AcDbArc
 50
340.54
 51
355.63
  0
LINE
  5
254
330
2
100
AcDbEntity
  8
画層1
 62
     0
100
AcDbLine
 10
254.47
 20
211.9499999999999
 30
0.0
 11
254.47
 21
204.95
 31
0.0
  0
LINE
  5
255
330
2
100
AcDbEntity
  8
画層1
 62
     0
100
AcDbLine
 10
253.9699999999999
 20
204.95
 30
0.0
 11
253.9699999999999
 21
211.9499999999999
 31
0.0
  0
LINE
  5
256
330
2
100
AcDbEntity
  8
画層1
 62
     0
100
AcDbLine
 10
256.07
 20
210.87
 30
0.0
 11
256.07
 21
206.03
 31
0.0
  0
LINE
  5
257
330
2
100
AcDbEntity
  8
画層1
 62
     0
100
AcDbLine
 10
253.5
 20
212.05
 30
0.0
 11
253.5
 21
204.8499999999999
 31
0.0
  0
LINE
  5
258
330
2
100
AcDbEntity
  8
画層1
 62
     0
100
AcDbLine
 10
256.07
 20
202.57
 30
0.0
 11
256.07
 21
197.7299999999999
 31
0.0
  0
ARC
  5
259
330
2
100
AcDbEntity
  8
画層1
 62
     0
100
AcDbCircle
 10
251.0299999999999
 20
200.15
 30
0.0
 40
7.540000001812724
100
AcDbArc
 50
3.799999999999999
 51
15.99
  0
LINE
  5
25A
330
2
100
AcDbEntity
  8
画層1
 62
     0
100
AcDbLine
 10
254.47
 20
203.65
 30
0.0
 11
254.47
 21
196.65
 31
0.0
  0
LINE
  5
25B
330
2
100
AcDbEntity
  8
画層1
 62
     0
100
AcDbLine
 10
253.9699999999999
 20
196.65
 30
0.0
 11
253.9699999999999
 21
203.65
 31
0.0
  0
LINE
  5
25C
330
2
100
AcDbEntity
  8
画層1
 62
     0
100
AcDbLine
 10
255.6699999999999
 20
200.7499999999999
 30
0.0
 11
255.6699999999999
 21
199.55
 31
0.0
  0
LINE
  5
25D
330
2
100
AcDbEntity
  8
画層1
 62
     0
100
AcDbLine
 10
253.5
 20
203.75
 30
0.0
 11
253.5
 21
196.55
 31
0.0
  0
LINE
  5
25E
330
2
100
AcDbEntity
  8
画層1
 62
     0
100
AcDbLine
 10
255.4699999999999
 20
196.65
 30
0.0
 11
253.5
 21
196.65
 31
0.0
  0
ARC
  5
25F
330
2
100
AcDbEntity
  8
画層1
 62
     0
100
AcDbCircle
 10
244.5699999999999
 20
200.15
 30
0.0
 40
10.50674104301652
100
AcDbArc
 50
340.54
 51
355.63
  0
LINE
  5
260
330
2
100
AcDbEntity
  8
画層1
 62
     0
100
AcDbLine
 10
253.5
 20
195.35
 30
0.0
 11
255.4699999999999
 21
195.35
 31
0.0
  0
LINE
  5
261
330
2
100
AcDbEntity
  8
画層1
 62
     0
100
AcDbLine
 10
255.0399999999999
 20
199.35
 30
0.0
 11
254.47
 21
199.35
 31
0.0
  0
ARC
  5
262
330
2
100
AcDbEntity
  8
画層1
 62
     0
100
AcDbCircle
 10
253.6999999999999
 20
196.75
 30
0.0
 40
0.2
100
AcDbArc
 50
180.0
 51
270.0
  0
ARC
  5
263
330
2
100
AcDbEntity
  8
画層1
 62
     0
100
AcDbCircle
 10
253.6999999999999
 20
195.25
 30
0.0
 40
0.2
100
AcDbArc
 50
90.0
 51
180.0
  0
LINE
  5
264
330
2
100
AcDbEntity
  8
画層1
 62
     0
100
AcDbLine
 10
256.65
 20
197.24
 30
0.0
 11
257.47
 21
197.36
 31
0.0
  0
LINE
  5
265
330
2
100
AcDbEntity
  8
画層1
 62
     0
100
AcDbLine
 10
255.6699999999999
 20
199.55
 30
0.0
 11
256.07
 21
199.55
 31
0.0
  0
ARC
  5
266
330
2
100
AcDbEntity
  8
画層1
 62
     0
100
AcDbCircle
 10
244.66
 20
200.4
 30
0.0
 40
11.44118729799423
100
AcDbArc
 50
340.87
 51
355.74
  0
ARC
  5
267
330
2
100
AcDbEntity
  8
画層1
 62
     0
100
AcDbCircle
 10
256.57
 20
197.7299999999999
 30
0.0
 40
0.5
100
AcDbArc
 50
180.0
 51
278.5299999999999
  0
LINE
  5
268
330
2
100
AcDbEntity
  8
画層1
 62
     0
100
AcDbLine
 10
257.5699999999999
 20
200.6499999999999
 30
0.0
 11
257.5699999999999
 21
199.65
 31
0.0
  0
ARC
  5
269
330
2
100
AcDbEntity
  8
画層1
 62
     0
100
AcDbCircle
 10
251.0299999999999
 20
200.15
 30
0.0
 40
7.540000001812724
100
AcDbArc
 50
344.01
 51
356.1999999999999
  0
LINE
  5
26A
330
2
100
AcDbEntity
  8
画層1
 62
     0
100
AcDbLine
 10
257.5699999999999
 20
199.65
 30
0.0
 11
258.5599999999999
 21
199.65
 31
0.0
  0
LINE
  5
26B
330
2
100
AcDbEntity
  8
画層1
 62
     0
100
AcDbLine
 10
258.5599999999999
 20
200.6499999999999
 30
0.0
 11
257.5699999999999
 21
200.6499999999999
 31
0.0
  0
ARC
  5
26C
330
2
100
AcDbEntity
  8
画層1
 62
     0
100
AcDbCircle
 10
257.3199999999999
 20
198.35
 30
0.0
 40
1.0
100
AcDbArc
 50
278.5299999999999
 51
344.01
  0
LINE
  5
26D
330
2
100
AcDbEntity
  8
画層1
 62
     0
100
AcDbLine
 10
255.4699999999999
 20
204.95
 30
0.0
 11
253.5
 21
204.95
 31
0.0
  0
ARC
  5
26E
330
2
100
AcDbEntity
  8
画層1
 62
     0
100
AcDbCircle
 10
244.5699999999999
 20
200.15
 30
0.0
 40
10.50674104301652
100
AcDbArc
 50
4.37
 51
19.46
  0
LINE
  5
26F
330
2
100
AcDbEntity
  8
画層1
 62
     0
100
AcDbLine
 10
253.5
 20
203.65
 30
0.0
 11
255.4699999999999
 21
203.65
 31
0.0
  0
LINE
  5
270
330
2
100
AcDbEntity
  8
画層1
 62
     0
100
AcDbLine
 10
255.0399999999999
 20
200.95
 30
0.0
 11
254.47
 21
200.95
 31
0.0
  0
ARC
  5
271
330
2
100
AcDbEntity
  8
画層1
 62
     0
100
AcDbCircle
 10
253.6999999999999
 20
205.0499999999999
 30
0.0
 40
0.2
100
AcDbArc
 50
180.0
 51
270.0
  0
ARC
  5
272
330
2
100
AcDbEntity
  8
画層1
 62
     0
100
AcDbCircle
 10
253.6999999999999
 20
203.55
 30
0.0
 40
0.2
100
AcDbArc
 50
90.0
 51
180.0
  0
LINE
  5
273
330
2
100
AcDbEntity
  8
画層1
 62
     0
100
AcDbLine
 10
256.65
 20
205.54
 30
0.0
 11
257.47
 21
205.6599999999999
 31
0.0
  0
ARC
  5
274
330
2
100
AcDbEntity
  8
画層1
 62
     0
100
AcDbCircle
 10
256.57
 20
206.03
 30
0.0
 40
0.5
100
AcDbArc
 50
180.0
 51
278.5299999999999
  0
ARC
  5
275
330
2
100
AcDbEntity
  8
画層1
 62
     0
100
AcDbCircle
 10
257.3199999999999
 20
206.65
 30
0.0
 40
1.0
100
AcDbArc
 50
278.5299999999999
 51
344.01
  0
ARC
  5
276
330
2
100
AcDbEntity
  8
画層1
 62
     0
100
AcDbCircle
 10
244.66
 20
199.9
 30
0.0
 40
11.44118730072771
100
AcDbArc
 50
4.259999999999999
 51
19.13
  0
LINE
  5
277
330
2
100
AcDbEntity
  8
画層1
 62
     0
100
AcDbLine
 10
256.07
 20
200.7499999999999
 30
0.0
 11
255.6699999999999
 21
200.7499999999999
 31
0.0
  0
LINE
  5
278
330
2
100
AcDbEntity
  8
画層1
 62
     0
100
AcDbLine
 10
256.65
 20
203.06
 30
0.0
 11
257.47
 21
202.9399999999999
 31
0.0
  0
ARC
  5
279
330
2
100
AcDbEntity
  8
画層1
 62
     0
100
AcDbCircle
 10
256.57
 20
202.57
 30
0.0
 40
0.5
100
AcDbArc
 50
81.47
 51
180.0
  0
ARC
  5
27A
330
2
100
AcDbEntity
  8
画層1
 62
     0
100
AcDbCircle
 10
257.3199999999999
 20
201.9499999999999
 30
0.0
 40
1.0
100
AcDbArc
 50
15.99
 51
81.47
  0
LINE
  5
27B
330
2
100
AcDbEntity
  8
画層1
 62
     0
100
AcDbLine
 10
253.5
 20
211.9499999999999
 30
0.0
 11
255.4699999999999
 21
211.9499999999999
 31
0.0
  0
ARC
  5
27C
330
2
100
AcDbEntity
  8
画層1
 62
     0
100
AcDbCircle
 10
244.5699999999999
 20
208.4499999999999
 30
0.0
 40
10.50674104301652
100
AcDbArc
 50
4.37
 51
19.46
  0
LINE
  5
27D
330
2
100
AcDbEntity
  8
画層1
 62
     0
100
AcDbLine
 10
255.0399999999999
 20
209.25
 30
0.0
 11
254.47
 21
209.25
 31
0.0
  0
LINE
  5
27E
330
2
100
AcDbEntity
  8
画層1
 62
     0
100
AcDbLine
 10
255.0399999999999
 20
207.65
 30
0.0
 11
254.47
 21
207.65
 31
0.0
  0
ARC
  5
27F
330
2
100
AcDbEntity
  8
画層1
 62
     0
100
AcDbCircle
 10
253.6999999999999
 20
211.85
 30
0.0
 40
0.2
100
AcDbArc
 50
90.0
 51
180.0
  0
LINE
  5
280
330
2
100
AcDbEntity
  8
画層1
 62
     0
100
AcDbLine
 10
256.65
 20
211.36
 30
0.0
 11
257.47
 21
211.24
 31
0.0
  0
ARC
  5
281
330
2
100
AcDbEntity
  8
画層1
 62
     0
100
AcDbCircle
 10
256.57
 20
210.87
 30
0.0
 40
0.5
100
AcDbArc
 50
81.47
 51
180.0
  0
LINE
  5
282
330
2
100
AcDbEntity
  8
画層1
 62
     0
100
AcDbLine
 10
256.07
 20
209.05
 30
0.0
 11
255.6699999999999
 21
209.05
 31
0.0
  0
ARC
  5
283
330
2
100
AcDbEntity
  8
画層1
 62
     0
100
AcDbCircle
 10
244.66
 20
208.1999999999999
 30
0.0
 40
11.44118730072771
100
AcDbArc
 50
4.259999999999999
 51
19.13
  0
LINE
  5
284
330
2
100
AcDbEntity
  8
画層1
 62
     0
100
AcDbLine
 10
255.6699999999999
 20
207.85
 30
0.0
 11
256.07
 21
207.85
 31
0.0
  0
LINE
  5
285
330
2
100
AcDbEntity
  8
画層1
 62
     0
100
AcDbLine
 10
255.6699999999999
 20
209.05
 30
0.0
 11
255.6699999999999
 21
207.85
 31
0.0
  0
ARC
  5
286
330
2
100
AcDbEntity
  8
画層1
 62
     0
100
AcDbCircle
 10
257.3199999999999
 20
210.25
 30
0.0
 40
1.0
100
AcDbArc
 50
15.99
 51
81.47
  0
LINE
  5
287
330
2
100
AcDbEntity
  8
画層1
 62
     0
100
AcDbLine
 10
257.5699999999999
 20
208.95
 30
0.0
 11
257.5699999999999
 21
207.9499999999999
 31
0.0
  0
LINE
  5
288
330
2
100
AcDbEntity
  8
画層1
 62
     0
100
AcDbLine
 10
257.5699999999999
 20
207.9499999999999
 30
0.0
 11
258.5599999999999
 21
207.9499999999999
 31
0.0
  0
LINE
  5
289
330
2
100
AcDbEntity
  8
画層1
 62
     0
100
AcDbLine
 10
258.5599999999999
 20
208.95
 30
0.0
 11
257.5699999999999
 21
208.95
 31
0.0
  0
ARC
  5
28A
330
2
100
AcDbEntity
  8
画層1
 62
     0
100
AcDbCircle
 10
251.0299999999999
 20
208.4499999999999
 30
0.0
 40
7.540000001812724
100
AcDbArc
 50
3.799999999999999
 51
15.99
  0
LINE
  5
28B
330
2
100
AcDbEntity
  8
画層1
 62
     0
100
AcDbLine
 10
255.4699999999999
 20
213.2499999999999
 30
0.0
 11
253.5
 21
213.2499999999999
 31
0.0
  0
ARC
  5
28C
330
2
100
AcDbEntity
  8
画層1
 62
     0
100
AcDbCircle
 10
244.5699999999999
 20
216.7499999999999
 30
0.0
 40
10.50674104301652
100
AcDbArc
 50
340.54
 51
355.63
  0
LINE
  5
28D
330
2
100
AcDbEntity
  8
画層1
 62
     0
100
AcDbLine
 10
255.0399999999999
 20
215.9499999999999
 30
0.0
 11
254.47
 21
215.9499999999999
 31
0.0
  0
LINE
  5
28E
330
2
100
AcDbEntity
  8
画層1
 62
     0
100
AcDbLine
 10
255.0399999999999
 20
217.5499999999999
 30
0.0
 11
254.47
 21
217.5499999999999
 31
0.0
  0
ARC
  5
28F
330
2
100
AcDbEntity
  8
画層1
 62
     0
100
AcDbCircle
 10
253.6999999999999
 20
213.35
 30
0.0
 40
0.2
100
AcDbArc
 50
180.0
 51
270.0
  0
LINE
  5
290
330
2
100
AcDbEntity
  8
画層1
 62
     0
100
AcDbLine
 10
256.65
 20
213.84
 30
0.0
 11
257.47
 21
213.96
 31
0.0
  0
LINE
  5
291
330
2
100
AcDbEntity
  8
画層1
 62
     0
100
AcDbLine
 10
255.6699999999999
 20
217.35
 30
0.0
 11
255.6699999999999
 21
216.15
 31
0.0
  0
LINE
  5
292
330
2
100
AcDbEntity
  8
画層1
 62
     0
100
AcDbLine
 10
255.6699999999999
 20
216.15
 30
0.0
 11
256.07
 21
216.15
 31
0.0
  0
LINE
  5
293
330
2
100
AcDbEntity
  8
画層1
 62
     0
100
AcDbLine
 10
256.07
 20
217.35
 30
0.0
 11
255.6699999999999
 21
217.35
 31
0.0
  0
ARC
  5
294
330
2
100
AcDbEntity
  8
画層1
 62
     0
100
AcDbCircle
 10
256.57
 20
214.3299999999999
 30
0.0
 40
0.5
100
AcDbArc
 50
180.0
 51
278.5299999999999
  0
ARC
  5
295
330
2
100
AcDbEntity
  8
画層1
 62
     0
100
AcDbCircle
 10
244.66
 20
217.0
 30
0.0
 40
11.44118729799423
100
AcDbArc
 50
340.87
 51
355.74
  0
LINE
  5
296
330
2
100
AcDbEntity
  8
画層1
 62
     0
100
AcDbLine
 10
257.5699999999999
 20
217.2499999999999
 30
0.0
 11
257.5699999999999
 21
216.25
 31
0.0
  0
LINE
  5
297
330
2
100
AcDbEntity
  8
画層1
 62
     0
100
AcDbLine
 10
257.5699999999999
 20
216.25
 30
0.0
 11
258.5599999999999
 21
216.25
 31
0.0
  0
LINE
  5
298
330
2
100
AcDbEntity
  8
画層1
 62
     0
100
AcDbLine
 10
258.5599999999999
 20
217.2499999999999
 30
0.0
 11
257.5699999999999
 21
217.2499999999999
 31
0.0
  0
ARC
  5
299
330
2
100
AcDbEntity
  8
画層1
 62
     0
100
AcDbCircle
 10
257.3199999999999
 20
214.9499999999999
 30
0.0
 40
1.0
100
AcDbArc
 50
278.5299999999999
 51
344.01
  0
ARC
  5
29A
330
2
100
AcDbEntity
  8
画層1
 62
     0
100
AcDbCircle
 10
251.0299999999999
 20
216.7499999999999
 30
0.0
 40
7.540000001812724
100
AcDbArc
 50
344.01
 51
356.1999999999999
  0
LINE
  5
29B
330
2
100
AcDbEntity
  8
画層1
 62
     0
100
AcDbLine
 10
262.0
 20
196.25
 30
0.0
 11
262.0
 21
195.7499999999999
 31
0.0
  0
ARC
  5
29C
330
2
100
AcDbEntity
  8
画層1
 62
     0
100
AcDbCircle
 10
261.6999999999999
 20
196.25
 30
0.0
 40
0.3
100
AcDbArc
 50
0.0
 51
90.0
  0
ARC
  5
29D
330
2
100
AcDbEntity
  8
画層1
 62
     0
100
AcDbCircle
 10
261.6999999999999
 20
195.7499999999999
 30
0.0
 40
0.3
100
AcDbArc
 50
270.0
 51
0.0
  0
LINE
  5
29E
330
2
100
AcDbEntity
  8
画層1
 62
     0
100
AcDbLine
 10
262.0
 20
204.55
 30
0.0
 11
262.0
 21
204.05
 31
0.0
  0
ARC
  5
29F
330
2
100
AcDbEntity
  8
画層1
 62
     0
100
AcDbCircle
 10
261.6999999999999
 20
204.55
 30
0.0
 40
0.3
100
AcDbArc
 50
0.0
 51
90.0
  0
ARC
  5
2A0
330
2
100
AcDbEntity
  8
画層1
 62
     0
100
AcDbCircle
 10
261.6999999999999
 20
204.05
 30
0.0
 40
0.3
100
AcDbArc
 50
270.0
 51
0.0
  0
ARC
  5
2A1
330
2
100
AcDbEntity
  8
画層1
 62
     0
100
AcDbCircle
 10
261.6999999999999
 20
212.3499999999999
 30
0.0
 40
0.3
100
AcDbArc
 50
270.0
 51
0.0
  0
LINE
  5
2A2
330
2
100
AcDbEntity
  8
画層1
 62
     0
100
AcDbLine
 10
262.0
 20
212.8499999999999
 30
0.0
 11
262.0
 21
212.3499999999999
 31
0.0
  0
ARC
  5
2A3
330
2
100
AcDbEntity
  8
画層1
 62
     0
100
AcDbCircle
 10
261.6999999999999
 20
212.8499999999999
 30
0.0
 40
0.3
100
AcDbArc
 50
0.0
 51
90.0
  0
LINE
  5
2A4
330
2
100
AcDbEntity
  8
画層1
 62
     0
100
AcDbLine
 10
261.6999999999999
 20
236.9499999999999
 30
0.0
 11
253.5
 21
236.9499999999999
 31
0.0
  0
LINE
  5
2A5
330
2
100
AcDbEntity
  8
画層1
 62
     0
100
AcDbLine
 10
253.5
 20
229.7499999999999
 30
0.0
 11
261.6999999999999
 21
229.7499999999999
 31
0.0
  0
LINE
  5
2A6
330
2
100
AcDbEntity
  8
画層1
 62
     0
100
AcDbLine
 10
253.5
 20
228.65
 30
0.0
 11
261.6999999999999
 21
228.65
 31
0.0
  0
LINE
  5
2A7
330
2
100
AcDbEntity
  8
画層1
 62
     0
100
AcDbLine
 10
253.5
 20
241.0
 30
0.0
 11
262.0
 21
241.0
 31
0.0
  0
LINE
  5
2A8
330
2
100
AcDbEntity
  8
画層1
 62
     0
100
AcDbLine
 10
253.5
 20
239.0
 30
0.0
 11
261.6999999999999
 21
239.0
 31
0.0
  0
LINE
  5
2A9
330
2
100
AcDbEntity
  8
画層1
 62
     0
100
AcDbLine
 10
261.6999999999999
 20
220.35
 30
0.0
 11
253.5
 21
220.35
 31
0.0
  0
LINE
  5
2AA
330
2
100
AcDbEntity
  8
画層1
 62
     0
100
AcDbLine
 10
253.5
 20
221.45
 30
0.0
 11
261.6999999999999
 21
221.45
 31
0.0
  0
ARC
  5
2AB
330
2
100
AcDbEntity
  8
画層1
 62
     0
100
AcDbCircle
 10
253.6999999999999
 20
229.95
 30
0.0
 40
0.2
100
AcDbArc
 50
180.0
 51
270.0
  0
ARC
  5
2AC
330
2
100
AcDbEntity
  8
画層1
 62
     0
100
AcDbCircle
 10
250.7
 20
218.29
 30
0.0
 40
1.0
100
AcDbArc
 50
0.0
 51
89.99
  0
LINE
  5
2AD
330
2
100
AcDbEntity
  8
画層1
 62
     0
100
AcDbLine
 10
254.47
 20
228.55
 30
0.0
 11
254.47
 21
221.55
 31
0.0
  0
LINE
  5
2AE
330
2
100
AcDbEntity
  8
画層1
 62
     0
100
AcDbLine
 10
253.9699999999999
 20
221.55
 30
0.0
 11
253.9699999999999
 21
228.55
 31
0.0
  0
LINE
  5
2AF
330
2
100
AcDbEntity
  8
画層1
 62
     0
100
AcDbLine
 10
256.07
 20
227.47
 30
0.0
 11
256.07
 21
222.63
 31
0.0
  0
ARC
  5
2B0
330
2
100
AcDbEntity
  8
画層1
 62
     0
100
AcDbCircle
 10
244.66
 20
225.3
 30
0.0
 40
11.44118729799423
100
AcDbArc
 50
340.87
 51
355.74
  0
ARC
  5
2B1
330
2
100
AcDbEntity
  8
画層1
 62
     0
100
AcDbCircle
 10
244.5699999999999
 20
225.05
 30
0.0
 40
10.50674104301652
100
AcDbArc
 50
340.54
 51
355.63
  0
ARC
  5
2B2
330
2
100
AcDbEntity
  8
画層1
 62
     0
100
AcDbCircle
 10
251.0299999999999
 20
225.05
 30
0.0
 40
7.540000001812724
100
AcDbArc
 50
344.01
 51
356.1999999999999
  0
LINE
  5
2B3
330
2
100
AcDbEntity
  8
画層1
 62
     0
100
AcDbLine
 10
253.5
 20
228.65
 30
0.0
 11
253.5
 21
221.45
 31
0.0
  0
LINE
  5
2B4
330
2
100
AcDbEntity
  8
画層1
 62
     0
100
AcDbLine
 10
255.4699999999999
 20
221.55
 30
0.0
 11
253.5
 21
221.55
 31
0.0
  0
LINE
  5
2B5
330
2
100
AcDbEntity
  8
画層1
 62
     0
100
AcDbLine
 10
253.5
 20
220.25
 30
0.0
 11
255.4699999999999
 21
220.25
 31
0.0
  0
ARC
  5
2B6
330
2
100
AcDbEntity
  8
画層1
 62
     0
100
AcDbCircle
 10
253.6999999999999
 20
221.6499999999999
 30
0.0
 40
0.2
100
AcDbArc
 50
180.0
 51
270.0
  0
ARC
  5
2B7
330
2
100
AcDbEntity
  8
画層1
 62
     0
100
AcDbCircle
 10
253.6999999999999
 20
220.15
 30
0.0
 40
0.2
100
AcDbArc
 50
90.0
 51
180.0
  0
ARC
  5
2B8
330
2
100
AcDbEntity
  8
画層1
 62
     0
100
AcDbCircle
 10
257.3199999999999
 20
223.2499999999999
 30
0.0
 40
1.0
100
AcDbArc
 50
278.5299999999999
 51
344.01
  0
LINE
  5
2B9
330
2
100
AcDbEntity
  8
画層1
 62
     0
100
AcDbLine
 10
256.65
 20
222.14
 30
0.0
 11
257.47
 21
222.2599999999999
 31
0.0
  0
ARC
  5
2BA
330
2
100
AcDbEntity
  8
画層1
 62
     0
100
AcDbCircle
 10
256.57
 20
222.63
 30
0.0
 40
0.5
100
AcDbArc
 50
180.0
 51
278.5299999999999
  0
ARC
  5
2BB
330
2
100
AcDbEntity
  8
画層1
 62
     0
100
AcDbCircle
 10
257.3199999999999
 20
218.55
 30
0.0
 40
1.0
100
AcDbArc
 50
15.99
 51
81.47
  0
LINE
  5
2BC
330
2
100
AcDbEntity
  8
画層1
 62
     0
100
AcDbLine
 10
256.65
 20
219.66
 30
0.0
 11
257.47
 21
219.5399999999999
 31
0.0
  0
ARC
  5
2BD
330
2
100
AcDbEntity
  8
画層1
 62
     0
100
AcDbCircle
 10
256.57
 20
219.1699999999999
 30
0.0
 40
0.5
100
AcDbArc
 50
81.47
 51
180.0
  0
LINE
  5
2BE
330
2
100
AcDbEntity
  8
画層1
 62
     0
100
AcDbLine
 10
253.5
 20
228.55
 30
0.0
 11
255.4699999999999
 21
228.55
 31
0.0
  0
ARC
  5
2BF
330
2
100
AcDbEntity
  8
画層1
 62
     0
100
AcDbCircle
 10
244.5699999999999
 20
225.05
 30
0.0
 40
10.50674104301652
100
AcDbArc
 50
4.37
 51
19.46
  0
LINE
  5
2C0
330
2
100
AcDbEntity
  8
画層1
 62
     0
100
AcDbLine
 10
255.0399999999999
 20
224.25
 30
0.0
 11
254.47
 21
224.25
 31
0.0
  0
LINE
  5
2C1
330
2
100
AcDbEntity
  8
画層1
 62
     0
100
AcDbLine
 10
255.0399999999999
 20
225.85
 30
0.0
 11
254.47
 21
225.85
 31
0.0
  0
ARC
  5
2C2
330
2
100
AcDbEntity
  8
画層1
 62
     0
100
AcDbCircle
 10
253.6999999999999
 20
228.4499999999999
 30
0.0
 40
0.2
100
AcDbArc
 50
90.0
 51
180.0
  0
LINE
  5
2C3
330
2
100
AcDbEntity
  8
画層1
 62
     0
100
AcDbLine
 10
257.5699999999999
 20
225.55
 30
0.0
 11
257.5699999999999
 21
224.55
 31
0.0
  0
LINE
  5
2C4
330
2
100
AcDbEntity
  8
画層1
 62
     0
100
AcDbLine
 10
255.6699999999999
 20
225.6499999999999
 30
0.0
 11
255.6699999999999
 21
224.4499999999999
 31
0.0
  0
LINE
  5
2C5
330
2
100
AcDbEntity
  8
画層1
 62
     0
100
AcDbLine
 10
255.6699999999999
 20
224.4499999999999
 30
0.0
 11
256.07
 21
224.4499999999999
 31
0.0
  0
LINE
  5
2C6
330
2
100
AcDbEntity
  8
画層1
 62
     0
100
AcDbLine
 10
257.5699999999999
 20
224.55
 30
0.0
 11
258.5599999999999
 21
224.55
 31
0.0
  0
LINE
  5
2C7
330
2
100
AcDbEntity
  8
画層1
 62
     0
100
AcDbLine
 10
256.65
 20
227.96
 30
0.0
 11
257.47
 21
227.8399999999999
 31
0.0
  0
ARC
  5
2C8
330
2
100
AcDbEntity
  8
画層1
 62
     0
100
AcDbCircle
 10
256.57
 20
227.47
 30
0.0
 40
0.5
100
AcDbArc
 50
81.47
 51
180.0
  0
LINE
  5
2C9
330
2
100
AcDbEntity
  8
画層1
 62
     0
100
AcDbLine
 10
256.07
 20
225.6499999999999
 30
0.0
 11
255.6699999999999
 21
225.6499999999999
 31
0.0
  0
ARC
  5
2CA
330
2
100
AcDbEntity
  8
画層1
 62
     0
100
AcDbCircle
 10
244.66
 20
224.8
 30
0.0
 40
11.44118730072771
100
AcDbArc
 50
4.259999999999999
 51
19.13
  0
ARC
  5
2CB
330
2
100
AcDbEntity
  8
画層1
 62
     0
100
AcDbCircle
 10
257.3199999999999
 20
226.8499999999999
 30
0.0
 40
1.0
100
AcDbArc
 50
15.99
 51
81.47
  0
LINE
  5
2CC
330
2
100
AcDbEntity
  8
画層1
 62
     0
100
AcDbLine
 10
258.5599999999999
 20
225.55
 30
0.0
 11
257.5699999999999
 21
225.55
 31
0.0
  0
ARC
  5
2CD
330
2
100
AcDbEntity
  8
画層1
 62
     0
100
AcDbCircle
 10
251.0299999999999
 20
225.05
 30
0.0
 40
7.540000001812724
100
AcDbArc
 50
3.799999999999999
 51
15.99
  0
ARC
  5
2CE
330
2
100
AcDbEntity
  8
画層1
 62
     0
100
AcDbCircle
 10
251.0
 20
235.0
 30
0.0
 40
1.0
100
AcDbArc
 50
0.0
 51
90.0
  0
ARC
  5
2CF
330
2
100
AcDbEntity
  8
画層1
 62
     0
100
AcDbCircle
 10
244.66
 20
233.0999999999999
 30
0.0
 40
11.44118730072771
100
AcDbArc
 50
4.259999999999999
 51
19.13
  0
ARC
  5
2D0
330
2
100
AcDbEntity
  8
画層1
 62
     0
100
AcDbCircle
 10
257.3199999999999
 20
235.15
 30
0.0
 40
1.0
100
AcDbArc
 50
15.99
 51
81.47
  0
ARC
  5
2D1
330
2
100
AcDbEntity
  8
画層1
 62
     0
100
AcDbCircle
 10
244.5699999999999
 20
233.3499999999999
 30
0.0
 40
10.50674104301652
100
AcDbArc
 50
4.37
 51
19.46
  0
LINE
  5
2D2
330
2
100
AcDbEntity
  8
画層1
 62
     0
100
AcDbLine
 10
254.47
 20
236.85
 30
0.0
 11
254.47
 21
229.85
 31
0.0
  0
LINE
  5
2D3
330
2
100
AcDbEntity
  8
画層1
 62
     0
100
AcDbLine
 10
256.07
 20
235.77
 30
0.0
 11
256.07
 21
230.9299999999999
 31
0.0
  0
LINE
  5
2D4
330
2
100
AcDbEntity
  8
画層1
 62
     0
100
AcDbLine
 10
253.9699999999999
 20
229.85
 30
0.0
 11
253.9699999999999
 21
236.85
 31
0.0
  0
LINE
  5
2D5
330
2
100
AcDbEntity
  8
画層1
 62
     0
100
AcDbLine
 10
253.5
 20
236.9499999999999
 30
0.0
 11
253.5
 21
229.7499999999999
 31
0.0
  0
LINE
  5
2D6
330
2
100
AcDbEntity
  8
画層1
 62
     0
100
AcDbLine
 10
255.4699999999999
 20
229.85
 30
0.0
 11
253.5
 21
229.85
 31
0.0
  0
ARC
  5
2D7
330
2
100
AcDbEntity
  8
画層1
 62
     0
100
AcDbCircle
 10
244.5699999999999
 20
233.3499999999999
 30
0.0
 40
10.50674104301652
100
AcDbArc
 50
340.54
 51
355.63
  0
LINE
  5
2D8
330
2
100
AcDbEntity
  8
画層1
 62
     0
100
AcDbLine
 10
255.0399999999999
 20
232.55
 30
0.0
 11
254.47
 21
232.55
 31
0.0
  0
LINE
  5
2D9
330
2
100
AcDbEntity
  8
画層1
 62
     0
100
AcDbLine
 10
255.0399999999999
 20
234.1499999999999
 30
0.0
 11
254.47
 21
234.1499999999999
 31
0.0
  0
LINE
  5
2DA
330
2
100
AcDbEntity
  8
画層1
 62
     0
100
AcDbLine
 10
257.5699999999999
 20
233.8499999999999
 30
0.0
 11
257.5699999999999
 21
232.85
 31
0.0
  0
LINE
  5
2DB
330
2
100
AcDbEntity
  8
画層1
 62
     0
100
AcDbLine
 10
255.6699999999999
 20
233.95
 30
0.0
 11
255.6699999999999
 21
232.75
 31
0.0
  0
LINE
  5
2DC
330
2
100
AcDbEntity
  8
画層1
 62
     0
100
AcDbLine
 10
255.6699999999999
 20
232.75
 30
0.0
 11
256.07
 21
232.75
 31
0.0
  0
LINE
  5
2DD
330
2
100
AcDbEntity
  8
画層1
 62
     0
100
AcDbLine
 10
257.5699999999999
 20
232.85
 30
0.0
 11
258.5599999999999
 21
232.85
 31
0.0
  0
LINE
  5
2DE
330
2
100
AcDbEntity
  8
画層1
 62
     0
100
AcDbLine
 10
256.07
 20
233.95
 30
0.0
 11
255.6699999999999
 21
233.95
 31
0.0
  0
LINE
  5
2DF
330
2
100
AcDbEntity
  8
画層1
 62
     0
100
AcDbLine
 10
258.5599999999999
 20
233.8499999999999
 30
0.0
 11
257.5699999999999
 21
233.8499999999999
 31
0.0
  0
ARC
  5
2E0
330
2
100
AcDbEntity
  8
画層1
 62
     0
100
AcDbCircle
 10
251.0299999999999
 20
233.3499999999999
 30
0.0
 40
7.540000001812724
100
AcDbArc
 50
3.799999999999999
 51
15.99
  0
ARC
  5
2E1
330
2
100
AcDbEntity
  8
画層1
 62
     0
100
AcDbCircle
 10
257.3199999999999
 20
231.55
 30
0.0
 40
1.0
100
AcDbArc
 50
278.5299999999999
 51
344.01
  0
LINE
  5
2E2
330
2
100
AcDbEntity
  8
画層1
 62
     0
100
AcDbLine
 10
256.65
 20
230.44
 30
0.0
 11
257.47
 21
230.56
 31
0.0
  0
ARC
  5
2E3
330
2
100
AcDbEntity
  8
画層1
 62
     0
100
AcDbCircle
 10
256.57
 20
230.9299999999999
 30
0.0
 40
0.5
100
AcDbArc
 50
180.0
 51
278.5299999999999
  0
ARC
  5
2E4
330
2
100
AcDbEntity
  8
画層1
 62
     0
100
AcDbCircle
 10
244.66
 20
233.5999999999999
 30
0.0
 40
11.44118729799423
100
AcDbArc
 50
340.87
 51
355.74
  0
ARC
  5
2E5
330
2
100
AcDbEntity
  8
画層1
 62
     0
100
AcDbCircle
 10
251.0299999999999
 20
233.3499999999999
 30
0.0
 40
7.540000001812724
100
AcDbArc
 50
344.01
 51
356.1999999999999
  0
LINE
  5
2E6
330
2
100
AcDbEntity
  8
画層1
 62
     0
100
AcDbLine
 10
253.5
 20
236.85
 30
0.0
 11
255.4699999999999
 21
236.85
 31
0.0
  0
ARC
  5
2E7
330
2
100
AcDbEntity
  8
画層1
 62
     0
100
AcDbCircle
 10
253.6999999999999
 20
236.75
 30
0.0
 40
0.2
100
AcDbArc
 50
90.0
 51
180.0
  0
LINE
  5
2E8
330
2
100
AcDbEntity
  8
画層1
 62
     0
100
AcDbLine
 10
256.65
 20
236.26
 30
0.0
 11
257.47
 21
236.1399999999999
 31
0.0
  0
ARC
  5
2E9
330
2
100
AcDbEntity
  8
画層1
 62
     0
100
AcDbCircle
 10
256.57
 20
235.77
 30
0.0
 40
0.5
100
AcDbArc
 50
81.47
 51
180.0
  0
ARC
  5
2EA
330
2
100
AcDbEntity
  8
画層1
 62
     0
100
AcDbCircle
 10
261.6999999999999
 20
229.4499999999999
 30
0.0
 40
0.3
100
AcDbArc
 50
0.0
 51
90.0
  0
LINE
  5
2EB
330
2
100
AcDbEntity
  8
画層1
 62
     0
100
AcDbLine
 10
262.0
 20
221.15
 30
0.0
 11
262.0
 21
220.65
 31
0.0
  0
ARC
  5
2EC
330
2
100
AcDbEntity
  8
画層1
 62
     0
100
AcDbCircle
 10
261.6999999999999
 20
221.15
 30
0.0
 40
0.3
100
AcDbArc
 50
0.0
 51
90.0
  0
ARC
  5
2ED
330
2
100
AcDbEntity
  8
画層1
 62
     0
100
AcDbCircle
 10
261.6999999999999
 20
220.65
 30
0.0
 40
0.3
100
AcDbArc
 50
270.0
 51
0.0
  0
LINE
  5
2EE
330
2
100
AcDbEntity
  8
画層1
 62
     0
100
AcDbLine
 10
262.0
 20
229.4499999999999
 30
0.0
 11
262.0
 21
228.9499999999999
 31
0.0
  0
ARC
  5
2EF
330
2
100
AcDbEntity
  8
画層1
 62
     0
100
AcDbCircle
 10
261.6999999999999
 20
228.9499999999999
 30
0.0
 40
0.3
100
AcDbArc
 50
270.0
 51
0.0
  0
LINE
  5
2F0
330
2
100
AcDbEntity
  8
画層1
 62
     0
100
AcDbLine
 10
262.0
 20
241.0
 30
0.0
 11
262.0
 21
237.25
 31
0.0
  0
ARC
  5
2F1
330
2
100
AcDbEntity
  8
画層1
 62
     0
100
AcDbCircle
 10
261.6999999999999
 20
237.25
 30
0.0
 40
0.3
100
AcDbArc
 50
270.0
 51
0.0
  0
ARC
  5
2F2
330
2
100
AcDbEntity
  8
画層1
 62
     0
100
AcDbCircle
 10
261.6999999999999
 20
238.7
 30
0.0
 40
0.3
100
AcDbArc
 50
0.0
 51
90.0
  0
ENDSEC
  0
SECTION
  2
OBJECTS
  0
DICTIONARY
  5
9
330
0
100
AcDbDictionary
281
     1
  3
ACAD_GROUP
350
23
  3
ACAD_LAYOUT
350
D
  3
ACAD_MLINESTYLE
350
24
  3
ACAD_PLOTSETTINGS
350
25
  3
ACAD_PLOTSTYLENAME
350
8
  3
DWGPROPS
350
37A
  0
DICTIONARY
  5
3
330
2
100
AcDbDictionary
280
     1
281
     1
  3
ACAD_LAYOUTSELFREF
360
314
  0
DICTIONARY
  5
F
330
E
100
AcDbDictionary
280
     1
281
     1
  3
ACAD_LAYOUTSELFREF
360
315
  0
DICTIONARY
  5
23
102
{ACAD_REACTORS
330
9
102
}
330
9
100
AcDbDictionary
281
     1
  0
DICTIONARY
  5
D
102
{ACAD_REACTORS
330
9
102
}
330
9
100
AcDbDictionary
281
     1
  3
Model
350
324
  3
ﾚｲｱｳﾄ1
350
325
  0
DICTIONARY
  5
24
102
{ACAD_REACTORS
330
9
102
}
330
9
100
AcDbDictionary
281
     1
  3
STANDARD
350
2E
  0
DICTIONARY
  5
25
102
{ACAD_REACTORS
330
9
102
}
330
9
100
AcDbDictionary
281
     1
  0
ACDBDICTIONARYWDFLT
  5
8
102
{ACAD_REACTORS
330
9
102
}
330
9
100
AcDbDictionary
281
     1
  3
Normal
350
7
100
AcDbDictionaryWithDefault
340
7
  0
XRECORD
  5
37A
102
{ACAD_REACTORS
330
9
102
}
330
9
100
AcDbXrecord
280
     1
  1
DWGPROPS COOKIE
  2

  3

  4

  6

  7

  8

  9

300
=
301
=
302
=
303
=
304
=
305
=
306
=
307
=
308
=
309
=
 40
1.192881018518518
 41
2450995.462150231
 42
2451964.751085069
  1

 90
        0
  0
XRECORD
  5
314
102
{ACAD_REACTORS
330
3
102
}
330
3
100
AcDbXrecord
280
     1
340
2
  0
XRECORD
  5
315
102
{ACAD_REACTORS
330
F
102
}
330
F
100
AcDbXrecord
280
     1
340
E
  0
LAYOUT
  5
324
102
{ACAD_REACTORS
330
D
102
}
330
D
100
AcDbPlotSettings
  1

  2
EPSON MJ-6000C
  4

  6

 40
0.0
 41
0.0
 42
0.0
 43
0.0
 44
0.0
 45
0.0
 46
0.0
 47
0.0
 48
0.0
 49
0.0
140
0.0
141
0.0
142
1.0
143
1.0
 70
  1712
 72
     0
 73
     0
 74
     0
  7

 75
     0
147
1.0
148
0.0
149
0.0
100
AcDbLayout
  1
Model
 70
     1
 71
     0
 10
0.0
 20
0.0
 11
12.0
 21
9.0
 12
0.0
 22
0.0
 32
0.0
 14
0.0
 24
0.0
 34
0.0
 15
0.0
 25
0.0
 35
0.0
146
0.0
 13
0.0
 23
0.0
 33
0.0
 16
1.0
 26
0.0
 36
0.0
 17
0.0
 27
1.0
 37
0.0
 76
     0
330
2
  0
LAYOUT
  5
325
102
{ACAD_REACTORS
330
D
102
}
330
D
100
AcDbPlotSettings
  1

  2
EPSON MJ-6000C
  4

  6

 40
0.0
 41
0.0
 42
0.0
 43
0.0
 44
0.0
 45
0.0
 46
0.0
 47
0.0
 48
0.0
 49
0.0
140
0.0
141
0.0
142
1.0
143
1.0
 70
   688
 72
     0
 73
     0
 74
     5
  7

 75
    16
147
1.0
148
0.0
149
0.0
100
AcDbLayout
  1
ﾚｲｱｳﾄ1
 70
     1
 71
     1
 10
0.0
 20
0.0
 11
420.0
 21
297.0
 12
0.0
 22
0.0
 32
0.0
 14
1.000000000000000E+20
 24
1.000000000000000E+20
 34
1.000000000000000E+20
 15
-1.000000000000000E+20
 25
-1.000000000000000E+20
 35
-1.000000000000000E+20
146
0.0
 13
0.0
 23
0.0
 33
0.0
 16
1.0
 26
0.0
 36
0.0
 17
0.0
 27
1.0
 37
0.0
 76
     0
330
E
  0
MLINESTYLE
  5
2E
102
{ACAD_REACTORS
330
24
102
}
330
24
100
AcDbMlineStyle
  2
STANDARD
 70
     0
  3

 62
   256
 51
90.0
 52
90.0
 71
     2
 49
0.5
 62
   256
  6
BYLAYER
 49
-0.5
 62
   256
  6
BYLAYER
  0
ACDBPLACEHOLDER
  5
7
102
{ACAD_REACTORS
330
8
102
}
330
8
  0
ENDSEC
  0
EOF
