  0
SECTION
  2
HEADER
  9
$ACADVER
  1
AC1015
  9
$ACADMAINTVER
 70
     6
  9
$DWGCODEPAGE
  3
ANSI_932
  9
$INSBASE
 10
0.0
 20
0.0
 30
0.0
  9
$EXTMIN
 10
29.0
 20
16.0
 30
-0.00000001
  9
$EXTMAX
 10
396.0720214507167
 20
262.3502538071065
 30
0.00000001
  9
$LIMMIN
 10
204.0
 20
285.0
  9
$LIMMAX
 10
211.0
 20
303.0
  9
$ORTHOMODE
 70
     1
  9
$REGENMODE
 70
     1
  9
$FILLMODE
 70
     1
  9
$QTEXTMODE
 70
     0
  9
$MIRRTEXT
 70
     1
  9
$LTSCALE
 40
1.0
  9
$ATTMODE
 70
     1
  9
$TEXTSIZE
 40
3.0
  9
$TRACEWID
 40
1.0
  9
$TEXTSTYLE
  7
STYLE1
  9
$CLAYER
  8
画層1
  9
$CELTYPE
  6
BYLAYER
  9
$CECOLOR
 62
     1
  9
$CELTSCALE
 40
1.0
  9
$DISPSILH
 70
     0
  9
$DIMSCALE
 40
1.0
  9
$DIMASZ
 40
2.0
  9
$DIMEXO
 40
1.0
  9
$DIMDLI
 40
4.0
  9
$DIMRND
 40
0.0
  9
$DIMDLE
 40
0.0
  9
$DIMEXE
 40
1.0
  9
$DIMTP
 40
1.0
  9
$DIMTM
 40
0.0
  9
$DIMTXT
 40
3.0
  9
$DIMCEN
 40
3.0
  9
$DIMTSZ
 40
0.0
  9
$DIMTOL
 70
     1
  9
$DIMLIM
 70
     0
  9
$DIMTIH
 70
     0
  9
$DIMTOH
 70
     0
  9
$DIMSE1
 70
     0
  9
$DIMSE2
 70
     0
  9
$DIMTAD
 70
     1
  9
$DIMZIN
 70
     8
  9
$DIMBLK
  1

  9
$DIMASO
 70
     1
  9
$DIMSHO
 70
     1
  9
$DIMPOST
  1

  9
$DIMAPOST
  1

  9
$DIMALT
 70
     0
  9
$DIMALTD
 70
     4
  9
$DIMALTF
 40
25.4
  9
$DIMLFAC
 40
1.0
  9
$DIMTOFL
 70
     1
  9
$DIMTVP
 40
0.0
  9
$DIMTIX
 70
     0
  9
$DIMSOXD
 70
     0
  9
$DIMSAH
 70
     1
  9
$DIMBLK1
  1
OPEN
  9
$DIMBLK2
  1
OPEN
  9
$DIMSTYLE
  2
STANDARD_WS
  9
$DIMCLRD
 70
     0
  9
$DIMCLRE
 70
     0
  9
$DIMCLRT
 70
     0
  9
$DIMTFAC
 40
1.0
  9
$DIMGAP
 40
1.0
  9
$DIMJUST
 70
     0
  9
$DIMSD1
 70
     0
  9
$DIMSD2
 70
     0
  9
$DIMTOLJ
 70
     1
  9
$DIMTZIN
 70
     8
  9
$DIMALTZ
 70
     0
  9
$DIMALTTZ
 70
     0
  9
$DIMUPT
 70
     0
  9
$DIMDEC
 70
     4
  9
$DIMTDEC
 70
     4
  9
$DIMALTU
 70
     8
  9
$DIMALTTD
 70
     4
  9
$DIMTXSTY
  7
STYLE1
  9
$DIMAUNIT
 70
     0
  9
$DIMADEC
 70
     0
  9
$DIMALTRND
 40
0.0
  9
$DIMAZIN
 70
     0
  9
$DIMDSEP
 70
    46
  9
$DIMATFIT
 70
     3
  9
$DIMFRAC
 70
     0
  9
$DIMLDRBLK
  1
OPEN
  9
$DIMLUNIT
 70
     2
  9
$DIMLWD
 70
    -2
  9
$DIMLWE
 70
    -2
  9
$DIMTMOVE
 70
     0
  9
$LUNITS
 70
     2
  9
$LUPREC
 70
     4
  9
$SKETCHINC
 40
1.0
  9
$FILLETRAD
 40
1.199999999999999
  9
$AUNITS
 70
     0
  9
$AUPREC
 70
     0
  9
$MENU
  1
acad
  9
$ELEVATION
 40
0.0
  9
$PELEVATION
 40
0.0
  9
$THICKNESS
 40
0.0
  9
$LIMCHECK
 70
     0
  9
$CHAMFERA
 40
10.0
  9
$CHAMFERB
 40
10.0
  9
$CHAMFERC
 40
20.0
  9
$CHAMFERD
 40
0.0
  9
$SKPOLY
 70
     0
  9
$TDCREATE
 40
2450995.462150231
  9
$TDUCREATE
 40
2450995.087150231
  9
$TDUPDATE
 40
2454271.474495798
  9
$TDUUPDATE
 40
2454271.099495799
  9
$TDINDWG
 40
1.6254121412
  9
$TDUSRTIMER
 40
1.6254052315
  9
$USRTIMER
 70
     1
  9
$ANGBASE
 50
0.0
  9
$ANGDIR
 70
     0
  9
$PDMODE
 70
     0
  9
$PDSIZE
 40
0.0
  9
$PLINEWID
 40
10.0
  9
$SPLFRAME
 70
     0
  9
$SPLINETYPE
 70
     6
  9
$SPLINESEGS
 70
     8
  9
$HANDSEED
  5
7D2
  9
$SURFTAB1
 70
     6
  9
$SURFTAB2
 70
     6
  9
$SURFTYPE
 70
     6
  9
$SURFU
 70
     6
  9
$SURFV
 70
     6
  9
$UCSBASE
  2

  9
$UCSNAME
  2

  9
$UCSORG
 10
0.0
 20
0.0
 30
0.0
  9
$UCSXDIR
 10
1.0
 20
0.0
 30
0.0
  9
$UCSYDIR
 10
0.0
 20
1.0
 30
0.0
  9
$UCSORTHOREF
  2

  9
$UCSORTHOVIEW
 70
     0
  9
$UCSORGTOP
 10
0.0
 20
0.0
 30
0.0
  9
$UCSORGBOTTOM
 10
0.0
 20
0.0
 30
0.0
  9
$UCSORGLEFT
 10
0.0
 20
0.0
 30
0.0
  9
$UCSORGRIGHT
 10
0.0
 20
0.0
 30
0.0
  9
$UCSORGFRONT
 10
0.0
 20
0.0
 30
0.0
  9
$UCSORGBACK
 10
0.0
 20
0.0
 30
0.0
  9
$PUCSBASE
  2

  9
$PUCSNAME
  2

  9
$PUCSORG
 10
0.0
 20
0.0
 30
0.0
  9
$PUCSXDIR
 10
1.0
 20
0.0
 30
0.0
  9
$PUCSYDIR
 10
0.0
 20
1.0
 30
0.0
  9
$PUCSORTHOREF
  2

  9
$PUCSORTHOVIEW
 70
     0
  9
$PUCSORGTOP
 10
0.0
 20
0.0
 30
0.0
  9
$PUCSORGBOTTOM
 10
0.0
 20
0.0
 30
0.0
  9
$PUCSORGLEFT
 10
0.0
 20
0.0
 30
0.0
  9
$PUCSORGRIGHT
 10
0.0
 20
0.0
 30
0.0
  9
$PUCSORGFRONT
 10
0.0
 20
0.0
 30
0.0
  9
$PUCSORGBACK
 10
0.0
 20
0.0
 30
0.0
  9
$USERI1
 70
     0
  9
$USERI2
 70
     0
  9
$USERI3
 70
     0
  9
$USERI4
 70
     0
  9
$USERI5
 70
     0
  9
$USERR1
 40
0.0
  9
$USERR2
 40
0.0
  9
$USERR3
 40
0.0
  9
$USERR4
 40
0.0
  9
$USERR5
 40
0.0
  9
$WORLDVIEW
 70
     1
  9
$SHADEDGE
 70
     3
  9
$SHADEDIF
 70
    70
  9
$TILEMODE
 70
     1
  9
$MAXACTVP
 70
    48
  9
$PINSBASE
 10
0.0
 20
0.0
 30
0.0
  9
$PLIMCHECK
 70
     0
  9
$PEXTMIN
 10
1.000000000000000E+20
 20
1.000000000000000E+20
 30
1.000000000000000E+20
  9
$PEXTMAX
 10
-1.000000000000000E+20
 20
-1.000000000000000E+20
 30
-1.000000000000000E+20
  9
$PLIMMIN
 10
0.0
 20
0.0
  9
$PLIMMAX
 10
420.0
 20
297.0
  9
$UNITMODE
 70
     0
  9
$VISRETAIN
 70
     1
  9
$PLINEGEN
 70
     0
  9
$PSLTSCALE
 70
     1
  9
$TREEDEPTH
 70
  3020
  9
$CMLSTYLE
  2
STANDARD
  9
$CMLJUST
 70
     0
  9
$CMLSCALE
 40
20.0
  9
$PROXYGRAPHICS
 70
     1
  9
$MEASUREMENT
 70
     1
  9
$CELWEIGHT
370
    -1
  9
$ENDCAPS
280
     0
  9
$JOINSTYLE
280
     0
  9
$LWDISPLAY
290
     0
  9
$INSUNITS
 70
     0
  9
$HYPERLINKBASE
  1

  9
$STYLESHEET
  1

  9
$XEDIT
290
     1
  9
$CEPSNTYPE
380
     0
  9
$PSTYLEMODE
290
     1
  9
$FINGERPRINTGUID
  2
{128F3924-9681-11D3-A790-004026173390}
  9
$VERSIONGUID
  2
{717B9CEA-6281-4509-AFD0-0A590B49E769}
  9
$EXTNAMES
290
     1
  9
$PSVPSCALE
 40
0.0
  9
$OLESTARTUP
290
     0
  0
ENDSEC
  0
SECTION
  2
CLASSES
  0
CLASS
  1
DICTIONARYVAR
  2
AcDbDictionaryVar
  3
AutoCAD 2000
 90
    32768
280
     0
281
     0
  0
CLASS
  1
LWPOLYLINE
  2
AcDbPolyline
  3
AutoCAD 2000
 90
    32768
280
     0
281
     1
  0
CLASS
  1
OLE2FRAME
  2
AcDbOle2Frame
  3
AutoCAD 2000
 90
    32768
280
     0
281
     1
  0
CLASS
  1
HATCH
  2
AcDbHatch
  3
AutoCAD 2000
 90
    32768
280
     0
281
     1
  0
CLASS
  1
ACDBDICTIONARYWDFLT
  2
AcDbDictionaryWithDefault
  3
AutoCAD 2000
 90
        0
280
     0
281
     0
  0
CLASS
  1
ACDBPLACEHOLDER
  2
AcDbPlaceHolder
  3
AutoCAD 2000
 90
        0
280
     0
281
     0
  0
CLASS
  1
LAYOUT
  2
AcDbLayout
  3
AutoCAD 2000
 90
        0
280
     0
281
     0
  0
CLASS
  1
LONG_TRANSACTION
  2
AcDbLongTransaction
  3
AutoCAD 2000
 90
    32768
280
     0
281
     0
  0
CLASS
  1
LWPOLYLINE
  2
AcDbPolyline
  3
AutoCAD 2000
 90
    32768
280
     0
281
     1
  0
CLASS
  1
HATCH
  2
AcDbHatch
  3
AutoCAD 2000
 90
    32768
280
     0
281
     1
  0
CLASS
  1
XRECORD
  2
AcDbXrecord
  3
AutoCAD 2000
 90
    32768
280
     0
281
     0
  0
CLASS
  1
LONG_TRANSACTION
  2
AcDbLongTransaction
  3
AutoCAD 2000
 90
    32768
280
     0
281
     0
  0
CLASS
  1
LWPOLYLINE
  2
AcDbPolyline
  3
AutoCAD 2000
 90
    32768
280
     0
281
     1
  0
CLASS
  1
HATCH
  2
AcDbHatch
  3
AutoCAD 2000
 90
    32768
280
     0
281
     1
  0
CLASS
  1
XRECORD
  2
AcDbXrecord
  3
AutoCAD 2000
 90
    32768
280
     0
281
     0
  0
CLASS
  1
LONG_TRANSACTION
  2
AcDbLongTransaction
  3
AutoCAD 2000
 90
    32768
280
     0
281
     0
  0
CLASS
  1
LWPOLYLINE
  2
AcDbPolyline
  3
AutoCAD 2000
 90
    32768
280
     0
281
     1
  0
CLASS
  1
HATCH
  2
AcDbHatch
  3
AutoCAD 2000
 90
    32768
280
     0
281
     1
  0
CLASS
  1
XRECORD
  2
AcDbXrecord
  3
AutoCAD 2000
 90
    32768
280
     0
281
     0
  0
ENDSEC
  0
SECTION
  2
TABLES
  0
TABLE
  2
VPORT
  5
1C
330
0
100
AcDbSymbolTable
 70
     2
  0
VPORT
  5
7D1
330
1C
100
AcDbSymbolTableRecord
100
AcDbViewportTableRecord
  2
*Active
 70
     0
 10
0.0
 20
0.0
 11
1.0
 21
1.0
 12
204.262148026345
 22
158.2356717048717
 13
0.0
 23
0.0
 14
1.0
 24
1.0
 15
2.0
 25
2.0
 16
0.0
 26
0.0
 36
1.0
 17
0.0
 27
0.0
 37
0.0
 40
395.3724698899627
 41
1.750922509225092
 42
50.0
 43
0.0
 44
0.0
 50
0.0
 51
0.0
 71
     0
 72
   100
 73
     1
 74
     1
 75
     0
 76
     0
 77
     0
 78
     0
281
     0
 65
     1
110
0.0
120
0.0
130
0.0
111
1.0
121
0.0
131
0.0
112
0.0
122
1.0
132
0.0
 79
     0
146
0.0
  0
ENDTAB
  0
TABLE
  2
LTYPE
  5
17
330
0
100
AcDbSymbolTable
 70
     2
  0
LTYPE
  5
18
330
17
100
AcDbSymbolTableRecord
100
AcDbLinetypeTableRecord
  2
BYBLOCK
 70
     0
  3

 72
    65
 73
     0
 40
0.0
  0
LTYPE
  5
19
330
17
100
AcDbSymbolTableRecord
100
AcDbLinetypeTableRecord
  2
BYLAYER
 70
     0
  3

 72
    65
 73
     0
 40
0.0
  0
LTYPE
  5
9
330
17
100
AcDbSymbolTableRecord
100
AcDbLinetypeTableRecord
  2
CONTINUOUS
 70
     0
  3
Solid line
 72
    65
 73
     0
 40
0.0
  0
LTYPE
  5
51
330
17
100
AcDbSymbolTableRecord
100
AcDbLinetypeTableRecord
  2
CENTER
 70
     0
  3
Center ____ _ ____ _ ____ _ ____ _ ____ _ ____
 72
    65
 73
     4
 40
51.0
 49
32.0
 74
     0
 49
-6.0
 74
     0
 49
6.0
 74
     0
 49
-6.0
 74
     0
  0
ENDTAB
  0
TABLE
  2
LAYER
  5
12
330
0
100
AcDbSymbolTable
 70
     3
  0
LAYER
  5
5
330
12
100
AcDbSymbolTableRecord
100
AcDbLayerTableRecord
  2
0
 70
     0
 62
     7
  6
CONTINUOUS
370
    -3
390
6
  0
LAYER
  5
36
330
12
100
AcDbSymbolTableRecord
100
AcDbLayerTableRecord
  2
DEFPOINTS
 70
     0
 62
     7
  6
CONTINUOUS
290
     0
370
    -3
390
6
  0
LAYER
  5
24
330
12
100
AcDbSymbolTableRecord
100
AcDbLayerTableRecord
  2
画層1
 70
     0
 62
     7
  6
CONTINUOUS
370
    -3
390
6
  0
ENDTAB
  0
TABLE
  2
STYLE
  5
13
330
0
100
AcDbSymbolTable
 70
     2
  0
STYLE
  5
14
330
13
100
AcDbSymbolTableRecord
100
AcDbTextStyleTableRecord
  2
STANDARD
 70
     0
 40
3.0
 41
1.0
 50
0.0
 71
     0
 42
2.0
  3
MS PMincho.ttf
  4

1001
ACAD
1000
MS PMincho
1071
    32786
  0
STYLE
  5
25
330
13
100
AcDbSymbolTableRecord
100
AcDbTextStyleTableRecord
  2
STYLE1
 70
     0
 40
3.0
 41
1.0
 50
0.0
 71
     0
 42
3.0
  3
MS Gothic.ttf
  4

1001
ACAD
1000
MS Gothic
1071
    32817
  0
ENDTAB
  0
TABLE
  2
VIEW
  5
1A
330
0
100
AcDbSymbolTable
 70
     0
  0
ENDTAB
  0
TABLE
  2
UCS
  5
1B
330
0
100
AcDbSymbolTable
 70
     0
  0
ENDTAB
  0
TABLE
  2
APPID
  5
1E
330
0
100
AcDbSymbolTable
 70
     1
  0
APPID
  5
15
330
1E
100
AcDbSymbolTableRecord
100
AcDbRegAppTableRecord
  2
ACAD
 70
     0
  0
ENDTAB
  0
TABLE
  2
DIMSTYLE
  5
1F
330
0
100
AcDbSymbolTable
 70
     1
100
AcDbDimStyleTable
 71
     0
  0
DIMSTYLE
105
2D
102
{ACAD_REACTORS
330
C1
330
193
330
2E
330
186
330
70
330
92
330
5C
102
}
330
1F
100
AcDbSymbolTableRecord
100
AcDbDimStyleTableRecord
  2
STANDARD_WS
 70
     0
 41
2.0
 42
1.0
 43
4.0
 44
1.0
 73
     0
 74
     0
 77
     1
 78
     8
140
3.0
141
3.0
147
1.0
171
     4
172
     1
173
     1
273
     8
274
     4
340
14
341
26
343
26
344
26
  0
ENDTAB
  0
TABLE
  2
BLOCK_RECORD
  5
1
330
0
100
AcDbSymbolTable
 70
     8
  0
BLOCK_RECORD
  5
2
102
{ACAD_XDICTIONARY
360
3
102
}
330
1
100
AcDbSymbolTableRecord
100
AcDbBlockTableRecord
  2
*MODEL_SPACE
340
337
  0
BLOCK_RECORD
  5
D
102
{ACAD_XDICTIONARY
360
E
102
}
330
1
100
AcDbSymbolTableRecord
100
AcDbBlockTableRecord
  2
*PAPER_SPACE
340
338
  0
BLOCK_RECORD
  5
26
330
1
100
AcDbSymbolTableRecord
100
AcDbBlockTableRecord
  2
_OPEN
340
0
102
{BLKREFS
331
C6
331
C7
331
61
331
62
331
198
331
199
331
32
331
33
331
18B
331
18C
331
75
331
76
331
97
331
98
331
40F
331
410
331
341
331
342
331
34D
331
34E
331
359
331
35A
331
365
331
366
331
371
331
372
331
385
331
386
102
}
  0
BLOCK_RECORD
  5
32A
330
1
100
AcDbSymbolTableRecord
100
AcDbBlockTableRecord
  2
*D1
340
0
  0
BLOCK_RECORD
  5
33D
330
1
100
AcDbSymbolTableRecord
100
AcDbBlockTableRecord
  2
*D2
340
0
  0
BLOCK_RECORD
  5
349
330
1
100
AcDbSymbolTableRecord
100
AcDbBlockTableRecord
  2
*D3
340
0
  0
BLOCK_RECORD
  5
355
330
1
100
AcDbSymbolTableRecord
100
AcDbBlockTableRecord
  2
*D4
340
0
  0
BLOCK_RECORD
  5
361
330
1
100
AcDbSymbolTableRecord
100
AcDbBlockTableRecord
  2
*D5
340
0
  0
BLOCK_RECORD
  5
36D
330
1
100
AcDbSymbolTableRecord
100
AcDbBlockTableRecord
  2
*D6
340
0
  0
BLOCK_RECORD
  5
381
330
1
100
AcDbSymbolTableRecord
100
AcDbBlockTableRecord
  2
*D7
340
0
  0
ENDTAB
  0
ENDSEC
  0
SECTION
  2
BLOCKS
  0
BLOCK
  5
4
330
2
100
AcDbEntity
  8
0
100
AcDbBlockBegin
  2
*MODEL_SPACE
 70
     0
 10
0.0
 20
0.0
 30
0.0
  3
*MODEL_SPACE
  1

  0
ENDBLK
  5
A
330
2
100
AcDbEntity
  8
0
100
AcDbBlockEnd
  0
BLOCK
  5
F
330
D
100
AcDbEntity
 67
     1
  8
0
100
AcDbBlockBegin
  2
*PAPER_SPACE
 70
     0
 10
0.0
 20
0.0
 30
0.0
  3
*PAPER_SPACE
  1

  0
ENDBLK
  5
10
330
D
100
AcDbEntity
 67
     1
  8
0
100
AcDbBlockEnd
  0
BLOCK
  5
2A
330
26
100
AcDbEntity
  8
0
100
AcDbBlockBegin
  2
_OPEN
 70
     0
 10
0.0
 20
0.0
 30
0.0
  3
_OPEN
  1

  0
LINE
  5
27
330
26
100
AcDbEntity
  8
0
  6
ByBlock
 62
     0
100
AcDbLine
 10
-1.0
 20
0.0
 30
0.0
 11
0.0
 21
0.0
 31
0.0
  0
LINE
  5
28
330
26
100
AcDbEntity
  8
0
  6
ByBlock
 62
     0
100
AcDbLine
 10
0.0
 20
0.0
 30
0.0
 11
-1.0
 21
0.0
 31
0.0
  0
LINE
  5
29
330
26
100
AcDbEntity
  8
0
  6
ByBlock
 62
     0
100
AcDbLine
 10
0.0
 20
0.0
 30
0.0
 11
-1.0
 21
0.0
 31
0.0
  0
ENDBLK
  5
2B
330
26
100
AcDbEntity
  8
0
100
AcDbBlockEnd
  0
BLOCK
  5
333
330
32A
100
AcDbEntity
  8
0
 62
     1
100
AcDbBlockBegin
  2
*D1
 70
     1
 10
0.0
 20
0.0
 30
0.0
  3
*D1
  1

  0
LINE
  5
40D
330
32A
100
AcDbEntity
  8
画層1
 62
     0
100
AcDbLine
 10
262.0
 20
240.0
 30
0.0
 11
262.0
 21
252.0
 31
0.0
  0
LINE
  5
40E
330
32A
100
AcDbEntity
  8
画層1
 62
     0
100
AcDbLine
 10
164.0
 20
251.0
 30
0.0
 11
260.0
 21
251.0
 31
0.0
  0
INSERT
  5
40F
330
32A
100
AcDbEntity
  8
画層1
 62
     0
100
AcDbBlockReference
  2
_OPEN
 10
162.0
 20
251.0
 30
0.0
 41
2.0
 42
2.0
 43
2.0
 50
180.0
  0
INSERT
  5
410
330
32A
100
AcDbEntity
  8
画層1
 62
     0
100
AcDbBlockReference
  2
_OPEN
 10
262.0
 20
251.0
 30
0.0
 41
2.0
 42
2.0
 43
2.0
  0
MTEXT
  5
411
330
32A
100
AcDbEntity
  8
画層1
 62
     0
100
AcDbMText
 10
212.0
 20
253.5
 30
0.0
 40
3.0
 41
0.0
 71
     5
 72
     1
  1
\A1;100
  7
STYLE1
 73
     1
 44
1.0
  0
POINT
  5
412
330
32A
100
AcDbEntity
  8
DEFPOINTS
 62
     0
100
AcDbPoint
 10
162.0
 20
244.0
 30
0.0
  0
POINT
  5
413
330
32A
100
AcDbEntity
  8
DEFPOINTS
 62
     0
100
AcDbPoint
 10
262.0
 20
239.0
 30
0.0
  0
POINT
  5
414
330
32A
100
AcDbEntity
  8
DEFPOINTS
 62
     0
100
AcDbPoint
 10
262.0
 20
251.0
 30
0.0
  0
ENDBLK
  5
334
330
32A
100
AcDbEntity
  8
0
 62
     1
100
AcDbBlockEnd
  0
BLOCK
  5
347
330
33D
100
AcDbEntity
  8
0
 62
     0
100
AcDbBlockBegin
  2
*D2
 70
     1
 10
0.0
 20
0.0
 30
0.0
  3
*D2
  1

  0
LINE
  5
33E
330
33D
100
AcDbEntity
  8
画層1
 62
     0
370
    -2
100
AcDbLine
 10
127.0
 20
148.0
 30
0.0
 11
134.9999999999999
 21
148.0
 31
0.0
  0
LINE
  5
33F
330
33D
100
AcDbEntity
  8
画層1
 62
     0
370
    -2
100
AcDbLine
 10
127.0
 20
244.0
 30
0.0
 11
135.0
 21
244.0
 31
0.0
  0
LINE
  5
340
330
33D
100
AcDbEntity
  8
画層1
 62
     0
370
    -2
100
AcDbLine
 10
133.9999999999999
 20
150.0
 30
0.0
 11
134.0
 21
242.0
 31
0.0
  0
INSERT
  5
341
330
33D
100
AcDbEntity
  8
画層1
 62
     0
370
    -2
100
AcDbBlockReference
  2
_OPEN
 10
133.9999999999999
 20
148.0
 30
0.0
 41
2.0
 42
2.0
 43
2.0
 50
270.0
  0
INSERT
  5
342
330
33D
100
AcDbEntity
  8
画層1
 62
     0
370
    -2
100
AcDbBlockReference
  2
_OPEN
 10
134.0
 20
244.0
 30
0.0
 41
2.0
 42
2.0
 43
2.0
 50
90.0
  0
MTEXT
  5
343
330
33D
100
AcDbEntity
  8
画層1
 62
     0
100
AcDbMText
 10
131.4999999999999
 20
196.0
 30
0.0
 40
3.0
 41
0.0
 71
     5
 72
     1
  1
\A1;96
  7
STYLE1
 11
0.0000000000000001
 21
1.0
 31
0.0
 73
     1
 44
1.0
1001
ACAD
1000
MTEXTBEGIN
1070
    73
1070
     1
1070
    44
1040
1.0
1070
    74
1070
     0
1000
MTEXTEND
  0
POINT
  5
344
330
33D
100
AcDbEntity
  8
DEFPOINTS
 62
     0
100
AcDbPoint
 10
126.0
 20
148.0
 30
0.0
  0
POINT
  5
345
330
33D
100
AcDbEntity
  8
DEFPOINTS
 62
     0
100
AcDbPoint
 10
126.0
 20
244.0
 30
0.0
  0
POINT
  5
346
330
33D
100
AcDbEntity
  8
DEFPOINTS
 62
     0
100
AcDbPoint
 10
134.0
 20
244.0
 30
0.0
  0
ENDBLK
  5
348
330
33D
100
AcDbEntity
  8
0
 62
     0
100
AcDbBlockEnd
  0
BLOCK
  5
353
330
349
100
AcDbEntity
  8
0
 62
     0
100
AcDbBlockBegin
  2
*D3
 70
     1
 10
0.0
 20
0.0
 30
0.0
  3
*D3
  1

  0
LINE
  5
34A
330
349
100
AcDbEntity
  8
画層1
 62
     0
370
    -2
100
AcDbLine
 10
33.0
 20
118.0
 30
0.0
 11
33.0
 21
127.0
 31
0.0
  0
LINE
  5
34B
330
349
100
AcDbEntity
  8
画層1
 62
     0
370
    -2
100
AcDbLine
 10
125.0
 20
118.0
 30
0.0
 11
125.0
 21
127.0
 31
0.0
  0
LINE
  5
34C
330
349
100
AcDbEntity
  8
画層1
 62
     0
370
    -2
100
AcDbLine
 10
35.0
 20
126.0
 30
0.0
 11
123.0
 21
126.0
 31
0.0
  0
INSERT
  5
34D
330
349
100
AcDbEntity
  8
画層1
 62
     0
370
    -2
100
AcDbBlockReference
  2
_OPEN
 10
33.0
 20
126.0
 30
0.0
 41
2.0
 42
2.0
 43
2.0
 50
180.0
  0
INSERT
  5
34E
330
349
100
AcDbEntity
  8
画層1
 62
     0
370
    -2
100
AcDbBlockReference
  2
_OPEN
 10
125.0
 20
126.0
 30
0.0
 41
2.0
 42
2.0
 43
2.0
  0
MTEXT
  5
34F
330
349
100
AcDbEntity
  8
画層1
 62
     0
100
AcDbMText
 10
79.0
 20
130.4695431472081
 30
0.0
 40
3.0
 41
0.0
 71
     5
 72
     1
  1
\A1;92\S+1^  0;
  7
STYLE1
 73
     1
 44
1.0
1001
ACAD
1000
MTEXTBEGIN
1070
    73
1070
     1
1070
    44
1040
1.0
1070
    74
1070
     0
1000
MTEXTEND
  0
POINT
  5
350
330
349
100
AcDbEntity
  8
DEFPOINTS
 62
     0
100
AcDbPoint
 10
33.0
 20
117.0
 30
0.0
  0
POINT
  5
351
330
349
100
AcDbEntity
  8
DEFPOINTS
 62
     0
100
AcDbPoint
 10
125.0
 20
117.0
 30
0.0
  0
POINT
  5
352
330
349
100
AcDbEntity
  8
DEFPOINTS
 62
     0
100
AcDbPoint
 10
125.0
 20
126.0
 30
0.0
  0
ENDBLK
  5
354
330
349
100
AcDbEntity
  8
0
 62
     0
100
AcDbBlockEnd
  0
BLOCK
  5
35F
330
355
100
AcDbEntity
  8
0
 62
     0
100
AcDbBlockBegin
  2
*D4
 70
     1
 10
0.0
 20
0.0
 30
0.0
  3
*D4
  1

  0
LINE
  5
356
330
355
100
AcDbEntity
  8
画層1
 62
     0
370
    -2
100
AcDbLine
 10
126.0
 20
117.0
 30
0.0
 11
135.0
 21
117.0
 31
0.0
  0
LINE
  5
357
330
355
100
AcDbEntity
  8
画層1
 62
     0
370
    -2
100
AcDbLine
 10
126.0
 20
25.0
 30
0.0
 11
135.0
 21
25.0
 31
0.0
  0
LINE
  5
358
330
355
100
AcDbEntity
  8
画層1
 62
     0
370
    -2
100
AcDbLine
 10
134.0
 20
115.0
 30
0.0
 11
134.0
 21
27.0
 31
0.0
  0
INSERT
  5
359
330
355
100
AcDbEntity
  8
画層1
 62
     0
370
    -2
100
AcDbBlockReference
  2
_OPEN
 10
134.0
 20
117.0
 30
0.0
 41
2.0
 42
2.0
 43
2.0
 50
90.0
  0
INSERT
  5
35A
330
355
100
AcDbEntity
  8
画層1
 62
     0
370
    -2
100
AcDbBlockReference
  2
_OPEN
 10
134.0
 20
25.0
 30
0.0
 41
2.0
 42
2.0
 43
2.0
 50
270.0
  0
MTEXT
  5
35B
330
355
100
AcDbEntity
  8
画層1
 62
     0
100
AcDbMText
 10
129.5304568527918
 20
71.00000000000001
 30
0.0
 40
3.0
 41
0.0
 71
     5
 72
     1
  1
\A1;92\S+1^  0;
  7
STYLE1
 11
0.0000000000000001
 21
1.0
 31
0.0
 73
     1
 44
1.0
1001
ACAD
1000
MTEXTBEGIN
1070
    73
1070
     1
1070
    44
1040
1.0
1070
    74
1070
     0
1000
MTEXTEND
  0
POINT
  5
35C
330
355
100
AcDbEntity
  8
DEFPOINTS
 62
     0
100
AcDbPoint
 10
125.0
 20
117.0
 30
0.0
  0
POINT
  5
35D
330
355
100
AcDbEntity
  8
DEFPOINTS
 62
     0
100
AcDbPoint
 10
125.0
 20
25.0
 30
0.0
  0
POINT
  5
35E
330
355
100
AcDbEntity
  8
DEFPOINTS
 62
     0
100
AcDbPoint
 10
134.0
 20
25.0
 30
0.0
  0
ENDBLK
  5
360
330
355
100
AcDbEntity
  8
0
 62
     0
100
AcDbBlockEnd
  0
BLOCK
  5
36B
330
361
100
AcDbEntity
  8
0
 62
     0
100
AcDbBlockBegin
  2
*D5
 70
     1
 10
0.0
 20
0.0
 30
0.0
  3
*D5
  1

  0
LINE
  5
362
330
361
100
AcDbEntity
  8
画層1
 62
     0
370
    -2
100
AcDbLine
 10
31.0
 20
244.0
 30
0.0
 11
31.0
 21
252.0
 31
0.0
  0
LINE
  5
363
330
361
100
AcDbEntity
  8
画層1
 62
     0
370
    -2
100
AcDbLine
 10
127.0
 20
244.0
 30
0.0
 11
127.0
 21
252.0
 31
0.0
  0
LINE
  5
364
330
361
100
AcDbEntity
  8
画層1
 62
     0
370
    -2
100
AcDbLine
 10
33.0
 20
251.0
 30
0.0
 11
125.0
 21
251.0
 31
0.0
  0
INSERT
  5
365
330
361
100
AcDbEntity
  8
画層1
 62
     0
370
    -2
100
AcDbBlockReference
  2
_OPEN
 10
31.0
 20
251.0
 30
0.0
 41
2.0
 42
2.0
 43
2.0
 50
180.0
  0
INSERT
  5
366
330
361
100
AcDbEntity
  8
画層1
 62
     0
370
    -2
100
AcDbBlockReference
  2
_OPEN
 10
127.0
 20
251.0
 30
0.0
 41
2.0
 42
2.0
 43
2.0
  0
MTEXT
  5
367
330
361
100
AcDbEntity
  8
画層1
 62
     0
100
AcDbMText
 10
79.0
 20
253.5
 30
0.0
 40
3.0
 41
0.0
 71
     5
 72
     1
  1
\A1;96
  7
STYLE1
 73
     1
 44
1.0
1001
ACAD
1000
MTEXTBEGIN
1070
    73
1070
     1
1070
    44
1040
1.0
1070
    74
1070
     0
1000
MTEXTEND
  0
POINT
  5
368
330
361
100
AcDbEntity
  8
DEFPOINTS
 62
     0
100
AcDbPoint
 10
31.0
 20
243.0
 30
0.0
  0
POINT
  5
369
330
361
100
AcDbEntity
  8
DEFPOINTS
 62
     0
100
AcDbPoint
 10
127.0
 20
243.0
 30
0.0
  0
POINT
  5
36A
330
361
100
AcDbEntity
  8
DEFPOINTS
 62
     0
100
AcDbPoint
 10
127.0
 20
251.0
 30
0.0
  0
ENDBLK
  5
36C
330
361
100
AcDbEntity
  8
0
 62
     0
100
AcDbBlockEnd
  0
BLOCK
  5
377
330
36D
100
AcDbEntity
  8
0
 62
     0
100
AcDbBlockBegin
  2
*D6
 70
     1
 10
0.0
 20
0.0
 30
0.0
  3
*D6
  1

  0
LINE
  5
36E
330
36D
100
AcDbEntity
  8
画層1
 62
     0
370
    -2
100
AcDbLine
 10
151.0
 20
252.0
 30
0.0
 11
151.0
 21
259.0
 31
0.0
  0
LINE
  5
36F
330
36D
100
AcDbEntity
  8
画層1
 62
     0
370
    -2
100
AcDbLine
 10
262.0
 20
252.0
 30
0.0
 11
262.0
 21
259.0
 31
0.0
  0
LINE
  5
370
330
36D
100
AcDbEntity
  8
画層1
 62
     0
370
    -2
100
AcDbLine
 10
153.0
 20
258.0
 30
0.0
 11
260.0
 21
258.0
 31
0.0
  0
INSERT
  5
371
330
36D
100
AcDbEntity
  8
画層1
 62
     0
370
    -2
100
AcDbBlockReference
  2
_OPEN
 10
151.0
 20
258.0
 30
0.0
 41
2.0
 42
2.0
 43
2.0
 50
180.0
  0
INSERT
  5
372
330
36D
100
AcDbEntity
  8
画層1
 62
     0
370
    -2
100
AcDbBlockReference
  2
_OPEN
 10
262.0
 20
258.0
 30
0.0
 41
2.0
 42
2.0
 43
2.0
  0
MTEXT
  5
373
330
36D
100
AcDbEntity
  8
画層1
 62
     0
100
AcDbMText
 10
206.4999999999999
 20
260.4999999999999
 30
0.0
 40
3.0
 41
0.0
 71
     5
 72
     1
  1
\A1;111
  7
STYLE1
 73
     1
 44
1.0
1001
ACAD
1000
MTEXTBEGIN
1070
    73
1070
     1
1070
    44
1040
1.0
1070
    74
1070
     0
1000
MTEXTEND
  0
POINT
  5
374
330
36D
100
AcDbEntity
  8
DEFPOINTS
 62
     0
100
AcDbPoint
 10
151.0
 20
251.0
 30
0.0
  0
POINT
  5
375
330
36D
100
AcDbEntity
  8
DEFPOINTS
 62
     0
100
AcDbPoint
 10
262.0
 20
251.0
 30
0.0
  0
POINT
  5
376
330
36D
100
AcDbEntity
  8
DEFPOINTS
 62
     0
100
AcDbPoint
 10
262.0
 20
258.0
 30
0.0
  0
ENDBLK
  5
378
330
36D
100
AcDbEntity
  8
0
 62
     0
100
AcDbBlockEnd
  0
BLOCK
  5
38B
330
381
100
AcDbEntity
  8
0
 62
     0
100
AcDbBlockBegin
  2
*D7
 70
     1
 10
0.0
 20
0.0
 30
0.0
  3
*D7
  1

  0
LINE
  5
382
330
381
100
AcDbEntity
  8
画層1
 62
     0
370
    -2
100
AcDbLine
 10
151.0
 20
244.0
 30
0.0
 11
151.0
 21
252.0
 31
0.0
  0
LINE
  5
383
330
381
100
AcDbEntity
  8
画層1
 62
     0
370
    -2
100
AcDbLine
 10
162.0
 20
245.0
 30
0.0
 11
162.0
 21
252.0
 31
0.0
  0
LINE
  5
384
330
381
100
AcDbEntity
  8
画層1
 62
     0
370
    -2
100
AcDbLine
 10
153.0
 20
251.0
 30
0.0
 11
160.0
 21
251.0
 31
0.0
  0
INSERT
  5
385
330
381
100
AcDbEntity
  8
画層1
 62
     0
370
    -2
100
AcDbBlockReference
  2
_OPEN
 10
151.0
 20
251.0
 30
0.0
 41
2.0
 42
2.0
 43
2.0
 50
180.0
  0
INSERT
  5
386
330
381
100
AcDbEntity
  8
画層1
 62
     0
370
    -2
100
AcDbBlockReference
  2
_OPEN
 10
162.0
 20
251.0
 30
0.0
 41
2.0
 42
2.0
 43
2.0
  0
MTEXT
  5
387
330
381
100
AcDbEntity
  8
画層1
 62
     0
100
AcDbMText
 10
156.4999999999999
 20
253.5
 30
0.0
 40
3.0
 41
0.0
 71
     5
 72
     1
  1
\A1;11
  7
STYLE1
 73
     1
 44
1.0
1001
ACAD
1000
MTEXTBEGIN
1070
    73
1070
     1
1070
    44
1040
1.0
1070
    74
1070
     0
1000
MTEXTEND
  0
POINT
  5
388
330
381
100
AcDbEntity
  8
DEFPOINTS
 62
     0
100
AcDbPoint
 10
151.0
 20
243.0
 30
0.0
  0
POINT
  5
389
330
381
100
AcDbEntity
  8
DEFPOINTS
 62
     0
100
AcDbPoint
 10
162.0
 20
244.0
 30
0.0
  0
POINT
  5
38A
330
381
100
AcDbEntity
  8
DEFPOINTS
 62
     0
100
AcDbPoint
 10
162.0
 20
251.0
 30
0.0
  0
ENDBLK
  5
38C
330
381
100
AcDbEntity
  8
0
 62
     0
100
AcDbBlockEnd
  0
ENDSEC
  0
SECTION
  2
ENTITIES
  0
DIMENSION
  5
2E
330
2
100
AcDbEntity
  8
画層1
 62
     0
100
AcDbDimension
  2
*D1
 10
262.0
 20
251.0
 30
0.0
 11
212.0
 21
253.5
 31
0.0
 70
    32
 71
     5
 42
-1.0
  3
STANDARD_WS
100
AcDbAlignedDimension
 13
162.0
 23
244.0
 33
0.0
 14
262.0
 24
239.0
 34
0.0
100
AcDbRotatedDimension
1001
ACAD
1000
DSTYLE
1002
{
1070
   287
1070
     4
1070
   287
1070
     4
1070
   287
1070
     4
1070
    75
1070
     1
1070
   279
1070
     1
1070
   340
1005
25
1002
}
  0
MTEXT
  5
3B
330
2
100
AcDbEntity
  8
画層1
 62
     0
100
AcDbMText
 10
70.0
 20
20.0
 30
0.0
 40
3.0
 41
20.0
 71
     1
 72
     5
  1
取付穴寸法
  7
STYLE1
 73
     1
 44
1.0
1001
ACAD
1000
MTEXTBEGIN
1070
    73
1070
     1
1070
    44
1040
1.0
1070
    74
1070
     0
1000
MTEXTEND
1000
MTEXTBEGIN
1070
    73
1070
     1
1070
    44
1040
1.0
1070
    74
1070
     0
1000
MTEXTEND
1000
MTEXTBEGIN
1070
    73
1070
     1
1070
    44
1040
1.0
1070
    74
1070
     0
1000
MTEXTEND
  0
MTEXT
  5
3C
330
2
100
AcDbEntity
  8
画層1
 62
     0
100
AcDbMText
 10
47.0
 20
164.0
 30
0.0
 40
4.0
 41
5.0
 71
     1
 72
     5
  1
AT
  7
STYLE1
 73
     1
 44
1.0
1001
ACAD
1000
MTEXTBEGIN
1070
    73
1070
     1
1070
    44
1040
1.0
1070
    74
1070
     0
1000
MTEXTEND
1000
MTEXTBEGIN
1070
    73
1070
     1
1070
    44
1040
1.0
1070
    74
1070
     0
1000
MTEXTEND
1000
MTEXTBEGIN
1070
    73
1070
     1
1070
    44
1040
1.0
1070
    74
1070
     0
1000
MTEXTEND
  0
MTEXT
  5
3D
330
2
100
AcDbEntity
  8
画層1
 62
     0
100
AcDbMText
 10
36.0
 20
154.0
 30
0.0
 40
2.0
 41
11.0
 71
     1
 72
     5
  1
{\fＭＳ Ｐゴシック|b0|i0|c128|p50;ＳＲ８３}
  7
STYLE1
 73
     1
 44
1.0
1001
ACAD
1000
MTEXTBEGIN
1070
    73
1070
     1
1070
    44
1040
1.0
1070
    74
1070
     0
1000
MTEXTEND
1000
MTEXTBEGIN
1070
    73
1070
     1
1070
    44
1040
1.0
1070
    74
1070
     0
1000
MTEXTEND
1000
MTEXTBEGIN
1070
    73
1070
     1
1070
    44
1040
1.0
1070
    74
1070
     0
1000
MTEXTEND
  0
MTEXT
  5
3E
330
2
100
AcDbEntity
  8
画層1
 62
     0
100
AcDbMText
 10
106.0
 20
164.0
 30
0.0
 40
4.0
 41
6.0
 71
     1
 72
     5
  1
ENT
  7
STYLE1
 73
     1
 44
1.0
1001
ACAD
1000
MTEXTBEGIN
1070
    73
1070
     1
1070
    44
1040
1.0
1070
    74
1070
     0
1000
MTEXTEND
1000
MTEXTBEGIN
1070
    73
1070
     1
1070
    44
1040
1.0
1070
    74
1070
     0
1000
MTEXTEND
1000
MTEXTBEGIN
1070
    73
1070
     1
1070
    44
1040
1.0
1070
    74
1070
     0
1000
MTEXTEND
  0
MTEXT
  5
3F
330
2
100
AcDbEntity
  8
画層1
 62
     0
100
AcDbMText
 10
98.0
 20
189.0
 30
0.0
 40
2.0
 41
5.0
 71
     1
 72
     5
  1
REM
  7
STYLE1
 73
     1
 44
1.0
1001
ACAD
1000
MTEXTBEGIN
1070
    73
1070
     1
1070
    44
1040
1.0
1070
    74
1070
     0
1000
MTEXTEND
1000
MTEXTBEGIN
1070
    73
1070
     1
1070
    44
1040
1.0
1070
    74
1070
     0
1000
MTEXTEND
1000
MTEXTBEGIN
1070
    73
1070
     1
1070
    44
1040
1.0
1070
    74
1070
     0
1000
MTEXTEND
  0
MTEXT
  5
40
330
2
100
AcDbEntity
  8
画層1
 62
     0
100
AcDbMText
 10
63.0
 20
189.0
 30
0.0
 40
2.0
 41
4.0
 71
     1
 72
     5
  1
EV2
  7
STYLE1
 73
     1
 44
1.0
1001
ACAD
1000
MTEXTBEGIN
1070
    73
1070
     1
1070
    44
1040
1.0
1070
    74
1070
     0
1000
MTEXTEND
1000
MTEXTBEGIN
1070
    73
1070
     1
1070
    44
1040
1.0
1070
    74
1070
     0
1000
MTEXTEND
1000
MTEXTBEGIN
1070
    73
1070
     1
1070
    44
1040
1.0
1070
    74
1070
     0
1000
MTEXTEND
  0
MTEXT
  5
41
330
2
100
AcDbEntity
  8
画層1
 62
     0
100
AcDbMText
 10
66.0
 20
209.0
 30
0.0
 40
3.0
 41
11.0
 71
     1
 72
     5
  1
\fＭＳ Ｐゴシック|b0|i0|c128|p50;ＳＶ
  7
STYLE1
 73
     1
 44
1.0
1001
ACAD
1000
MTEXTBEGIN
1070
    73
1070
     1
1070
    44
1040
1.0
1070
    74
1070
     0
1000
MTEXTEND
1000
MTEXTBEGIN
1070
    73
1070
     1
1070
    44
1040
1.0
1070
    74
1070
     0
1000
MTEXTEND
1000
MTEXTBEGIN
1070
    73
1070
     1
1070
    44
1040
1.0
1070
    74
1070
     0
1000
MTEXTEND
  0
MTEXT
  5
42
330
2
100
AcDbEntity
  8
画層1
 62
     0
100
AcDbMText
 10
44.0
 20
179.0
 30
0.0
 40
4.0
 41
8.0
 71
     1
 72
     5
  1
DISP
  7
STYLE1
 73
     1
 44
1.0
1001
ACAD
1000
MTEXTBEGIN
1070
    73
1070
     1
1070
    44
1040
1.0
1070
    74
1070
     0
1000
MTEXTEND
1000
MTEXTBEGIN
1070
    73
1070
     1
1070
    44
1040
1.0
1070
    74
1070
     0
1000
MTEXTEND
1000
MTEXTBEGIN
1070
    73
1070
     1
1070
    44
1040
1.0
1070
    74
1070
     0
1000
MTEXTEND
  0
MTEXT
  5
43
330
2
100
AcDbEntity
  8
画層1
 62
     0
100
AcDbMText
 10
49.0
 20
189.0
 30
0.0
 40
2.0
 41
5.0
 71
     1
 72
     5
  1
OUT2
  7
STYLE1
 73
     1
 44
1.0
1001
ACAD
1000
MTEXTBEGIN
1070
    73
1070
     1
1070
    44
1040
1.0
1070
    74
1070
     0
1000
MTEXTEND
1000
MTEXTBEGIN
1070
    73
1070
     1
1070
    44
1040
1.0
1070
    74
1070
     0
1000
MTEXTEND
1000
MTEXTBEGIN
1070
    73
1070
     1
1070
    44
1040
1.0
1070
    74
1070
     0
1000
MTEXTEND
  0
MTEXT
  5
44
330
2
100
AcDbEntity
  8
画層1
 62
     0
100
AcDbMText
 10
42.0
 20
189.0
 30
0.0
 40
2.0
 41
5.0
 71
     1
 72
     5
  1
OUT1
  7
STYLE1
 73
     1
 44
1.0
1001
ACAD
1000
MTEXTBEGIN
1070
    73
1070
     1
1070
    44
1040
1.0
1070
    74
1070
     0
1000
MTEXTEND
1000
MTEXTBEGIN
1070
    73
1070
     1
1070
    44
1040
1.0
1070
    74
1070
     0
1000
MTEXTEND
1000
MTEXTBEGIN
1070
    73
1070
     1
1070
    44
1040
1.0
1070
    74
1070
     0
1000
MTEXTEND
  0
MTEXT
  5
45
330
2
100
AcDbEntity
  8
画層1
 62
     0
100
AcDbMText
 10
57.0
 20
189.0
 30
0.0
 40
2.0
 41
4.0
 71
     1
 72
     5
  1
EV1
  7
STYLE1
 73
     1
 44
1.0
1001
ACAD
1000
MTEXTBEGIN
1070
    73
1070
     1
1070
    44
1040
1.0
1070
    74
1070
     0
1000
MTEXTEND
1000
MTEXTBEGIN
1070
    73
1070
     1
1070
    44
1040
1.0
1070
    74
1070
     0
1000
MTEXTEND
1000
MTEXTBEGIN
1070
    73
1070
     1
1070
    44
1040
1.0
1070
    74
1070
     0
1000
MTEXTEND
  0
MTEXT
  5
46
330
2
100
AcDbEntity
  8
画層1
 62
     0
100
AcDbMText
 10
91.0
 20
192.0
 30
0.0
 40
2.0
 41
4.0
 71
     1
 72
     5
  1
SV2
  7
STYLE1
 73
     1
 44
1.0
1001
ACAD
1000
MTEXTBEGIN
1070
    73
1070
     1
1070
    44
1040
1.0
1070
    74
1070
     0
1000
MTEXTEND
1000
MTEXTBEGIN
1070
    73
1070
     1
1070
    44
1040
1.0
1070
    74
1070
     0
1000
MTEXTEND
1000
MTEXTBEGIN
1070
    73
1070
     1
1070
    44
1040
1.0
1070
    74
1070
     0
1000
MTEXTEND
  0
MTEXT
  5
47
330
2
100
AcDbEntity
  8
画層1
 62
     0
100
AcDbMText
 10
70.0
 20
189.0
 30
0.0
 40
2.0
 41
4.0
 71
     1
 72
     5
  1
EV3
  7
STYLE1
 73
     1
 44
1.0
1001
ACAD
1000
MTEXTBEGIN
1070
    73
1070
     1
1070
    44
1040
1.0
1070
    74
1070
     0
1000
MTEXTEND
1000
MTEXTBEGIN
1070
    73
1070
     1
1070
    44
1040
1.0
1070
    74
1070
     0
1000
MTEXTEND
1000
MTEXTBEGIN
1070
    73
1070
     1
1070
    44
1040
1.0
1070
    74
1070
     0
1000
MTEXTEND
  0
MTEXT
  5
48
330
2
100
AcDbEntity
  8
画層1
 62
     0
100
AcDbMText
 10
78.0
 20
189.0
 30
0.0
 40
2.0
 41
3.0
 71
     1
 72
     5
  1
AT
  7
STYLE1
 73
     1
 44
1.0
1001
ACAD
1000
MTEXTBEGIN
1070
    73
1070
     1
1070
    44
1040
1.0
1070
    74
1070
     0
1000
MTEXTEND
1000
MTEXTBEGIN
1070
    73
1070
     1
1070
    44
1040
1.0
1070
    74
1070
     0
1000
MTEXTEND
1000
MTEXTBEGIN
1070
    73
1070
     1
1070
    44
1040
1.0
1070
    74
1070
     0
1000
MTEXTEND
  0
MTEXT
  5
49
330
2
100
AcDbEntity
  8
画層1
 62
     0
100
AcDbMText
 10
84.0
 20
189.0
 30
0.0
 40
2.0
 41
5.0
 71
     1
 72
     5
  1
MAN
  7
STYLE1
 73
     1
 44
1.0
1001
ACAD
1000
MTEXTBEGIN
1070
    73
1070
     1
1070
    44
1040
1.0
1070
    74
1070
     0
1000
MTEXTEND
1000
MTEXTBEGIN
1070
    73
1070
     1
1070
    44
1040
1.0
1070
    74
1070
     0
1000
MTEXTEND
1000
MTEXTBEGIN
1070
    73
1070
     1
1070
    44
1040
1.0
1070
    74
1070
     0
1000
MTEXTEND
  0
MTEXT
  5
4A
330
2
100
AcDbEntity
  8
画層1
 62
     0
100
AcDbMText
 10
92.0
 20
189.0
 30
0.0
 40
2.0
 41
3.0
 71
     1
 72
     5
  1
SB
  7
STYLE1
 73
     1
 44
1.0
1001
ACAD
1000
MTEXTBEGIN
1070
    73
1070
     1
1070
    44
1040
1.0
1070
    74
1070
     0
1000
MTEXTEND
1000
MTEXTBEGIN
1070
    73
1070
     1
1070
    44
1040
1.0
1070
    74
1070
     0
1000
MTEXTEND
1000
MTEXTBEGIN
1070
    73
1070
     1
1070
    44
1040
1.0
1070
    74
1070
     0
1000
MTEXTEND
  0
MTEXT
  5
4B
330
2
100
AcDbEntity
  8
画層1
 62
     0
100
AcDbMText
 10
41.0
 20
238.0
 30
0.0
 40
3.0
 41
9.654941174811485
 71
     1
 72
     5
  1
\fＭＳ Ｐゴシック|b0|i0|c128|p50;ＰＶ
  7
STYLE1
 73
     1
 44
1.0
1001
ACAD
1000
MTEXTBEGIN
1070
    73
1070
     1
1070
    44
1040
1.0
1070
    74
1070
     0
1000
MTEXTEND
1000
MTEXTBEGIN
1070
    73
1070
     1
1070
    44
1040
1.0
1070
    74
1070
     0
1000
MTEXTEND
1000
MTEXTBEGIN
1070
    73
1070
     1
1070
    44
1040
1.0
1070
    74
1070
     0
1000
MTEXTEND
  0
MTEXT
  5
4C
330
2
100
AcDbEntity
  8
画層1
 62
     0
100
AcDbMText
 10
112.0
 20
192.0
 30
0.0
 40
2.0
 41
4.0
 71
     1
 72
     5
  1
RUN
  7
STYLE1
 73
     1
 44
1.0
1001
ACAD
1000
MTEXTBEGIN
1070
    73
1070
     1
1070
    44
1040
1.0
1070
    74
1070
     0
1000
MTEXTEND
1000
MTEXTBEGIN
1070
    73
1070
     1
1070
    44
1040
1.0
1070
    74
1070
     0
1000
MTEXTEND
1000
MTEXTBEGIN
1070
    73
1070
     1
1070
    44
1040
1.0
1070
    74
1070
     0
1000
MTEXTEND
  0
MTEXT
  5
4D
330
2
100
AcDbEntity
  8
画層1
 62
     0
100
AcDbMText
 10
105.0
 20
189.0
 30
0.0
 40
2.0
 41
6.0
 71
     1
 72
     5
  1
STBY
  7
STYLE1
 73
     1
 44
1.0
1001
ACAD
1000
MTEXTBEGIN
1070
    73
1070
     1
1070
    44
1040
1.0
1070
    74
1070
     0
1000
MTEXTEND
1000
MTEXTBEGIN
1070
    73
1070
     1
1070
    44
1040
1.0
1070
    74
1070
     0
1000
MTEXTEND
1000
MTEXTBEGIN
1070
    73
1070
     1
1070
    44
1040
1.0
1070
    74
1070
     0
1000
MTEXTEND
  0
MTEXT
  5
4E
330
2
100
AcDbEntity
  8
画層1
 62
     0
100
AcDbMText
 10
112.0
 20
189.0
 30
0.0
 40
2.0
 41
5.0
 71
     1
 72
     5
  1
COM
  7
STYLE1
 73
     1
 44
1.0
1001
ACAD
1000
MTEXTBEGIN
1070
    73
1070
     1
1070
    44
1040
1.0
1070
    74
1070
     0
1000
MTEXTEND
1000
MTEXTBEGIN
1070
    73
1070
     1
1070
    44
1040
1.0
1070
    74
1070
     0
1000
MTEXTEND
1000
MTEXTBEGIN
1070
    73
1070
     1
1070
    44
1040
1.0
1070
    74
1070
     0
1000
MTEXTEND
  0
MTEXT
  5
4F
330
2
100
AcDbEntity
  8
画層1
 62
     0
100
AcDbMText
 10
182.0
 20
55.0
 30
0.0
 40
3.0
 41
65.0
 71
     1
 72
     5
  1
SR83ｼﾘｰｽﾞ
  7
STYLE1
 73
     1
 44
1.0
1001
ACAD
1000
MTEXTBEGIN
1070
    73
1070
     1
1070
    44
1040
1.0
1070
    74
1070
     0
1000
MTEXTEND
1000
MTEXTBEGIN
1070
    73
1070
     1
1070
    44
1040
1.0
1070
    74
1070
     0
1000
MTEXTEND
  0
LINE
  5
50
330
2
100
AcDbEntity
  8
画層1
  6
CENTER
 62
     0
100
AcDbLine
 10
147.0
 20
196.0
 30
0.0
 11
267.0
 21
196.0
 31
0.0
  0
LINE
  5
54
330
2
100
AcDbEntity
  8
画層1
 62
     0
100
AcDbLine
 10
33.0
 20
151.0
 30
0.0
 11
33.0
 21
241.0
 31
0.0
  0
LINE
  5
55
330
2
100
AcDbEntity
  8
画層1
 62
     0
100
AcDbLine
 10
125.0
 20
241.0
 30
0.0
 11
125.0
 21
151.0
 31
0.0
  0
LINE
  5
56
330
2
100
AcDbEntity
  8
画層1
 62
     0
100
AcDbLine
 10
33.0
 20
150.0
 30
0.0
 11
33.0
 21
242.0
 31
0.0
  0
LINE
  5
57
330
2
100
AcDbEntity
  8
画層1
 62
     0
100
AcDbLine
 10
125.0
 20
242.0
 30
0.0
 11
125.0
 21
150.0
 31
0.0
  0
LINE
  5
58
330
2
100
AcDbEntity
  8
画層1
 62
     0
100
AcDbLine
 10
31.0
 20
149.0
 30
0.0
 11
31.0
 21
243.0
 31
0.0
  0
LINE
  5
59
330
2
100
AcDbEntity
  8
画層1
 62
     0
100
AcDbLine
 10
127.0
 20
243.0
 30
0.0
 11
127.0
 21
149.0
 31
0.0
  0
LINE
  5
5A
330
2
100
AcDbEntity
  8
画層1
 62
     0
100
AcDbLine
 10
31.0
 20
243.0
 30
0.0
 11
31.0
 21
149.0
 31
0.0
  0
LINE
  5
5B
330
2
100
AcDbEntity
  8
画層1
 62
     0
100
AcDbLine
 10
127.0
 20
243.0
 30
0.0
 11
127.0
 21
149.0
 31
0.0
  0
DIMENSION
  5
5C
330
2
100
AcDbEntity
  8
画層1
 62
     0
100
AcDbDimension
  2
*D2
 10
134.0
 20
244.0
 30
0.0
 11
131.4999999999999
 21
196.0
 31
0.0
 70
    32
 71
     5
 42
-1.0
  3
STANDARD_WS
100
AcDbAlignedDimension
 13
126.0
 23
148.0
 33
0.0
 14
126.0
 24
244.0
 34
0.0
 50
90.0
100
AcDbRotatedDimension
1001
ACAD
1000
DSTYLE
1002
{
1070
   340
1005
25
1002
}
  0
LINE
  5
69
330
2
100
AcDbEntity
  8
画層1
  6
CENTER
 62
     0
100
AcDbLine
 10
79.0
 20
246.0
 30
0.0
 11
79.0
 21
146.0
 31
0.0
  0
LINE
  5
6A
330
2
100
AcDbEntity
  8
画層1
 62
     0
100
AcDbLine
 10
124.0
 20
150.0
 30
0.0
 11
34.0
 21
150.0
 31
0.0
  0
LINE
  5
6B
330
2
100
AcDbEntity
  8
画層1
 62
     0
100
AcDbLine
 10
33.0
 20
155.0
 30
0.0
 11
125.0
 21
155.0
 31
0.0
  0
LINE
  5
6C
330
2
100
AcDbEntity
  8
画層1
 62
     0
100
AcDbLine
 10
125.0
 20
150.0
 30
0.0
 11
33.0
 21
150.0
 31
0.0
  0
LINE
  5
6D
330
2
100
AcDbEntity
  8
画層1
 62
     0
100
AcDbLine
 10
126.0
 20
148.0
 30
0.0
 11
32.0
 21
148.0
 31
0.0
  0
LINE
  5
6E
330
2
100
AcDbEntity
  8
画層1
 62
     0
100
AcDbLine
 10
32.0
 20
148.0
 30
0.0
 11
126.0
 21
148.0
 31
0.0
  0
LINE
  5
6F
330
2
100
AcDbEntity
  8
画層1
 62
     0
100
AcDbLine
 10
70.0
 20
16.0
 30
0.0
 11
88.0
 21
16.0
 31
0.0
  0
DIMENSION
  5
70
330
2
100
AcDbEntity
  8
画層1
 62
     0
100
AcDbDimension
  2
*D3
 10
125.0
 20
126.0
 30
0.0
 11
79.0
 21
130.4695431472081
 31
0.0
 70
    32
 71
     5
 42
-1.0
  3
STANDARD_WS
100
AcDbAlignedDimension
 13
33.0
 23
117.0
 33
0.0
 14
125.0
 24
117.0
 34
0.0
100
AcDbRotatedDimension
1001
ACAD
1000
DSTYLE
1002
{
1070
   284
1070
     8
1070
   340
1005
25
1070
    47
1040
1.0
1070
    71
1070
     1
1070
   146
1040
1.0
1002
}
  0
LINE
  5
7D
330
2
100
AcDbEntity
  8
画層1
  6
CENTER
 62
     0
100
AcDbLine
 10
29.0
 20
71.0
 30
0.0
 11
129.0
 21
71.0
 31
0.0
  0
LINE
  5
7E
330
2
100
AcDbEntity
  8
画層1
 62
     0
100
AcDbLine
 10
125.0
 20
25.0
 30
0.0
 11
33.0
 21
25.0
 31
0.0
  0
LINE
  5
7F
330
2
100
AcDbEntity
  8
画層1
 62
     0
100
AcDbLine
 10
33.0
 20
117.0
 30
0.0
 11
125.0
 21
117.0
 31
0.0
  0
LINE
  5
80
330
2
100
AcDbEntity
  8
画層1
 62
     0
100
AcDbLine
 10
33.0
 20
25.0
 30
0.0
 11
33.0
 21
117.0
 31
0.0
  0
LINE
  5
81
330
2
100
AcDbEntity
  8
画層1
 62
     0
100
AcDbLine
 10
33.0
 20
146.0
 30
0.0
 11
37.0
 21
146.0
 31
0.0
  0
LINE
  5
82
330
2
100
AcDbEntity
  8
画層1
 62
     0
100
AcDbLine
 10
33.0
 20
148.0
 30
0.0
 11
37.0
 21
148.0
 31
0.0
  0
LINE
  5
83
330
2
100
AcDbEntity
  8
画層1
 62
     0
100
AcDbLine
 10
33.0
 20
147.0
 30
0.0
 11
37.0
 21
147.0
 31
0.0
  0
LINE
  5
84
330
2
100
AcDbEntity
  8
画層1
 62
     0
100
AcDbLine
 10
33.0
 20
147.0
 30
0.0
 11
37.0
 21
147.0
 31
0.0
  0
LINE
  5
85
330
2
100
AcDbEntity
  8
画層1
 62
     0
100
AcDbLine
 10
33.0
 20
147.0
 30
0.0
 11
37.0
 21
147.0
 31
0.0
  0
LINE
  5
86
330
2
100
AcDbEntity
  8
画層1
 62
     0
100
AcDbLine
 10
33.0
 20
146.0
 30
0.0
 11
37.0
 21
146.0
 31
0.0
  0
LINE
  5
87
330
2
100
AcDbEntity
  8
画層1
 62
     0
100
AcDbLine
 10
33.0
 20
146.0
 30
0.0
 11
37.0
 21
146.0
 31
0.0
  0
ARC
  5
88
330
2
100
AcDbEntity
  8
画層1
 62
     0
100
AcDbCircle
 10
32.0
 20
149.0
 30
0.0
 40
1.0
100
AcDbArc
 50
180.0
 51
270.0
  0
LINE
  5
8A
330
2
100
AcDbEntity
  8
画層1
 62
     0
100
AcDbLine
 10
33.0
 20
148.0
 30
0.0
 11
33.0
 21
146.0
 31
0.0
  0
LINE
  5
8D
330
2
100
AcDbEntity
  8
画層1
 62
     0
100
AcDbLine
 10
37.0
 20
146.0
 30
0.0
 11
37.0
 21
148.0
 31
0.0
  0
LINE
  5
8E
330
2
100
AcDbEntity
  8
画層1
 62
     0
100
AcDbLine
 10
42.0
 20
148.0
 30
0.0
 11
42.0
 21
148.0
 31
0.0
  0
LINE
  5
8F
330
2
100
AcDbEntity
  8
画層1
 62
     0
100
AcDbLine
 10
44.0
 20
148.0
 30
0.0
 11
44.0
 21
148.0
 31
0.0
  0
LINE
  5
90
330
2
100
AcDbEntity
  8
画層1
 62
     0
100
AcDbLine
 10
54.0
 20
148.0
 30
0.0
 11
54.0
 21
148.0
 31
0.0
  0
LINE
  5
91
330
2
100
AcDbEntity
  8
画層1
 62
     0
100
AcDbLine
 10
56.0
 20
148.0
 30
0.0
 11
56.0
 21
148.0
 31
0.0
  0
DIMENSION
  5
92
330
2
100
AcDbEntity
  8
画層1
 62
     0
100
AcDbDimension
  2
*D4
 10
134.0
 20
25.0
 30
0.0
 11
129.5304568527918
 21
71.00000000000001
 31
0.0
 70
    32
 71
     5
 42
-1.0
  3
STANDARD_WS
100
AcDbAlignedDimension
 13
125.0
 23
117.0
 33
0.0
 14
125.0
 24
25.0
 34
0.0
 50
90.0
100
AcDbRotatedDimension
1001
ACAD
1000
DSTYLE
1002
{
1070
   284
1070
     8
1070
   340
1005
25
1070
    47
1040
1.0
1070
    71
1070
     1
1070
   146
1040
1.0
1002
}
  0
LINE
  5
9F
330
2
100
AcDbEntity
  8
画層1
  6
CENTER
 62
     0
100
AcDbLine
 10
79.0
 20
121.0
 30
0.0
 11
79.0
 21
21.0
 31
0.0
  0
LINE
  5
A0
330
2
100
AcDbEntity
  8
画層1
 62
     0
100
AcDbLine
 10
125.0
 20
117.0
 30
0.0
 11
125.0
 21
25.0
 31
0.0
  0
HATCH
  5
A1
330
2
100
AcDbEntity
  8
画層1
 62
     0
100
AcDbHatch
 10
0.0
 20
0.0
 30
0.0
210
0.0
220
0.0
230
1.0
  2
SOLID
 70
     1
 71
     0
 91
       10
 92
        5
 93
       10
 72
     3
 10
101.8323247680429
 20
152.1533393342755
 11
-0.982456140350877
 21
0.0
 40
0.6607142857142858
 50
90.0
 51
270.0
 73
     1
 72
     2
 10
101.8323247680429
 20
152.9077252991879
 40
0.1052631578947376
 50
89.99999999999628
 51
269.9999999999955
 73
     0
 72
     2
 10
101.8953828022922
 20
151.6590053478377
 40
1.355450691026425
 50
267.3335335883713
 51
296.4437824908838
 73
     0
 72
     1
 10
102.4989914347095
 20
152.8726375798896
 11
102.6393423119025
 21
153.1884270535739
 72
     2
 10
101.7807974864591
 20
151.5439054855709
 40
1.855141613171803
 50
62.43257811529774
 51
90.5759553231079
 73
     1
 72
     3
 10
101.7621493294464
 20
152.7498305623458
 11
0.9558248242604051
 21
0.0
 40
0.6791231934364329
 50
90.0
 51
270.0
 73
     1
 72
     2
 10
101.7621493294464
 20
151.9954445974335
 40
0.1052631578947376
 50
270.0000000000023
 51
450.0000000000031
 73
     0
 72
     2
 10
101.6724756110553
 20
153.7225146019691
 40
1.834526149694269
 50
87.1982008190587
 51
115.4216641289815
 73
     0
 72
     1
 10
100.8849563469902
 20
152.0656200360299
 11
100.709517750499
 21
151.7498305623458
 72
     2
 10
101.7568491147718
 20
153.8484080270911
 40
2.3454062253961
 50
243.4777171338575
 51
271.8441083094921
 73
     1
 97
        0
 92
        7
 72
     0
 73
     1
 93
       12
 10
105.4112721364639
 20
153.3638656500651
 10
104.4989914347094
 20
153.3638656500651
 10
104.4989914347094
 20
152.6971989833985
 10
103.9375879259375
 20
152.6971989833985
 10
103.9375879259375
 20
153.3638656500651
 10
103.0253072241831
 20
153.3638656500651
 10
103.0253072241831
 20
151.5393042465564
 10
103.9375879259375
 20
151.5393042465564
 10
103.9375879259375
 20
152.205970913223
 10
104.4989914347094
 20
152.205970913223
 10
104.4989914347094
 20
151.5393042465564
 10
105.4112721364639
 20
151.5393042465563
 97
        0
 92
        7
 72
     0
 73
     1
 93
        4
 10
106.6042545926041
 20
153.3638656500651
 10
105.6919738908497
 20
153.3638656500651
 10
105.6919738908497
 20
151.5393042465564
 10
106.6042545926041
 20
151.5393042465563
 97
        0
 92
        7
 72
     0
 73
     1
 93
       13
 10
109.6919738908499
 20
153.3638656500651
 10
108.8498686276919
 20
153.3638656500651
 10
108.4639037154113
 20
152.5919358255037
 10
108.148114241727
 20
153.3638656500651
 10
107.1656581013762
 20
153.3638656500651
 10
106.8498686276919
 20
151.5393042465564
 10
107.7270616101479
 20
151.5393042465564
 10
107.8323247680429
 20
152.1357954746266
 10
108.148114241727
 20
151.5393042465564
 10
108.7095177504989
 20
151.5393042465564
 10
108.990219504885
 20
152.1357954746265
 10
109.130570382078
 20
151.5393042465564
 10
110.0077633645339
 20
151.5393042465564
 97
        0
 92
        7
 72
     0
 73
     1
 93
        8
 10
112.148114241727
 20
153.3638656500651
 10
111.0954826627795
 20
153.3638656500651
 10
110.2533773996217
 20
151.5393042465563
 10
111.1656581013762
 20
151.5393042465564
 10
111.3177048850019
 20
151.8901814395388
 10
111.9726756452358
 20
151.8901814395388
 10
112.148114241727
 20
151.5393042465564
 10
112.990219504885
 20
151.5393042465564
 97
        0
 92
       22
 72
     0
 73
     1
 93
        3
 10
111.4545469902651
 20
152.205970913223
 10
111.6217984522533
 20
152.5919358255037
 10
111.8147809083938
 20
152.205970913223
 97
        0
 92
        7
 72
     1
 73
     1
 93
        4
 10
114.8498686276919
 20
153.3638656500651
 42
0.0
 10
113.2358335399727
 20
153.3638656500651
 42
0.0
 10
113.2358335399727
 20
151.5393042465564
 42
0.0
 10
114.8498686276919
 20
151.5393042465564
 42
1.0
 97
        0
 92
       22
 72
     1
 73
     1
 93
        4
 10
114.148114241727
 20
152.9077252991879
 42
0.0
 10
114.3586405575164
 20
152.9077252991879
 42
-1.0
 10
114.3586405575164
 20
151.9954445974335
 42
0.0
 10
114.148114241727
 20
151.9954445974335
 42
0.0
 97
        0
 92
        7
 72
     0
 73
     1
 93
       12
 10
116.9200440662885
 20
152.205970913223
 10
117.7270616101479
 20
152.205970913223
 10
117.7270616101479
 20
152.6971989833985
 10
116.9200440662885
 20
152.6971989833985
 10
116.9200440662885
 20
152.9779007377844
 10
117.867412487341
 20
152.9779007377844
 10
117.867412487341
 20
153.3638656500651
 10
115.9726756452359
 20
153.3638656500651
 10
115.9726756452359
 20
151.5393042465564
 10
117.867412487341
 20
151.5393042465563
 10
117.867412487341
 20
151.9252691588369
 10
116.9200440662885
 20
151.9252691588369
 97
        0
 92
        7
 72
     0
 73
     1
 93
       10
 10
119.0253072241832
 20
152.3814095097139
 10
119.867412487341
 20
151.5393042465563
 10
120.849868627692
 20
151.5393042465564
 10
120.849868627692
 20
153.3638656500651
 10
119.9375879259376
 20
153.3638656500651
 10
119.9375879259376
 20
152.5919358255037
 10
119.1656581013762
 20
153.3638656500651
 10
118.1130265224289
 20
153.3638656500651
 10
118.1130265224289
 20
151.5393042465564
 10
119.0253072241832
 20
151.5393042465564
 97
        0
 75
     0
 76
     1
 47
0.0
 98
       10
 10
102.0344757936733
 20
152.2287189057266
 10
103.3323978513916
 20
152.3783405173938
 10
106.3775227854991
 20
152.3284666261299
 10
107.4258444652331
 20
152.1788450144627
 10
110.820409882419
 20
152.1289711231988
 10
110.820409882419
 20
152.1289711231988
 10
113.6658544910894
 20
152.0790972940594
 10
113.6658544910894
 20
152.0790972940594
 10
116.2616986065259
 20
152.1289711231988
 10
118.5580222914311
 20
152.1289711231988
  0
LINE
  5
A2
330
2
100
AcDbEntity
  8
画層1
 62
     0
100
AcDbLine
 10
102.0
 20
148.0
 30
0.0
 11
102.0
 21
148.0
 31
0.0
  0
LINE
  5
A3
330
2
100
AcDbEntity
  8
画層1
 62
     0
100
AcDbLine
 10
104.0
 20
148.0
 30
0.0
 11
104.0
 21
148.0
 31
0.0
  0
LINE
  5
A4
330
2
100
AcDbEntity
  8
画層1
 62
     0
100
AcDbLine
 10
114.0
 20
148.0
 30
0.0
 11
114.0
 21
148.0
 31
0.0
  0
LINE
  5
A5
330
2
100
AcDbEntity
  8
画層1
 62
     0
100
AcDbLine
 10
116.0
 20
148.0
 30
0.0
 11
116.0
 21
148.0
 31
0.0
  0
ARC
  5
A6
330
2
100
AcDbEntity
  8
画層1
 62
     0
100
AcDbCircle
 10
126.0
 20
149.0
 30
0.0
 40
1.0
100
AcDbArc
 50
270.0
 51
0.0
  0
LINE
  5
A8
330
2
100
AcDbEntity
  8
画層1
 62
     0
100
AcDbLine
 10
125.0
 20
146.0
 30
0.0
 11
121.0
 21
146.0
 31
0.0
  0
LINE
  5
A9
330
2
100
AcDbEntity
  8
画層1
 62
     0
100
AcDbLine
 10
121.0
 20
148.0
 30
0.0
 11
125.0
 21
148.0
 31
0.0
  0
LINE
  5
AA
330
2
100
AcDbEntity
  8
画層1
 62
     0
100
AcDbLine
 10
121.0
 20
147.0
 30
0.0
 11
125.0
 21
147.0
 31
0.0
  0
LINE
  5
AB
330
2
100
AcDbEntity
  8
画層1
 62
     0
100
AcDbLine
 10
121.0
 20
147.0
 30
0.0
 11
125.0
 21
147.0
 31
0.0
  0
LINE
  5
AC
330
2
100
AcDbEntity
  8
画層1
 62
     0
100
AcDbLine
 10
121.0
 20
147.0
 30
0.0
 11
125.0
 21
147.0
 31
0.0
  0
LINE
  5
AD
330
2
100
AcDbEntity
  8
画層1
 62
     0
100
AcDbLine
 10
121.0
 20
146.0
 30
0.0
 11
125.0
 21
146.0
 31
0.0
  0
LINE
  5
AE
330
2
100
AcDbEntity
  8
画層1
 62
     0
100
AcDbLine
 10
121.0
 20
146.0
 30
0.0
 11
125.0
 21
146.0
 31
0.0
  0
LINE
  5
AF
330
2
100
AcDbEntity
  8
画層1
 62
     0
100
AcDbLine
 10
121.0
 20
146.0
 30
0.0
 11
121.0
 21
148.0
 31
0.0
  0
LINE
  5
B0
330
2
100
AcDbEntity
  8
画層1
 62
     0
100
AcDbLine
 10
125.0
 20
148.0
 30
0.0
 11
125.0
 21
146.0
 31
0.0
  0
ELLIPSE
  5
B3
330
2
100
AcDbEntity
  8
画層1
 62
     0
100
AcDbEllipse
 10
49.0
 20
177.0
 30
0.0
 11
-9.0
 21
0.0
 31
0.0
210
0.0
220
0.0
230
1.0
 40
0.6666666666666666
 41
0.0
 42
6.283185307179584
  0
HATCH
  5
B7
330
2
100
AcDbEntity
  8
画層1
 62
     0
100
AcDbHatch
 10
0.0
 20
0.0
 30
0.0
210
0.0
220
0.0
230
1.0
  2
SOLID
 70
     1
 71
     0
 91
        1
 92
        5
 93
        5
 72
     3
 10
69.00000000000004
 20
176.990244753767
 11
-5.0
 21
0.0
 40
0.5400000000000006
 50
102.6170915574607
 51
437.3829084425389
 73
     1
 72
     1
 10
68.40000000000006
 20
174.3097552462326
 11
68.40000000000006
 21
175.1097324484064
 72
     3
 10
69.00000000000004
 20
176.990244753767
 11
-4.200000000000001
 21
0.0
 40
0.4523809523809537
 50
-72.30409342292336
 51
209.8520372589856
 73
     0
 72
     1
 10
71.60000000000005
 20
175.4980731940195
 11
70.80000000000005
 21
176.690244753767
 72
     1
 10
70.80000000000007
 20
176.690244753767
 11
69.60000000000005
 21
174.3097552462326
 97
        0
 75
     0
 76
     1
 47
0.0
 98
        1
 10
69.75261369800961
 20
179.2611216350045
  0
LINE
  5
B8
330
2
100
AcDbEntity
  8
画層1
 62
     0
100
AcDbLine
 10
110.0
 20
235.0
 30
0.0
 11
40.0
 21
235.0
 31
0.0
  0
LINE
  5
B9
330
2
100
AcDbEntity
  8
画層1
 62
     0
100
AcDbLine
 10
40.0
 20
212.0
 30
0.0
 11
110.0
 21
212.0
 31
0.0
  0
LINE
  5
BA
330
2
100
AcDbEntity
  8
画層1
 62
     0
100
AcDbLine
 10
65.0
 20
206.0
 30
0.0
 11
106.0
 21
206.0
 31
0.0
  0
LINE
  5
BB
330
2
100
AcDbEntity
  8
画層1
 62
     0
100
AcDbLine
 10
106.0
 20
193.0
 30
0.0
 11
65.0
 21
193.0
 31
0.0
  0
LINE
  5
BC
330
2
100
AcDbEntity
  8
画層1
 62
     0
100
AcDbLine
 10
34.0
 20
242.0
 30
0.0
 11
124.0
 21
242.0
 31
0.0
  0
LINE
  5
BD
330
2
100
AcDbEntity
  8
画層1
 62
     0
100
AcDbLine
 10
125.0
 20
184.0
 30
0.0
 11
33.0
 21
184.0
 31
0.0
  0
LINE
  5
BE
330
2
100
AcDbEntity
  8
画層1
 62
     0
100
AcDbLine
 10
33.0
 20
242.0
 30
0.0
 11
125.0
 21
242.0
 31
0.0
  0
LINE
  5
BF
330
2
100
AcDbEntity
  8
画層1
 62
     0
100
AcDbLine
 10
32.0
 20
244.0
 30
0.0
 11
126.0
 21
244.0
 31
0.0
  0
LINE
  5
C0
330
2
100
AcDbEntity
  8
画層1
 62
     0
100
AcDbLine
 10
126.0
 20
244.0
 30
0.0
 11
32.0
 21
244.0
 31
0.0
  0
DIMENSION
  5
C1
330
2
100
AcDbEntity
  8
画層1
 62
     0
100
AcDbDimension
  2
*D5
 10
127.0
 20
251.0
 30
0.0
 11
79.0
 21
253.5
 31
0.0
 70
    32
 71
     5
 42
-1.0
  3
STANDARD_WS
100
AcDbAlignedDimension
 13
31.0
 23
243.0
 33
0.0
 14
127.0
 24
243.0
 34
0.0
100
AcDbRotatedDimension
1001
ACAD
1000
DSTYLE
1002
{
1070
   340
1005
25
1002
}
  0
LINE
  5
CE
330
2
100
AcDbEntity
  8
画層1
  6
CENTER
 62
     0
100
AcDbLine
 10
29.0
 20
196.0
 30
0.0
 11
129.0
 21
196.0
 31
0.0
  0
LINE
  5
CF
330
2
100
AcDbEntity
  8
画層1
 62
     0
100
AcDbLine
 10
33.0
 20
246.0
 30
0.0
 11
37.0
 21
246.0
 31
0.0
  0
LINE
  5
D0
330
2
100
AcDbEntity
  8
画層1
 62
     0
100
AcDbLine
 10
33.0
 20
246.0
 30
0.0
 11
37.0
 21
246.0
 31
0.0
  0
LINE
  5
D1
330
2
100
AcDbEntity
  8
画層1
 62
     0
100
AcDbLine
 10
33.0
 20
246.0
 30
0.0
 11
37.0
 21
246.0
 31
0.0
  0
LINE
  5
D2
330
2
100
AcDbEntity
  8
画層1
 62
     0
100
AcDbLine
 10
33.0
 20
245.0
 30
0.0
 11
37.0
 21
245.0
 31
0.0
  0
LINE
  5
D3
330
2
100
AcDbEntity
  8
画層1
 62
     0
100
AcDbLine
 10
33.0
 20
245.0
 30
0.0
 11
37.0
 21
245.0
 31
0.0
  0
LINE
  5
D4
330
2
100
AcDbEntity
  8
画層1
 62
     0
100
AcDbLine
 10
33.0
 20
245.0
 30
0.0
 11
37.0
 21
245.0
 31
0.0
  0
LINE
  5
D5
330
2
100
AcDbEntity
  8
画層1
 62
     0
100
AcDbLine
 10
33.0
 20
244.0
 30
0.0
 11
37.0
 21
244.0
 31
0.0
  0
ARC
  5
D6
330
2
100
AcDbEntity
  8
画層1
 62
     0
100
AcDbCircle
 10
32.0
 20
243.0
 30
0.0
 40
1.0
100
AcDbArc
 50
90.0
 51
180.0
  0
LINE
  5
DA
330
2
100
AcDbEntity
  8
画層1
 62
     0
100
AcDbLine
 10
33.0
 20
244.0
 30
0.0
 11
33.0
 21
246.0
 31
0.0
  0
LINE
  5
DB
330
2
100
AcDbEntity
  8
画層1
 62
     0
100
AcDbLine
 10
64.0
 20
194.0
 30
0.0
 11
64.0
 21
205.0
 31
0.0
  0
LINE
  5
DC
330
2
100
AcDbEntity
  8
画層1
 62
     0
100
AcDbLine
 10
43.0
 20
187.0
 30
0.0
 11
46.0
 21
187.0
 31
0.0
  0
LINE
  5
DD
330
2
100
AcDbEntity
  8
画層1
 62
     0
100
AcDbLine
 10
46.0
 20
185.0
 30
0.0
 11
43.0
 21
185.0
 31
0.0
  0
LINE
  5
DE
330
2
100
AcDbEntity
  8
画層1
 62
     0
100
AcDbLine
 10
43.0
 20
185.0
 30
0.0
 11
43.0
 21
187.0
 31
0.0
  0
LINE
  5
DF
330
2
100
AcDbEntity
  8
画層1
 62
     0
100
AcDbLine
 10
46.0
 20
187.0
 30
0.0
 11
46.0
 21
185.0
 31
0.0
  0
LINE
  5
E0
330
2
100
AcDbEntity
  8
画層1
 62
     0
100
AcDbLine
 10
53.0
 20
185.0
 30
0.0
 11
50.0
 21
185.0
 31
0.0
  0
LINE
  5
E1
330
2
100
AcDbEntity
  8
画層1
 62
     0
100
AcDbLine
 10
50.0
 20
187.0
 30
0.0
 11
53.0
 21
187.0
 31
0.0
  0
LINE
  5
E2
330
2
100
AcDbEntity
  8
画層1
 62
     0
100
AcDbLine
 10
50.0
 20
185.0
 30
0.0
 11
50.0
 21
187.0
 31
0.0
  0
LINE
  5
E3
330
2
100
AcDbEntity
  8
画層1
 62
     0
100
AcDbLine
 10
53.0
 20
187.0
 30
0.0
 11
53.0
 21
185.0
 31
0.0
  0
ARC
  5
E4
330
2
100
AcDbEntity
  8
画層1
 62
     0
100
AcDbCircle
 10
65.0
 20
194.0
 30
0.0
 40
1.0
100
AcDbArc
 50
180.0
 51
270.0
  0
LINE
  5
E5
330
2
100
AcDbEntity
  8
画層1
 62
     0
100
AcDbLine
 10
64.0
 20
187.0
 30
0.0
 11
67.0
 21
187.0
 31
0.0
  0
LINE
  5
E6
330
2
100
AcDbEntity
  8
画層1
 62
     0
100
AcDbLine
 10
67.0
 20
185.0
 30
0.0
 11
64.0
 21
185.0
 31
0.0
  0
LINE
  5
E7
330
2
100
AcDbEntity
  8
画層1
 62
     0
100
AcDbLine
 10
57.0
 20
187.0
 30
0.0
 11
60.0
 21
187.0
 31
0.0
  0
LINE
  5
E8
330
2
100
AcDbEntity
  8
画層1
 62
     0
100
AcDbLine
 10
60.0
 20
185.0
 30
0.0
 11
57.0
 21
185.0
 31
0.0
  0
LINE
  5
E9
330
2
100
AcDbEntity
  8
画層1
 62
     0
100
AcDbLine
 10
57.0
 20
185.0
 30
0.0
 11
57.0
 21
187.0
 31
0.0
  0
LINE
  5
EA
330
2
100
AcDbEntity
  8
画層1
 62
     0
100
AcDbLine
 10
60.0
 20
187.0
 30
0.0
 11
60.0
 21
185.0
 31
0.0
  0
LINE
  5
EB
330
2
100
AcDbEntity
  8
画層1
 62
     0
100
AcDbLine
 10
64.0
 20
185.0
 30
0.0
 11
64.0
 21
187.0
 31
0.0
  0
LINE
  5
EC
330
2
100
AcDbEntity
  8
画層1
 62
     0
100
AcDbLine
 10
67.0
 20
187.0
 30
0.0
 11
67.0
 21
185.0
 31
0.0
  0
LINE
  5
ED
330
2
100
AcDbEntity
  8
画層1
 62
     0
100
AcDbLine
 10
71.0
 20
187.0
 30
0.0
 11
74.0
 21
187.0
 31
0.0
  0
LINE
  5
EE
330
2
100
AcDbEntity
  8
画層1
 62
     0
100
AcDbLine
 10
74.0
 20
185.0
 30
0.0
 11
71.0
 21
185.0
 31
0.0
  0
LINE
  5
EF
330
2
100
AcDbEntity
  8
画層1
 62
     0
100
AcDbLine
 10
71.0
 20
185.0
 30
0.0
 11
71.0
 21
187.0
 31
0.0
  0
LINE
  5
F0
330
2
100
AcDbEntity
  8
画層1
 62
     0
100
AcDbLine
 10
74.0
 20
187.0
 30
0.0
 11
74.0
 21
185.0
 31
0.0
  0
LINE
  5
F1
330
2
100
AcDbEntity
  8
画層1
 62
     0
100
AcDbLine
 10
39.0
 20
234.0
 30
0.0
 11
39.0
 21
213.0
 31
0.0
  0
ARC
  5
F2
330
2
100
AcDbEntity
  8
画層1
 62
     0
100
AcDbCircle
 10
40.0
 20
213.0
 30
0.0
 40
1.0
100
AcDbArc
 50
180.0
 51
270.0
  0
ARC
  5
F3
330
2
100
AcDbEntity
  8
画層1
 62
     0
100
AcDbCircle
 10
40.0
 20
234.0
 30
0.0
 40
1.0
100
AcDbArc
 50
90.0
 51
180.0
  0
LINE
  5
F4
330
2
100
AcDbEntity
  8
画層1
 62
     0
100
AcDbLine
 10
37.0
 20
246.0
 30
0.0
 11
37.0
 21
244.0
 31
0.0
  0
LINE
  5
F5
330
2
100
AcDbEntity
  8
画層1
 62
     0
100
AcDbLine
 10
42.0
 20
244.0
 30
0.0
 11
42.0
 21
244.0
 31
0.0
  0
LINE
  5
F6
330
2
100
AcDbEntity
  8
画層1
 62
     0
100
AcDbLine
 10
44.0
 20
244.0
 30
0.0
 11
44.0
 21
244.0
 31
0.0
  0
LINE
  5
F7
330
2
100
AcDbEntity
  8
画層1
 62
     0
100
AcDbLine
 10
54.0
 20
244.0
 30
0.0
 11
54.0
 21
244.0
 31
0.0
  0
ARC
  5
F8
330
2
100
AcDbEntity
  8
画層1
 62
     0
100
AcDbCircle
 10
65.0
 20
205.0
 30
0.0
 40
1.0
100
AcDbArc
 50
90.0
 51
180.0
  0
LINE
  5
F9
330
2
100
AcDbEntity
  8
画層1
 62
     0
100
AcDbLine
 10
56.0
 20
244.0
 30
0.0
 11
56.0
 21
244.0
 31
0.0
  0
HATCH
  5
FA
330
2
100
AcDbEntity
  8
画層1
 62
     0
100
AcDbHatch
 10
0.0
 20
0.0
 30
0.0
210
0.0
220
0.0
230
1.0
  2
SOLID
 70
     1
 71
     0
 91
        1
 92
        7
 72
     1
 73
     1
 93
        6
 10
111.2692338742167
 20
175.3376052553736
 42
-0.5575365158350519
 10
111.0903484360167
 20
175.0481625362735
 42
0.0
 10
106.7375620315164
 20
175.0481625362735
 42
-0.5575365158350514
 10
106.5586765933167
 20
175.3376052553736
 42
0.0
 10
108.7350697955667
 20
179.6903916598735
 42
-0.6180339887498949
 10
109.0928406719667
 20
179.6903916598735
 42
0.0
 97
        0
 75
     0
 76
     1
 47
0.0
 98
        1
 10
109.274338938812
 20
176.4163885047028
  0
LINE
  5
FB
330
2
100
AcDbEntity
  8
画層1
 62
     0
100
AcDbLine
 10
107.0
 20
205.0
 30
0.0
 11
107.0
 21
194.0
 31
0.0
  0
LINE
  5
FC
330
2
100
AcDbEntity
  8
画層1
 62
     0
100
AcDbLine
 10
92.0
 20
187.0
 30
0.0
 11
95.0
 21
187.0
 31
0.0
  0
LINE
  5
FD
330
2
100
AcDbEntity
  8
画層1
 62
     0
100
AcDbLine
 10
95.0
 20
185.0
 30
0.0
 11
92.0
 21
185.0
 31
0.0
  0
HATCH
  5
FE
330
2
100
AcDbEntity
  8
画層1
 62
     0
100
AcDbHatch
 10
0.0
 20
0.0
 30
0.0
210
0.0
220
0.0
230
1.0
  2
SOLID
 70
     1
 71
     0
 91
        1
 92
        7
 72
     1
 73
     1
 93
        6
 10
91.36724339015907
 20
178.7070430666045
 42
0.5575365158350519
 10
91.18835795195908
 20
178.9964857857047
 42
0.0
 10
86.83557154745903
 20
178.9964857857047
 42
0.5575365158350514
 10
86.65668610925905
 20
178.7070430666045
 42
0.0
 10
88.83307931150909
 20
174.3542566621044
 42
0.6180339887498949
 10
89.19085018790907
 20
174.3542566621044
 42
0.0
 97
        0
 75
     0
 76
     1
 47
0.0
 98
        1
 10
89.37234845475433
 20
177.6282598172755
  0
LINE
  5
FF
330
2
100
AcDbEntity
  8
画層1
 62
     0
100
AcDbLine
 10
78.0
 20
187.0
 30
0.0
 11
81.0
 21
187.0
 31
0.0
  0
LINE
  5
100
330
2
100
AcDbEntity
  8
画層1
 62
     0
100
AcDbLine
 10
81.0
 20
185.0
 30
0.0
 11
78.0
 21
185.0
 31
0.0
  0
LINE
  5
101
330
2
100
AcDbEntity
  8
画層1
 62
     0
100
AcDbLine
 10
78.0
 20
185.0
 30
0.0
 11
78.0
 21
187.0
 31
0.0
  0
LINE
  5
102
330
2
100
AcDbEntity
  8
画層1
 62
     0
100
AcDbLine
 10
81.0
 20
187.0
 30
0.0
 11
81.0
 21
185.0
 31
0.0
  0
LINE
  5
103
330
2
100
AcDbEntity
  8
画層1
 62
     0
100
AcDbLine
 10
85.0
 20
187.0
 30
0.0
 11
88.0
 21
187.0
 31
0.0
  0
LINE
  5
104
330
2
100
AcDbEntity
  8
画層1
 62
     0
100
AcDbLine
 10
88.0
 20
185.0
 30
0.0
 11
85.0
 21
185.0
 31
0.0
  0
LINE
  5
105
330
2
100
AcDbEntity
  8
画層1
 62
     0
100
AcDbLine
 10
85.0
 20
185.0
 30
0.0
 11
85.0
 21
187.0
 31
0.0
  0
LINE
  5
106
330
2
100
AcDbEntity
  8
画層1
 62
     0
100
AcDbLine
 10
88.0
 20
187.0
 30
0.0
 11
88.0
 21
185.0
 31
0.0
  0
LINE
  5
107
330
2
100
AcDbEntity
  8
画層1
 62
     0
100
AcDbLine
 10
92.0
 20
185.0
 30
0.0
 11
92.0
 21
187.0
 31
0.0
  0
LINE
  5
108
330
2
100
AcDbEntity
  8
画層1
 62
     0
100
AcDbLine
 10
95.0
 20
187.0
 30
0.0
 11
95.0
 21
185.0
 31
0.0
  0
LINE
  5
109
330
2
100
AcDbEntity
  8
画層1
 62
     0
100
AcDbLine
 10
102.0
 20
185.0
 30
0.0
 11
99.0
 21
185.0
 31
0.0
  0
LINE
  5
10A
330
2
100
AcDbEntity
  8
画層1
 62
     0
100
AcDbLine
 10
99.0
 20
187.0
 30
0.0
 11
102.0
 21
187.0
 31
0.0
  0
LINE
  5
10B
330
2
100
AcDbEntity
  8
画層1
 62
     0
100
AcDbLine
 10
99.0
 20
185.0
 30
0.0
 11
99.0
 21
187.0
 31
0.0
  0
LINE
  5
10C
330
2
100
AcDbEntity
  8
画層1
 62
     0
100
AcDbLine
 10
102.0
 20
187.0
 30
0.0
 11
102.0
 21
185.0
 31
0.0
  0
ARC
  5
10D
330
2
100
AcDbEntity
  8
画層1
 62
     0
100
AcDbCircle
 10
106.0
 20
194.0
 30
0.0
 40
1.0
100
AcDbArc
 50
270.0
 51
0.0
  0
LINE
  5
10E
330
2
100
AcDbEntity
  8
画層1
 62
     0
100
AcDbLine
 10
109.0
 20
185.0
 30
0.0
 11
106.0
 21
185.0
 31
0.0
  0
LINE
  5
10F
330
2
100
AcDbEntity
  8
画層1
 62
     0
100
AcDbLine
 10
106.0
 20
187.0
 30
0.0
 11
109.0
 21
187.0
 31
0.0
  0
LINE
  5
110
330
2
100
AcDbEntity
  8
画層1
 62
     0
100
AcDbLine
 10
106.0
 20
185.0
 30
0.0
 11
106.0
 21
187.0
 31
0.0
  0
LINE
  5
111
330
2
100
AcDbEntity
  8
画層1
 62
     0
100
AcDbLine
 10
109.0
 20
187.0
 30
0.0
 11
109.0
 21
185.0
 31
0.0
  0
LINE
  5
112
330
2
100
AcDbEntity
  8
画層1
 62
     0
100
AcDbLine
 10
111.0
 20
213.0
 30
0.0
 11
111.0
 21
234.0
 31
0.0
  0
ARC
  5
113
330
2
100
AcDbEntity
  8
画層1
 62
     0
100
AcDbCircle
 10
106.0
 20
205.0
 30
0.0
 40
1.0
100
AcDbArc
 50
0.0
 51
90.0
  0
ARC
  5
114
330
2
100
AcDbEntity
  8
画層1
 62
     0
100
AcDbCircle
 10
110.0
 20
213.0
 30
0.0
 40
1.0
100
AcDbArc
 50
270.0
 51
0.0
  0
ARC
  5
115
330
2
100
AcDbEntity
  8
画層1
 62
     0
100
AcDbCircle
 10
110.0
 20
234.0
 30
0.0
 40
1.0
100
AcDbArc
 50
0.0
 51
90.0
  0
LINE
  5
116
330
2
100
AcDbEntity
  8
画層1
 62
     0
100
AcDbLine
 10
102.0
 20
244.0
 30
0.0
 11
102.0
 21
244.0
 31
0.0
  0
LINE
  5
117
330
2
100
AcDbEntity
  8
画層1
 62
     0
100
AcDbLine
 10
104.0
 20
244.0
 30
0.0
 11
104.0
 21
244.0
 31
0.0
  0
LINE
  5
118
330
2
100
AcDbEntity
  8
画層1
 62
     0
100
AcDbLine
 10
113.0
 20
187.0
 30
0.0
 11
116.0
 21
187.0
 31
0.0
  0
LINE
  5
119
330
2
100
AcDbEntity
  8
画層1
 62
     0
100
AcDbLine
 10
116.0
 20
185.0
 30
0.0
 11
113.0
 21
185.0
 31
0.0
  0
LINE
  5
11A
330
2
100
AcDbEntity
  8
画層1
 62
     0
100
AcDbLine
 10
113.0
 20
185.0
 30
0.0
 11
113.0
 21
187.0
 31
0.0
  0
POINT
  5
11B
330
2
100
AcDbEntity
  8
DEFPOINTS
  6
ByBlock
 62
     0
100
AcDbPoint
 10
116.0
 20
187.0
 30
0.0
  0
POINT
  5
11C
330
2
100
AcDbEntity
  8
DEFPOINTS
  6
ByBlock
 62
     0
100
AcDbPoint
 10
116.0
 20
185.0
 30
0.0
  0
LINE
  5
11D
330
2
100
AcDbEntity
  8
画層1
 62
     0
100
AcDbLine
 10
116.0
 20
187.0
 30
0.0
 11
116.0
 21
185.0
 31
0.0
  0
HATCH
  5
11E
330
2
100
AcDbEntity
  8
画層1
 62
     0
100
AcDbHatch
 10
0.0
 20
0.0
 30
0.0
210
0.0
220
0.0
230
1.0
  2
SOLID
 70
     1
 71
     0
 91
        3
 92
        7
 72
     1
 73
     1
 93
        2
 10
115.0355220420925
 20
210.2331090772472
 42
1.0
 10
113.4647236285496
 20
210.2331090772472
 42
1.0
 97
        0
 92
       22
 72
     1
 73
     1
 93
        2
 10
113.8374550392915
 20
210.2331090772472
 42
-1.0
 10
114.6627906313504
 20
210.2331090772472
 42
-1.0
 97
        0
 92
        7
 72
     1
 73
     1
 93
        4
 10
118.473889601171
 20
210.0663482533131
 42
0.0
 10
118.473889601171
 20
210.8688818757618
 42
1.533941497875936
 10
118.473889601171
 20
206.216126449289
 42
0.0
 10
118.473889601171
 20
207.0186600717379
 42
-1.878800399703969
 97
        0
 75
     0
 76
     1
 47
0.0
 98
        3
 10
114.3433920863826
 20
209.7139466872445
 10
114.3433920863826
 20
209.7139466872445
 10
115.1828153459392
 20
208.3162024037024
  0
LINE
  5
11F
330
2
100
AcDbEntity
  8
画層1
 62
     0
100
AcDbLine
 10
114.0
 20
244.0
 30
0.0
 11
114.0
 21
244.0
 31
0.0
  0
LINE
  5
120
330
2
100
AcDbEntity
  8
画層1
 62
     0
100
AcDbLine
 10
116.0
 20
244.0
 30
0.0
 11
116.0
 21
244.0
 31
0.0
  0
LINE
  5
123
330
2
100
AcDbEntity
  8
画層1
 62
     0
100
AcDbLine
 10
125.0
 20
246.0
 30
0.0
 11
121.0
 21
246.0
 31
0.0
  0
LINE
  5
124
330
2
100
AcDbEntity
  8
画層1
 62
     0
100
AcDbLine
 10
121.0
 20
246.0
 30
0.0
 11
125.0
 21
246.0
 31
0.0
  0
LINE
  5
125
330
2
100
AcDbEntity
  8
画層1
 62
     0
100
AcDbLine
 10
121.0
 20
246.0
 30
0.0
 11
125.0
 21
246.0
 31
0.0
  0
LINE
  5
126
330
2
100
AcDbEntity
  8
画層1
 62
     0
100
AcDbLine
 10
121.0
 20
245.0
 30
0.0
 11
125.0
 21
245.0
 31
0.0
  0
LINE
  5
127
330
2
100
AcDbEntity
  8
画層1
 62
     0
100
AcDbLine
 10
121.0
 20
245.0
 30
0.0
 11
125.0
 21
245.0
 31
0.0
  0
LINE
  5
128
330
2
100
AcDbEntity
  8
画層1
 62
     0
100
AcDbLine
 10
121.0
 20
245.0
 30
0.0
 11
125.0
 21
245.0
 31
0.0
  0
LINE
  5
129
330
2
100
AcDbEntity
  8
画層1
 62
     0
100
AcDbLine
 10
121.0
 20
244.0
 30
0.0
 11
125.0
 21
244.0
 31
0.0
  0
LINE
  5
12A
330
2
100
AcDbEntity
  8
画層1
 62
     0
100
AcDbLine
 10
121.0
 20
246.0
 30
0.0
 11
121.0
 21
244.0
 31
0.0
  0
ARC
  5
12B
330
2
100
AcDbEntity
  8
画層1
 62
     0
100
AcDbCircle
 10
126.0
 20
243.0
 30
0.0
 40
1.0
100
AcDbArc
 50
0.0
 51
90.0
  0
LINE
  5
12D
330
2
100
AcDbEntity
  8
画層1
 62
     0
100
AcDbLine
 10
125.0
 20
244.0
 30
0.0
 11
125.0
 21
246.0
 31
0.0
  0
LINE
  5
12E
330
2
100
AcDbEntity
  8
画層1
 62
     0
100
AcDbLine
 10
180.0
 20
218.0
 30
0.0
 11
180.0
 21
157.0
 31
0.0
  0
LINE
  5
12F
330
2
100
AcDbEntity
  8
画層1
 62
     0
100
AcDbLine
 10
252.0
 20
218.0
 30
0.0
 11
252.0
 21
157.0
 31
0.0
  0
LINE
  5
133
330
2
100
AcDbEntity
  8
画層1
 62
     0
100
AcDbLine
 10
151.0
 20
242.8
 30
0.0
 11
151.0
 21
149.1999999999999
 31
0.0
  0
LINE
  5
135
330
2
100
AcDbEntity
  8
画層1
 62
     0
100
AcDbLine
 10
162.0
 20
244.0
 30
0.0
 11
162.0
 21
148.0
 31
0.0
  0
LINE
  5
136
330
2
100
AcDbEntity
  8
画層1
 62
     0
100
AcDbLine
 10
252.0
 20
235.0
 30
0.0
 11
252.0
 21
157.0
 31
0.0
  0
LINE
  5
138
330
2
100
AcDbEntity
  8
画層1
 62
     0
100
AcDbLine
 10
154.0
 20
148.0
 30
0.0
 11
154.0
 21
196.0
 31
0.0
  0
LINE
  5
139
330
2
100
AcDbEntity
  8
画層1
 62
     0
100
AcDbLine
 10
162.0
 20
242.0
 30
0.0
 11
162.0
 21
150.0
 31
0.0
  0
LINE
  5
13A
330
2
100
AcDbEntity
  8
画層1
 62
     0
100
AcDbLine
 10
165.0
 20
157.0
 30
0.0
 11
165.0
 21
235.0
 31
0.0
  0
LINE
  5
13B
330
2
100
AcDbEntity
  8
画層1
 62
     0
100
AcDbLine
 10
160.0
 20
244.0
 30
0.0
 11
160.0
 21
148.0
 31
0.0
  0
LINE
  5
13C
330
2
100
AcDbEntity
  8
画層1
 62
     0
100
AcDbLine
 10
251.0
 20
156.0
 30
0.0
 11
181.0
 21
156.0
 31
0.0
  0
LINE
  5
13D
330
2
100
AcDbEntity
  8
画層1
 62
     0
100
AcDbLine
 10
184.0
 20
150.0
 30
0.0
 11
254.0
 21
150.0
 31
0.0
  0
LINE
  5
13E
330
2
100
AcDbEntity
  8
画層1
 62
     0
100
AcDbLine
 10
250.0
 20
154.0
 30
0.0
 11
193.0
 21
154.0
 31
0.0
  0
LINE
  5
13F
330
2
100
AcDbEntity
  8
画層1
 62
     0
100
AcDbLine
 10
251.0
 20
156.0
 30
0.0
 11
166.0
 21
156.0
 31
0.0
  0
ARC
  5
140
330
2
100
AcDbEntity
  8
画層1
 62
     0
100
AcDbCircle
 10
184.8
 20
153.0
 30
0.0
 40
1.019803902718549
100
AcDbArc
 50
281.3099324740179
 51
78.69006752598197
  0
LINE
  5
141
330
2
100
AcDbEntity
  8
画層1
 62
     0
100
AcDbLine
 10
185.0
 20
154.0
 30
0.0
 11
162.0
 21
154.0
 31
0.0
  0
LINE
  5
142
330
2
100
AcDbEntity
  8
画層1
 62
     0
100
AcDbLine
 10
164.0
 20
149.0
 30
0.0
 11
167.0
 21
148.0
 31
0.0
  0
LINE
  5
143
330
2
100
AcDbEntity
  8
画層1
 62
     0
100
AcDbLine
 10
167.0
 20
146.0
 30
0.0
 11
166.0
 21
146.0
 31
0.0
  0
LINE
  5
144
330
2
100
AcDbEntity
  8
画層1
 62
     0
100
AcDbLine
 10
162.0
 20
150.0
 30
0.0
 11
172.379386941785
 21
150.0
 31
0.0
  0
LINE
  5
145
330
2
100
AcDbEntity
  8
画層1
 62
     0
100
AcDbLine
 10
153.0
 20
148.0
 30
0.0
 11
162.0
 21
148.0
 31
0.0
  0
LINE
  5
147
330
2
100
AcDbEntity
  8
画層1
 62
     0
100
AcDbLine
 10
152.0
 20
148.0
 30
0.0
 11
154.0
 21
148.0
 31
0.0
  0
LINE
  5
148
330
2
100
AcDbEntity
  8
画層1
 62
     0
100
AcDbLine
 10
152.2
 20
148.0
 30
0.0
 11
153.0
 21
148.0
 31
0.0
  0
LINE
  5
149
330
2
100
AcDbEntity
  8
画層1
 62
     0
100
AcDbLine
 10
153.0
 20
148.0
 30
0.0
 11
153.0
 21
148.0
 31
0.0
  0
LINE
  5
14A
330
2
100
AcDbEntity
  8
画層1
 62
     0
100
AcDbLine
 10
163.0
 20
148.0
 30
0.0
 11
163.0
 21
148.0
 31
0.0
  0
LINE
  5
14B
330
2
100
AcDbEntity
  8
画層1
 62
     0
100
AcDbLine
 10
164.0
 20
148.0
 30
0.0
 11
164.0
 21
147.0
 31
0.0
  0
LINE
  5
14C
330
2
100
AcDbEntity
  8
画層1
 62
     0
100
AcDbLine
 10
163.0
 20
148.0
 30
0.0
 11
163.0
 21
148.0
 31
0.0
  0
LINE
  5
14D
330
2
100
AcDbEntity
  8
画層1
 62
     0
100
AcDbLine
 10
163.0
 20
148.0
 30
0.0
 11
163.0
 21
148.0
 31
0.0
  0
LINE
  5
14E
330
2
100
AcDbEntity
  8
画層1
 62
     0
100
AcDbLine
 10
164.0
 20
148.0
 30
0.0
 11
163.0
 21
148.0
 31
0.0
  0
LINE
  5
14F
330
2
100
AcDbEntity
  8
画層1
 62
     0
100
AcDbLine
 10
164.0
 20
147.0
 30
0.0
 11
164.0
 21
148.0
 31
0.0
  0
LINE
  5
150
330
2
100
AcDbEntity
  8
画層1
 62
     0
100
AcDbLine
 10
164.0
 20
147.0
 30
0.0
 11
164.0
 21
148.0
 31
0.0
  0
LINE
  5
151
330
2
100
AcDbEntity
  8
画層1
 62
     0
100
AcDbLine
 10
165.0
 20
147.0
 30
0.0
 11
164.0
 21
147.0
 31
0.0
  0
LINE
  5
152
330
2
100
AcDbEntity
  8
画層1
 62
     0
100
AcDbLine
 10
165.0
 20
147.0
 30
0.0
 11
165.0
 21
147.0
 31
0.0
  0
LINE
  5
153
330
2
100
AcDbEntity
  8
画層1
 62
     0
100
AcDbLine
 10
166.0
 20
147.0
 30
0.0
 11
165.0
 21
147.0
 31
0.0
  0
LINE
  5
154
330
2
100
AcDbEntity
  8
画層1
 62
     0
100
AcDbLine
 10
166.0
 20
146.0
 30
0.0
 11
166.0
 21
147.0
 31
0.0
  0
LINE
  5
155
330
2
100
AcDbEntity
  8
画層1
 62
     0
100
AcDbLine
 10
166.0
 20
146.0
 30
0.0
 11
166.0
 21
146.0
 31
0.0
  0
LINE
  5
156
330
2
100
AcDbEntity
  8
画層1
 62
     0
100
AcDbLine
 10
166.0
 20
146.0
 30
0.0
 11
166.0
 21
146.0
 31
0.0
  0
LINE
  5
157
330
2
100
AcDbEntity
  8
画層1
 62
     0
100
AcDbLine
 10
163.0
 20
148.0
 30
0.0
 11
164.0
 21
149.0
 31
0.0
  0
LINE
  5
158
330
2
100
AcDbEntity
  8
画層1
 62
     0
100
AcDbLine
 10
162.0
 20
150.0
 30
0.0
 11
162.0
 21
150.0
 31
0.0
  0
ARC
  5
159
330
2
100
AcDbEntity
  8
画層1
 62
     0
100
AcDbCircle
 10
166.0
 20
157.0
 30
0.0
 40
1.0
100
AcDbArc
 50
180.0
 51
270.0
  0
ARC
  5
15A
330
2
100
AcDbEntity
  8
画層1
 62
     0
100
AcDbCircle
 10
182.7428620629625
 20
117.2178362324093
 30
0.0
 40
32.80625941916989
100
AcDbArc
 50
87.80388440673089
 51
118.6771554236433
  0
ARC
  5
15B
330
2
100
AcDbEntity
  8
画層1
 62
     0
100
AcDbCircle
 10
185.5456415452963
 20
108.2596868755149
 30
0.0
 40
43.76761359743689
100
AcDbArc
 50
92.02380590632705
 51
114.3497649576999
  0
LINE
  5
15C
330
2
100
AcDbEntity
  8
画層1
 62
     0
100
AcDbLine
 10
171.0
 20
152.0
 30
0.0
 11
185.0
 21
152.0
 31
0.0
  0
LINE
  5
15D
330
2
100
AcDbEntity
  8
画層1
 62
     0
100
AcDbLine
 10
167.0
 20
146.0
 30
0.0
 11
167.0
 21
146.0
 31
0.0
  0
LINE
  5
15E
330
2
100
AcDbEntity
  8
画層1
 62
     0
100
AcDbLine
 10
167.0
 20
146.0
 30
0.0
 11
167.0
 21
146.0
 31
0.0
  0
ARC
  5
15F
330
2
100
AcDbEntity
  8
画層1
 62
     0
100
AcDbCircle
 10
167.0
 20
149.0
 30
0.0
 40
1.0
100
AcDbArc
 50
248.0
 51
300.0
  0
LINE
  5
160
330
2
100
AcDbEntity
  8
画層1
 62
     0
100
AcDbLine
 10
171.0
 20
150.0
 30
0.0
 11
171.0
 21
152.0
 31
0.0
  0
ARC
  5
161
330
2
100
AcDbEntity
  8
画層1
 62
     0
100
AcDbCircle
 10
181.0
 20
157.0
 30
0.0
 40
1.0
100
AcDbArc
 50
180.0
 51
270.0
  0
LINE
  5
162
330
2
100
AcDbEntity
  8
画層1
 62
     0
100
AcDbLine
 10
185.0
 20
152.0
 30
0.0
 11
185.0
 21
152.0
 31
0.0
  0
LINE
  5
163
330
2
100
AcDbEntity
  8
画層1
 62
     0
100
AcDbLine
 10
184.0
 20
152.0
 30
0.0
 11
185.0
 21
152.0
 31
0.0
  0
LINE
  5
164
330
2
100
AcDbEntity
  8
画層1
 62
     0
100
AcDbLine
 10
193.0
 20
154.0
 30
0.0
 11
193.0
 21
150.0
 31
0.0
  0
LINE
  5
165
330
2
100
AcDbEntity
  8
画層1
 62
     0
100
AcDbLine
 10
190.0
 20
150.0
 30
0.0
 11
193.0
 21
154.0
 31
0.0
  0
LINE
  5
166
330
2
100
AcDbEntity
  8
画層1
 62
     0
100
AcDbLine
 10
254.0
 20
152.0
 30
0.0
 11
261.0
 21
152.0
 31
0.0
  0
LINE
  5
168
330
2
100
AcDbEntity
  8
画層1
 62
     0
100
AcDbLine
 10
250.0
 20
154.0
 30
0.0
 11
254.0
 21
152.0
 31
0.0
  0
LINE
  5
169
330
2
100
AcDbEntity
  8
画層1
 62
     0
100
AcDbLine
 10
250.0
 20
150.0
 30
0.0
 11
250.0
 21
154.0
 31
0.0
  0
LINE
  5
16A
330
2
100
AcDbEntity
  8
画層1
 62
     0
100
AcDbLine
 10
254.0
 20
152.0
 30
0.0
 11
258.0
 21
152.0
 31
0.0
  0
LINE
  5
16B
330
2
100
AcDbEntity
  8
画層1
 62
     0
100
AcDbLine
 10
254.0
 20
150.0
 30
0.0
 11
254.0
 21
152.0
 31
0.0
  0
ARC
  5
16C
330
2
100
AcDbEntity
  8
画層1
 62
     0
100
AcDbCircle
 10
251.0
 20
157.0
 30
0.0
 40
1.0
100
AcDbArc
 50
270.0
 51
0.0
  0
ARC
  5
16D
330
2
100
AcDbEntity
  8
画層1
 62
     0
100
AcDbCircle
 10
251.0
 20
157.0
 30
0.0
 40
1.0
100
AcDbArc
 50
270.0
 51
0.0
  0
LINE
  5
16F
330
2
100
AcDbEntity
  8
画層1
 62
     0
100
AcDbLine
 10
258.0
 20
152.0
 30
0.0
 11
258.0
 21
152.0
 31
0.0
  0
LINE
  5
17A
330
2
100
AcDbEntity
  8
画層1
 62
     0
100
AcDbLine
 10
262.0
 20
154.6999999999998
 30
0.0
 11
262.0
 21
153.0
 31
0.0
  0
ARC
  5
17B
330
2
100
AcDbEntity
  8
画層1
 62
     0
100
AcDbCircle
 10
260.787867965644
 20
153.2121320343559
 30
0.0
 40
1.23055437454498
100
AcDbArc
 50
279.926654995791
 51
350.0733450042134
  0
LWPOLYLINE
  5
17D
330
2
100
AcDbEntity
  8
画層1
 62
     0
100
AcDbPolyline
 90
        4
 70
     1
 43
0.0
 10
216.0
 20
223.0
 10
238.0
 20
223.0
 10
238.0
 20
222.0
 10
216.0
 20
222.0
  0
LWPOLYLINE
  5
17E
330
2
100
AcDbEntity
  8
画層1
 62
     0
100
AcDbPolyline
 90
        4
 70
     1
 43
0.0
 10
216.0
 20
227.0
 10
238.0
 20
227.0
 10
238.0
 20
225.0
 10
216.0
 20
225.0
  0
LINE
  5
17F
330
2
100
AcDbEntity
  8
画層1
 62
     0
100
AcDbLine
 10
251.0
 20
219.0
 30
0.0
 11
181.0
 21
219.0
 31
0.0
  0
LINE
  5
180
330
2
100
AcDbEntity
  8
画層1
 62
     0
100
AcDbLine
 10
251.0
 20
236.0
 30
0.0
 11
166.0
 21
236.0
 31
0.0
  0
LINE
  5
181
330
2
100
AcDbEntity
  8
画層1
 62
     0
100
AcDbLine
 10
249.0
 20
238.0
 30
0.0
 11
193.0
 21
238.0
 31
0.0
  0
LINE
  5
182
330
2
100
AcDbEntity
  8
画層1
 62
     0
100
AcDbLine
 10
184.0
 20
242.0
 30
0.0
 11
254.0
 21
242.0
 31
0.0
  0
LWPOLYLINE
  5
183
330
2
100
AcDbEntity
  8
画層1
 62
     0
100
AcDbPolyline
 90
        4
 70
     1
 43
0.0
 10
216.0
 20
230.0
 10
238.0
 20
230.0
 10
238.0
 20
228.0
 10
216.0
 20
228.0
  0
LWPOLYLINE
  5
184
330
2
100
AcDbEntity
  8
画層1
 62
     0
100
AcDbPolyline
 90
        4
 70
     1
 43
0.0
 10
216.0
 20
233.0
 10
238.0
 20
233.0
 10
238.0
 20
231.0
 10
216.0
 20
231.0
  0
LINE
  5
185
330
2
100
AcDbEntity
  8
画層1
  6
CENTER
 62
     0
100
AcDbLine
 10
151.0
 20
196.0
 30
0.0
 11
264.0
 21
196.0
 31
0.0
  0
DIMENSION
  5
186
330
2
100
AcDbEntity
  8
画層1
 62
     0
100
AcDbDimension
  2
*D6
 10
262.0
 20
258.0
 30
0.0
 11
206.4999999999999
 21
260.4999999999999
 31
0.0
 70
    32
 71
     5
 42
-1.0
  3
STANDARD_WS
100
AcDbAlignedDimension
 13
151.0
 23
251.0
 33
0.0
 14
262.0
 24
251.0
 34
0.0
100
AcDbRotatedDimension
1001
ACAD
1000
DSTYLE
1002
{
1070
   340
1005
25
1002
}
  0
DIMENSION
  5
193
330
2
100
AcDbEntity
  8
画層1
 62
     0
100
AcDbDimension
  2
*D7
 10
162.0
 20
251.0
 30
0.0
 11
156.4999999999999
 21
253.5
 31
0.0
 70
    32
 71
     5
 42
-1.0
  3
STANDARD_WS
100
AcDbAlignedDimension
 13
151.0
 23
243.0
 33
0.0
 14
162.0
 24
244.0
 34
0.0
100
AcDbRotatedDimension
1001
ACAD
1000
DSTYLE
1002
{
1070
   340
1005
25
1002
}
  0
ARC
  5
1A0
330
2
100
AcDbEntity
  8
画層1
 62
     0
100
AcDbCircle
 10
184.788273498465
 20
238.9999999999999
 30
0.0
 40
1.022168338118552
100
AcDbArc
 50
281.9544892278111
 51
78.04551077218956
  0
LINE
  5
1A1
330
2
100
AcDbEntity
  8
画層1
 62
     0
100
AcDbLine
 10
154.0
 20
244.0
 30
0.0
 11
154.0
 21
196.0
 31
0.0
  0
LINE
  5
1A2
330
2
100
AcDbEntity
  8
画層1
 62
     0
100
AcDbLine
 10
176.0
 20
187.0
 30
0.0
 11
176.0
 21
169.0
 31
0.0
  0
LINE
  5
1A3
330
2
100
AcDbEntity
  8
画層1
 62
     0
100
AcDbLine
 10
172.0
 20
187.0
 30
0.0
 11
172.0
 21
169.0
 31
0.0
  0
ARC
  5
1A4
330
2
100
AcDbEntity
  8
画層1
 62
     0
100
AcDbCircle
 10
173.9999999999999
 20
168.7101004972399
 30
0.0
 40
2.020901215225609
100
AcDbArc
 50
171.752432539853
 51
8.247567460146719
  0
ARC
  5
1A5
330
2
100
AcDbEntity
  8
画層1
 62
     0
100
AcDbCircle
 10
174.0
 20
187.2898995027599
 30
0.0
 40
2.020901215225633
100
AcDbArc
 50
351.7524325398539
 51
188.247567460146
  0
LINE
  5
1A6
330
2
100
AcDbEntity
  8
画層1
 62
     0
100
AcDbLine
 10
167.0
 20
246.0
 30
0.0
 11
166.0
 21
246.0
 31
0.0
  0
LINE
  5
1A7
330
2
100
AcDbEntity
  8
画層1
 62
     0
100
AcDbLine
 10
162.0
 20
242.0
 30
0.0
 11
172.379386941785
 21
242.0
 31
0.0
  0
LINE
  5
1A8
330
2
100
AcDbEntity
  8
画層1
 62
     0
100
AcDbLine
 10
164.0
 20
243.0
 30
0.0
 11
167.0
 21
244.0
 31
0.0
  0
LINE
  5
1A9
330
2
100
AcDbEntity
  8
画層1
 62
     0
100
AcDbLine
 10
185.0
 20
238.0
 30
0.0
 11
162.0
 21
238.0
 31
0.0
  0
LINE
  5
1AA
330
2
100
AcDbEntity
  8
画層1
 62
     0
100
AcDbLine
 10
153.0
 20
244.0
 30
0.0
 11
162.0
 21
244.0
 31
0.0
  0
LINE
  5
1AB
330
2
100
AcDbEntity
  8
画層1
 62
     0
100
AcDbLine
 10
152.2
 20
244.0
 30
0.0
 11
153.0
 21
244.0
 31
0.0
  0
LINE
  5
1AC
330
2
100
AcDbEntity
  8
画層1
 62
     0
100
AcDbLine
 10
152.2
 20
244.0
 30
0.0
 11
154.0
 21
244.0
 31
0.0
  0
LINE
  5
1AE
330
2
100
AcDbEntity
  8
画層1
 62
     0
100
AcDbLine
 10
153.0
 20
244.0
 30
0.0
 11
153.0
 21
244.0
 31
0.0
  0
ARC
  5
1AF
330
2
100
AcDbEntity
  8
画層1
 62
     0
100
AcDbCircle
 10
166.0
 20
235.0
 30
0.0
 40
1.0
100
AcDbArc
 50
90.0
 51
180.0
  0
LINE
  5
1B0
330
2
100
AcDbEntity
  8
画層1
 62
     0
100
AcDbLine
 10
163.0
 20
244.0
 30
0.0
 11
163.0
 21
244.0
 31
0.0
  0
LINE
  5
1B1
330
2
100
AcDbEntity
  8
画層1
 62
     0
100
AcDbLine
 10
163.0
 20
244.0
 30
0.0
 11
163.0
 21
244.0
 31
0.0
  0
LINE
  5
1B2
330
2
100
AcDbEntity
  8
画層1
 62
     0
100
AcDbLine
 10
163.0
 20
244.0
 30
0.0
 11
163.0
 21
244.0
 31
0.0
  0
LINE
  5
1B3
330
2
100
AcDbEntity
  8
画層1
 62
     0
100
AcDbLine
 10
163.0
 20
244.0
 30
0.0
 11
164.0
 21
243.0
 31
0.0
  0
LINE
  5
1B4
330
2
100
AcDbEntity
  8
画層1
 62
     0
100
AcDbLine
 10
162.0
 20
242.0
 30
0.0
 11
162.0
 21
242.0
 31
0.0
  0
LINE
  5
1B5
330
2
100
AcDbEntity
  8
画層1
 62
     0
100
AcDbLine
 10
164.0
 20
244.0
 30
0.0
 11
164.0
 21
245.0
 31
0.0
  0
LINE
  5
1B6
330
2
100
AcDbEntity
  8
画層1
 62
     0
100
AcDbLine
 10
164.0
 20
245.0
 30
0.0
 11
164.0
 21
244.0
 31
0.0
  0
LINE
  5
1B7
330
2
100
AcDbEntity
  8
画層1
 62
     0
100
AcDbLine
 10
164.0
 20
244.0
 30
0.0
 11
163.0
 21
244.0
 31
0.0
  0
LINE
  5
1B8
330
2
100
AcDbEntity
  8
画層1
 62
     0
100
AcDbLine
 10
166.0
 20
246.0
 30
0.0
 11
166.0
 21
246.0
 31
0.0
  0
LINE
  5
1B9
330
2
100
AcDbEntity
  8
画層1
 62
     0
100
AcDbLine
 10
166.0
 20
246.0
 30
0.0
 11
166.0
 21
246.0
 31
0.0
  0
LINE
  5
1BA
330
2
100
AcDbEntity
  8
画層1
 62
     0
100
AcDbLine
 10
166.0
 20
246.0
 30
0.0
 11
166.0
 21
245.0
 31
0.0
  0
LINE
  5
1BB
330
2
100
AcDbEntity
  8
画層1
 62
     0
100
AcDbLine
 10
166.0
 20
245.0
 30
0.0
 11
165.0
 21
245.0
 31
0.0
  0
LINE
  5
1BC
330
2
100
AcDbEntity
  8
画層1
 62
     0
100
AcDbLine
 10
165.0
 20
245.0
 30
0.0
 11
165.0
 21
245.0
 31
0.0
  0
LINE
  5
1BD
330
2
100
AcDbEntity
  8
画層1
 62
     0
100
AcDbLine
 10
165.0
 20
245.0
 30
0.0
 11
164.0
 21
245.0
 31
0.0
  0
LINE
  5
1BE
330
2
100
AcDbEntity
  8
画層1
 62
     0
100
AcDbLine
 10
164.0
 20
245.0
 30
0.0
 11
164.0
 21
244.0
 31
0.0
  0
ARC
  5
1BF
330
2
100
AcDbEntity
  8
画層1
 62
     0
100
AcDbCircle
 10
181.0
 20
218.0
 30
0.0
 40
1.0
100
AcDbArc
 50
90.0
 51
180.0
  0
ARC
  5
1C0
330
2
100
AcDbEntity
  8
画層1
 62
     0
100
AcDbCircle
 10
182.1908946821912
 20
268.9839351149438
 30
0.0
 40
27.04451176003051
100
AcDbArc
 50
238.1959886094846
 51
273.8355863430274
  0
ARC
  5
1C1
330
2
100
AcDbEntity
  8
画層1
 62
     0
100
AcDbCircle
 10
185.5456415452966
 20
283.7403131244859
 30
0.0
 40
43.7676135974378
100
AcDbArc
 50
245.6502350423
 51
267.9761940936725
  0
LINE
  5
1C2
330
2
100
AcDbEntity
  8
画層1
 62
     0
100
AcDbLine
 10
171.0
 20
240.0
 30
0.0
 11
185.0
 21
240.0
 31
0.0
  0
LINE
  5
1C3
330
2
100
AcDbEntity
  8
画層1
 62
     0
100
AcDbLine
 10
171.0
 20
242.0
 30
0.0
 11
171.0
 21
240.0
 31
0.0
  0
LINE
  5
1C4
330
2
100
AcDbEntity
  8
画層1
 62
     0
100
AcDbLine
 10
168.0
 20
246.0
 30
0.0
 11
167.0
 21
246.0
 31
0.0
  0
LINE
  5
1C5
330
2
100
AcDbEntity
  8
画層1
 62
     0
100
AcDbLine
 10
167.0
 20
246.0
 30
0.0
 11
167.0
 21
246.0
 31
0.0
  0
ARC
  5
1C6
330
2
100
AcDbEntity
  8
画層1
 62
     0
100
AcDbCircle
 10
167.0
 20
243.0
 30
0.0
 40
1.0
100
AcDbArc
 50
60.0
 51
112.0
  0
LINE
  5
1C7
330
2
100
AcDbEntity
  8
画層1
 62
     0
100
AcDbLine
 10
185.0
 20
240.0
 30
0.0
 11
185.0
 21
240.0
 31
0.0
  0
LINE
  5
1C8
330
2
100
AcDbEntity
  8
画層1
 62
     0
100
AcDbLine
 10
184.0
 20
240.0
 30
0.0
 11
185.0
 21
240.0
 31
0.0
  0
LWPOLYLINE
  5
1C9
330
2
100
AcDbEntity
  8
画層1
 62
     0
100
AcDbPolyline
 90
        4
 70
     1
 43
0.0
 10
191.0
 20
223.0
 10
213.0
 20
223.0
 10
213.0
 20
222.0
 10
191.0
 20
222.0
  0
LWPOLYLINE
  5
1CA
330
2
100
AcDbEntity
  8
画層1
 62
     0
100
AcDbPolyline
 90
        4
 70
     1
 43
0.0
 10
191.0
 20
227.0
 10
213.0
 20
227.0
 10
213.0
 20
225.0
 10
191.0
 20
225.0
  0
LWPOLYLINE
  5
1CB
330
2
100
AcDbEntity
  8
画層1
 62
     0
100
AcDbPolyline
 90
        4
 70
     1
 43
0.0
 10
191.0
 20
233.0
 10
213.0
 20
233.0
 10
213.0
 20
231.0
 10
191.0
 20
231.0
  0
LWPOLYLINE
  5
1CC
330
2
100
AcDbEntity
  8
画層1
 62
     0
100
AcDbPolyline
 90
        4
 70
     1
 43
0.0
 10
191.0
 20
230.0
 10
213.0
 20
230.0
 10
213.0
 20
228.0
 10
191.0
 20
228.0
  0
LINE
  5
1CD
330
2
100
AcDbEntity
  8
画層1
 62
     0
100
AcDbLine
 10
193.0
 20
242.0
 30
0.0
 11
193.0
 21
238.0
 31
0.0
  0
LINE
  5
1CE
330
2
100
AcDbEntity
  8
画層1
 62
     0
100
AcDbLine
 10
193.0
 20
238.0
 30
0.0
 11
190.0
 21
242.0
 31
0.0
  0
LINE
  5
1CF
330
2
100
AcDbEntity
  8
画層1
 62
     0
100
AcDbLine
 10
254.0
 20
240.0
 30
0.0
 11
261.0
 21
240.0
 31
0.0
  0
LINE
  5
1D4
330
2
100
AcDbEntity
  8
画層1
 62
     0
100
AcDbLine
 10
254.0
 20
221.3999999999999
 30
0.0
 11
261.6999999999999
 21
221.3999999999999
 31
0.0
  0
LINE
  5
279
330
2
100
AcDbEntity
  8
画層1
 62
     0
100
AcDbLine
 10
254.0
 20
228.5999999999997
 30
0.0
 11
254.0
 21
221.3999999999999
 31
0.0
  0
ARC
  5
2AE
330
2
100
AcDbEntity
  8
画層1
 62
     0
100
AcDbCircle
 10
251.0
 20
218.0
 30
0.0
 40
1.0
100
AcDbArc
 50
0.0
 51
90.0
  0
LINE
  5
2C9
330
2
100
AcDbEntity
  8
画層1
 62
     0
100
AcDbLine
 10
249.0
 20
238.0
 30
0.0
 11
254.0
 21
240.0
 31
0.0
  0
LINE
  5
2CA
330
2
100
AcDbEntity
  8
画層1
 62
     0
100
AcDbLine
 10
249.0
 20
242.0
 30
0.0
 11
249.0
 21
238.0
 31
0.0
  0
ARC
  5
2CF
330
2
100
AcDbEntity
  8
画層1
 62
     0
100
AcDbCircle
 10
251.0
 20
235.0
 30
0.0
 40
1.0
100
AcDbArc
 50
0.0
 51
90.0
  0
LINE
  5
2E5
330
2
100
AcDbEntity
  8
画層1
 62
     0
100
AcDbLine
 10
254.0
 20
240.0
 30
0.0
 11
258.0
 21
240.0
 31
0.0
  0
LINE
  5
2E6
330
2
100
AcDbEntity
  8
画層1
 62
     0
100
AcDbLine
 10
254.0
 20
242.0
 30
0.0
 11
254.0
 21
240.0
 31
0.0
  0
LINE
  5
2E7
330
2
100
AcDbEntity
  8
画層1
 62
     0
100
AcDbLine
 10
258.0
 20
240.0
 30
0.0
 11
258.0
 21
240.0
 31
0.0
  0
LINE
  5
2E8
330
2
100
AcDbEntity
  8
画層1
 62
     0
100
AcDbLine
 10
262.0
 20
204.4999999999999
 30
0.0
 11
262.0
 21
204.0
 31
0.0
  0
LINE
  5
2F1
330
2
100
AcDbEntity
  8
画層1
 62
     0
100
AcDbLine
 10
262.0
 20
179.5999999999999
 30
0.0
 11
262.0
 21
179.0999999999999
 31
0.0
  0
LINE
  5
2F2
330
2
100
AcDbEntity
  8
画層1
 62
     0
100
AcDbLine
 10
261.9999999999999
 20
187.8999999999999
 30
0.0
 11
262.0
 21
187.3999999999999
 31
0.0
  0
LINE
  5
2FC
330
2
100
AcDbEntity
  8
画層1
 62
     0
100
AcDbLine
 10
262.0
 20
212.7999999999999
 30
0.0
 11
262.0
 21
212.2999999999999
 31
0.0
  0
LINE
  5
300
330
2
100
AcDbEntity
  8
画層1
 62
     0
100
AcDbLine
 10
262.0
 20
239.0
 30
0.0
 11
262.0
 21
237.1999999999998
 31
0.0
  0
ARC
  5
305
330
2
100
AcDbEntity
  8
画層1
 62
     0
100
AcDbCircle
 10
260.787867965644
 20
238.787867965644
 30
0.0
 40
1.230554374545004
100
AcDbArc
 50
9.926654995789608
 51
80.07334500421192
  0
ELLIPSE
  5
39F
330
2
100
AcDbEntity
  8
画層1
 62
     0
100
AcDbEllipse
 10
69.0
 20
177.0
 30
0.0
 11
-9.0
 21
0.0
 31
0.0
210
0.0
220
0.0
230
1.0
 40
0.6666666666666666
 41
0.0
 42
6.283185307179584
  0
ELLIPSE
  5
3A0
330
2
100
AcDbEntity
  8
画層1
 62
     0
100
AcDbEllipse
 10
89.0
 20
177.0
 30
0.0
 11
-9.0
 21
0.0
 31
0.0
210
0.0
220
0.0
230
1.0
 40
0.6666666666666666
 41
0.0
 42
6.283185307179584
  0
ELLIPSE
  5
3A1
330
2
100
AcDbEntity
  8
画層1
 62
     0
100
AcDbEllipse
 10
108.9700562786033
 20
177.0
 30
0.0
 11
-9.0
 21
0.0
 31
0.0
210
0.0
220
0.0
230
1.0
 40
0.6666666666666666
 41
0.0
 42
6.283185307179584
  0
ELLIPSE
  5
3A2
330
2
100
AcDbEntity
  8
画層1
 62
     0
100
AcDbEllipse
 10
108.9700562786033
 20
161.6661770377921
 30
0.0
 11
-9.0
 21
0.0
 31
0.0
210
0.0
220
0.0
230
1.0
 40
0.6666666666666666
 41
0.0
 42
6.283185307179584
  0
ELLIPSE
  5
3A4
330
2
100
AcDbEntity
  8
画層1
 62
     0
100
AcDbEllipse
 10
49.0
 20
161.6661770377921
 30
0.0
 11
-9.0
 21
0.0
 31
0.0
210
0.0
220
0.0
230
1.0
 40
0.6666666666666666
 41
0.0
 42
6.283185307179584
  0
LINE
  5
4D0
330
2
100
AcDbEntity
  8
画層1
 62
     0
100
AcDbLine
 10
254.0
 20
162.1999999999998
 30
0.0
 11
254.0
 21
155.0
 31
0.0
  0
LINE
  5
4D1
330
2
100
AcDbEntity
  8
画層1
 62
     0
100
AcDbLine
 10
254.4699999999999
 20
155.0999999999999
 30
0.0
 11
254.4699999999999
 21
162.0999999999999
 31
0.0
  0
LINE
  5
4D2
330
2
100
AcDbEntity
  8
画層1
 62
     0
100
AcDbLine
 10
254.97
 20
162.0999999999999
 30
0.0
 11
254.97
 21
155.0999999999999
 31
0.0
  0
ARC
  5
4D3
330
2
100
AcDbEntity
  8
画層1
 62
     0
100
AcDbCircle
 10
245.1599999999999
 20
158.3499999999999
 30
0.0
 40
11.44118730072771
100
AcDbArc
 50
4.260000000000263
 51
19.12999999999945
  0
ARC
  5
4D4
330
2
100
AcDbEntity
  8
画層1
 62
     0
100
AcDbCircle
 10
245.0699999999999
 20
158.6
 30
0.0
 40
10.50674104301652
100
AcDbArc
 50
4.369999999999958
 51
19.46000000000037
  0
LINE
  5
4D5
330
2
100
AcDbEntity
  8
画層1
 62
     0
100
AcDbLine
 10
256.57
 20
161.0199999999998
 30
0.0
 11
256.57
 21
156.1799999999998
 31
0.0
  0
ARC
  5
4D6
330
2
100
AcDbEntity
  8
画層1
 62
     0
100
AcDbCircle
 10
251.5299999999999
 20
158.6
 30
0.0
 40
7.540000001812724
100
AcDbArc
 50
3.800000000000371
 51
15.98999999999949
  0
ARC
  5
4D7
330
2
100
AcDbEntity
  8
画層1
 62
     0
100
AcDbCircle
 10
245.0699999999999
 20
158.6
 30
0.0
 40
10.50674104301652
100
AcDbArc
 50
340.5399999999996
 51
355.63
  0
LINE
  5
4D8
330
2
100
AcDbEntity
  8
画層1
 62
     0
100
AcDbLine
 10
255.9699999999998
 20
155.0999999999999
 30
0.0
 11
254.0
 21
155.0999999999999
 31
0.0
  0
LINE
  5
4D9
330
2
100
AcDbEntity
  8
画層1
 62
     0
100
AcDbLine
 10
255.5399999999999
 20
159.3999999999998
 30
0.0
 11
254.97
 21
159.3999999999998
 31
0.0
  0
LINE
  5
4DA
330
2
100
AcDbEntity
  8
画層1
 62
     0
100
AcDbLine
 10
255.5399999999999
 20
157.7999999999998
 30
0.0
 11
254.97
 21
157.7999999999998
 31
0.0
  0
LINE
  5
4DB
330
2
100
AcDbEntity
  8
画層1
 62
     0
100
AcDbLine
 10
254.0
 20
155.0
 30
0.0
 11
261.6999999999999
 21
155.0
 31
0.0
  0
ARC
  5
4DC
330
2
100
AcDbEntity
  8
画層1
 62
     0
100
AcDbCircle
 10
254.1999999999999
 20
155.1999999999999
 30
0.0
 40
0.2
100
AcDbArc
 50
180.0
 51
270.0
  0
LINE
  5
4DD
330
2
100
AcDbEntity
  8
画層1
 62
     0
100
AcDbLine
 10
257.1499999999999
 20
155.6899999999999
 30
0.0
 11
257.97
 21
155.81
 31
0.0
  0
ARC
  5
4DE
330
2
100
AcDbEntity
  8
画層1
 62
     0
100
AcDbCircle
 10
257.8199999999999
 20
156.7999999999998
 30
0.0
 40
1.0
100
AcDbArc
 50
278.530000000001
 51
344.0100000000005
  0
LINE
  5
4DF
330
2
100
AcDbEntity
  8
画層1
 62
     0
100
AcDbLine
 10
259.0599999999999
 20
159.0999999999999
 30
0.0
 11
258.0699999999999
 21
159.0999999999999
 31
0.0
  0
LINE
  5
4E0
330
2
100
AcDbEntity
  8
画層1
 62
     0
100
AcDbLine
 10
258.0699999999999
 20
158.0999999999999
 30
0.0
 11
259.0599999999999
 21
158.0999999999999
 31
0.0
  0
ARC
  5
4E1
330
2
100
AcDbEntity
  8
画層1
 62
     0
100
AcDbCircle
 10
251.5299999999999
 20
158.6
 30
0.0
 40
7.540000001812724
100
AcDbArc
 50
344.0100000000005
 51
356.1999999999995
  0
LINE
  5
4E2
330
2
100
AcDbEntity
  8
画層1
 62
     0
100
AcDbLine
 10
258.0699999999999
 20
159.0999999999999
 30
0.0
 11
258.0699999999999
 21
158.0999999999999
 31
0.0
  0
ARC
  5
4E3
330
2
100
AcDbEntity
  8
画層1
 62
     0
100
AcDbCircle
 10
245.1599999999999
 20
158.8499999999999
 30
0.0
 40
11.44118729799423
100
AcDbArc
 50
340.8700000000005
 51
355.7399999999996
  0
LINE
  5
4E4
330
2
100
AcDbEntity
  8
画層1
 62
     0
100
AcDbLine
 10
256.4999999999999
 20
157.2999999999999
 30
0.0
 11
256.4999999999999
 21
155.0
 31
0.0
  0
LINE
  5
4E5
330
2
100
AcDbEntity
  8
画層1
 62
     0
100
AcDbLine
 10
256.57
 20
159.1999999999998
 30
0.0
 11
256.1699999999999
 21
159.1999999999998
 31
0.0
  0
LINE
  5
4E6
330
2
100
AcDbEntity
  8
画層1
 62
     0
100
AcDbLine
 10
256.1699999999999
 20
158.0
 30
0.0
 11
256.57
 21
158.0
 31
0.0
  0
LINE
  5
4E7
330
2
100
AcDbEntity
  8
画層1
 62
     0
100
AcDbLine
 10
256.1699999999999
 20
159.1999999999998
 30
0.0
 11
256.1699999999999
 21
158.0
 31
0.0
  0
ARC
  5
4E8
330
2
100
AcDbEntity
  8
画層1
 62
     0
100
AcDbCircle
 10
257.0699999999999
 20
156.1799999999998
 30
0.0
 40
0.5
100
AcDbArc
 50
180.0
 51
278.530000000001
  0
ARC
  5
4E9
330
2
100
AcDbEntity
  8
画層1
 62
     0
100
AcDbCircle
 10
261.6999999999999
 20
154.6999999999998
 30
0.0
 40
0.3
100
AcDbArc
 50
0.0
 51
90.0
  0
LINE
  5
4EA
330
2
100
AcDbEntity
  8
画層1
 62
     0
100
AcDbLine
 10
254.0
 20
162.0999999999999
 30
0.0
 11
255.9699999999998
 21
162.0999999999999
 31
0.0
  0
LINE
  5
4EB
330
2
100
AcDbEntity
  8
画層1
 62
     0
100
AcDbLine
 10
261.719017953917
 20
162.1999999999998
 30
0.0
 11
254.0
 21
162.1999999999998
 31
0.0
  0
ARC
  5
4EC
330
2
100
AcDbEntity
  8
画層1
 62
     0
100
AcDbCircle
 10
254.1999999999999
 20
162.0
 30
0.0
 40
0.2
100
AcDbArc
 50
90.0
 51
180.0
  0
ARC
  5
4ED
330
2
100
AcDbEntity
  8
画層1
 62
     0
100
AcDbCircle
 10
257.8199999999999
 20
160.3999999999999
 30
0.0
 40
1.0
100
AcDbArc
 50
15.98999999999949
 51
81.469999999999
  0
LINE
  5
4EE
330
2
100
AcDbEntity
  8
画層1
 62
     0
100
AcDbLine
 10
257.1499999999999
 20
161.5099999999999
 30
0.0
 11
257.97
 21
161.3899999999999
 31
0.0
  0
LINE
  5
4EF
330
2
100
AcDbEntity
  8
画層1
 62
     0
100
AcDbLine
 10
256.4999999999999
 20
162.1999999999998
 30
0.0
 11
256.4999999999999
 21
159.8999999999998
 31
0.0
  0
ARC
  5
4F0
330
2
100
AcDbEntity
  8
画層1
 62
     0
100
AcDbCircle
 10
257.0699999999999
 20
161.0199999999998
 30
0.0
 40
0.5
100
AcDbArc
 50
81.469999999999
 51
180.0
  0
ARC
  5
4F1
330
2
100
AcDbEntity
  8
画層1
 62
     0
100
AcDbCircle
 10
261.719017953917
 20
162.5
 30
0.0
 40
0.3
100
AcDbArc
 50
270.0
 51
0.0
  0
ARC
  5
50A
330
2
100
AcDbEntity
  8
画層1
 62
     0
100
AcDbCircle
 10
251.5299999999999
 20
166.8999999999998
 30
0.0
 40
7.540000001812724
100
AcDbArc
 50
3.800000000000371
 51
15.98999999999949
  0
LINE
  5
50B
330
2
100
AcDbEntity
  8
画層1
 62
     0
100
AcDbLine
 10
256.57
 20
169.3199999999999
 30
0.0
 11
256.57
 21
164.4799999999999
 31
0.0
  0
ARC
  5
50C
330
2
100
AcDbEntity
  8
画層1
 62
     0
100
AcDbCircle
 10
245.0699999999999
 20
166.8999999999998
 30
0.0
 40
10.50674104301652
100
AcDbArc
 50
4.369999999999958
 51
19.46000000000037
  0
ARC
  5
50D
330
2
100
AcDbEntity
  8
画層1
 62
     0
100
AcDbCircle
 10
245.1599999999999
 20
166.6499999999999
 30
0.0
 40
11.44118730072771
100
AcDbArc
 50
4.260000000000263
 51
19.12999999999945
  0
LINE
  5
50E
330
2
100
AcDbEntity
  8
画層1
 62
     0
100
AcDbLine
 10
254.97
 20
170.3999999999998
 30
0.0
 11
254.97
 21
163.3999999999999
 31
0.0
  0
LINE
  5
50F
330
2
100
AcDbEntity
  8
画層1
 62
     0
100
AcDbLine
 10
254.4699999999999
 20
163.3999999999999
 30
0.0
 11
254.4699999999999
 21
170.3999999999998
 31
0.0
  0
LINE
  5
510
330
2
100
AcDbEntity
  8
画層1
 62
     0
100
AcDbLine
 10
254.0
 20
170.4999999999999
 30
0.0
 11
254.0
 21
163.2999999999999
 31
0.0
  0
LINE
  5
511
330
2
100
AcDbEntity
  8
画層1
 62
     0
100
AcDbLine
 10
254.0
 20
163.2999999999999
 30
0.0
 11
261.6999999999999
 21
163.2999999999999
 31
0.0
  0
ARC
  5
512
330
2
100
AcDbEntity
  8
画層1
 62
     0
100
AcDbCircle
 10
254.1999999999999
 20
163.4999999999999
 30
0.0
 40
0.2
100
AcDbArc
 50
180.0
 51
270.0
  0
LINE
  5
513
330
2
100
AcDbEntity
  8
画層1
 62
     0
100
AcDbLine
 10
255.9699999999998
 20
163.3999999999999
 30
0.0
 11
254.0
 21
163.3999999999999
 31
0.0
  0
ARC
  5
514
330
2
100
AcDbEntity
  8
画層1
 62
     0
100
AcDbCircle
 10
257.8199999999999
 20
165.0999999999999
 30
0.0
 40
1.0
100
AcDbArc
 50
278.530000000001
 51
344.0100000000005
  0
ARC
  5
515
330
2
100
AcDbEntity
  8
画層1
 62
     0
100
AcDbCircle
 10
257.0699999999999
 20
164.4799999999999
 30
0.0
 40
0.5
100
AcDbArc
 50
180.0
 51
278.530000000001
  0
LINE
  5
516
330
2
100
AcDbEntity
  8
画層1
 62
     0
100
AcDbLine
 10
256.1699999999999
 20
167.4999999999998
 30
0.0
 11
256.1699999999999
 21
166.2999999999998
 31
0.0
  0
LINE
  5
517
330
2
100
AcDbEntity
  8
画層1
 62
     0
100
AcDbLine
 10
256.1699999999999
 20
166.2999999999998
 30
0.0
 11
256.57
 21
166.2999999999998
 31
0.0
  0
LINE
  5
518
330
2
100
AcDbEntity
  8
画層1
 62
     0
100
AcDbLine
 10
256.57
 20
167.4999999999998
 30
0.0
 11
256.1699999999999
 21
167.4999999999998
 31
0.0
  0
LINE
  5
519
330
2
100
AcDbEntity
  8
画層1
 62
     0
100
AcDbLine
 10
256.4999999999999
 20
165.5999999999998
 30
0.0
 11
256.4999999999999
 21
163.2999999999999
 31
0.0
  0
ARC
  5
51A
330
2
100
AcDbEntity
  8
画層1
 62
     0
100
AcDbCircle
 10
245.1599999999999
 20
167.1499999999998
 30
0.0
 40
11.44118729799423
100
AcDbArc
 50
340.8700000000005
 51
355.7399999999996
  0
LINE
  5
51B
330
2
100
AcDbEntity
  8
画層1
 62
     0
100
AcDbLine
 10
257.1499999999999
 20
163.9899999999999
 30
0.0
 11
257.97
 21
164.1099999999999
 31
0.0
  0
LINE
  5
51C
330
2
100
AcDbEntity
  8
画層1
 62
     0
100
AcDbLine
 10
255.5399999999999
 20
166.0999999999999
 30
0.0
 11
254.97
 21
166.0999999999999
 31
0.0
  0
LINE
  5
51D
330
2
100
AcDbEntity
  8
画層1
 62
     0
100
AcDbLine
 10
255.5399999999999
 20
167.6999999999999
 30
0.0
 11
254.97
 21
167.6999999999999
 31
0.0
  0
ARC
  5
51E
330
2
100
AcDbEntity
  8
画層1
 62
     0
100
AcDbCircle
 10
245.0699999999999
 20
166.8999999999998
 30
0.0
 40
10.50674104301652
100
AcDbArc
 50
340.5399999999996
 51
355.63
  0
LINE
  5
51F
330
2
100
AcDbEntity
  8
画層1
 62
     0
100
AcDbLine
 10
258.0699999999999
 20
167.3999999999999
 30
0.0
 11
258.0699999999999
 21
166.3999999999998
 31
0.0
  0
ARC
  5
520
330
2
100
AcDbEntity
  8
画層1
 62
     0
100
AcDbCircle
 10
251.5299999999999
 20
166.8999999999998
 30
0.0
 40
7.540000001812724
100
AcDbArc
 50
344.0100000000005
 51
356.1999999999995
  0
LINE
  5
521
330
2
100
AcDbEntity
  8
画層1
 62
     0
100
AcDbLine
 10
258.0699999999999
 20
166.3999999999998
 30
0.0
 11
259.0599999999999
 21
166.3999999999998
 31
0.0
  0
LINE
  5
522
330
2
100
AcDbEntity
  8
画層1
 62
     0
100
AcDbLine
 10
259.0599999999999
 20
167.3999999999999
 30
0.0
 11
258.0699999999999
 21
167.3999999999999
 31
0.0
  0
LINE
  5
523
330
2
100
AcDbEntity
  8
画層1
 62
     0
100
AcDbLine
 10
261.6999999999999
 20
170.4999999999999
 30
0.0
 11
254.0
 21
170.4999999999999
 31
0.0
  0
ARC
  5
524
330
2
100
AcDbEntity
  8
画層1
 62
     0
100
AcDbCircle
 10
254.1999999999999
 20
170.2999999999998
 30
0.0
 40
0.2
100
AcDbArc
 50
90.0
 51
180.0
  0
LINE
  5
525
330
2
100
AcDbEntity
  8
画層1
 62
     0
100
AcDbLine
 10
254.0
 20
170.3999999999998
 30
0.0
 11
255.9699999999998
 21
170.3999999999998
 31
0.0
  0
ARC
  5
526
330
2
100
AcDbEntity
  8
画層1
 62
     0
100
AcDbCircle
 10
257.8199999999999
 20
168.6999999999999
 30
0.0
 40
1.0
100
AcDbArc
 50
15.98999999999949
 51
81.469999999999
  0
ARC
  5
527
330
2
100
AcDbEntity
  8
画層1
 62
     0
100
AcDbCircle
 10
257.0699999999999
 20
169.3199999999999
 30
0.0
 40
0.5
100
AcDbArc
 50
81.469999999999
 51
180.0
  0
LINE
  5
528
330
2
100
AcDbEntity
  8
画層1
 62
     0
100
AcDbLine
 10
256.4999999999999
 20
170.4999999999999
 30
0.0
 11
256.4999999999999
 21
168.1999999999999
 31
0.0
  0
LINE
  5
529
330
2
100
AcDbEntity
  8
画層1
 62
     0
100
AcDbLine
 10
257.1499999999999
 20
169.8099999999999
 30
0.0
 11
257.97
 21
169.6899999999998
 31
0.0
  0
ARC
  5
52A
330
2
100
AcDbEntity
  8
画層1
 62
     0
100
AcDbCircle
 10
261.6999999999999
 20
170.8
 30
0.0
 40
0.3
100
AcDbArc
 50
270.0
 51
0.0
  0
ARC
  5
52B
330
2
100
AcDbEntity
  8
画層1
 62
     0
100
AcDbCircle
 10
261.6999999999999
 20
162.9999999999999
 30
0.0
 40
0.3
100
AcDbArc
 50
0.0
 51
90.0
  0
ARC
  5
52F
330
2
100
AcDbEntity
  8
画層1
 62
     0
100
AcDbCircle
 10
261.6999999999999
 20
179.0999999999999
 30
0.0
 40
0.3
100
AcDbArc
 50
270.0
 51
0.0
  0
LINE
  5
530
330
2
100
AcDbEntity
  8
画層1
 62
     0
100
AcDbLine
 10
261.6999999999999
 20
178.7999999999999
 30
0.0
 11
254.0
 21
178.7999999999999
 31
0.0
  0
LINE
  5
531
330
2
100
AcDbEntity
  8
画層1
 62
     0
100
AcDbLine
 10
254.0
 20
178.6999999999999
 30
0.0
 11
255.9699999999998
 21
178.6999999999999
 31
0.0
  0
ARC
  5
532
330
2
100
AcDbEntity
  8
画層1
 62
     0
100
AcDbCircle
 10
254.1999999999999
 20
178.5999999999999
 30
0.0
 40
0.2
100
AcDbArc
 50
90.0
 51
180.0
  0
LINE
  5
533
330
2
100
AcDbEntity
  8
画層1
 62
     0
100
AcDbLine
 10
255.9699999999998
 20
171.6999999999998
 30
0.0
 11
254.0
 21
171.6999999999998
 31
0.0
  0
ARC
  5
534
330
2
100
AcDbEntity
  8
画層1
 62
     0
100
AcDbCircle
 10
254.1999999999999
 20
171.7999999999999
 30
0.0
 40
0.2
100
AcDbArc
 50
180.0
 51
270.0
  0
LINE
  5
535
330
2
100
AcDbEntity
  8
画層1
 62
     0
100
AcDbLine
 10
254.0
 20
171.5999999999999
 30
0.0
 11
261.6999999999999
 21
171.5999999999999
 31
0.0
  0
LINE
  5
536
330
2
100
AcDbEntity
  8
画層1
 62
     0
100
AcDbLine
 10
254.0
 20
178.7999999999999
 30
0.0
 11
254.0
 21
171.5999999999999
 31
0.0
  0
ARC
  5
537
330
2
100
AcDbEntity
  8
画層1
 62
     0
100
AcDbCircle
 10
251.5299999999999
 20
175.1999999999999
 30
0.0
 40
7.540000001812724
100
AcDbArc
 50
344.0100000000005
 51
356.1999999999995
  0
ARC
  5
538
330
2
100
AcDbEntity
  8
画層1
 62
     0
100
AcDbCircle
 10
245.0699999999999
 20
175.1999999999999
 30
0.0
 40
10.50674104301652
100
AcDbArc
 50
340.5399999999996
 51
355.63
  0
ARC
  5
539
330
2
100
AcDbEntity
  8
画層1
 62
     0
100
AcDbCircle
 10
245.1599999999999
 20
175.4499999999999
 30
0.0
 40
11.44118729799423
100
AcDbArc
 50
340.8700000000005
 51
355.7399999999996
  0
LINE
  5
53A
330
2
100
AcDbEntity
  8
画層1
 62
     0
100
AcDbLine
 10
256.4999999999999
 20
173.8999999999999
 30
0.0
 11
256.4999999999999
 21
171.5999999999999
 31
0.0
  0
LINE
  5
53B
330
2
100
AcDbEntity
  8
画層1
 62
     0
100
AcDbLine
 10
254.4699999999999
 20
171.6999999999998
 30
0.0
 11
254.4699999999999
 21
178.6999999999999
 31
0.0
  0
LINE
  5
53C
330
2
100
AcDbEntity
  8
画層1
 62
     0
100
AcDbLine
 10
254.97
 20
178.6999999999999
 30
0.0
 11
254.97
 21
171.6999999999998
 31
0.0
  0
LINE
  5
53D
330
2
100
AcDbEntity
  8
画層1
 62
     0
100
AcDbLine
 10
256.57
 20
177.6199999999999
 30
0.0
 11
256.57
 21
172.7799999999999
 31
0.0
  0
ARC
  5
53E
330
2
100
AcDbEntity
  8
画層1
 62
     0
100
AcDbCircle
 10
257.8199999999999
 20
173.3999999999998
 30
0.0
 40
1.0
100
AcDbArc
 50
278.530000000001
 51
344.0100000000005
  0
LINE
  5
53F
330
2
100
AcDbEntity
  8
画層1
 62
     0
100
AcDbLine
 10
257.1499999999999
 20
172.2899999999998
 30
0.0
 11
257.97
 21
172.4099999999999
 31
0.0
  0
ARC
  5
540
330
2
100
AcDbEntity
  8
画層1
 62
     0
100
AcDbCircle
 10
257.0699999999999
 20
172.7799999999999
 30
0.0
 40
0.5
100
AcDbArc
 50
180.0
 51
278.530000000001
  0
ARC
  5
541
330
2
100
AcDbEntity
  8
画層1
 62
     0
100
AcDbCircle
 10
257.8199999999999
 20
176.9999999999997
 30
0.0
 40
1.0
100
AcDbArc
 50
15.98999999999949
 51
81.469999999999
  0
LINE
  5
542
330
2
100
AcDbEntity
  8
画層1
 62
     0
100
AcDbLine
 10
257.1499999999999
 20
178.1099999999999
 30
0.0
 11
257.97
 21
177.9899999999997
 31
0.0
  0
LINE
  5
543
330
2
100
AcDbEntity
  8
画層1
 62
     0
100
AcDbLine
 10
256.4999999999999
 20
178.7999999999999
 30
0.0
 11
256.4999999999999
 21
176.4999999999998
 31
0.0
  0
ARC
  5
544
330
2
100
AcDbEntity
  8
画層1
 62
     0
100
AcDbCircle
 10
257.0699999999999
 20
177.6199999999999
 30
0.0
 40
0.5
100
AcDbArc
 50
81.469999999999
 51
180.0
  0
LINE
  5
545
330
2
100
AcDbEntity
  8
画層1
 62
     0
100
AcDbLine
 10
255.5399999999999
 20
175.9999999999999
 30
0.0
 11
254.97
 21
175.9999999999999
 31
0.0
  0
LINE
  5
546
330
2
100
AcDbEntity
  8
画層1
 62
     0
100
AcDbLine
 10
255.5399999999999
 20
174.3999999999999
 30
0.0
 11
254.97
 21
174.3999999999999
 31
0.0
  0
LINE
  5
547
330
2
100
AcDbEntity
  8
画層1
 62
     0
100
AcDbLine
 10
256.57
 20
175.7999999999998
 30
0.0
 11
256.1699999999999
 21
175.7999999999998
 31
0.0
  0
LINE
  5
548
330
2
100
AcDbEntity
  8
画層1
 62
     0
100
AcDbLine
 10
256.1699999999999
 20
174.5999999999999
 30
0.0
 11
256.57
 21
174.5999999999999
 31
0.0
  0
LINE
  5
549
330
2
100
AcDbEntity
  8
画層1
 62
     0
100
AcDbLine
 10
256.1699999999999
 20
175.7999999999998
 30
0.0
 11
256.1699999999999
 21
174.5999999999999
 31
0.0
  0
ARC
  5
54A
330
2
100
AcDbEntity
  8
画層1
 62
     0
100
AcDbCircle
 10
245.1599999999999
 20
174.9499999999999
 30
0.0
 40
11.44118730072771
100
AcDbArc
 50
4.260000000000263
 51
19.12999999999945
  0
ARC
  5
54B
330
2
100
AcDbEntity
  8
画層1
 62
     0
100
AcDbCircle
 10
245.0699999999999
 20
175.1999999999999
 30
0.0
 40
10.50674104301652
100
AcDbArc
 50
4.369999999999958
 51
19.46000000000037
  0
LINE
  5
54C
330
2
100
AcDbEntity
  8
画層1
 62
     0
100
AcDbLine
 10
259.0599999999999
 20
175.6999999999998
 30
0.0
 11
258.0699999999999
 21
175.6999999999998
 31
0.0
  0
LINE
  5
54D
330
2
100
AcDbEntity
  8
画層1
 62
     0
100
AcDbLine
 10
258.0699999999999
 20
174.6999999999999
 30
0.0
 11
259.0599999999999
 21
174.6999999999999
 31
0.0
  0
LINE
  5
54E
330
2
100
AcDbEntity
  8
画層1
 62
     0
100
AcDbLine
 10
258.0699999999999
 20
175.6999999999998
 30
0.0
 11
258.0699999999999
 21
174.6999999999999
 31
0.0
  0
ARC
  5
54F
330
2
100
AcDbEntity
  8
画層1
 62
     0
100
AcDbCircle
 10
251.5299999999999
 20
175.1999999999999
 30
0.0
 40
7.540000001812724
100
AcDbArc
 50
3.800000000000371
 51
15.98999999999949
  0
ARC
  5
550
330
2
100
AcDbEntity
  8
画層1
 62
     0
100
AcDbCircle
 10
261.6999999999999
 20
171.2999999999999
 30
0.0
 40
0.3
100
AcDbArc
 50
0.0
 51
90.0
  0
ARC
  5
551
330
2
100
AcDbEntity
  8
画層1
 62
     0
100
AcDbCircle
 10
261.6999999999999
 20
179.5999999999999
 30
0.0
 40
0.3
100
AcDbArc
 50
0.0
 51
90.0
  0
ARC
  5
552
330
2
100
AcDbEntity
  8
画層1
 62
     0
100
AcDbCircle
 10
261.6999999999999
 20
187.3999999999999
 30
0.0
 40
0.3
100
AcDbArc
 50
270.0
 51
0.0
  0
LINE
  5
553
330
2
100
AcDbEntity
  8
画層1
 62
     0
100
AcDbLine
 10
254.0
 20
179.8999999999999
 30
0.0
 11
261.6999999999999
 21
179.8999999999999
 31
0.0
  0
ARC
  5
554
330
2
100
AcDbEntity
  8
画層1
 62
     0
100
AcDbCircle
 10
254.1999999999999
 20
180.0999999999999
 30
0.0
 40
0.2
100
AcDbArc
 50
180.0
 51
270.0
  0
LINE
  5
555
330
2
100
AcDbEntity
  8
画層1
 62
     0
100
AcDbLine
 10
255.9699999999998
 20
179.9999999999998
 30
0.0
 11
254.0
 21
179.9999999999998
 31
0.0
  0
ARC
  5
556
330
2
100
AcDbEntity
  8
画層1
 62
     0
100
AcDbCircle
 10
254.1999999999999
 20
186.8999999999999
 30
0.0
 40
0.2
100
AcDbArc
 50
90.0
 51
180.0
  0
LINE
  5
557
330
2
100
AcDbEntity
  8
画層1
 62
     0
100
AcDbLine
 10
254.0
 20
186.9999999999999
 30
0.0
 11
255.9699999999998
 21
186.9999999999999
 31
0.0
  0
LINE
  5
558
330
2
100
AcDbEntity
  8
画層1
 62
     0
100
AcDbLine
 10
261.6999999999999
 20
187.0999999999999
 30
0.0
 11
254.0
 21
187.0999999999999
 31
0.0
  0
LINE
  5
559
330
2
100
AcDbEntity
  8
画層1
 62
     0
100
AcDbLine
 10
254.0
 20
187.0999999999999
 30
0.0
 11
254.0
 21
179.8999999999999
 31
0.0
  0
ARC
  5
55A
330
2
100
AcDbEntity
  8
画層1
 62
     0
100
AcDbCircle
 10
251.5299999999999
 20
183.4999999999999
 30
0.0
 40
7.540000001812724
100
AcDbArc
 50
3.800000000000371
 51
15.98999999999949
  0
ARC
  5
55B
330
2
100
AcDbEntity
  8
画層1
 62
     0
100
AcDbCircle
 10
245.1599999999999
 20
183.2499999999999
 30
0.0
 40
11.44118730072771
100
AcDbArc
 50
4.260000000000263
 51
19.12999999999945
  0
LINE
  5
55C
330
2
100
AcDbEntity
  8
画層1
 62
     0
100
AcDbLine
 10
256.57
 20
185.9199999999999
 30
0.0
 11
256.57
 21
181.0799999999999
 31
0.0
  0
LINE
  5
55D
330
2
100
AcDbEntity
  8
画層1
 62
     0
100
AcDbLine
 10
254.97
 20
186.9999999999999
 30
0.0
 11
254.97
 21
179.9999999999998
 31
0.0
  0
LINE
  5
55E
330
2
100
AcDbEntity
  8
画層1
 62
     0
100
AcDbLine
 10
254.4699999999999
 20
179.9999999999998
 30
0.0
 11
254.4699999999999
 21
186.9999999999999
 31
0.0
  0
ARC
  5
55F
330
2
100
AcDbEntity
  8
画層1
 62
     0
100
AcDbCircle
 10
257.8199999999999
 20
181.6999999999998
 30
0.0
 40
1.0
100
AcDbArc
 50
278.530000000001
 51
344.0100000000005
  0
LINE
  5
560
330
2
100
AcDbEntity
  8
画層1
 62
     0
100
AcDbLine
 10
256.1699999999999
 20
184.0999999999997
 30
0.0
 11
256.1699999999999
 21
182.8999999999999
 31
0.0
  0
LINE
  5
561
330
2
100
AcDbEntity
  8
画層1
 62
     0
100
AcDbLine
 10
256.1699999999999
 20
182.8999999999999
 30
0.0
 11
256.57
 21
182.8999999999999
 31
0.0
  0
LINE
  5
562
330
2
100
AcDbEntity
  8
画層1
 62
     0
100
AcDbLine
 10
256.57
 20
184.0999999999997
 30
0.0
 11
256.1699999999999
 21
184.0999999999997
 31
0.0
  0
LINE
  5
563
330
2
100
AcDbEntity
  8
画層1
 62
     0
100
AcDbLine
 10
255.5399999999999
 20
182.6999999999999
 30
0.0
 11
254.97
 21
182.6999999999999
 31
0.0
  0
ARC
  5
564
330
2
100
AcDbEntity
  8
画層1
 62
     0
100
AcDbCircle
 10
257.0699999999999
 20
181.0799999999999
 30
0.0
 40
0.5
100
AcDbArc
 50
180.0
 51
278.530000000001
  0
LINE
  5
565
330
2
100
AcDbEntity
  8
画層1
 62
     0
100
AcDbLine
 10
257.1499999999999
 20
180.5899999999997
 30
0.0
 11
257.97
 21
180.7099999999999
 31
0.0
  0
LINE
  5
566
330
2
100
AcDbEntity
  8
画層1
 62
     0
100
AcDbLine
 10
256.4999999999999
 20
182.1999999999999
 30
0.0
 11
256.4999999999999
 21
179.8999999999999
 31
0.0
  0
ARC
  5
567
330
2
100
AcDbEntity
  8
画層1
 62
     0
100
AcDbCircle
 10
245.1599999999999
 20
183.7499999999999
 30
0.0
 40
11.44118729799423
100
AcDbArc
 50
340.8700000000005
 51
355.7399999999996
  0
ARC
  5
568
330
2
100
AcDbEntity
  8
画層1
 62
     0
100
AcDbCircle
 10
245.0699999999999
 20
183.4999999999999
 30
0.0
 40
10.50674104301652
100
AcDbArc
 50
340.5399999999996
 51
355.63
  0
LINE
  5
569
330
2
100
AcDbEntity
  8
画層1
 62
     0
100
AcDbLine
 10
258.0699999999999
 20
183.9999999999998
 30
0.0
 11
258.0699999999999
 21
182.9999999999999
 31
0.0
  0
LINE
  5
56A
330
2
100
AcDbEntity
  8
画層1
 62
     0
100
AcDbLine
 10
258.0699999999999
 20
182.9999999999999
 30
0.0
 11
259.0599999999999
 21
182.9999999999999
 31
0.0
  0
LINE
  5
56B
330
2
100
AcDbEntity
  8
画層1
 62
     0
100
AcDbLine
 10
259.0599999999999
 20
183.9999999999998
 30
0.0
 11
258.0699999999999
 21
183.9999999999998
 31
0.0
  0
ARC
  5
56C
330
2
100
AcDbEntity
  8
画層1
 62
     0
100
AcDbCircle
 10
251.5299999999999
 20
183.4999999999999
 30
0.0
 40
7.540000001812724
100
AcDbArc
 50
344.0100000000005
 51
356.1999999999995
  0
ARC
  5
56D
330
2
100
AcDbEntity
  8
画層1
 62
     0
100
AcDbCircle
 10
257.8199999999999
 20
185.2999999999998
 30
0.0
 40
1.0
100
AcDbArc
 50
15.98999999999949
 51
81.469999999999
  0
ARC
  5
56E
330
2
100
AcDbEntity
  8
画層1
 62
     0
100
AcDbCircle
 10
245.0699999999999
 20
183.4999999999999
 30
0.0
 40
10.50674104301652
100
AcDbArc
 50
4.369999999999958
 51
19.46000000000037
  0
LINE
  5
56F
330
2
100
AcDbEntity
  8
画層1
 62
     0
100
AcDbLine
 10
255.5399999999999
 20
184.2999999999999
 30
0.0
 11
254.97
 21
184.2999999999999
 31
0.0
  0
ARC
  5
570
330
2
100
AcDbEntity
  8
画層1
 62
     0
100
AcDbCircle
 10
257.0699999999999
 20
185.9199999999999
 30
0.0
 40
0.5
100
AcDbArc
 50
81.469999999999
 51
180.0
  0
LINE
  5
571
330
2
100
AcDbEntity
  8
画層1
 62
     0
100
AcDbLine
 10
256.4999999999999
 20
187.0999999999999
 30
0.0
 11
256.4999999999999
 21
184.7999999999998
 31
0.0
  0
LINE
  5
572
330
2
100
AcDbEntity
  8
画層1
 62
     0
100
AcDbLine
 10
257.1499999999999
 20
186.4099999999999
 30
0.0
 11
257.97
 21
186.2899999999998
 31
0.0
  0
ARC
  5
573
330
2
100
AcDbEntity
  8
画層1
 62
     0
100
AcDbCircle
 10
261.6999999999999
 20
195.6999999999999
 30
0.0
 40
0.3
100
AcDbArc
 50
270.0
 51
0.0
  0
ARC
  5
574
330
2
100
AcDbEntity
  8
画層1
 62
     0
100
AcDbCircle
 10
251.5299999999998
 20
191.7999999999999
 30
0.0
 40
7.540000001812724
100
AcDbArc
 50
344.0100000000005
 51
356.1999999999995
  0
ARC
  5
575
330
2
100
AcDbEntity
  8
画層1
 62
     0
100
AcDbCircle
 10
245.0699999999998
 20
191.7999999999999
 30
0.0
 40
10.50674104301652
100
AcDbArc
 50
340.5399999999996
 51
355.63
  0
ARC
  5
576
330
2
100
AcDbEntity
  8
画層1
 62
     0
100
AcDbCircle
 10
245.1599999999999
 20
192.0499999999999
 30
0.0
 40
11.44118729799423
100
AcDbArc
 50
340.8700000000005
 51
355.7399999999996
  0
LINE
  5
577
330
2
100
AcDbEntity
  8
画層1
 62
     0
100
AcDbLine
 10
256.4999999999999
 20
190.4999999999999
 30
0.0
 11
256.4999999999999
 21
188.1999999999999
 31
0.0
  0
LINE
  5
578
330
2
100
AcDbEntity
  8
画層1
 62
     0
100
AcDbLine
 10
254.4699999999997
 20
188.2999999999999
 30
0.0
 11
254.4699999999997
 21
195.2999999999999
 31
0.0
  0
LINE
  5
579
330
2
100
AcDbEntity
  8
画層1
 62
     0
100
AcDbLine
 10
254.9699999999999
 20
195.2999999999999
 30
0.0
 11
254.9699999999999
 21
188.2999999999999
 31
0.0
  0
LINE
  5
57A
330
2
100
AcDbEntity
  8
画層1
 62
     0
100
AcDbLine
 10
256.5699999999999
 20
194.2199999999999
 30
0.0
 11
256.5699999999999
 21
189.3799999999998
 31
0.0
  0
LINE
  5
57B
330
2
100
AcDbEntity
  8
画層1
 62
     0
100
AcDbLine
 10
253.9999999999999
 20
195.3999999999999
 30
0.0
 11
253.9999999999999
 21
188.1999999999999
 31
0.0
  0
LINE
  5
57C
330
2
100
AcDbEntity
  8
画層1
 62
     0
100
AcDbLine
 10
255.9699999999998
 20
188.2999999999999
 30
0.0
 11
253.9999999999999
 21
188.2999999999999
 31
0.0
  0
ARC
  5
57D
330
2
100
AcDbEntity
  8
画層1
 62
     0
100
AcDbCircle
 10
254.1999999999998
 20
188.3999999999999
 30
0.0
 40
0.2
100
AcDbArc
 50
180.0
 51
270.0
  0
LINE
  5
57E
330
2
100
AcDbEntity
  8
画層1
 62
     0
100
AcDbLine
 10
253.9999999999999
 20
188.1999999999999
 30
0.0
 11
261.6999999999999
 21
188.1999999999999
 31
0.0
  0
ARC
  5
57F
330
2
100
AcDbEntity
  8
画層1
 62
     0
100
AcDbCircle
 10
257.8199999999998
 20
189.9999999999999
 30
0.0
 40
1.0
100
AcDbArc
 50
278.530000000001
 51
344.0100000000005
  0
LINE
  5
580
330
2
100
AcDbEntity
  8
画層1
 62
     0
100
AcDbLine
 10
257.1499999999999
 20
188.8899999999999
 30
0.0
 11
257.9699999999998
 21
189.0099999999999
 31
0.0
  0
ARC
  5
581
330
2
100
AcDbEntity
  8
画層1
 62
     0
100
AcDbCircle
 10
257.0699999999999
 20
189.3799999999998
 30
0.0
 40
0.5
100
AcDbArc
 50
180.0
 51
278.530000000001
  0
LINE
  5
582
330
2
100
AcDbEntity
  8
画層1
 62
     0
100
AcDbLine
 10
261.6999999999999
 20
195.3999999999999
 30
0.0
 11
253.9999999999999
 21
195.3999999999999
 31
0.0
  0
LINE
  5
583
330
2
100
AcDbEntity
  8
画層1
 62
     0
100
AcDbLine
 10
253.9999999999999
 20
195.2999999999999
 30
0.0
 11
255.9699999999998
 21
195.2999999999999
 31
0.0
  0
ARC
  5
584
330
2
100
AcDbEntity
  8
画層1
 62
     0
100
AcDbCircle
 10
254.1999999999998
 20
195.1999999999999
 30
0.0
 40
0.2
100
AcDbArc
 50
90.0
 51
180.0
  0
ARC
  5
585
330
2
100
AcDbEntity
  8
画層1
 62
     0
100
AcDbCircle
 10
257.8199999999998
 20
193.5999999999999
 30
0.0
 40
1.0
100
AcDbArc
 50
15.98999999999949
 51
81.469999999999
  0
LINE
  5
586
330
2
100
AcDbEntity
  8
画層1
 62
     0
100
AcDbLine
 10
257.1499999999999
 20
194.7099999999999
 30
0.0
 11
257.9699999999998
 21
194.5899999999998
 31
0.0
  0
LINE
  5
587
330
2
100
AcDbEntity
  8
画層1
 62
     0
100
AcDbLine
 10
256.4999999999999
 20
195.3999999999999
 30
0.0
 11
256.4999999999999
 21
193.0999999999999
 31
0.0
  0
ARC
  5
588
330
2
100
AcDbEntity
  8
画層1
 62
     0
100
AcDbCircle
 10
257.0699999999999
 20
194.2199999999999
 30
0.0
 40
0.5
100
AcDbArc
 50
81.469999999999
 51
180.0
  0
LINE
  5
589
330
2
100
AcDbEntity
  8
画層1
 62
     0
100
AcDbLine
 10
255.5399999999999
 20
192.5999999999999
 30
0.0
 11
254.9699999999999
 21
192.5999999999999
 31
0.0
  0
ARC
  5
58A
330
2
100
AcDbEntity
  8
画層1
 62
     0
100
AcDbCircle
 10
245.0699999999998
 20
191.7999999999999
 30
0.0
 40
10.50674104301652
100
AcDbArc
 50
4.369999999999958
 51
19.46000000000037
  0
LINE
  5
58B
330
2
100
AcDbEntity
  8
画層1
 62
     0
100
AcDbLine
 10
255.5399999999999
 20
190.9999999999999
 30
0.0
 11
254.9699999999999
 21
190.9999999999999
 31
0.0
  0
LINE
  5
58C
330
2
100
AcDbEntity
  8
画層1
 62
     0
100
AcDbLine
 10
256.5699999999999
 20
192.3999999999999
 30
0.0
 11
256.1699999999999
 21
192.3999999999999
 31
0.0
  0
LINE
  5
58D
330
2
100
AcDbEntity
  8
画層1
 62
     0
100
AcDbLine
 10
256.1699999999999
 20
191.1999999999999
 30
0.0
 11
256.5699999999999
 21
191.1999999999999
 31
0.0
  0
LINE
  5
58E
330
2
100
AcDbEntity
  8
画層1
 62
     0
100
AcDbLine
 10
256.1699999999999
 20
192.3999999999999
 30
0.0
 11
256.1699999999999
 21
191.1999999999999
 31
0.0
  0
ARC
  5
58F
330
2
100
AcDbEntity
  8
画層1
 62
     0
100
AcDbCircle
 10
245.1599999999999
 20
191.5499999999999
 30
0.0
 40
11.44118730072771
100
AcDbArc
 50
4.260000000000263
 51
19.12999999999945
  0
LINE
  5
590
330
2
100
AcDbEntity
  8
画層1
 62
     0
100
AcDbLine
 10
259.0599999999998
 20
192.2999999999998
 30
0.0
 11
258.0699999999998
 21
192.2999999999998
 31
0.0
  0
LINE
  5
591
330
2
100
AcDbEntity
  8
画層1
 62
     0
100
AcDbLine
 10
258.0699999999998
 20
191.2999999999999
 30
0.0
 11
259.0599999999998
 21
191.2999999999999
 31
0.0
  0
LINE
  5
592
330
2
100
AcDbEntity
  8
画層1
 62
     0
100
AcDbLine
 10
258.0699999999998
 20
192.2999999999998
 30
0.0
 11
258.0699999999998
 21
191.2999999999999
 31
0.0
  0
ARC
  5
593
330
2
100
AcDbEntity
  8
画層1
 62
     0
100
AcDbCircle
 10
251.5299999999998
 20
191.7999999999999
 30
0.0
 40
7.540000001812724
100
AcDbArc
 50
3.800000000000371
 51
15.98999999999949
  0
ARC
  5
594
330
2
100
AcDbEntity
  8
画層1
 62
     0
100
AcDbCircle
 10
261.6999999999999
 20
187.8999999999999
 30
0.0
 40
0.3
100
AcDbArc
 50
0.0
 51
90.0
  0
ARC
  5
596
330
2
100
AcDbEntity
  8
画層1
 62
     0
100
AcDbCircle
 10
261.6999999999999
 20
196.1999999999999
 30
0.0
 40
0.3
100
AcDbArc
 50
0.0
 51
90.0
  0
ARC
  5
597
330
2
100
AcDbEntity
  8
画層1
 62
     0
100
AcDbCircle
 10
261.6999999999999
 20
203.9999999999999
 30
0.0
 40
0.3
100
AcDbArc
 50
270.0
 51
0.0
  0
ARC
  5
598
330
2
100
AcDbEntity
  8
画層1
 62
     0
100
AcDbCircle
 10
251.5299999999999
 20
200.0999999999999
 30
0.0
 40
7.540000001812724
100
AcDbArc
 50
3.800000000000371
 51
15.98999999999949
  0
ARC
  5
599
330
2
100
AcDbEntity
  8
画層1
 62
     0
100
AcDbCircle
 10
245.1599999999999
 20
199.8499999999999
 30
0.0
 40
11.44118730072771
100
AcDbArc
 50
4.260000000000263
 51
19.12999999999945
  0
ARC
  5
59A
330
2
100
AcDbEntity
  8
画層1
 62
     0
100
AcDbCircle
 10
245.0699999999999
 20
200.0999999999999
 30
0.0
 40
10.50674104301652
100
AcDbArc
 50
4.369999999999958
 51
19.46000000000037
  0
LINE
  5
59B
330
2
100
AcDbEntity
  8
画層1
 62
     0
100
AcDbLine
 10
256.4999999999999
 20
203.6999999999999
 30
0.0
 11
256.4999999999999
 21
201.3999999999998
 31
0.0
  0
LINE
  5
59C
330
2
100
AcDbEntity
  8
画層1
 62
     0
100
AcDbLine
 10
254.0
 20
203.6999999999999
 30
0.0
 11
254.0
 21
196.4999999999999
 31
0.0
  0
LINE
  5
59D
330
2
100
AcDbEntity
  8
画層1
 62
     0
100
AcDbLine
 10
256.57
 20
202.5199999999999
 30
0.0
 11
256.57
 21
197.6799999999999
 31
0.0
  0
LINE
  5
59E
330
2
100
AcDbEntity
  8
画層1
 62
     0
100
AcDbLine
 10
254.97
 20
203.5999999999999
 30
0.0
 11
254.97
 21
196.5999999999997
 31
0.0
  0
LINE
  5
59F
330
2
100
AcDbEntity
  8
画層1
 62
     0
100
AcDbLine
 10
254.4699999999999
 20
196.5999999999997
 30
0.0
 11
254.4699999999999
 21
203.5999999999999
 31
0.0
  0
LINE
  5
5A0
330
2
100
AcDbEntity
  8
画層1
 62
     0
100
AcDbLine
 10
254.0
 20
196.4999999999999
 30
0.0
 11
261.6999999999999
 21
196.4999999999999
 31
0.0
  0
ARC
  5
5A1
330
2
100
AcDbEntity
  8
画層1
 62
     0
100
AcDbCircle
 10
254.1999999999999
 20
196.6999999999999
 30
0.0
 40
0.2
100
AcDbArc
 50
180.0
 51
270.0
  0
LINE
  5
5A2
330
2
100
AcDbEntity
  8
画層1
 62
     0
100
AcDbLine
 10
255.9699999999998
 20
196.5999999999997
 30
0.0
 11
254.0
 21
196.5999999999997
 31
0.0
  0
ARC
  5
5A3
330
2
100
AcDbEntity
  8
画層1
 62
     0
100
AcDbCircle
 10
257.8199999999999
 20
198.2999999999998
 30
0.0
 40
1.0
100
AcDbArc
 50
278.530000000001
 51
344.0100000000005
  0
LINE
  5
5A4
330
2
100
AcDbEntity
  8
画層1
 62
     0
100
AcDbLine
 10
256.1699999999999
 20
200.6999999999998
 30
0.0
 11
256.1699999999999
 21
199.4999999999999
 31
0.0
  0
LINE
  5
5A5
330
2
100
AcDbEntity
  8
画層1
 62
     0
100
AcDbLine
 10
256.1699999999999
 20
199.4999999999999
 30
0.0
 11
256.57
 21
199.4999999999999
 31
0.0
  0
LINE
  5
5A6
330
2
100
AcDbEntity
  8
画層1
 62
     0
100
AcDbLine
 10
256.57
 20
200.6999999999998
 30
0.0
 11
256.1699999999999
 21
200.6999999999998
 31
0.0
  0
LINE
  5
5A7
330
2
100
AcDbEntity
  8
画層1
 62
     0
100
AcDbLine
 10
255.5399999999999
 20
199.2999999999999
 30
0.0
 11
254.97
 21
199.2999999999999
 31
0.0
  0
LINE
  5
5A8
330
2
100
AcDbEntity
  8
画層1
 62
     0
100
AcDbLine
 10
255.5399999999999
 20
200.8999999999999
 30
0.0
 11
254.97
 21
200.8999999999999
 31
0.0
  0
ARC
  5
5A9
330
2
100
AcDbEntity
  8
画層1
 62
     0
100
AcDbCircle
 10
257.0699999999999
 20
197.6799999999999
 30
0.0
 40
0.5
100
AcDbArc
 50
180.0
 51
278.530000000001
  0
LINE
  5
5AA
330
2
100
AcDbEntity
  8
画層1
 62
     0
100
AcDbLine
 10
257.1499999999999
 20
197.1899999999997
 30
0.0
 11
257.97
 21
197.3099999999999
 31
0.0
  0
LINE
  5
5AB
330
2
100
AcDbEntity
  8
画層1
 62
     0
100
AcDbLine
 10
256.4999999999999
 20
198.7999999999999
 30
0.0
 11
256.4999999999999
 21
196.4999999999999
 31
0.0
  0
ARC
  5
5AC
330
2
100
AcDbEntity
  8
画層1
 62
     0
100
AcDbCircle
 10
245.1599999999999
 20
200.3499999999999
 30
0.0
 40
11.44118729799423
100
AcDbArc
 50
340.8700000000005
 51
355.7399999999996
  0
ARC
  5
5AD
330
2
100
AcDbEntity
  8
画層1
 62
     0
100
AcDbCircle
 10
245.0699999999999
 20
200.0999999999999
 30
0.0
 40
10.50674104301652
100
AcDbArc
 50
340.5399999999996
 51
355.63
  0
LINE
  5
5AE
330
2
100
AcDbEntity
  8
画層1
 62
     0
100
AcDbLine
 10
258.0699999999999
 20
200.5999999999998
 30
0.0
 11
258.0699999999999
 21
199.5999999999999
 31
0.0
  0
LINE
  5
5AF
330
2
100
AcDbEntity
  8
画層1
 62
     0
100
AcDbLine
 10
258.0699999999999
 20
199.5999999999999
 30
0.0
 11
259.0599999999999
 21
199.5999999999999
 31
0.0
  0
LINE
  5
5B0
330
2
100
AcDbEntity
  8
画層1
 62
     0
100
AcDbLine
 10
259.0599999999999
 20
200.5999999999998
 30
0.0
 11
258.0699999999999
 21
200.5999999999998
 31
0.0
  0
ARC
  5
5B1
330
2
100
AcDbEntity
  8
画層1
 62
     0
100
AcDbCircle
 10
251.5299999999999
 20
200.0999999999999
 30
0.0
 40
7.540000001812724
100
AcDbArc
 50
344.0100000000005
 51
356.1999999999995
  0
ARC
  5
5B2
330
2
100
AcDbEntity
  8
画層1
 62
     0
100
AcDbCircle
 10
254.1999999999999
 20
203.4999999999999
 30
0.0
 40
0.2
100
AcDbArc
 50
90.0
 51
180.0
  0
LINE
  5
5B3
330
2
100
AcDbEntity
  8
画層1
 62
     0
100
AcDbLine
 10
254.0
 20
203.5999999999999
 30
0.0
 11
255.9699999999998
 21
203.5999999999999
 31
0.0
  0
LINE
  5
5B4
330
2
100
AcDbEntity
  8
画層1
 62
     0
100
AcDbLine
 10
261.6999999999999
 20
203.6999999999999
 30
0.0
 11
254.0
 21
203.6999999999999
 31
0.0
  0
ARC
  5
5B5
330
2
100
AcDbEntity
  8
画層1
 62
     0
100
AcDbCircle
 10
257.8199999999999
 20
201.8999999999997
 30
0.0
 40
1.0
100
AcDbArc
 50
15.98999999999949
 51
81.469999999999
  0
ARC
  5
5B6
330
2
100
AcDbEntity
  8
画層1
 62
     0
100
AcDbCircle
 10
257.0699999999999
 20
202.5199999999999
 30
0.0
 40
0.5
100
AcDbArc
 50
81.469999999999
 51
180.0
  0
LINE
  5
5B7
330
2
100
AcDbEntity
  8
画層1
 62
     0
100
AcDbLine
 10
257.1499999999999
 20
203.0099999999999
 30
0.0
 11
257.97
 21
202.8899999999998
 31
0.0
  0
ARC
  5
5B8
330
2
100
AcDbEntity
  8
画層1
 62
     0
100
AcDbCircle
 10
261.6999999999999
 20
212.2999999999999
 30
0.0
 40
0.3
100
AcDbArc
 50
270.0
 51
0.0
  0
ARC
  5
5B9
330
2
100
AcDbEntity
  8
画層1
 62
     0
100
AcDbCircle
 10
261.6999999999999
 20
204.4999999999999
 30
0.0
 40
0.3
100
AcDbArc
 50
0.0
 51
90.0
  0
LINE
  5
5BA
330
2
100
AcDbEntity
  8
画層1
 62
     0
100
AcDbLine
 10
261.6999999999999
 20
211.9999999999999
 30
0.0
 11
254.0
 21
211.9999999999999
 31
0.0
  0
LINE
  5
5BB
330
2
100
AcDbEntity
  8
画層1
 62
     0
100
AcDbLine
 10
254.0
 20
211.8999999999999
 30
0.0
 11
255.9699999999998
 21
211.8999999999999
 31
0.0
  0
ARC
  5
5BC
330
2
100
AcDbEntity
  8
画層1
 62
     0
100
AcDbCircle
 10
254.1999999999999
 20
211.7999999999999
 30
0.0
 40
0.2
100
AcDbArc
 50
90.0
 51
180.0
  0
LINE
  5
5BD
330
2
100
AcDbEntity
  8
画層1
 62
     0
100
AcDbLine
 10
255.9699999999998
 20
204.8999999999998
 30
0.0
 11
254.0
 21
204.8999999999998
 31
0.0
  0
ARC
  5
5BE
330
2
100
AcDbEntity
  8
画層1
 62
     0
100
AcDbCircle
 10
254.1999999999999
 20
204.9999999999999
 30
0.0
 40
0.2
100
AcDbArc
 50
180.0
 51
270.0
  0
LINE
  5
5BF
330
2
100
AcDbEntity
  8
画層1
 62
     0
100
AcDbLine
 10
254.0
 20
204.7999999999999
 30
0.0
 11
261.6999999999999
 21
204.7999999999999
 31
0.0
  0
LINE
  5
5C0
330
2
100
AcDbEntity
  8
画層1
 62
     0
100
AcDbLine
 10
254.0
 20
211.9999999999999
 30
0.0
 11
254.0
 21
204.7999999999999
 31
0.0
  0
ARC
  5
5C1
330
2
100
AcDbEntity
  8
画層1
 62
     0
100
AcDbCircle
 10
251.5299999999999
 20
208.3999999999999
 30
0.0
 40
7.540000001812724
100
AcDbArc
 50
344.0100000000005
 51
356.1999999999995
  0
ARC
  5
5C2
330
2
100
AcDbEntity
  8
画層1
 62
     0
100
AcDbCircle
 10
245.0699999999999
 20
208.3999999999999
 30
0.0
 40
10.50674104301652
100
AcDbArc
 50
340.5399999999996
 51
355.63
  0
ARC
  5
5C3
330
2
100
AcDbEntity
  8
画層1
 62
     0
100
AcDbCircle
 10
245.1599999999999
 20
208.6499999999999
 30
0.0
 40
11.44118729799423
100
AcDbArc
 50
340.8700000000005
 51
355.7399999999996
  0
LINE
  5
5C4
330
2
100
AcDbEntity
  8
画層1
 62
     0
100
AcDbLine
 10
256.4999999999999
 20
207.0999999999999
 30
0.0
 11
256.4999999999999
 21
204.7999999999999
 31
0.0
  0
LINE
  5
5C5
330
2
100
AcDbEntity
  8
画層1
 62
     0
100
AcDbLine
 10
254.4699999999999
 20
204.8999999999998
 30
0.0
 11
254.4699999999999
 21
211.8999999999999
 31
0.0
  0
LINE
  5
5C6
330
2
100
AcDbEntity
  8
画層1
 62
     0
100
AcDbLine
 10
254.97
 20
211.8999999999999
 30
0.0
 11
254.97
 21
204.8999999999998
 31
0.0
  0
LINE
  5
5C7
330
2
100
AcDbEntity
  8
画層1
 62
     0
100
AcDbLine
 10
256.57
 20
210.8199999999999
 30
0.0
 11
256.57
 21
205.9799999999999
 31
0.0
  0
ARC
  5
5C8
330
2
100
AcDbEntity
  8
画層1
 62
     0
100
AcDbCircle
 10
257.8199999999999
 20
206.5999999999998
 30
0.0
 40
1.0
100
AcDbArc
 50
278.530000000001
 51
344.0100000000005
  0
LINE
  5
5C9
330
2
100
AcDbEntity
  8
画層1
 62
     0
100
AcDbLine
 10
257.1499999999999
 20
205.4899999999998
 30
0.0
 11
257.97
 21
205.6099999999999
 31
0.0
  0
ARC
  5
5CA
330
2
100
AcDbEntity
  8
画層1
 62
     0
100
AcDbCircle
 10
257.0699999999999
 20
205.9799999999999
 30
0.0
 40
0.5
100
AcDbArc
 50
180.0
 51
278.530000000001
  0
ARC
  5
5CB
330
2
100
AcDbEntity
  8
画層1
 62
     0
100
AcDbCircle
 10
257.8199999999999
 20
210.1999999999998
 30
0.0
 40
1.0
100
AcDbArc
 50
15.98999999999949
 51
81.469999999999
  0
LINE
  5
5CC
330
2
100
AcDbEntity
  8
画層1
 62
     0
100
AcDbLine
 10
257.1499999999999
 20
211.3099999999999
 30
0.0
 11
257.97
 21
211.1899999999998
 31
0.0
  0
ARC
  5
5CD
330
2
100
AcDbEntity
  8
画層1
 62
     0
100
AcDbCircle
 10
257.0699999999999
 20
210.8199999999999
 30
0.0
 40
0.5
100
AcDbArc
 50
81.469999999999
 51
180.0
  0
LINE
  5
5CE
330
2
100
AcDbEntity
  8
画層1
 62
     0
100
AcDbLine
 10
255.5399999999999
 20
209.1999999999999
 30
0.0
 11
254.97
 21
209.1999999999999
 31
0.0
  0
LINE
  5
5CF
330
2
100
AcDbEntity
  8
画層1
 62
     0
100
AcDbLine
 10
255.5399999999999
 20
207.5999999999999
 30
0.0
 11
254.97
 21
207.5999999999999
 31
0.0
  0
LINE
  5
5D0
330
2
100
AcDbEntity
  8
画層1
 62
     0
100
AcDbLine
 10
256.57
 20
208.9999999999998
 30
0.0
 11
256.1699999999999
 21
208.9999999999998
 31
0.0
  0
LINE
  5
5D1
330
2
100
AcDbEntity
  8
画層1
 62
     0
100
AcDbLine
 10
256.1699999999999
 20
207.7999999999999
 30
0.0
 11
256.57
 21
207.7999999999999
 31
0.0
  0
LINE
  5
5D2
330
2
100
AcDbEntity
  8
画層1
 62
     0
100
AcDbLine
 10
256.1699999999999
 20
208.9999999999998
 30
0.0
 11
256.1699999999999
 21
207.7999999999999
 31
0.0
  0
LINE
  5
5D3
330
2
100
AcDbEntity
  8
画層1
 62
     0
100
AcDbLine
 10
256.4999999999999
 20
211.9999999999999
 30
0.0
 11
256.4999999999999
 21
209.6999999999998
 31
0.0
  0
ARC
  5
5D4
330
2
100
AcDbEntity
  8
画層1
 62
     0
100
AcDbCircle
 10
245.0699999999999
 20
208.3999999999999
 30
0.0
 40
10.50674104301652
100
AcDbArc
 50
4.369999999999958
 51
19.46000000000037
  0
ARC
  5
5D5
330
2
100
AcDbEntity
  8
画層1
 62
     0
100
AcDbCircle
 10
245.1599999999999
 20
208.1499999999999
 30
0.0
 40
11.44118730072771
100
AcDbArc
 50
4.260000000000263
 51
19.12999999999945
  0
LINE
  5
5D6
330
2
100
AcDbEntity
  8
画層1
 62
     0
100
AcDbLine
 10
259.0599999999999
 20
208.8999999999998
 30
0.0
 11
258.0699999999999
 21
208.8999999999998
 31
0.0
  0
LINE
  5
5D7
330
2
100
AcDbEntity
  8
画層1
 62
     0
100
AcDbLine
 10
258.0699999999999
 20
207.8999999999999
 30
0.0
 11
259.0599999999999
 21
207.8999999999999
 31
0.0
  0
LINE
  5
5D8
330
2
100
AcDbEntity
  8
画層1
 62
     0
100
AcDbLine
 10
258.0699999999999
 20
208.8999999999998
 30
0.0
 11
258.0699999999999
 21
207.8999999999999
 31
0.0
  0
ARC
  5
5D9
330
2
100
AcDbEntity
  8
画層1
 62
     0
100
AcDbCircle
 10
251.5299999999999
 20
208.3999999999999
 30
0.0
 40
7.540000001812724
100
AcDbArc
 50
3.800000000000371
 51
15.98999999999949
  0
ARC
  5
5DA
330
2
100
AcDbEntity
  8
画層1
 62
     0
100
AcDbCircle
 10
261.6999999999999
 20
212.7999999999999
 30
0.0
 40
0.3
100
AcDbArc
 50
0.0
 51
90.0
  0
ARC
  5
5DB
330
2
100
AcDbEntity
  8
画層1
 62
     0
100
AcDbCircle
 10
261.6999999999999
 20
220.5999999999999
 30
0.0
 40
0.3
100
AcDbArc
 50
270.0
 51
0.0
  0
LINE
  5
5DC
330
2
100
AcDbEntity
  8
画層1
 62
     0
100
AcDbLine
 10
254.0
 20
213.0999999999999
 30
0.0
 11
261.6999999999999
 21
213.0999999999999
 31
0.0
  0
ARC
  5
5DD
330
2
100
AcDbEntity
  8
画層1
 62
     0
100
AcDbCircle
 10
254.1999999999999
 20
213.2999999999999
 30
0.0
 40
0.2
100
AcDbArc
 50
180.0
 51
270.0
  0
LINE
  5
5DE
330
2
100
AcDbEntity
  8
画層1
 62
     0
100
AcDbLine
 10
255.9699999999998
 20
213.1999999999998
 30
0.0
 11
254.0
 21
213.1999999999998
 31
0.0
  0
ARC
  5
5DF
330
2
100
AcDbEntity
  8
画層1
 62
     0
100
AcDbCircle
 10
254.1999999999999
 20
220.0999999999999
 30
0.0
 40
0.2
100
AcDbArc
 50
90.0
 51
180.0
  0
LINE
  5
5E0
330
2
100
AcDbEntity
  8
画層1
 62
     0
100
AcDbLine
 10
254.0
 20
220.1999999999999
 30
0.0
 11
255.9699999999998
 21
220.1999999999999
 31
0.0
  0
LINE
  5
5E1
330
2
100
AcDbEntity
  8
画層1
 62
     0
100
AcDbLine
 10
261.6999999999999
 20
220.2999999999998
 30
0.0
 11
254.0
 21
220.2999999999998
 31
0.0
  0
LINE
  5
5E2
330
2
100
AcDbEntity
  8
画層1
 62
     0
100
AcDbLine
 10
254.0
 20
220.2999999999998
 30
0.0
 11
254.0
 21
213.0999999999999
 31
0.0
  0
ARC
  5
5E3
330
2
100
AcDbEntity
  8
画層1
 62
     0
100
AcDbCircle
 10
251.5299999999999
 20
216.6999999999998
 30
0.0
 40
7.540000001812724
100
AcDbArc
 50
3.800000000000371
 51
15.98999999999949
  0
ARC
  5
5E4
330
2
100
AcDbEntity
  8
画層1
 62
     0
100
AcDbCircle
 10
245.1599999999999
 20
216.4499999999998
 30
0.0
 40
11.44118730072771
100
AcDbArc
 50
4.260000000000263
 51
19.12999999999945
  0
ARC
  5
5E5
330
2
100
AcDbEntity
  8
画層1
 62
     0
100
AcDbCircle
 10
245.0699999999999
 20
216.6999999999998
 30
0.0
 40
10.50674104301652
100
AcDbArc
 50
4.369999999999958
 51
19.46000000000037
  0
LINE
  5
5E6
330
2
100
AcDbEntity
  8
画層1
 62
     0
100
AcDbLine
 10
256.4999999999999
 20
220.2999999999998
 30
0.0
 11
256.4999999999999
 21
217.9999999999997
 31
0.0
  0
LINE
  5
5E7
330
2
100
AcDbEntity
  8
画層1
 62
     0
100
AcDbLine
 10
256.57
 20
219.1199999999998
 30
0.0
 11
256.57
 21
214.2799999999998
 31
0.0
  0
LINE
  5
5E8
330
2
100
AcDbEntity
  8
画層1
 62
     0
100
AcDbLine
 10
254.97
 20
220.1999999999999
 30
0.0
 11
254.97
 21
213.1999999999998
 31
0.0
  0
LINE
  5
5E9
330
2
100
AcDbEntity
  8
画層1
 62
     0
100
AcDbLine
 10
254.4699999999999
 20
213.1999999999998
 30
0.0
 11
254.4699999999999
 21
220.1999999999999
 31
0.0
  0
ARC
  5
5EA
330
2
100
AcDbEntity
  8
画層1
 62
     0
100
AcDbCircle
 10
257.8199999999999
 20
214.8999999999998
 30
0.0
 40
1.0
100
AcDbArc
 50
278.530000000001
 51
344.0100000000005
  0
LINE
  5
5EB
330
2
100
AcDbEntity
  8
画層1
 62
     0
100
AcDbLine
 10
256.1699999999999
 20
217.2999999999998
 30
0.0
 11
256.1699999999999
 21
216.0999999999999
 31
0.0
  0
LINE
  5
5EC
330
2
100
AcDbEntity
  8
画層1
 62
     0
100
AcDbLine
 10
256.1699999999999
 20
216.0999999999999
 30
0.0
 11
256.57
 21
216.0999999999999
 31
0.0
  0
LINE
  5
5ED
330
2
100
AcDbEntity
  8
画層1
 62
     0
100
AcDbLine
 10
256.57
 20
217.2999999999998
 30
0.0
 11
256.1699999999999
 21
217.2999999999998
 31
0.0
  0
LINE
  5
5EE
330
2
100
AcDbEntity
  8
画層1
 62
     0
100
AcDbLine
 10
255.5399999999999
 20
215.8999999999998
 30
0.0
 11
254.97
 21
215.8999999999998
 31
0.0
  0
LINE
  5
5EF
330
2
100
AcDbEntity
  8
画層1
 62
     0
100
AcDbLine
 10
255.5399999999999
 20
217.4999999999998
 30
0.0
 11
254.97
 21
217.4999999999998
 31
0.0
  0
ARC
  5
5F0
330
2
100
AcDbEntity
  8
画層1
 62
     0
100
AcDbCircle
 10
257.0699999999999
 20
214.2799999999998
 30
0.0
 40
0.5
100
AcDbArc
 50
180.0
 51
278.530000000001
  0
LINE
  5
5F1
330
2
100
AcDbEntity
  8
画層1
 62
     0
100
AcDbLine
 10
257.1499999999999
 20
213.7899999999998
 30
0.0
 11
257.97
 21
213.9099999999999
 31
0.0
  0
LINE
  5
5F2
330
2
100
AcDbEntity
  8
画層1
 62
     0
100
AcDbLine
 10
256.4999999999999
 20
215.3999999999999
 30
0.0
 11
256.4999999999999
 21
213.0999999999999
 31
0.0
  0
ARC
  5
5F3
330
2
100
AcDbEntity
  8
画層1
 62
     0
100
AcDbCircle
 10
245.1599999999999
 20
216.9499999999998
 30
0.0
 40
11.44118729799423
100
AcDbArc
 50
340.8700000000005
 51
355.7399999999996
  0
ARC
  5
5F4
330
2
100
AcDbEntity
  8
画層1
 62
     0
100
AcDbCircle
 10
245.0699999999999
 20
216.6999999999998
 30
0.0
 40
10.50674104301652
100
AcDbArc
 50
340.5399999999996
 51
355.63
  0
LINE
  5
5F5
330
2
100
AcDbEntity
  8
画層1
 62
     0
100
AcDbLine
 10
258.0699999999999
 20
217.1999999999998
 30
0.0
 11
258.0699999999999
 21
216.1999999999999
 31
0.0
  0
LINE
  5
5F6
330
2
100
AcDbEntity
  8
画層1
 62
     0
100
AcDbLine
 10
258.0699999999999
 20
216.1999999999999
 30
0.0
 11
259.0599999999999
 21
216.1999999999999
 31
0.0
  0
LINE
  5
5F7
330
2
100
AcDbEntity
  8
画層1
 62
     0
100
AcDbLine
 10
259.0599999999999
 20
217.1999999999998
 30
0.0
 11
258.0699999999999
 21
217.1999999999998
 31
0.0
  0
ARC
  5
5F8
330
2
100
AcDbEntity
  8
画層1
 62
     0
100
AcDbCircle
 10
251.5299999999999
 20
216.6999999999998
 30
0.0
 40
7.540000001812724
100
AcDbArc
 50
344.0100000000005
 51
356.1999999999995
  0
ARC
  5
5F9
330
2
100
AcDbEntity
  8
画層1
 62
     0
100
AcDbCircle
 10
257.8199999999999
 20
218.4999999999998
 30
0.0
 40
1.0
100
AcDbArc
 50
15.98999999999949
 51
81.469999999999
  0
ARC
  5
5FA
330
2
100
AcDbEntity
  8
画層1
 62
     0
100
AcDbCircle
 10
257.0699999999999
 20
219.1199999999998
 30
0.0
 40
0.5
100
AcDbArc
 50
81.469999999999
 51
180.0
  0
LINE
  5
5FB
330
2
100
AcDbEntity
  8
画層1
 62
     0
100
AcDbLine
 10
257.1499999999999
 20
219.6099999999999
 30
0.0
 11
257.97
 21
219.4899999999998
 31
0.0
  0
ARC
  5
5FC
330
2
100
AcDbEntity
  8
画層1
 62
     0
100
AcDbCircle
 10
261.6999999999999
 20
228.8999999999997
 30
0.0
 40
0.3
100
AcDbArc
 50
270.0
 51
0.0
  0
ARC
  5
5FD
330
2
100
AcDbEntity
  8
画層1
 62
     0
100
AcDbCircle
 10
261.6999999999999
 20
221.0999999999998
 30
0.0
 40
0.3
100
AcDbArc
 50
0.0
 51
90.0
  0
ARC
  5
5FE
330
2
100
AcDbEntity
  8
画層1
 62
     0
100
AcDbCircle
 10
251.5299999999999
 20
224.9999999999999
 30
0.0
 40
7.540000001812724
100
AcDbArc
 50
344.0100000000005
 51
356.1999999999995
  0
ARC
  5
5FF
330
2
100
AcDbEntity
  8
画層1
 62
     0
100
AcDbCircle
 10
245.0699999999999
 20
224.9999999999999
 30
0.0
 40
10.50674104301652
100
AcDbArc
 50
340.5399999999996
 51
355.63
  0
ARC
  5
600
330
2
100
AcDbEntity
  8
画層1
 62
     0
100
AcDbCircle
 10
245.1599999999999
 20
225.2499999999999
 30
0.0
 40
11.44118729799423
100
AcDbArc
 50
340.8700000000005
 51
355.7399999999996
  0
LINE
  5
601
330
2
100
AcDbEntity
  8
画層1
 62
     0
100
AcDbLine
 10
254.4699999999999
 20
221.4999999999998
 30
0.0
 11
254.4699999999999
 21
228.4999999999997
 31
0.0
  0
LINE
  5
602
330
2
100
AcDbEntity
  8
画層1
 62
     0
100
AcDbLine
 10
254.97
 20
228.4999999999997
 30
0.0
 11
254.97
 21
221.4999999999998
 31
0.0
  0
LINE
  5
603
330
2
100
AcDbEntity
  8
画層1
 62
     0
100
AcDbLine
 10
256.57
 20
227.4199999999998
 30
0.0
 11
256.57
 21
222.5799999999998
 31
0.0
  0
LINE
  5
604
330
2
100
AcDbEntity
  8
画層1
 62
     0
100
AcDbLine
 10
254.0
 20
228.5999999999997
 30
0.0
 11
254.0
 21
221.3999999999999
 31
0.0
  0
LINE
  5
605
330
2
100
AcDbEntity
  8
画層1
 62
     0
100
AcDbLine
 10
255.9699999999998
 20
221.4999999999998
 30
0.0
 11
254.0
 21
221.4999999999998
 31
0.0
  0
ARC
  5
606
330
2
100
AcDbEntity
  8
画層1
 62
     0
100
AcDbCircle
 10
254.1999999999999
 20
221.5999999999997
 30
0.0
 40
0.2
100
AcDbArc
 50
180.0
 51
270.0
  0
LINE
  5
607
330
2
100
AcDbEntity
  8
画層1
 62
     0
100
AcDbLine
 10
254.0
 20
221.3999999999999
 30
0.0
 11
261.6999999999999
 21
221.3999999999999
 31
0.0
  0
ARC
  5
608
330
2
100
AcDbEntity
  8
画層1
 62
     0
100
AcDbCircle
 10
257.8199999999999
 20
223.1999999999998
 30
0.0
 40
1.0
100
AcDbArc
 50
278.530000000001
 51
344.0100000000005
  0
LINE
  5
609
330
2
100
AcDbEntity
  8
画層1
 62
     0
100
AcDbLine
 10
256.4999999999999
 20
223.6999999999998
 30
0.0
 11
256.4999999999999
 21
221.3999999999999
 31
0.0
  0
LINE
  5
60A
330
2
100
AcDbEntity
  8
画層1
 62
     0
100
AcDbLine
 10
257.1499999999999
 20
222.0899999999998
 30
0.0
 11
257.97
 21
222.2099999999997
 31
0.0
  0
ARC
  5
60B
330
2
100
AcDbEntity
  8
画層1
 62
     0
100
AcDbCircle
 10
257.0699999999999
 20
222.5799999999998
 30
0.0
 40
0.5
100
AcDbArc
 50
180.0
 51
278.530000000001
  0
LINE
  5
60C
330
2
100
AcDbEntity
  8
画層1
 62
     0
100
AcDbLine
 10
261.6999999999999
 20
228.5999999999997
 30
0.0
 11
254.0
 21
228.5999999999997
 31
0.0
  0
LINE
  5
60D
330
2
100
AcDbEntity
  8
画層1
 62
     0
100
AcDbLine
 10
254.0
 20
228.4999999999997
 30
0.0
 11
255.9699999999998
 21
228.4999999999997
 31
0.0
  0
ARC
  5
60E
330
2
100
AcDbEntity
  8
画層1
 62
     0
100
AcDbCircle
 10
254.1999999999999
 20
228.3999999999998
 30
0.0
 40
0.2
100
AcDbArc
 50
90.0
 51
180.0
  0
ARC
  5
60F
330
2
100
AcDbEntity
  8
画層1
 62
     0
100
AcDbCircle
 10
257.8199999999999
 20
226.7999999999998
 30
0.0
 40
1.0
100
AcDbArc
 50
15.98999999999949
 51
81.469999999999
  0
LINE
  5
610
330
2
100
AcDbEntity
  8
画層1
 62
     0
100
AcDbLine
 10
257.1499999999999
 20
227.9099999999997
 30
0.0
 11
257.97
 21
227.7899999999998
 31
0.0
  0
ARC
  5
611
330
2
100
AcDbEntity
  8
画層1
 62
     0
100
AcDbCircle
 10
257.0699999999999
 20
227.4199999999998
 30
0.0
 40
0.5
100
AcDbArc
 50
81.469999999999
 51
180.0
  0
LINE
  5
612
330
2
100
AcDbEntity
  8
画層1
 62
     0
100
AcDbLine
 10
255.5399999999999
 20
225.7999999999998
 30
0.0
 11
254.97
 21
225.7999999999998
 31
0.0
  0
LINE
  5
613
330
2
100
AcDbEntity
  8
画層1
 62
     0
100
AcDbLine
 10
255.5399999999999
 20
224.1999999999998
 30
0.0
 11
254.97
 21
224.1999999999998
 31
0.0
  0
LINE
  5
614
330
2
100
AcDbEntity
  8
画層1
 62
     0
100
AcDbLine
 10
256.57
 20
225.5999999999998
 30
0.0
 11
256.1699999999999
 21
225.5999999999998
 31
0.0
  0
LINE
  5
615
330
2
100
AcDbEntity
  8
画層1
 62
     0
100
AcDbLine
 10
256.1699999999999
 20
224.3999999999997
 30
0.0
 11
256.57
 21
224.3999999999997
 31
0.0
  0
LINE
  5
616
330
2
100
AcDbEntity
  8
画層1
 62
     0
100
AcDbLine
 10
256.1699999999999
 20
225.5999999999998
 30
0.0
 11
256.1699999999999
 21
224.3999999999997
 31
0.0
  0
LINE
  5
617
330
2
100
AcDbEntity
  8
画層1
 62
     0
100
AcDbLine
 10
256.4999999999999
 20
228.5999999999997
 30
0.0
 11
256.4999999999999
 21
226.2999999999998
 31
0.0
  0
ARC
  5
618
330
2
100
AcDbEntity
  8
画層1
 62
     0
100
AcDbCircle
 10
245.0699999999999
 20
224.9999999999999
 30
0.0
 40
10.50674104301652
100
AcDbArc
 50
4.369999999999958
 51
19.46000000000037
  0
ARC
  5
619
330
2
100
AcDbEntity
  8
画層1
 62
     0
100
AcDbCircle
 10
245.1599999999999
 20
224.7499999999998
 30
0.0
 40
11.44118730072771
100
AcDbArc
 50
4.260000000000263
 51
19.12999999999945
  0
LINE
  5
61A
330
2
100
AcDbEntity
  8
画層1
 62
     0
100
AcDbLine
 10
259.0599999999999
 20
225.4999999999998
 30
0.0
 11
258.0699999999999
 21
225.4999999999998
 31
0.0
  0
LINE
  5
61B
330
2
100
AcDbEntity
  8
画層1
 62
     0
100
AcDbLine
 10
258.0699999999999
 20
224.4999999999997
 30
0.0
 11
259.0599999999999
 21
224.4999999999997
 31
0.0
  0
LINE
  5
61C
330
2
100
AcDbEntity
  8
画層1
 62
     0
100
AcDbLine
 10
258.0699999999999
 20
225.4999999999998
 30
0.0
 11
258.0699999999999
 21
224.4999999999997
 31
0.0
  0
ARC
  5
61D
330
2
100
AcDbEntity
  8
画層1
 62
     0
100
AcDbCircle
 10
251.5299999999999
 20
224.9999999999999
 30
0.0
 40
7.540000001812724
100
AcDbArc
 50
3.800000000000371
 51
15.98999999999949
  0
ARC
  5
61E
330
2
100
AcDbEntity
  8
画層1
 62
     0
100
AcDbCircle
 10
261.6999999999999
 20
229.3999999999998
 30
0.0
 40
0.3
100
AcDbArc
 50
0.0
 51
90.0
  0
ARC
  5
61F
330
2
100
AcDbEntity
  8
画層1
 62
     0
100
AcDbCircle
 10
261.6999999999999
 20
237.1999999999998
 30
0.0
 40
0.3
100
AcDbArc
 50
270.0
 51
0.0
  0
LINE
  5
620
330
2
100
AcDbEntity
  8
画層1
 62
     0
100
AcDbLine
 10
254.0
 20
229.6999999999998
 30
0.0
 11
261.6999999999999
 21
229.6999999999998
 31
0.0
  0
ARC
  5
621
330
2
100
AcDbEntity
  8
画層1
 62
     0
100
AcDbCircle
 10
245.1599999999999
 20
233.0499999999998
 30
0.0
 40
11.44118730072771
100
AcDbArc
 50
4.260000000000263
 51
19.12999999999945
  0
ARC
  5
622
330
2
100
AcDbEntity
  8
画層1
 62
     0
100
AcDbCircle
 10
245.0699999999999
 20
233.2999999999997
 30
0.0
 40
10.50674104301652
100
AcDbArc
 50
4.369999999999958
 51
19.46000000000037
  0
LINE
  5
623
330
2
100
AcDbEntity
  8
画層1
 62
     0
100
AcDbLine
 10
256.4999999999999
 20
236.8999999999997
 30
0.0
 11
256.4999999999999
 21
234.5999999999996
 31
0.0
  0
ARC
  5
624
330
2
100
AcDbEntity
  8
画層1
 62
     0
100
AcDbCircle
 10
257.8199999999999
 20
235.0999999999998
 30
0.0
 40
1.0
100
AcDbArc
 50
15.98999999999949
 51
81.469999999999
  0
LINE
  5
625
330
2
100
AcDbEntity
  8
画層1
 62
     0
100
AcDbLine
 10
254.0
 20
236.8999999999997
 30
0.0
 11
254.0
 21
229.6999999999998
 31
0.0
  0
LINE
  5
626
330
2
100
AcDbEntity
  8
画層1
 62
     0
100
AcDbLine
 10
256.57
 20
235.7199999999997
 30
0.0
 11
256.57
 21
230.8799999999997
 31
0.0
  0
LINE
  5
627
330
2
100
AcDbEntity
  8
画層1
 62
     0
100
AcDbLine
 10
254.97
 20
236.7999999999998
 30
0.0
 11
254.97
 21
229.7999999999996
 31
0.0
  0
LINE
  5
628
330
2
100
AcDbEntity
  8
画層1
 62
     0
100
AcDbLine
 10
254.4699999999999
 20
229.7999999999996
 30
0.0
 11
254.4699999999999
 21
236.7999999999998
 31
0.0
  0
LINE
  5
629
330
2
100
AcDbEntity
  8
画層1
 62
     0
100
AcDbLine
 10
254.0
 20
229.6999999999998
 30
0.0
 11
261.6999999999999
 21
229.6999999999998
 31
0.0
  0
ARC
  5
62A
330
2
100
AcDbEntity
  8
画層1
 62
     0
100
AcDbCircle
 10
254.1999999999999
 20
229.8999999999998
 30
0.0
 40
0.2
100
AcDbArc
 50
180.0
 51
270.0
  0
LINE
  5
62B
330
2
100
AcDbEntity
  8
画層1
 62
     0
100
AcDbLine
 10
255.9699999999998
 20
229.7999999999996
 30
0.0
 11
254.0
 21
229.7999999999996
 31
0.0
  0
LINE
  5
62C
330
2
100
AcDbEntity
  8
画層1
 62
     0
100
AcDbLine
 10
256.4999999999999
 20
231.9999999999998
 30
0.0
 11
256.4999999999999
 21
229.6999999999998
 31
0.0
  0
ARC
  5
62D
330
2
100
AcDbEntity
  8
画層1
 62
     0
100
AcDbCircle
 10
245.1599999999999
 20
233.5499999999998
 30
0.0
 40
11.44118729799423
100
AcDbArc
 50
340.8700000000005
 51
355.7399999999996
  0
ARC
  5
62E
330
2
100
AcDbEntity
  8
画層1
 62
     0
100
AcDbCircle
 10
245.0699999999999
 20
233.2999999999997
 30
0.0
 40
10.50674104301652
100
AcDbArc
 50
340.5399999999996
 51
355.63
  0
ARC
  5
62F
330
2
100
AcDbEntity
  8
画層1
 62
     0
100
AcDbCircle
 10
257.8199999999999
 20
231.4999999999998
 30
0.0
 40
1.0
100
AcDbArc
 50
278.530000000001
 51
344.0100000000005
  0
LINE
  5
630
330
2
100
AcDbEntity
  8
画層1
 62
     0
100
AcDbLine
 10
256.1699999999999
 20
233.8999999999996
 30
0.0
 11
256.1699999999999
 21
232.6999999999998
 31
0.0
  0
LINE
  5
631
330
2
100
AcDbEntity
  8
画層1
 62
     0
100
AcDbLine
 10
256.1699999999999
 20
232.6999999999998
 30
0.0
 11
256.57
 21
232.6999999999998
 31
0.0
  0
LINE
  5
632
330
2
100
AcDbEntity
  8
画層1
 62
     0
100
AcDbLine
 10
256.57
 20
233.8999999999996
 30
0.0
 11
256.1699999999999
 21
233.8999999999996
 31
0.0
  0
LINE
  5
633
330
2
100
AcDbEntity
  8
画層1
 62
     0
100
AcDbLine
 10
255.5399999999999
 20
232.4999999999997
 30
0.0
 11
254.97
 21
232.4999999999997
 31
0.0
  0
LINE
  5
634
330
2
100
AcDbEntity
  8
画層1
 62
     0
100
AcDbLine
 10
255.5399999999999
 20
234.0999999999997
 30
0.0
 11
254.97
 21
234.0999999999997
 31
0.0
  0
ARC
  5
635
330
2
100
AcDbEntity
  8
画層1
 62
     0
100
AcDbCircle
 10
257.0699999999999
 20
230.8799999999997
 30
0.0
 40
0.5
100
AcDbArc
 50
180.0
 51
278.530000000001
  0
LINE
  5
636
330
2
100
AcDbEntity
  8
画層1
 62
     0
100
AcDbLine
 10
257.1499999999999
 20
230.3899999999996
 30
0.0
 11
257.97
 21
230.5099999999999
 31
0.0
  0
ARC
  5
637
330
2
100
AcDbEntity
  8
画層1
 62
     0
100
AcDbCircle
 10
251.5299999999999
 20
233.2999999999997
 30
0.0
 40
7.540000001812724
100
AcDbArc
 50
3.800000000000371
 51
15.98999999999949
  0
LINE
  5
638
330
2
100
AcDbEntity
  8
画層1
 62
     0
100
AcDbLine
 10
258.0699999999999
 20
233.7999999999996
 30
0.0
 11
258.0699999999999
 21
232.7999999999998
 31
0.0
  0
LINE
  5
639
330
2
100
AcDbEntity
  8
画層1
 62
     0
100
AcDbLine
 10
258.0699999999999
 20
232.7999999999998
 30
0.0
 11
259.0599999999999
 21
232.7999999999998
 31
0.0
  0
LINE
  5
63A
330
2
100
AcDbEntity
  8
画層1
 62
     0
100
AcDbLine
 10
259.0599999999999
 20
233.7999999999996
 30
0.0
 11
258.0699999999999
 21
233.7999999999996
 31
0.0
  0
ARC
  5
63B
330
2
100
AcDbEntity
  8
画層1
 62
     0
100
AcDbCircle
 10
251.5299999999999
 20
233.2999999999997
 30
0.0
 40
7.540000001812724
100
AcDbArc
 50
344.0100000000005
 51
356.1999999999995
  0
ARC
  5
63C
330
2
100
AcDbEntity
  8
画層1
 62
     0
100
AcDbCircle
 10
254.1999999999999
 20
236.6999999999998
 30
0.0
 40
0.2
100
AcDbArc
 50
90.0
 51
180.0
  0
LINE
  5
63D
330
2
100
AcDbEntity
  8
画層1
 62
     0
100
AcDbLine
 10
254.0
 20
236.7999999999998
 30
0.0
 11
255.9699999999998
 21
236.7999999999998
 31
0.0
  0
LINE
  5
63E
330
2
100
AcDbEntity
  8
画層1
 62
     0
100
AcDbLine
 10
261.6999999999999
 20
236.8999999999997
 30
0.0
 11
254.0
 21
236.8999999999997
 31
0.0
  0
ARC
  5
63F
330
2
100
AcDbEntity
  8
画層1
 62
     0
100
AcDbCircle
 10
257.0699999999999
 20
235.7199999999997
 30
0.0
 40
0.5
100
AcDbArc
 50
81.469999999999
 51
180.0
  0
LINE
  5
640
330
2
100
AcDbEntity
  8
画層1
 62
     0
100
AcDbLine
 10
257.1499999999999
 20
236.2099999999998
 30
0.0
 11
257.97
 21
236.0899999999996
 31
0.0
  0
LINE
  5
64A
330
2
100
AcDbEntity
  8
画層1
100
AcDbLine
 10
262.0
 20
229.3999999999998
 30
0.0
 11
262.0
 21
228.8999999999997
 31
0.0
  0
LINE
  5
64B
330
2
100
AcDbEntity
  8
画層1
100
AcDbLine
 10
262.0
 20
221.0999999999998
 30
0.0
 11
262.0
 21
220.5999999999999
 31
0.0
  0
LINE
  5
64C
330
2
100
AcDbEntity
  8
画層1
100
AcDbLine
 10
262.0
 20
196.1999999999999
 30
0.0
 11
261.9999999999999
 21
195.6999999999999
 31
0.0
  0
LINE
  5
64D
330
2
100
AcDbEntity
  8
画層1
100
AcDbLine
 10
262.0
 20
171.2999999999999
 30
0.0
 11
262.0
 21
170.8
 31
0.0
  0
LINE
  5
64E
330
2
100
AcDbEntity
  8
画層1
100
AcDbLine
 10
262.0
 20
162.9999999999999
 30
0.0
 11
262.019017953917
 21
162.5
 31
0.0
  0
ARC
  5
651
330
2
100
AcDbEntity
  8
画層1
 62
     0
100
AcDbCircle
 10
152.2
 20
149.1999999999999
 30
0.0
 40
1.199999999999999
100
AcDbArc
 50
180.0
 51
270.0
  0
ARC
  5
652
330
2
100
AcDbEntity
  8
画層1
 62
     0
100
AcDbCircle
 10
152.2
 20
242.8
 30
0.0
 40
1.199999999999999
100
AcDbArc
 50
90.0
 51
180.0
  0
ENDSEC
  0
SECTION
  2
OBJECTS
  0
DICTIONARY
  5
8
330
0
100
AcDbDictionary
281
     1
  3
ACAD_GROUP
350
21
  3
ACAD_LAYOUT
350
C
  3
ACAD_MLINESTYLE
350
22
  3
ACAD_PLOTSETTINGS
350
23
  3
ACAD_PLOTSTYLENAME
350
7
  3
DWGPROPS
350
38D
  0
DICTIONARY
  5
3
330
2
100
AcDbDictionary
280
     1
281
     1
  0
DICTIONARY
  5
E
330
D
100
AcDbDictionary
280
     1
281
     1
  0
DICTIONARY
  5
21
102
{ACAD_REACTORS
330
8
102
}
330
8
100
AcDbDictionary
281
     1
  0
DICTIONARY
  5
C
102
{ACAD_REACTORS
330
8
102
}
330
8
100
AcDbDictionary
281
     1
  3
Model
350
337
  3
ﾚｲｱｳﾄ1
350
338
  0
DICTIONARY
  5
22
102
{ACAD_REACTORS
330
8
102
}
330
8
100
AcDbDictionary
281
     1
  3
STANDARD
350
2C
  0
DICTIONARY
  5
23
102
{ACAD_REACTORS
330
8
102
}
330
8
100
AcDbDictionary
281
     1
  0
ACDBDICTIONARYWDFLT
  5
7
102
{ACAD_REACTORS
330
8
102
}
330
8
100
AcDbDictionary
281
     1
  3
Normal
350
6
100
AcDbDictionaryWithDefault
340
6
  0
XRECORD
  5
38D
102
{ACAD_REACTORS
330
8
102
}
330
8
100
AcDbXrecord
280
     1
  1
DWGPROPS COOKIE
  2

  3

  4

  6

  7

  8

  9

300
=
301
=
302
=
303
=
304
=
305
=
306
=
307
=
308
=
309
=
 40
1.329207523148147
 41
2450995.462150231
 42
2451964.750645833
  1

 90
        0
  0
LAYOUT
  5
337
102
{ACAD_REACTORS
330
C
102
}
330
C
100
AcDbPlotSettings
  1

  2
EPSON MJ-6000C
  4

  6

 40
0.0
 41
0.0
 42
0.0
 43
0.0
 44
0.0
 45
0.0
 46
0.0
 47
0.0
 48
0.0
 49
0.0
140
0.0
141
0.0
142
1.0
143
1.0
 70
  1712
 72
     0
 73
     0
 74
     0
  7

 75
     0
147
1.0
148
0.0
149
0.0
100
AcDbLayout
  1
Model
 70
     1
 71
     0
 10
0.0
 20
0.0
 11
12.0
 21
9.0
 12
0.0
 22
0.0
 32
0.0
 14
0.0
 24
0.0
 34
0.0
 15
0.0
 25
0.0
 35
0.0
146
0.0
 13
0.0
 23
0.0
 33
0.0
 16
1.0
 26
0.0
 36
0.0
 17
0.0
 27
1.0
 37
0.0
 76
     0
330
2
  0
LAYOUT
  5
338
102
{ACAD_REACTORS
330
C
102
}
330
C
100
AcDbPlotSettings
  1

  2
EPSON MJ-6000C
  4

  6

 40
0.0
 41
0.0
 42
0.0
 43
0.0
 44
0.0
 45
0.0
 46
0.0
 47
0.0
 48
0.0
 49
0.0
140
0.0
141
0.0
142
1.0
143
1.0
 70
   688
 72
     0
 73
     0
 74
     5
  7

 75
    16
147
1.0
148
0.0
149
0.0
100
AcDbLayout
  1
ﾚｲｱｳﾄ1
 70
     1
 71
     1
 10
0.0
 20
0.0
 11
420.0
 21
297.0
 12
0.0
 22
0.0
 32
0.0
 14
1.000000000000000E+20
 24
1.000000000000000E+20
 34
1.000000000000000E+20
 15
-1.000000000000000E+20
 25
-1.000000000000000E+20
 35
-1.000000000000000E+20
146
0.0
 13
0.0
 23
0.0
 33
0.0
 16
1.0
 26
0.0
 36
0.0
 17
0.0
 27
1.0
 37
0.0
 76
     0
330
D
  0
MLINESTYLE
  5
2C
102
{ACAD_REACTORS
330
22
102
}
330
22
100
AcDbMlineStyle
  2
STANDARD
 70
     0
  3

 62
   256
 51
90.0
 52
90.0
 71
     2
 49
1.0
 62
   256
  6
BYLAYER
 49
-1.0
 62
   256
  6
BYLAYER
  0
ACDBPLACEHOLDER
  5
6
102
{ACAD_REACTORS
330
7
102
}
330
7
  0
ENDSEC
  0
EOF
