  0
SECTION
  2
HEADER
  9
$ACADVER
  1
AC1015
  9
$ACADMAINTVER
 70
     6
  9
$DWGCODEPAGE
  3
ANSI_932
  9
$INSBASE
 10
0.0
 20
0.0
 30
0.0
  9
$EXTMIN
 10
41.0
 20
28.0
 30
-0.00000001
  9
$EXTMAX
 10
262.1449747468306
 20
248.8018781725888
 30
0.00000001
  9
$LIMMIN
 10
0.0
 20
0.0
  9
$LIMMAX
 10
420.0
 20
297.0
  9
$ORTHOMODE
 70
     0
  9
$REGENMODE
 70
     1
  9
$FILLMODE
 70
     1
  9
$QTEXTMODE
 70
     0
  9
$MIRRTEXT
 70
     1
  9
$LTSCALE
 40
0.2
  9
$ATTMODE
 70
     1
  9
$TEXTSIZE
 40
2.5
  9
$TRACEWID
 40
1.0
  9
$TEXTSTYLE
  7
STYLE1
  9
$CLAYER
  8
画層1
  9
$CELTYPE
  6
BYLAYER
  9
$CECOLOR
 62
     0
  9
$CELTSCALE
 40
1.0
  9
$DISPSILH
 70
     0
  9
$DIMSCALE
 40
1.0
  9
$DIMASZ
 40
1.5
  9
$DIMEXO
 40
0.63
  9
$DIMDLI
 40
3.75
  9
$DIMRND
 40
0.0
  9
$DIMDLE
 40
0.0
  9
$DIMEXE
 40
1.25
  9
$DIMTP
 40
0.7
  9
$DIMTM
 40
0.0
  9
$DIMTXT
 40
2.5
  9
$DIMCEN
 40
2.5
  9
$DIMTSZ
 40
0.0
  9
$DIMTOL
 70
     0
  9
$DIMLIM
 70
     0
  9
$DIMTIH
 70
     0
  9
$DIMTOH
 70
     0
  9
$DIMSE1
 70
     0
  9
$DIMSE2
 70
     0
  9
$DIMTAD
 70
     1
  9
$DIMZIN
 70
     8
  9
$DIMBLK
  1

  9
$DIMASO
 70
     1
  9
$DIMSHO
 70
     1
  9
$DIMPOST
  1

  9
$DIMAPOST
  1

  9
$DIMALT
 70
     0
  9
$DIMALTD
 70
     4
  9
$DIMALTF
 40
0.04
  9
$DIMLFAC
 40
1.0
  9
$DIMTOFL
 70
     1
  9
$DIMTVP
 40
0.0
  9
$DIMTIX
 70
     0
  9
$DIMSOXD
 70
     0
  9
$DIMSAH
 70
     1
  9
$DIMBLK1
  1
OPEN
  9
$DIMBLK2
  1
OPEN
  9
$DIMSTYLE
  2
STANDARD_WS
  9
$DIMCLRD
 70
     0
  9
$DIMCLRE
 70
     0
  9
$DIMCLRT
 70
     0
  9
$DIMTFAC
 40
0.5
  9
$DIMGAP
 40
0.63
  9
$DIMJUST
 70
     0
  9
$DIMSD1
 70
     0
  9
$DIMSD2
 70
     0
  9
$DIMTOLJ
 70
     1
  9
$DIMTZIN
 70
     8
  9
$DIMALTZ
 70
     0
  9
$DIMALTTZ
 70
     0
  9
$DIMUPT
 70
     0
  9
$DIMDEC
 70
     4
  9
$DIMTDEC
 70
     4
  9
$DIMALTU
 70
     8
  9
$DIMALTTD
 70
     4
  9
$DIMTXSTY
  7
STYLE1
  9
$DIMAUNIT
 70
     0
  9
$DIMADEC
 70
     0
  9
$DIMALTRND
 40
0.0
  9
$DIMAZIN
 70
     0
  9
$DIMDSEP
 70
    46
  9
$DIMATFIT
 70
     3
  9
$DIMFRAC
 70
     0
  9
$DIMLDRBLK
  1
OPEN
  9
$DIMLUNIT
 70
     2
  9
$DIMLWD
 70
    -2
  9
$DIMLWE
 70
    -2
  9
$DIMTMOVE
 70
     0
  9
$LUNITS
 70
     2
  9
$LUPREC
 70
     4
  9
$SKETCHINC
 40
1.0
  9
$FILLETRAD
 40
1.0
  9
$AUNITS
 70
     0
  9
$AUPREC
 70
     0
  9
$MENU
  1
acad
  9
$ELEVATION
 40
0.0
  9
$PELEVATION
 40
0.0
  9
$THICKNESS
 40
0.0
  9
$LIMCHECK
 70
     0
  9
$CHAMFERA
 40
10.0
  9
$CHAMFERB
 40
10.0
  9
$CHAMFERC
 40
20.0
  9
$CHAMFERD
 40
0.0
  9
$SKPOLY
 70
     0
  9
$TDCREATE
 40
2450995.462150231
  9
$TDUCREATE
 40
2450995.087150231
  9
$TDUPDATE
 40
2451964.750142940
  9
$TDUUPDATE
 40
2451964.375142940
  9
$TDINDWG
 40
1.4467439815
  9
$TDUSRTIMER
 40
1.4467439815
  9
$USRTIMER
 70
     1
  9
$ANGBASE
 50
0.0
  9
$ANGDIR
 70
     0
  9
$PDMODE
 70
     0
  9
$PDSIZE
 40
0.0
  9
$PLINEWID
 40
10.0
  9
$SPLFRAME
 70
     0
  9
$SPLINETYPE
 70
     6
  9
$SPLINESEGS
 70
     8
  9
$HANDSEED
  5
302
  9
$SURFTAB1
 70
     6
  9
$SURFTAB2
 70
     6
  9
$SURFTYPE
 70
     6
  9
$SURFU
 70
     6
  9
$SURFV
 70
     6
  9
$UCSBASE
  2

  9
$UCSNAME
  2

  9
$UCSORG
 10
0.0
 20
0.0
 30
0.0
  9
$UCSXDIR
 10
1.0
 20
0.0
 30
0.0
  9
$UCSYDIR
 10
0.0
 20
1.0
 30
0.0
  9
$UCSORTHOREF
  2

  9
$UCSORTHOVIEW
 70
     0
  9
$UCSORGTOP
 10
0.0
 20
0.0
 30
0.0
  9
$UCSORGBOTTOM
 10
0.0
 20
0.0
 30
0.0
  9
$UCSORGLEFT
 10
0.0
 20
0.0
 30
0.0
  9
$UCSORGRIGHT
 10
0.0
 20
0.0
 30
0.0
  9
$UCSORGFRONT
 10
0.0
 20
0.0
 30
0.0
  9
$UCSORGBACK
 10
0.0
 20
0.0
 30
0.0
  9
$PUCSBASE
  2

  9
$PUCSNAME
  2

  9
$PUCSORG
 10
0.0
 20
0.0
 30
0.0
  9
$PUCSXDIR
 10
1.0
 20
0.0
 30
0.0
  9
$PUCSYDIR
 10
0.0
 20
1.0
 30
0.0
  9
$PUCSORTHOREF
  2

  9
$PUCSORTHOVIEW
 70
     0
  9
$PUCSORGTOP
 10
0.0
 20
0.0
 30
0.0
  9
$PUCSORGBOTTOM
 10
0.0
 20
0.0
 30
0.0
  9
$PUCSORGLEFT
 10
0.0
 20
0.0
 30
0.0
  9
$PUCSORGRIGHT
 10
0.0
 20
0.0
 30
0.0
  9
$PUCSORGFRONT
 10
0.0
 20
0.0
 30
0.0
  9
$PUCSORGBACK
 10
0.0
 20
0.0
 30
0.0
  9
$USERI1
 70
     0
  9
$USERI2
 70
     0
  9
$USERI3
 70
     0
  9
$USERI4
 70
     0
  9
$USERI5
 70
     0
  9
$USERR1
 40
0.0
  9
$USERR2
 40
0.0
  9
$USERR3
 40
0.0
  9
$USERR4
 40
0.0
  9
$USERR5
 40
0.0
  9
$WORLDVIEW
 70
     1
  9
$SHADEDGE
 70
     3
  9
$SHADEDIF
 70
    70
  9
$TILEMODE
 70
     1
  9
$MAXACTVP
 70
    48
  9
$PINSBASE
 10
0.0
 20
0.0
 30
0.0
  9
$PLIMCHECK
 70
     0
  9
$PEXTMIN
 10
1.000000000000000E+20
 20
1.000000000000000E+20
 30
1.000000000000000E+20
  9
$PEXTMAX
 10
-1.000000000000000E+20
 20
-1.000000000000000E+20
 30
-1.000000000000000E+20
  9
$PLIMMIN
 10
0.0
 20
0.0
  9
$PLIMMAX
 10
420.0
 20
297.0
  9
$UNITMODE
 70
     0
  9
$VISRETAIN
 70
     1
  9
$PLINEGEN
 70
     0
  9
$PSLTSCALE
 70
     1
  9
$TREEDEPTH
 70
  3020
  9
$CMLSTYLE
  2
STANDARD
  9
$CMLJUST
 70
     0
  9
$CMLSCALE
 40
20.0
  9
$PROXYGRAPHICS
 70
     1
  9
$MEASUREMENT
 70
     1
  9
$CELWEIGHT
370
    -1
  9
$ENDCAPS
280
     0
  9
$JOINSTYLE
280
     0
  9
$LWDISPLAY
290
     0
  9
$INSUNITS
 70
     0
  9
$HYPERLINKBASE
  1

  9
$STYLESHEET
  1

  9
$XEDIT
290
     1
  9
$CEPSNTYPE
380
     0
  9
$PSTYLEMODE
290
     1
  9
$FINGERPRINTGUID
  2
{128F391A-9681-11D3-A790-004026173390}
  9
$VERSIONGUID
  2
{45B34161-09AF-11D5-8D55-0060949B1DAC}
  9
$EXTNAMES
290
     1
  9
$PSVPSCALE
 40
0.0
  9
$OLESTARTUP
290
     0
  0
ENDSEC
  0
SECTION
  2
CLASSES
  0
CLASS
  1
DICTIONARYVAR
  2
AcDbDictionaryVar
  3
AutoCAD 2000
 90
    32768
280
     0
281
     0
  0
CLASS
  1
LWPOLYLINE
  2
AcDbPolyline
  3
AutoCAD 2000
 90
    32768
280
     0
281
     1
  0
CLASS
  1
OLE2FRAME
  2
AcDbOle2Frame
  3
AutoCAD 2000
 90
    32768
280
     0
281
     1
  0
CLASS
  1
HATCH
  2
AcDbHatch
  3
AutoCAD 2000
 90
    32768
280
     0
281
     1
  0
CLASS
  1
ACDBDICTIONARYWDFLT
  2
AcDbDictionaryWithDefault
  3
AutoCAD 2000
 90
        0
280
     0
281
     0
  0
CLASS
  1
ACDBPLACEHOLDER
  2
AcDbPlaceHolder
  3
AutoCAD 2000
 90
        0
280
     0
281
     0
  0
CLASS
  1
LAYOUT
  2
AcDbLayout
  3
AutoCAD 2000
 90
        0
280
     0
281
     0
  0
CLASS
  1
LONG_TRANSACTION
  2
AcDbLongTransaction
  3
AutoCAD 2000
 90
    32768
280
     0
281
     0
  0
CLASS
  1
LWPOLYLINE
  2
AcDbPolyline
  3
AutoCAD 2000
 90
    32768
280
     0
281
     1
  0
CLASS
  1
HATCH
  2
AcDbHatch
  3
AutoCAD 2000
 90
    32768
280
     0
281
     1
  0
CLASS
  1
XRECORD
  2
AcDbXrecord
  3
AutoCAD 2000
 90
    32768
280
     0
281
     0
  0
ENDSEC
  0
SECTION
  2
TABLES
  0
TABLE
  2
VPORT
  5
1E
330
0
100
AcDbSymbolTable
 70
     2
  0
VPORT
  5
301
330
1E
100
AcDbSymbolTableRecord
100
AcDbViewportTableRecord
  2
*Active
 70
     0
 10
0.0
 20
0.0
 11
1.0
 21
1.0
 12
168.1499999999999
 22
147.5117881028938
 13
0.0
 23
0.0
 14
1.0
 24
1.0
 15
2.0
 25
2.0
 16
0.0
 26
0.0
 36
1.0
 17
0.0
 27
0.0
 37
0.0
 40
322.8735762057877
 41
1.840236686390532
 42
50.0
 43
0.0
 44
0.0
 50
0.0
 51
0.0
 71
     0
 72
   100
 73
     1
 74
     1
 75
     0
 76
     0
 77
     0
 78
     0
281
     0
 65
     1
110
0.0
120
0.0
130
0.0
111
1.0
121
0.0
131
0.0
112
0.0
122
1.0
132
0.0
 79
     0
146
0.0
  0
ENDTAB
  0
TABLE
  2
LTYPE
  5
19
330
0
100
AcDbSymbolTable
 70
     2
  0
LTYPE
  5
1A
330
19
100
AcDbSymbolTableRecord
100
AcDbLinetypeTableRecord
  2
BYBLOCK
 70
     0
  3

 72
    65
 73
     0
 40
0.0
  0
LTYPE
  5
1B
330
19
100
AcDbSymbolTableRecord
100
AcDbLinetypeTableRecord
  2
BYLAYER
 70
     0
  3

 72
    65
 73
     0
 40
0.0
  0
LTYPE
  5
A
330
19
100
AcDbSymbolTableRecord
100
AcDbLinetypeTableRecord
  2
CONTINUOUS
 70
     0
  3
Solid line
 72
    65
 73
     0
 40
0.0
  0
LTYPE
  5
66
330
19
100
AcDbSymbolTableRecord
100
AcDbLinetypeTableRecord
  2
CENTER
 70
     0
  3
Center ____ _ ____ _ ____ _ ____ _ ____ _ ____
 72
    65
 73
     4
 40
50.8
 49
31.75
 74
     0
 49
-6.349999999999999
 74
     0
 49
6.349999999999999
 74
     0
 49
-6.349999999999999
 74
     0
  0
ENDTAB
  0
TABLE
  2
LAYER
  5
14
330
0
100
AcDbSymbolTable
 70
     3
  0
LAYER
  5
6
330
14
100
AcDbSymbolTableRecord
100
AcDbLayerTableRecord
  2
0
 70
     0
 62
     7
  6
CONTINUOUS
370
    -3
390
7
  0
LAYER
  5
45
330
14
100
AcDbSymbolTableRecord
100
AcDbLayerTableRecord
  2
DEFPOINTS
 70
     0
 62
     7
  6
CONTINUOUS
290
     0
370
    -3
390
7
  0
LAYER
  5
26
330
14
100
AcDbSymbolTableRecord
100
AcDbLayerTableRecord
  2
画層1
 70
     0
 62
     7
  6
CONTINUOUS
370
    -3
390
7
  0
ENDTAB
  0
TABLE
  2
STYLE
  5
15
330
0
100
AcDbSymbolTable
 70
     2
  0
STYLE
  5
16
330
15
100
AcDbSymbolTableRecord
100
AcDbTextStyleTableRecord
  2
STANDARD
 70
     0
 40
2.5
 41
1.0
 50
0.0
 71
     0
 42
1.5
  3
MS PMincho.ttf
  4

1001
ACAD
1000
MS PMincho
1071
    32786
  0
STYLE
  5
27
330
15
100
AcDbSymbolTableRecord
100
AcDbTextStyleTableRecord
  2
STYLE1
 70
     0
 40
2.5
 41
1.0
 50
0.0
 71
     0
 42
2.5
  3
MS Gothic.ttf
  4

1001
ACAD
1000
MS Gothic
1071
    32817
  0
ENDTAB
  0
TABLE
  2
VIEW
  5
1C
330
0
100
AcDbSymbolTable
 70
     0
  0
ENDTAB
  0
TABLE
  2
UCS
  5
1D
330
0
100
AcDbSymbolTable
 70
     0
  0
ENDTAB
  0
TABLE
  2
APPID
  5
20
330
0
100
AcDbSymbolTable
 70
     1
  0
APPID
  5
17
330
20
100
AcDbSymbolTableRecord
100
AcDbRegAppTableRecord
  2
ACAD
 70
     0
  0
ENDTAB
  0
TABLE
  2
DIMSTYLE
  5
21
330
0
100
AcDbSymbolTable
 70
     1
100
AcDbDimStyleTable
 71
     0
  0
DIMSTYLE
105
2F
102
{ACAD_REACTORS
330
FF
330
4A
330
3C
330
58
330
6A
330
8D
330
111
102
}
330
21
100
AcDbSymbolTableRecord
100
AcDbDimStyleTableRecord
  2
STANDARD_WS
 70
     0
 41
1.5
 42
0.63
 43
3.75
 44
1.25
 73
     0
 74
     0
 77
     1
 78
     8
140
2.5
141
2.5
143
0.04
147
0.63
171
     4
172
     1
173
     1
273
     8
274
     4
340
16
341
28
343
28
344
28
  0
ENDTAB
  0
TABLE
  2
BLOCK_RECORD
  5
1
330
0
100
AcDbSymbolTable
 70
    15
  0
BLOCK_RECORD
  5
2
102
{ACAD_XDICTIONARY
360
3
102
}
330
1
100
AcDbSymbolTableRecord
100
AcDbBlockTableRecord
  2
*MODEL_SPACE
340
C
  0
BLOCK_RECORD
  5
E
102
{ACAD_XDICTIONARY
360
F
102
}
330
1
100
AcDbSymbolTableRecord
100
AcDbBlockTableRecord
  2
*PAPER_SPACE
340
13
  0
BLOCK_RECORD
  5
28
330
1
100
AcDbSymbolTableRecord
100
AcDbBlockTableRecord
  2
_OPEN
340
0
102
{BLKREFS
331
104
331
105
331
41
331
42
331
92
331
93
331
116
331
117
331
5D
331
5E
331
6F
331
70
331
4E
331
4F
331
2B0
331
2B1
331
2BC
331
2BD
331
2C8
331
2C9
331
2D4
331
2D5
331
2E0
331
2E1
331
2EC
331
2ED
331
2F8
331
2F9
102
}
  0
BLOCK_RECORD
  5
100
330
1
100
AcDbSymbolTableRecord
100
AcDbBlockTableRecord
  2
*D1
340
0
  0
BLOCK_RECORD
  5
4B
330
1
100
AcDbSymbolTableRecord
100
AcDbBlockTableRecord
  2
*D2
340
0
  0
BLOCK_RECORD
  5
3D
330
1
100
AcDbSymbolTableRecord
100
AcDbBlockTableRecord
  2
*D3
340
0
  0
BLOCK_RECORD
  5
59
330
1
100
AcDbSymbolTableRecord
100
AcDbBlockTableRecord
  2
*D4
340
0
  0
BLOCK_RECORD
  5
6B
330
1
100
AcDbSymbolTableRecord
100
AcDbBlockTableRecord
  2
*D5
340
0
  0
BLOCK_RECORD
  5
8E
330
1
100
AcDbSymbolTableRecord
100
AcDbBlockTableRecord
  2
*D6
340
0
  0
BLOCK_RECORD
  5
112
330
1
100
AcDbSymbolTableRecord
100
AcDbBlockTableRecord
  2
*D7
340
0
  0
BLOCK_RECORD
  5
2AD
330
1
100
AcDbSymbolTableRecord
100
AcDbBlockTableRecord
  2
*D8
340
0
  0
BLOCK_RECORD
  5
2B8
330
1
100
AcDbSymbolTableRecord
100
AcDbBlockTableRecord
  2
*D9
340
0
  0
BLOCK_RECORD
  5
2C4
330
1
100
AcDbSymbolTableRecord
100
AcDbBlockTableRecord
  2
*D10
340
0
  0
BLOCK_RECORD
  5
2D0
330
1
100
AcDbSymbolTableRecord
100
AcDbBlockTableRecord
  2
*D11
340
0
  0
BLOCK_RECORD
  5
2DC
330
1
100
AcDbSymbolTableRecord
100
AcDbBlockTableRecord
  2
*D12
340
0
  0
BLOCK_RECORD
  5
2E8
330
1
100
AcDbSymbolTableRecord
100
AcDbBlockTableRecord
  2
*D13
340
0
  0
BLOCK_RECORD
  5
2F4
330
1
100
AcDbSymbolTableRecord
100
AcDbBlockTableRecord
  2
*D14
340
0
  0
ENDTAB
  0
ENDSEC
  0
SECTION
  2
BLOCKS
  0
BLOCK
  5
5
330
2
100
AcDbEntity
  8
0
100
AcDbBlockBegin
  2
*MODEL_SPACE
 70
     0
 10
0.0
 20
0.0
 30
0.0
  3
*MODEL_SPACE
  1

  0
ENDBLK
  5
B
330
2
100
AcDbEntity
  8
0
100
AcDbBlockEnd
  0
BLOCK
  5
11
330
E
100
AcDbEntity
 67
     1
  8
0
100
AcDbBlockBegin
  2
*PAPER_SPACE
 70
     0
 10
0.0
 20
0.0
 30
0.0
  3
*PAPER_SPACE
  1

  0
ENDBLK
  5
12
330
E
100
AcDbEntity
 67
     1
  8
0
100
AcDbBlockEnd
  0
BLOCK
  5
2C
330
28
100
AcDbEntity
  8
0
100
AcDbBlockBegin
  2
_OPEN
 70
     0
 10
0.0
 20
0.0
 30
0.0
  3
_OPEN
  1

  0
LINE
  5
29
330
28
100
AcDbEntity
  8
0
  6
ByBlock
 62
     0
100
AcDbLine
 10
-1.0
 20
0.17
 30
0.0
 11
0.0
 21
0.0
 31
0.0
  0
LINE
  5
2A
330
28
100
AcDbEntity
  8
0
  6
ByBlock
 62
     0
100
AcDbLine
 10
0.0
 20
0.0
 30
0.0
 11
-1.0
 21
-0.17
 31
0.0
  0
LINE
  5
2B
330
28
100
AcDbEntity
  8
0
  6
ByBlock
 62
     0
100
AcDbLine
 10
0.0
 20
0.0
 30
0.0
 11
-1.0
 21
0.0
 31
0.0
  0
ENDBLK
  5
2D
330
28
100
AcDbEntity
  8
0
100
AcDbBlockEnd
  0
BLOCK
  5
10A
330
100
100
AcDbEntity
  8
0
100
AcDbBlockBegin
  2
*D1
 70
     1
 10
0.0
 20
0.0
 30
0.0
  3
*D1
  1

  0
LINE
  5
101
330
100
100
AcDbEntity
  8
0
  6
ByBlock
 62
     0
100
AcDbLine
 10
151.0
 20
243.93
 30
0.0
 11
151.0
 21
252.2499999999999
 31
0.0
  0
LINE
  5
102
330
100
100
AcDbEntity
  8
0
  6
ByBlock
 62
     0
100
AcDbLine
 10
162.0
 20
244.6299999999999
 30
0.0
 11
162.0
 21
252.2499999999999
 31
0.0
  0
LINE
  5
103
330
100
100
AcDbEntity
  8
0
  6
ByBlock
 62
     0
100
AcDbLine
 10
152.5
 20
251.0
 30
0.0
 11
160.4999999999999
 21
251.0
 31
0.0
  0
INSERT
  5
104
330
100
100
AcDbEntity
  8
0
  6
ByBlock
 62
     0
100
AcDbBlockReference
  2
_OPEN
 10
151.0
 20
251.0
 30
0.0
 41
1.5
 42
1.5
 43
1.5
 50
180.0
  0
INSERT
  5
105
330
100
100
AcDbEntity
  8
0
  6
ByBlock
 62
     0
100
AcDbBlockReference
  2
_OPEN
 10
162.0
 20
251.0
 30
0.0
 41
1.5
 42
1.5
 43
1.5
  0
MTEXT
  5
106
330
100
100
AcDbEntity
  8
0
  6
ByBlock
 62
     0
100
AcDbMText
 10
156.4999999999999
 20
252.8799999999999
 30
0.0
 40
2.5
 41
0.0
 71
     5
 72
     1
  1
\A1;11
  7
STYLE1
 73
     1
 44
1.0
1001
ACAD
1000
MTEXTBEGIN
1070
    73
1070
     1
1070
    44
1040
1.0
1070
    74
1070
     0
1000
MTEXTEND
  0
POINT
  5
107
330
100
100
AcDbEntity
  8
DEFPOINTS
  6
ByBlock
 62
     0
100
AcDbPoint
 10
151.0
 20
243.3
 30
0.0
  0
POINT
  5
108
330
100
100
AcDbEntity
  8
DEFPOINTS
  6
ByBlock
 62
     0
100
AcDbPoint
 10
162.0
 20
244.0
 30
0.0
  0
POINT
  5
109
330
100
100
AcDbEntity
  8
DEFPOINTS
  6
ByBlock
 62
     0
100
AcDbPoint
 10
162.0
 20
251.0
 30
0.0
  0
ENDBLK
  5
10B
330
100
100
AcDbEntity
  8
0
100
AcDbBlockEnd
  0
BLOCK
  5
54
330
4B
100
AcDbEntity
  8
0
100
AcDbBlockBegin
  2
*D2
 70
     1
 10
0.0
 20
0.0
 30
0.0
  3
*D2
  1

  0
LINE
  5
4C
330
4B
100
AcDbEntity
  8
画層1
 62
     0
100
AcDbLine
 10
262.0
 20
227.93
 30
0.0
 11
262.0
 21
240.2499999999999
 31
0.0
  0
LINE
  5
4D
330
4B
100
AcDbEntity
  8
画層1
 62
     0
100
AcDbLine
 10
163.4999999999999
 20
239.0
 30
0.0
 11
260.4999999999999
 21
239.0
 31
0.0
  0
INSERT
  5
4E
330
4B
100
AcDbEntity
  8
画層1
 62
     0
100
AcDbBlockReference
  2
_OPEN
 10
162.0
 20
239.0
 30
0.0
 41
1.5
 42
1.5
 43
1.5
 50
180.0
  0
INSERT
  5
4F
330
4B
100
AcDbEntity
  8
画層1
 62
     0
100
AcDbBlockReference
  2
_OPEN
 10
262.0
 20
239.0
 30
0.0
 41
1.5
 42
1.5
 43
1.5
  0
MTEXT
  5
50
330
4B
100
AcDbEntity
  8
画層1
 62
     0
100
AcDbMText
 10
212.0
 20
240.8799999999999
 30
0.0
 40
2.5
 41
0.0
 71
     5
 72
     1
  1
\A1;100
  7
STYLE1
 73
     1
 44
1.0
  0
POINT
  5
51
330
4B
100
AcDbEntity
  8
DEFPOINTS
 62
     0
100
AcDbPoint
 10
162.0
 20
232.0
 30
0.0
  0
POINT
  5
52
330
4B
100
AcDbEntity
  8
DEFPOINTS
 62
     0
100
AcDbPoint
 10
262.0
 20
227.3
 30
0.0
  0
POINT
  5
53
330
4B
100
AcDbEntity
  8
DEFPOINTS
 62
     0
100
AcDbPoint
 10
262.0
 20
239.0
 30
0.0
  0
ENDBLK
  5
55
330
4B
100
AcDbEntity
  8
0
100
AcDbBlockEnd
  0
BLOCK
  5
48
330
3D
100
AcDbEntity
  8
0
100
AcDbBlockBegin
  2
*D3
 70
     1
 10
0.0
 20
0.0
 30
0.0
  3
*D3
  1

  0
LINE
  5
3E
330
3D
100
AcDbEntity
  8
0
  6
ByBlock
 62
     0
100
AcDbLine
 10
151.0
 20
251.63
 30
0.0
 11
151.0
 21
259.25
 31
0.0
  0
LINE
  5
3F
330
3D
100
AcDbEntity
  8
0
  6
ByBlock
 62
     0
100
AcDbLine
 10
262.0
 20
251.63
 30
0.0
 11
262.0
 21
259.25
 31
0.0
  0
LINE
  5
40
330
3D
100
AcDbEntity
  8
0
  6
ByBlock
 62
     0
100
AcDbLine
 10
152.5
 20
258.0
 30
0.0
 11
260.4999999999999
 21
258.0
 31
0.0
  0
INSERT
  5
41
330
3D
100
AcDbEntity
  8
0
  6
ByBlock
 62
     0
100
AcDbBlockReference
  2
_OPEN
 10
151.0
 20
258.0
 30
0.0
 41
1.5
 42
1.5
 43
1.5
 50
180.0
  0
INSERT
  5
42
330
3D
100
AcDbEntity
  8
0
  6
ByBlock
 62
     0
100
AcDbBlockReference
  2
_OPEN
 10
262.0
 20
258.0
 30
0.0
 41
1.5
 42
1.5
 43
1.5
  0
MTEXT
  5
43
330
3D
100
AcDbEntity
  8
0
  6
ByBlock
 62
     0
100
AcDbMText
 10
206.4999999999999
 20
259.88
 30
0.0
 40
2.5
 41
0.0
 71
     5
 72
     1
  1
\A1;111
  7
STYLE1
 73
     1
 44
1.0
1001
ACAD
1000
MTEXTBEGIN
1070
    73
1070
     1
1070
    44
1040
1.0
1070
    74
1070
     0
1000
MTEXTEND
  0
POINT
  5
44
330
3D
100
AcDbEntity
  8
DEFPOINTS
  6
ByBlock
 62
     0
100
AcDbPoint
 10
151.0
 20
251.0
 30
0.0
  0
POINT
  5
46
330
3D
100
AcDbEntity
  8
DEFPOINTS
  6
ByBlock
 62
     0
100
AcDbPoint
 10
262.0
 20
251.0
 30
0.0
  0
POINT
  5
47
330
3D
100
AcDbEntity
  8
DEFPOINTS
  6
ByBlock
 62
     0
100
AcDbPoint
 10
262.0
 20
258.0
 30
0.0
  0
ENDBLK
  5
49
330
3D
100
AcDbEntity
  8
0
100
AcDbBlockEnd
  0
BLOCK
  5
63
330
59
100
AcDbEntity
  8
0
100
AcDbBlockBegin
  2
*D4
 70
     1
 10
0.0
 20
0.0
 30
0.0
  3
*D4
  1

  0
LINE
  5
5A
330
59
100
AcDbEntity
  8
0
  6
ByBlock
 62
     0
100
AcDbLine
 10
45.0
 20
105.63
 30
0.0
 11
45.0
 21
115.25
 31
0.0
  0
LINE
  5
5B
330
59
100
AcDbEntity
  8
0
  6
ByBlock
 62
     0
100
AcDbLine
 10
113.0
 20
105.63
 30
0.0
 11
113.0
 21
115.25
 31
0.0
  0
LINE
  5
5C
330
59
100
AcDbEntity
  8
0
  6
ByBlock
 62
     0
100
AcDbLine
 10
46.5
 20
114.0
 30
0.0
 11
111.4999999999999
 21
114.0
 31
0.0
  0
INSERT
  5
5D
330
59
100
AcDbEntity
  8
0
  6
ByBlock
 62
     0
100
AcDbBlockReference
  2
_OPEN
 10
45.0
 20
114.0
 30
0.0
 41
1.5
 42
1.5
 43
1.5
 50
180.0
  0
INSERT
  5
5E
330
59
100
AcDbEntity
  8
0
  6
ByBlock
 62
     0
100
AcDbBlockReference
  2
_OPEN
 10
113.0
 20
114.0
 30
0.0
 41
1.5
 42
1.5
 43
1.5
  0
MTEXT
  5
5F
330
59
100
AcDbEntity
  8
0
  6
ByBlock
 62
     0
100
AcDbMText
 10
79.0
 20
116.07
 30
0.0
 40
2.5
 41
0.0
 71
     5
 72
     1
  1
\A1;68{\H1.250000;\S+0.7^  0;}
  7
STYLE1
 73
     1
 44
1.0
1001
ACAD
1000
MTEXTBEGIN
1070
    73
1070
     1
1070
    44
1040
1.0
1070
    74
1070
     0
1000
MTEXTEND
  0
POINT
  5
60
330
59
100
AcDbEntity
  8
DEFPOINTS
  6
ByBlock
 62
     0
100
AcDbPoint
 10
45.0
 20
105.0
 30
0.0
  0
POINT
  5
61
330
59
100
AcDbEntity
  8
DEFPOINTS
  6
ByBlock
 62
     0
100
AcDbPoint
 10
113.0
 20
105.0
 30
0.0
  0
POINT
  5
62
330
59
100
AcDbEntity
  8
DEFPOINTS
  6
ByBlock
 62
     0
100
AcDbPoint
 10
113.0
 20
114.0
 30
0.0
  0
ENDBLK
  5
64
330
59
100
AcDbEntity
  8
0
100
AcDbBlockEnd
  0
BLOCK
  5
75
330
6B
100
AcDbEntity
  8
0
100
AcDbBlockBegin
  2
*D5
 70
     1
 10
0.0
 20
0.0
 30
0.0
  3
*D5
  1

  0
LINE
  5
6C
330
6B
100
AcDbEntity
  8
0
  6
ByBlock
 62
     0
100
AcDbLine
 10
113.63
 20
105.0
 30
0.0
 11
123.2499999999999
 21
105.0
 31
0.0
  0
LINE
  5
6D
330
6B
100
AcDbEntity
  8
0
  6
ByBlock
 62
     0
100
AcDbLine
 10
113.63
 20
37.0
 30
0.0
 11
123.2499999999999
 21
37.0
 31
0.0
  0
LINE
  5
6E
330
6B
100
AcDbEntity
  8
0
  6
ByBlock
 62
     0
100
AcDbLine
 10
122.0
 20
103.4999999999999
 30
0.0
 11
122.0
 21
38.5
 31
0.0
  0
INSERT
  5
6F
330
6B
100
AcDbEntity
  8
0
  6
ByBlock
 62
     0
100
AcDbBlockReference
  2
_OPEN
 10
122.0
 20
105.0
 30
0.0
 41
1.5
 42
1.5
 43
1.5
 50
90.0
  0
INSERT
  5
70
330
6B
100
AcDbEntity
  8
0
  6
ByBlock
 62
     0
100
AcDbBlockReference
  2
_OPEN
 10
122.0
 20
37.0
 30
0.0
 41
1.5
 42
1.5
 43
1.5
 50
270.0
  0
MTEXT
  5
71
330
6B
100
AcDbEntity
  8
0
  6
ByBlock
 62
     0
100
AcDbMText
 10
119.93
 20
71.0
 30
0.0
 40
2.5
 41
0.0
 71
     5
 72
     1
  1
\A1;68{\H1.250000;\S+0.7^  0;}
  7
STYLE1
 11
0.0
 21
1.0
 31
0.0
 73
     1
 44
1.0
1001
ACAD
1000
MTEXTBEGIN
1070
    73
1070
     1
1070
    44
1040
1.0
1070
    74
1070
     0
1000
MTEXTEND
  0
POINT
  5
72
330
6B
100
AcDbEntity
  8
DEFPOINTS
  6
ByBlock
 62
     0
100
AcDbPoint
 10
113.0
 20
105.0
 30
0.0
  0
POINT
  5
73
330
6B
100
AcDbEntity
  8
DEFPOINTS
  6
ByBlock
 62
     0
100
AcDbPoint
 10
113.0
 20
37.0
 30
0.0
  0
POINT
  5
74
330
6B
100
AcDbEntity
  8
DEFPOINTS
  6
ByBlock
 62
     0
100
AcDbPoint
 10
122.0
 20
37.0
 30
0.0
  0
ENDBLK
  5
76
330
6B
100
AcDbEntity
  8
0
100
AcDbBlockEnd
  0
BLOCK
  5
98
330
8E
100
AcDbEntity
  8
0
100
AcDbBlockBegin
  2
*D6
 70
     1
 10
0.0
 20
0.0
 30
0.0
  3
*D6
  1

  0
LINE
  5
8F
330
8E
100
AcDbEntity
  8
0
  6
ByBlock
 62
     0
100
AcDbLine
 10
43.0
 20
231.63
 30
0.0
 11
43.0
 21
240.2499999999999
 31
0.0
  0
LINE
  5
90
330
8E
100
AcDbEntity
  8
0
  6
ByBlock
 62
     0
100
AcDbLine
 10
115.0
 20
231.63
 30
0.0
 11
115.0
 21
240.2499999999999
 31
0.0
  0
LINE
  5
91
330
8E
100
AcDbEntity
  8
0
  6
ByBlock
 62
     0
100
AcDbLine
 10
44.5
 20
239.0
 30
0.0
 11
113.5
 21
239.0
 31
0.0
  0
INSERT
  5
92
330
8E
100
AcDbEntity
  8
0
  6
ByBlock
 62
     0
100
AcDbBlockReference
  2
_OPEN
 10
43.0
 20
239.0
 30
0.0
 41
1.5
 42
1.5
 43
1.5
 50
180.0
  0
INSERT
  5
93
330
8E
100
AcDbEntity
  8
0
  6
ByBlock
 62
     0
100
AcDbBlockReference
  2
_OPEN
 10
115.0
 20
239.0
 30
0.0
 41
1.5
 42
1.5
 43
1.5
  0
MTEXT
  5
94
330
8E
100
AcDbEntity
  8
0
  6
ByBlock
 62
     0
100
AcDbMText
 10
79.0
 20
240.8799999999999
 30
0.0
 40
2.5
 41
0.0
 71
     5
 72
     1
  1
\A1;72
  7
STYLE1
 73
     1
 44
1.0
1001
ACAD
1000
MTEXTBEGIN
1070
    73
1070
     1
1070
    44
1040
1.0
1070
    74
1070
     0
1000
MTEXTEND
  0
POINT
  5
95
330
8E
100
AcDbEntity
  8
DEFPOINTS
  6
ByBlock
 62
     0
100
AcDbPoint
 10
43.0
 20
231.0
 30
0.0
  0
POINT
  5
96
330
8E
100
AcDbEntity
  8
DEFPOINTS
  6
ByBlock
 62
     0
100
AcDbPoint
 10
115.0
 20
231.0
 30
0.0
  0
POINT
  5
97
330
8E
100
AcDbEntity
  8
DEFPOINTS
  6
ByBlock
 62
     0
100
AcDbPoint
 10
115.0
 20
239.0
 30
0.0
  0
ENDBLK
  5
99
330
8E
100
AcDbEntity
  8
0
100
AcDbBlockEnd
  0
BLOCK
  5
11C
330
112
100
AcDbEntity
  8
0
100
AcDbBlockBegin
  2
*D7
 70
     1
 10
0.0
 20
0.0
 30
0.0
  3
*D7
  1

  0
LINE
  5
113
330
112
100
AcDbEntity
  8
0
  6
ByBlock
 62
     0
100
AcDbLine
 10
114.6299999999999
 20
232.0
 30
0.0
 11
123.2499999999999
 21
232.0
 31
0.0
  0
LINE
  5
114
330
112
100
AcDbEntity
  8
0
  6
ByBlock
 62
     0
100
AcDbLine
 10
114.6299999999999
 20
160.0
 30
0.0
 11
123.2499999999999
 21
160.0
 31
0.0
  0
LINE
  5
115
330
112
100
AcDbEntity
  8
0
  6
ByBlock
 62
     0
100
AcDbLine
 10
122.0
 20
230.5
 30
0.0
 11
122.0
 21
161.5
 31
0.0
  0
INSERT
  5
116
330
112
100
AcDbEntity
  8
0
  6
ByBlock
 62
     0
100
AcDbBlockReference
  2
_OPEN
 10
122.0
 20
232.0
 30
0.0
 41
1.5
 42
1.5
 43
1.5
 50
90.0
  0
INSERT
  5
117
330
112
100
AcDbEntity
  8
0
  6
ByBlock
 62
     0
100
AcDbBlockReference
  2
_OPEN
 10
122.0
 20
160.0
 30
0.0
 41
1.5
 42
1.5
 43
1.5
 50
270.0
  0
MTEXT
  5
118
330
112
100
AcDbEntity
  8
0
  6
ByBlock
 62
     0
100
AcDbMText
 10
120.13
 20
196.0
 30
0.0
 40
2.5
 41
0.0
 71
     5
 72
     1
  1
\A1;72
  7
STYLE1
 11
0.0
 21
1.0
 31
0.0
 73
     1
 44
1.0
1001
ACAD
1000
MTEXTBEGIN
1070
    73
1070
     1
1070
    44
1040
1.0
1070
    74
1070
     0
1000
MTEXTEND
  0
POINT
  5
119
330
112
100
AcDbEntity
  8
DEFPOINTS
  6
ByBlock
 62
     0
100
AcDbPoint
 10
114.0
 20
232.0
 30
0.0
  0
POINT
  5
11A
330
112
100
AcDbEntity
  8
DEFPOINTS
  6
ByBlock
 62
     0
100
AcDbPoint
 10
114.0
 20
160.0
 30
0.0
  0
POINT
  5
11B
330
112
100
AcDbEntity
  8
DEFPOINTS
  6
ByBlock
 62
     0
100
AcDbPoint
 10
122.0
 20
160.0
 30
0.0
  0
ENDBLK
  5
11D
330
112
100
AcDbEntity
  8
0
100
AcDbBlockEnd
  0
BLOCK
  5
2B6
330
2AD
100
AcDbEntity
  8
0
 62
     1
100
AcDbBlockBegin
  2
*D8
 70
     1
 10
0.0
 20
0.0
 30
0.0
  3
*D8
  1

  0
LINE
  5
2AE
330
2AD
100
AcDbEntity
  8
画層1
 62
     0
370
    -2
100
AcDbLine
 10
262.0
 20
227.93
 30
0.0
 11
262.0
 21
240.2499999999999
 31
0.0
  0
LINE
  5
2AF
330
2AD
100
AcDbEntity
  8
画層1
 62
     0
370
    -2
100
AcDbLine
 10
163.4999999999999
 20
239.0
 30
0.0
 11
260.4999999999999
 21
239.0
 31
0.0
  0
INSERT
  5
2B0
330
2AD
100
AcDbEntity
  8
画層1
 62
     0
370
    -2
100
AcDbBlockReference
  2
_OPEN
 10
162.0
 20
239.0
 30
0.0
 41
1.5
 42
1.5
 43
1.5
 50
180.0
  0
INSERT
  5
2B1
330
2AD
100
AcDbEntity
  8
画層1
 62
     0
370
    -2
100
AcDbBlockReference
  2
_OPEN
 10
262.0
 20
239.0
 30
0.0
 41
1.5
 42
1.5
 43
1.5
  0
MTEXT
  5
2B2
330
2AD
100
AcDbEntity
  8
画層1
 62
     0
100
AcDbMText
 10
212.0
 20
240.8799999999999
 30
0.0
 40
2.5
 41
0.0
 71
     5
 72
     1
  1
\A1;100
  7
STYLE1
 73
     1
 44
1.0
  0
POINT
  5
2B3
330
2AD
100
AcDbEntity
  8
DEFPOINTS
 62
     0
100
AcDbPoint
 10
162.0
 20
232.0
 30
0.0
  0
POINT
  5
2B4
330
2AD
100
AcDbEntity
  8
DEFPOINTS
 62
     0
100
AcDbPoint
 10
262.0
 20
227.3
 30
0.0
  0
POINT
  5
2B5
330
2AD
100
AcDbEntity
  8
DEFPOINTS
 62
     0
100
AcDbPoint
 10
262.0
 20
239.0
 30
0.0
  0
ENDBLK
  5
2B7
330
2AD
100
AcDbEntity
  8
0
 62
     1
100
AcDbBlockEnd
  0
BLOCK
  5
2C2
330
2B8
100
AcDbEntity
  8
0
 62
     1
100
AcDbBlockBegin
  2
*D9
 70
     1
 10
0.0
 20
0.0
 30
0.0
  3
*D9
  1

  0
LINE
  5
2B9
330
2B8
100
AcDbEntity
  8
画層1
 62
     0
370
    -2
100
AcDbLine
 10
151.0
 20
239.0099999999999
 30
0.0
 11
151.0
 21
246.6299999999999
 31
0.0
  0
LINE
  5
2BA
330
2B8
100
AcDbEntity
  8
画層1
 62
     0
370
    -2
100
AcDbLine
 10
262.0
 20
239.0099999999999
 30
0.0
 11
262.0
 21
246.6299999999999
 31
0.0
  0
LINE
  5
2BB
330
2B8
100
AcDbEntity
  8
画層1
 62
     0
370
    -2
100
AcDbLine
 10
152.5
 20
245.38
 30
0.0
 11
260.4999999999999
 21
245.38
 31
0.0
  0
INSERT
  5
2BC
330
2B8
100
AcDbEntity
  8
画層1
 62
     0
370
    -2
100
AcDbBlockReference
  2
_OPEN
 10
151.0
 20
245.38
 30
0.0
 41
1.5
 42
1.5
 43
1.5
 50
180.0
  0
INSERT
  5
2BD
330
2B8
100
AcDbEntity
  8
画層1
 62
     0
370
    -2
100
AcDbBlockReference
  2
_OPEN
 10
262.0
 20
245.38
 30
0.0
 41
1.5
 42
1.5
 43
1.5
  0
MTEXT
  5
2BE
330
2B8
100
AcDbEntity
  8
画層1
 62
     0
100
AcDbMText
 10
206.4999999999999
 20
247.2599999999999
 30
0.0
 40
2.5
 41
0.0
 71
     5
 72
     1
  1
\A1;111
  7
STYLE1
 73
     1
 44
1.0
  0
POINT
  5
2BF
330
2B8
100
AcDbEntity
  8
DEFPOINTS
 62
     0
100
AcDbPoint
 10
151.0
 20
238.3799999999999
 30
0.0
  0
POINT
  5
2C0
330
2B8
100
AcDbEntity
  8
DEFPOINTS
 62
     0
100
AcDbPoint
 10
262.0
 20
238.3799999999999
 30
0.0
  0
POINT
  5
2C1
330
2B8
100
AcDbEntity
  8
DEFPOINTS
 62
     0
100
AcDbPoint
 10
262.0
 20
245.38
 30
0.0
  0
ENDBLK
  5
2C3
330
2B8
100
AcDbEntity
  8
0
 62
     1
100
AcDbBlockEnd
  0
BLOCK
  5
2CE
330
2C4
100
AcDbEntity
  8
0
 62
     1
100
AcDbBlockBegin
  2
*D10
 70
     1
 10
0.0
 20
0.0
 30
0.0
  3
*D10
  1

  0
LINE
  5
2C5
330
2C4
100
AcDbEntity
  8
画層1
 62
     0
370
    -2
100
AcDbLine
 10
45.0
 20
105.63
 30
0.0
 11
45.0
 21
115.25
 31
0.0
  0
LINE
  5
2C6
330
2C4
100
AcDbEntity
  8
画層1
 62
     0
370
    -2
100
AcDbLine
 10
113.0
 20
105.63
 30
0.0
 11
113.0
 21
115.25
 31
0.0
  0
LINE
  5
2C7
330
2C4
100
AcDbEntity
  8
画層1
 62
     0
370
    -2
100
AcDbLine
 10
46.5
 20
114.0
 30
0.0
 11
111.4999999999999
 21
114.0
 31
0.0
  0
INSERT
  5
2C8
330
2C4
100
AcDbEntity
  8
画層1
 62
     0
370
    -2
100
AcDbBlockReference
  2
_OPEN
 10
45.0
 20
114.0
 30
0.0
 41
1.5
 42
1.5
 43
1.5
 50
180.0
  0
INSERT
  5
2C9
330
2C4
100
AcDbEntity
  8
画層1
 62
     0
370
    -2
100
AcDbBlockReference
  2
_OPEN
 10
113.0
 20
114.0
 30
0.0
 41
1.5
 42
1.5
 43
1.5
  0
MTEXT
  5
2CA
330
2C4
100
AcDbEntity
  8
画層1
 62
     0
100
AcDbMText
 10
79.0
 20
116.0756429780033
 30
0.0
 40
2.5
 41
0.0
 71
     5
 72
     1
  1
\A1;68{\H1.250000;\S+0.7^  0;}
  7
STYLE1
 73
     1
 44
1.0
  0
POINT
  5
2CB
330
2C4
100
AcDbEntity
  8
DEFPOINTS
 62
     0
100
AcDbPoint
 10
45.0
 20
105.0
 30
0.0
  0
POINT
  5
2CC
330
2C4
100
AcDbEntity
  8
DEFPOINTS
 62
     0
100
AcDbPoint
 10
113.0
 20
105.0
 30
0.0
  0
POINT
  5
2CD
330
2C4
100
AcDbEntity
  8
DEFPOINTS
 62
     0
100
AcDbPoint
 10
113.0
 20
114.0
 30
0.0
  0
ENDBLK
  5
2CF
330
2C4
100
AcDbEntity
  8
0
 62
     1
100
AcDbBlockEnd
  0
BLOCK
  5
2DA
330
2D0
100
AcDbEntity
  8
0
 62
     1
100
AcDbBlockBegin
  2
*D11
 70
     1
 10
0.0
 20
0.0
 30
0.0
  3
*D11
  1

  0
LINE
  5
2D1
330
2D0
100
AcDbEntity
  8
画層1
 62
     0
370
    -2
100
AcDbLine
 10
113.63
 20
105.0
 30
0.0
 11
123.25
 21
105.0
 31
0.0
  0
LINE
  5
2D2
330
2D0
100
AcDbEntity
  8
画層1
 62
     0
370
    -2
100
AcDbLine
 10
113.63
 20
37.0
 30
0.0
 11
123.2499999999999
 21
37.0
 31
0.0
  0
LINE
  5
2D3
330
2D0
100
AcDbEntity
  8
画層1
 62
     0
370
    -2
100
AcDbLine
 10
122.0
 20
103.4999999999999
 30
0.0
 11
122.0
 21
38.5
 31
0.0
  0
INSERT
  5
2D4
330
2D0
100
AcDbEntity
  8
画層1
 62
     0
370
    -2
100
AcDbBlockReference
  2
_OPEN
 10
122.0
 20
105.0
 30
0.0
 41
1.5
 42
1.5
 43
1.5
 50
90.0
  0
INSERT
  5
2D5
330
2D0
100
AcDbEntity
  8
画層1
 62
     0
370
    -2
100
AcDbBlockReference
  2
_OPEN
 10
122.0
 20
37.0
 30
0.0
 41
1.5
 42
1.5
 43
1.5
 50
270.0
  0
MTEXT
  5
2D6
330
2D0
100
AcDbEntity
  8
画層1
 62
     0
100
AcDbMText
 10
119.9243570219965
 20
71.00000000000001
 30
0.0
 40
2.5
 41
0.0
 71
     5
 72
     1
  1
\A1;68{\H1.250000;\S+0.7^  0;}
  7
STYLE1
 11
0.0000000000000001
 21
1.0
 31
0.0
 73
     1
 44
1.0
  0
POINT
  5
2D7
330
2D0
100
AcDbEntity
  8
DEFPOINTS
 62
     0
100
AcDbPoint
 10
113.0
 20
105.0
 30
0.0
  0
POINT
  5
2D8
330
2D0
100
AcDbEntity
  8
DEFPOINTS
 62
     0
100
AcDbPoint
 10
113.0
 20
37.0
 30
0.0
  0
POINT
  5
2D9
330
2D0
100
AcDbEntity
  8
DEFPOINTS
 62
     0
100
AcDbPoint
 10
122.0
 20
37.0
 30
0.0
  0
ENDBLK
  5
2DB
330
2D0
100
AcDbEntity
  8
0
 62
     1
100
AcDbBlockEnd
  0
BLOCK
  5
2E6
330
2DC
100
AcDbEntity
  8
0
 62
     1
100
AcDbBlockBegin
  2
*D12
 70
     1
 10
0.0
 20
0.0
 30
0.0
  3
*D12
  1

  0
LINE
  5
2DD
330
2DC
100
AcDbEntity
  8
画層1
 62
     0
370
    -2
100
AcDbLine
 10
43.0
 20
231.63
 30
0.0
 11
43.0
 21
240.2499999999999
 31
0.0
  0
LINE
  5
2DE
330
2DC
100
AcDbEntity
  8
画層1
 62
     0
370
    -2
100
AcDbLine
 10
115.0
 20
231.63
 30
0.0
 11
115.0
 21
240.2499999999999
 31
0.0
  0
LINE
  5
2DF
330
2DC
100
AcDbEntity
  8
画層1
 62
     0
370
    -2
100
AcDbLine
 10
44.5
 20
239.0
 30
0.0
 11
113.5
 21
239.0
 31
0.0
  0
INSERT
  5
2E0
330
2DC
100
AcDbEntity
  8
画層1
 62
     0
370
    -2
100
AcDbBlockReference
  2
_OPEN
 10
43.0
 20
239.0
 30
0.0
 41
1.5
 42
1.5
 43
1.5
 50
180.0
  0
INSERT
  5
2E1
330
2DC
100
AcDbEntity
  8
画層1
 62
     0
370
    -2
100
AcDbBlockReference
  2
_OPEN
 10
115.0
 20
239.0
 30
0.0
 41
1.5
 42
1.5
 43
1.5
  0
MTEXT
  5
2E2
330
2DC
100
AcDbEntity
  8
画層1
 62
     0
100
AcDbMText
 10
79.0
 20
240.8799999999999
 30
0.0
 40
2.5
 41
0.0
 71
     5
 72
     1
  1
\A1;72
  7
STYLE1
 73
     1
 44
1.0
  0
POINT
  5
2E3
330
2DC
100
AcDbEntity
  8
DEFPOINTS
 62
     0
100
AcDbPoint
 10
43.0
 20
231.0
 30
0.0
  0
POINT
  5
2E4
330
2DC
100
AcDbEntity
  8
DEFPOINTS
 62
     0
100
AcDbPoint
 10
115.0
 20
231.0
 30
0.0
  0
POINT
  5
2E5
330
2DC
100
AcDbEntity
  8
DEFPOINTS
 62
     0
100
AcDbPoint
 10
115.0
 20
239.0
 30
0.0
  0
ENDBLK
  5
2E7
330
2DC
100
AcDbEntity
  8
0
 62
     1
100
AcDbBlockEnd
  0
BLOCK
  5
2F2
330
2E8
100
AcDbEntity
  8
0
 62
     1
100
AcDbBlockBegin
  2
*D13
 70
     1
 10
0.0
 20
0.0
 30
0.0
  3
*D13
  1

  0
LINE
  5
2E9
330
2E8
100
AcDbEntity
  8
画層1
 62
     0
370
    -2
100
AcDbLine
 10
151.0
 20
231.93
 30
0.0
 11
151.0
 21
240.2499999999999
 31
0.0
  0
LINE
  5
2EA
330
2E8
100
AcDbEntity
  8
画層1
 62
     0
370
    -2
100
AcDbLine
 10
162.0
 20
232.6299999999999
 30
0.0
 11
162.0
 21
240.2499999999999
 31
0.0
  0
LINE
  5
2EB
330
2E8
100
AcDbEntity
  8
画層1
 62
     0
370
    -2
100
AcDbLine
 10
152.5
 20
239.0
 30
0.0
 11
160.4999999999999
 21
239.0
 31
0.0
  0
INSERT
  5
2EC
330
2E8
100
AcDbEntity
  8
画層1
 62
     0
370
    -2
100
AcDbBlockReference
  2
_OPEN
 10
151.0
 20
239.0
 30
0.0
 41
1.5
 42
1.5
 43
1.5
 50
180.0
  0
INSERT
  5
2ED
330
2E8
100
AcDbEntity
  8
画層1
 62
     0
370
    -2
100
AcDbBlockReference
  2
_OPEN
 10
162.0
 20
239.0
 30
0.0
 41
1.5
 42
1.5
 43
1.5
  0
MTEXT
  5
2EE
330
2E8
100
AcDbEntity
  8
画層1
 62
     0
100
AcDbMText
 10
156.4999999999999
 20
240.8799999999999
 30
0.0
 40
2.5
 41
0.0
 71
     5
 72
     1
  1
\A1;11
  7
STYLE1
 73
     1
 44
1.0
  0
POINT
  5
2EF
330
2E8
100
AcDbEntity
  8
DEFPOINTS
 62
     0
100
AcDbPoint
 10
151.0
 20
231.3
 30
0.0
  0
POINT
  5
2F0
330
2E8
100
AcDbEntity
  8
DEFPOINTS
 62
     0
100
AcDbPoint
 10
162.0
 20
232.0
 30
0.0
  0
POINT
  5
2F1
330
2E8
100
AcDbEntity
  8
DEFPOINTS
 62
     0
100
AcDbPoint
 10
162.0
 20
239.0
 30
0.0
  0
ENDBLK
  5
2F3
330
2E8
100
AcDbEntity
  8
0
 62
     1
100
AcDbBlockEnd
  0
BLOCK
  5
2FE
330
2F4
100
AcDbEntity
  8
0
 62
     1
100
AcDbBlockBegin
  2
*D14
 70
     1
 10
0.0
 20
0.0
 30
0.0
  3
*D14
  1

  0
LINE
  5
2F5
330
2F4
100
AcDbEntity
  8
画層1
 62
     0
370
    -2
100
AcDbLine
 10
114.6299999999999
 20
232.0
 30
0.0
 11
123.25
 21
232.0
 31
0.0
  0
LINE
  5
2F6
330
2F4
100
AcDbEntity
  8
画層1
 62
     0
370
    -2
100
AcDbLine
 10
114.63
 20
160.0
 30
0.0
 11
123.25
 21
160.0
 31
0.0
  0
LINE
  5
2F7
330
2F4
100
AcDbEntity
  8
画層1
 62
     0
370
    -2
100
AcDbLine
 10
122.0
 20
230.5
 30
0.0
 11
122.0
 21
161.5
 31
0.0
  0
INSERT
  5
2F8
330
2F4
100
AcDbEntity
  8
画層1
 62
     0
370
    -2
100
AcDbBlockReference
  2
_OPEN
 10
122.0
 20
232.0
 30
0.0
 41
1.5
 42
1.5
 43
1.5
 50
90.0
  0
INSERT
  5
2F9
330
2F4
100
AcDbEntity
  8
画層1
 62
     0
370
    -2
100
AcDbBlockReference
  2
_OPEN
 10
122.0
 20
160.0
 30
0.0
 41
1.5
 42
1.5
 43
1.5
 50
270.0
  0
MTEXT
  5
2FA
330
2F4
100
AcDbEntity
  8
画層1
 62
     0
100
AcDbMText
 10
120.1199999999999
 20
196.0
 30
0.0
 40
2.5
 41
0.0
 71
     5
 72
     1
  1
\A1;72
  7
STYLE1
 11
0.0000000000000001
 21
1.0
 31
0.0
 73
     1
 44
1.0
  0
POINT
  5
2FB
330
2F4
100
AcDbEntity
  8
DEFPOINTS
 62
     0
100
AcDbPoint
 10
114.0
 20
232.0
 30
0.0
  0
POINT
  5
2FC
330
2F4
100
AcDbEntity
  8
DEFPOINTS
 62
     0
100
AcDbPoint
 10
114.0
 20
160.0
 30
0.0
  0
POINT
  5
2FD
330
2F4
100
AcDbEntity
  8
DEFPOINTS
 62
     0
100
AcDbPoint
 10
122.0
 20
160.0
 30
0.0
  0
ENDBLK
  5
2FF
330
2F4
100
AcDbEntity
  8
0
 62
     1
100
AcDbBlockEnd
  0
ENDSEC
  0
SECTION
  2
ENTITIES
  0
MTEXT
  5
30
330
2
100
AcDbEntity
  8
画層1
 62
     0
100
AcDbMText
 10
165.08
 20
100.73
 30
0.0
 40
2.5
 41
81.3
 71
     1
 72
     5
  1
SR82シリーズ　外形寸法　パネルカット
  7
STYLE1
 73
     1
 44
1.0
  0
LINE
  5
31
330
2
100
AcDbEntity
  8
画層1
 62
     0
100
AcDbLine
 10
250.4999999999999
 20
167.5
 30
0.0
 11
189.4999999999999
 21
167.5
 31
0.0
  0
LINE
  5
32
330
2
100
AcDbEntity
  8
画層1
 62
     0
100
AcDbLine
 10
189.4999999999999
 20
215.5
 30
0.0
 11
250.4999999999999
 21
215.5
 31
0.0
  0
LINE
  5
33
330
2
100
AcDbEntity
  8
画層1
 62
     0
100
AcDbLine
 10
251.0
 20
225.0
 30
0.0
 11
166.0
 21
225.0
 31
0.0
  0
LINE
  5
34
330
2
100
AcDbEntity
  8
画層1
 62
     0
100
AcDbLine
 10
262.0
 20
226.3
 30
0.0
 11
192.5
 21
226.3
 31
0.0
  0
LWPOLYLINE
  5
35
330
2
100
AcDbEntity
  8
画層1
 62
     0
100
AcDbPolyline
 90
        4
 70
     1
 43
0.0
 10
190.5
 20
217.0
 10
212.5
 20
217.0
 10
212.5
 20
215.5
 10
190.5
 20
215.5
  0
LWPOLYLINE
  5
36
330
2
100
AcDbEntity
  8
画層1
 62
     0
100
AcDbPolyline
 90
        4
 70
     1
 43
0.0
 10
190.5
 20
220.0
 10
212.5
 20
220.0
 10
212.5
 20
218.5
 10
190.5
 20
218.5
  0
LWPOLYLINE
  5
37
330
2
100
AcDbEntity
  8
画層1
 62
     0
100
AcDbPolyline
 90
        4
 70
     1
 43
0.0
 10
190.5
 20
223.0
 10
212.5
 20
223.0
 10
212.5
 20
221.4999999999999
 10
190.5
 20
221.4999999999999
  0
LINE
  5
38
330
2
100
AcDbEntity
  8
画層1
 62
     0
100
AcDbLine
 10
183.6
 20
162.1999999999999
 30
0.0
 11
253.5
 21
162.1999999999999
 31
0.0
  0
LINE
  5
39
330
2
100
AcDbEntity
  8
画層1
 62
     0
100
AcDbLine
 10
262.0
 20
165.7
 30
0.0
 11
192.5
 21
165.7
 31
0.0
  0
LINE
  5
3A
330
2
100
AcDbEntity
  8
画層1
 62
     0
100
AcDbLine
 10
183.6
 20
229.8
 30
0.0
 11
253.5
 21
229.8
 31
0.0
  0
LINE
  5
3B
330
2
100
AcDbEntity
  8
画層1
 62
     0
100
AcDbLine
 10
251.0
 20
167.0
 30
0.0
 11
166.0
 21
167.0
 31
0.0
  0
DIMENSION
  5
3C
330
2
100
AcDbEntity
  8
画層1
 62
     0
100
AcDbDimension
  2
*D9
 10
262.0
 20
245.38
 30
0.0
 11
206.4999999999999
 21
247.2599999999999
 31
0.0
 70
    32
 71
     5
 42
111.0
  3
STANDARD_WS
100
AcDbAlignedDimension
 13
151.0
 23
238.3799999999999
 33
0.0
 14
262.0
 24
238.3799999999999
 34
0.0
100
AcDbRotatedDimension
1001
ACAD
1000
DSTYLE
1002
{
1070
   340
1005
27
1002
}
  0
DIMENSION
  5
4A
330
2
100
AcDbEntity
  8
画層1
 62
     0
100
AcDbDimension
  2
*D8
 10
262.0
 20
239.0
 30
0.0
 11
212.0
 21
240.8799999999999
 31
0.0
 70
    32
 71
     5
 42
100.0
  3
STANDARD_WS
100
AcDbAlignedDimension
 13
162.0
 23
232.0
 33
0.0
 14
262.0
 24
227.3
 34
0.0
100
AcDbRotatedDimension
1001
ACAD
1000
DSTYLE
1002
{
1070
   287
1070
     4
1070
    75
1070
     1
1070
   279
1070
     1
1070
   340
1005
27
1002
}
  0
LINE
  5
56
330
2
100
AcDbEntity
  8
画層1
 62
     0
100
AcDbLine
 10
70.0
 20
28.0
 30
0.0
 11
88.0
 21
28.0
 31
0.0
  0
MTEXT
  5
57
330
2
100
AcDbEntity
  8
画層1
 62
     0
100
AcDbMText
 10
70.0
 20
32.0
 30
0.0
 40
2.5
 41
20.0
 71
     1
 72
     5
  1
取付穴寸法
  7
STYLE1
 73
     1
 44
1.0
1001
ACAD
1000
MTEXTBEGIN
1070
    73
1070
     1
1070
    44
1040
1.0
1070
    74
1070
     0
1000
MTEXTEND
  0
DIMENSION
  5
58
330
2
100
AcDbEntity
  8
画層1
 62
     0
100
AcDbDimension
  2
*D10
 10
113.0
 20
114.0
 30
0.0
 11
79.0
 21
116.0756429780033
 31
0.0
 70
    32
 71
     5
 42
68.0
  3
STANDARD_WS
100
AcDbAlignedDimension
 13
45.0
 23
105.0
 33
0.0
 14
113.0
 24
105.0
 34
0.0
100
AcDbRotatedDimension
1001
ACAD
1000
DSTYLE
1002
{
1070
   284
1070
     8
1070
   340
1005
27
1070
    47
1040
0.7
1070
    71
1070
     1
1070
   146
1040
0.5
1002
}
  0
LINE
  5
65
330
2
100
AcDbEntity
  8
画層1
  6
CENTER
 62
     0
100
AcDbLine
 10
41.0
 20
71.0
 30
0.0
 11
117.0
 21
71.0
 31
0.0
  0
LINE
  5
67
330
2
100
AcDbEntity
  8
画層1
 62
     0
100
AcDbLine
 10
113.0
 20
37.0
 30
0.0
 11
45.0
 21
37.0
 31
0.0
  0
LINE
  5
68
330
2
100
AcDbEntity
  8
画層1
 62
     0
100
AcDbLine
 10
45.0
 20
105.0
 30
0.0
 11
113.0
 21
105.0
 31
0.0
  0
LINE
  5
69
330
2
100
AcDbEntity
  8
画層1
 62
     0
100
AcDbLine
 10
45.0
 20
37.0
 30
0.0
 11
45.0
 21
105.0
 31
0.0
  0
DIMENSION
  5
6A
330
2
100
AcDbEntity
  8
画層1
 62
     0
100
AcDbDimension
  2
*D11
 10
122.0
 20
37.0
 30
0.0
 11
119.9243570219965
 21
71.00000000000001
 31
0.0
 70
    32
 71
     5
 42
68.0
  3
STANDARD_WS
100
AcDbAlignedDimension
 13
113.0
 23
105.0
 33
0.0
 14
113.0
 24
37.0
 34
0.0
 50
90.0
100
AcDbRotatedDimension
1001
ACAD
1000
DSTYLE
1002
{
1070
   284
1070
     8
1070
   340
1005
27
1070
    47
1040
0.7
1070
    71
1070
     1
1070
   146
1040
0.5
1002
}
  0
LINE
  5
77
330
2
100
AcDbEntity
  8
画層1
  6
CENTER
 62
     0
100
AcDbLine
 10
79.0
 20
109.0
 30
0.0
 11
79.0
 21
33.0
 31
0.0
  0
LINE
  5
78
330
2
100
AcDbEntity
  8
画層1
 62
     0
100
AcDbLine
 10
113.0
 20
105.0
 30
0.0
 11
113.0
 21
37.0
 31
0.0
  0
ELLIPSE
  5
79
330
2
100
AcDbEntity
  8
画層1
 62
     0
100
AcDbEllipse
 10
56.5
 20
183.0
 30
0.0
 11
-6.5
 21
0.0
 31
0.0
210
0.0
220
0.0
230
1.0
 40
0.6200000000000001
 41
0.0
 42
6.283185307179585
  0
ELLIPSE
  5
7A
330
2
100
AcDbEntity
  8
画層1
 62
     0
100
AcDbEllipse
 10
71.5
 20
183.0
 30
0.0
 11
-6.5
 21
0.0
 31
0.0
210
0.0
220
0.0
230
1.0
 40
0.6200000000000001
 41
0.0
 42
6.283185307179585
  0
ELLIPSE
  5
7B
330
2
100
AcDbEntity
  8
画層1
 62
     0
100
AcDbEllipse
 10
86.5
 20
183.0
 30
0.0
 11
-6.5
 21
0.0
 31
0.0
210
0.0
220
0.0
230
1.0
 40
0.6200000000000001
 41
0.0
 42
6.283185307179585
  0
ELLIPSE
  5
7C
330
2
100
AcDbEntity
  8
画層1
 62
     0
100
AcDbEllipse
 10
101.5
 20
183.0
 30
0.0
 11
-6.5
 21
0.0
 31
0.0
210
0.0
220
0.0
230
1.0
 40
0.6200000000000001
 41
0.0
 42
6.283185307179585
  0
ELLIPSE
  5
7D
330
2
100
AcDbEntity
  8
画層1
 62
     0
100
AcDbEllipse
 10
56.5
 20
172.0
 30
0.0
 11
-6.5
 21
0.0
 31
0.0
210
0.0
220
0.0
230
1.0
 40
0.6200000000000001
 41
0.0
 42
6.283185307179585
  0
ELLIPSE
  5
7E
330
2
100
AcDbEntity
  8
画層1
 62
     0
100
AcDbEllipse
 10
101.5
 20
172.0
 30
0.0
 11
-6.5
 21
0.0
 31
0.0
210
0.0
220
0.0
230
1.0
 40
0.6200000000000001
 41
0.0
 42
6.283185307179585
  0
LINE
  5
7F
330
2
100
AcDbEntity
  8
画層1
 62
     0
100
AcDbLine
 10
69.5
 20
204.0999999999999
 30
0.0
 11
98.50000000000001
 21
204.0999999999999
 31
0.0
  0
LINE
  5
80
330
2
100
AcDbEntity
  8
画層1
 62
     0
100
AcDbLine
 10
98.50000000000001
 20
193.9
 30
0.0
 11
69.5
 21
193.9
 31
0.0
  0
LINE
  5
81
330
2
100
AcDbEntity
  8
画層1
 62
     0
100
AcDbLine
 10
45.6
 20
229.8999999999999
 30
0.0
 11
112.4
 21
229.8999999999999
 31
0.0
  0
LINE
  5
82
330
2
100
AcDbEntity
  8
画層1
 62
     0
100
AcDbLine
 10
45.1
 20
188.4999999999999
 30
0.0
 11
112.9
 21
188.4999999999999
 31
0.0
  0
LINE
  5
83
330
2
100
AcDbEntity
  8
画層1
 62
     0
100
AcDbLine
 10
61.5
 20
222.1999999999999
 30
0.0
 11
99.50000000000001
 21
222.1999999999999
 31
0.0
  0
LINE
  5
84
330
2
100
AcDbEntity
  8
画層1
 62
     0
100
AcDbLine
 10
99.50000000000001
 20
209.8
 30
0.0
 11
61.5
 21
209.8
 31
0.0
  0
LINE
  5
85
330
2
100
AcDbEntity
  8
画層1
 62
     0
100
AcDbLine
 10
112.4
 20
162.0999999999999
 30
0.0
 11
45.6
 21
162.0999999999999
 31
0.0
  0
LINE
  5
86
330
2
100
AcDbEntity
  8
画層1
 62
     0
100
AcDbLine
 10
45.1
 20
166.5
 30
0.0
 11
112.9
 21
166.5
 31
0.0
  0
LINE
  5
87
330
2
100
AcDbEntity
  8
画層1
 62
     0
100
AcDbLine
 10
112.5
 20
161.8999999999999
 30
0.0
 11
45.49999999999999
 21
161.8999999999999
 31
0.0
  0
LINE
  5
88
330
2
100
AcDbEntity
  8
画層1
 62
     0
100
AcDbLine
 10
45.49999999999999
 20
230.1
 30
0.0
 11
112.5
 21
230.1
 31
0.0
  0
LINE
  5
89
330
2
100
AcDbEntity
  8
画層1
 62
     0
100
AcDbLine
 10
113.9
 20
160.0999999999999
 30
0.0
 11
44.1
 21
160.0999999999999
 31
0.0
  0
LINE
  5
8A
330
2
100
AcDbEntity
  8
画層1
 62
     0
100
AcDbLine
 10
44.1
 20
231.8999999999999
 30
0.0
 11
113.9
 21
231.8999999999999
 31
0.0
  0
LINE
  5
8B
330
2
100
AcDbEntity
  8
画層1
 62
     0
100
AcDbLine
 10
44.1
 20
160.0
 30
0.0
 11
113.9
 21
160.0
 31
0.0
  0
LINE
  5
8C
330
2
100
AcDbEntity
  8
画層1
 62
     0
100
AcDbLine
 10
113.9
 20
232.0
 30
0.0
 11
44.1
 21
232.0
 31
0.0
  0
DIMENSION
  5
8D
330
2
100
AcDbEntity
  8
画層1
 62
     0
100
AcDbDimension
  2
*D12
 10
115.0
 20
239.0
 30
0.0
 11
79.0
 21
240.8799999999999
 31
0.0
 70
    32
 71
     5
 42
72.0
  3
STANDARD_WS
100
AcDbAlignedDimension
 13
43.0
 23
231.0
 33
0.0
 14
115.0
 24
231.0
 34
0.0
100
AcDbRotatedDimension
1001
ACAD
1000
DSTYLE
1002
{
1070
   284
1070
     8
1070
   340
1005
27
1070
    47
1040
0.6
1070
   146
1040
0.5
1002
}
  0
LINE
  5
9A
330
2
100
AcDbEntity
  8
画層1
  6
CENTER
 62
     0
100
AcDbLine
 10
41.0
 20
196.0
 30
0.0
 11
117.0
 21
196.0
 31
0.0
  0
LINE
  5
9B
330
2
100
AcDbEntity
  8
画層1
 62
     0
100
AcDbLine
 10
68.5
 20
194.9
 30
0.0
 11
68.5
 21
203.1
 31
0.0
  0
LINE
  5
9C
330
2
100
AcDbEntity
  8
画層1
 62
     0
100
AcDbLine
 10
45.1
 20
162.5999999999999
 30
0.0
 11
45.1
 21
229.4
 31
0.0
  0
LINE
  5
9D
330
2
100
AcDbEntity
  8
画層1
 62
     0
100
AcDbLine
 10
44.9
 20
162.5
 30
0.0
 11
44.9
 21
229.4999999999999
 31
0.0
  0
LINE
  5
9E
330
2
100
AcDbEntity
  8
画層1
 62
     0
100
AcDbLine
 10
43.1
 20
161.0999999999999
 30
0.0
 11
43.1
 21
230.9
 31
0.0
  0
LINE
  5
9F
330
2
100
AcDbEntity
  8
画層1
 62
     0
100
AcDbLine
 10
43.0
 20
230.9
 30
0.0
 11
43.0
 21
161.0999999999999
 31
0.0
  0
LINE
  5
A0
330
2
100
AcDbEntity
  8
画層1
 62
     0
100
AcDbLine
 10
45.2
 20
157.9
 30
0.0
 11
48.7
 21
157.9
 31
0.0
  0
LINE
  5
A1
330
2
100
AcDbEntity
  8
画層1
 62
     0
100
AcDbLine
 10
45.2
 20
158.25
 30
0.0
 11
48.7
 21
158.25
 31
0.0
  0
LINE
  5
A2
330
2
100
AcDbEntity
  8
画層1
 62
     0
100
AcDbLine
 10
45.2
 20
158.6
 30
0.0
 11
48.7
 21
158.6
 31
0.0
  0
LINE
  5
A3
330
2
100
AcDbEntity
  8
画層1
 62
     0
100
AcDbLine
 10
45.2
 20
158.9499999999999
 30
0.0
 11
48.7
 21
158.9499999999999
 31
0.0
  0
LINE
  5
A4
330
2
100
AcDbEntity
  8
画層1
 62
     0
100
AcDbLine
 10
45.2
 20
159.3
 30
0.0
 11
48.7
 21
159.3
 31
0.0
  0
LINE
  5
A5
330
2
100
AcDbEntity
  8
画層1
 62
     0
100
AcDbLine
 10
45.2
 20
159.6499999999999
 30
0.0
 11
48.7
 21
159.6499999999999
 31
0.0
  0
LINE
  5
A6
330
2
100
AcDbEntity
  8
画層1
 62
     0
100
AcDbLine
 10
45.2
 20
157.55
 30
0.0
 11
48.7
 21
157.55
 31
0.0
  0
ARC
  5
A7
330
2
100
AcDbEntity
  8
画層1
 62
     0
100
AcDbCircle
 10
44.1
 20
161.0999999999999
 30
0.0
 40
1.0
100
AcDbArc
 50
180.0
 51
270.0
  0
ARC
  5
A8
330
2
100
AcDbEntity
  8
画層1
 62
     0
100
AcDbCircle
 10
44.1
 20
161.0999999999999
 30
0.0
 40
1.1
100
AcDbArc
 50
180.0
 51
270.0
  0
LINE
  5
A9
330
2
100
AcDbEntity
  8
画層1
 62
     0
100
AcDbLine
 10
45.2
 20
160.0
 30
0.0
 11
45.2
 21
157.55
 31
0.0
  0
ARC
  5
AA
330
2
100
AcDbEntity
  8
画層1
 62
     0
100
AcDbCircle
 10
45.6
 20
162.5999999999999
 30
0.0
 40
0.5
100
AcDbArc
 50
180.0
 51
270.0
  0
ARC
  5
AB
330
2
100
AcDbEntity
  8
画層1
 62
     0
100
AcDbCircle
 10
45.49999999999999
 20
162.5
 30
0.0
 40
0.6
100
AcDbArc
 50
180.0
 51
270.0
  0
MTEXT
  5
AC
330
2
100
AcDbEntity
  8
画層1
 62
     0
100
AcDbMText
 10
54.37
 20
173.5
 30
0.0
 40
3.2
 41
5.169999999999999
 71
     1
 72
     5
  1
AT
  7
STYLE1
 73
     1
 44
1.0
1001
ACAD
1000
MTEXTBEGIN
1070
    73
1070
     1
1070
    44
1040
1.0
1070
    74
1070
     0
1000
MTEXTEND
  0
LINE
  5
AD
330
2
100
AcDbEntity
  8
画層1
 62
     0
100
AcDbLine
 10
49.0
 20
160.0999999999999
 30
0.0
 11
49.0
 21
160.0
 31
0.0
  0
LINE
  5
AE
330
2
100
AcDbEntity
  8
画層1
 62
     0
100
AcDbLine
 10
48.7
 20
157.55
 30
0.0
 11
48.7
 21
160.0
 31
0.0
  0
LINE
  5
AF
330
2
100
AcDbEntity
  8
画層1
 62
     0
100
AcDbLine
 10
51.0
 20
160.0999999999999
 30
0.0
 11
51.0
 21
160.0
 31
0.0
  0
LINE
  5
B0
330
2
100
AcDbEntity
  8
画層1
 62
     0
100
AcDbLine
 10
61.0
 20
160.0999999999999
 30
0.0
 11
61.0
 21
160.0
 31
0.0
  0
MTEXT
  5
B1
330
2
100
AcDbEntity
  8
画層1
 62
     0
100
AcDbMText
 10
48.01
 20
165.24
 30
0.0
 40
2.0
 41
11.18999999999999
 71
     1
 72
     5
  1
{\fＭＳ Ｐゴシック|b0|i0|c128|p50;ＳＲ８２}
  7
STYLE1
 73
     1
 44
1.0
1001
ACAD
1000
MTEXTBEGIN
1070
    73
1070
     1
1070
    44
1040
1.0
1070
    74
1070
     0
1000
MTEXTEND
  0
LINE
  5
B2
330
2
100
AcDbEntity
  8
画層1
 62
     0
100
AcDbLine
 10
63.0
 20
160.0999999999999
 30
0.0
 11
63.0
 21
160.0
 31
0.0
  0
LINE
  5
B3
330
2
100
AcDbEntity
  8
画層1
 62
     0
100
AcDbLine
 10
60.0
 20
192.1
 30
0.0
 11
63.0
 21
192.1
 31
0.0
  0
MTEXT
  5
B4
330
2
100
AcDbEntity
  8
画層1
 62
     0
100
AcDbMText
 10
59.93999999999999
 20
194.6399999999999
 30
0.0
 40
1.6
 41
5.0
 71
     1
 72
     5
  1
COM
  7
STYLE1
 73
     1
 44
1.0
1001
ACAD
1000
MTEXTBEGIN
1070
    73
1070
     1
1070
    44
1040
1.0
1070
    74
1070
     0
1000
MTEXTEND
  0
LINE
  5
B5
330
2
100
AcDbEntity
  8
画層1
 62
     0
100
AcDbLine
 10
63.0
 20
190.8999999999999
 30
0.0
 11
60.0
 21
190.8999999999999
 31
0.0
  0
MTEXT
  5
B6
330
2
100
AcDbEntity
  8
画層1
 62
     0
100
AcDbMText
 10
52.51
 20
184.48
 30
0.0
 40
3.2
 41
7.83
 71
     1
 72
     5
  1
DISP
  7
STYLE1
 73
     1
 44
1.0
1001
ACAD
1000
MTEXTBEGIN
1070
    73
1070
     1
1070
    44
1040
1.0
1070
    74
1070
     0
1000
MTEXTEND
  0
LINE
  5
B7
330
2
100
AcDbEntity
  8
画層1
 62
     0
100
AcDbLine
 10
52.5
 20
192.1
 30
0.0
 11
55.5
 21
192.1
 31
0.0
  0
MTEXT
  5
B8
330
2
100
AcDbEntity
  8
画層1
 62
     0
100
AcDbMText
 10
50.88
 20
194.7499999999999
 30
0.0
 40
1.6
 41
3.669999999999999
 71
     1
 72
     5
  1
SV2/SB
  7
STYLE1
 73
     1
 44
1.0
1001
ACAD
1000
MTEXTBEGIN
1070
    73
1070
     1
1070
    44
1040
1.0
1070
    74
1070
     0
1000
MTEXTEND
  0
LINE
  5
B9
330
2
100
AcDbEntity
  8
画層1
 62
     0
100
AcDbLine
 10
55.5
 20
190.8999999999999
 30
0.0
 11
52.5
 21
190.8999999999999
 31
0.0
  0
LINE
  5
BA
330
2
100
AcDbEntity
  8
画層1
 62
     0
100
AcDbLine
 10
52.5
 20
190.8999999999999
 30
0.0
 11
52.5
 21
192.1
 31
0.0
  0
LINE
  5
BB
330
2
100
AcDbEntity
  8
画層1
 62
     0
100
AcDbLine
 10
55.5
 20
192.1
 30
0.0
 11
55.5
 21
190.8999999999999
 31
0.0
  0
LINE
  5
BC
330
2
100
AcDbEntity
  8
画層1
 62
     0
100
AcDbLine
 10
60.0
 20
190.8999999999999
 30
0.0
 11
60.0
 21
192.1
 31
0.0
  0
HATCH
  5
BD
330
2
100
AcDbEntity
  8
画層1
 62
     0
100
AcDbHatch
 10
0.0
 20
0.0
 30
0.0
210
0.0
220
0.0
230
1.0
  2
SOLID
 70
     1
 71
     0
 91
        1
 92
        5
 93
        5
 72
     3
 10
71.32417649273141
 20
183.0647262107929
 11
-4.074074074074073
 21
0.0
 40
0.5400000000000006
 50
102.6170915574609
 51
437.3829084425389
 73
     1
 72
     1
 10
70.83528760384251
 20
180.8806236490985
 11
70.83528760384251
 21
181.5324569249435
 72
     3
 10
71.32417649273141
 20
183.0647262107929
 11
-3.422222222222223
 21
0.0
 40
0.4523809523809536
 50
-72.30409342292334
 51
209.8520372589858
 73
     0
 72
     1
 10
73.44269501124992
 20
181.8488827176654
 11
72.79084315939806
 21
182.8202817663484
 72
     1
 10
72.79084315939806
 20
182.8202817663484
 11
71.81306538162028
 21
180.8806236490985
 97
        0
 75
     0
 76
     1
 47
0.05
 98
        1
 10
71.93741728370216
 20
184.9150703362458
  0
LINE
  5
BE
330
2
100
AcDbEntity
  8
画層1
 62
     0
100
AcDbLine
 10
63.0
 20
192.1
 30
0.0
 11
63.0
 21
190.8999999999999
 31
0.0
  0
ARC
  5
BF
330
2
100
AcDbEntity
  8
画層1
 62
     0
100
AcDbCircle
 10
69.5
 20
194.9
 30
0.0
 40
1.0
100
AcDbArc
 50
180.0
 51
270.0
  0
LINE
  5
C0
330
2
100
AcDbEntity
  8
画層1
 62
     0
100
AcDbLine
 10
45.2
 20
232.35
 30
0.0
 11
48.7
 21
232.35
 31
0.0
  0
LINE
  5
C1
330
2
100
AcDbEntity
  8
画層1
 62
     0
100
AcDbLine
 10
45.2
 20
232.6999999999999
 30
0.0
 11
48.7
 21
232.6999999999999
 31
0.0
  0
LINE
  5
C2
330
2
100
AcDbEntity
  8
画層1
 62
     0
100
AcDbLine
 10
45.2
 20
233.05
 30
0.0
 11
48.7
 21
233.05
 31
0.0
  0
LINE
  5
C3
330
2
100
AcDbEntity
  8
画層1
 62
     0
100
AcDbLine
 10
45.2
 20
233.4
 30
0.0
 11
48.7
 21
233.4
 31
0.0
  0
LINE
  5
C4
330
2
100
AcDbEntity
  8
画層1
 62
     0
100
AcDbLine
 10
45.2
 20
233.7499999999999
 30
0.0
 11
48.7
 21
233.7499999999999
 31
0.0
  0
LINE
  5
C5
330
2
100
AcDbEntity
  8
画層1
 62
     0
100
AcDbLine
 10
45.2
 20
234.1
 30
0.0
 11
48.7
 21
234.1
 31
0.0
  0
LINE
  5
C6
330
2
100
AcDbEntity
  8
画層1
 62
     0
100
AcDbLine
 10
45.2
 20
234.45
 30
0.0
 11
48.7
 21
234.45
 31
0.0
  0
ARC
  5
C7
330
2
100
AcDbEntity
  8
画層1
 62
     0
100
AcDbCircle
 10
45.6
 20
229.4
 30
0.0
 40
0.5
100
AcDbArc
 50
90.0
 51
180.0
  0
ARC
  5
C8
330
2
100
AcDbEntity
  8
画層1
 62
     0
100
AcDbCircle
 10
45.49999999999999
 20
229.4999999999999
 30
0.0
 40
0.6
100
AcDbArc
 50
90.0
 51
180.0
  0
ARC
  5
C9
330
2
100
AcDbEntity
  8
画層1
 62
     0
100
AcDbCircle
 10
44.1
 20
230.9
 30
0.0
 40
1.0
100
AcDbArc
 50
90.0
 51
180.0
  0
ARC
  5
CA
330
2
100
AcDbEntity
  8
画層1
 62
     0
100
AcDbCircle
 10
44.1
 20
230.9
 30
0.0
 40
1.1
100
AcDbArc
 50
90.0
 51
180.0
  0
LINE
  5
CB
330
2
100
AcDbEntity
  8
画層1
 62
     0
100
AcDbLine
 10
45.2
 20
232.0
 30
0.0
 11
45.2
 21
234.45
 31
0.0
  0
MTEXT
  5
CC
330
2
100
AcDbEntity
  8
画層1
 62
     0
100
AcDbMText
 10
52.75999999999999
 20
219.6699999999999
 30
0.0
 40
1.6
 41
3.709999999999999
 71
     1
 72
     5
  1
EV1
  7
STYLE1
 73
     1
 44
1.0
1001
ACAD
1000
MTEXTBEGIN
1070
    73
1070
     1
1070
    44
1040
1.0
1070
    74
1070
     0
1000
MTEXTEND
  0
LINE
  5
CD
330
2
100
AcDbEntity
  8
画層1
 62
     0
100
AcDbLine
 10
60.5
 20
210.8
 30
0.0
 11
60.5
 21
221.1999999999999
 31
0.0
  0
LINE
  5
CE
330
2
100
AcDbEntity
  8
画層1
 62
     0
100
AcDbLine
 10
60.0
 20
202.0999999999999
 30
0.0
 11
63.0
 21
202.0999999999999
 31
0.0
  0
LINE
  5
CF
330
2
100
AcDbEntity
  8
画層1
 62
     0
100
AcDbLine
 10
63.0
 20
200.8999999999999
 30
0.0
 11
60.0
 21
200.8999999999999
 31
0.0
  0
MTEXT
  5
D0
330
2
100
AcDbEntity
  8
画層1
 62
     0
100
AcDbMText
 10
59.49
 20
199.71
 30
0.0
 40
1.6
 41
5.69
 71
     1
 72
     5
  1
STBY
  7
STYLE1
 73
     1
 44
1.0
1001
ACAD
1000
MTEXTBEGIN
1070
    73
1070
     1
1070
    44
1040
1.0
1070
    74
1070
     0
1000
MTEXTEND
  0
LINE
  5
D1
330
2
100
AcDbEntity
  8
画層1
 62
     0
100
AcDbLine
 10
63.0
 20
195.8999999999999
 30
0.0
 11
60.0
 21
195.8999999999999
 31
0.0
  0
LINE
  5
D2
330
2
100
AcDbEntity
  8
画層1
 62
     0
100
AcDbLine
 10
60.0
 20
197.1
 30
0.0
 11
63.0
 21
197.1
 31
0.0
  0
MTEXT
  5
D3
330
2
100
AcDbEntity
  8
画層1
 62
     0
100
AcDbMText
 10
59.96999999999999
 20
204.66
 30
0.0
 40
1.6
 41
4.62
 71
     1
 72
     5
  1
REM
  7
STYLE1
 73
     1
 44
1.0
1001
ACAD
1000
MTEXTBEGIN
1070
    73
1070
     1
1070
    44
1040
1.0
1070
    74
1070
     0
1000
MTEXTEND
  0
LINE
  5
D4
330
2
100
AcDbEntity
  8
画層1
 62
     0
100
AcDbLine
 10
55.5
 20
207.1
 30
0.0
 11
55.5
 21
205.9
 31
0.0
  0
LINE
  5
D5
330
2
100
AcDbEntity
  8
画層1
 62
     0
100
AcDbLine
 10
52.5
 20
205.9
 30
0.0
 11
52.5
 21
207.1
 31
0.0
  0
LINE
  5
D6
330
2
100
AcDbEntity
  8
画層1
 62
     0
100
AcDbLine
 10
55.5
 20
205.9
 30
0.0
 11
52.5
 21
205.9
 31
0.0
  0
LINE
  5
D7
330
2
100
AcDbEntity
  8
画層1
 62
     0
100
AcDbLine
 10
55.5
 20
200.8999999999999
 30
0.0
 11
52.5
 21
200.8999999999999
 31
0.0
  0
LINE
  5
D8
330
2
100
AcDbEntity
  8
画層1
 62
     0
100
AcDbLine
 10
52.5
 20
202.0999999999999
 30
0.0
 11
55.5
 21
202.0999999999999
 31
0.0
  0
MTEXT
  5
D9
330
2
100
AcDbEntity
  8
画層1
 62
     0
100
AcDbMText
 10
52.49
 20
199.6599999999999
 30
0.0
 40
1.6
 41
4.669999999999999
 71
     1
 72
     5
  1
MAN
  7
STYLE1
 73
     1
 44
1.0
1001
ACAD
1000
MTEXTBEGIN
1070
    73
1070
     1
1070
    44
1040
1.0
1070
    74
1070
     0
1000
MTEXTEND
  0
LINE
  5
DA
330
2
100
AcDbEntity
  8
画層1
 62
     0
100
AcDbLine
 10
55.5
 20
195.8999999999999
 30
0.0
 11
52.5
 21
195.8999999999999
 31
0.0
  0
LINE
  5
DB
330
2
100
AcDbEntity
  8
画層1
 62
     0
100
AcDbLine
 10
52.5
 20
197.1
 30
0.0
 11
55.5
 21
197.1
 31
0.0
  0
MTEXT
  5
DC
330
2
100
AcDbEntity
  8
画層1
 62
     0
100
AcDbMText
 10
52.99
 20
204.68
 30
0.0
 40
1.6
 41
3.089999999999999
 71
     1
 72
     5
  1
AT
  7
STYLE1
 73
     1
 44
1.0
1001
ACAD
1000
MTEXTBEGIN
1070
    73
1070
     1
1070
    44
1040
1.0
1070
    74
1070
     0
1000
MTEXTEND
  0
LINE
  5
DD
330
2
100
AcDbEntity
  8
画層1
 62
     0
100
AcDbLine
 10
52.5
 20
195.8999999999999
 30
0.0
 11
52.5
 21
197.1
 31
0.0
  0
LINE
  5
DE
330
2
100
AcDbEntity
  8
画層1
 62
     0
100
AcDbLine
 10
52.5
 20
200.8999999999999
 30
0.0
 11
52.5
 21
202.0999999999999
 31
0.0
  0
LINE
  5
DF
330
2
100
AcDbEntity
  8
画層1
 62
     0
100
AcDbLine
 10
55.5
 20
197.1
 30
0.0
 11
55.5
 21
195.8999999999999
 31
0.0
  0
LINE
  5
E0
330
2
100
AcDbEntity
  8
画層1
 62
     0
100
AcDbLine
 10
60.0
 20
195.8999999999999
 30
0.0
 11
60.0
 21
197.1
 31
0.0
  0
LINE
  5
E1
330
2
100
AcDbEntity
  8
画層1
 62
     0
100
AcDbLine
 10
55.5
 20
202.0999999999999
 30
0.0
 11
55.5
 21
200.8999999999999
 31
0.0
  0
LINE
  5
E2
330
2
100
AcDbEntity
  8
画層1
 62
     0
100
AcDbLine
 10
60.0
 20
200.8999999999999
 30
0.0
 11
60.0
 21
202.0999999999999
 31
0.0
  0
LINE
  5
E3
330
2
100
AcDbEntity
  8
画層1
 62
     0
100
AcDbLine
 10
52.5
 20
217.0999999999999
 30
0.0
 11
55.5
 21
217.0999999999999
 31
0.0
  0
LINE
  5
E4
330
2
100
AcDbEntity
  8
画層1
 62
     0
100
AcDbLine
 10
55.5
 20
215.9
 30
0.0
 11
52.5
 21
215.9
 31
0.0
  0
LINE
  5
E5
330
2
100
AcDbEntity
  8
画層1
 62
     0
100
AcDbLine
 10
52.5
 20
212.0999999999999
 30
0.0
 11
55.5
 21
212.0999999999999
 31
0.0
  0
LINE
  5
E6
330
2
100
AcDbEntity
  8
画層1
 62
     0
100
AcDbLine
 10
55.5
 20
210.8999999999999
 30
0.0
 11
52.5
 21
210.8999999999999
 31
0.0
  0
MTEXT
  5
E7
330
2
100
AcDbEntity
  8
画層1
 62
     0
100
AcDbMText
 10
52.52
 20
214.6599999999999
 30
0.0
 40
1.6
 41
3.819999999999999
 71
     1
 72
     5
  1
EV2
  7
STYLE1
 73
     1
 44
1.0
1001
ACAD
1000
MTEXTBEGIN
1070
    73
1070
     1
1070
    44
1040
1.0
1070
    74
1070
     0
1000
MTEXTEND
  0
LINE
  5
E8
330
2
100
AcDbEntity
  8
画層1
 62
     0
100
AcDbLine
 10
52.5
 20
207.1
 30
0.0
 11
55.5
 21
207.1
 31
0.0
  0
MTEXT
  5
E9
330
2
100
AcDbEntity
  8
画層1
 62
     0
100
AcDbMText
 10
52.66
 20
209.66
 30
0.0
 40
1.6
 41
3.87
 71
     1
 72
     5
  1
EV3
  7
STYLE1
 73
     1
 44
1.0
1001
ACAD
1000
MTEXTBEGIN
1070
    73
1070
     1
1070
    44
1040
1.0
1070
    74
1070
     0
1000
MTEXTEND
  0
LINE
  5
EA
330
2
100
AcDbEntity
  8
画層1
 62
     0
100
AcDbLine
 10
52.5
 20
210.8999999999999
 30
0.0
 11
52.5
 21
212.0999999999999
 31
0.0
  0
LINE
  5
EB
330
2
100
AcDbEntity
  8
画層1
 62
     0
100
AcDbLine
 10
52.5
 20
215.9
 30
0.0
 11
52.5
 21
217.0999999999999
 31
0.0
  0
LINE
  5
EC
330
2
100
AcDbEntity
  8
画層1
 62
     0
100
AcDbLine
 10
55.5
 20
212.0999999999999
 30
0.0
 11
55.5
 21
210.8999999999999
 31
0.0
  0
ARC
  5
ED
330
2
100
AcDbEntity
  8
画層1
 62
     0
100
AcDbCircle
 10
61.5
 20
210.8
 30
0.0
 40
1.0
100
AcDbArc
 50
180.0
 51
270.0
  0
LINE
  5
EE
330
2
100
AcDbEntity
  8
画層1
 62
     0
100
AcDbLine
 10
55.5
 20
217.0999999999999
 30
0.0
 11
55.5
 21
215.9
 31
0.0
  0
MTEXT
  5
EF
330
2
100
AcDbEntity
  8
画層1
 62
     0
100
AcDbMText
 10
70.8
 20
207.56
 30
0.0
 40
2.5
 41
11.45
 71
     1
 72
     5
  1
\fＭＳ Ｐゴシック|b0|i0|c128|p50;ＳＶ
  7
STYLE1
 73
     1
 44
1.0
1001
ACAD
1000
MTEXTBEGIN
1070
    73
1070
     1
1070
    44
1040
1.0
1070
    74
1070
     0
1000
MTEXTEND
  0
LINE
  5
F0
330
2
100
AcDbEntity
  8
画層1
 62
     0
100
AcDbLine
 10
63.0
 20
197.1
 30
0.0
 11
63.0
 21
195.8999999999999
 31
0.0
  0
LINE
  5
F1
330
2
100
AcDbEntity
  8
画層1
 62
     0
100
AcDbLine
 10
63.0
 20
202.0999999999999
 30
0.0
 11
63.0
 21
200.8999999999999
 31
0.0
  0
ARC
  5
F2
330
2
100
AcDbEntity
  8
画層1
 62
     0
100
AcDbCircle
 10
69.5
 20
203.1
 30
0.0
 40
1.0
100
AcDbArc
 50
90.0
 51
180.0
  0
LINE
  5
F3
330
2
100
AcDbEntity
  8
画層1
 62
     0
100
AcDbLine
 10
55.5
 20
220.9
 30
0.0
 11
52.5
 21
220.9
 31
0.0
  0
LINE
  5
F4
330
2
100
AcDbEntity
  8
画層1
 62
     0
100
AcDbLine
 10
52.5
 20
222.1
 30
0.0
 11
55.5
 21
222.1
 31
0.0
  0
MTEXT
  5
F5
330
2
100
AcDbEntity
  8
画層1
 62
     0
100
AcDbMText
 10
52.46999999999999
 20
224.69
 30
0.0
 40
1.6
 41
4.95
 71
     1
 72
     5
  1
OUT
  7
STYLE1
 73
     1
 44
1.0
1001
ACAD
1000
MTEXTBEGIN
1070
    73
1070
     1
1070
    44
1040
1.0
1070
    74
1070
     0
1000
MTEXTEND
  0
LINE
  5
F6
330
2
100
AcDbEntity
  8
画層1
 62
     0
100
AcDbLine
 10
52.5
 20
220.9
 30
0.0
 11
52.5
 21
222.1
 31
0.0
  0
LINE
  5
F7
330
2
100
AcDbEntity
  8
画層1
 62
     0
100
AcDbLine
 10
55.5
 20
222.1
 30
0.0
 11
55.5
 21
220.9
 31
0.0
  0
ARC
  5
F8
330
2
100
AcDbEntity
  8
画層1
 62
     0
100
AcDbCircle
 10
61.5
 20
221.1999999999999
 30
0.0
 40
1.0
100
AcDbArc
 50
90.0
 51
180.0
  0
LINE
  5
F9
330
2
100
AcDbEntity
  8
画層1
 62
     0
100
AcDbLine
 10
49.0
 20
232.0
 30
0.0
 11
49.0
 21
231.8999999999999
 31
0.0
  0
LINE
  5
FA
330
2
100
AcDbEntity
  8
画層1
 62
     0
100
AcDbLine
 10
48.7
 20
234.45
 30
0.0
 11
48.7
 21
232.0
 31
0.0
  0
LINE
  5
FB
330
2
100
AcDbEntity
  8
画層1
 62
     0
100
AcDbLine
 10
51.0
 20
232.0
 30
0.0
 11
51.0
 21
231.8999999999999
 31
0.0
  0
LINE
  5
FC
330
2
100
AcDbEntity
  8
画層1
 62
     0
100
AcDbLine
 10
61.0
 20
232.0
 30
0.0
 11
61.0
 21
231.8999999999999
 31
0.0
  0
MTEXT
  5
FD
330
2
100
AcDbEntity
  8
画層1
 62
     0
100
AcDbMText
 10
62.7
 20
225.66
 30
0.0
 40
2.5
 41
6.049999999999999
 71
     1
 72
     5
  1
\fＭＳ Ｐゴシック|b0|i0|c128|p50;ＰＶ
  7
STYLE1
 73
     1
 44
1.0
1001
ACAD
1000
MTEXTBEGIN
1070
    73
1070
     1
1070
    44
1040
1.0
1070
    74
1070
     0
1000
MTEXTEND
  0
LINE
  5
FE
330
2
100
AcDbEntity
  8
画層1
 62
     0
100
AcDbLine
 10
63.0
 20
232.0
 30
0.0
 11
63.0
 21
231.8999999999999
 31
0.0
  0
DIMENSION
  5
FF
330
2
100
AcDbEntity
  8
画層1
 62
     0
100
AcDbDimension
  2
*D13
 10
162.0
 20
239.0
 30
0.0
 11
156.4999999999999
 21
240.8799999999999
 31
0.0
 70
    32
 71
     5
 42
11.0
  3
STANDARD_WS
100
AcDbAlignedDimension
 13
151.0
 23
231.3
 33
0.0
 14
162.0
 24
232.0
 34
0.0
100
AcDbRotatedDimension
1001
ACAD
1000
DSTYLE
1002
{
1070
   340
1005
27
1002
}
  0
LINE
  5
10C
330
2
100
AcDbEntity
  8
画層1
 62
     0
100
AcDbLine
 10
99.50000000000001
 20
203.1
 30
0.0
 11
99.50000000000001
 21
194.9
 31
0.0
  0
LINE
  5
10D
330
2
100
AcDbEntity
  8
画層1
 62
     0
100
AcDbLine
 10
112.9
 20
229.4
 30
0.0
 11
112.9
 21
162.5999999999999
 31
0.0
  0
LINE
  5
10E
330
2
100
AcDbEntity
  8
画層1
 62
     0
100
AcDbLine
 10
113.1
 20
229.4999999999999
 30
0.0
 11
113.1
 21
162.5
 31
0.0
  0
LINE
  5
10F
330
2
100
AcDbEntity
  8
画層1
 62
     0
100
AcDbLine
 10
114.9
 20
230.9
 30
0.0
 11
114.9
 21
161.0999999999999
 31
0.0
  0
LINE
  5
110
330
2
100
AcDbEntity
  8
画層1
 62
     0
100
AcDbLine
 10
115.0
 20
230.9
 30
0.0
 11
115.0
 21
161.0999999999999
 31
0.0
  0
DIMENSION
  5
111
330
2
100
AcDbEntity
  8
画層1
 62
     0
100
AcDbDimension
  2
*D14
 10
122.0
 20
160.0
 30
0.0
 11
120.1199999999999
 21
196.0
 31
0.0
 70
    32
 71
     5
 42
72.0
  3
STANDARD_WS
100
AcDbAlignedDimension
 13
114.0
 23
232.0
 33
0.0
 14
114.0
 24
160.0
 34
0.0
 50
90.0
100
AcDbRotatedDimension
1001
ACAD
1000
DSTYLE
1002
{
1070
   284
1070
     8
1070
   340
1005
27
1070
    47
1040
0.6
1070
   146
1040
0.5
1002
}
  0
LINE
  5
11E
330
2
100
AcDbEntity
  8
画層1
  6
CENTER
 62
     0
100
AcDbLine
 10
79.0
 20
234.0
 30
0.0
 11
79.0
 21
158.0
 31
0.0
  0
LINE
  5
11F
330
2
100
AcDbEntity
  8
画層1
 62
     0
100
AcDbLine
 10
109.2999999999999
 20
157.9
 30
0.0
 11
112.7999999999999
 21
157.9
 31
0.0
  0
LINE
  5
120
330
2
100
AcDbEntity
  8
画層1
 62
     0
100
AcDbLine
 10
109.2999999999999
 20
158.25
 30
0.0
 11
112.7999999999999
 21
158.25
 31
0.0
  0
LINE
  5
121
330
2
100
AcDbEntity
  8
画層1
 62
     0
100
AcDbLine
 10
109.2999999999999
 20
158.6
 30
0.0
 11
112.7999999999999
 21
158.6
 31
0.0
  0
LINE
  5
122
330
2
100
AcDbEntity
  8
画層1
 62
     0
100
AcDbLine
 10
109.2999999999999
 20
158.9499999999999
 30
0.0
 11
112.7999999999999
 21
158.9499999999999
 31
0.0
  0
LINE
  5
123
330
2
100
AcDbEntity
  8
画層1
 62
     0
100
AcDbLine
 10
109.2999999999999
 20
159.3
 30
0.0
 11
112.7999999999999
 21
159.3
 31
0.0
  0
LINE
  5
124
330
2
100
AcDbEntity
  8
画層1
 62
     0
100
AcDbLine
 10
109.2999999999999
 20
159.6499999999999
 30
0.0
 11
112.7999999999999
 21
159.6499999999999
 31
0.0
  0
LINE
  5
125
330
2
100
AcDbEntity
  8
画層1
 62
     0
100
AcDbLine
 10
112.7999999999999
 20
157.55
 30
0.0
 11
109.2999999999999
 21
157.55
 31
0.0
  0
MTEXT
  5
126
330
2
100
AcDbEntity
  8
画層1
 62
     0
100
AcDbMText
 10
98.53000000000001
 20
173.5
 30
0.0
 40
3.2
 41
6.49
 71
     1
 72
     5
  1
ENT
  7
STYLE1
 73
     1
 44
1.0
1001
ACAD
1000
MTEXTBEGIN
1070
    73
1070
     1
1070
    44
1040
1.0
1070
    74
1070
     0
1000
MTEXTEND
  0
HATCH
  5
127
330
2
100
AcDbEntity
  8
画層1
 62
     0
100
AcDbHatch
 10
0.0
 20
0.0
 30
0.0
210
0.0
220
0.0
230
1.0
  2
SOLID
 70
     1
 71
     0
 91
       10
 92
        5
 93
       10
 72
     3
 10
89.87719376276443
 20
163.8362593494962
 11
-0.982456140350877
 21
0.0
 40
0.6607142857142858
 50
90.0
 51
270.0
 73
     1
 72
     2
 10
89.87719376276443
 20
164.5906453144085
 40
0.1052631578947376
 50
89.99999999999628
 51
269.9999999999955
 73
     0
 72
     2
 10
89.94025179701386
 20
163.3419253630583
 40
1.355450691026425
 50
267.3335335883713
 51
296.4437824908838
 73
     0
 72
     1
 10
90.54386042943107
 20
164.5555575951103
 11
90.68421130662406
 21
164.8713470687945
 72
     2
 10
89.82566648118064
 20
163.2268255007918
 40
1.855141613171803
 50
62.43257811529774
 51
90.5759553231079
 73
     1
 72
     3
 10
89.80701832416794
 20
164.4327505775664
 11
0.9558248242604051
 21
0.0
 40
0.6791231934364329
 50
90.0
 51
270.0
 73
     1
 72
     2
 10
89.80701832416794
 20
163.6783646126541
 40
0.1052631578947376
 50
270.0000000000023
 51
450.0000000000031
 73
     0
 72
     2
 10
89.71734460577678
 20
165.4054346171896
 40
1.834526149694269
 50
87.1982008190587
 51
115.4216641289815
 73
     0
 72
     1
 10
88.9298253417118
 20
163.7485400512505
 11
88.75438674522056
 21
163.4327505775664
 72
     2
 10
89.80171810949329
 20
165.5313280423118
 40
2.345406225396101
 50
243.4777171338575
 51
271.8441083094921
 73
     1
 97
        0
 92
        7
 72
     0
 73
     1
 93
       12
 10
93.45614113118546
 20
165.0467856652856
 10
92.54386042943108
 20
165.0467856652856
 10
92.54386042943108
 20
164.380118998619
 10
91.98245692065915
 20
164.380118998619
 10
91.98245692065915
 20
165.0467856652856
 10
91.07017621890475
 20
165.0467856652856
 10
91.07017621890475
 20
163.2222242617769
 10
91.98245692065915
 20
163.2222242617769
 10
91.98245692065915
 20
163.8888909284435
 10
92.54386042943108
 20
163.8888909284435
 10
92.54386042943108
 20
163.2222242617769
 10
93.45614113118546
 20
163.2222242617769
 97
        0
 92
        7
 72
     0
 73
     1
 93
        4
 10
94.64912358732581
 20
165.0467856652856
 10
93.73684288557145
 20
165.0467856652856
 10
93.73684288557145
 20
163.2222242617769
 10
94.64912358732581
 20
163.2222242617769
 97
        0
 92
        7
 72
     0
 73
     1
 93
       13
 10
97.73684288557145
 20
165.0467856652856
 10
96.89473762241355
 20
165.0467856652856
 10
96.50877271013285
 20
164.2748558407243
 10
96.19298323644862
 20
165.0467856652856
 10
95.21052709609778
 20
165.0467856652856
 10
94.89473762241354
 20
163.2222242617769
 10
95.77193060486969
 20
163.2222242617769
 10
95.87719376276442
 20
163.818715489847
 10
96.19298323644862
 20
163.2222242617769
 10
96.75438674522057
 20
163.2222242617769
 10
97.03508849960655
 20
163.818715489847
 10
97.1754393767995
 20
163.2222242617769
 10
98.05263235925565
 20
163.2222242617769
 97
        0
 92
        7
 72
     0
 73
     1
 93
        8
 10
100.1929832364486
 20
165.0467856652856
 10
99.14035165750128
 20
165.0467856652856
 10
98.29824639434335
 20
163.2222242617769
 10
99.21052709609778
 20
163.2222242617769
 10
99.3625738797235
 20
163.5731014547594
 10
100.0175446399574
 20
163.5731014547594
 10
100.1929832364486
 20
163.2222242617769
 10
101.0350884996064
 20
163.2222242617769
 97
        0
 92
       22
 72
     0
 73
     1
 93
        3
 10
99.49941598498666
 20
163.8888909284435
 10
99.66666744697494
 20
164.2748558407243
 10
99.85964990311527
 20
163.8888909284435
 97
        0
 92
        7
 72
     1
 73
     1
 93
        4
 10
102.8947376224135
 20
165.0467856652856
 42
0.0
 10
101.2807025346942
 20
165.0467856652856
 42
0.0
 10
101.2807025346942
 20
163.2222242617769
 42
0.0
 10
102.8947376224135
 20
163.2222242617769
 42
1.0
 97
        0
 92
       22
 72
     1
 73
     1
 93
        4
 10
102.1929832364486
 20
164.5906453144085
 42
0.0
 10
102.4035095522381
 20
164.5906453144085
 42
-1.0
 10
102.4035095522381
 20
163.6783646126541
 42
0.0
 10
102.1929832364486
 20
163.6783646126541
 42
0.0
 97
        0
 92
        7
 72
     0
 73
     1
 93
       12
 10
104.9649130610099
 20
163.8888909284435
 10
105.7719306048696
 20
163.8888909284435
 10
105.7719306048696
 20
164.380118998619
 10
104.9649130610099
 20
164.380118998619
 10
104.9649130610099
 20
164.660820753005
 10
105.9122814820625
 20
164.660820753005
 10
105.9122814820625
 20
165.0467856652856
 10
104.0175446399574
 20
165.0467856652856
 10
104.0175446399574
 20
163.2222242617769
 10
105.9122814820625
 20
163.2222242617769
 10
105.9122814820625
 20
163.6081891740575
 10
104.9649130610099
 20
163.6081891740575
 97
        0
 92
        7
 72
     0
 73
     1
 93
       10
 10
107.0701762189047
 20
164.0643295249348
 10
107.9122814820625
 20
163.2222242617769
 10
108.8947376224135
 20
163.2222242617769
 10
108.8947376224135
 20
165.0467856652856
 10
107.982456920659
 20
165.0467856652856
 10
107.982456920659
 20
164.2748558407243
 10
107.2105270960976
 20
165.0467856652856
 10
106.1578955171504
 20
165.0467856652856
 10
106.1578955171504
 20
163.2222242617769
 10
107.0701762189047
 20
163.2222242617769
 97
        0
 75
     0
 76
     1
 47
0.31
 98
       10
 10
90.07934478839478
 20
163.9116389209471
 10
91.37726684611314
 20
164.0612605326144
 10
94.42239178022068
 20
164.0113866413505
 10
95.47071345995458
 20
163.8617650296833
 10
98.8652788771407
 20
163.8118911384194
 10
98.8652788771407
 20
163.8118911384194
 10
101.7107234858108
 20
163.76201730928
 10
101.7107234858108
 20
163.76201730928
 10
104.3065676012475
 20
163.8118911384194
 10
106.6028912861527
 20
163.8118911384194
  0
LINE
  5
128
330
2
100
AcDbEntity
  8
画層1
 62
     0
100
AcDbLine
 10
95.0
 20
160.0999999999999
 30
0.0
 11
95.0
 21
160.0
 31
0.0
  0
LINE
  5
129
330
2
100
AcDbEntity
  8
画層1
 62
     0
100
AcDbLine
 10
97.0
 20
160.0999999999999
 30
0.0
 11
97.0
 21
160.0
 31
0.0
  0
LINE
  5
12A
330
2
100
AcDbEntity
  8
画層1
 62
     0
100
AcDbLine
 10
107.0
 20
160.0999999999999
 30
0.0
 11
107.0
 21
160.0
 31
0.0
  0
LINE
  5
12B
330
2
100
AcDbEntity
  8
画層1
 62
     0
100
AcDbLine
 10
109.2999999999999
 20
157.55
 30
0.0
 11
109.2999999999999
 21
160.0
 31
0.0
  0
LINE
  5
12C
330
2
100
AcDbEntity
  8
画層1
 62
     0
100
AcDbLine
 10
109.0
 20
160.0999999999999
 30
0.0
 11
109.0
 21
160.0
 31
0.0
  0
HATCH
  5
12D
330
2
100
AcDbEntity
  8
画層1
 62
     0
100
AcDbHatch
 10
0.0
 20
0.0
 30
0.0
210
0.0
220
0.0
230
1.0
  2
SOLID
 70
     1
 71
     0
 91
        1
 92
        7
 72
     1
 73
     1
 93
        6
 10
88.28405333261853
 20
184.2608520272083
 42
0.5575365158350519
 10
88.14810039958658
 20
184.4808284937243
 42
0.0
 10
84.83998273216654
 20
184.4808284937243
 42
0.5575365158350514
 10
84.70402979913453
 20
184.2608520272083
 42
0.0
 10
86.35808863284458
 20
180.9527343597883
 42
0.6180339887498949
 10
86.62999449890852
 20
180.9527343597883
 42
0.0
 97
        0
 75
     0
 76
     1
 47
0.07
 98
        1
 10
86.76793318171094
 20
183.440976757718
  0
HATCH
  5
12E
330
2
100
AcDbEntity
  8
画層1
 62
     0
100
AcDbHatch
 10
0.0
 20
0.0
 30
0.0
210
0.0
220
0.0
230
1.0
  2
SOLID
 70
     1
 71
     0
 91
        1
 92
        7
 72
     1
 73
     1
 93
        6
 10
103.2675337813895
 20
181.5059043660344
 42
-0.5575365158350519
 10
103.1315808483576
 20
181.2859278995183
 42
0.0
 10
99.8234631809376
 20
181.2859278995183
 42
-0.5575365158350514
 10
99.68751024790558
 20
181.5059043660344
 42
0.0
 10
101.3415690816156
 20
184.8140220334545
 42
-0.6180339887498949
 10
101.6134749476795
 20
184.8140220334545
 42
0.0
 97
        0
 75
     0
 76
     1
 47
0.07
 98
        1
 10
101.751413630482
 20
182.3257796355245
  0
ARC
  5
12F
330
2
100
AcDbEntity
  8
画層1
 62
     0
100
AcDbCircle
 10
98.50000000000001
 20
194.9
 30
0.0
 40
1.0
100
AcDbArc
 50
270.0
 51
0.0
  0
ARC
  5
130
330
2
100
AcDbEntity
  8
画層1
 62
     0
100
AcDbCircle
 10
113.9
 20
161.0999999999999
 30
0.0
 40
1.0
100
AcDbArc
 50
270.0
 51
0.0
  0
ARC
  5
131
330
2
100
AcDbEntity
  8
画層1
 62
     0
100
AcDbCircle
 10
113.9
 20
161.0999999999999
 30
0.0
 40
1.1
100
AcDbArc
 50
270.0
 51
0.0
  0
LINE
  5
132
330
2
100
AcDbEntity
  8
画層1
 62
     0
100
AcDbLine
 10
112.7999999999999
 20
160.0
 30
0.0
 11
112.7999999999999
 21
157.55
 31
0.0
  0
ARC
  5
133
330
2
100
AcDbEntity
  8
画層1
 62
     0
100
AcDbCircle
 10
112.4
 20
162.5999999999999
 30
0.0
 40
0.5
100
AcDbArc
 50
270.0
 51
0.0
  0
ARC
  5
134
330
2
100
AcDbEntity
  8
画層1
 62
     0
100
AcDbCircle
 10
112.5
 20
162.5
 30
0.0
 40
0.6
100
AcDbArc
 50
270.0
 51
0.0
  0
LINE
  5
135
330
2
100
AcDbEntity
  8
画層1
 62
     0
100
AcDbLine
 10
109.2999999999999
 20
232.35
 30
0.0
 11
112.7999999999999
 21
232.35
 31
0.0
  0
LINE
  5
136
330
2
100
AcDbEntity
  8
画層1
 62
     0
100
AcDbLine
 10
109.2999999999999
 20
232.6999999999999
 30
0.0
 11
112.7999999999999
 21
232.6999999999999
 31
0.0
  0
LINE
  5
137
330
2
100
AcDbEntity
  8
画層1
 62
     0
100
AcDbLine
 10
109.2999999999999
 20
233.05
 30
0.0
 11
112.7999999999999
 21
233.05
 31
0.0
  0
LINE
  5
138
330
2
100
AcDbEntity
  8
画層1
 62
     0
100
AcDbLine
 10
109.2999999999999
 20
233.4
 30
0.0
 11
112.7999999999999
 21
233.4
 31
0.0
  0
LINE
  5
139
330
2
100
AcDbEntity
  8
画層1
 62
     0
100
AcDbLine
 10
109.2999999999999
 20
233.7499999999999
 30
0.0
 11
112.7999999999999
 21
233.7499999999999
 31
0.0
  0
LINE
  5
13A
330
2
100
AcDbEntity
  8
画層1
 62
     0
100
AcDbLine
 10
109.2999999999999
 20
234.1
 30
0.0
 11
112.7999999999999
 21
234.1
 31
0.0
  0
LINE
  5
13B
330
2
100
AcDbEntity
  8
画層1
 62
     0
100
AcDbLine
 10
112.7999999999999
 20
234.45
 30
0.0
 11
109.2999999999999
 21
234.45
 31
0.0
  0
LINE
  5
13C
330
2
100
AcDbEntity
  8
画層1
 62
     0
100
AcDbLine
 10
100.5
 20
221.1999999999999
 30
0.0
 11
100.5
 21
210.8
 31
0.0
  0
HATCH
  5
13D
330
2
100
AcDbEntity
  8
画層1
 62
     0
100
AcDbHatch
 10
0.0
 20
0.0
 30
0.0
210
0.0
220
0.0
230
1.0
  2
SOLID
 70
     1
 71
     0
 91
        3
 92
        7
 72
     1
 73
     1
 93
        2
 10
104.2162929589053
 20
208.5911796336076
 42
1.0
 10
102.6454945453624
 20
208.5911796336076
 42
1.0
 97
        0
 92
       22
 72
     1
 73
     1
 93
        2
 10
103.0182259561045
 20
208.5911796336076
 42
-1.0
 10
103.8435615481632
 20
208.5911796336076
 42
-1.0
 97
        0
 92
        7
 72
     1
 73
     1
 93
        4
 10
107.654660517984
 20
208.4244188096735
 42
0.0
 10
107.654660517984
 20
209.2269524321225
 42
1.533941497875936
 10
107.654660517984
 20
204.5741970056496
 42
0.0
 10
107.654660517984
 20
205.3767306280985
 42
-1.878800399703971
 97
        0
 75
     0
 76
     1
 47
0.01
 98
        3
 10
103.5241630031954
 20
208.072017243605
 10
103.5241630031954
 20
208.072017243605
 10
104.3635862627519
 20
206.6742729600631
  0
ARC
  5
13E
330
2
100
AcDbEntity
  8
画層1
 62
     0
100
AcDbCircle
 10
98.50000000000001
 20
203.1
 30
0.0
 40
1.0
100
AcDbArc
 50
0.0
 51
90.0
  0
ARC
  5
13F
330
2
100
AcDbEntity
  8
画層1
 62
     0
100
AcDbCircle
 10
99.50000000000001
 20
210.8
 30
0.0
 40
1.0
100
AcDbArc
 50
270.0
 51
0.0
  0
LINE
  5
140
330
2
100
AcDbEntity
  8
画層1
 62
     0
100
AcDbLine
 10
95.0
 20
232.0
 30
0.0
 11
95.0
 21
231.8999999999999
 31
0.0
  0
ARC
  5
141
330
2
100
AcDbEntity
  8
画層1
 62
     0
100
AcDbCircle
 10
99.50000000000001
 20
221.1999999999999
 30
0.0
 40
1.0
100
AcDbArc
 50
0.0
 51
90.0
  0
LINE
  5
142
330
2
100
AcDbEntity
  8
画層1
 62
     0
100
AcDbLine
 10
97.0
 20
232.0
 30
0.0
 11
97.0
 21
231.8999999999999
 31
0.0
  0
LINE
  5
143
330
2
100
AcDbEntity
  8
画層1
 62
     0
100
AcDbLine
 10
107.0
 20
232.0
 30
0.0
 11
107.0
 21
231.8999999999999
 31
0.0
  0
LINE
  5
144
330
2
100
AcDbEntity
  8
画層1
 62
     0
100
AcDbLine
 10
109.2999999999999
 20
234.45
 30
0.0
 11
109.2999999999999
 21
232.0
 31
0.0
  0
LINE
  5
145
330
2
100
AcDbEntity
  8
画層1
 62
     0
100
AcDbLine
 10
109.0
 20
232.0
 30
0.0
 11
109.0
 21
231.8999999999999
 31
0.0
  0
ARC
  5
146
330
2
100
AcDbEntity
  8
画層1
 62
     0
100
AcDbCircle
 10
112.4
 20
229.4
 30
0.0
 40
0.5
100
AcDbArc
 50
0.0
 51
90.0
  0
ARC
  5
147
330
2
100
AcDbEntity
  8
画層1
 62
     0
100
AcDbCircle
 10
112.5
 20
229.4999999999999
 30
0.0
 40
0.6
100
AcDbArc
 50
0.0
 51
90.0
  0
ARC
  5
148
330
2
100
AcDbEntity
  8
画層1
 62
     0
100
AcDbCircle
 10
113.9
 20
230.9
 30
0.0
 40
1.0
100
AcDbArc
 50
0.0
 51
90.0
  0
ARC
  5
149
330
2
100
AcDbEntity
  8
画層1
 62
     0
100
AcDbCircle
 10
113.9
 20
230.9
 30
0.0
 40
1.1
100
AcDbArc
 50
0.0
 51
90.0
  0
LINE
  5
14A
330
2
100
AcDbEntity
  8
画層1
 62
     0
100
AcDbLine
 10
112.7999999999999
 20
232.0
 30
0.0
 11
112.7999999999999
 21
234.45
 31
0.0
  0
LINE
  5
14B
330
2
100
AcDbEntity
  8
画層1
 62
     0
100
AcDbLine
 10
162.0
 20
232.0
 30
0.0
 11
162.0
 21
160.0
 31
0.0
  0
LINE
  5
14C
330
2
100
AcDbEntity
  8
画層1
 62
     0
100
AcDbLine
 10
188.4999999999999
 20
168.5
 30
0.0
 11
188.4999999999999
 21
214.5
 31
0.0
  0
LINE
  5
14D
330
2
100
AcDbEntity
  8
画層1
 62
     0
100
AcDbLine
 10
151.0
 20
230.6999999999999
 30
0.0
 11
151.0
 21
161.3
 31
0.0
  0
ARC
  5
14E
330
2
100
AcDbEntity
  8
画層1
 62
     0
100
AcDbCircle
 10
177.0
 20
193.9
 30
0.0
 40
2.299999999999998
100
AcDbArc
 50
0.0
 51
180.0
  0
LINE
  5
14F
330
2
100
AcDbEntity
  8
画層1
 62
     0
100
AcDbLine
 10
154.0
 20
160.0
 30
0.0
 11
154.0
 21
208.0
 31
0.0
  0
LINE
  5
150
330
2
100
AcDbEntity
  8
画層1
 62
     0
100
AcDbLine
 10
162.0999999999999
 20
229.8
 30
0.0
 11
162.0999999999999
 21
162.1999999999999
 31
0.0
  0
LINE
  5
151
330
2
100
AcDbEntity
  8
画層1
 62
     0
100
AcDbLine
 10
165.0
 20
168.0
 30
0.0
 11
165.0
 21
224.0
 31
0.0
  0
LINE
  5
152
330
2
100
AcDbEntity
  8
画層1
 62
     0
100
AcDbLine
 10
160.0
 20
232.0
 30
0.0
 11
160.0
 21
160.0
 31
0.0
  0
LINE
  5
153
330
2
100
AcDbEntity
  8
画層1
 62
     0
100
AcDbLine
 10
184.6999999999999
 20
165.8
 30
0.0
 11
162.0999999999999
 21
166.4
 31
0.0
  0
ARC
  5
154
330
2
100
AcDbEntity
  8
画層1
 62
     0
100
AcDbCircle
 10
177.0
 20
175.5
 30
0.0
 40
2.299999999999998
100
AcDbArc
 50
180.0
 51
0.0
  0
ARC
  5
155
330
2
100
AcDbEntity
  8
画層1
 62
     0
100
AcDbCircle
 10
183.9499999999999
 20
130.8
 30
0.0
 40
31.40248406519289
100
AcDbArc
 50
90.63
 51
121.5899999999999
  0
ARC
  5
156
330
2
100
AcDbEntity
  8
画層1
 62
     0
100
AcDbCircle
 10
183.74
 20
132.1999999999999
 30
0.0
 40
32.0
100
AcDbArc
 50
90.26000000000001
 51
120.25
  0
LINE
  5
157
330
2
100
AcDbEntity
  8
画層1
 62
     0
100
AcDbLine
 10
171.0
 20
164.4
 30
0.0
 11
185.0
 21
164.4
 31
0.0
  0
LINE
  5
158
330
2
100
AcDbEntity
  8
画層1
 62
     0
100
AcDbLine
 10
153.0
 20
160.0
 30
0.0
 11
162.0
 21
160.0
 31
0.0
  0
LINE
  5
159
330
2
100
AcDbEntity
  8
画層1
 62
     0
100
AcDbLine
 10
154.0
 20
160.0999999999999
 30
0.0
 11
154.0
 21
161.3
 31
0.0
  0
ARC
  5
15A
330
2
100
AcDbEntity
  8
画層1
 62
     0
100
AcDbCircle
 10
152.2
 20
161.3
 30
0.0
 40
1.199999999999999
100
AcDbArc
 50
180.0
 51
270.0
  0
LINE
  5
15B
330
2
100
AcDbEntity
  8
画層1
 62
     0
100
AcDbLine
 10
152.2
 20
160.0999999999999
 30
0.0
 11
154.0
 21
160.0999999999999
 31
0.0
  0
LINE
  5
15C
330
2
100
AcDbEntity
  8
画層1
 62
     0
100
AcDbLine
 10
152.2
 20
160.0999999999999
 30
0.0
 11
153.0
 21
160.0999999999999
 31
0.0
  0
LINE
  5
15D
330
2
100
AcDbEntity
  8
画層1
 62
     0
100
AcDbLine
 10
153.0
 20
160.0
 30
0.0
 11
153.0
 21
160.0999999999999
 31
0.0
  0
LINE
  5
15E
330
2
100
AcDbEntity
  8
画層1
 62
     0
100
AcDbLine
 10
163.8
 20
160.8
 30
0.0
 11
166.74
 21
159.78
 31
0.0
  0
LINE
  5
15F
330
2
100
AcDbEntity
  8
画層1
 62
     0
100
AcDbLine
 10
162.5999999999999
 20
160.0
 30
0.0
 11
162.5999999999999
 21
160.4
 31
0.0
  0
LINE
  5
160
330
2
100
AcDbEntity
  8
画層1
 62
     0
100
AcDbLine
 10
163.1999999999999
 20
160.25
 30
0.0
 11
162.5999999999999
 21
160.0
 31
0.0
  0
LINE
  5
161
330
2
100
AcDbEntity
  8
画層1
 62
     0
100
AcDbLine
 10
163.1999999999999
 20
159.6499999999999
 30
0.0
 11
163.1999999999999
 21
160.25
 31
0.0
  0
LINE
  5
162
330
2
100
AcDbEntity
  8
画層1
 62
     0
100
AcDbLine
 10
165.0
 20
159.1999999999999
 30
0.0
 11
164.4
 21
158.9499999999999
 31
0.0
  0
LINE
  5
163
330
2
100
AcDbEntity
  8
画層1
 62
     0
100
AcDbLine
 10
163.8
 20
159.9
 30
0.0
 11
163.1999999999999
 21
159.6499999999999
 31
0.0
  0
LINE
  5
164
330
2
100
AcDbEntity
  8
画層1
 62
     0
100
AcDbLine
 10
163.8
 20
159.3
 30
0.0
 11
163.8
 21
159.9
 31
0.0
  0
LINE
  5
165
330
2
100
AcDbEntity
  8
画層1
 62
     0
100
AcDbLine
 10
164.4
 20
159.55
 30
0.0
 11
163.8
 21
159.3
 31
0.0
  0
LINE
  5
166
330
2
100
AcDbEntity
  8
画層1
 62
     0
100
AcDbLine
 10
164.4
 20
158.9499999999999
 30
0.0
 11
164.4
 21
159.55
 31
0.0
  0
LINE
  5
167
330
2
100
AcDbEntity
  8
画層1
 62
     0
100
AcDbLine
 10
167.5
 20
157.55
 30
0.0
 11
167.1999999999999
 21
157.55
 31
0.0
  0
LINE
  5
168
330
2
100
AcDbEntity
  8
画層1
 62
     0
100
AcDbLine
 10
167.1999999999999
 20
157.55
 30
0.0
 11
167.1999999999999
 21
158.15
 31
0.0
  0
LINE
  5
169
330
2
100
AcDbEntity
  8
画層1
 62
     0
100
AcDbLine
 10
165.0
 20
158.6
 30
0.0
 11
165.0
 21
159.1999999999999
 31
0.0
  0
LINE
  5
16A
330
2
100
AcDbEntity
  8
画層1
 62
     0
100
AcDbLine
 10
165.8
 20
158.8499999999999
 30
0.0
 11
165.0
 21
158.6
 31
0.0
  0
LINE
  5
16B
330
2
100
AcDbEntity
  8
画層1
 62
     0
100
AcDbLine
 10
165.8
 20
158.25
 30
0.0
 11
165.8
 21
158.8499999999999
 31
0.0
  0
LINE
  5
16C
330
2
100
AcDbEntity
  8
画層1
 62
     0
100
AcDbLine
 10
166.4
 20
158.4999999999999
 30
0.0
 11
165.8
 21
158.25
 31
0.0
  0
LINE
  5
16D
330
2
100
AcDbEntity
  8
画層1
 62
     0
100
AcDbLine
 10
166.4
 20
157.9
 30
0.0
 11
166.4
 21
158.4999999999999
 31
0.0
  0
ARC
  5
16E
330
2
100
AcDbEntity
  8
画層1
 62
     0
100
AcDbCircle
 10
167.1199999999999
 20
160.71
 30
0.0
 40
1.0
100
AcDbArc
 50
247.5099999999999
 51
300.2499999999999
  0
LINE
  5
16F
330
2
100
AcDbEntity
  8
画層1
 62
     0
100
AcDbLine
 10
167.1999999999999
 20
158.15
 30
0.0
 11
166.4
 21
157.9
 31
0.0
  0
LINE
  5
170
330
2
100
AcDbEntity
  8
画層1
 62
     0
100
AcDbLine
 10
162.0999999999999
 20
162.1999999999999
 30
0.0
 11
172.61
 21
162.1999999999999
 31
0.0
  0
LINE
  5
171
330
2
100
AcDbEntity
  8
画層1
 62
     0
100
AcDbLine
 10
162.0999999999999
 20
162.4
 30
0.0
 11
162.0
 21
162.4
 31
0.0
  0
LINE
  5
172
330
2
100
AcDbEntity
  8
画層1
 62
     0
100
AcDbLine
 10
162.5999999999999
 20
160.4
 30
0.0
 11
163.8
 21
160.8
 31
0.0
  0
ARC
  5
173
330
2
100
AcDbEntity
  8
画層1
 62
     0
100
AcDbCircle
 10
166.0
 20
168.0
 30
0.0
 40
1.0
100
AcDbArc
 50
180.0
 51
270.0
  0
LINE
  5
174
330
2
100
AcDbEntity
  8
画層1
 62
     0
100
AcDbLine
 10
171.0
 20
162.1999999999999
 30
0.0
 11
171.0
 21
164.4
 31
0.0
  0
LINE
  5
175
330
2
100
AcDbEntity
  8
画層1
 62
     0
100
AcDbLine
 10
174.6999999999999
 20
193.9
 30
0.0
 11
174.6999999999999
 21
175.5
 31
0.0
  0
ARC
  5
176
330
2
100
AcDbEntity
  8
画層1
 62
     0
100
AcDbCircle
 10
184.6999999999999
 20
165.0
 30
0.0
 40
0.8000000000000111
100
AcDbArc
 50
270.0
 51
90.0
  0
LINE
  5
177
330
2
100
AcDbEntity
  8
画層1
 62
     0
100
AcDbLine
 10
185.0
 20
164.4
 30
0.0
 11
185.0
 21
164.2599999999999
 31
0.0
  0
LINE
  5
178
330
2
100
AcDbEntity
  8
画層1
 62
     0
100
AcDbLine
 10
183.6
 20
164.1999999999999
 30
0.0
 11
184.6999999999999
 21
164.1999999999999
 31
0.0
  0
LINE
  5
179
330
2
100
AcDbEntity
  8
画層1
 62
     0
100
AcDbLine
 10
192.5
 20
165.7
 30
0.0
 11
192.5
 21
162.1999999999999
 31
0.0
  0
LINE
  5
17A
330
2
100
AcDbEntity
  8
画層1
 62
     0
100
AcDbLine
 10
190.0
 20
162.1999999999999
 30
0.0
 11
192.5
 21
165.7
 31
0.0
  0
ARC
  5
17B
330
2
100
AcDbEntity
  8
画層1
 62
     0
100
AcDbCircle
 10
189.4999999999999
 20
168.5
 30
0.0
 40
1.0
100
AcDbArc
 50
180.0
 51
270.0
  0
LINE
  5
17C
330
2
100
AcDbEntity
  8
画層1
 62
     0
100
AcDbLine
 10
179.3
 20
193.9
 30
0.0
 11
179.3
 21
175.5
 31
0.0
  0
LINE
  5
17D
330
2
100
AcDbEntity
  8
画層1
 62
     0
100
AcDbLine
 10
184.6999999999999
 20
226.2
 30
0.0
 11
162.0999999999999
 21
225.5999999999999
 31
0.0
  0
ARC
  5
17E
330
2
100
AcDbEntity
  8
画層1
 62
     0
100
AcDbCircle
 10
183.9499999999999
 20
261.2
 30
0.0
 40
31.40248406519245
100
AcDbArc
 50
238.4099999999999
 51
269.37
  0
ARC
  5
17F
330
2
100
AcDbEntity
  8
画層1
 62
     0
100
AcDbCircle
 10
183.74
 20
259.8
 30
0.0
 40
32.0
100
AcDbArc
 50
239.7499999999999
 51
269.74
  0
LINE
  5
180
330
2
100
AcDbEntity
  8
画層1
 62
     0
100
AcDbLine
 10
171.0
 20
227.5999999999999
 30
0.0
 11
185.0
 21
227.5999999999999
 31
0.0
  0
LINE
  5
181
330
2
100
AcDbEntity
  8
画層1
 62
     0
100
AcDbLine
 10
154.0
 20
232.0
 30
0.0
 11
154.0
 21
196.0
 31
0.0
  0
LINE
  5
182
330
2
100
AcDbEntity
  8
画層1
 62
     0
100
AcDbLine
 10
153.0
 20
232.0
 30
0.0
 11
162.0
 21
232.0
 31
0.0
  0
LINE
  5
183
330
2
100
AcDbEntity
  8
画層1
 62
     0
100
AcDbLine
 10
152.2
 20
231.8999999999999
 30
0.0
 11
154.0
 21
231.8999999999999
 31
0.0
  0
LINE
  5
184
330
2
100
AcDbEntity
  8
画層1
 62
     0
100
AcDbLine
 10
152.2
 20
231.8999999999999
 30
0.0
 11
153.0
 21
231.8999999999999
 31
0.0
  0
ARC
  5
185
330
2
100
AcDbEntity
  8
画層1
 62
     0
100
AcDbCircle
 10
152.2
 20
230.6999999999999
 30
0.0
 40
1.199999999999999
100
AcDbArc
 50
90.0
 51
180.0
  0
LINE
  5
186
330
2
100
AcDbEntity
  8
画層1
 62
     0
100
AcDbLine
 10
154.0
 20
231.8999999999999
 30
0.0
 11
154.0
 21
230.6999999999999
 31
0.0
  0
LINE
  5
187
330
2
100
AcDbEntity
  8
画層1
 62
     0
100
AcDbLine
 10
153.0
 20
232.0
 30
0.0
 11
153.0
 21
231.8999999999999
 31
0.0
  0
LINE
  5
188
330
2
100
AcDbEntity
  8
画層1
 62
     0
100
AcDbLine
 10
171.0
 20
229.8
 30
0.0
 11
171.0
 21
227.5999999999999
 31
0.0
  0
ARC
  5
189
330
2
100
AcDbEntity
  8
画層1
 62
     0
100
AcDbCircle
 10
166.0
 20
224.0
 30
0.0
 40
1.0
100
AcDbArc
 50
90.0
 51
180.0
  0
LINE
  5
18A
330
2
100
AcDbEntity
  8
画層1
 62
     0
100
AcDbLine
 10
162.0
 20
229.5999999999999
 30
0.0
 11
162.0999999999999
 21
229.5999999999999
 31
0.0
  0
LINE
  5
18B
330
2
100
AcDbEntity
  8
画層1
 62
     0
100
AcDbLine
 10
162.0999999999999
 20
229.8
 30
0.0
 11
172.61
 21
229.8
 31
0.0
  0
LINE
  5
18C
330
2
100
AcDbEntity
  8
画層1
 62
     0
100
AcDbLine
 10
165.0
 20
232.8
 30
0.0
 11
164.4
 21
233.05
 31
0.0
  0
LINE
  5
18D
330
2
100
AcDbEntity
  8
画層1
 62
     0
100
AcDbLine
 10
163.8
 20
231.1999999999999
 30
0.0
 11
166.74
 21
232.22
 31
0.0
  0
LINE
  5
18E
330
2
100
AcDbEntity
  8
画層1
 62
     0
100
AcDbLine
 10
164.4
 20
233.05
 30
0.0
 11
164.4
 21
232.45
 31
0.0
  0
LINE
  5
18F
330
2
100
AcDbEntity
  8
画層1
 62
     0
100
AcDbLine
 10
164.4
 20
232.45
 30
0.0
 11
163.8
 21
232.6999999999999
 31
0.0
  0
LINE
  5
190
330
2
100
AcDbEntity
  8
画層1
 62
     0
100
AcDbLine
 10
163.8
 20
232.6999999999999
 30
0.0
 11
163.8
 21
232.1
 31
0.0
  0
LINE
  5
191
330
2
100
AcDbEntity
  8
画層1
 62
     0
100
AcDbLine
 10
163.8
 20
232.1
 30
0.0
 11
163.1999999999999
 21
232.35
 31
0.0
  0
LINE
  5
192
330
2
100
AcDbEntity
  8
画層1
 62
     0
100
AcDbLine
 10
163.1999999999999
 20
232.35
 30
0.0
 11
163.1999999999999
 21
231.7499999999999
 31
0.0
  0
LINE
  5
193
330
2
100
AcDbEntity
  8
画層1
 62
     0
100
AcDbLine
 10
163.1999999999999
 20
231.7499999999999
 30
0.0
 11
162.5999999999999
 21
232.0
 31
0.0
  0
LINE
  5
194
330
2
100
AcDbEntity
  8
画層1
 62
     0
100
AcDbLine
 10
162.5999999999999
 20
232.0
 30
0.0
 11
162.5999999999999
 21
231.5999999999999
 31
0.0
  0
LINE
  5
195
330
2
100
AcDbEntity
  8
画層1
 62
     0
100
AcDbLine
 10
162.5999999999999
 20
231.5999999999999
 30
0.0
 11
163.8
 21
231.1999999999999
 31
0.0
  0
LINE
  5
196
330
2
100
AcDbEntity
  8
画層1
 62
     0
100
AcDbLine
 10
167.5
 20
234.45
 30
0.0
 11
167.1999999999999
 21
234.45
 31
0.0
  0
LINE
  5
197
330
2
100
AcDbEntity
  8
画層1
 62
     0
100
AcDbLine
 10
167.1999999999999
 20
234.45
 30
0.0
 11
167.1999999999999
 21
233.8499999999999
 31
0.0
  0
LINE
  5
198
330
2
100
AcDbEntity
  8
画層1
 62
     0
100
AcDbLine
 10
166.4
 20
234.1
 30
0.0
 11
166.4
 21
233.4999999999999
 31
0.0
  0
LINE
  5
199
330
2
100
AcDbEntity
  8
画層1
 62
     0
100
AcDbLine
 10
166.4
 20
233.4999999999999
 30
0.0
 11
165.8
 21
233.7499999999999
 31
0.0
  0
LINE
  5
19A
330
2
100
AcDbEntity
  8
画層1
 62
     0
100
AcDbLine
 10
165.8
 20
233.7499999999999
 30
0.0
 11
165.8
 21
233.15
 31
0.0
  0
LINE
  5
19B
330
2
100
AcDbEntity
  8
画層1
 62
     0
100
AcDbLine
 10
165.8
 20
233.15
 30
0.0
 11
165.0
 21
233.4
 31
0.0
  0
LINE
  5
19C
330
2
100
AcDbEntity
  8
画層1
 62
     0
100
AcDbLine
 10
165.0
 20
233.4
 30
0.0
 11
165.0
 21
232.8
 31
0.0
  0
LINE
  5
19D
330
2
100
AcDbEntity
  8
画層1
 62
     0
100
AcDbLine
 10
167.1999999999999
 20
233.8499999999999
 30
0.0
 11
166.4
 21
234.1
 31
0.0
  0
ARC
  5
19E
330
2
100
AcDbEntity
  8
画層1
 62
     0
100
AcDbCircle
 10
167.1199999999999
 20
231.2899999999999
 30
0.0
 40
1.0
100
AcDbArc
 50
59.75
 51
112.49
  0
ARC
  5
19F
330
2
100
AcDbEntity
  8
画層1
 62
     0
100
AcDbCircle
 10
189.4999999999999
 20
214.5
 30
0.0
 40
1.0
100
AcDbArc
 50
90.0
 51
180.0
  0
POINT
  5
1A0
330
2
100
AcDbEntity
  8
DEFPOINTS
  6
ByBlock
 62
     0
100
AcDbPoint
 10
190.5
 20
215.5
 30
0.0
  0
POINT
  5
1A1
330
2
100
AcDbEntity
  8
DEFPOINTS
  6
ByBlock
 62
     0
100
AcDbPoint
 10
190.5
 20
217.0
 30
0.0
  0
LINE
  5
1A2
330
2
100
AcDbEntity
  8
画層1
 62
     0
100
AcDbLine
 10
192.5
 20
229.8
 30
0.0
 11
192.5
 21
226.3
 31
0.0
  0
LINE
  5
1A3
330
2
100
AcDbEntity
  8
画層1
 62
     0
100
AcDbLine
 10
192.5
 20
226.3
 30
0.0
 11
190.0
 21
229.8
 31
0.0
  0
ARC
  5
1A4
330
2
100
AcDbEntity
  8
画層1
 62
     0
100
AcDbCircle
 10
184.6999999999999
 20
227.0
 30
0.0
 40
0.8000000000000111
100
AcDbArc
 50
270.0
 51
90.0
  0
LINE
  5
1A5
330
2
100
AcDbEntity
  8
画層1
 62
     0
100
AcDbLine
 10
185.0
 20
227.5999999999999
 30
0.0
 11
185.0
 21
227.74
 31
0.0
  0
LINE
  5
1A6
330
2
100
AcDbEntity
  8
画層1
 62
     0
100
AcDbLine
 10
183.6
 20
227.8
 30
0.0
 11
184.6999999999999
 21
227.8
 31
0.0
  0
ARC
  5
1A7
330
2
100
AcDbEntity
  8
画層1
 62
     0
100
AcDbCircle
 10
244.5699999999999
 20
196.0
 30
0.0
 40
10.50674104301653
100
AcDbArc
 50
340.54
 51
355.63
  0
LINE
  5
1A8
330
2
100
AcDbEntity
  8
画層1
 62
     0
100
AcDbLine
 10
254.47
 20
199.5
 30
0.0
 11
254.47
 21
192.5
 31
0.0
  0
LINE
  5
1A9
330
2
100
AcDbEntity
  8
画層1
 62
     0
100
AcDbLine
 10
253.9699999999999
 20
192.5
 30
0.0
 11
253.9699999999999
 21
199.5
 31
0.0
  0
LINE
  5
1AA
330
2
100
AcDbEntity
  8
画層1
 62
     0
100
AcDbLine
 10
256.07
 20
198.4199999999999
 30
0.0
 11
256.07
 21
193.58
 31
0.0
  0
ARC
  5
1AB
330
2
100
AcDbEntity
  8
画層1
 62
     0
100
AcDbCircle
 10
251.0299999999999
 20
196.0
 30
0.0
 40
7.540000001812724
100
AcDbArc
 50
344.01
 51
356.1999999999999
  0
ARC
  5
1AC
330
2
100
AcDbEntity
  8
画層1
 62
     0
100
AcDbCircle
 10
244.66
 20
196.25
 30
0.0
 40
11.44118729799423
100
AcDbArc
 50
340.87
 51
355.74
  0
LINE
  5
1AD
330
2
100
AcDbEntity
  8
画層1
 62
     0
100
AcDbLine
 10
251.5
 20
214.5
 30
0.0
 11
251.5
 21
168.5
 31
0.0
  0
LINE
  5
1AE
330
2
100
AcDbEntity
  8
画層1
 62
     0
100
AcDbLine
 10
252.0
 20
224.0
 30
0.0
 11
252.0
 21
168.7199999999999
 31
0.0
  0
LINE
  5
1AF
330
2
100
AcDbEntity
  8
画層1
 62
     0
100
AcDbLine
 10
253.5
 20
199.6
 30
0.0
 11
253.5
 21
192.4
 31
0.0
  0
ARC
  5
1B0
330
2
100
AcDbEntity
  8
画層1
 62
     0
100
AcDbCircle
 10
244.66
 20
170.8499999999999
 30
0.0
 40
11.44118730072771
100
AcDbArc
 50
4.259999999999999
 51
19.13
  0
ARC
  5
1B1
330
2
100
AcDbEntity
  8
画層1
 62
     0
100
AcDbCircle
 10
251.0299999999999
 20
171.1
 30
0.0
 40
7.540000001812724
100
AcDbArc
 50
3.799999999999999
 51
15.99
  0
LINE
  5
1B2
330
2
100
AcDbEntity
  8
画層1
 62
     0
100
AcDbLine
 10
254.47
 20
174.5999999999999
 30
0.0
 11
254.47
 21
167.5999999999999
 31
0.0
  0
LINE
  5
1B3
330
2
100
AcDbEntity
  8
画層1
 62
     0
100
AcDbLine
 10
253.9699999999999
 20
167.5999999999999
 30
0.0
 11
253.9699999999999
 21
174.5999999999999
 31
0.0
  0
LINE
  5
1B4
330
2
100
AcDbEntity
  8
画層1
 62
     0
100
AcDbLine
 10
256.07
 20
173.52
 30
0.0
 11
256.07
 21
168.68
 31
0.0
  0
LINE
  5
1B5
330
2
100
AcDbEntity
  8
画層1
 62
     0
100
AcDbLine
 10
253.5
 20
174.6999999999999
 30
0.0
 11
253.5
 21
167.5
 31
0.0
  0
LINE
  5
1B6
330
2
100
AcDbEntity
  8
画層1
 62
     0
100
AcDbLine
 10
253.5
 20
164.5
 30
0.0
 11
261.2999999999999
 21
164.5
 31
0.0
  0
LINE
  5
1B7
330
2
100
AcDbEntity
  8
画層1
 62
     0
100
AcDbLine
 10
253.5
 20
167.5
 30
0.0
 11
261.6999999999999
 21
167.5
 31
0.0
  0
ARC
  5
1B8
330
2
100
AcDbEntity
  8
画層1
 62
     0
100
AcDbCircle
 10
250.4999999999999
 20
168.5
 30
0.0
 40
1.0
100
AcDbArc
 50
270.0
 51
0.0
  0
ARC
  5
1B9
330
2
100
AcDbEntity
  8
画層1
 62
     0
100
AcDbCircle
 10
251.0
 20
168.0
 30
0.0
 40
1.0
100
AcDbArc
 50
270.0
 51
0.0
  0
LINE
  5
1BA
330
2
100
AcDbEntity
  8
画層1
 62
     0
100
AcDbLine
 10
253.5
 20
164.3
 30
0.0
 11
257.6
 21
164.3
 31
0.0
  0
LINE
  5
1BB
330
2
100
AcDbEntity
  8
画層1
 62
     0
100
AcDbLine
 10
253.5
 20
162.1999999999999
 30
0.0
 11
253.5
 21
165.7
 31
0.0
  0
LINE
  5
1BC
330
2
100
AcDbEntity
  8
画層1
 62
     0
100
AcDbLine
 10
257.6
 20
164.3
 30
0.0
 11
257.6
 21
164.5
 31
0.0
  0
ARC
  5
1BD
330
2
100
AcDbEntity
  8
画層1
 62
     0
100
AcDbCircle
 10
244.5699999999999
 20
171.1
 30
0.0
 40
10.50674104301653
100
AcDbArc
 50
340.54
 51
355.63
  0
LINE
  5
1BE
330
2
100
AcDbEntity
  8
画層1
 62
     0
100
AcDbLine
 10
255.4699999999999
 20
167.5999999999999
 30
0.0
 11
253.5
 21
167.5999999999999
 31
0.0
  0
LINE
  5
1BF
330
2
100
AcDbEntity
  8
画層1
 62
     0
100
AcDbLine
 10
255.0399999999999
 20
170.3
 30
0.0
 11
254.47
 21
170.3
 31
0.0
  0
LINE
  5
1C0
330
2
100
AcDbEntity
  8
画層1
 62
     0
100
AcDbLine
 10
252.0
 20
168.7199999999999
 30
0.0
 11
252.0
 21
168.0
 31
0.0
  0
ARC
  5
1C1
330
2
100
AcDbEntity
  8
画層1
 62
     0
100
AcDbCircle
 10
253.6999999999999
 20
167.6999999999999
 30
0.0
 40
0.2
100
AcDbArc
 50
180.0
 51
270.0
  0
LINE
  5
1C2
330
2
100
AcDbEntity
  8
画層1
 62
     0
100
AcDbLine
 10
256.0
 20
169.8
 30
0.0
 11
256.0
 21
167.5
 31
0.0
  0
LINE
  5
1C3
330
2
100
AcDbEntity
  8
画層1
 62
     0
100
AcDbLine
 10
258.5599999999999
 20
171.6
 30
0.0
 11
257.5699999999999
 21
171.6
 31
0.0
  0
LINE
  5
1C4
330
2
100
AcDbEntity
  8
画層1
 62
     0
100
AcDbLine
 10
256.07
 20
171.6999999999999
 30
0.0
 11
255.6699999999999
 21
171.6999999999999
 31
0.0
  0
ARC
  5
1C5
330
2
100
AcDbEntity
  8
画層1
 62
     0
100
AcDbCircle
 10
251.0299999999999
 20
171.1
 30
0.0
 40
7.540000001812724
100
AcDbArc
 50
344.01
 51
356.1999999999999
  0
LINE
  5
1C6
330
2
100
AcDbEntity
  8
画層1
 62
     0
100
AcDbLine
 10
256.65
 20
168.1899999999999
 30
0.0
 11
257.47
 21
168.31
 31
0.0
  0
ARC
  5
1C7
330
2
100
AcDbEntity
  8
画層1
 62
     0
100
AcDbCircle
 10
257.3199999999999
 20
169.3
 30
0.0
 40
1.0
100
AcDbArc
 50
278.5299999999999
 51
344.01
  0
LINE
  5
1C8
330
2
100
AcDbEntity
  8
画層1
 62
     0
100
AcDbLine
 10
257.5699999999999
 20
170.5999999999999
 30
0.0
 11
258.5599999999999
 21
170.5999999999999
 31
0.0
  0
LINE
  5
1C9
330
2
100
AcDbEntity
  8
画層1
 62
     0
100
AcDbLine
 10
255.6699999999999
 20
170.5
 30
0.0
 11
256.07
 21
170.5
 31
0.0
  0
ARC
  5
1CA
330
2
100
AcDbEntity
  8
画層1
 62
     0
100
AcDbCircle
 10
244.66
 20
171.3499999999999
 30
0.0
 40
11.44118729799423
100
AcDbArc
 50
340.87
 51
355.74
  0
ARC
  5
1CB
330
2
100
AcDbEntity
  8
画層1
 62
     0
100
AcDbCircle
 10
256.57
 20
168.68
 30
0.0
 40
0.5
100
AcDbArc
 50
180.0
 51
278.5299999999999
  0
LINE
  5
1CC
330
2
100
AcDbEntity
  8
画層1
 62
     0
100
AcDbLine
 10
257.5699999999999
 20
171.6
 30
0.0
 11
257.5699999999999
 21
170.5999999999999
 31
0.0
  0
LINE
  5
1CD
330
2
100
AcDbEntity
  8
画層1
 62
     0
100
AcDbLine
 10
255.6699999999999
 20
171.6999999999999
 30
0.0
 11
255.6699999999999
 21
170.5
 31
0.0
  0
LINE
  5
1CE
330
2
100
AcDbEntity
  8
画層1
 62
     0
100
AcDbLine
 10
262.0
 20
167.1999999999999
 30
0.0
 11
262.0
 21
165.1999999999999
 31
0.0
  0
ARC
  5
1CF
330
2
100
AcDbEntity
  8
画層1
 62
     0
100
AcDbCircle
 10
261.2999999999999
 20
165.1999999999999
 30
0.0
 40
0.7
100
AcDbArc
 50
270.0
 51
360.0
  0
ARC
  5
1D0
330
2
100
AcDbEntity
  8
画層1
 62
     0
100
AcDbCircle
 10
261.6999999999999
 20
167.1999999999999
 30
0.0
 40
0.3
100
AcDbArc
 50
360.0
 51
90.0
  0
LINE
  5
1D1
330
2
100
AcDbEntity
  8
画層1
 62
     0
100
AcDbLine
 10
253.5
 20
192.4
 30
0.0
 11
261.6999999999999
 21
192.4
 31
0.0
  0
LINE
  5
1D2
330
2
100
AcDbEntity
  8
画層1
 62
     0
100
AcDbLine
 10
253.5
 20
191.3
 30
0.0
 11
261.6999999999999
 21
191.3
 31
0.0
  0
LINE
  5
1D3
330
2
100
AcDbEntity
  8
画層1
 62
     0
100
AcDbLine
 10
253.5
 20
184.1
 30
0.0
 11
261.6999999999999
 21
184.1
 31
0.0
  0
LINE
  5
1D4
330
2
100
AcDbEntity
  8
画層1
 62
     0
100
AcDbLine
 10
253.5
 20
183.0
 30
0.0
 11
261.6999999999999
 21
183.0
 31
0.0
  0
LINE
  5
1D5
330
2
100
AcDbEntity
  8
画層1
 62
     0
100
AcDbLine
 10
253.5
 20
175.8
 30
0.0
 11
261.6999999999999
 21
175.8
 31
0.0
  0
LINE
  5
1D6
330
2
100
AcDbEntity
  8
画層1
 62
     0
100
AcDbLine
 10
253.5
 20
174.6999999999999
 30
0.0
 11
261.6999999999999
 21
174.6999999999999
 31
0.0
  0
LINE
  5
1D7
330
2
100
AcDbEntity
  8
画層1
 62
     0
100
AcDbLine
 10
256.07
 20
181.82
 30
0.0
 11
256.07
 21
176.98
 31
0.0
  0
ARC
  5
1D8
330
2
100
AcDbEntity
  8
画層1
 62
     0
100
AcDbCircle
 10
251.0299999999999
 20
179.4
 30
0.0
 40
7.540000001812724
100
AcDbArc
 50
344.01
 51
356.1999999999999
  0
LINE
  5
1D9
330
2
100
AcDbEntity
  8
画層1
 62
     0
100
AcDbLine
 10
256.0
 20
183.0
 30
0.0
 11
256.0
 21
175.8
 31
0.0
  0
LINE
  5
1DA
330
2
100
AcDbEntity
  8
画層1
 62
     0
100
AcDbLine
 10
253.5
 20
183.0
 30
0.0
 11
253.5
 21
175.8
 31
0.0
  0
LINE
  5
1DB
330
2
100
AcDbEntity
  8
画層1
 62
     0
100
AcDbLine
 10
253.5
 20
174.5999999999999
 30
0.0
 11
255.4699999999999
 21
174.5999999999999
 31
0.0
  0
ARC
  5
1DC
330
2
100
AcDbEntity
  8
画層1
 62
     0
100
AcDbCircle
 10
244.5699999999999
 20
171.1
 30
0.0
 40
10.50674104301653
100
AcDbArc
 50
4.37
 51
19.46
  0
LINE
  5
1DD
330
2
100
AcDbEntity
  8
画層1
 62
     0
100
AcDbLine
 10
255.0399999999999
 20
171.9
 30
0.0
 11
254.47
 21
171.9
 31
0.0
  0
ARC
  5
1DE
330
2
100
AcDbEntity
  8
画層1
 62
     0
100
AcDbCircle
 10
253.6999999999999
 20
176.0
 30
0.0
 40
0.2
100
AcDbArc
 50
180.0
 51
270.0
  0
ARC
  5
1DF
330
2
100
AcDbEntity
  8
画層1
 62
     0
100
AcDbCircle
 10
253.6999999999999
 20
174.5
 30
0.0
 40
0.2
100
AcDbArc
 50
90.0
 51
180.0
  0
LINE
  5
1E0
330
2
100
AcDbEntity
  8
画層1
 62
     0
100
AcDbLine
 10
256.65
 20
174.0099999999999
 30
0.0
 11
257.47
 21
173.8899999999999
 31
0.0
  0
ARC
  5
1E1
330
2
100
AcDbEntity
  8
画層1
 62
     0
100
AcDbCircle
 10
257.3199999999999
 20
172.9
 30
0.0
 40
1.0
100
AcDbArc
 50
15.99
 51
81.47
  0
ARC
  5
1E2
330
2
100
AcDbEntity
  8
画層1
 62
     0
100
AcDbCircle
 10
256.57
 20
173.52
 30
0.0
 40
0.5
100
AcDbArc
 50
81.47
 51
180.0
  0
LINE
  5
1E3
330
2
100
AcDbEntity
  8
画層1
 62
     0
100
AcDbLine
 10
256.65
 20
176.49
 30
0.0
 11
257.47
 21
176.61
 31
0.0
  0
ARC
  5
1E4
330
2
100
AcDbEntity
  8
画層1
 62
     0
100
AcDbCircle
 10
257.3199999999999
 20
177.5999999999999
 30
0.0
 40
1.0
100
AcDbArc
 50
278.5299999999999
 51
344.01
  0
ARC
  5
1E5
330
2
100
AcDbEntity
  8
画層1
 62
     0
100
AcDbCircle
 10
256.57
 20
176.98
 30
0.0
 40
0.5
100
AcDbArc
 50
180.0
 51
278.5299999999999
  0
LINE
  5
1E6
330
2
100
AcDbEntity
  8
画層1
 62
     0
100
AcDbLine
 10
256.0
 20
174.6999999999999
 30
0.0
 11
256.0
 21
172.4
 31
0.0
  0
ARC
  5
1E7
330
2
100
AcDbEntity
  8
画層1
 62
     0
100
AcDbCircle
 10
253.6999999999999
 20
182.8
 30
0.0
 40
0.2
100
AcDbArc
 50
90.0
 51
180.0
  0
LINE
  5
1E8
330
2
100
AcDbEntity
  8
画層1
 62
     0
100
AcDbLine
 10
257.5699999999999
 20
179.9
 30
0.0
 11
257.5699999999999
 21
178.9
 31
0.0
  0
LINE
  5
1E9
330
2
100
AcDbEntity
  8
画層1
 62
     0
100
AcDbLine
 10
257.5699999999999
 20
178.9
 30
0.0
 11
258.5599999999999
 21
178.9
 31
0.0
  0
LINE
  5
1EA
330
2
100
AcDbEntity
  8
画層1
 62
     0
100
AcDbLine
 10
256.0
 20
178.8
 30
0.0
 11
256.07
 21
178.8
 31
0.0
  0
LINE
  5
1EB
330
2
100
AcDbEntity
  8
画層1
 62
     0
100
AcDbLine
 10
256.65
 20
182.31
 30
0.0
 11
257.47
 21
182.19
 31
0.0
  0
ARC
  5
1EC
330
2
100
AcDbEntity
  8
画層1
 62
     0
100
AcDbCircle
 10
257.3199999999999
 20
181.1999999999999
 30
0.0
 40
1.0
100
AcDbArc
 50
15.99
 51
81.47
  0
ARC
  5
1ED
330
2
100
AcDbEntity
  8
画層1
 62
     0
100
AcDbCircle
 10
256.57
 20
181.82
 30
0.0
 40
0.5
100
AcDbArc
 50
81.47
 51
180.0
  0
LINE
  5
1EE
330
2
100
AcDbEntity
  8
画層1
 62
     0
100
AcDbLine
 10
258.5599999999999
 20
179.9
 30
0.0
 11
257.5699999999999
 21
179.9
 31
0.0
  0
LINE
  5
1EF
330
2
100
AcDbEntity
  8
画層1
 62
     0
100
AcDbLine
 10
256.07
 20
180.0
 30
0.0
 11
256.0
 21
180.0
 31
0.0
  0
ARC
  5
1F0
330
2
100
AcDbEntity
  8
画層1
 62
     0
100
AcDbCircle
 10
251.0299999999999
 20
179.4
 30
0.0
 40
7.540000001812724
100
AcDbArc
 50
3.799999999999999
 51
15.99
  0
ARC
  5
1F1
330
2
100
AcDbEntity
  8
画層1
 62
     0
100
AcDbCircle
 10
244.66
 20
179.6499999999999
 30
0.0
 40
11.44118729799423
100
AcDbArc
 50
352.24
 51
355.74
  0
ARC
  5
1F2
330
2
100
AcDbEntity
  8
画層1
 62
     0
100
AcDbCircle
 10
244.66
 20
179.15
 30
0.0
 40
11.44118730072771
100
AcDbArc
 50
4.259999999999999
 51
7.759999999999998
  0
ARC
  5
1F3
330
2
100
AcDbEntity
  8
画層1
 62
     0
100
AcDbCircle
 10
244.66
 20
187.4499999999999
 30
0.0
 40
11.44118730072771
100
AcDbArc
 50
4.259999999999999
 51
19.13
  0
ARC
  5
1F4
330
2
100
AcDbEntity
  8
画層1
 62
     0
100
AcDbCircle
 10
244.5699999999999
 20
187.6999999999999
 30
0.0
 40
10.50674104301653
100
AcDbArc
 50
4.37
 51
19.46
  0
LINE
  5
1F5
330
2
100
AcDbEntity
  8
画層1
 62
     0
100
AcDbLine
 10
254.47
 20
191.1999999999999
 30
0.0
 11
254.47
 21
184.1999999999999
 31
0.0
  0
LINE
  5
1F6
330
2
100
AcDbEntity
  8
画層1
 62
     0
100
AcDbLine
 10
253.9699999999999
 20
184.1999999999999
 30
0.0
 11
253.9699999999999
 21
191.1999999999999
 31
0.0
  0
LINE
  5
1F7
330
2
100
AcDbEntity
  8
画層1
 62
     0
100
AcDbLine
 10
256.07
 20
190.12
 30
0.0
 11
256.07
 21
185.28
 31
0.0
  0
ARC
  5
1F8
330
2
100
AcDbEntity
  8
画層1
 62
     0
100
AcDbCircle
 10
251.0299999999999
 20
187.6999999999999
 30
0.0
 40
7.540000001812724
100
AcDbArc
 50
3.799999999999999
 51
15.99
  0
LINE
  5
1F9
330
2
100
AcDbEntity
  8
画層1
 62
     0
100
AcDbLine
 10
256.0
 20
191.3
 30
0.0
 11
256.0
 21
189.0
 31
0.0
  0
LINE
  5
1FA
330
2
100
AcDbEntity
  8
画層1
 62
     0
100
AcDbLine
 10
253.5
 20
191.3
 30
0.0
 11
253.5
 21
184.1
 31
0.0
  0
ARC
  5
1FB
330
2
100
AcDbEntity
  8
画層1
 62
     0
100
AcDbCircle
 10
244.5699999999999
 20
187.6999999999999
 30
0.0
 40
10.50674104301653
100
AcDbArc
 50
340.54
 51
355.63
  0
LINE
  5
1FC
330
2
100
AcDbEntity
  8
画層1
 62
     0
100
AcDbLine
 10
255.4699999999999
 20
184.1999999999999
 30
0.0
 11
253.5
 21
184.1999999999999
 31
0.0
  0
LINE
  5
1FD
330
2
100
AcDbEntity
  8
画層1
 62
     0
100
AcDbLine
 10
255.0399999999999
 20
188.4999999999999
 30
0.0
 11
254.47
 21
188.4999999999999
 31
0.0
  0
LINE
  5
1FE
330
2
100
AcDbEntity
  8
画層1
 62
     0
100
AcDbLine
 10
255.0399999999999
 20
186.8999999999999
 30
0.0
 11
254.47
 21
186.8999999999999
 31
0.0
  0
ARC
  5
1FF
330
2
100
AcDbEntity
  8
画層1
 62
     0
100
AcDbCircle
 10
253.6999999999999
 20
184.3
 30
0.0
 40
0.2
100
AcDbArc
 50
180.0
 51
270.0
  0
LINE
  5
200
330
2
100
AcDbEntity
  8
画層1
 62
     0
100
AcDbLine
 10
256.0
 20
186.4
 30
0.0
 11
256.0
 21
184.1
 31
0.0
  0
LINE
  5
201
330
2
100
AcDbEntity
  8
画層1
 62
     0
100
AcDbLine
 10
256.07
 20
188.3
 30
0.0
 11
255.6699999999999
 21
188.3
 31
0.0
  0
LINE
  5
202
330
2
100
AcDbEntity
  8
画層1
 62
     0
100
AcDbLine
 10
257.5699999999999
 20
188.1999999999999
 30
0.0
 11
257.5699999999999
 21
187.1999999999999
 31
0.0
  0
ARC
  5
203
330
2
100
AcDbEntity
  8
画層1
 62
     0
100
AcDbCircle
 10
251.0299999999999
 20
187.6999999999999
 30
0.0
 40
7.540000001812724
100
AcDbArc
 50
344.01
 51
356.1999999999999
  0
LINE
  5
204
330
2
100
AcDbEntity
  8
画層1
 62
     0
100
AcDbLine
 10
256.65
 20
184.7899999999999
 30
0.0
 11
257.47
 21
184.9099999999999
 31
0.0
  0
ARC
  5
205
330
2
100
AcDbEntity
  8
画層1
 62
     0
100
AcDbCircle
 10
257.3199999999999
 20
185.8999999999999
 30
0.0
 40
1.0
100
AcDbArc
 50
278.5299999999999
 51
344.01
  0
LINE
  5
206
330
2
100
AcDbEntity
  8
画層1
 62
     0
100
AcDbLine
 10
257.5699999999999
 20
187.1999999999999
 30
0.0
 11
258.5599999999999
 21
187.1999999999999
 31
0.0
  0
LINE
  5
207
330
2
100
AcDbEntity
  8
画層1
 62
     0
100
AcDbLine
 10
255.6699999999999
 20
187.1
 30
0.0
 11
256.07
 21
187.1
 31
0.0
  0
ARC
  5
208
330
2
100
AcDbEntity
  8
画層1
 62
     0
100
AcDbCircle
 10
244.66
 20
187.9499999999999
 30
0.0
 40
11.44118729799423
100
AcDbArc
 50
340.87
 51
355.74
  0
ARC
  5
209
330
2
100
AcDbEntity
  8
画層1
 62
     0
100
AcDbCircle
 10
256.57
 20
185.28
 30
0.0
 40
0.5
100
AcDbArc
 50
180.0
 51
278.5299999999999
  0
LINE
  5
20A
330
2
100
AcDbEntity
  8
画層1
 62
     0
100
AcDbLine
 10
258.5599999999999
 20
188.1999999999999
 30
0.0
 11
257.5699999999999
 21
188.1999999999999
 31
0.0
  0
LINE
  5
20B
330
2
100
AcDbEntity
  8
画層1
 62
     0
100
AcDbLine
 10
255.6699999999999
 20
188.3
 30
0.0
 11
255.6699999999999
 21
187.1
 31
0.0
  0
LINE
  5
20C
330
2
100
AcDbEntity
  8
画層1
 62
     0
100
AcDbLine
 10
253.5
 20
191.1999999999999
 30
0.0
 11
255.4699999999999
 21
191.1999999999999
 31
0.0
  0
LINE
  5
20D
330
2
100
AcDbEntity
  8
画層1
 62
     0
100
AcDbLine
 10
255.4699999999999
 20
192.5
 30
0.0
 11
253.5
 21
192.5
 31
0.0
  0
ARC
  5
20E
330
2
100
AcDbEntity
  8
画層1
 62
     0
100
AcDbCircle
 10
253.6999999999999
 20
192.5999999999999
 30
0.0
 40
0.2
100
AcDbArc
 50
180.0
 51
270.0
  0
ARC
  5
20F
330
2
100
AcDbEntity
  8
画層1
 62
     0
100
AcDbCircle
 10
253.6999999999999
 20
191.0999999999999
 30
0.0
 40
0.2
100
AcDbArc
 50
90.0
 51
180.0
  0
LINE
  5
210
330
2
100
AcDbEntity
  8
画層1
 62
     0
100
AcDbLine
 10
256.0
 20
194.6999999999999
 30
0.0
 11
256.0
 21
192.4
 31
0.0
  0
LINE
  5
211
330
2
100
AcDbEntity
  8
画層1
 62
     0
100
AcDbLine
 10
256.65
 20
190.61
 30
0.0
 11
257.47
 21
190.4899999999999
 31
0.0
  0
ARC
  5
212
330
2
100
AcDbEntity
  8
画層1
 62
     0
100
AcDbCircle
 10
257.3199999999999
 20
189.4999999999999
 30
0.0
 40
1.0
100
AcDbArc
 50
15.99
 51
81.47
  0
ARC
  5
213
330
2
100
AcDbEntity
  8
画層1
 62
     0
100
AcDbCircle
 10
256.57
 20
190.12
 30
0.0
 40
0.5
100
AcDbArc
 50
81.47
 51
180.0
  0
LINE
  5
214
330
2
100
AcDbEntity
  8
画層1
 62
     0
100
AcDbLine
 10
256.65
 20
193.09
 30
0.0
 11
257.47
 21
193.21
 31
0.0
  0
ARC
  5
215
330
2
100
AcDbEntity
  8
画層1
 62
     0
100
AcDbCircle
 10
257.3199999999999
 20
194.1999999999999
 30
0.0
 40
1.0
100
AcDbArc
 50
278.5299999999999
 51
344.01
  0
ARC
  5
216
330
2
100
AcDbEntity
  8
画層1
 62
     0
100
AcDbCircle
 10
256.57
 20
193.58
 30
0.0
 40
0.5
100
AcDbArc
 50
180.0
 51
278.5299999999999
  0
LINE
  5
217
330
2
100
AcDbEntity
  8
画層1
 62
     0
100
AcDbLine
 10
262.0
 20
183.8
 30
0.0
 11
262.0
 21
183.3
 31
0.0
  0
LINE
  5
218
330
2
100
AcDbEntity
  8
画層1
 62
     0
100
AcDbLine
 10
262.0
 20
175.5
 30
0.0
 11
262.0
 21
175.0
 31
0.0
  0
ARC
  5
219
330
2
100
AcDbEntity
  8
画層1
 62
     0
100
AcDbCircle
 10
261.6999999999999
 20
175.0
 30
0.0
 40
0.3
100
AcDbArc
 50
270.0
 51
0.0
  0
ARC
  5
21A
330
2
100
AcDbEntity
  8
画層1
 62
     0
100
AcDbCircle
 10
261.6999999999999
 20
175.5
 30
0.0
 40
0.3
100
AcDbArc
 50
0.0
 51
90.0
  0
ARC
  5
21B
330
2
100
AcDbEntity
  8
画層1
 62
     0
100
AcDbCircle
 10
261.6999999999999
 20
183.3
 30
0.0
 40
0.3
100
AcDbArc
 50
270.0
 51
0.0
  0
ARC
  5
21C
330
2
100
AcDbEntity
  8
画層1
 62
     0
100
AcDbCircle
 10
261.6999999999999
 20
183.8
 30
0.0
 40
0.3
100
AcDbArc
 50
0.0
 51
90.0
  0
LINE
  5
21D
330
2
100
AcDbEntity
  8
画層1
 62
     0
100
AcDbLine
 10
262.0
 20
192.1
 30
0.0
 11
262.0
 21
191.6
 31
0.0
  0
ARC
  5
21E
330
2
100
AcDbEntity
  8
画層1
 62
     0
100
AcDbCircle
 10
261.6999999999999
 20
192.1
 30
0.0
 40
0.3
100
AcDbArc
 50
0.0
 51
90.0
  0
ARC
  5
21F
330
2
100
AcDbEntity
  8
画層1
 62
     0
100
AcDbCircle
 10
261.6999999999999
 20
191.6
 30
0.0
 40
0.3
100
AcDbArc
 50
270.0
 51
0.0
  0
LWPOLYLINE
  5
220
330
2
100
AcDbEntity
  8
画層1
 62
     0
100
AcDbPolyline
 90
        4
 70
     1
 43
0.0
 10
215.5
 20
217.0
 10
237.5
 20
217.0
 10
237.5
 20
215.5
 10
215.5
 20
215.5
  0
LWPOLYLINE
  5
221
330
2
100
AcDbEntity
  8
画層1
 62
     0
100
AcDbPolyline
 90
        4
 70
     1
 43
0.0
 10
215.5
 20
220.0
 10
237.5
 20
220.0
 10
237.5
 20
218.5
 10
215.5
 20
218.5
  0
LWPOLYLINE
  5
222
330
2
100
AcDbEntity
  8
画層1
 62
     0
100
AcDbPolyline
 90
        4
 70
     1
 43
0.0
 10
215.5
 20
223.0
 10
237.5
 20
223.0
 10
237.5
 20
221.4999999999999
 10
215.5
 20
221.4999999999999
  0
LINE
  5
223
330
2
100
AcDbEntity
  8
画層1
 62
     0
100
AcDbLine
 10
256.0
 20
219.6
 30
0.0
 11
256.0
 21
217.3
 31
0.0
  0
ARC
  5
224
330
2
100
AcDbEntity
  8
画層1
 62
     0
100
AcDbCircle
 10
257.3199999999999
 20
219.0999999999999
 30
0.0
 40
1.0
100
AcDbArc
 50
278.5299999999999
 51
344.01
  0
ARC
  5
225
330
2
100
AcDbEntity
  8
画層1
 62
     0
100
AcDbCircle
 10
244.66
 20
221.15
 30
0.0
 40
11.44118729799423
100
AcDbArc
 50
340.87
 51
355.74
  0
ARC
  5
226
330
2
100
AcDbEntity
  8
画層1
 62
     0
100
AcDbCircle
 10
256.57
 20
218.48
 30
0.0
 40
0.5
100
AcDbArc
 50
180.0
 51
278.5299999999999
  0
ARC
  5
227
330
2
100
AcDbEntity
  8
画層1
 62
     0
100
AcDbCircle
 10
244.5699999999999
 20
220.9
 30
0.0
 40
10.50674104301653
100
AcDbArc
 50
340.54
 51
355.63
  0
LINE
  5
228
330
2
100
AcDbEntity
  8
画層1
 62
     0
100
AcDbLine
 10
254.47
 20
224.4
 30
0.0
 11
254.47
 21
217.3999999999999
 31
0.0
  0
LINE
  5
229
330
2
100
AcDbEntity
  8
画層1
 62
     0
100
AcDbLine
 10
253.9699999999999
 20
217.3999999999999
 30
0.0
 11
253.9699999999999
 21
224.4
 31
0.0
  0
LINE
  5
22A
330
2
100
AcDbEntity
  8
画層1
 62
     0
100
AcDbLine
 10
253.5
 20
224.5
 30
0.0
 11
253.5
 21
217.3
 31
0.0
  0
LINE
  5
22B
330
2
100
AcDbEntity
  8
画層1
 62
     0
100
AcDbLine
 10
253.5
 20
217.3
 30
0.0
 11
261.6999999999999
 21
217.3
 31
0.0
  0
LINE
  5
22C
330
2
100
AcDbEntity
  8
画層1
 62
     0
100
AcDbLine
 10
253.5
 20
216.1999999999999
 30
0.0
 11
261.6999999999999
 21
216.1999999999999
 31
0.0
  0
LINE
  5
22D
330
2
100
AcDbEntity
  8
画層1
 62
     0
100
AcDbLine
 10
261.6999999999999
 20
207.9
 30
0.0
 11
253.5
 21
207.9
 31
0.0
  0
LINE
  5
22E
330
2
100
AcDbEntity
  8
画層1
 62
     0
100
AcDbLine
 10
253.5
 20
209.0
 30
0.0
 11
261.6999999999999
 21
209.0
 31
0.0
  0
LINE
  5
22F
330
2
100
AcDbEntity
  8
画層1
 62
     0
100
AcDbLine
 10
253.5
 20
200.7
 30
0.0
 11
261.6999999999999
 21
200.7
 31
0.0
  0
LINE
  5
230
330
2
100
AcDbEntity
  8
画層1
 62
     0
100
AcDbLine
 10
253.5
 20
199.6
 30
0.0
 11
261.6999999999999
 21
199.6
 31
0.0
  0
ARC
  5
231
330
2
100
AcDbEntity
  8
画層1
 62
     0
100
AcDbCircle
 10
257.3199999999999
 20
206.0999999999999
 30
0.0
 40
1.0
100
AcDbArc
 50
15.99
 51
81.47
  0
ARC
  5
232
330
2
100
AcDbEntity
  8
画層1
 62
     0
100
AcDbCircle
 10
244.5699999999999
 20
204.3
 30
0.0
 40
10.50674104301653
100
AcDbArc
 50
4.37
 51
19.46
  0
LINE
  5
233
330
2
100
AcDbEntity
  8
画層1
 62
     0
100
AcDbLine
 10
254.47
 20
207.8
 30
0.0
 11
254.47
 21
200.8
 31
0.0
  0
LINE
  5
234
330
2
100
AcDbEntity
  8
画層1
 62
     0
100
AcDbLine
 10
253.9699999999999
 20
200.8
 30
0.0
 11
253.9699999999999
 21
207.8
 31
0.0
  0
LINE
  5
235
330
2
100
AcDbEntity
  8
画層1
 62
     0
100
AcDbLine
 10
256.07
 20
206.72
 30
0.0
 11
256.07
 21
201.88
 31
0.0
  0
ARC
  5
236
330
2
100
AcDbEntity
  8
画層1
 62
     0
100
AcDbCircle
 10
244.66
 20
204.05
 30
0.0
 40
11.44118730072771
100
AcDbArc
 50
4.259999999999999
 51
19.13
  0
LINE
  5
237
330
2
100
AcDbEntity
  8
画層1
 62
     0
100
AcDbLine
 10
256.0
 20
207.9
 30
0.0
 11
256.0
 21
205.6
 31
0.0
  0
LINE
  5
238
330
2
100
AcDbEntity
  8
画層1
 62
     0
100
AcDbLine
 10
253.5
 20
207.9
 30
0.0
 11
253.5
 21
200.7
 31
0.0
  0
LINE
  5
239
330
2
100
AcDbEntity
  8
画層1
 62
     0
100
AcDbLine
 10
256.0
 20
203.0
 30
0.0
 11
256.0
 21
200.7
 31
0.0
  0
ARC
  5
23A
330
2
100
AcDbEntity
  8
画層1
 62
     0
100
AcDbCircle
 10
253.6999999999999
 20
200.8999999999999
 30
0.0
 40
0.2
100
AcDbArc
 50
180.0
 51
270.0
  0
LINE
  5
23B
330
2
100
AcDbEntity
  8
画層1
 62
     0
100
AcDbLine
 10
253.5
 20
199.5
 30
0.0
 11
255.4699999999999
 21
199.5
 31
0.0
  0
ARC
  5
23C
330
2
100
AcDbEntity
  8
画層1
 62
     0
100
AcDbCircle
 10
244.5699999999999
 20
196.0
 30
0.0
 40
10.50674104301653
100
AcDbArc
 50
4.37
 51
19.46
  0
LINE
  5
23D
330
2
100
AcDbEntity
  8
画層1
 62
     0
100
AcDbLine
 10
255.0399999999999
 20
195.1999999999999
 30
0.0
 11
254.47
 21
195.1999999999999
 31
0.0
  0
LINE
  5
23E
330
2
100
AcDbEntity
  8
画層1
 62
     0
100
AcDbLine
 10
255.0399999999999
 20
196.8
 30
0.0
 11
254.47
 21
196.8
 31
0.0
  0
ARC
  5
23F
330
2
100
AcDbEntity
  8
画層1
 62
     0
100
AcDbCircle
 10
253.6999999999999
 20
199.3999999999999
 30
0.0
 40
0.2
100
AcDbArc
 50
90.0
 51
180.0
  0
LINE
  5
240
330
2
100
AcDbEntity
  8
画層1
 62
     0
100
AcDbLine
 10
257.5699999999999
 20
196.5
 30
0.0
 11
257.5699999999999
 21
195.5
 31
0.0
  0
LINE
  5
241
330
2
100
AcDbEntity
  8
画層1
 62
     0
100
AcDbLine
 10
255.6699999999999
 20
196.6
 30
0.0
 11
255.6699999999999
 21
195.4
 31
0.0
  0
LINE
  5
242
330
2
100
AcDbEntity
  8
画層1
 62
     0
100
AcDbLine
 10
257.5699999999999
 20
195.5
 30
0.0
 11
258.5599999999999
 21
195.5
 31
0.0
  0
LINE
  5
243
330
2
100
AcDbEntity
  8
画層1
 62
     0
100
AcDbLine
 10
255.6699999999999
 20
195.4
 30
0.0
 11
256.07
 21
195.4
 31
0.0
  0
LINE
  5
244
330
2
100
AcDbEntity
  8
画層1
 62
     0
100
AcDbLine
 10
256.65
 20
198.91
 30
0.0
 11
257.47
 21
198.7899999999999
 31
0.0
  0
ARC
  5
245
330
2
100
AcDbEntity
  8
画層1
 62
     0
100
AcDbCircle
 10
257.3199999999999
 20
197.8
 30
0.0
 40
1.0
100
AcDbArc
 50
15.99
 51
81.47
  0
ARC
  5
246
330
2
100
AcDbEntity
  8
画層1
 62
     0
100
AcDbCircle
 10
256.57
 20
198.4199999999999
 30
0.0
 40
0.5
100
AcDbArc
 50
81.47
 51
180.0
  0
LINE
  5
247
330
2
100
AcDbEntity
  8
画層1
 62
     0
100
AcDbLine
 10
258.5599999999999
 20
196.5
 30
0.0
 11
257.5699999999999
 21
196.5
 31
0.0
  0
LINE
  5
248
330
2
100
AcDbEntity
  8
画層1
 62
     0
100
AcDbLine
 10
256.07
 20
196.6
 30
0.0
 11
255.6699999999999
 21
196.6
 31
0.0
  0
ARC
  5
249
330
2
100
AcDbEntity
  8
画層1
 62
     0
100
AcDbCircle
 10
244.66
 20
195.7499999999999
 30
0.0
 40
11.44118730072771
100
AcDbArc
 50
4.259999999999999
 51
19.13
  0
ARC
  5
24A
330
2
100
AcDbEntity
  8
画層1
 62
     0
100
AcDbCircle
 10
251.0299999999999
 20
196.0
 30
0.0
 40
7.540000001812724
100
AcDbArc
 50
3.799999999999999
 51
15.99
  0
LINE
  5
24B
330
2
100
AcDbEntity
  8
画層1
 62
     0
100
AcDbLine
 10
256.0
 20
199.6
 30
0.0
 11
256.0
 21
197.3
 31
0.0
  0
ARC
  5
24C
330
2
100
AcDbEntity
  8
画層1
 62
     0
100
AcDbCircle
 10
244.5699999999999
 20
204.3
 30
0.0
 40
10.50674104301653
100
AcDbArc
 50
340.54
 51
355.63
  0
LINE
  5
24D
330
2
100
AcDbEntity
  8
画層1
 62
     0
100
AcDbLine
 10
255.4699999999999
 20
200.8
 30
0.0
 11
253.5
 21
200.8
 31
0.0
  0
LINE
  5
24E
330
2
100
AcDbEntity
  8
画層1
 62
     0
100
AcDbLine
 10
255.0399999999999
 20
203.5
 30
0.0
 11
254.47
 21
203.5
 31
0.0
  0
LINE
  5
24F
330
2
100
AcDbEntity
  8
画層1
 62
     0
100
AcDbLine
 10
255.0399999999999
 20
205.1
 30
0.0
 11
254.47
 21
205.1
 31
0.0
  0
LINE
  5
250
330
2
100
AcDbEntity
  8
画層1
 62
     0
100
AcDbLine
 10
257.5699999999999
 20
204.8
 30
0.0
 11
257.5699999999999
 21
203.8
 31
0.0
  0
LINE
  5
251
330
2
100
AcDbEntity
  8
画層1
 62
     0
100
AcDbLine
 10
255.6699999999999
 20
204.8999999999999
 30
0.0
 11
255.6699999999999
 21
203.6999999999999
 31
0.0
  0
ARC
  5
252
330
2
100
AcDbEntity
  8
画層1
 62
     0
100
AcDbCircle
 10
251.0299999999999
 20
204.3
 30
0.0
 40
7.540000001812724
100
AcDbArc
 50
344.01
 51
356.1999999999999
  0
LINE
  5
253
330
2
100
AcDbEntity
  8
画層1
 62
     0
100
AcDbLine
 10
256.65
 20
201.39
 30
0.0
 11
257.47
 21
201.5099999999999
 31
0.0
  0
ARC
  5
254
330
2
100
AcDbEntity
  8
画層1
 62
     0
100
AcDbCircle
 10
257.3199999999999
 20
202.4999999999999
 30
0.0
 40
1.0
100
AcDbArc
 50
278.5299999999999
 51
344.01
  0
LINE
  5
255
330
2
100
AcDbEntity
  8
画層1
 62
     0
100
AcDbLine
 10
257.5699999999999
 20
203.8
 30
0.0
 11
258.5599999999999
 21
203.8
 31
0.0
  0
LINE
  5
256
330
2
100
AcDbEntity
  8
画層1
 62
     0
100
AcDbLine
 10
255.6699999999999
 20
203.6999999999999
 30
0.0
 11
256.07
 21
203.6999999999999
 31
0.0
  0
ARC
  5
257
330
2
100
AcDbEntity
  8
画層1
 62
     0
100
AcDbCircle
 10
244.66
 20
204.55
 30
0.0
 40
11.44118729799423
100
AcDbArc
 50
340.87
 51
355.74
  0
ARC
  5
258
330
2
100
AcDbEntity
  8
画層1
 62
     0
100
AcDbCircle
 10
256.57
 20
201.88
 30
0.0
 40
0.5
100
AcDbArc
 50
180.0
 51
278.5299999999999
  0
LINE
  5
259
330
2
100
AcDbEntity
  8
画層1
 62
     0
100
AcDbLine
 10
258.5599999999999
 20
204.8
 30
0.0
 11
257.5699999999999
 21
204.8
 31
0.0
  0
LINE
  5
25A
330
2
100
AcDbEntity
  8
画層1
 62
     0
100
AcDbLine
 10
256.07
 20
204.8999999999999
 30
0.0
 11
255.6699999999999
 21
204.8999999999999
 31
0.0
  0
ARC
  5
25B
330
2
100
AcDbEntity
  8
画層1
 62
     0
100
AcDbCircle
 10
251.0299999999999
 20
204.3
 30
0.0
 40
7.540000001812724
100
AcDbArc
 50
3.799999999999999
 51
15.99
  0
ARC
  5
25C
330
2
100
AcDbEntity
  8
画層1
 62
     0
100
AcDbCircle
 10
250.4999999999999
 20
214.5
 30
0.0
 40
1.0
100
AcDbArc
 50
0.0
 51
90.0
  0
LINE
  5
25D
330
2
100
AcDbEntity
  8
画層1
 62
     0
100
AcDbLine
 10
257.5699999999999
 20
213.0999999999999
 30
0.0
 11
257.5699999999999
 21
212.0999999999999
 31
0.0
  0
LINE
  5
25E
330
2
100
AcDbEntity
  8
画層1
 62
     0
100
AcDbLine
 10
255.6699999999999
 20
213.2
 30
0.0
 11
255.6699999999999
 21
212.0
 31
0.0
  0
LINE
  5
25F
330
2
100
AcDbEntity
  8
画層1
 62
     0
100
AcDbLine
 10
254.47
 20
216.1
 30
0.0
 11
254.47
 21
209.1
 31
0.0
  0
LINE
  5
260
330
2
100
AcDbEntity
  8
画層1
 62
     0
100
AcDbLine
 10
253.9699999999999
 20
209.1
 30
0.0
 11
253.9699999999999
 21
216.1
 31
0.0
  0
LINE
  5
261
330
2
100
AcDbEntity
  8
画層1
 62
     0
100
AcDbLine
 10
256.07
 20
215.02
 30
0.0
 11
256.07
 21
210.1799999999999
 31
0.0
  0
LINE
  5
262
330
2
100
AcDbEntity
  8
画層1
 62
     0
100
AcDbLine
 10
253.5
 20
216.1999999999999
 30
0.0
 11
253.5
 21
209.0
 31
0.0
  0
LINE
  5
263
330
2
100
AcDbEntity
  8
画層1
 62
     0
100
AcDbLine
 10
253.5
 20
207.8
 30
0.0
 11
255.4699999999999
 21
207.8
 31
0.0
  0
LINE
  5
264
330
2
100
AcDbEntity
  8
画層1
 62
     0
100
AcDbLine
 10
255.4699999999999
 20
209.1
 30
0.0
 11
253.5
 21
209.1
 31
0.0
  0
ARC
  5
265
330
2
100
AcDbEntity
  8
画層1
 62
     0
100
AcDbCircle
 10
244.5699999999999
 20
212.5999999999999
 30
0.0
 40
10.50674104301653
100
AcDbArc
 50
340.54
 51
355.63
  0
LINE
  5
266
330
2
100
AcDbEntity
  8
画層1
 62
     0
100
AcDbLine
 10
255.0399999999999
 20
211.8
 30
0.0
 11
254.47
 21
211.8
 31
0.0
  0
ARC
  5
267
330
2
100
AcDbEntity
  8
画層1
 62
     0
100
AcDbCircle
 10
253.6999999999999
 20
209.2
 30
0.0
 40
0.2
100
AcDbArc
 50
180.0
 51
270.0
  0
ARC
  5
268
330
2
100
AcDbEntity
  8
画層1
 62
     0
100
AcDbCircle
 10
253.6999999999999
 20
207.6999999999999
 30
0.0
 40
0.2
100
AcDbArc
 50
90.0
 51
180.0
  0
LINE
  5
269
330
2
100
AcDbEntity
  8
画層1
 62
     0
100
AcDbLine
 10
256.0
 20
211.2999999999999
 30
0.0
 11
256.0
 21
209.0
 31
0.0
  0
LINE
  5
26A
330
2
100
AcDbEntity
  8
画層1
 62
     0
100
AcDbLine
 10
257.5699999999999
 20
212.0999999999999
 30
0.0
 11
258.5599999999999
 21
212.0999999999999
 31
0.0
  0
LINE
  5
26B
330
2
100
AcDbEntity
  8
画層1
 62
     0
100
AcDbLine
 10
255.6699999999999
 20
212.0
 30
0.0
 11
256.07
 21
212.0
 31
0.0
  0
LINE
  5
26C
330
2
100
AcDbEntity
  8
画層1
 62
     0
100
AcDbLine
 10
256.65
 20
207.21
 30
0.0
 11
257.47
 21
207.0899999999999
 31
0.0
  0
ARC
  5
26D
330
2
100
AcDbEntity
  8
画層1
 62
     0
100
AcDbCircle
 10
256.57
 20
206.72
 30
0.0
 40
0.5
100
AcDbArc
 50
81.47
 51
180.0
  0
LINE
  5
26E
330
2
100
AcDbEntity
  8
画層1
 62
     0
100
AcDbLine
 10
256.65
 20
209.69
 30
0.0
 11
257.47
 21
209.81
 31
0.0
  0
ARC
  5
26F
330
2
100
AcDbEntity
  8
画層1
 62
     0
100
AcDbCircle
 10
257.3199999999999
 20
210.8
 30
0.0
 40
1.0
100
AcDbArc
 50
278.5299999999999
 51
344.01
  0
ARC
  5
270
330
2
100
AcDbEntity
  8
画層1
 62
     0
100
AcDbCircle
 10
256.57
 20
210.1799999999999
 30
0.0
 40
0.5
100
AcDbArc
 50
180.0
 51
278.5299999999999
  0
ARC
  5
271
330
2
100
AcDbEntity
  8
画層1
 62
     0
100
AcDbCircle
 10
251.0299999999999
 20
212.5999999999999
 30
0.0
 40
7.540000001812724
100
AcDbArc
 50
344.01
 51
356.1999999999999
  0
ARC
  5
272
330
2
100
AcDbEntity
  8
画層1
 62
     0
100
AcDbCircle
 10
244.66
 20
212.8499999999999
 30
0.0
 40
11.44118729799423
100
AcDbArc
 50
340.87
 51
355.74
  0
LINE
  5
273
330
2
100
AcDbEntity
  8
画層1
 62
     0
100
AcDbLine
 10
255.4699999999999
 20
217.3999999999999
 30
0.0
 11
253.5
 21
217.3999999999999
 31
0.0
  0
LINE
  5
274
330
2
100
AcDbEntity
  8
画層1
 62
     0
100
AcDbLine
 10
253.5
 20
216.1
 30
0.0
 11
255.4699999999999
 21
216.1
 31
0.0
  0
ARC
  5
275
330
2
100
AcDbEntity
  8
画層1
 62
     0
100
AcDbCircle
 10
244.5699999999999
 20
212.5999999999999
 30
0.0
 40
10.50674104301653
100
AcDbArc
 50
4.37
 51
19.46
  0
LINE
  5
276
330
2
100
AcDbEntity
  8
画層1
 62
     0
100
AcDbLine
 10
255.0399999999999
 20
213.3999999999999
 30
0.0
 11
254.47
 21
213.3999999999999
 31
0.0
  0
ARC
  5
277
330
2
100
AcDbEntity
  8
画層1
 62
     0
100
AcDbCircle
 10
253.6999999999999
 20
217.5
 30
0.0
 40
0.2
100
AcDbArc
 50
180.0
 51
270.0
  0
ARC
  5
278
330
2
100
AcDbEntity
  8
画層1
 62
     0
100
AcDbCircle
 10
253.6999999999999
 20
216.0
 30
0.0
 40
0.2
100
AcDbArc
 50
90.0
 51
180.0
  0
LINE
  5
279
330
2
100
AcDbEntity
  8
画層1
 62
     0
100
AcDbLine
 10
256.65
 20
217.9899999999999
 30
0.0
 11
257.47
 21
218.11
 31
0.0
  0
LINE
  5
27A
330
2
100
AcDbEntity
  8
画層1
 62
     0
100
AcDbLine
 10
256.65
 20
215.51
 30
0.0
 11
257.47
 21
215.3899999999999
 31
0.0
  0
ARC
  5
27B
330
2
100
AcDbEntity
  8
画層1
 62
     0
100
AcDbCircle
 10
257.3199999999999
 20
214.4
 30
0.0
 40
1.0
100
AcDbArc
 50
15.99
 51
81.47
  0
ARC
  5
27C
330
2
100
AcDbEntity
  8
画層1
 62
     0
100
AcDbCircle
 10
256.57
 20
215.02
 30
0.0
 40
0.5
100
AcDbArc
 50
81.47
 51
180.0
  0
LINE
  5
27D
330
2
100
AcDbEntity
  8
画層1
 62
     0
100
AcDbLine
 10
258.5599999999999
 20
213.0999999999999
 30
0.0
 11
257.5699999999999
 21
213.0999999999999
 31
0.0
  0
LINE
  5
27E
330
2
100
AcDbEntity
  8
画層1
 62
     0
100
AcDbLine
 10
256.07
 20
213.2
 30
0.0
 11
255.6699999999999
 21
213.2
 31
0.0
  0
ARC
  5
27F
330
2
100
AcDbEntity
  8
画層1
 62
     0
100
AcDbCircle
 10
244.66
 20
212.3499999999999
 30
0.0
 40
11.44118730072771
100
AcDbArc
 50
4.259999999999999
 51
19.13
  0
ARC
  5
280
330
2
100
AcDbEntity
  8
画層1
 62
     0
100
AcDbCircle
 10
251.0299999999999
 20
212.5999999999999
 30
0.0
 40
7.540000001812724
100
AcDbArc
 50
3.799999999999999
 51
15.99
  0
LINE
  5
281
330
2
100
AcDbEntity
  8
画層1
 62
     0
100
AcDbLine
 10
256.0
 20
216.1999999999999
 30
0.0
 11
256.0
 21
213.9
 31
0.0
  0
ARC
  5
282
330
2
100
AcDbEntity
  8
画層1
 62
     0
100
AcDbCircle
 10
261.6999999999999
 20
200.4
 30
0.0
 40
0.3
100
AcDbArc
 50
0.0
 51
90.0
  0
LINE
  5
283
330
2
100
AcDbEntity
  8
画層1
 62
     0
100
AcDbLine
 10
262.0
 20
200.4
 30
0.0
 11
262.0
 21
199.9
 31
0.0
  0
ARC
  5
284
330
2
100
AcDbEntity
  8
画層1
 62
     0
100
AcDbCircle
 10
261.6999999999999
 20
199.9
 30
0.0
 40
0.3
100
AcDbArc
 50
270.0
 51
0.0
  0
LINE
  5
285
330
2
100
AcDbEntity
  8
画層1
 62
     0
100
AcDbLine
 10
262.0
 20
208.6999999999999
 30
0.0
 11
262.0
 21
208.1999999999999
 31
0.0
  0
ARC
  5
286
330
2
100
AcDbEntity
  8
画層1
 62
     0
100
AcDbCircle
 10
261.6999999999999
 20
208.6999999999999
 30
0.0
 40
0.3
100
AcDbArc
 50
0.0
 51
90.0
  0
ARC
  5
287
330
2
100
AcDbEntity
  8
画層1
 62
     0
100
AcDbCircle
 10
261.6999999999999
 20
208.1999999999999
 30
0.0
 40
0.3
100
AcDbArc
 50
270.0
 51
0.0
  0
LINE
  5
288
330
2
100
AcDbEntity
  8
画層1
 62
     0
100
AcDbLine
 10
262.0
 20
217.0
 30
0.0
 11
262.0
 21
216.5
 31
0.0
  0
ARC
  5
289
330
2
100
AcDbEntity
  8
画層1
 62
     0
100
AcDbCircle
 10
261.6999999999999
 20
217.0
 30
0.0
 40
0.3
100
AcDbArc
 50
0.0
 51
90.0
  0
ARC
  5
28A
330
2
100
AcDbEntity
  8
画層1
 62
     0
100
AcDbCircle
 10
261.6999999999999
 20
216.5
 30
0.0
 40
0.3
100
AcDbArc
 50
270.0
 51
0.0
  0
LINE
  5
28B
330
2
100
AcDbEntity
  8
画層1
 62
     0
100
AcDbLine
 10
257.6
 20
227.4999999999999
 30
0.0
 11
261.2999999999999
 21
227.4999999999999
 31
0.0
  0
LINE
  5
28C
330
2
100
AcDbEntity
  8
画層1
 62
     0
100
AcDbLine
 10
261.6999999999999
 20
224.5
 30
0.0
 11
253.5
 21
224.5
 31
0.0
  0
LINE
  5
28D
330
2
100
AcDbEntity
  8
画層1
 62
     0
100
AcDbLine
 10
253.5
 20
229.8
 30
0.0
 11
253.5
 21
226.3
 31
0.0
  0
ARC
  5
28E
330
2
100
AcDbEntity
  8
画層1
 62
     0
100
AcDbCircle
 10
251.0
 20
224.0
 30
0.0
 40
1.0
100
AcDbArc
 50
0.0
 51
90.0
  0
ARC
  5
28F
330
2
100
AcDbEntity
  8
画層1
 62
     0
100
AcDbCircle
 10
256.57
 20
223.32
 30
0.0
 40
0.5
100
AcDbArc
 50
81.47
 51
180.0
  0
ARC
  5
290
330
2
100
AcDbEntity
  8
画層1
 62
     0
100
AcDbCircle
 10
244.5699999999999
 20
220.9
 30
0.0
 40
10.50674104301653
100
AcDbArc
 50
4.37
 51
19.46
  0
ARC
  5
291
330
2
100
AcDbEntity
  8
画層1
 62
     0
100
AcDbCircle
 10
244.66
 20
220.65
 30
0.0
 40
11.44118730072771
100
AcDbArc
 50
4.259999999999999
 51
19.13
  0
LINE
  5
292
330
2
100
AcDbEntity
  8
画層1
 62
     0
100
AcDbLine
 10
256.0
 20
224.5
 30
0.0
 11
256.0
 21
222.1999999999999
 31
0.0
  0
LINE
  5
293
330
2
100
AcDbEntity
  8
画層1
 62
     0
100
AcDbLine
 10
255.0399999999999
 20
220.1
 30
0.0
 11
254.47
 21
220.1
 31
0.0
  0
LINE
  5
294
330
2
100
AcDbEntity
  8
画層1
 62
     0
100
AcDbLine
 10
255.0399999999999
 20
221.7
 30
0.0
 11
254.47
 21
221.7
 31
0.0
  0
LINE
  5
295
330
2
100
AcDbEntity
  8
画層1
 62
     0
100
AcDbLine
 10
256.65
 20
223.81
 30
0.0
 11
257.47
 21
223.6899999999999
 31
0.0
  0
LINE
  5
296
330
2
100
AcDbEntity
  8
画層1
 62
     0
100
AcDbLine
 10
257.5699999999999
 20
221.3999999999999
 30
0.0
 11
257.5699999999999
 21
220.4
 31
0.0
  0
LINE
  5
297
330
2
100
AcDbEntity
  8
画層1
 62
     0
100
AcDbLine
 10
255.6699999999999
 20
221.4999999999999
 30
0.0
 11
255.6699999999999
 21
220.3
 31
0.0
  0
ARC
  5
298
330
2
100
AcDbEntity
  8
画層1
 62
     0
100
AcDbCircle
 10
251.0299999999999
 20
220.9
 30
0.0
 40
7.540000001812724
100
AcDbArc
 50
344.01
 51
356.1999999999999
  0
LINE
  5
299
330
2
100
AcDbEntity
  8
画層1
 62
     0
100
AcDbLine
 10
257.5699999999999
 20
220.4
 30
0.0
 11
258.5599999999999
 21
220.4
 31
0.0
  0
LINE
  5
29A
330
2
100
AcDbEntity
  8
画層1
 62
     0
100
AcDbLine
 10
255.6699999999999
 20
220.3
 30
0.0
 11
256.07
 21
220.3
 31
0.0
  0
LINE
  5
29B
330
2
100
AcDbEntity
  8
画層1
 62
     0
100
AcDbLine
 10
258.5599999999999
 20
221.3999999999999
 30
0.0
 11
257.5699999999999
 21
221.3999999999999
 31
0.0
  0
LINE
  5
29C
330
2
100
AcDbEntity
  8
画層1
 62
     0
100
AcDbLine
 10
256.07
 20
221.4999999999999
 30
0.0
 11
255.6699999999999
 21
221.4999999999999
 31
0.0
  0
ARC
  5
29D
330
2
100
AcDbEntity
  8
画層1
 62
     0
100
AcDbCircle
 10
251.0299999999999
 20
220.9
 30
0.0
 40
7.540000001812724
100
AcDbArc
 50
3.799999999999999
 51
15.99
  0
LINE
  5
29E
330
2
100
AcDbEntity
  8
画層1
 62
     0
100
AcDbLine
 10
256.07
 20
223.32
 30
0.0
 11
256.07
 21
218.48
 31
0.0
  0
ARC
  5
29F
330
2
100
AcDbEntity
  8
画層1
 62
     0
100
AcDbCircle
 10
257.3199999999999
 20
222.6999999999999
 30
0.0
 40
1.0
100
AcDbArc
 50
15.99
 51
81.47
  0
LINE
  5
2A0
330
2
100
AcDbEntity
  8
画層1
 62
     0
100
AcDbLine
 10
253.5
 20
224.4
 30
0.0
 11
255.4699999999999
 21
224.4
 31
0.0
  0
LINE
  5
2A1
330
2
100
AcDbEntity
  8
画層1
 62
     0
100
AcDbLine
 10
253.5
 20
227.7
 30
0.0
 11
257.6
 21
227.7
 31
0.0
  0
ARC
  5
2A2
330
2
100
AcDbEntity
  8
画層1
 62
     0
100
AcDbCircle
 10
253.6999999999999
 20
224.3
 30
0.0
 40
0.2
100
AcDbArc
 50
90.0
 51
180.0
  0
LINE
  5
2A3
330
2
100
AcDbEntity
  8
画層1
 62
     0
100
AcDbLine
 10
257.6
 20
227.7
 30
0.0
 11
257.6
 21
227.4999999999999
 31
0.0
  0
LINE
  5
2A4
330
2
100
AcDbEntity
  8
画層1
 62
     0
100
AcDbLine
 10
262.0
 20
226.8
 30
0.0
 11
262.0
 21
224.8
 31
0.0
  0
ARC
  5
2A5
330
2
100
AcDbEntity
  8
画層1
 62
     0
100
AcDbCircle
 10
261.6999999999999
 20
224.8
 30
0.0
 40
0.3
100
AcDbArc
 50
270.0
 51
0.0
  0
ARC
  5
2A6
330
2
100
AcDbEntity
  8
画層1
 62
     0
100
AcDbCircle
 10
261.2999999999999
 20
226.8
 30
0.0
 40
0.7
100
AcDbArc
 50
0.0
 51
90.0
  0
ENDSEC
  0
SECTION
  2
OBJECTS
  0
DICTIONARY
  5
9
330
0
100
AcDbDictionary
281
     1
  3
ACAD_GROUP
350
23
  3
ACAD_LAYOUT
350
D
  3
ACAD_MLINESTYLE
350
24
  3
ACAD_PLOTSETTINGS
350
25
  3
ACAD_PLOTSTYLENAME
350
8
  3
DWGPROPS
350
300
  0
DICTIONARY
  5
3
330
2
100
AcDbDictionary
280
     1
281
     1
  3
ACAD_LAYOUTSELFREF
360
4
  0
DICTIONARY
  5
F
330
E
100
AcDbDictionary
280
     1
281
     1
  3
ACAD_LAYOUTSELFREF
360
10
  0
DICTIONARY
  5
23
102
{ACAD_REACTORS
330
9
102
}
330
9
100
AcDbDictionary
281
     1
  0
DICTIONARY
  5
D
102
{ACAD_REACTORS
330
9
102
}
330
9
100
AcDbDictionary
281
     1
  3
Model
350
C
  3
ﾚｲｱｳﾄ1
350
13
  0
DICTIONARY
  5
24
102
{ACAD_REACTORS
330
9
102
}
330
9
100
AcDbDictionary
281
     1
  3
STANDARD
350
2E
  0
DICTIONARY
  5
25
102
{ACAD_REACTORS
330
9
102
}
330
9
100
AcDbDictionary
281
     1
  0
ACDBDICTIONARYWDFLT
  5
8
102
{ACAD_REACTORS
330
9
102
}
330
9
100
AcDbDictionary
281
     1
  3
Normal
350
7
100
AcDbDictionaryWithDefault
340
7
  0
XRECORD
  5
300
102
{ACAD_REACTORS
330
9
102
}
330
9
100
AcDbXrecord
280
     1
  1
DWGPROPS COOKIE
  2

  3

  4

  6

  7

  8

  9

300
=
301
=
302
=
303
=
304
=
305
=
306
=
307
=
308
=
309
=
 40
1.446743402777777
 41
2450995.462150231
 42
2451964.75014294
  1

 90
        0
  0
XRECORD
  5
4
102
{ACAD_REACTORS
330
3
102
}
330
3
100
AcDbXrecord
280
     1
340
2
  0
XRECORD
  5
10
102
{ACAD_REACTORS
330
F
102
}
330
F
100
AcDbXrecord
280
     1
340
E
  0
LAYOUT
  5
C
102
{ACAD_REACTORS
330
D
102
}
330
D
100
AcDbPlotSettings
  1

  2
Canon LASER SHOT LBP-740
  4
A3
  6

 40
5.87
 41
6.04
 42
5.87
 43
5.87
 44
296.93
 45
420.12
 46
0.0
 47
0.0
 48
0.0
 49
0.0
140
0.0
141
0.0
142
1.0
143
1.0
 70
 11952
 72
     1
 73
     1
 74
     2
  7
ryu.ctb
 75
    16
147
1.0
148
0.0
149
0.0
100
AcDbLayout
  1
Model
 70
     1
 71
     0
 10
0.0
 20
0.0
 11
12.0
 21
9.0
 12
0.0
 22
0.0
 32
0.0
 14
0.0
 24
0.0
 34
0.0
 15
0.0
 25
0.0
 35
0.0
146
0.0
 13
0.0
 23
0.0
 33
0.0
 16
1.0
 26
0.0
 36
0.0
 17
0.0
 27
1.0
 37
0.0
 76
     0
330
2
  0
LAYOUT
  5
13
102
{ACAD_REACTORS
330
D
102
}
330
D
100
AcDbPlotSettings
  1

  2
Canon LASER SHOT LBP-740
  4

  6

 40
0.0
 41
0.0
 42
0.0
 43
0.0
 44
0.0
 45
0.0
 46
0.0
 47
0.0
 48
0.0
 49
0.0
140
0.0
141
0.0
142
1.0
143
1.0
 70
   688
 72
     0
 73
     0
 74
     5
  7
ryu.ctb
 75
    16
147
1.0
148
0.0
149
0.0
100
AcDbLayout
  1
ﾚｲｱｳﾄ1
 70
     1
 71
     1
 10
0.0
 20
0.0
 11
420.0
 21
297.0
 12
0.0
 22
0.0
 32
0.0
 14
1.000000000000000E+20
 24
1.000000000000000E+20
 34
1.000000000000000E+20
 15
-1.000000000000000E+20
 25
-1.000000000000000E+20
 35
-1.000000000000000E+20
146
0.0
 13
0.0
 23
0.0
 33
0.0
 16
1.0
 26
0.0
 36
0.0
 17
0.0
 27
1.0
 37
0.0
 76
     0
330
E
  0
MLINESTYLE
  5
2E
102
{ACAD_REACTORS
330
24
102
}
330
24
100
AcDbMlineStyle
  2
STANDARD
 70
     0
  3

 62
   256
 51
90.0
 52
90.0
 71
     2
 49
0.5
 62
   256
  6
BYLAYER
 49
-0.5
 62
   256
  6
BYLAYER
  0
ACDBPLACEHOLDER
  5
7
102
{ACAD_REACTORS
330
8
102
}
330
8
  0
ENDSEC
  0
EOF
